<?xml version="1.0" standalone="no"?>
<!DOCTYPE svg PUBLIC "-//W3C//DTD SVG 1.1//EN" "http://www.w3.org/Graphics/SVG/1.1/DTD/svg11.dtd" >
<svg xmlns="http://www.w3.org/2000/svg">
<metadata></metadata>
<defs>
<font id="folks-lightregular" horiz-adv-x="0" >
<font-face units-per-em="2048" ascent="1638" descent="-410" />
<missing-glyph horiz-adv-x="522" />
<glyph horiz-adv-x="2048" />
<glyph horiz-adv-x="2048" />
<glyph horiz-adv-x="682" />
<glyph horiz-adv-x="649" d="M12 1321q0 -39 36 -67.5t86 -47t102.5 -27t85.5 -8.5q27 0 78 9.5t101 26t88 42t38 60.5q0 31 -13.5 52t-35.5 21q-4 0 -19 -10q-12 -6 -26.5 -14t-30.5 -19q-35 -16 -80 -31.5t-98 -15.5q-55 0 -102.5 15.5t-82.5 33.5q-16 10 -31.5 17.5t-25.5 15.5q-8 4 -12 7t-9 3 q-16 0 -32.5 -20.5t-16.5 -42.5z" />
<glyph />
<glyph horiz-adv-x="495" d="M102 1323q0 -57 42.5 -97t101.5 -40t103 39t44 98t-43 98t-102 39t-102.5 -39t-43.5 -98zM150 1323q0 41 29.5 68.5t68.5 27.5q41 0 68.5 -29.5t27.5 -68.5q0 -37 -26.5 -65.5t-67.5 -28.5t-70.5 25.5t-29.5 70.5z" />
<glyph unicode="&#xa;" horiz-adv-x="933" d="M133 414q6 -8 12.5 -15.5t14.5 -13.5l133 129q47 -37 89 -52.5t85 -15.5t85 15.5t89 50.5l127 -129q8 8 15.5 14t15.5 17l-127 127q35 47 49 90t14 86q0 86 -61 174l127 123q-8 10 -15.5 17t-15.5 16l-127 -129q-47 35 -89 50t-85 15q-45 0 -88 -14.5t-90 -48.5l-129 124 q-8 -8 -14.5 -15t-14.5 -17l129 -123q-35 -45 -50 -88t-15 -84q0 -86 67 -174zM246 715q0 45 17.5 85t47 69.5t69.5 47t85 17.5t85 -17.5t70.5 -47t48 -69.5t17.5 -85t-17.5 -85t-48 -70t-70.5 -47t-85 -17t-85 17t-69.5 47t-47 70t-17.5 85z" />
<glyph />
<glyph horiz-adv-x="624" d="M23 1339q0 -18 10 -34.5t26 -22.5l220 -86q8 -4 18 -7t20 -3t21.5 4t21.5 8l213 84q37 14 37 55q0 25 -18.5 43.5t-42.5 18.5q-14 0 -43 -9.5t-63.5 -25.5t-67.5 -30.5t-58 -24.5q-25 10 -58.5 24.5t-68.5 30.5q-37 16 -65.5 25.5t-42.5 9.5q-25 0 -42 -17.5t-17 -42.5z " />
<glyph unicode="&#xd;" horiz-adv-x="438" d="M156 -2h127v1003q0 25 -18.5 44.5t-41.5 19.5q-29 0 -48 -17.5t-19 -46.5v-1003z" />
<glyph horiz-adv-x="421" d="M-80 8q0 -43 35 -43q12 0 24.5 9.5t16.5 21.5l508 1409q2 6 2 18q0 49 -37 50q-29 0 -39 -27l-506 -1411q-4 -16 -4 -27z" />
<glyph horiz-adv-x="1116" d="M209 193q0 -18 14.5 -32t32.5 -14t31 13l272 270l264 -264q15 -14 35 -14t33.5 13t13.5 32q0 20 -14 32l-266 267l266 266q14 12 14 33q0 20 -13 33.5t-32 13.5q-18 0 -35 -17l-266 -264l-266 266l-66 -61l269 -268l-273 -273q-14 -14 -14 -32z" />
<glyph />
<glyph />
<glyph />
<glyph />
<glyph unicode=" "  horiz-adv-x="522" />
<glyph unicode="&#x09;" horiz-adv-x="522" />
<glyph unicode="&#xa0;" horiz-adv-x="522" />
<glyph unicode="!" horiz-adv-x="430" d="M129 55q0 -35 25.5 -58.5t60.5 -23.5t60.5 26t25.5 60q0 35 -25.5 59.5t-62.5 24.5q-35 0 -59.5 -25.5t-24.5 -62.5zM154 301l125 -2v1098q0 27 -19.5 46t-46.5 19q-25 0 -42 -18.5t-17 -44.5v-1098z" />
<glyph unicode="&#x22;" horiz-adv-x="587" d="M127 1014h84l37 416h-84zM340 1014h84l37 416h-84z" />
<glyph unicode="#" horiz-adv-x="1251" d="M100 494q0 -16 13.5 -29.5t29.5 -13.5h207q-2 -12 -9 -47t-16.5 -80t-19.5 -96.5t-18 -94.5t-14.5 -73.5t-6.5 -36.5q0 -16 11.5 -27.5t27.5 -11.5q20 0 34.5 13t18.5 32l88 426h236q-4 -20 -18.5 -87t-30 -140.5t-27.5 -135t-12 -74.5q0 -16 12 -25t27 -9q20 0 36.5 12 t20.5 33l86 420h213q25 0 44.5 17t19.5 44q0 16 -13.5 28.5t-29.5 12.5h-211l78 375h210q23 0 42.5 15t19.5 40q0 16 -12.5 28.5t-28.5 12.5h-211l92 418h-98l-90 -418h-234l92 418h-98l-92 -418h-201q-23 0 -42 -14.5t-19 -38.5q0 -18 11 -30.5t32 -12.5h199l-78 -375h-207 q-23 0 -43.5 -16.5t-20.5 -40.5zM467 551l80 375h233l-78 -375h-235z" />
<glyph unicode="$" horiz-adv-x="999" d="M74 123q25 -35 72 -61.5t103 -44t115.5 -25.5t108.5 -8v-134l35 -2v136q92 6 172 45t138.5 100t92 140t33.5 165q0 90 -37 154.5t-97 112t-139 80t-163 61.5v497q53 -10 97 -26.5t81 -32.5q18 -8 35.5 -15.5t32.5 -13.5q31 -12 39 -12q23 0 39 8t16 33q0 39 -39 70.5 t-92 52t-112.5 32t-98.5 11.5q0 31 3 58.5t-1 49.5q-2 23 -7 30t-14 7q-12 0 -14 -12t-2 -29q-2 -25 0 -52.5t2 -55.5q-78 0 -145.5 -32t-118.5 -82t-81 -114.5t-30 -132.5q0 -115 63.5 -192.5t168.5 -120.5q33 -14 66.5 -25.5t76.5 -29.5v-607h-45q-35 0 -72 9.5t-73.5 25 t-69.5 36t-59 42.5zM244 1100q0 84 65.5 150.5t163.5 82.5l2 -481q-49 18 -91 42t-72.5 53.5t-49 67.5t-18.5 85zM508 109v596q57 -18 109.5 -42t93.5 -57t65.5 -78t24.5 -106q0 -53 -22.5 -105.5t-61.5 -96.5t-92.5 -73.5t-116.5 -37.5z" />
<glyph unicode="%" horiz-adv-x="1519" d="M102 1128q0 -66 20.5 -125t59.5 -104t92 -71.5t121 -26.5q70 0 125 27.5t94 73.5t59.5 107.5t20.5 131.5q0 66 -20.5 124t-58 101t-92 68.5t-122.5 25.5q-70 0 -125 -26.5t-94 -71.5t-59.5 -105.5t-20.5 -128.5zM195 1130q0 43 11 88.5t35.5 84t63.5 63.5t94 25t93 -24 t62 -60.5t34 -80.5t10 -87q0 -41 -10 -88t-34 -88t-62.5 -68t-94.5 -27q-53 0 -92 26t-63.5 65.5t-35.5 85t-11 85.5zM401 -20l88 -37q16 39 49 116.5t76 181t93.5 223.5t101.5 241q55 135 107.5 260t92.5 222t63.5 158.5t23.5 67.5q0 20 -15.5 35.5t-36.5 15.5 q-33 0 -43 -28zM821 291q0 -68 20.5 -127.5t58.5 -103.5t93 -69.5t125 -25.5q68 0 123 25.5t94 69.5t60.5 103.5t21.5 127.5t-19.5 127t-57 103t-92 69.5t-124.5 25.5t-125 -25.5t-95 -69.5t-61.5 -103.5t-21.5 -126.5zM913 291q0 45 10.5 91t35 83t64.5 60.5t97 23.5 q59 0 98 -23.5t62 -60.5t32 -83t9 -89t-9 -89t-32 -84t-61.5 -62.5t-98.5 -24.5q-57 0 -96 23.5t-63.5 61.5t-36 84t-11.5 89z" />
<glyph unicode="&#x26;" horiz-adv-x="1396" d="M111 389q0 -94 35.5 -172t96 -134t142.5 -87t174 -31q131 0 252 67.5t211 190.5l233 -278l93 80l-244 294q23 31 56.5 75t66.5 91q35 49 57.5 92.5t22.5 67.5q0 29 -15.5 43t-38.5 14h-8q-31 -4 -65 -53q-16 -25 -31.5 -51.5t-26.5 -44.5q-18 -31 -39.5 -63.5 t-56.5 -79.5l-373 444q57 35 108.5 72t90.5 79t60.5 91t21.5 108q0 63 -26.5 112.5t-71.5 82.5t-103.5 49t-120.5 16q-63 0 -121.5 -17t-102.5 -52t-70.5 -85t-26.5 -116q0 -80 50 -159t124 -156q-78 -39 -142.5 -92.5t-111.5 -117t-73.5 -134t-26.5 -146.5zM250 410 q0 63 22.5 120.5t61.5 106.5t91.5 88t111.5 66l403 -476q-63 -98 -163.5 -163.5t-209.5 -65.5q-68 0 -126 25.5t-101 69.5t-66.5 102.5t-23.5 126.5zM422 1198q0 43 18.5 72.5t47 49t63 28t67.5 8.5q35 0 69 -12.5t59.5 -34t42 -52t16.5 -69.5q0 -72 -45 -120t-98 -83 q-16 -10 -36 -21.5t-48 -29.5q-27 39 -51.5 67.5t-47 57t-40 63.5t-17.5 76z" />
<glyph unicode="'" horiz-adv-x="374" d="M127 1014h84l37 416h-84z" />
<glyph unicode="(" horiz-adv-x="417" d="M127 735q0 -31 3 -104.5t11.5 -166.5t21.5 -193.5t31.5 -183.5t44 -137t58.5 -54q23 0 39 13t16 28q0 23 -4 44t-10 44q-6 25 -13.5 48t-13.5 46q-35 152 -55 306t-20 310q0 80 9 185.5t25.5 216t39 216t48.5 187.5l-108 16q-55 -205 -89 -407.5t-34 -413.5z" />
<glyph unicode=")" horiz-adv-x="417" d="M55 1546q29 -68 52.5 -179.5t40 -230t25.5 -229t9 -174.5q0 -156 -20.5 -309.5t-55.5 -304.5q-4 -20 -12 -43t-14 -45.5t-10 -44t-4 -39.5q0 -23 16 -37t39 -14q33 0 58.5 55t45 140t32.5 188.5t21.5 198.5t11.5 171t3 107q0 211 -38 411.5t-97 399.5z" />
<glyph unicode="*" horiz-adv-x="790" d="M90 1262q0 -31 25 -41l245 -105l-237 -100q-31 -14 -31 -47q0 -20 15.5 -35.5t35.5 -15.5q16 0 41 16t52 37q29 23 60.5 49.5t76.5 60.5l-25 -274h94l-24 274q45 -35 76.5 -61.5t60.5 -48.5q29 -20 52.5 -36.5t39.5 -16.5q20 0 35.5 15t15.5 36q0 33 -30 47l-238 100 l246 105q25 10 24 39q0 23 -16 40t-39 17q-14 0 -24 -10l-209 -164q10 94 21 158.5t11 117.5q0 16 -14 29.5t-35 13.5q-20 0 -34.5 -13t-14.5 -30q0 -53 11.5 -117.5t21.5 -158.5l-209 164q-10 10 -25 10q-23 0 -39 -16.5t-16 -38.5z" />
<glyph unicode="+" horiz-adv-x="1116" d="M117 635h395v-383q0 -18 13.5 -31.5t33.5 -13.5t33.5 13t13.5 30v383h373q20 0 34.5 14.5t14.5 32.5q0 16 -14.5 31.5t-32.5 15.5h-375v377q0 18 -13 32.5t-32 14.5q-20 0 -33.5 -13.5t-13.5 -35.5v-375h-397v-92z" />
<glyph unicode="," horiz-adv-x="380" d="M27 -211q0 -27 18 -46t45 -19q41 -1 57 36l172 349l-120 57l-166 -348q-6 -12 -6 -29z" />
<glyph unicode="-" horiz-adv-x="737" d="M113 633l2 -115h465q23 0 39 17.5t16 39.5q0 23 -16.5 40.5t-38.5 17.5h-467z" />
<glyph unicode="." horiz-adv-x="368" d="M10 57q0 -35 25.5 -59.5t60.5 -24.5t60.5 25t25.5 59q0 37 -25.5 61.5t-62.5 24.5q-35 0 -59.5 -25.5t-24.5 -60.5z" />
<glyph unicode="/" horiz-adv-x="833" d="M53 -25l86 -36l617 1554q4 16 4 27q0 20 -12.5 33.5t-30.5 13.5q-16 0 -30.5 -12.5t-20.5 -28.5z" />
<glyph unicode="0" horiz-adv-x="1116" d="M98 715q0 -76 9.5 -159t31 -165t56 -155.5t86 -130t120 -90t156.5 -33.5q135 0 224 73.5t141.5 185t74 242.5t21.5 246q0 113 -22.5 240t-77 233.5t-142.5 176t-219 69.5q-88 0 -156.5 -34t-120 -90t-86 -130t-56 -156t-31 -164.5t-9.5 -158.5zM242 715q0 47 5 110.5 t17 133t35 137t57.5 121t84.5 86t116 32.5q68 0 118 -32.5t85 -86t57.5 -121t34.5 -137t17 -133t5 -110.5q0 -49 -5 -113.5t-18 -134.5t-35.5 -136.5t-58.5 -119.5t-87.5 -86t-118.5 -33q-66 0 -114 33t-83 87t-56.5 121.5t-33.5 137.5t-17 133.5t-5 110.5z" />
<glyph unicode="1" horiz-adv-x="1116" d="M248 1370q0 -23 16.5 -39t40.5 -16h211v-1317l133 2v1360q0 29 -17.5 49.5t-43.5 20.5h-281q-25 0 -42 -17.5t-17 -42.5z" />
<glyph unicode="2" horiz-adv-x="1114" d="M137 1018q0 -43 14.5 -65.5t51.5 -22.5q33 0 49 31q6 8 6 24q2 8 2 14q0 8 2 19q8 59 27.5 115.5t53.5 99.5t85 68.5t125 25.5q49 0 93 -17.5t77 -48t52.5 -73.5t19.5 -94q0 -66 -38 -146t-87 -157.5t-101.5 -146.5t-87.5 -114l-297 -405q-12 -16 -21 -34.5t-9 -33.5 q0 -27 24.5 -42t59.5 -15h723v117h-631q88 117 156.5 211t134.5 184q43 59 98 129t104 145.5t81 152.5t32 155t-31 143.5t-82 112.5t-119.5 73.5t-144.5 26.5q-92 0 -170 -34t-134 -92t-87 -137t-31 -169z" />
<glyph unicode="3" horiz-adv-x="1114" d="M135 303q0 -20 5 -38.5t16 -41.5q47 -113 150.5 -178t225.5 -65q92 0 173 32.5t142.5 90t96.5 137t35 172.5q0 111 -67.5 206t-202.5 146q100 72 143 156t43 176q0 74 -26.5 138t-72.5 112.5t-109.5 76t-137.5 27.5q-119 0 -205 -60t-127 -171h4q8 -6 17 -9 q6 -4 23.5 -11t37.5 -17q10 -4 18.5 -9.5t12.5 -9.5q23 72 74 120t137 48q49 0 90 -21.5t69.5 -55t44 -77.5t15.5 -90q0 -68 -13.5 -112.5t-35 -74.5t-50 -47t-57.5 -28q-14 -4 -27.5 -8t-25.5 -8q-10 -4 -20.5 -6t-20.5 -6q-16 -8 -23.5 -17.5t-7.5 -25.5t8 -33 q4 -10 12.5 -16.5t18.5 -10.5q14 -4 28.5 -5t26.5 -3q121 -16 193 -87t72 -200q0 -66 -23.5 -120t-64.5 -94t-95.5 -61.5t-117.5 -21.5q-53 0 -92 13.5t-68 34t-49.5 46t-34.5 52.5q-8 14 -14.5 26.5t-12.5 24.5q-10 23 -22 39q-20 33 -47 33q-25 0 -43.5 -20.5t-18.5 -47.5 z" />
<glyph unicode="4" horiz-adv-x="1114" d="M76 438q0 -25 9 -36t24.5 -16t33.5 -5h37h561v-385h123v387h72q26 0 51 6q43 10 43 49q0 41 -43 51q-23 6 -47 7h-72v807q0 63 -33.5 105t-95.5 42q-35 0 -66.5 -18.5t-49.5 -49.5l-517 -872q-8 -14 -19 -34.5t-11 -37.5zM231 496l508 860v-860h-508z" />
<glyph unicode="5" horiz-adv-x="1116" d="M115 195q0 -29 24.5 -57.5t58 -52.5t69.5 -42t61 -27q47 -16 94 -26t94 -10q104 0 186 40.5t140.5 109.5t89.5 160t31 191q0 84 -27 162t-76 136.5t-119.5 93t-156.5 34.5q-41 0 -86 -10t-111 -39l72 457h475l16 115h-526q-27 0 -42 -2.5t-24.5 -10.5t-13.5 -22.5 t-8 -40.5l-78 -527l-4 -24t-2 -25q0 -16 15.5 -31.5t33.5 -15.5q8 0 16.5 2t20.5 6t24.5 10.5t26.5 12.5q29 10 63.5 21.5t73.5 11.5q70 0 124.5 -26t91 -71t55 -103t18.5 -122q0 -63 -18.5 -128.5t-56.5 -119t-95 -87.5t-133 -34q-66 0 -122 26t-99 54q-23 14 -40.5 28.5 t-33.5 25.5q-29 18 -37 18q-29 0 -47 -17.5t-18 -43.5z" />
<glyph unicode="6" horiz-adv-x="1114" d="M139 479q0 -96 27 -186t78 -161t128 -114t179 -43q98 0 177 39t134.5 104.5t84 151.5t28.5 183q0 88 -25.5 170t-75 143t-121 98t-163.5 37q-47 0 -103.5 -17.5t-150.5 -74.5q39 74 71.5 129t59.5 96t51.5 74t48.5 61q45 53 96.5 106.5t116.5 119.5q-23 12 -49 29.5 t-45 31.5q-20 -18 -39.5 -36.5t-40.5 -35.5q-25 -23 -47 -43t-43 -43q-76 -86 -144.5 -181t-119.5 -198.5t-82 -214t-31 -225.5zM279 457q0 61 14 121.5t47 109.5t85 80t128 31t130 -33t88 -85t49.5 -115.5t15.5 -125.5q0 -61 -16.5 -122.5t-50.5 -110.5t-88 -79t-128 -30 q-78 0 -130 34t-85 86t-46 115.5t-13 123.5z" />
<glyph unicode="7" horiz-adv-x="1116" d="M158 1311h678l-551 -1243q-4 -8 -4 -25q0 -27 18 -45t45 -18q20 0 36.5 11t25.5 27l575 1321q6 14 6 31q0 27 -18.5 42t-48.5 15l-762 3v-119z" />
<glyph unicode="8" horiz-adv-x="1116" d="M137 424q0 -94 30 -176t85 -142.5t132 -95.5t173 -35q94 0 172 35t133.5 95.5t86 142.5t30.5 176q0 59 -16.5 117.5t-51 107.5t-90 88t-133.5 62q111 61 167 147t56 174q0 74 -27.5 136.5t-74.5 107.5t-111.5 69.5t-138.5 24.5t-139.5 -24.5t-112.5 -69.5t-74.5 -107.5 t-27.5 -136.5q0 -94 53 -173t164 -150q-76 -23 -129 -61t-88 -88t-51.5 -107.5t-16.5 -116.5zM281 428q0 61 17 117.5t52 99.5t86 69.5t121 26.5q66 0 118 -25.5t88 -67.5t55.5 -97t19.5 -115q0 -59 -17.5 -119.5t-52.5 -109.5t-87 -80t-124 -31q-70 0 -121 30t-86 78 t-52 106.5t-17 117.5zM330 1110q0 49 16 92t45 77t71 53.5t95 19.5q51 0 93 -19.5t73 -52.5t48 -76t17 -92q0 -47 -16 -93t-46 -82t-72 -57.5t-95 -21.5t-96 21.5t-73 56.5t-45 81t-15 93z" />
<glyph unicode="9" horiz-adv-x="1114" d="M139 961q0 -86 27 -166t76 -140.5t119.5 -96.5t160.5 -36q49 0 104.5 18.5t147.5 75.5q-76 -152 -144.5 -251t-144.5 -179l-21.5 -21.5l-41.5 -41.5q-16 -16 -30.5 -29.5t-20.5 -21.5l94 -90q12 16 37 41q18 20 33.5 36.5t19.5 20.5q82 88 159 188.5t134 210t92 227 t35 240.5q0 96 -26.5 187.5t-79 162t-129 113.5t-179.5 43q-102 0 -181 -40t-132 -107.5t-81 -156.5t-28 -187zM279 985q0 61 16 122.5t50 111t87 80t129 30.5q72 0 124 -31.5t86 -82t50.5 -112t16.5 -118.5q0 -61 -13.5 -124.5t-45 -116t-85 -85t-133.5 -32.5 q-78 0 -131 32.5t-87 84t-49 116t-15 125.5z" />
<glyph unicode=":" horiz-adv-x="407" d="M129 57q0 -35 25.5 -59.5t60.5 -24.5t60.5 25t25.5 59q0 37 -25.5 61.5t-62.5 24.5q-35 0 -59.5 -25.5t-24.5 -60.5zM129 752q0 -35 25.5 -60.5t60.5 -25.5t61.5 25.5t26.5 60.5t-26.5 59.5t-61.5 24.5t-60.5 -25t-25.5 -59z" />
<glyph unicode=";" horiz-adv-x="438" d="M55 -211q0 -27 18.5 -46t45.5 -19q41 -1 57 36l162 330l-119 57l-158 -329q-6 -12 -6 -29zM162 758q0 -37 25.5 -60.5t62.5 -23.5q35 0 59.5 25.5t24.5 60.5t-24.5 58.5t-59.5 23.5q-37 0 -62.5 -23.5t-25.5 -60.5z" />
<glyph unicode="&#x3c;" horiz-adv-x="1067" d="M147 510l795 -449v95l-645 354l645 354v94z" />
<glyph unicode="=" horiz-adv-x="1114" d="M82 604q0 -20 13.5 -33.5t33.5 -13.5h850v92h-848q-20 0 -34.5 -13t-14.5 -32zM131 301h850q23 0 36 13.5t13 31.5t-14.5 31.5t-34.5 13.5h-848z" />
<glyph unicode="&#x3e;" horiz-adv-x="1067" d="M125 61l795 449l-795 448v-94l645 -354l-645 -354v-95z" />
<glyph unicode="?" horiz-adv-x="952" d="M68 1182q0 -35 16 -55.5t45 -20.5t45 20q8 12 14.5 27.5t10.5 30.5v4q37 86 104.5 118.5t149.5 32.5q51 0 98 -16t82 -48t55.5 -77t20.5 -100q0 -61 -16.5 -103.5t-42 -71t-58.5 -45t-66 -26.5q-31 -10 -60.5 -16.5t-51.5 -16.5q-23 -8 -30 -16t-7 -21v-483l125 -2v424 q164 27 259 127t95 254q0 86 -32.5 153.5t-90 113.5t-132.5 69.5t-159 23.5q-88 0 -170 -30.5t-137 -98.5q-29 -35 -48 -72.5t-19 -78.5zM356 51q0 -33 24.5 -56.5t59.5 -23.5t60.5 23.5t25.5 58.5q0 37 -24.5 60.5t-61.5 23.5t-60.5 -24.5t-23.5 -61.5z" />
<glyph unicode="@" horiz-adv-x="1576" d="M113 440q0 -145 57 -283.5t155.5 -246t230.5 -174t282 -66.5l-2 82q-35 0 -82 11.5t-82 23.5q-330 115 -420 453q-25 94 -25 194q0 135 45 258t128 217.5t199 150.5t257 56q119 0 214 -42t162.5 -114.5t103.5 -172t36 -214.5q0 -43 -6 -97t-19.5 -107.5t-35 -102.5 t-50 -81.5t-67.5 -68.5t-84 -36q-29 0 -47.5 12t-28.5 31.5t-14 43t-4 46.5q0 59 10 121.5t21 122.5q18 111 38.5 222.5t40.5 221.5h-98l-20 -121q-16 59 -69.5 95t-113.5 36q-94 0 -163.5 -57t-114.5 -142t-67.5 -180.5t-22.5 -171.5q0 -59 13 -120.5t43 -111.5t79 -82 t121 -32q33 0 66.5 12.5t61 34t49.5 50t32 61.5q-4 -39 9 -71.5t37.5 -55t58.5 -36t71 -13.5q98 0 168.5 60.5t117 148.5t68 188.5t21.5 177.5q0 137 -45.5 254t-128 202t-197.5 133t-252 48q-158 0 -293 -62.5t-233.5 -168t-154.5 -244.5t-56 -293zM571 322q0 55 12.5 140 t42 165t79 138t122.5 58q35 0 61.5 -15t44 -41t27 -56.5t9.5 -61.5q0 -33 -5.5 -87t-18.5 -115.5t-32.5 -124t-47 -113.5t-65.5 -83t-85 -32t-75 21.5t-43 55.5t-20.5 74t-5.5 77z" />
<glyph unicode="A" horiz-adv-x="1265" d="M43 41q0 -27 17.5 -44t43.5 -17q20 0 38 12t26 35l108 290h713l127 -333l133 39l-506 1327q-20 51 -42.5 73.5t-73.5 22.5q-41 0 -64.5 -26.5t-40.5 -69.5l-471 -1268q-8 -18 -8 -41zM309 428l324 893l321 -893h-645z" />
<glyph unicode="B" horiz-adv-x="1116" d="M154 0h460q90 0 168 30.5t134.5 85t89 130.5t32.5 168q0 66 -20.5 125t-65.5 105t-117.5 77t-175.5 39q80 31 130.5 65.5t80 72.5t40 81t10.5 92q0 82 -30 147.5t-81 112.5t-121 73t-149 26h-314q-72 0 -71 -64v-1366zM285 113v594h305q61 0 117.5 -22.5t98.5 -62.5 t67.5 -94.5t25.5 -117.5t-25.5 -117.5t-67.5 -94.5t-98.5 -62.5t-117.5 -22.5h-305zM287 803v512h227q51 0 100.5 -18.5t87 -51.5t60 -80t22.5 -102q0 -61 -25.5 -109.5t-67.5 -82t-94 -51t-105 -17.5h-205z" />
<glyph unicode="C" horiz-adv-x="1247" d="M98 700q0 -145 42 -276t123 -229.5t200 -156.5t270 -58q92 0 186.5 21.5t170.5 70.5q25 16 51 37.5t26 56.5q0 29 -16 47t-41 18q-10 0 -43 -18q-16 -10 -34.5 -21.5t-41.5 -23.5q-45 -27 -106.5 -47.5t-147.5 -20.5q-131 0 -225 54.5t-154.5 142.5t-89 197.5 t-28.5 220.5q0 104 26.5 212.5t85 197.5t149.5 146.5t218 57.5q59 0 106 -10t87 -30.5t77 -50.5t74 -67l74 68q-29 51 -78 90t-107.5 66.5t-121 42t-119.5 14.5q-158 0 -273.5 -61.5t-191.5 -166t-112 -240.5t-36 -284z" />
<glyph unicode="D" horiz-adv-x="1314" d="M154 63q0 -31 20.5 -47t54.5 -16h367q158 0 274.5 58.5t193.5 158.5t115 233.5t38 280.5q0 137 -41 264t-120 223.5t-192.5 154t-259.5 57.5h-239h-119q-57 0 -92 2v-1369zM285 115v1200h305q123 0 213 -51.5t150.5 -134t89 -187t28.5 -211.5q0 -113 -25.5 -223.5 t-83 -197.5t-149.5 -141t-227 -54h-301z" />
<glyph unicode="E" horiz-adv-x="915" d="M154 74q0 -35 17 -54.5t50 -19.5h639v117h-571v538h428q25 0 42 17.5t17 42.5t-17.5 41t-43.5 16h-426v541h448q27 0 44.5 16.5t17.5 42.5q0 23 -17.5 40.5t-42.5 17.5h-516h-35q-16 0 -32 2z" />
<glyph unicode="F" horiz-adv-x="843" d="M154 0h133v653h415q25 0 43.5 17.5t18.5 42.5q0 23 -18.5 40t-43.5 17h-411v545h485v117h-545q-35 0 -56 -18.5t-21 -51.5v-1362z" />
<glyph unicode="G" horiz-adv-x="1409" d="M98 702q0 -154 43 -286.5t127 -229t207 -151.5t283 -55q143 0 250.5 54t178 146t105.5 214t35 257q0 80 -21.5 113t-97.5 33h-297q-25 0 -44 -18.5t-19 -43.5t17.5 -41t43.5 -16h283q0 -109 -23.5 -213.5t-76 -186t-135.5 -133t-203 -51.5q-137 0 -234.5 52.5t-159 139.5 t-90 198.5t-28.5 230.5q0 111 28.5 221.5t89 199.5t154.5 145t225 56q70 0 121 -13t96 -36q23 -10 42.5 -23.5t41.5 -27.5q18 -10 37 -23.5t39 -25.5l76 96q-96 68 -199.5 115t-218.5 47q-164 0 -290 -57.5t-212 -156.5t-130 -235.5t-44 -294.5z" />
<glyph unicode="H" horiz-adv-x="1400" d="M154 0l131 -2v680h829v-633q0 -25 19.5 -44t44.5 -19q29 0 49 18t20 47v1385h-133v-644h-829v590q0 29 -18.5 48.5t-45.5 19.5q-29 0 -48 -19.5t-19 -48.5v-1378z" />
<glyph unicode="I" horiz-adv-x="438" d="M154 0h131v1378q0 29 -18.5 48.5t-45.5 19.5q-29 0 -48 -19.5t-19 -48.5v-1378zM166 1595q0 -20 14 -34.5t37 -14.5t37 14.5t14 36.5q0 20 -14 35t-37 15t-37 -14.5t-14 -37.5z" />
<glyph unicode="J" horiz-adv-x="751" d="M51 33q51 -25 105.5 -40.5t109.5 -15.5q80 0 141.5 29t104.5 80t64.5 118.5t21.5 145.5v1030q0 29 -18.5 48.5t-47.5 19.5t-47 -18.5t-18 -47.5v-1052q0 -49 -11.5 -94.5t-36 -80t-65.5 -55t-100 -20.5q-31 0 -55.5 8t-46.5 21q-16 8 -31 16t-31 16z" />
<glyph unicode="K" horiz-adv-x="1163" d="M154 0h133v737l743 -731q28 -24 57 -24q23 0 41.5 17t18.5 40q0 31 -25 53l-682 666l635 594l-92 84l-698 -660v606q0 29 -19.5 47.5t-48.5 18.5q-27 0 -45 -19.5t-18 -46.5v-1382z" />
<glyph unicode="L" horiz-adv-x="780" d="M154 80q0 -35 17 -58.5t50 -23.5l516 2l-2 119h-450v1261q0 29 -18.5 48.5t-45.5 19.5q-29 0 -48 -20.5t-19 -49.5v-1298z" />
<glyph unicode="M" horiz-adv-x="1748" d="M94 43q0 -27 17.5 -43t46.5 -16q59 0 69 63l193 1301l383 -1299h143l385 1299l197 -1354l131 22l-221 1338q-6 41 -39 66.5t-76 25.5q-80 0 -106 -88l-343 -1170l-339 1170q-27 88 -109 88q-43 0 -75 -25.5t-40 -66.5l-215 -1284q-2 -8 -2 -27z" />
<glyph unicode="N" horiz-adv-x="1392" d="M154 2l131 -2v1221l833 -1213q19 -28 56 -28q29 0 47 18t18 47v1333q0 29 -19.5 49.5t-48.5 20.5q-27 0 -45 -20.5t-18 -49.5l2 -1169l-834 1210q-18 29 -55 29q-29 0 -48 -19.5t-19 -48.5v-1378z" />
<glyph unicode="O" horiz-adv-x="1437" d="M98 717q0 -141 40 -274.5t119 -236t194.5 -163.5t267.5 -61q150 0 266.5 61t194 162.5t118.5 234.5t41 275q0 141 -39.5 273t-118.5 234.5t-195 164t-265 61.5q-152 0 -267.5 -60.5t-194.5 -162t-120 -233.5t-41 -275zM248 715q0 102 23.5 212.5t79 202t144.5 149.5 t218 58q137 0 229 -58t147.5 -151.5t79 -207t23.5 -224.5q0 -109 -26.5 -216t-84 -194t-148.5 -141.5t-220 -54.5t-218 59.5t-144.5 150.5t-79 201.5t-23.5 213.5z" />
<glyph unicode="P" horiz-adv-x="1099" d="M154 49q0 -29 19.5 -48t47.5 -19q27 0 45.5 19t18.5 48v504h303q94 0 177 31.5t144.5 89t96 138.5t34.5 177q0 23 -2 44.5t-6 43.5q-16 82 -57 147.5t-99.5 110.5t-132 70t-157.5 25q-106 0 -216 -4l-64 -2q-77 0 -152 8v-1383zM289 668v649h291q68 0 127 -25.5 t104 -69.5t70.5 -103.5t25.5 -127.5t-25.5 -126t-70.5 -102t-103.5 -69.5t-125.5 -25.5h-293z" />
<glyph unicode="Q" horiz-adv-x="1439" d="M98 717q0 -143 40 -275.5t119 -235t195.5 -163.5t268.5 -61q111 0 215 43t197 135l208 -209l80 84l-215 211q76 117 104.5 229.5t28.5 239.5q0 141 -41 273t-118.5 234.5t-193.5 164t-265 61.5q-152 0 -267.5 -60.5t-194.5 -162t-120 -233.5t-41 -275zM246 731 q0 102 25.5 210t82 196t144.5 144t215 56q129 0 220 -54t148.5 -142t84 -196.5t26.5 -217.5q0 -94 -15.5 -185t-62.5 -202q-33 31 -58.5 59.5t-54.5 55.5q-23 23 -45 40t-38 17q-23 0 -40.5 -17.5t-17.5 -39.5q0 -16 16.5 -41t45 -53.5t58.5 -55t58 -55.5 q-66 -82 -147.5 -121t-171.5 -39q-135 0 -226.5 59.5t-145.5 152.5t-77.5 207t-23.5 222z" />
<glyph unicode="R" horiz-adv-x="1091" d="M154 49q0 -29 19.5 -49t47.5 -20q27 0 46.5 19t19.5 46v643l655 -727l98 80l-585 612q4 0 27.5 -1t54 -2t38.5 -1q86 0 164 23.5t136.5 69.5t93.5 115t35 159q0 92 -33 169t-91.5 131t-137 84t-171.5 30q-105 0 -209 -4q-29 -1 -58 0q-75 0 -150 6v-1383zM287 748v563 h278q59 0 113.5 -22.5t96.5 -61.5t66.5 -92.5t24.5 -114.5q0 -57 -21.5 -106.5t-59 -86t-88 -58t-105.5 -21.5h-305z" />
<glyph unicode="S" horiz-adv-x="999" d="M27 104q47 -18 110.5 -39.5t129 -40t125 -30.5t100.5 -12q90 0 171.5 35.5t144 97t99.5 143.5t37 172q0 72 -28.5 130t-75.5 104.5t-107.5 81t-126.5 59.5q-25 10 -53.5 18t-56.5 19q-43 16 -88.5 37.5t-82 51.5t-59 71.5t-22.5 97.5q0 55 25.5 97t65.5 71.5t88 45 t93 15.5q53 0 95 -15.5t77 -31.5q16 -8 30.5 -16.5t29.5 -14.5q27 -12 45 -12q23 0 39 13.5t16 37.5q0 41 -39 71t-93 49.5t-109.5 28.5t-86.5 9q-82 0 -157.5 -26.5t-134 -75t-94.5 -117t-36 -152.5q0 -80 28 -136t74 -95t107.5 -66.5t126.5 -50.5q35 -10 66.5 -21.5 t62.5 -23.5q45 -16 87 -37.5t76 -51.5t54.5 -71t20.5 -96q0 -68 -25.5 -128t-69.5 -104t-103.5 -70t-127.5 -26q-72 0 -126 21.5t-118 46.5q-41 16 -83 31.5t-82 33.5z" />
<glyph unicode="T" horiz-adv-x="901" d="M55 1313h326v-1262q0 -29 19.5 -48t48.5 -19q27 0 45 19.5t18 47.5v1262h309q25 0 43.5 17.5t18.5 39.5q0 27 -16.5 43.5t-43.5 16.5h-768v-117z" />
<glyph unicode="U" horiz-adv-x="1398" d="M154 500q0 -119 41 -215.5t113.5 -164t172.5 -104t217 -36.5q119 0 219.5 36.5t173 104t113.5 164t41 215.5v876q0 29 -19.5 48.5t-45.5 19.5q-29 0 -47.5 -19.5t-18.5 -48.5v-878q0 -92 -30.5 -168t-85 -129.5t-130 -83t-168.5 -29.5q-92 0 -168.5 28.5t-132 83 t-85 130.5t-29.5 168v938h-131v-936z" />
<glyph unicode="V" horiz-adv-x="1163" d="M23 1397l485 -1342q14 -39 27.5 -55t46.5 -16t46 16t27 55l463 1291q6 18 6 36q0 27 -18.5 45.5t-46.5 18.5q-43 0 -64 -55l-411 -1198l-437 1249z" />
<glyph unicode="W" horiz-adv-x="1705" d="M57 1419l240 -1347q16 -90 113 -90q41 0 69.5 19t38.5 56l334 1198l336 -1198q10 -37 38.5 -56t69.5 -19q94 0 111 90l231 1286q2 6 2 22q0 31 -18 49.5t-51 18.5q-27 0 -43.5 -18.5t-20.5 -49.5l-213 -1296l-368 1292h-146l-368 -1292l-226 1358z" />
<glyph unicode="X" horiz-adv-x="1226" d="M43 43q0 -25 19.5 -43t46.5 -18q33 0 57 34l446 650l449 -650q24 -34 57 -34q27 0 45.5 17t18.5 42q0 23 -17 49l-475 678l406 573q16 23 16 41q0 27 -20.5 45.5t-47.5 18.5q-16 0 -31.5 -11.5t-27.5 -27.5l-373 -547l-391 578l-110 -68l424 -602l-476 -678 q-16 -27 -16 -47z" />
<glyph unicode="Y" horiz-adv-x="1036" d="M27 1376q0 -4 2 -6l422 -694v-625q0 -29 19 -49t48 -20t48.5 20.5t19.5 48.5v625l409 672q12 20 13 38q0 25 -18.5 41.5t-45.5 16.5q-39 0 -61 -35l-365 -604l-381 643z" />
<glyph unicode="Z" horiz-adv-x="1179" d="M88 78q0 -43 33 -60.5t82 -17.5h827q29 0 49.5 17.5t20.5 39.5q0 23 -20.5 40.5t-49.5 17.5h-788l796 1194q12 20 21.5 37.5t9.5 33.5q0 33 -47 43q-25 6 -49 7h-49h-809v-111h778l-789 -1190q-16 -27 -16 -51z" />
<glyph unicode="[" horiz-adv-x="468" d="M129 -29q0 -23 16.5 -41t36.5 -18h166q23 0 38 15.5t15 37.5q0 39 -34 45q-18 6 -43 6h-68v1397h111v105h-185q-20 0 -36.5 -18.5t-16.5 -41.5v-1487z" />
<glyph unicode="\" horiz-adv-x="591" d="M129 1430l250 -1430h84l-250 1430h-84z" />
<glyph unicode="]" horiz-adv-x="468" d="M106 1464q0 -39 35 -45q18 -6 43 -6h68v-1397h-111v-104h185q20 0 36.5 18.5t16.5 40.5v1487q0 23 -16.5 41.5t-36.5 18.5h-166q-23 0 -38.5 -15.5t-15.5 -38.5z" />
<glyph unicode="^" horiz-adv-x="1181" d="M141 356h95l354 645l354 -645h96l-450 795z" />
<glyph unicode="_" horiz-adv-x="942" d="M102 -389v-55h738v55h-738z" />
<glyph unicode="`" horiz-adv-x="450" d="M16 1356q0 -43 41 -60l332 -129l41 109l-330 131q-16 4 -26 4q-25 0 -41.5 -16.5t-16.5 -38.5z" />
<glyph unicode="a" horiz-adv-x="1161" d="M96 526q0 -104 30 -201.5t87 -174t141 -122.5t195 -46q90 0 171 49t159 178v-217h129v1009q0 25 -18.5 44.5t-41.5 19.5q-31 0 -43 -9t-16 -24q-4 -12 -8 -39v-114q-84 104 -165 145t-167 41q-106 0 -190.5 -46t-142.5 -122t-89 -173t-31 -198zM236 528q0 72 17 149 t57 139.5t103.5 103.5t155.5 41q94 0 154.5 -39t96.5 -99.5t50.5 -135.5t14.5 -146q0 -76 -13.5 -157t-48.5 -146.5t-99.5 -108.5t-164.5 -43q-92 0 -154.5 42t-100.5 107.5t-53 143.5t-15 149z" />
<glyph unicode="b" horiz-adv-x="1157" d="M154 45q0 -29 19.5 -48.5t45.5 -19.5q27 0 39 11.5t16 29.5q2 10 3.5 21.5t1.5 26.5v129q78 -125 158.5 -171.5t170.5 -46.5q113 0 198 46.5t141.5 123t84 177t27.5 206.5q0 100 -29 195.5t-84 171.5t-137 122t-188 46q-88 0 -171 -45t-165 -156v658h-131v-1477zM279 518 q0 72 14 148.5t50 141t97.5 105.5t157.5 41q92 0 154.5 -40t99.5 -103t53.5 -139t16.5 -148q0 -68 -15.5 -144.5t-51.5 -141t-96.5 -106.5t-150.5 -42q-96 0 -159.5 38t-101.5 99.5t-53 137t-15 153.5z" />
<glyph unicode="c" horiz-adv-x="921" d="M98 520q0 -109 31 -206t91.5 -170.5t147.5 -116.5t199 -43q29 0 75 4t90 16t76 37t32 65q0 23 -17.5 39.5t-40.5 16.5q-12 0 -34 -8q-12 -4 -25.5 -10.5t-28.5 -12.5q-29 -12 -61.5 -22.5t-67.5 -10.5q-84 0 -145.5 42t-101 106.5t-59 139.5t-19.5 142q0 74 18 149 t59 136t105.5 99t155.5 38q59 0 115.5 -22t109.5 -51l59 104q-72 41 -135 62.5t-149 21.5q-115 0 -204 -44t-150.5 -119t-93.5 -173t-32 -209z" />
<glyph unicode="d" horiz-adv-x="1163" d="M98 520q0 -98 30 -193.5t86 -172t137 -123.5t186 -47q92 0 177 50t165 177v-133q0 -31 6 -51q4 -20 17 -32.5t44 -12.5q27 0 45.5 18t18.5 45v1477h-129v-682q-78 129 -157 177t-167 48q-111 0 -196 -46t-143 -122t-89 -174t-31 -203zM236 528q0 70 18 145t58 136 t102.5 100t150.5 39q98 0 160.5 -43t96.5 -109.5t46.5 -145.5t12.5 -150q0 -74 -17.5 -144.5t-56.5 -128t-101.5 -92.5t-150.5 -35q-90 0 -150.5 41t-98.5 103.5t-54 138.5t-16 145z" />
<glyph unicode="e" horiz-adv-x="1101" d="M98 526q0 -111 33 -210t95.5 -173.5t152.5 -118.5t207 -44q68 0 124 14t119 39l-28 96q-51 -14 -103.5 -25.5t-105.5 -11.5q-76 0 -139.5 30t-109.5 82t-71.5 122.5t-25.5 150.5h686q51 0 68.5 13.5t17.5 60.5q0 98 -32 190.5t-90 164t-141 114.5t-184 43 q-109 0 -195.5 -45t-148 -119t-95.5 -171t-34 -202zM238 567q10 74 31.5 145.5t60.5 127t96 89.5t141 34q74 0 135.5 -35t104.5 -91.5t67.5 -127t26.5 -142.5h-663z" />
<glyph unicode="f" horiz-adv-x="518" d="M23 997q0 -29 11 -40t32 -15q10 -4 22 -4h29q14 0 31.5 1t46.5 1v-1376h129v1376q29 0 46 -1t33 -1t33 -1t33 3q63 6 63 53q0 27 -16 39t-47 17q-16 4 -32.5 3t-33.5 -1q-16 0 -33.5 -1t-45.5 -1v305q0 49 35.5 66.5t66.5 17.5h43q25 0 43 6q16 4 24.5 14t8.5 35 t-23.5 41t-56.5 16h-78q-90 0 -142 -58t-52 -149v-294q-29 0 -44.5 1t-29.5 1h-29q-12 0 -22 -4q-23 -4 -34 -14.5t-11 -35.5z" />
<glyph unicode="g" horiz-adv-x="1157" d="M98 500q0 -102 29 -197.5t85 -169.5t139 -118t190 -44q92 0 174 46t153 163q10 -57 11.5 -75.5t1.5 -30.5q0 -84 -20.5 -161t-63.5 -135.5t-112 -92t-167 -33.5q-55 0 -110 12q-4 -29 -6.5 -58.5t-2.5 -58.5q27 -6 54.5 -8t56.5 -2q104 0 194.5 37t157 102.5t104.5 154.5 t38 194v974q0 25 -18.5 45.5t-41.5 20.5q-29 0 -41 -11.5t-16 -27.5q-4 -10 -4 -22v-25v-125q-82 117 -165 163t-171 46q-111 0 -195 -49t-140 -129t-85 -181.5t-29 -203.5zM236 524q0 74 17 150t57 137t103.5 100t155.5 39q76 0 148 -39q59 -33 92 -80t49 -101t19.5 -111.5 t3.5 -112.5q0 -66 -15.5 -139.5t-52.5 -136t-95.5 -103.5t-144.5 -41q-96 0 -160.5 41t-104.5 104.5t-56 141.5t-16 151z" />
<glyph unicode="h" horiz-adv-x="1122" d="M154 -4h127v678q0 57 22.5 108.5t60 90t89 61t108.5 22.5q59 0 110.5 -22.5t89.5 -62.5t59.5 -92t21.5 -109v-629q0 -27 17 -45.5t44 -18.5q29 0 47.5 18.5t18.5 47.5v627q0 84 -25.5 156.5t-75 125t-118 82t-154.5 29.5q-80 0 -158 -42t-155 -151v611q0 27 -18.5 46 t-45.5 19t-46 -19.5t-19 -47.5v-1483z" />
<glyph unicode="i" horiz-adv-x="438" d="M156 -2h127v1003q0 25 -18.5 44.5t-41.5 19.5q-29 0 -48 -17.5t-19 -46.5v-1003zM166 1329q0 -20 14 -34.5t37 -14.5t37 14.5t14 36.5q0 20 -14 34.5t-37 14.5t-37 -14t-14 -37z" />
<glyph unicode="j" horiz-adv-x="434" d="M154 -434h127v1435q0 27 -19.5 47.5t-46.5 20.5t-44 -20.5t-17 -49.5v-1433zM166 1329q0 -20 14 -34.5t37 -14.5t37 14.5t14 36.5q0 20 -14 34.5t-37 14.5t-37 -14t-14 -37z" />
<glyph unicode="k" horiz-adv-x="952" d="M154 2l127 -2v557l553 -565l98 76l-543 536l449 350q30 24 30 52q0 25 -16 42t-39 17q-27 0 -57 -27l-473 -391v838q0 29 -18.5 48t-45.5 19t-46 -19.5t-19 -45.5v-1485z" />
<glyph unicode="l" horiz-adv-x="434" d="M154 -4l127 2v1487q0 29 -17.5 48t-46.5 19t-46 -19.5t-17 -47.5v-1489z" />
<glyph unicode="m" horiz-adv-x="1732" d="M154 0h129v700q0 53 20.5 100.5t55 83.5t82.5 56.5t102 20.5q55 0 103 -20.5t84 -56.5t56.5 -83t20.5 -103v-698h125v698q0 53 20.5 101.5t56 84.5t84 56.5t101.5 20.5q55 0 102 -20.5t82 -56.5t54.5 -84t19.5 -102v-651q0 -27 18.5 -46t45.5 -19t45 19t18 46v658 q0 166 -99.5 262t-265.5 96q-98 0 -184 -49t-149 -166q-51 117 -133 168t-175 51q-37 0 -73.5 -6t-73.5 -23.5t-74 -50.5t-73 -86v49v27q0 8 -1.5 12t-1.5 10q0 23 -6 35q-4 14 -15 22.5t-36 8.5q-27 0 -46 -19.5t-19 -46.5v-999z" />
<glyph unicode="n" horiz-adv-x="1122" d="M154 -2h127v676q0 57 21.5 108.5t59 90t88 61t109.5 22.5q57 0 109.5 -22.5t90.5 -62.5t60.5 -92t22.5 -109v-629q0 -27 17 -45.5t44 -18.5q29 0 47.5 18.5t18.5 47.5v629q0 86 -27 157.5t-76 124t-118.5 81t-155.5 28.5q-39 0 -79 -7t-79 -25.5t-78 -52.5t-75 -89v102 q0 23 -7 41q-4 16 -15 25.5t-38 9.5q-29 0 -48 -18.5t-19 -47.5v-1003z" />
<glyph unicode="o" horiz-adv-x="1120" d="M98 526q0 -104 31 -203.5t90.5 -176t145 -123t196.5 -46.5q109 0 194 47.5t144 124t90 175t31 200.5t-32 199.5t-91 173.5t-144 122t-194 46t-193.5 -46t-144 -121t-91.5 -172t-32 -200zM238 524q0 68 17 143.5t55 140t98.5 106.5t148.5 42q90 0 152.5 -41t100.5 -103 t55.5 -139t17.5 -147q0 -72 -16.5 -148.5t-55.5 -141t-101.5 -106.5t-154.5 -42q-88 0 -148.5 43t-98.5 107.5t-54 141.5t-16 144z" />
<glyph unicode="p" horiz-adv-x="1159" d="M154 -434h127v616q82 -113 164.5 -157.5t168.5 -44.5q111 0 194 48t139.5 125.5t85 178t28.5 203.5q0 98 -30 194t-86 171t-138 121t-186 46q-92 0 -177.5 -49t-164.5 -172v131q0 14 -1.5 25.5t-3.5 21.5q-6 18 -18 29.5t-43 11.5q-23 0 -41 -20.5t-18 -47.5v-1431z M272 514q0 57 6.5 114.5t25 112t53 99.5t94.5 78q35 18 73.5 29t79.5 11q88 0 149.5 -43t99.5 -108.5t54.5 -142t16.5 -144.5q0 -72 -18.5 -146.5t-57.5 -138t-101.5 -103.5t-150.5 -40q-90 0 -151.5 39t-100.5 100.5t-55.5 136t-16.5 146.5z" />
<glyph unicode="q" horiz-adv-x="1161" d="M98 543q0 -98 31 -194.5t87 -172.5t139 -123t188 -47q88 0 171 45t165 160v-623h129v1434q0 27 -18.5 46t-43.5 19q-33 0 -45 -10t-16 -26q-6 -18 -6 -45v-127q-82 117 -165 162.5t-173 45.5q-106 0 -189.5 -48t-139.5 -124.5t-85 -174t-29 -197.5zM236 553 q0 70 16 145.5t54 138t100.5 102.5t152.5 40q61 0 116.5 -23.5t98.5 -64.5q39 -37 60.5 -82t33 -93t14.5 -97.5t3 -96.5q0 -74 -17.5 -146.5t-56.5 -131t-101.5 -94t-152.5 -35.5t-151.5 43t-99.5 107.5t-54 141t-16 146.5z" />
<glyph unicode="r" horiz-adv-x="559" d="M154 -4l129 2v543q0 80 13 138t36.5 99t52.5 67.5t59 45.5q29 16 54.5 27.5t48.5 25.5q37 20 37 51t-22.5 51.5t-55.5 19.5q-29 0 -58.5 -12t-59.5 -44.5t-60.5 -90t-61.5 -149.5q6 78 9.5 120t5.5 63.5t3 31.5t1 23q0 23 -19.5 38t-46.5 15q-29 0 -47 -18.5t-18 -45.5 v-1001z" />
<glyph unicode="s" horiz-adv-x="913" d="M78 133q31 -37 76 -64.5t95 -46t102.5 -28.5t99.5 -10q68 0 135 19.5t122.5 56t89 92t33.5 127.5q0 92 -52 150t-126.5 100t-158.5 72t-146 63q-41 23 -72.5 51t-31.5 73t19.5 77t50 52.5t67.5 29.5t72 9q57 0 105 -18t85 -39q18 -10 34.5 -19.5t33.5 -15.5 q27 -14 39 -14q23 0 39 10t16 33q0 43 -42 74.5t-98.5 53t-114.5 33t-91 11.5q-63 0 -126 -18.5t-112 -54.5t-79.5 -87t-30.5 -117q0 -55 22.5 -96t60 -72.5t89 -56t106.5 -47.5q29 -10 55.5 -20.5t53.5 -20.5q29 -10 52 -22.5t46 -24.5q43 -27 72.5 -61.5t29.5 -87.5 q0 -47 -23.5 -83t-58 -58.5t-75.5 -34t-78 -11.5q-55 0 -97 11.5t-79 31.5q-35 18 -70 45q-14 10 -27.5 20.5t-29.5 20.5z" />
<glyph unicode="t" horiz-adv-x="507" d="M29 993q0 -23 11 -34t32 -15q12 -4 24 -4h27h74v-940h127v940h43q16 0 30 -2q14 0 28 1t26 3q23 6 35 17.5t12 33.5q0 25 -12.5 37t-34.5 17q-12 2 -25.5 3t-28.5 1q-16 0 -31.5 -1t-43.5 -1l2 268q0 29 -19.5 50.5t-46.5 21.5t-45 -21.5t-18 -50.5v-268h-74h-27 q-12 0 -22 -5q-23 -4 -33 -15t-10 -36z" />
<glyph unicode="u" horiz-adv-x="1126" d="M154 383q0 -199 105 -300t304 -101t304.5 101t105.5 300v614q0 29 -17.5 48.5t-46.5 19.5q-27 0 -45 -18.5t-18 -47.5v-612q0 -137 -68.5 -217t-214.5 -80q-145 0 -212.5 81t-67.5 216v639l-129 -2v-641z" />
<glyph unicode="v" horiz-adv-x="886" d="M27 1018l348 -983q18 -53 71 -53q47 0 68 53q6 18 24.5 68.5t43 119t54 151.5t60.5 167q31 86 57.5 164.5t48 141t34 102.5t12.5 48q0 27 -19.5 46.5t-46.5 19.5q-43 0 -59 -47l-277 -834l-299 875z" />
<glyph unicode="w" horiz-adv-x="1558" d="M35 1016l319 -957q12 -37 30.5 -57t53.5 -20q33 0 51.5 18t28.5 53l262 824l260 -824q10 -35 28.5 -53t51.5 -18q35 0 52.5 20.5t31.5 58.5l312 916q4 16 4 24q0 27 -19.5 45.5t-48.5 18.5q-23 0 -41 -13.5t-25 -33.5l-268 -854l-258 813h-160l-260 -815l-278 895z" />
<glyph unicode="x" horiz-adv-x="974" d="M43 43q0 -23 18.5 -41t42.5 -18q35 0 62 36l321 447l322 -447q26 -36 61 -36q25 0 43.5 18t18.5 41q0 25 -17 47l-350 469l307 402q16 20 17 45q0 23 -18.5 41t-43.5 18q-31 0 -61 -41l-279 -373l-303 404l-104 -68l330 -428l-351 -469q-16 -23 -16 -47z" />
<glyph unicode="y" horiz-adv-x="886" d="M33 1004l348 -992q-12 -31 -37 -90t-49 -125q-27 -68 -44.5 -121t-17.5 -69q0 -25 18.5 -42.5t47.5 -17.5q23 0 38 16.5t25 45.5q8 25 34 96.5t62 171.5t79 220t86 243q43 125 84 240.5t71.5 207t49 149.5t18.5 67q0 25 -18.5 43t-47.5 18q-23 0 -39 -15.5t-24 -39.5 l-271 -832l-288 864z" />
<glyph unicode="z" horiz-adv-x="923" d="M78 53q0 -53 57 -53h662q29 0 48 16.5t19 40.5q0 23 -19.5 39.5t-47.5 16.5h-545l575 845q14 20 15 39q0 51 -58 52h-684v-113h564l-574 -844q-12 -18 -12 -39z" />
<glyph unicode="{" horiz-adv-x="657" d="M176 715q76 -45 76 -146v-686q0 -59 38 -85.5t99 -26.5h109v30q-37 0 -63.5 6.5t-45 21.5t-27 44t-8.5 76v606q0 27 -20.5 54.5t-45 51t-44.5 39.5l-21 15l21 15q20 15 44.5 39t45 51.5t20.5 53.5v607q0 88 34 116.5t77 30.5h35h24q8 2 8 10q0 14 -4 17.5t-8 3.5h-131 q-61 0 -99 -26.5t-38 -86.5v-686q0 -45 -19.5 -84t-56.5 -61z" />
<glyph unicode="|" horiz-adv-x="333" d="M125 0h84v1430h-84v-1430z" />
<glyph unicode="}" horiz-adv-x="657" d="M125 1645q0 -14 10 -17h23h35q20 0 40.5 -6t36 -22.5t24.5 -45t9 -73.5v-607q0 -27 20.5 -54t46 -51t46.5 -39l20 -15l-20 -15q-21 -16 -46.5 -39.5t-46 -51t-20.5 -54.5v-606q0 -47 -8 -76t-25.5 -44t-45 -21.5t-64.5 -6.5v-30h110q61 0 98.5 26.5t37.5 85.5v686 q0 47 20 85t55 61q-37 23 -56 61.5t-19 83.5v686q0 59 -37 86t-99 27h-133q-12 0 -12 -14z" />
<glyph unicode="~" horiz-adv-x="940" d="M125 598h59q4 41 26.5 78t72.5 37q51 0 98 -18.5t94 -41t90 -38t88 -15.5q41 0 72 17.5t51.5 46t29.5 67.5t9 80h-59q-6 -41 -28.5 -78t-72.5 -37q-51 0 -98 18.5t-92 41.5q-47 23 -90 39t-88 16q-41 0 -72 -17.5t-51.5 -47t-29.5 -68.5t-9 -80z" />
<glyph unicode="&#xa1;" horiz-adv-x="430" d="M129 1378q0 -37 23.5 -62.5t60.5 -25.5q39 0 63.5 23.5t24.5 60.5q0 35 -25.5 60.5t-60.5 25.5t-60.5 -23.5t-25.5 -58.5zM154 35q0 -27 17 -45.5t42 -18.5q27 0 46.5 19.5t19.5 46.5v989l-125 -2v-989z" />
<glyph unicode="&#xa2;" horiz-adv-x="921" d="M96 528q0 -90 23.5 -180t73 -166t124 -127t177.5 -63q0 -35 -2.5 -57.5t-2.5 -43.5q0 -8 -1 -19t0 -21.5t6.5 -17.5t15.5 -7q20 0 19 23.5t-1 37.5q0 18 -2 41t-2 60q31 -2 70 5t79 19.5t79 27.5t67 28l-43 90l-18 -8q-19 -7 -41.5 -15t-43 -15t-24.5 -7l-18 -4 q-10 -4 -23 -5h-14q-14 0 -28.5 1t-41.5 8v833q27 4 40.5 5t23.5 1q25 0 47 -5t45 -13q18 -6 37.5 -14.5t38.5 -18.5q18 -8 32 -8q23 0 40.5 20.5t17.5 42.5q0 33 -30 54.5t-70.5 35t-82.5 18.5t-67 5h-27q-14 0 -45 -4q0 41 2 63.5t2 42.5q0 16 1 39t-19 23q-10 0 -15.5 -7 t-7.5 -17.5t-1 -20.5t1 -19q0 -23 3.5 -47t3.5 -61q-96 -16 -170 -69.5t-125.5 -127t-77 -162t-25.5 -174.5zM242 541q0 55 12 114.5t41 114.5t77 100t122 70v-825q-76 37 -124 84t-77 102t-40 115.5t-11 124.5z" />
<glyph unicode="&#xa3;" horiz-adv-x="1220" d="M82 715q0 -23 18.5 -40.5t44.5 -17.5h232q10 -41 14 -72.5t4 -62.5q0 -98 -38 -174t-85 -133q-23 -29 -44 -52.5t-38 -43.5q-31 -39 -30 -56q0 -27 19 -45t46 -18h891l-2 119h-760q106 92 141 198.5t35 202.5q0 29 -5 59.5t-13 79.5h285v117h-314q-20 41 -38.5 78 t-34.5 74q-16 39 -27.5 77.5t-11.5 79.5q0 61 23.5 108.5t63.5 80.5t90 49t105 16q201 0 301 -180q6 -10 11.5 -22.5t9.5 -24.5q6 -12 11 -22.5t9 -18.5q18 -23 45 -22q31 0 49.5 20.5t18.5 52.5q0 49 -32 101.5t-66 93.5q-66 76 -163 112.5t-198 36.5q-80 0 -155.5 -23.5 t-133 -67.5t-92.5 -109.5t-35 -149.5q0 -86 31 -162.5t84 -179.5h-203q-27 0 -45 -17.5t-18 -41.5z" />
<glyph unicode="&#xa5;" horiz-adv-x="1183" d="M102 1386q0 -23 11 -38l333 -551l-272 -2l-2 -54l309 2l39 -67l6 -70h-354v-55l350 2l-2 -557h135v557l355 2q12 0 20 8t8 19q0 27 -28 26h-355v68l41 67l312 2q12 0 21 8.5t9 18.5q0 27 -30 27h-275l336 549q12 20 12 38q0 25 -18.5 41.5t-44.5 16.5q-39 0 -62 -35 l-364 -604l-365 604q-23 35 -63 35q-25 0 -43.5 -17.5t-18.5 -40.5z" />
<glyph unicode="&#xa6;" horiz-adv-x="1325" d="M240 1270q0 -37 24.5 -60.5t63.5 -23.5q35 0 58.5 25.5t23.5 60.5t-24 59.5t-58 24.5q-39 0 -63.5 -24.5t-24.5 -61.5zM264 -199q0 -18 10.5 -34.5t26.5 -22.5l219 -86q8 -4 18.5 -7t18.5 -3q10 0 22.5 4t22.5 8l213 84q35 16 35 55q0 25 -17.5 43.5t-44.5 18.5 q-14 0 -42.5 -9.5t-63.5 -25.5q-35 -14 -66.5 -29.5t-56.5 -25.5q-25 10 -58.5 24.5t-68.5 30.5q-37 16 -66.5 25.5t-41.5 9.5q-25 0 -42.5 -17.5t-17.5 -42.5zM317 1274q0 23 23 22q22 1 22 -22t-22 -23q-23 0 -23 23zM481 -2h127v1003q0 25 -18.5 44.5t-40.5 19.5 q-29 0 -48.5 -17.5t-19.5 -46.5v-1003zM633 1270q0 -35 23.5 -59.5t58.5 -24.5q37 0 62.5 23.5t25.5 60.5t-25.5 61.5t-62.5 24.5q-35 0 -58.5 -25.5t-23.5 -60.5zM655 526q0 -10 12.5 -29.5t18.5 -29.5l174 -301q10 -18 25.5 -30.5t32.5 -12.5q18 0 33.5 15.5t15.5 33.5 t-17 45l-186 305l188 305q12 18 13 43q0 51 -45 52q-16 0 -34 -11.5t-28 -27.5l-182 -312q-4 -8 -12.5 -21t-8.5 -24zM715 1260q0 23 22 22q23 1 23 -22t-23 -23t-22 23z" />
<glyph unicode="&#xa7;" horiz-adv-x="1169" d="M86 559q0 -86 29.5 -149.5t79 -111.5t113 -84t132.5 -67q35 -16 69 -29.5t66 -27.5q72 -33 121 -61q53 -35 90 -78t37 -107q0 -55 -28.5 -91t-71.5 -56.5t-93 -28.5t-93 -8q-68 0 -113 11.5t-73.5 32t-46 45t-25.5 52.5q-4 12 -6.5 24.5t-6.5 23t-6 19.5t-6 17 q-4 14 -12.5 20.5t-26.5 6.5q-33 0 -52.5 -23.5t-19.5 -58.5q0 -74 37 -128t94.5 -90t129 -53.5t139.5 -17.5q78 0 153.5 17.5t134 55.5t94.5 97.5t36 143.5q0 68 -37 132.5t-119 121.5q127 51 200.5 143t73.5 197q0 78 -30.5 137t-82 105t-118 83t-137.5 70 q-35 16 -71 30.5t-70.5 31t-65.5 32.5t-60 35q-55 35 -92 80t-37 108q0 57 28 93t70 57.5t89 30t84 8.5q78 0 129 -11.5t89 -36t70.5 -65.5t73.5 -102l92 63q-45 74 -83.5 124t-85 82t-108 46t-153.5 14q-82 0 -159.5 -14t-139 -50t-98.5 -95.5t-37 -149.5q0 -68 34 -132.5 t112 -117.5q-104 -61 -170 -155.5t-66 -190.5zM203 551q0 45 18.5 89t49 83t69.5 70.5t78 52.5l330 -162q35 -16 70.5 -38.5t64 -53.5t47 -69t18.5 -87q0 -53 -25.5 -95t-65.5 -76t-87 -57.5t-88 -37.5l-272 137q-31 16 -68 39t-67.5 52.5t-51 67.5t-20.5 85z" />
<glyph unicode="&#xa8;" horiz-adv-x="489" d="M-37 1270q0 -37 25.5 -60.5t62.5 -23.5q35 0 59.5 25.5t24.5 60.5t-24.5 59.5t-59.5 24.5q-37 0 -62.5 -24.5t-25.5 -61.5zM356 1270q0 -35 24.5 -59.5t57.5 -24.5q39 0 63.5 23.5t24.5 60.5t-25.5 61.5t-62.5 24.5q-35 0 -58.5 -25.5t-23.5 -60.5z" />
<glyph unicode="&#xa9;" horiz-adv-x="1757" d="M137 717q0 -154 58.5 -289t159 -235.5t235.5 -159t289 -58.5t289 58.5t235 159t158.5 235.5t58.5 289t-58.5 289t-158.5 235t-235.5 158.5t-288.5 58.5q-154 0 -289 -58.5t-235.5 -158.5t-159 -235.5t-58.5 -288.5zM188 717q0 143 53.5 271t146.5 223.5t219.5 150.5 t271.5 55t271 -56t220 -151.5t147.5 -222.5t53.5 -270t-54.5 -271.5t-147.5 -223.5t-220 -150.5t-270 -55.5q-145 0 -271.5 55.5t-219.5 150.5t-146.5 223t-53.5 272zM516 705q0 -90 26.5 -170t76 -139.5t122 -94.5t164.5 -35q25 0 69 3t87 15.5t73.5 35t30.5 59.5 q0 14 -9 23.5t-19 9.5q-4 0 -29 -11q-10 -4 -21.5 -11t-25.5 -15q-29 -14 -67 -26.5t-89 -12.5q-80 0 -138 32.5t-96 87t-55.5 121t-17.5 134.5q0 63 17.5 130.5t53.5 123t93 90.5t137 35q49 0 84 -12.5t64 -28.5q12 -8 22 -15.5t21 -11.5q18 -10 30 -10q10 0 18.5 9t8.5 21 q0 35 -28.5 57.5t-67.5 36t-80 18.5t-66 5q-96 0 -168.5 -37t-122 -98t-74 -144t-24.5 -175z" />
<glyph unicode="&#xaa;" horiz-adv-x="892" d="M135 1096q0 -68 19.5 -131.5t57.5 -113.5t92 -81t124 -31q57 0 113.5 35t115.5 133v-147l82 -2v653q0 16 -12 29.5t-27 13.5q-35 0 -39 -31.5t-4 -105.5q-66 78 -119 107.5t-106 29.5q-72 0 -126 -30.5t-93 -81t-58.5 -115t-19.5 -131.5zM178 565h565q10 0 17.5 7.5 t7.5 15.5q0 27 -25 26h-563zM221 1100q0 47 12.5 97t38 92t68.5 69.5t104 27.5q63 0 104.5 -26.5t66 -67.5t34.5 -90t10 -96q0 -49 -8 -101.5t-32.5 -96.5t-67.5 -72.5t-111 -28.5q-61 0 -103 28.5t-67.5 71.5t-37 94.5t-11.5 98.5z" />
<glyph unicode="&#xab;" horiz-adv-x="833" d="M102 526q0 -4 9.5 -23.5t26 -49t37 -67.5t44.5 -77q35 -59 66 -110t47 -78l90 53l-211 348l188 305q12 18 13 43q0 51 -45 52q-16 0 -34 -11.5t-28 -27.5l-182 -312q-4 -8 -12.5 -21t-8.5 -24zM418 526q0 -4 9 -23.5t25.5 -49t37 -67.5t45.5 -77q35 -59 65.5 -110 t46.5 -78l92 53l-213 348l191 305q12 18 12 43q0 23 -12 37.5t-33 14.5q-16 0 -33.5 -11.5t-27.5 -27.5l-185 -312q-4 -8 -12 -21t-8 -24z" />
<glyph unicode="&#xac;" horiz-adv-x="1163" d="M125 737h848v-295h65v379h-913v-84z" />
<glyph unicode="&#xad;" horiz-adv-x="737" d="M113 633l2 -115h465q23 0 39 17.5t16 39.5q0 23 -16.5 40.5t-38.5 17.5h-467z" />
<glyph unicode="&#xae;" horiz-adv-x="1757" d="M137 717q0 -154 58.5 -289t159 -235.5t235.5 -159t289 -58.5t289 58.5t235 159t158.5 235.5t58.5 289t-58.5 289t-158.5 235t-235.5 158.5t-288.5 58.5q-154 0 -289 -58.5t-235.5 -158.5t-159 -235.5t-58.5 -288.5zM188 717q0 143 53.5 271t146.5 223.5t219.5 150.5 t271.5 55t271 -56t220 -151.5t147.5 -222.5t53.5 -270t-54.5 -271.5t-147.5 -223.5t-220 -150.5t-270 -55.5q-145 0 -271.5 55.5t-219.5 150.5t-146.5 223t-53.5 272zM639 315q0 -16 11.5 -27.5t27.5 -11.5t27.5 10.5t11.5 26.5v410l385 -432q15 -15 31 -15q14 0 25 10.5 t11 26.5q0 12 -10 23l-342 360q158 -23 250 38t92 171q0 113 -74.5 181.5t-187.5 68.5h-217q-16 0 -28.5 -12.5t-12.5 -28.5v-799zM717 735v352h176q35 0 68.5 -13t59.5 -35.5t42 -54.5t16 -71q0 -72 -47 -125t-125 -53h-190z" />
<glyph unicode="&#xaf;" horiz-adv-x="595" d="M23 1260q0 -25 17 -41.5t44 -16.5l430 -2q27 0 45.5 17.5t18.5 42.5t-18.5 42t-43.5 17h-434q-25 0 -42 -17.5t-17 -41.5z" />
<glyph unicode="&#xb0;" horiz-adv-x="749" d="M125 1208q0 -51 19.5 -97t53 -80t80 -53.5t97.5 -19.5t97 19.5t80 53.5t53.5 80t19.5 97t-19.5 97.5t-53.5 80t-80 53t-97 19.5t-97.5 -19.5t-80 -53t-53 -79.5t-19.5 -98zM168 1208q0 43 16.5 81t44 65.5t65.5 44t81 16.5t81 -16.5t65.5 -44t44 -65.5t16.5 -81 t-16.5 -80.5t-44 -65.5t-65.5 -44.5t-81 -16.5t-81 16.5t-65.5 44.5t-44 65.5t-16.5 80.5z" />
<glyph unicode="&#xb1;" horiz-adv-x="1265" d="M113 39h901v94h-901v-94zM113 539h403v-250h94v250h404v94h-404v250h-94v-250h-403v-94z" />
<glyph unicode="&#xb2;" />
<glyph unicode="&#xb3;" />
<glyph unicode="&#xb4;" horiz-adv-x="458" d="M25 1235q0 -25 17 -41t44 -16q14 0 62.5 17t111.5 42q49 20 95 39.5t75 32.5l-41 110l-323 -125q-16 -6 -28.5 -23.5t-12.5 -35.5z" />
<glyph unicode="&#xb5;" horiz-adv-x="1236" d="M150 -281q0 -25 2 -50t11 -46.5t26.5 -36t48.5 -14.5q41 0 63.5 22.5t22.5 63.5q0 31 -20.5 82t-45.5 113.5t-45 133t-20 140.5q0 16 1 32.5t1 33.5q23 -92 76 -151.5t155 -59.5q76 0 129 31.5t91 81.5t62.5 113.5t41.5 125.5q0 -53 7 -114.5t28.5 -114t62.5 -88 t110 -35.5q51 0 87 20.5t57.5 54t31 76.5t9.5 88q0 10 -1 22.5t-1 22.5h-43q0 -23 -1 -56.5t-9.5 -64t-27 -53t-50.5 -22.5q-29 0 -45.5 20.5t-23.5 49t-8 58t-1 50.5v672h-189q0 -84 2.5 -172.5t-4 -176.5t-23 -173t-52.5 -165q-14 -31 -33 -59.5t-42.5 -52t-53 -37.5 t-66.5 -14q-51 0 -77.5 23.5t-39 60t-13.5 79.5t-1 80v607h-188v-508q0 -100 3 -198.5t3 -197.5q0 -74 -4 -148.5t-4 -148.5z" />
<glyph unicode="&#xb6;" horiz-adv-x="1251" d="M125 1051q0 -78 28.5 -147.5t80 -121t120 -81t146.5 -29.5h164v-1104h67l2 1798l180 2l-2 -1802l70 2l2 1800q25 0 38 -1t26 -1h20q13 0 23 2q37 6 36 31q0 12 -10 21.5t-22 9.5h-594q-78 0 -146.5 -30t-120 -81t-80 -121t-28.5 -147z" />
<glyph unicode="&#xb7;" horiz-adv-x="438" d="M133 514q0 -35 25.5 -59.5t60.5 -24.5t60.5 24.5t25.5 59.5q0 37 -25.5 61.5t-62.5 24.5q-35 0 -59.5 -25.5t-24.5 -60.5z" />
<glyph unicode="&#xb8;" horiz-adv-x="331" d="M59 -260q0 -20 14.5 -35.5t35.5 -15.5q33 -1 47 30l141 297h-111l-104 -190q-23 -41 -23 -86z" />
<glyph unicode="&#xb9;" />
<glyph unicode="&#xba;" horiz-adv-x="874" d="M133 1100q0 -70 20.5 -135.5t60.5 -115.5t97 -81t129 -31q70 0 127.5 30t97.5 79t61.5 112.5t21.5 131.5q0 70 -20.5 135t-59.5 116.5t-96.5 82t-129.5 30.5t-129 -29.5t-97 -79t-61.5 -113t-21.5 -132.5zM176 565h547q27 0 27 27q0 10 -8.5 17t-18.5 7h-547v-51z M223 1098q0 43 11.5 93t36 93t65.5 71.5t100 28.5q63 0 106.5 -29.5t69 -73.5t35.5 -97.5t10 -100.5t-12 -95t-39.5 -89t-69.5 -66.5t-100 -25.5q-59 0 -100 28.5t-65.5 72.5t-36 95.5t-11.5 94.5z" />
<glyph unicode="&#xbb;" horiz-adv-x="833" d="M82 881l223 -361l-188 -305q-12 -18 -13 -43q0 -51 46 -51q18 0 34.5 11t26.5 28l182 309q9 13 15 25q6 14 6 20t-9.5 25.5t-27 50.5t-39 69.5t-45.5 79.5q-37 61 -71 114.5t-50 80.5zM397 881l226 -361l-189 -305q-12 -18 -12 -43q0 -51 45 -51q18 0 34.5 11t26.5 28 l183 309q8 13 14 25q6 14 6 20t-9 25.5t-26.5 50.5t-39 69.5t-46.5 79.5q-37 61 -70.5 114.5t-50.5 82.5z" />
<glyph unicode="&#xbc;" />
<glyph unicode="&#xbd;" />
<glyph unicode="&#xbe;" />
<glyph unicode="&#xbf;" horiz-adv-x="950" d="M72 250q0 -41 19.5 -79t47.5 -73q57 -66 138 -97.5t169 -31.5q84 0 159 23.5t132.5 70t90 114t32.5 153.5q0 150 -96 252t-258 129v315h-125v-377q0 -12 7 -20t30 -17q23 -10 52.5 -16t59.5 -16q33 -10 66 -27.5t58.5 -45.5t42 -70t16.5 -103q0 -55 -20.5 -100.5 t-55.5 -77t-82 -48t-98 -16.5q-57 0 -97.5 11.5t-68 29t-46 41t-30.5 47.5q-6 12 -11 23.5t-9.5 21.5t-8.5 18.5t-8 16.5q-16 25 -43 25q-29 0 -46 -20.5t-17 -55.5zM360 1380q0 -37 24.5 -62.5t59.5 -25.5t60.5 24.5t25.5 59.5t-24.5 59.5t-61.5 24.5q-35 0 -59.5 -23.5 t-24.5 -56.5z" />
<glyph unicode="&#xc0;" horiz-adv-x="1265" d="M43 41q0 -27 17.5 -44t43.5 -17q20 0 38 12t26 35l108 290h713l127 -333l133 39l-506 1327q-20 51 -42.5 73.5t-73.5 22.5q-41 0 -64.5 -26.5t-40.5 -69.5l-471 -1268q-8 -18 -8 -41zM309 428l324 893l321 -893h-645zM424 1737q0 -43 41 -60q23 -8 68 -27.5t96 -39.5 q53 -20 94 -34.5t55 -14.5q27 0 43.5 16t16.5 39q0 43 -41 59q-23 8 -68 27.5t-96 40.5q-53 23 -94 36t-58 13q-25 0 -41 -16.5t-16 -38.5z" />
<glyph unicode="&#xc1;" horiz-adv-x="1265" d="M43 41q0 -27 17.5 -44t43.5 -17q20 0 38 12t26 35l108 290h713l127 -333l133 39l-506 1327q-20 51 -42.5 73.5t-73.5 22.5q-41 0 -64.5 -26.5t-40.5 -69.5l-471 -1268q-8 -18 -8 -41zM309 428l324 893l321 -893h-645zM428 1616q0 -25 17.5 -41t43.5 -16q14 0 55.5 14 t94.5 35q49 20 94 39.5t68 27.5q18 8 29.5 24.5t11.5 35.5q0 25 -16.5 41t-43.5 16q-14 0 -55 -14.5t-94 -34.5q-51 -20 -96 -38.5t-68 -29.5q-16 -6 -28.5 -23.5t-12.5 -35.5z" />
<glyph unicode="&#xc2;" horiz-adv-x="1265" d="M43 41q0 -27 17.5 -44t43.5 -17q20 0 38 12t26 35l108 290h713l127 -333l133 39l-506 1327q-20 51 -42.5 73.5t-73.5 22.5q-41 0 -64.5 -26.5t-40.5 -69.5l-471 -1268q-8 -18 -8 -41zM309 428l324 893l321 -893h-645zM338 1618q0 -25 17.5 -41t39.5 -16q14 0 44 9t67 25 q35 16 68.5 30.5t58.5 25.5q25 -10 56.5 -25.5t66.5 -30.5q35 -16 63.5 -25t44.5 -9q27 0 45.5 18t18.5 43q0 43 -37 57l-221 82q-6 2 -19.5 7.5t-19.5 5.5t-18.5 -5.5t-18.5 -7.5l-217 -86q-39 -16 -39 -57z" />
<glyph unicode="&#xc3;" horiz-adv-x="1265" d="M43 41q0 -27 17.5 -44t43.5 -17q20 0 38 12t26 35l108 290h713l127 -333l133 39l-506 1327q-20 51 -42.5 73.5t-73.5 22.5q-41 0 -64.5 -26.5t-40.5 -69.5l-471 -1268q-8 -18 -8 -41zM309 428l324 893l321 -893h-645zM356 1640q0 -27 17.5 -43t44.5 -16h430q27 0 45 17.5 t18 41.5q0 25 -18.5 42.5t-42.5 17.5h-434q-25 0 -42.5 -17.5t-17.5 -42.5z" />
<glyph unicode="&#xc4;" horiz-adv-x="1265" d="M43 41q0 -27 17.5 -44t43.5 -17q20 0 38 12t26 35l108 290h713l127 -333l133 39l-506 1327q-20 51 -42.5 73.5t-73.5 22.5q-41 0 -64.5 -26.5t-40.5 -69.5l-471 -1268q-8 -18 -8 -41zM307 1481q0 -35 24.5 -57.5t59.5 -22.5q33 0 56.5 24.5t23.5 57.5t-23.5 57.5 t-56.5 24.5q-35 0 -59.5 -24.5t-24.5 -59.5zM309 428l324 893l321 -893h-645zM793 1479q0 -31 24 -54.5t55 -23.5q37 0 60.5 22.5t23.5 57.5t-23.5 59.5t-58.5 24.5t-58 -26t-23 -60z" />
<glyph unicode="&#xc5;" horiz-adv-x="1263" d="M43 41q0 -27 17.5 -44t43.5 -17q20 0 38 12t26 35l108 290h713l127 -333l133 39l-506 1327q-12 31 -32 55t-86 51q-53 -29 -73 -53.5t-30 -52.5l-471 -1268q-8 -18 -8 -41zM309 428l324 893l321 -893h-645zM479 1618q0 -49 34 -88t118 -68q88 29 121.5 69t33.5 87 q0 61 -46 105t-107 44q-63 0 -108.5 -44t-45.5 -105zM532 1620q0 43 31 70.5t72 27.5t70.5 -29.5t29.5 -70.5q0 -45 -30.5 -72.5t-71.5 -27.5q-43 0 -72 30.5t-29 71.5z" />
<glyph unicode="&#xc6;" horiz-adv-x="1568" d="M10 37l113 -51l172 329h516v-243q0 -31 19.5 -51.5t50.5 -20.5h532q23 0 41.5 17.5t18.5 41.5q0 25 -17.5 41.5t-42.5 16.5h-471v536h428q23 0 41.5 18.5t18.5 41.5q0 25 -15.5 42t-38.5 17h-430v541h430v117h-606q-35 0 -49 -14.5t-33 -51.5zM348 424l463 915v-915h-463 z" />
<glyph unicode="&#xc7;" horiz-adv-x="1220" d="M98 700q0 -135 37 -258t113 -221t190.5 -162.5t270.5 -78.5q-35 -39 -57.5 -61.5t-41.5 -45.5q-39 -45 -39 -68q0 -16 12.5 -27t30.5 -11q31 0 50 24l147 193q37 4 97.5 16t117.5 34.5t99 55.5t42 76q0 29 -16 47t-41 18q-10 0 -41 -18q-16 -10 -35.5 -21.5t-42.5 -23.5 q-47 -27 -108.5 -47.5t-145.5 -20.5q-131 0 -225 54.5t-154.5 142.5t-89 197.5t-28.5 220.5q0 104 26.5 212.5t85 197.5t149.5 146.5t218 57.5q59 0 106 -10t87 -30.5t77 -50.5t74 -67l74 68q-29 51 -74 90t-100.5 66.5t-115 42t-116.5 14.5q-158 0 -276.5 -61.5 t-197.5 -166t-119 -240.5t-40 -284z" />
<glyph unicode="&#xc8;" horiz-adv-x="915" d="M154 74q0 -35 17 -54.5t50 -19.5h639v117h-571v538h428q25 0 42 17.5t17 42.5t-17.5 41t-43.5 16h-426v541h448q27 0 44.5 16.5t17.5 42.5q0 23 -17.5 40.5t-42.5 17.5h-516h-35q-16 0 -32 2zM248 1737q0 -43 41 -60q23 -8 67.5 -27.5t96.5 -39.5q53 -20 94 -34.5 t55 -14.5q27 0 43.5 16t16.5 39q0 43 -41 59q-23 8 -68 27.5t-96 40.5q-53 23 -94 36t-58 13q-25 0 -41 -16.5t-16 -38.5z" />
<glyph unicode="&#xc9;" horiz-adv-x="915" d="M154 74q0 -35 17 -54.5t50 -19.5h639v117h-571v538h428q25 0 42 17.5t17 42.5t-17.5 41t-43.5 16h-426v541h448q27 0 44.5 16.5t17.5 42.5q0 23 -17.5 40.5t-42.5 17.5h-516h-35q-16 0 -32 2zM252 1616q0 -25 17.5 -41t43.5 -16q14 0 55.5 14t94.5 35q49 20 94 39.5 t68 27.5q18 8 29.5 24.5t11.5 35.5q0 25 -16.5 41t-43.5 16q-14 0 -55 -14.5t-94 -34.5q-51 -20 -96.5 -38.5t-67.5 -29.5q-16 -6 -28.5 -23.5t-12.5 -35.5z" />
<glyph unicode="&#xca;" horiz-adv-x="915" d="M154 74q0 -35 17 -54.5t50 -19.5h639v117h-571v538h428q25 0 42 17.5t17 42.5t-17.5 41t-43.5 16h-426v541h448q27 0 44.5 16.5t17.5 42.5q0 23 -17.5 40.5t-42.5 17.5h-516h-35q-16 0 -32 2zM162 1618q0 -25 17.5 -41t39.5 -16q14 0 44 9t67 25q35 16 68.5 30.5 t58.5 25.5q25 -10 56.5 -25.5t66.5 -30.5q35 -16 63.5 -25t44.5 -9q27 0 45.5 18t18.5 43q0 43 -37 57l-221 82q-6 2 -19.5 7.5t-19.5 5.5t-18.5 -5.5t-18.5 -7.5l-217 -86q-39 -16 -39 -57z" />
<glyph unicode="&#xcb;" horiz-adv-x="915" d="M154 74q0 -35 17 -54.5t50 -19.5h639v117h-571v538h428q25 0 42 17.5t17 42.5t-17.5 41t-43.5 16h-426v541h448q27 0 44.5 16.5t17.5 42.5q0 23 -17.5 40.5t-42.5 17.5h-516h-35q-16 0 -32 2zM176 1651q0 -37 25.5 -60.5t62.5 -23.5q35 0 59.5 25.5t24.5 60.5t-24.5 59.5 t-59.5 24.5q-37 0 -62.5 -24.5t-25.5 -61.5zM569 1651q0 -35 24.5 -59.5t57.5 -24.5q39 0 63.5 23.5t24.5 60.5t-25.5 61.5t-62.5 24.5q-35 0 -58.5 -25.5t-23.5 -60.5z" />
<glyph unicode="&#xcc;" horiz-adv-x="438" d="M10 1737q0 -43 41 -60q23 -8 68 -27.5t96 -39.5q53 -20 94.5 -34.5t55.5 -14.5q27 0 43 16t16 39q0 43 -41 59q-23 8 -68 27.5t-96 40.5q-53 23 -94 36t-57 13q-25 0 -41.5 -16.5t-16.5 -38.5zM154 0h131v1378q0 29 -18.5 48.5t-45.5 19.5q-29 0 -48 -19.5t-19 -48.5 v-1378z" />
<glyph unicode="&#xcd;" horiz-adv-x="438" d="M14 1616q0 -25 17.5 -41t44.5 -16q14 0 55 14t94 35q49 20 94 39.5t68 27.5q18 8 29.5 24.5t11.5 35.5q0 25 -16.5 41t-42.5 16q-14 0 -55.5 -14.5t-94.5 -34.5q-51 -20 -96 -38.5t-68 -29.5q-16 -6 -28.5 -23.5t-12.5 -35.5zM154 0h131v1378q0 29 -18.5 48.5t-45.5 19.5 q-29 0 -48 -19.5t-19 -48.5v-1378z" />
<glyph unicode="&#xce;" horiz-adv-x="438" d="M-76 1618q0 -25 17.5 -41t40.5 -16q14 0 43.5 9t66.5 25q35 16 69 30.5t58 25.5q25 -10 56.5 -25.5t66.5 -30.5q35 -16 64 -25t45 -9q27 0 45 18t18 43q0 43 -37 57l-221 82q-6 2 -19.5 7.5t-19.5 5.5t-18.5 -5.5t-18.5 -7.5l-217 -86q-39 -16 -39 -57zM154 0h131v1378 q0 29 -18.5 48.5t-45.5 19.5q-29 0 -48 -19.5t-19 -48.5v-1378z" />
<glyph unicode="&#xcf;" horiz-adv-x="438" d="M-61 1651q0 -37 25.5 -60.5t62.5 -23.5q35 0 59.5 25.5t24.5 60.5t-25 59.5t-59 24.5q-37 0 -62.5 -24.5t-25.5 -61.5zM154 0h131v1378q0 29 -18.5 48.5t-45.5 19.5q-29 0 -48 -19.5t-19 -48.5v-1378zM332 1651q0 -35 24.5 -59.5t57.5 -24.5q39 0 63.5 23.5t24.5 60.5 t-25.5 61.5t-62.5 24.5q-35 0 -58.5 -25.5t-23.5 -60.5z" />
<glyph unicode="&#xd0;" />
<glyph unicode="&#xd1;" horiz-adv-x="1392" d="M154 2l131 -2v1221l833 -1213q19 -28 56 -28q29 0 47 18t18 47v1333q0 29 -19.5 49.5t-48.5 20.5q-27 0 -45 -20.5t-18 -49.5l2 -1169l-834 1210q-18 29 -55 29q-29 0 -48 -19.5t-19 -48.5v-1378zM420 1640q0 -25 17.5 -41t43.5 -16l430 -2q27 0 45.5 17.5t18.5 41.5 q0 25 -18.5 42.5t-43.5 17.5h-434q-25 0 -42 -17.5t-17 -42.5z" />
<glyph unicode="&#xd2;" horiz-adv-x="1437" d="M98 717q0 -141 40 -274.5t119 -236t194.5 -163.5t267.5 -61q150 0 266.5 61t194 162.5t118.5 234.5t41 275q0 141 -39.5 273t-118.5 234.5t-195 164t-265 61.5q-152 0 -267.5 -60.5t-194.5 -162t-120 -233.5t-41 -275zM248 715q0 102 23.5 212.5t79 202t144.5 149.5 t218 58q137 0 229 -58t147.5 -151.5t79 -207t23.5 -224.5q0 -109 -26.5 -216t-84 -194t-148.5 -141.5t-220 -54.5t-218 59.5t-144.5 150.5t-79 201.5t-23.5 213.5zM510 1737q0 -43 41 -60q23 -8 68 -27.5t96 -39.5q53 -20 94 -34.5t55 -14.5q27 0 43.5 16t16.5 39 q0 43 -41 59q-23 8 -68 27.5t-96 40.5q-53 23 -94 36t-58 13q-25 0 -41 -16.5t-16 -38.5z" />
<glyph unicode="&#xd3;" horiz-adv-x="1437" d="M98 717q0 -141 40 -274.5t119 -236t194.5 -163.5t267.5 -61q150 0 266.5 61t194 162.5t118.5 234.5t41 275q0 141 -39.5 273t-118.5 234.5t-195 164t-265 61.5q-152 0 -267.5 -60.5t-194.5 -162t-120 -233.5t-41 -275zM248 715q0 102 23.5 212.5t79 202t144.5 149.5 t218 58q137 0 229 -58t147.5 -151.5t79 -207t23.5 -224.5q0 -109 -26.5 -216t-84 -194t-148.5 -141.5t-220 -54.5t-218 59.5t-144.5 150.5t-79 201.5t-23.5 213.5zM514 1616q0 -25 17.5 -41t43.5 -16q14 0 55.5 14t94.5 35q49 20 94 39.5t68 27.5q18 8 29.5 24.5t11.5 35.5 q0 25 -16.5 41t-43.5 16q-14 0 -55 -14.5t-94 -34.5q-51 -20 -96 -38.5t-68 -29.5q-16 -6 -28.5 -23.5t-12.5 -35.5z" />
<glyph unicode="&#xd4;" horiz-adv-x="1437" d="M98 717q0 -141 40 -274.5t119 -236t194.5 -163.5t267.5 -61q150 0 266.5 61t194 162.5t118.5 234.5t41 275q0 141 -39.5 273t-118.5 234.5t-195 164t-265 61.5q-152 0 -267.5 -60.5t-194.5 -162t-120 -233.5t-41 -275zM248 715q0 102 23.5 212.5t79 202t144.5 149.5 t218 58q137 0 229 -58t147.5 -151.5t79 -207t23.5 -224.5q0 -109 -26.5 -216t-84 -194t-148.5 -141.5t-220 -54.5t-218 59.5t-144.5 150.5t-79 201.5t-23.5 213.5zM424 1618q0 -25 17.5 -41t39.5 -16q14 0 44 9t67 25q35 16 68.5 30.5t58.5 25.5q25 -10 56.5 -25.5 t66.5 -30.5q35 -16 63.5 -25t44.5 -9q27 0 45.5 18t18.5 43q0 43 -37 57l-221 82q-6 2 -19.5 7.5t-19.5 5.5t-18.5 -5.5t-18.5 -7.5l-217 -86q-39 -16 -39 -57z" />
<glyph unicode="&#xd5;" horiz-adv-x="1437" d="M98 717q0 -141 40 -274.5t119 -236t194.5 -163.5t267.5 -61q150 0 266.5 61t194 162.5t118.5 234.5t41 275q0 141 -39.5 273t-118.5 234.5t-195 164t-265 61.5q-152 0 -267.5 -60.5t-194.5 -162t-120 -233.5t-41 -275zM248 715q0 102 23.5 212.5t79 202t144.5 149.5 t218 58q137 0 229 -58t147.5 -151.5t79 -207t23.5 -224.5q0 -109 -26.5 -216t-84 -194t-148.5 -141.5t-220 -54.5t-218 59.5t-144.5 150.5t-79 201.5t-23.5 213.5zM442 1640q0 -25 17.5 -41t44.5 -16l430 -2q27 0 45 17.5t18 41.5q0 25 -18 42.5t-43 17.5h-434 q-25 0 -42.5 -17.5t-17.5 -42.5z" />
<glyph unicode="&#xd6;" horiz-adv-x="1437" d="M98 717q0 -141 40 -274.5t119 -236t194.5 -163.5t267.5 -61q150 0 266.5 61t194 162.5t118.5 234.5t41 275q0 141 -39.5 273t-118.5 234.5t-195 164t-265 61.5q-152 0 -267.5 -60.5t-194.5 -162t-120 -233.5t-41 -275zM156 1495q0 -35 21 -59.5t56 -24.5t58.5 23.5 t23.5 56.5q0 35 -23.5 58.5t-55.5 23.5q-35 0 -57.5 -22.5t-22.5 -55.5zM248 715q0 102 23.5 212.5t79 202t144.5 149.5t218 58q137 0 229 -58t147.5 -151.5t79 -207t23.5 -224.5q0 -109 -26.5 -216t-84 -194t-148.5 -141.5t-220 -54.5t-218 59.5t-144.5 150.5t-79 201.5 t-23.5 213.5zM1122 1489q0 -31 24.5 -54.5t57.5 -23.5t56.5 24.5t23.5 59.5t-23.5 57.5t-56.5 22.5q-35 0 -58.5 -24.5t-23.5 -61.5z" />
<glyph unicode="&#xd7;" />
<glyph unicode="&#xd8;" horiz-adv-x="1439" d="M82 6l55 -51l166 203q92 -92 195.5 -135t214.5 -43q150 0 266.5 60t196 161.5t121.5 232.5t42 275q0 131 -32.5 254.5t-108.5 246.5q23 25 49.5 54.5t55.5 62.5q23 29 42 54.5t19 41.5t-9 26.5t-26 10.5q-16 0 -36.5 -21.5t-43.5 -47.5q-27 -31 -52.5 -64t-47.5 -61 q-98 96 -208 140t-228 44q-150 0 -264.5 -62.5t-192.5 -165t-118 -234.5t-40 -273q0 -135 35 -257t121 -243zM246 707q0 102 23.5 212.5t77.5 202.5t143.5 151.5t220.5 59.5q98 0 188 -40t166 -126l-721 -852q-59 111 -78.5 202t-19.5 190zM385 252l723 856 q47 -117 65.5 -215t18.5 -197q0 -104 -25.5 -210.5t-81 -192.5t-143.5 -140.5t-215 -54.5q-92 0 -179 36t-163 118z" />
<glyph unicode="&#xd9;" horiz-adv-x="1398" d="M154 500q0 -119 41 -215.5t113.5 -164t172.5 -104t219 -36.5q117 0 217.5 36.5t173 104t113.5 164t41 215.5v876q0 29 -19.5 48.5t-45.5 19.5q-29 0 -47.5 -19.5t-18.5 -48.5v-878q0 -92 -30.5 -168t-85 -129.5t-130 -83t-168.5 -29.5q-92 0 -168.5 28.5t-132 83 t-85 130.5t-29.5 168v938h-131v-936zM489 1737q0 -43 41 -60q23 -8 68 -27.5t96 -39.5q53 -20 94.5 -34.5t55.5 -14.5q27 0 43 16t16 39q0 43 -41 59q-23 8 -67.5 27.5t-96.5 40.5q-53 23 -94 36t-57 13q-25 0 -41.5 -16.5t-16.5 -38.5z" />
<glyph unicode="&#xda;" horiz-adv-x="1398" d="M154 500q0 -119 41 -215.5t113.5 -164t172.5 -104t219 -36.5q117 0 217.5 36.5t173 104t113.5 164t41 215.5v876q0 29 -19.5 48.5t-45.5 19.5q-29 0 -47.5 -19.5t-18.5 -48.5v-878q0 -92 -30.5 -168t-85 -129.5t-130 -83t-168.5 -29.5q-92 0 -168.5 28.5t-132 83 t-85 130.5t-29.5 168v938h-131v-936zM494 1616q0 -25 17 -41t44 -16q14 0 55 14t95 35q49 20 93.5 39.5t67.5 27.5q18 8 29.5 24.5t11.5 35.5q0 25 -16.5 41t-42.5 16q-14 0 -55 -14.5t-95 -34.5q-51 -20 -96 -38.5t-67 -29.5q-16 -6 -28.5 -23.5t-12.5 -35.5z" />
<glyph unicode="&#xdb;" horiz-adv-x="1398" d="M154 500q0 -119 41 -215.5t113.5 -164t172.5 -104t219 -36.5q117 0 217.5 36.5t173 104t113.5 164t41 215.5v876q0 29 -19.5 48.5t-45.5 19.5q-29 0 -47.5 -19.5t-18.5 -48.5v-878q0 -92 -30.5 -168t-85 -129.5t-130 -83t-168.5 -29.5q-92 0 -168.5 28.5t-132 83 t-85 130.5t-29.5 168v938h-131v-936zM403 1618q0 -25 17.5 -41t40.5 -16q14 0 44 9t66 25q35 16 69 30.5t58 25.5q25 -10 56.5 -25.5t66.5 -30.5q35 -16 64 -25t45 -9q27 0 45 18t18 43q0 43 -37 57l-221 82q-6 2 -19.5 7.5t-19.5 5.5t-18 -5.5t-19 -7.5l-217 -86 q-39 -16 -39 -57z" />
<glyph unicode="&#xdc;" horiz-adv-x="1398" d="M154 500q0 -119 41 -215.5t113.5 -164t172.5 -104t219 -36.5q117 0 217.5 36.5t173 104t113.5 164t41 215.5v876q0 29 -19.5 48.5t-45.5 19.5q-29 0 -47.5 -19.5t-18.5 -48.5v-878q0 -92 -30.5 -168t-85 -129.5t-130 -83t-168.5 -29.5q-92 0 -168.5 28.5t-132 83 t-85 130.5t-29.5 168v938h-131v-936zM455 1485q0 -35 22.5 -59.5t57.5 -24.5t58 24.5t23 59.5q0 33 -22.5 57.5t-56.5 24.5q-35 0 -58.5 -23.5t-23.5 -58.5zM782 1483q0 -35 23.5 -58.5t56.5 -23.5q35 0 58.5 23.5t23.5 58.5t-23.5 58.5t-58.5 23.5t-57.5 -23.5t-22.5 -58.5 z" />
<glyph unicode="&#xdd;" />
<glyph unicode="&#xde;" />
<glyph unicode="&#xdf;" horiz-adv-x="1144" d="M154 -434h127v1569q0 61 15 115.5t47 95t82 64.5t118 24q61 0 107 -27t77 -68t45 -93t14 -103q0 -111 -48 -174.5t-154 -91.5q-4 -4 -8.5 -7.5t-8.5 -5.5q-10 -10 -14 -17t-4 -24q0 -16 8 -24t31 -17q23 -10 54.5 -16t64.5 -16q35 -12 68.5 -34t59 -57.5t42 -90 t16.5 -132.5q0 -84 -15.5 -140t-41 -92t-58.5 -54.5t-69 -26.5q-31 -8 -61 -11t-54 -14q-18 -6 -27.5 -16t-9.5 -33q0 -35 34 -52t77 -17q86 0 154.5 40.5t114.5 105t70.5 146.5t24.5 164q0 63 -17.5 126t-54 117t-95 95t-138.5 66q104 66 146 148.5t42 168.5 q0 82 -26.5 153.5t-74.5 124t-115.5 82t-151.5 29.5q-100 0 -174 -31.5t-123 -90t-72.5 -138.5t-23.5 -176v-1544z" />
<glyph unicode="&#xe0;" horiz-adv-x="1161" d="M96 526q0 -104 30 -201.5t87 -174t141 -122.5t195 -46q90 0 171 49t159 178v-217h129v1009q0 25 -18.5 44.5t-41.5 19.5q-31 0 -43 -9t-16 -24q-4 -12 -8 -39v-114q-84 104 -165 145t-167 41q-106 0 -190.5 -46t-142.5 -122t-89 -173t-31 -198zM236 528q0 72 17 149 t57 139.5t103.5 103.5t155.5 41q94 0 154.5 -39t96.5 -99.5t50.5 -135.5t14.5 -146q0 -76 -13.5 -157t-48.5 -146.5t-99.5 -108.5t-164.5 -43q-92 0 -154.5 42t-100.5 107.5t-53 143.5t-15 149zM371 1356q0 -43 41 -60q23 -8 67.5 -27.5t95.5 -39.5q53 -20 94.5 -34.5 t55.5 -14.5q27 0 43 16t16 39q0 43 -41 59q-23 8 -67.5 27.5t-95.5 40.5q-53 23 -94.5 36t-57.5 13q-25 0 -41 -16.5t-16 -38.5z" />
<glyph unicode="&#xe1;" horiz-adv-x="1161" d="M96 526q0 -104 30 -201.5t87 -174t141 -122.5t195 -46q90 0 171 49t159 178v-217h129v1009q0 25 -18.5 44.5t-41.5 19.5q-31 0 -43 -9t-16 -24q-4 -12 -8 -39v-114q-84 104 -165 145t-167 41q-106 0 -190.5 -46t-142.5 -122t-89 -173t-31 -198zM236 528q0 72 17 149 t57 139.5t103.5 103.5t155.5 41q94 0 154.5 -39t96.5 -99.5t50.5 -135.5t14.5 -146q0 -76 -13.5 -157t-48.5 -146.5t-99.5 -108.5t-164.5 -43q-92 0 -154.5 42t-100.5 107.5t-53 143.5t-15 149zM375 1235q0 -25 17.5 -41t43.5 -16q14 0 55 14t95 35q49 20 94 39.5t68 27.5 q18 8 29 24.5t11 35.5q0 25 -16 41t-43 16q-14 0 -55 -14.5t-94 -34.5q-51 -20 -96.5 -38.5t-67.5 -29.5q-16 -6 -28.5 -23.5t-12.5 -35.5z" />
<glyph unicode="&#xe2;" horiz-adv-x="1161" d="M96 526q0 -104 30 -201.5t87 -174t141 -122.5t195 -46q90 0 171 49t159 178v-217h129v1009q0 25 -18.5 44.5t-41.5 19.5q-31 0 -43 -9t-16 -24q-4 -12 -8 -39v-114q-84 104 -165 145t-167 41q-106 0 -190.5 -46t-142.5 -122t-89 -173t-31 -198zM236 528q0 72 17 149 t57 139.5t103.5 103.5t155.5 41q94 0 154.5 -39t96.5 -99.5t50.5 -135.5t14.5 -146q0 -76 -13.5 -157t-48.5 -146.5t-99.5 -108.5t-164.5 -43q-92 0 -154.5 42t-100.5 107.5t-53 143.5t-15 149zM285 1237q0 -25 17 -41t40 -16q14 0 44 9t67 25q35 16 68.5 31t58.5 25 q25 -10 56.5 -25.5t65.5 -30.5q35 -16 64 -25t45 -9q27 0 45 18.5t18 42.5q0 43 -36 57l-222 82q-6 2 -19 7.5t-19 5.5t-18.5 -5.5t-18.5 -7.5l-217 -86q-39 -16 -39 -57z" />
<glyph unicode="&#xe3;" horiz-adv-x="1161" d="M96 526q0 -104 30 -201.5t87 -174t141 -122.5t195 -46q90 0 171 49t159 178v-217h129v1009q0 25 -18.5 44.5t-41.5 19.5q-31 0 -43 -9t-16 -24q-4 -12 -8 -39v-114q-84 104 -165 145t-167 41q-106 0 -190.5 -46t-142.5 -122t-89 -173t-31 -198zM236 528q0 72 17 149 t57 139.5t103.5 103.5t155.5 41q94 0 154.5 -39t96.5 -99.5t50.5 -135.5t14.5 -146q0 -76 -13.5 -157t-48.5 -146.5t-99.5 -108.5t-164.5 -43q-92 0 -154.5 42t-100.5 107.5t-53 143.5t-15 149zM303 1260q0 -25 17.5 -41.5t44.5 -16.5l430 -2q27 0 45 17.5t18 42.5t-18.5 42 t-42.5 17h-435q-25 0 -42 -17.5t-17 -41.5z" />
<glyph unicode="&#xe4;" horiz-adv-x="1161" d="M96 526q0 -104 30 -201.5t87 -174t141 -122.5t195 -46q90 0 171 49t159 178v-217h129v1009q0 25 -18.5 44.5t-41.5 19.5q-31 0 -43 -9t-16 -24q-4 -12 -8 -39v-114q-84 104 -165 145t-167 41q-106 0 -190.5 -46t-142.5 -122t-89 -173t-31 -198zM236 528q0 72 17 149 t57 139.5t103.5 103.5t155.5 41q94 0 154.5 -39t96.5 -99.5t50.5 -135.5t14.5 -146q0 -76 -13.5 -157t-48.5 -146.5t-99.5 -108.5t-164.5 -43q-92 0 -154.5 42t-100.5 107.5t-53 143.5t-15 149zM311 1317q0 -39 24.5 -64.5t61.5 -25.5q35 0 60.5 25.5t25.5 60.5 q0 37 -24.5 62.5t-61.5 25.5q-35 0 -60.5 -24.5t-25.5 -59.5zM700 1315q0 -37 24.5 -62.5t61.5 -25.5q35 0 60.5 25.5t25.5 60.5q0 37 -25.5 62.5t-60.5 25.5t-60.5 -25.5t-25.5 -60.5z" />
<glyph unicode="&#xe5;" horiz-adv-x="1161" d="M96 526q0 -104 30 -201.5t87 -174t141 -122.5t195 -46q90 0 171 49t159 178v-217h129v1009q0 25 -18.5 44.5t-41.5 19.5q-31 0 -43 -9t-16 -24q-4 -12 -8 -39v-114q-84 104 -165 145t-167 41q-106 0 -190.5 -46t-142.5 -122t-89 -173t-31 -198zM236 528q0 72 17 149 t57 139.5t103.5 103.5t155.5 41q94 0 154.5 -39t96.5 -99.5t50.5 -135.5t14.5 -146q0 -76 -13.5 -157t-48.5 -146.5t-99.5 -108.5t-164.5 -43q-92 0 -154.5 42t-100.5 107.5t-53 143.5t-15 149zM424 1331q0 -55 43 -95t98 -40q59 0 103.5 39t44.5 98q0 57 -43 97t-101 40 q-59 0 -102 -39.5t-43 -99.5zM471 1333q0 41 27.5 67.5t68.5 26.5t70 -26.5t29 -69.5q0 -39 -29 -67.5t-70 -28.5t-68.5 29.5t-27.5 68.5z" />
<glyph unicode="&#xe6;" horiz-adv-x="1853" d="M98 512q0 -100 30 -195.5t87 -169t140 -118.5t190 -45q45 0 89 11t87 38.5t83 74t77 115.5v-225h114v178q43 -57 87 -94t88 -58.5t89.5 -30.5t92.5 -9q43 0 71.5 4t53.5 12q23 8 46 17.5t54 19.5l-35 100q-43 -20 -89 -31.5t-93 -11.5q-78 0 -143.5 30t-113.5 82 t-75 122.5t-27 154.5h689q12 0 25.5 -1t25.5 -1q20 10 25.5 25.5t5.5 46.5q0 92 -32 183t-88.5 164t-136 118t-176.5 45q-86 0 -174 -45t-172 -152v117v23q0 12 -4 22q-4 18 -14 28.5t-37 10.5t-38 -10t-15 -29q-6 -18 -6 -45v-123q-78 115 -163 158t-171 43 q-111 0 -194 -47t-139 -124t-85 -176.5t-29 -201.5zM233 520q0 68 16.5 143.5t54.5 138t98.5 103.5t148.5 41q92 0 154.5 -36t101.5 -94t56.5 -132t17.5 -149q0 -70 -15.5 -146t-51.5 -139.5t-96.5 -105.5t-150.5 -42q-92 0 -155.5 37t-103.5 97.5t-57.5 135t-17.5 148.5z M1001 567v64q0 68 26 126t71 102t103 69.5t124 25.5q80 0 136.5 -33.5t93 -88t57 -124t33.5 -141.5h-644z" />
<glyph unicode="&#xe7;" horiz-adv-x="919" d="M98 520q0 -92 24.5 -181t76 -161t130.5 -123t187 -69q-23 -35 -45 -67t-45 -62q-18 -29 -33.5 -53.5t-15.5 -36.5q0 -16 12 -28.5t29 -12.5q33 0 51 24l149 236q31 2 69 9t72 20.5t57.5 35t23.5 55.5q0 23 -17.5 39.5t-40.5 16.5q-12 0 -34 -8q-12 -4 -25.5 -10.5 t-28.5 -12.5q-29 -12 -61.5 -22.5t-67.5 -10.5q-84 0 -145.5 42t-101 106.5t-59 139.5t-19.5 142q0 74 18 149t59 136t105.5 99t155.5 38q59 0 115.5 -22t109.5 -51l59 104q-72 41 -135 62.5t-149 21.5q-115 0 -204 -44t-150.5 -119t-93.5 -173t-32 -209z" />
<glyph unicode="&#xe8;" horiz-adv-x="1101" d="M98 526q0 -111 33 -210t95.5 -173.5t152.5 -118.5t207 -44q68 0 124 14t119 39l-28 96q-51 -14 -103.5 -25.5t-105.5 -11.5q-76 0 -139.5 30t-109.5 82t-71.5 122.5t-25.5 150.5h686q51 0 68.5 13.5t17.5 60.5q0 98 -32 190.5t-90 164t-141 114.5t-184 43 q-109 0 -195.5 -45t-148 -119t-95.5 -171t-34 -202zM238 567q10 74 31.5 145.5t60.5 127t96 89.5t141 34q74 0 132.5 -35t98.5 -91.5t60.5 -127t22.5 -142.5h-643zM342 1356q0 -43 41 -60q23 -8 68 -27.5t96 -39.5q53 -20 94 -34.5t55 -14.5q27 0 43.5 16t16.5 39 q0 43 -41 59q-23 8 -68 27.5t-96 40.5q-53 23 -94 36t-58 13q-25 0 -41 -16.5t-16 -38.5z" />
<glyph unicode="&#xe9;" horiz-adv-x="1101" d="M98 526q0 -111 33 -210t95.5 -173.5t152.5 -118.5t207 -44q68 0 124 14t119 39l-28 96q-51 -14 -103.5 -25.5t-105.5 -11.5q-76 0 -139.5 30t-109.5 82t-71.5 122.5t-25.5 150.5h686q51 0 68.5 13.5t17.5 60.5q0 98 -32 190.5t-90 164t-141 114.5t-184 43 q-109 0 -195.5 -45t-148 -119t-95.5 -171t-34 -202zM238 567q10 74 31.5 145.5t60.5 127t96 89.5t141 34q74 0 132.5 -35t98.5 -91.5t60.5 -127t22.5 -142.5h-643zM346 1235q0 -25 17.5 -41t44.5 -16q14 0 55 14t94 35q49 20 94 39.5t68 27.5q18 8 29.5 24.5t11.5 35.5 q0 25 -16.5 41t-43.5 16q-14 0 -55 -14.5t-94 -34.5q-51 -20 -96 -38.5t-68 -29.5q-16 -6 -28.5 -23.5t-12.5 -35.5z" />
<glyph unicode="&#xea;" horiz-adv-x="1101" d="M98 526q0 -111 33 -210t95.5 -173.5t152.5 -118.5t207 -44q68 0 124 14t119 39l-28 96q-51 -14 -103.5 -25.5t-105.5 -11.5q-76 0 -139.5 30t-109.5 82t-71.5 122.5t-25.5 150.5h686q51 0 68.5 13.5t17.5 60.5q0 98 -32 190.5t-90 164t-141 114.5t-184 43 q-109 0 -195.5 -45t-148 -119t-95.5 -171t-34 -202zM238 567q10 74 31.5 145.5t60.5 127t96 89.5t141 34q74 0 132.5 -35t98.5 -91.5t60.5 -127t22.5 -142.5h-643zM256 1237q0 -25 17.5 -41t39.5 -16q14 0 44 9t67 25q35 16 68.5 31t58.5 25q25 -10 56.5 -25.5t66.5 -30.5 q35 -16 63.5 -25t44.5 -9q27 0 45.5 18.5t18.5 42.5q0 43 -37 57l-221 82q-6 2 -19.5 7.5t-19.5 5.5t-18.5 -5.5t-18.5 -7.5l-217 -86q-39 -16 -39 -57z" />
<glyph unicode="&#xeb;" horiz-adv-x="1101" d="M98 526q0 -111 33 -210t95.5 -173.5t152.5 -118.5t207 -44q68 0 124 14t119 39l-28 96q-51 -14 -103.5 -25.5t-105.5 -11.5q-76 0 -139.5 30t-109.5 82t-71.5 122.5t-25.5 150.5h686q51 0 68.5 13.5t17.5 60.5q0 98 -32 190.5t-90 164t-141 114.5t-184 43 q-109 0 -195.5 -45t-148 -119t-95.5 -171t-34 -202zM238 567q10 74 31.5 145.5t60.5 127t96 89.5t141 34q74 0 132.5 -35t98.5 -91.5t60.5 -127t22.5 -142.5h-643zM270 1270q0 -37 25.5 -60.5t62.5 -23.5q35 0 59.5 25.5t24.5 60.5t-24.5 59.5t-59.5 24.5q-37 0 -62.5 -24.5 t-25.5 -61.5zM664 1270q0 -35 24 -59.5t57 -24.5q39 0 64 23.5t25 60.5t-26 61.5t-63 24.5q-35 0 -58 -25.5t-23 -60.5z" />
<glyph unicode="&#xec;" horiz-adv-x="389" d="M-14 1356q0 -43 41 -60q23 -8 67.5 -27.5t95.5 -39.5q53 -20 94.5 -34.5t55.5 -14.5q27 0 43 16t16 39q0 43 -41 59q-23 8 -67.5 27.5t-95.5 40.5q-53 23 -94.5 36t-57.5 13q-25 0 -41 -16.5t-16 -38.5zM156 -2h127v1003q0 25 -18.5 44.5t-41.5 19.5q-29 0 -48 -17.5 t-19 -46.5v-1003z" />
<glyph unicode="&#xed;" horiz-adv-x="389" d="M-10 1235q0 -25 17.5 -41t43.5 -16q14 0 55 14t95 35q49 20 93.5 39.5t67.5 27.5q18 8 29.5 24.5t11.5 35.5q0 25 -16 41t-43 16q-14 0 -55 -14.5t-94 -34.5q-51 -20 -96.5 -38.5t-67.5 -29.5q-16 -6 -28.5 -23.5t-12.5 -35.5zM156 -2h127v1003q0 25 -18.5 44.5 t-41.5 19.5q-29 0 -48 -17.5t-19 -46.5v-1003z" />
<glyph unicode="&#xee;" horiz-adv-x="389" d="M-100 1237q0 -25 17 -41t40 -16q14 0 44 9t67 25q35 16 68.5 31t58.5 25q25 -10 56.5 -25.5t65.5 -30.5q35 -16 64 -25t45 -9q27 0 45 18.5t18 42.5q0 43 -36 57l-222 82q-6 2 -19 7.5t-19 5.5t-18.5 -5.5t-18.5 -7.5l-217 -86q-39 -16 -39 -57zM156 -2h127v1003 q0 25 -18.5 44.5t-41.5 19.5q-29 0 -48 -17.5t-19 -46.5v-1003z" />
<glyph unicode="&#xef;" horiz-adv-x="389" d="M-86 1270q0 -37 25.5 -60.5t62.5 -23.5q35 0 59.5 25.5t24.5 60.5t-24.5 59.5t-59.5 24.5q-37 0 -62.5 -24.5t-25.5 -61.5zM156 -2h127v1003q0 25 -18.5 44.5t-41.5 19.5q-29 0 -48 -17.5t-19 -46.5v-1003zM307 1270q0 -35 24.5 -59.5t57.5 -24.5q39 0 63.5 23.5 t24.5 60.5t-25.5 61.5t-62.5 24.5q-35 0 -58.5 -25.5t-23.5 -60.5z" />
<glyph unicode="&#xf0;" />
<glyph unicode="&#xf1;" horiz-adv-x="1122" d="M154 -2h127v676q0 57 21.5 108.5t59 90t88 61t109.5 22.5q57 0 109.5 -22.5t90.5 -62.5t60.5 -92t22.5 -109v-629q0 -27 17 -45.5t44 -18.5q29 0 47.5 18.5t18.5 47.5v629q0 86 -27 157.5t-76 124t-118.5 81t-155.5 28.5q-78 0 -158 -42t-153 -153v123q0 23 -7 41 q-4 16 -15 25.5t-38 9.5q-29 0 -48 -18.5t-19 -47.5v-1003zM285 1260q0 -25 17 -41.5t44 -16.5l430 -2q27 0 45.5 17.5t18.5 42.5t-18.5 42t-43.5 17h-434q-25 0 -42 -17.5t-17 -41.5z" />
<glyph unicode="&#xf2;" horiz-adv-x="1120" d="M98 526q0 -104 31 -203.5t90.5 -176t145 -123t196.5 -46.5q109 0 194 47.5t144 124t90 175t31 200.5t-32 199.5t-91 173.5t-144 122t-194 46t-193.5 -46t-144 -121t-91.5 -172t-32 -200zM238 524q0 68 17 143.5t55 140t98.5 106.5t148.5 42q90 0 152.5 -41t100.5 -103 t55.5 -139t17.5 -147q0 -72 -16.5 -148.5t-55.5 -141t-101.5 -106.5t-154.5 -42q-88 0 -148.5 43t-98.5 107.5t-54 141.5t-16 144zM350 1356q0 -43 41 -60q23 -8 68 -27.5t96 -39.5q53 -20 94.5 -34.5t55.5 -14.5q27 0 43 16t16 39q0 43 -41 59q-23 8 -68 27.5t-96 40.5 q-53 23 -94 36t-57 13q-25 0 -41.5 -16.5t-16.5 -38.5z" />
<glyph unicode="&#xf3;" horiz-adv-x="1120" d="M98 526q0 -104 31 -203.5t90.5 -176t145 -123t196.5 -46.5q109 0 194 47.5t144 124t90 175t31 200.5t-32 199.5t-91 173.5t-144 122t-194 46t-193.5 -46t-144 -121t-91.5 -172t-32 -200zM238 524q0 68 17 143.5t55 140t98.5 106.5t148.5 42q90 0 152.5 -41t100.5 -103 t55.5 -139t17.5 -147q0 -72 -16.5 -148.5t-55.5 -141t-101.5 -106.5t-154.5 -42q-88 0 -148.5 43t-98.5 107.5t-54 141.5t-16 144zM354 1235q0 -25 17.5 -41t44.5 -16q14 0 55 14t94 35q49 20 94 39.5t68 27.5q18 8 29.5 24.5t11.5 35.5q0 25 -16.5 41t-42.5 16 q-14 0 -55.5 -14.5t-94.5 -34.5q-51 -20 -96 -38.5t-68 -29.5q-16 -6 -28.5 -23.5t-12.5 -35.5z" />
<glyph unicode="&#xf4;" horiz-adv-x="1120" d="M98 526q0 -104 31 -203.5t90.5 -176t145 -123t196.5 -46.5q109 0 194 47.5t144 124t90 175t31 200.5t-32 199.5t-91 173.5t-144 122t-194 46t-193.5 -46t-144 -121t-91.5 -172t-32 -200zM238 524q0 68 17 143.5t55 140t98.5 106.5t148.5 42q90 0 152.5 -41t100.5 -103 t55.5 -139t17.5 -147q0 -72 -16.5 -148.5t-55.5 -141t-101.5 -106.5t-154.5 -42q-88 0 -148.5 43t-98.5 107.5t-54 141.5t-16 144zM264 1237q0 -25 17.5 -41t40.5 -16q14 0 43.5 9t66.5 25q35 16 69 31t58 25q25 -10 56.5 -25.5t66.5 -30.5q35 -16 64 -25t45 -9 q27 0 45 18.5t18 42.5q0 43 -37 57l-221 82q-6 2 -19.5 7.5t-19.5 5.5t-18.5 -5.5t-18.5 -7.5l-217 -86q-39 -16 -39 -57z" />
<glyph unicode="&#xf5;" horiz-adv-x="1120" d="M98 526q0 -104 31 -203.5t90.5 -176t145 -123t196.5 -46.5q109 0 194 47.5t144 124t90 175t31 200.5t-32 199.5t-91 173.5t-144 122t-194 46t-193.5 -46t-144 -121t-91.5 -172t-32 -200zM238 524q0 68 17 143.5t55 140t98.5 106.5t148.5 42q90 0 152.5 -41t100.5 -103 t55.5 -139t17.5 -147q0 -72 -16.5 -148.5t-55.5 -141t-101.5 -106.5t-154.5 -42q-88 0 -148.5 43t-98.5 107.5t-54 141.5t-16 144zM283 1260q0 -25 17 -41.5t44 -16.5l430 -2q27 0 45.5 17.5t18.5 42.5t-18.5 42t-43.5 17h-434q-25 0 -42 -17.5t-17 -41.5z" />
<glyph unicode="&#xf6;" horiz-adv-x="1120" d="M98 526q0 -104 31 -203.5t90.5 -176t145 -123t196.5 -46.5q109 0 194 47.5t144 124t90 175t31 200.5t-32 199.5t-91 173.5t-144 122t-194 46t-193.5 -46t-144 -121t-91.5 -172t-32 -200zM238 522q0 68 16 143.5t54 140t99.5 107.5t149.5 43q90 0 152.5 -41t100.5 -105.5 t55.5 -141t17.5 -146.5q0 -72 -17.5 -148.5t-55.5 -140t-100.5 -104.5t-154.5 -41q-88 0 -148.5 43t-98.5 107.5t-54 140.5t-16 143zM281 1323q0 -35 24.5 -59.5t59.5 -24.5t60.5 24.5t25.5 59.5t-27 60.5t-62 25.5t-58 -24.5t-23 -61.5zM672 1323q0 -35 23.5 -59.5 t58.5 -24.5t60.5 25.5t25.5 60.5t-23.5 59.5t-58.5 24.5t-60.5 -25.5t-25.5 -60.5z" />
<glyph unicode="&#xf7;" horiz-adv-x="1265" d="M111 414h903v94h-903v-94zM469 184q0 -41 26.5 -67.5t67.5 -26.5q39 0 65.5 27.5t26.5 66.5q0 41 -25.5 68t-66.5 27t-67.5 -27t-26.5 -68zM469 735q0 -41 26.5 -67.5t67.5 -26.5q39 0 65.5 27.5t26.5 66.5q0 37 -27.5 65.5t-64.5 28.5q-41 0 -67.5 -26.5t-26.5 -67.5z " />
<glyph unicode="&#xf8;" horiz-adv-x="1118" d="M74 -35l47 -39l141 183q68 -70 141.5 -99.5t151.5 -29.5q109 0 195 45t146 119.5t92 171t32 200.5q0 98 -26.5 189.5t-88.5 183.5q18 23 40.5 48t45.5 52q18 25 33.5 46.5t15.5 35.5q0 35 -36 35q-14 0 -30 -16.5t-32 -34.5q-23 -25 -41 -51.5t-39 -51.5 q-150 113 -305 113q-109 0 -193.5 -46t-143 -121t-90.5 -172t-32 -200q0 -94 27 -186t82 -182zM238 516q0 70 16 147.5t54 142t99.5 107.5t153.5 43q57 0 112.5 -24.5t102.5 -79.5l-479 -592q-35 78 -47 138.5t-12 117.5zM336 190l485 598q37 -86 48.5 -148t11.5 -124 q0 -72 -17.5 -146.5t-56.5 -136t-101.5 -101.5t-150.5 -40q-57 0 -112.5 22.5t-106.5 75.5z" />
<glyph unicode="&#xf9;" horiz-adv-x="1126" d="M154 383q0 -199 105 -300t304 -101t304.5 101t105.5 300v614q0 29 -17.5 48.5t-46.5 19.5q-27 0 -45 -18.5t-18 -47.5v-612q0 -137 -68.5 -217t-214.5 -80q-145 0 -212.5 81t-67.5 216v639l-129 -2v-641zM354 1356q0 -43 41 -60q23 -8 68 -27.5t96 -39.5 q53 -20 94.5 -34.5t55.5 -14.5q27 0 43 16t16 39q0 43 -41 59q-23 8 -68 27.5t-96 40.5q-53 23 -94 36t-57 13q-25 0 -41.5 -16.5t-16.5 -38.5z" />
<glyph unicode="&#xfa;" horiz-adv-x="1126" d="M154 383q0 -199 105 -300t304 -101t304.5 101t105.5 300v614q0 29 -17.5 48.5t-46.5 19.5q-27 0 -45 -18.5t-18 -47.5v-612q0 -137 -68.5 -217t-214.5 -80q-145 0 -212.5 81t-67.5 216v639l-129 -2v-641zM358 1235q0 -25 17.5 -41t44.5 -16q14 0 55 14t94 35 q49 20 94 39.5t68 27.5q18 8 29.5 24.5t11.5 35.5q0 25 -16.5 41t-42.5 16q-14 0 -55.5 -14.5t-94.5 -34.5q-51 -20 -96 -38.5t-68 -29.5q-16 -6 -28.5 -23.5t-12.5 -35.5z" />
<glyph unicode="&#xfb;" horiz-adv-x="1126" d="M154 383q0 -199 105 -300t304 -101t304.5 101t105.5 300v614q0 29 -17.5 48.5t-46.5 19.5q-27 0 -45 -18.5t-18 -47.5v-612q0 -137 -68.5 -217t-214.5 -80q-145 0 -212.5 81t-67.5 216v639l-129 -2v-641zM268 1237q0 -25 17.5 -41t40.5 -16q14 0 43.5 9t66.5 25 q35 16 69 31t58 25q25 -10 56.5 -25.5t66.5 -30.5q35 -16 64 -25t45 -9q27 0 45 18.5t18 42.5q0 43 -37 57l-221 82q-6 2 -19.5 7.5t-19.5 5.5t-18.5 -5.5t-18.5 -7.5l-217 -86q-39 -16 -39 -57z" />
<glyph unicode="&#xfc;" horiz-adv-x="1126" d="M154 383q0 -199 105 -300t304 -101t304.5 101t105.5 300v614q0 29 -17.5 48.5t-46.5 19.5q-27 0 -45 -18.5t-18 -47.5v-612q0 -137 -68.5 -217t-214.5 -80q-145 0 -212.5 81t-67.5 216v639l-129 -2v-641zM285 1323q0 -35 24.5 -58.5t59.5 -23.5t60.5 24.5t25.5 59.5 t-26 60.5t-60 25.5q-37 0 -60.5 -25.5t-23.5 -62.5zM674 1325q0 -35 24.5 -59.5t59.5 -24.5q37 0 61.5 24.5t24.5 59.5q0 37 -24.5 61.5t-59.5 24.5t-60.5 -25.5t-25.5 -60.5z" />
<glyph unicode="&#xfd;" />
<glyph unicode="&#xfe;" />
<glyph unicode="&#xff;" horiz-adv-x="886" d="M33 1004l348 -992q-12 -31 -37 -90t-49 -125q-27 -68 -44.5 -121t-17.5 -69q0 -25 18.5 -42.5t47.5 -17.5q23 0 38 16.5t25 45.5q8 25 34 96.5t62 171.5t79 220t86 243q43 125 84 240.5t71.5 207t49 149.5t18.5 67q0 25 -18.5 43t-47.5 18q-23 0 -39 -15.5t-24 -39.5 l-271 -832l-288 864zM162 1270q0 -37 25.5 -60.5t62.5 -23.5q35 0 59.5 25.5t24.5 60.5t-24.5 59.5t-59.5 24.5q-37 0 -62.5 -24.5t-25.5 -61.5zM555 1270q0 -35 24.5 -59.5t57.5 -24.5q39 0 63.5 23.5t24.5 60.5t-25.5 61.5t-62.5 24.5q-35 0 -58.5 -25.5t-23.5 -60.5z" />
<glyph unicode="&#x152;" horiz-adv-x="1935" d="M98 692q0 -139 41 -267t120 -226.5t193.5 -157.5t260.5 -59q131 0 252.5 68.5t220.5 238.5v-240q0 -23 16.5 -36t42.5 -13h531q27 0 44 16.5t17 40.5q0 23 -17.5 40.5t-41.5 17.5h-471v540h428q27 0 45 17.5t18 42.5t-17.5 41t-43.5 16h-428v541h450q25 0 42.5 17.5 t17.5 39.5q0 27 -17.5 43.5t-44.5 16.5h-506q-35 0 -48 -15.5t-17 -44.5q-4 -16 -3 -33.5t1 -33.5q2 -18 3 -46t1 -108q-47 84 -102.5 142.5t-116 94t-125 51t-127.5 15.5q-160 0 -275.5 -63.5t-192.5 -170t-114 -242.5t-37 -284zM242 713q0 106 25.5 215.5t82 199 t147.5 145.5t222 56q127 0 215 -57.5t143.5 -146.5t81 -198.5t25.5 -211.5q0 -111 -24.5 -219.5t-80 -195.5t-146.5 -141.5t-224 -54.5q-129 0 -218.5 56.5t-144.5 143.5t-79.5 195.5t-24.5 213.5z" />
<glyph unicode="&#x153;" horiz-adv-x="1871" d="M98 528q0 -102 30 -199.5t87 -174t141 -122.5t193 -46q111 0 221.5 63.5t177.5 192.5q70 -135 180.5 -197.5t229.5 -62.5q55 0 108.5 11t106.5 32q-14 27 -27 55q-6 14 -12 27.5t-10 23.5q-37 -14 -76 -22.5t-80 -8.5q-78 0 -141.5 30t-108.5 81t-69.5 121.5t-26.5 154.5 h680q53 0 70.5 11.5t17.5 62.5q0 100 -32 191.5t-90 161t-142 111.5t-187 42q-117 0 -219 -65.5t-172 -196.5q-66 131 -172 195.5t-219 64.5q-109 0 -193.5 -45t-144 -120t-90.5 -172t-31 -200zM238 512q0 66 14 144.5t50 147t96.5 115t150.5 46.5q94 0 156.5 -38 t101.5 -99.5t55.5 -137.5t16.5 -151q0 -72 -13.5 -151t-49.5 -144.5t-97.5 -109.5t-157.5 -44q-90 0 -151.5 40t-99.5 101.5t-55 136t-17 144.5zM1016 571q12 70 32.5 139.5t56.5 125t90 89t136 33.5q78 0 137.5 -31.5t100.5 -85t62.5 -123t21.5 -147.5h-637z" />
<glyph unicode="&#x178;" horiz-adv-x="1036" d="M27 1376q0 -4 2 -6l422 -694v-625q0 -29 19 -49t48 -20t48.5 20.5t19.5 48.5v625l409 672q12 20 13 38q0 25 -18.5 41.5t-45.5 16.5q-39 0 -61 -35l-365 -604l-381 643zM238 1651q0 -37 25.5 -60.5t62.5 -23.5q35 0 59.5 25.5t24.5 60.5t-25 59.5t-59 24.5 q-37 0 -62.5 -24.5t-25.5 -61.5zM631 1651q0 -35 24.5 -59.5t57.5 -24.5q39 0 63.5 23.5t24.5 60.5t-25.5 61.5t-62.5 24.5q-35 0 -58.5 -25.5t-23.5 -60.5z" />
<glyph unicode="&#x2c6;" horiz-adv-x="626" d="M18 1237q0 -25 17.5 -41t40.5 -16q14 0 44 9t66 25q35 16 69 31t58 25q25 -10 56.5 -25.5t66.5 -30.5q35 -16 64 -25t45 -9q27 0 45 18.5t18 42.5q0 43 -37 57l-221 82q-6 2 -19.5 7.5t-19.5 5.5t-18 -5.5t-19 -7.5l-217 -86q-39 -16 -39 -57z" />
<glyph unicode="&#x2dc;" horiz-adv-x="591" d="M18 1260q0 -25 17.5 -41.5t44.5 -16.5l430 -2q27 0 45 17.5t18 42.5t-18 42t-43 17h-434q-25 0 -42.5 -17.5t-17.5 -41.5z" />
<glyph unicode="&#x2000;" horiz-adv-x="896" />
<glyph unicode="&#x2001;" horiz-adv-x="1792" />
<glyph unicode="&#x2002;" horiz-adv-x="896" />
<glyph unicode="&#x2003;" horiz-adv-x="1792" />
<glyph unicode="&#x2004;" horiz-adv-x="597" />
<glyph unicode="&#x2005;" horiz-adv-x="448" />
<glyph unicode="&#x2006;" horiz-adv-x="298" />
<glyph unicode="&#x2007;" horiz-adv-x="298" />
<glyph unicode="&#x2008;" horiz-adv-x="224" />
<glyph unicode="&#x2009;" horiz-adv-x="358" />
<glyph unicode="&#x200a;" horiz-adv-x="99" />
<glyph unicode="&#x2010;" horiz-adv-x="737" d="M113 633l2 -115h465q23 0 39 17.5t16 39.5q0 23 -16.5 40.5t-38.5 17.5h-467z" />
<glyph unicode="&#x2011;" horiz-adv-x="737" d="M113 633l2 -115h465q23 0 39 17.5t16 39.5q0 23 -16.5 40.5t-38.5 17.5h-467z" />
<glyph unicode="&#x2012;" horiz-adv-x="737" d="M113 633l2 -115h465q23 0 39 17.5t16 39.5q0 23 -16.5 40.5t-38.5 17.5h-467z" />
<glyph unicode="&#x2013;" horiz-adv-x="1114" d="M84 672q0 -18 12.5 -31.5t28.5 -13.5h864q39 0 39 45q0 16 -11 29.5t-28 13.5h-862q-16 0 -29.5 -13.5t-13.5 -29.5z" />
<glyph unicode="&#x2014;" horiz-adv-x="1097" d="M119 399h856v129h-856v-129z" />
<glyph unicode="&#x2018;" horiz-adv-x="395" d="M27 1100q0 -27 18 -46.5t45 -19.5q41 0 57 37l172 348l-120 58l-166 -349q-6 -12 -6 -28z" />
<glyph unicode="&#x2019;" horiz-adv-x="395" d="M43 1108l119 -57l166 348q8 16 8 28q0 27 -19.5 46.5t-46.5 19.5q-16 0 -32.5 -10t-24.5 -27z" />
<glyph unicode="&#x201a;" horiz-adv-x="380" d="M27 -211q0 -27 18 -46t45 -19q41 0 57 36q10 20 33.5 65.5t48.5 96.5q16 33 36 75t30 67.5t12 29.5l-114 53l-13 -23q-12 -24 -28.5 -56.5t-35 -68.5t-30.5 -60q-25 -53 -42 -94.5t-17 -55.5z" />
<glyph unicode="&#x201c;" horiz-adv-x="696" d="M27 1100q0 -27 18 -46.5t45 -19.5q41 0 57 37l172 348l-120 58l-166 -349q-6 -12 -6 -28zM334 1100q0 -27 18.5 -46.5t44.5 -19.5q42 0 58 37l172 348l-121 58l-166 -349q-6 -12 -6 -28z" />
<glyph unicode="&#x201d;" horiz-adv-x="696" d="M43 1108l119 -57l166 348q8 16 8 28q0 27 -19.5 46.5t-46.5 19.5q-16 0 -32.5 -10t-24.5 -27zM350 1108l119 -57l166 348q8 16 8 28q0 27 -19.5 46.5t-45.5 19.5q-16 0 -33 -10t-25 -27z" />
<glyph unicode="&#x201e;" horiz-adv-x="671" d="M27 -211q0 -27 18 -46t45 -19q41 -1 57 36l172 349l-120 57l-166 -348q-6 -12 -6 -29zM313 -211q0 -27 18.5 -46t45.5 -19q41 -1 57 36l172 349l-121 57l-166 -348q-6 -12 -6 -29z" />
<glyph unicode="&#x2022;" horiz-adv-x="622" d="M209 715q0 -68 49 -117t117 -49q70 0 118 48t48 118t-48.5 118t-117.5 48q-68 0 -117 -49.5t-49 -116.5z" />
<glyph unicode="&#x2026;" horiz-adv-x="1171" d="M106 70q0 -37 26 -62.5t63 -25.5t62.5 25.5t25.5 62.5t-26 62.5t-62 25.5q-37 0 -63 -26t-26 -62zM498 70q0 -37 25.5 -62.5t62.5 -25.5t62.5 25.5t25.5 62.5t-25.5 62.5t-62.5 25.5t-62.5 -26t-25.5 -62zM889 70q0 -37 25.5 -62.5t62.5 -25.5q35 0 61.5 26.5t26.5 61.5 t-26.5 61.5t-61.5 26.5q-37 0 -62.5 -26t-25.5 -62z" />
<glyph unicode="&#x202f;" horiz-adv-x="358" />
<glyph unicode="&#x2039;" horiz-adv-x="516" d="M102 526q0 -10 12.5 -29.5t18.5 -29.5l174 -301q10 -18 26 -30.5t32 -12.5q18 0 33.5 15.5t15.5 33.5t-17 45l-186 305l188 305q12 18 13 43q0 51 -45 52q-16 0 -34 -11.5t-28 -27.5l-182 -312q-4 -8 -12.5 -21t-8.5 -24z" />
<glyph unicode="&#x203a;" horiz-adv-x="516" d="M104 172q0 -51 46 -51q18 0 34.5 11t26.5 28l182 309q9 13 15 25t6 20q0 12 -12.5 31.5t-18.5 29.5l-174 302q-25 41 -55 41q-20 0 -35 -14.5t-15 -33.5q0 -23 15 -47l186 -303l-188 -305q-12 -18 -13 -43z" />
<glyph unicode="&#x205f;" horiz-adv-x="448" />
<glyph unicode="&#x20ac;" horiz-adv-x="1247" d="M-20 809q0 -20 13 -33.5t34 -13.5h155q-2 -16 -2 -31v-31q0 -53 6 -104h-196l-2 -90h213q25 -111 76 -207t128.5 -167t180 -111.5t229.5 -40.5q92 0 186.5 21.5t169.5 70.5q25 16 51.5 37.5t26.5 56.5q0 29 -16 47t-41 18q-10 0 -43 -18q-16 -10 -34.5 -21.5t-41.5 -23.5 q-45 -27 -106.5 -47.5t-147.5 -20.5q-100 0 -178 33t-136.5 88t-97 129t-59.5 156h490q23 0 36 13t13 32q0 18 -14.5 31.5t-34.5 13.5h-508q-4 29 -6 59.5t-2 59.5v22q0 12 2 25h553v92h-543q14 90 49 175t92 151.5t138 107.5t188 41q59 0 106 -10t87 -30.5t77 -50.5t74 -67 l74 68q-29 51 -78 90t-107.5 66.5t-121 42t-119.5 14.5q-137 0 -243 -47t-180.5 -128t-118.5 -190.5t-61 -232.5h-161q-20 0 -34.5 -13.5t-14.5 -31.5z" />
<glyph unicode="&#x2122;" horiz-adv-x="1576" d="M123 1403q0 -10 8 -19.5t19 -9.5h169v-653h64v653h172q29 0 29 27q0 29 -27 29h-407q-27 0 -27 -27zM610 711l66 2l104 702l209 -706h78l209 706l102 -702l66 -2l-115 680q-4 20 -19.5 34.5t-33.5 14.5q-45 0 -59 -47l-189 -641l-188 641q-12 47 -62 47 q-18 0 -33.5 -14.5t-19.5 -34.5z" />
<glyph unicode="&#xe000;" horiz-adv-x="1064" d="M0 0v1065h1065v-1065h-1065z" />
</font>
</defs>
</svg>
