<?xml version="1.0" standalone="no"?>
<!DOCTYPE svg PUBLIC "-//W3C//DTD SVG 1.1//EN" "http://www.w3.org/Graphics/SVG/1.1/DTD/svg11.dtd" >
<svg>
<metadata>
Created by FontForge 20090914 at Wed Apr  8 22:57:59 2015
 By www-data
</metadata>
<defs>
<font id="SkodaPro-Italic" horiz-adv-x="775" >
  <font-face 
    font-family="Skoda Pro"
    font-weight="400"
    font-style="italic"
    font-stretch="normal"
    units-per-em="2048"
    panose-1="2 0 0 0 0 0 0 0 0 0"
    ascent="1638"
    descent="-410"
    x-height="1071"
    cap-height="1475"
    bbox="-785.909 -473.004 2413.79 1925"
    underline-thickness="102"
    underline-position="-103"
    slope="-10"
    unicode-range="U+0020-U+FB02"
  />
<missing-glyph horiz-adv-x="0" 
 />
    <glyph glyph-name=".notdef" horiz-adv-x="0" 
 />
    <glyph glyph-name="space" unicode=" " horiz-adv-x="508" 
 />
    <glyph glyph-name="exclam" unicode="!" horiz-adv-x="515" 
d="M187 447c-8.66699 0 -12.667 4.66699 -12 14l175 1000c0.666992 9.33301 6 15 16 17l98 18c9.33301 2 13 -1.66699 11 -11l-199 -1024c-2 -9.33301 -7.66699 -14 -17 -14h-72zM93 0c-9.33301 0 -13 4.66699 -11 14l37 201c2 9.33301 7.66699 15 17 17l96 18
c9.33301 2 13 -1.66699 11 -11l-40 -225c-2 -9.33301 -7.66699 -14 -17 -14h-93z" />
    <glyph glyph-name="quotedbl" unicode="&#x22;" horiz-adv-x="674" 
d="M216 1016c-9.33301 0 -13 4.66699 -11 14l79 431c2 10 7.66699 15.333 17 16l100 18c9.33301 0.666992 13 -3.33301 11 -12l-88 -453c-2 -9.33301 -7.66699 -14 -17 -14h-91zM493 1016c-9.33301 0 -13 4.66699 -11 14l79 431c2 10 7.66699 15.333 17 16l101 18
c9.33301 0.666992 13 -3.33301 11 -12l-88 -453c-2 -9.33301 -7.66699 -14 -17 -14h-92z" />
    <glyph glyph-name="numbersign" unicode="#" horiz-adv-x="1452" 
d="M704 0c-10 0 -13 4.33301 -9 13l133 374h-414l-133 -374c-3.33301 -8.66699 -9.66602 -13 -18.999 -13h-87c-10 -0 -13 4.33301 -9 13l133 374h-255c-9.33301 0 -12.666 4.33301 -9.99902 13l27 84c2.66699 8.66699 8.66699 13 18 13h260l172 480h-254
c-9.33301 0 -12.666 4.33301 -9.99902 13l25 84c2.66699 8.66699 8.66699 13 18 13h260l134 375c3.33301 8.66699 9.66602 13 18.999 13h85c10 0 13 -4.33301 9 -13l-134 -375h414l134 375c3.33301 8.66699 9.66602 13 18.999 13h87c10 0 13 -4.33301 9 -13l-134 -375h256
c9.33301 0 12.666 -4.33301 9.99902 -13l-27 -84c-2.66699 -8.66699 -8.66699 -13 -18 -13h-261l-171 -480h255c9.33301 0 12.666 -4.33301 9.99902 -13l-27 -84c-2.66699 -8.66699 -8.66699 -13 -18 -13h-260l-133 -374c-3.33301 -8.66699 -9.66602 -13 -18.999 -13h-85z
M624 977l-171 -480h414l171 480h-414z" />
    <glyph glyph-name="dollar" unicode="$" horiz-adv-x="1049" 
d="M330 -257c-9.33301 0 -13.0029 4.66211 -11.0029 13.9951l42 228c-4.66699 0 -9.16699 -0.166992 -13.5 -0.5s-8.83301 -0.5 -13.5 -0.5c-53.333 0 -107.666 2.5 -162.999 7.5s-103.666 12.167 -144.999 21.5c-9.33301 2 -12 7.33301 -8 16l34 72
c2.66699 5.33301 5.33398 8.66602 8.00098 9.99902s6.66699 1.33301 12 0c52 -9.33301 102.167 -15.5 150.5 -18.5s95.5 -4.5 141.5 -4.5h18l122 624l-70 28c-38.667 16 -73.334 33 -104.001 51s-56.5 38.833 -77.5 62.5s-37.167 51 -48.5 82s-17 67.167 -17 108.5
c0 66.667 6.83301 126.334 20.5 179.001s38 97.667 73 135s82.333 66.833 142 88.5s135.167 35.5 226.5 41.5l42 230c2 9.33301 7.66699 14 17 14h70c8.66699 0 12.667 -4.66699 12 -14l-40 -227c54 0 106.167 -2.16699 156.5 -6.5s93.833 -10.166 130.5 -17.499
c10 -2 13 -7.33301 9 -16l-28 -72c-2 -5.33301 -4.33301 -8.66602 -7 -9.99902s-6.66699 -1.66602 -12 -0.999023c-38 6.66699 -81.167 11.5 -129.5 14.5s-96.166 4.5 -143.499 4.5l-115 -600l61 -23c44 -18.667 81.667 -38 113 -58s56.666 -41.833 75.999 -65.5
s33.5 -49.667 42.5 -78s13.5 -59.833 13.5 -94.5c0 -73.333 -8.16699 -138.166 -24.5 -194.499s-42.666 -104.333 -78.999 -144s-83.5 -71.167 -141.5 -94.5s-129 -38.666 -213 -45.999l-43 -232c-2 -9.33301 -7.66699 -14 -17 -14h-69zM631.997 1384
c-70.667 -4 -127.999 -13.167 -171.999 -27.5s-78.333 -34.5 -103 -60.5s-41.334 -58.167 -50.001 -96.5s-13 -83.833 -13 -136.5c0 -33.333 4.83301 -61.5 14.5 -84.5s24 -43.5 43 -61.5s42.833 -34.333 71.5 -49s62 -30 100 -46zM475.998 92.9951
c64.667 6 118.5 17.5 161.5 34.5s77.167 40 102.5 69s43.333 64 54 105s16 88.5 16 142.5c0 27.333 -4 51.5 -12 72.5s-20.667 40.5 -38 58.5s-40 35.167 -68 51.5s-62.333 33.5 -103 51.5z" />
    <glyph glyph-name="percent" unicode="%" horiz-adv-x="1794" 
d="M417 588c-49.333 0 -92.6641 6.49902 -129.997 19.499s-67.333 34.5 -90 64.5s-36.834 69.5 -42.501 118.5s-1.83398 109.5 11.499 181.5l25 140c14 76.667 33.333 139.834 58 189.501s53.667 89 87 118s71.166 49.167 113.499 60.5s88.166 17 137.499 17
c50 0 93.667 -6.5 131 -19.5s67.166 -34.5 89.499 -64.5s36.333 -69.5 42 -118.5s1.83398 -109.833 -11.499 -182.5l-25 -140c-14 -76 -33 -138.833 -57 -188.5s-52.667 -89 -86 -118s-71.166 -49.167 -113.499 -60.5s-88.833 -17 -139.5 -17zM568.002 1402
c-34.667 0 -66.5 -4.5 -95.5 -13.5s-55.167 -24.5 -78.5 -46.5s-43.666 -51.5 -60.999 -88.5s-31 -83.5 -41 -139.5l-27 -144c-10.667 -55.333 -14.167 -101.5 -10.5 -138.5s13.167 -66.5 28.5 -88.5s36 -37.5 62 -46.5s56.333 -13.5 91 -13.5s66.5 4.5 95.5 13.5
s55.167 24.5 78.5 46.5s43.666 51.5 60.999 88.5s31 83.5 41 139.5l26 143c10.667 56 14.167 102.5 10.5 139.5s-13.167 66.5 -28.5 88.5s-36 37.5 -62 46.5s-56 13.5 -90 13.5zM1247 -22.001c-49.333 0 -92.668 6.5 -130.001 19.5s-67.166 34.5 -89.499 64.5
s-36.5 69.333 -42.5 118s-2.33301 109 11 181l25 141c14 76.667 33.167 139.834 57.5 189.501s53.166 89 86.499 118s71 49.167 113 60.5s88 17 138 17s93.833 -6.5 131.5 -19.5s67.667 -34.5 90 -64.5s36.5 -69.667 42.5 -119s2.33301 -110 -11 -182l-26 -141
c-14 -76 -33 -138.833 -57 -188.5s-52.667 -88.834 -86 -117.501s-71.166 -48.667 -113.499 -60s-88.833 -17 -139.5 -17zM1399 791.999c-34.667 0 -66.4971 -4.5 -95.4971 -13.5s-55.333 -24.5 -79 -46.5s-44 -51.5 -61 -88.5s-30.833 -83.5 -41.5 -139.5l-26 -146
c-10 -55.333 -13.333 -101.333 -10 -138s12.666 -66 27.999 -88s36 -37.5 62 -46.5s56 -13.5 90 -13.5c34.667 0 66.667 4.5 96 13.5s55.666 24.5 78.999 46.5s43.666 51.5 60.999 88.5s31 83.5 41 139.5l26 144c10 56 13.167 102.5 9.5 139.5s-13.167 66.5 -28.5 88.5
s-35.833 37.5 -61.5 46.5s-55.5 13.5 -89.5 13.5zM278.003 -0.000976562c-9.33301 0 -11 3.66699 -5 11l1145 1453c3.33301 4 6.66602 6.83301 9.99902 8.5s7.66602 2.5 12.999 2.5h106c9.33301 0 11 -3.66699 5 -11l-1145 -1453
c-3.33301 -4 -6.66602 -6.83301 -9.99902 -8.5s-7.66602 -2.5 -12.999 -2.5h-106z" />
    <glyph glyph-name="ampersand" unicode="&#x26;" horiz-adv-x="1375" 
d="M1076 0c-9.33301 0 -16.668 4.00293 -22.001 12.0029l-118 184c-78 -66 -165.333 -118.833 -262 -158.5s-203.334 -59.5 -320.001 -59.5c-20.667 0 -43 1 -67 3s-48 6.5 -72 13.5s-47.167 17.167 -69.5 30.5s-42.166 31 -59.499 53s-31.166 49 -41.499 81
s-15.5 70.667 -15.5 116c0 36.667 3.16699 70.5 9.5 101.5s17 61 32 90s34.667 57.667 59 86s54.333 58.166 90 89.499s77.334 65.166 125.001 101.499l165.5 120.5c-22 34.667 -41.5 67.334 -58.5 98.001s-31.333 60 -43 88s-20.667 55.167 -27 81.5s-9.5 52.5 -9.5 78.5
c0 54.667 9 100.5 27 137.5s43.167 66.5 75.5 88.5s71 37.667 116 47s94.167 14 147.5 14c40 0 76.667 -4.33301 110 -13s62.333 -21.834 87 -39.501s43.834 -40.167 57.501 -67.5s20.5 -59.333 20.5 -96c0 -44 -6.33301 -82.167 -19 -114.5s-33.334 -64 -62.001 -95
s-65.667 -63.667 -111 -98l-165 -123.5l307 -483c50 53.333 95.333 111.166 136 173.499s76 127.833 106 196.5c3.33301 8.66699 9.66602 13 18.999 13h80c8.66699 0 11.667 -4.33301 9 -13c-36 -84 -78 -165.167 -126 -243.5s-103.333 -150.833 -166 -217.5l168 -264
c4.66699 -8 2.66699 -12 -6 -12h-107zM147.998 304.003c0 -50 7.33203 -89.667 21.999 -119s33.334 -51.5 56.001 -66.5s47.5 -24.667 74.5 -29s52.5 -6.5 76.5 -6.5c92 0 180.333 18.167 265 54.5s163.667 85.833 237 148.5l-317 496l-184 -138.5
c-52 -41 -95 -80 -129 -117s-59.333 -73.333 -76 -109s-25 -73.5 -25 -113.5zM720.997 1402c-32.667 0 -63.499 -3 -92.499 -9s-54.5 -16 -76.5 -30s-39.333 -32.833 -52 -56.5s-19 -52.834 -19 -87.501c0 -23.333 3.16699 -46.666 9.5 -69.999s15.166 -46.833 26.499 -70.5
s24.333 -47.667 39 -72s30.667 -49.5 48 -75.5l138 102c38 29.333 68.833 56.833 92.5 82.5s41 50.667 52 75s16.5 50.5 16.5 78.5c0 46 -16.333 79.667 -49 101s-77 32 -133 32z" />
    <glyph glyph-name="quotesingle" unicode="'" horiz-adv-x="396" 
d="M216 1016c-9.33301 0 -13 4.66699 -11 14l79 431c2 10 7.66699 15.333 17 16l100 18c9.33301 0.666992 13 -3.33301 11 -12l-88 -453c-2 -9.33301 -7.66699 -14 -17 -14h-91z" />
    <glyph glyph-name="parenleft" unicode="(" horiz-adv-x="557" 
d="M227 517c-8 -46.667 -14.666 -95.501 -19.999 -146.501s-8.83301 -103 -10.5 -156s-1.33398 -106 0.999023 -159s7.33301 -104.833 15 -155.5s17.834 -99.334 30.501 -146.001s28.334 -90 47.001 -130c4 -8.66699 1.33301 -13 -8 -13h-88c-10 0 -16.667 4.33301 -20 13
c-28.667 58.667 -50.5 125.334 -65.5 200.001s-24.5 151.667 -28.5 231s-3.16699 158.833 2.5 238.5s15.167 153.834 28.5 222.501l10 62c12.667 72.667 30.834 148.667 54.501 228s52 158 85 236s70.5 153.167 112.5 225.5s88 137.833 138 196.5
c3.33301 4 6.66602 6.83301 9.99902 8.5s7.66602 2.5 12.999 2.5h92c8.66699 0 10.334 -3.66699 5.00098 -11c-50.667 -60 -97.5 -127.333 -140.5 -202s-81.333 -151.667 -115 -231s-62.334 -158.833 -86.001 -238.5s-41.834 -154.5 -54.501 -224.5l-8 -51v0z" />
    <glyph glyph-name="parenright" unicode=")" horiz-adv-x="561" 
d="M304 568c8 46.667 14.6641 95.501 19.9971 146.501s8.83301 103 10.5 156s1.33398 106 -0.999023 159s-7.33301 104.833 -15 155.5s-17.834 99.334 -30.501 146.001s-28.334 90 -47.001 130c-4 8.66699 -1.33301 13 8 13h88c10 0 16.667 -4.33301 20 -13
c28.667 -58.667 50.5 -125.334 65.5 -200.001s24.5 -151.667 28.5 -231s3.16699 -158.833 -2.5 -238.5s-15.167 -153.834 -28.5 -222.501l-10 -62c-13.333 -72.667 -31.666 -148.667 -54.999 -228s-51.5 -158 -84.5 -236s-70.5 -153.167 -112.5 -225.5
s-88 -137.833 -138 -196.5c-3.33301 -4 -6.66602 -6.83301 -9.99902 -8.5s-7.66602 -2.5 -12.999 -2.5h-92c-8.66699 0 -10.334 3.66699 -5.00098 11c50.667 60 97.5 127.333 140.5 202s81.333 151.667 115 231s62.334 158.833 86.001 238.5s41.834 154.5 54.501 224.5l8 51
v0z" />
    <glyph glyph-name="asterisk" unicode="*" horiz-adv-x="912" 
d="M245 1328c-8 5.33301 -9.33301 11.666 -4 18.999l44 59c5.33301 7.33301 12 8.33301 20 3l216 -143l50 284c2 9.33301 7.66699 14 17 14h68c9.33301 0 13 -4.66699 11 -14l-55 -281l271 144c8 3.33301 13.667 1 17 -7l26 -59c3.33301 -8.66699 1 -15 -7 -19l-276 -140
l219 -136c8 -5.33301 9.33301 -11.666 4 -18.999l-45 -60c-5.33301 -7.33301 -12 -8.33301 -20 -3l-219 144l-48 -286c-2 -9.33301 -7.66699 -14 -17 -14h-68c-9.33301 0 -13 4.66699 -11 14l56 282l-272 -144c-8 -3.33301 -13.667 -1 -17 7l-24 59
c-3.33301 8.66699 -1 15 7 19l274 140z" />
    <glyph glyph-name="plus" unicode="+" horiz-adv-x="1000" 
d="M127 745c-9.33301 0 -13 4.66699 -11 14l15 81c2 9.33301 7.66699 14 17 14h339l62 340c2 9.33301 7.66699 14 17 14h80c9.33301 0 13 -4.66699 11 -14l-63 -340h340c9.33301 0 13 -4.66699 11 -14l-15 -81c-2 -9.33301 -7.66699 -14 -17 -14h-339l-62 -340
c-2 -9.33301 -7.66699 -14 -17 -14h-79c-9.33301 0 -13 4.66699 -11 14l62 340h-340z" />
    <glyph glyph-name="comma" unicode="," horiz-adv-x="440" 
d="M-60 -233c-8.66699 0 -11.666 4.33398 -8.99902 13.001l160 436c2 5.33301 4.33301 9 7 11s6.66699 3.33301 12 4l118 20c9.33301 1.33301 12 -2.33398 8 -11.001l-200 -460c-2.66699 -5.33301 -5.33398 -8.83301 -8.00098 -10.5s-6.66699 -2.5 -12 -2.5h-76z" />
    <glyph glyph-name="hyphen" unicode="-" horiz-adv-x="831" 
d="M173 553c-9.33301 0 -13 4.66699 -11 14l14 80c2 9.33301 7.66699 14 17 14h457c9.33301 0 13 -4.66699 11 -14l-15 -80c-2 -9.33301 -7.66699 -14 -17 -14h-456z" />
    <glyph glyph-name="period" unicode="." horiz-adv-x="410" 
d="M47 0c-9.33301 0 -13 4.66699 -11 14l37 201c2 9.33301 7.66699 15 17 17l96 18c9.33301 2 13 -1.66699 11 -11l-40 -225c-2 -9.33301 -7.66699 -14 -17 -14h-93z" />
    <glyph glyph-name="slash" unicode="/" horiz-adv-x="802" 
d="M-4 0c-9.33301 0 -12 4.33301 -8 13l767 1530c3.33301 8.66699 10 13 20 13h96c9.33301 0 12 -4.33301 8 -13l-766 -1530c-3.33301 -8.66699 -10 -13 -20 -13h-97z" />
    <glyph glyph-name="zero" unicode="0" horiz-adv-x="1317" 
d="M536 -22c-51.333 0 -98.5029 2.99609 -141.503 8.99609s-80.833 17.333 -113.5 34s-60 39.5 -82 68.5s-38 66.333 -48 112s-13.833 100.834 -11.5 165.501s11.5 141 27.5 229l53 282c16.667 90.667 35.667 168.834 57 234.501s45.333 121.5 72 167.5s56 83.167 88 111.5
s67.333 50.333 106 66s80.667 26.167 126 31.5s94.666 8 147.999 8c52.667 0 100.834 -3.16699 144.501 -9.5s81.834 -17.833 114.501 -34.5s59.834 -39.5 81.501 -68.5s37.334 -66.5 47.001 -112.5s13.167 -101.333 10.5 -166s-12 -140.667 -28 -228l-52 -282
c-16.667 -90.667 -35.5 -169 -56.5 -235s-44.5 -121.833 -70.5 -167.5s-55 -82.667 -87 -111s-67.5 -50.166 -106.5 -65.499s-81.5 -25.666 -127.5 -30.999s-96.333 -8 -151 -8zM794.997 1386c-40 0 -77.332 -2.16699 -111.999 -6.5s-66.834 -12.833 -96.501 -25.5
s-56.834 -30.5 -81.501 -53.5s-47.5 -53.333 -68.5 -91s-40 -83.667 -57 -138s-32.5 -118.833 -46.5 -193.5l-52 -282c-14 -74.667 -22.5 -139.167 -25.5 -193.5s-1 -100.166 6 -137.499s18.667 -67.5 35 -90.5s37 -40.833 62 -53.5s54 -21.167 87 -25.5
s69.833 -6.5 110.5 -6.5c41.333 0 79.5 2.16699 114.5 6.5s67.333 12.833 97 25.5s57 30.5 82 53.5s47.833 53.333 68.5 91s39.5 83.667 56.5 138s32.5 119.166 46.5 194.499l52 280c14 74.667 22.667 139.167 26 193.5s1.5 100.333 -5.5 138s-18.667 68 -35 91
s-37.166 40.833 -62.499 53.5s-54.833 21.167 -88.5 25.5s-71.167 6.5 -112.5 6.5z" />
    <glyph glyph-name="one" unicode="1" horiz-adv-x="723" 
d="M171 1308c-9.33301 -0.666992 -14 3.33301 -14 12l2 83c0 10 4.66699 15.333 14 16l362 54c4 0.666992 8.66699 1.16699 14 1.5s10 0.5 14 0.5h87c9.33301 0 13 -4.66699 11 -14l-268 -1447c-2 -9.33301 -7.66699 -14 -17 -14h-85c-9.33301 0 -13 4.66699 -11 14
l248 1349z" />
    <glyph glyph-name="two" unicode="2" horiz-adv-x="1063" 
d="M-3 0c-9.33301 0 -13.0088 4.67188 -11.0088 14.0049l13 69c12.667 68 28.834 127.5 48.501 178.5s45.334 98.333 77.001 142s70.834 85.667 117.501 126s103 83.5 169 129.5l258 179l106.5 76c32.333 24 59.833 49.5 82.5 76.5s40.334 57.333 53.001 91
s19 73.834 19 120.501c0 34 -5.66699 62.667 -17 86s-29.833 42.166 -55.5 56.499s-59.167 24.666 -100.5 30.999s-92 9.5 -152 9.5c-42 0 -89.833 -1.83301 -143.5 -5.5s-107.5 -10.167 -161.5 -19.5c-9.33301 -2 -14 1.66699 -14 11v77c0 9.33301 4.66699 15 14 17
c25.333 6 52.5 11 81.5 15s58.167 7.16699 87.5 9.5s57.833 4.16602 85.5 5.49902s52.834 2 75.501 2c76 0 140.833 -5.16699 194.5 -15.5s97.334 -26.333 131.001 -48s58.334 -49.334 74.001 -83.001s23.5 -73.834 23.5 -120.501c0 -58 -6.33301 -107.833 -19 -149.5
s-32.167 -79.834 -58.5 -114.501s-59.666 -68.167 -99.999 -100.5s-88.166 -67.833 -143.499 -106.5l-225 -156c-66 -46 -121 -87.5 -165 -124.5s-80 -73.833 -108 -110.5s-49.833 -75.5 -65.5 -116.5s-28.5 -88.5 -38.5 -142.5h697c9.33301 0 13 -4.66699 11 -14l-14 -81
c-2 -9.33301 -7.66699 -14 -17 -14h-810z" />
    <glyph glyph-name="three" unicode="3" horiz-adv-x="1128" 
d="M334 -22c-56.667 0 -110.671 2.82812 -162.004 8.49512s-97 12.167 -137 19.5c-9.33301 2 -13 7.66699 -11 17l20 82c2 9.33301 7.66699 13 17 11c44 -7.33301 91.5 -13.5 142.5 -18.5s99.5 -7.5 145.5 -7.5c69.333 0 130.333 5.33301 183 16
s97.834 28.334 135.501 53.001s68.334 57 92.001 97s40.834 89.333 51.501 148l7 39c4 22 6.33301 44.667 7 68s-1.5 46.333 -6.5 69s-13.167 43.834 -24.5 63.501s-26.666 37.167 -45.999 52.5s-43.333 27.333 -72 36s-62.667 13 -102 13h-341
c-9.33301 0 -13 4.66699 -11 14l14 81c2 9.33301 7.66699 14 17 14h340c60.667 0 112 8.33301 154 25s76.5 37.334 103.5 62.001s47.5 51.5 61.5 80.5s23 55.5 27 79.5l5 23c10 52 8.83301 94.833 -3.5 128.5s-34 60.334 -65 80.001s-70.833 33.5 -119.5 41.5
s-104.667 12 -168 12c-48 0 -97.167 -2.83301 -147.5 -8.5s-99.5 -11.5 -147.5 -17.5c-10 -0.666992 -14 3.33301 -12 12l9 81c1.33301 5.33301 3 9.16602 5 11.499s5.66699 3.83301 11 4.5c42 7.33301 89.5 13.833 142.5 19.5s106.833 8.5 161.5 8.5
c81.333 0 153 -6.33301 215 -19s112.667 -33.167 152 -61.5s66.333 -65.666 81 -111.999s15.667 -103.166 3 -170.499l-4 -26c-7.33301 -36 -18.666 -70.333 -33.999 -103s-35.666 -62.5 -60.999 -89.5s-55.666 -50.5 -90.999 -70.5s-76.333 -35.333 -123 -46
c45.333 -13.333 81.666 -33.666 108.999 -60.999s47.5 -58.166 60.5 -92.499s20.333 -70 22 -107s-0.5 -71.5 -6.5 -103.5l-8 -40c-16 -82.667 -40.667 -150.834 -74 -204.501s-74.833 -96.334 -124.5 -128.001s-107.334 -53.667 -173.001 -66
s-138.834 -18.5 -219.501 -18.5z" />
    <glyph glyph-name="four" unicode="4" horiz-adv-x="1167" 
d="M31 387c-9.33301 0 -12.998 4.66699 -10.998 14l20 113c2 8.66699 6 16.667 12 24l851 927c3.33301 3.33301 6.66602 5.83301 9.99902 7.5s7.66602 2.5 12.999 2.5h124c9.33301 0 13 -4.66699 11 -14l-179 -972h176c9.33301 0 13 -4.66699 11 -14l-14 -74
c-2 -9.33301 -7.66699 -14 -17 -14h-175l-70 -373c-2 -9.33301 -7.66699 -14 -17 -14h-86c-9.33301 0 -13 4.66699 -11 14l69 373h-717zM151.002 489h618l154 832h-16l-756 -821v-11z" />
    <glyph glyph-name="five" unicode="5" horiz-adv-x="1110" 
d="M317 -22c-62.667 0 -119.169 2.8291 -169.502 8.49609s-96.5 13.5 -138.5 23.5c-9.33301 2 -12 7.33301 -8 16l35 79c2.66699 5.33301 5.33398 8.66602 8.00098 9.99902s6.66699 1.33301 12 0c46.667 -8.66699 94 -15.167 142 -19.5s94 -6.5 138 -6.5
c143.333 0 256.5 28.5 339.5 85.5s135.167 142.5 156.5 256.5l9 43c10 55.333 10.333 103.833 1 145.5s-29.5 76.334 -60.5 104.001s-73.5 48.5 -127.5 62.5s-121 21 -201 21c-21.333 0 -44.333 -1 -69 -3s-48.834 -4.5 -72.501 -7.5l-64.5 -8.5
c-19.333 -2.66699 -34 -5 -44 -7c-9.33301 -0.666992 -13 3.33301 -11 12l12 69l7 27l164 573c2.66699 8.66699 8.66699 13 18 13h729c8.66699 0 11.667 -4.33301 9 -13l-32 -84c-3.33301 -8.66699 -9.66602 -13 -18.999 -13h-623l-137 -472l18.5 2.5
c12.333 1.66699 27 3.33398 44 5.00098l53 5c18.333 1.66699 34.166 2.5 47.499 2.5c94.667 0 175 -9.16699 241 -27.5s118.333 -45.666 157 -81.999s64 -81.5 76 -135.5s11.333 -117 -2 -189l-9 -43c-15.333 -80 -40.666 -148.667 -75.999 -206
s-79.666 -104.166 -132.999 -140.499s-115.333 -63.166 -186 -80.499s-148.667 -26 -234 -26z" />
    <glyph glyph-name="six" unicode="6" horiz-adv-x="1220" 
d="M518 -22c-75.333 0 -140.5 10.334 -195.5 31.001s-98.167 56 -129.5 106s-49.833 117.333 -55.5 202s3.16602 191 26.499 319l41 219c22.667 122 53 224 91 306s85.333 148 142 198s123.167 85.5 199.5 106.5s164.166 31.5 263.499 31.5c48 0 94.5 -2.5 139.5 -7.5
s86.833 -12.167 125.5 -21.5c10 -2 13 -7.33301 9 -16l-31 -77c-3.33301 -8.66699 -9.66602 -12 -18.999 -10c-34 5.33301 -72.167 10.166 -114.5 14.499s-85.166 6.5 -128.499 6.5c-83.333 0 -156 -8.33301 -218 -25s-115.333 -45 -160 -85s-81.667 -93 -111 -159
s-53 -148 -71 -246c23.333 4 49.833 8.16699 79.5 12.5s61 8.5 94 12.5s66.667 7.16699 101 9.5s67.833 3.5 100.5 3.5c72.667 0 136.667 -8 192 -24s100 -41.833 134 -77.5s56.5 -81.5 67.5 -137.5s9.16699 -124 -5.5 -204l-3 -13
c-13.333 -70.667 -35.166 -135.167 -65.499 -193.5s-69.333 -108.333 -117 -150s-103.334 -74 -167.001 -97s-135.167 -34.5 -214.5 -34.5zM969 464.001c12 64 14.332 117.666 6.99902 160.999s-23.666 78.333 -48.999 105s-59.666 45.667 -102.999 57s-95 17 -155 17
c-30.667 0 -62.667 -1.16699 -96 -3.5s-66.166 -5.16602 -98.499 -8.49902s-63.333 -7.16602 -93 -11.499s-55.834 -8.5 -78.501 -12.5l-25 -132c-20.667 -112 -29.667 -203.333 -27 -274s15.834 -126.334 39.501 -167.001s56.667 -68.5 99 -83.5s92.833 -22.5 151.5 -22.5
c61.333 0 116.166 8.5 164.499 25.5s90.166 41.167 125.499 72.5s64.333 69.333 87 114s39 94.667 49 150z" />
    <glyph glyph-name="seven" unicode="7" horiz-adv-x="995" 
d="M34 0c-9.33301 0 -11.332 4 -5.99902 12l936 1353h-760c-9.33301 0 -14 4.66699 -14 14l3 82c0 9.33301 4.66699 14 14 14h888c8.66699 0 12.667 -4.66699 12 -14l-16 -84c-0.666992 -5.33301 -1.83398 -10 -3.50098 -14s-3.83398 -8 -6.50098 -12l-918 -1339
c-5.33301 -8 -12.666 -12 -21.999 -12h-107z" />
    <glyph glyph-name="eight" unicode="8" horiz-adv-x="1273" 
d="M516 -22c-74 0 -140 7.66992 -198 23.0029s-105.333 39.666 -142 72.999s-62 76.666 -76 129.999s-14 117.666 0 192.999l10 46c5.33301 28.667 15.166 60.167 29.499 94.5s33.666 67.5 57.999 99.5s54.5 60.833 90.5 86.5s78.333 44.834 127 57.501
c-36 11.333 -64.667 29 -86 53s-37 51.333 -47 82s-15 63.167 -15 97.5s3.33301 67.166 10 98.499l5 19c14.667 66 36.5 122.167 65.5 168.5s65.167 84.166 108.5 113.499s93.5 50.666 150.5 63.999s120.833 20 191.5 20c70 0 131.5 -7.83301 184.5 -23.5
s96 -39.167 129 -70.5s55.333 -70.166 67 -116.499s11.5 -100.166 -0.5 -161.499l-4 -19c-7.33301 -36.667 -17.5 -72.167 -30.5 -106.5s-29.667 -65.833 -50 -94.5s-45 -53.834 -74 -75.501s-63.5 -37.834 -103.5 -48.501c43.333 -14 77.833 -34.667 103.5 -62
s44.834 -57.166 57.501 -89.499s19.834 -65.166 21.501 -98.499s0.166992 -63.333 -4.5 -90l-9 -47c-15.333 -80 -39.5 -146.667 -72.5 -200s-74 -96 -123 -128s-105 -54.667 -168 -68s-131.5 -20 -205.5 -20zM383 1102c-5.33301 -26.667 -7.33398 -55.5 -6.00098 -86.5
s9.5 -59.833 24.5 -86.5s38.333 -48.834 70 -66.501s75.5 -26.5 131.5 -26.5h145c56 0 102.833 8.83301 140.5 26.5s68.667 39.834 93 66.501s42.833 55.5 55.5 86.5s21.667 59.833 27 86.5l4 16c20 94 5.5 162.833 -43.5 206.5s-131.5 65.5 -247.5 65.5
s-205.167 -22 -267.5 -66s-103.166 -112.667 -122.499 -206zM580.999 728.003c-42.667 0 -80.8271 -5 -114.494 -15s-63.334 -23.167 -89.001 -39.5s-47.667 -34.833 -66 -55.5s-33.666 -41.5 -45.999 -62.5s-21.833 -41.167 -28.5 -60.5s-11.334 -36 -14.001 -50l-9 -45
c-10.667 -56.667 -11.834 -105 -3.50098 -145s26 -72.5 53 -97.5s63.167 -43.333 108.5 -55s99.666 -17.5 162.999 -17.5c64 0 120.833 5.83301 170.5 17.5s92.5 30 128.5 55s65.667 57.5 89 97.5s40.333 88.333 51 145l9 45c2 14 3.16699 30.667 3.5 50
s-1.83398 39.5 -6.50098 60.5s-12.334 41.833 -23.001 62.5s-25.834 39.167 -45.501 55.5s-44.667 29.5 -75 39.5s-66.833 15 -109.5 15h-146z" />
    <glyph glyph-name="nine" unicode="9" horiz-adv-x="1218" 
d="M360 -22c-48.667 0 -95.832 2.66602 -141.499 7.99902s-88.167 12 -127.5 20c-10 2 -13 7.33301 -9 16l31 79c3.33301 8.66699 9.66602 12 18.999 10c34 -6.66699 72.667 -12 116 -16s87 -6 131 -6c78 0 146.833 8.33301 206.5 25s111.667 44.667 156 84
s82.166 91.666 113.499 156.999s58 147 80 245l-79 -13c-29.333 -4.66699 -60.166 -8.66699 -92.499 -12s-65.5 -6.16602 -99.5 -8.49902s-67 -3.5 -99 -3.5c-74 0 -138.5 8.5 -193.5 25.5s-99 43.833 -132 80.5s-54.667 84.167 -65 142.5s-7.5 128.5 8.5 210.5l2 12
c27.333 148.667 86.833 263 178.5 343s215.167 120 370.5 120c73.333 0 138 -9.83301 194 -29.5s100.667 -53.667 134 -102s53.833 -113.333 61.5 -195s-0.166016 -184.5 -23.499 -308.5l-28 -156c-17.333 -93.333 -37.833 -176.166 -61.5 -248.499
s-50.834 -135.5 -81.501 -189.5s-65.167 -99.5 -103.5 -136.5s-81 -66.833 -128 -89.5s-98.5 -39 -154.5 -49s-117 -15 -183 -15zM297.002 1023c-12 -66 -15.001 -121.5 -9.00098 -166.5s21.333 -81.5 46 -109.5s58.5 -48 101.5 -60s95.167 -18 156.5 -18
c30.667 0 62.334 0.833008 95.001 2.5s65 4 97 7s62.667 6.5 92 10.5s55.666 8 78.999 12l31 162c20.667 109.333 28.5 198 23.5 266s-20.167 121 -45.5 159s-59.666 63.833 -102.999 77.5s-93.333 20.5 -150 20.5c-62 0 -116.333 -7.66699 -163 -23
s-86.667 -37.833 -120 -67.5s-60.5 -66.167 -81.5 -109.5s-36.833 -93.333 -47.5 -150z" />
    <glyph glyph-name="colon" unicode=":" horiz-adv-x="480" 
d="M78 0c-9.33301 0 -13 4.66699 -11 14l37 201c2 9.33301 7.66699 15 17 17l96 18c9.33301 2 13 -1.66699 11 -11l-40 -225c-2 -9.33301 -7.66699 -14 -17 -14h-93zM203 676c-9.33301 0 -13 4.66699 -11 14l37 201c2 9.33301 7.66699 15 17 17l96 18
c9.33301 2 13 -1.66699 11 -11l-40 -225c-2 -9.33301 -7.66699 -14 -17 -14h-93z" />
    <glyph glyph-name="semicolon" unicode=";" horiz-adv-x="513" 
d="M-25 -233c-8.66699 0 -11.666 4.33398 -8.99902 13.001l160 436c2 5.33301 4.33301 9 7 11s6.66699 3.33301 12 4l118 20c9.33301 1.33301 12 -2.33398 8 -11.001l-200 -460c-2.66699 -5.33301 -5.33398 -8.83301 -8.00098 -10.5s-6.66699 -2.5 -12 -2.5h-76z
M229.001 676.001c-9.33301 0 -13 4.66699 -11 14l37 201c2 9.33301 7.66699 15 17 17l96 18c9.33301 2 13 -1.66699 11 -11l-40 -225c-2 -9.33301 -7.66699 -14 -17 -14h-93z" />
    <glyph glyph-name="less" unicode="&#x3c;" horiz-adv-x="892" 
d="M122 709c-7.33301 6 -10.001 13.667 -8.00098 23l16 82c2 9.33301 7 16.333 15 21l655 409c8.66699 5.33301 13.334 3 14.001 -7l12 -86c2 -9.33301 -1.33301 -16.333 -10 -21l-587 -364l451 -353c4 -3.33301 6.5 -6.5 7.5 -9.5s0.166992 -7.16699 -2.5 -12.5l-36 -83
c-4 -8.66699 -9.66699 -10 -17 -4z" />
    <glyph glyph-name="equal" unicode="=" horiz-adv-x="1186" 
d="M182 529c-9.33301 0 -13 4.66699 -11 14l15 80c2 9.33301 7.66699 14 17 14h780c9.33301 0 13 -4.66699 11 -14l-16 -80c-2 -9.33301 -7.66699 -14 -17 -14h-779zM264 963c-8.66699 0 -12.667 4.66699 -12 14l14 79c0.666992 9.33301 6 14 16 14h779
c8.66699 0 12.667 -4.66699 12 -14l-15 -79c-0.666992 -9.33301 -6 -14 -16 -14h-778z" />
    <glyph glyph-name="greater" unicode="&#x3e;" horiz-adv-x="890" 
d="M821 836c7.33301 -6 10.001 -13.667 8.00098 -23l-16 -82c-2 -9.33301 -7 -16.333 -15 -21l-655 -409c-8.66699 -5.33301 -13.334 -3 -14.001 7l-12 86c-2 9.33301 1.33301 16.333 10 21l587 364l-451 353c-4 3.33301 -6.5 6.5 -7.5 9.5s-0.166992 7.16699 2.5 12.5
l36 83c4 8.66699 9.66699 10 17 4z" />
    <glyph glyph-name="question" unicode="?" horiz-adv-x="867" 
d="M324 411c-0.666992 -9.33301 -6.00098 -13.9971 -16.001 -13.9971h-76c-9.33301 0 -13.666 4.66699 -12.999 14c1.33301 10 2.83301 24 4.5 42s4.16699 36 7.5 54c6 39.333 12.833 73.166 20.5 101.499s19 55 34 80s34.833 50.333 59.5 76s57.667 56.167 99 91.5l71 60
l92 81.5c26.667 24.333 49.667 47.833 69 70.5s35 45.5 47 68.5s20.667 48.167 26 75.5c11.333 64 -4.33398 108.833 -47.001 134.5s-110.667 38.5 -204 38.5c-36.667 0 -74 -1.33301 -112 -4s-81 -7.33398 -129 -14.001c-9.33301 -0.666992 -14 3.33301 -14 12l-2 78
c0 9.33301 4.66699 15 14 17c42 8 87.5 13.833 136.5 17.5s94.833 5.5 137.5 5.5c59.333 0 112.166 -4.5 158.499 -13.5s84.5 -24 114.5 -45s51.333 -48.833 64 -83.5s14.667 -77.667 6 -129c-5.33301 -33.333 -14 -63.833 -26 -91.5s-28.667 -55.167 -50 -82.5
s-47.666 -56 -78.999 -86s-69.333 -64 -114 -102l-80 -70c-37.333 -32 -66.666 -59 -87.999 -81s-38 -43.167 -50 -63.5s-21 -41.833 -27 -64.5s-12 -50.334 -18 -83.001zM155.999 0.00292969c-9.33301 0 -13 4.66699 -11 14l38 201c2 9.33301 7.66699 15 17 17l95 18
c9.33301 2 13 -1.66699 11 -11l-40 -225c-2 -9.33301 -7.66699 -14 -17 -14h-93z" />
    <glyph glyph-name="at" unicode="@" horiz-adv-x="1769" 
d="M233 557c-21.333 -70 -37.668 -137.167 -49.001 -201.5s-16 -124.666 -14 -180.999s12 -107.666 30 -153.999s45.667 -86 83 -119s85.5 -59 144.5 -78s130.833 -28.833 215.5 -29.5c9.33301 0 12.666 -4.66699 9.99902 -14l-20 -78
c-2.66699 -8.66699 -8.66699 -13 -18 -13c-96 0.666992 -178 12 -246 34s-124.167 52.167 -168.5 90.5s-77.666 84 -99.999 137s-35.833 111.5 -40.5 175.5s-1.5 132.333 9.5 205s28.167 147.667 51.5 225l39 129c40 133.333 92 246.5 156 339.5s138.167 168.667 222.5 227
s178 100.666 281 126.999s213.5 39.5 331.5 39.5c100.667 0 185 -11.833 253 -35.5s122.5 -55.667 163.5 -96s70.167 -87.666 87.5 -141.999s26 -111.833 26 -172.5c0 -124.667 -12.333 -233.667 -37 -327s-58.334 -173.333 -101.001 -240s-93 -121.834 -151 -165.501
s-120.667 -78.167 -188 -103.5s-137.5 -43.166 -210.5 -53.499s-145.833 -15.5 -218.5 -15.5c-82 0 -148 8 -198 24s-86 41.833 -108 77.5s-31.167 81.667 -27.5 138s17.834 125.166 42.501 206.499l31 104c25.333 87.333 53 159.666 83 216.999s65.5 103 106.5 137
s89.167 57.833 144.5 71.5s121.666 20.5 198.999 20.5c39.333 0 80.333 -2.16699 123 -6.5s85.334 -11.5 128.001 -21.5c9.33301 -2 13 -7.33301 11 -16l-207 -818c64.667 17.333 125.334 43 182.001 77s106.167 80.167 148.5 138.5s75.666 130.833 99.999 217.5
s36.5 191.334 36.5 314.001c0 54 -7.83301 103.667 -23.5 149s-41 84.166 -76 116.499s-80.667 57.5 -137 75.5s-125.5 27 -207.5 27c-103.333 0 -199.833 -12.167 -289.5 -36.5s-171.167 -62.833 -244.5 -115.5s-137.666 -120.5 -192.999 -203.5
s-100.333 -182.833 -135 -299.5zM1018 964c-60.667 0 -111.997 -5.83301 -153.997 -17.5s-78.333 -31.5 -109 -59.5s-56.834 -65.5 -78.501 -112.5s-42.167 -105.833 -61.5 -176.5l-18 -67c-20 -73.333 -32.667 -133.5 -38 -180.5s-0.833008 -84 13.5 -111
s39.666 -45.5 75.999 -55.5s86.166 -15 149.499 -15c40.667 0 75.834 1.16699 105.501 3.5s59.5 6.83301 89.5 13.5l190 761c-26 3.33301 -52.833 7 -80.5 11s-55.834 6 -84.501 6z" />
    <glyph glyph-name="A" unicode="A" horiz-adv-x="1272" 
d="M-71 0c-10 0 -12.333 4 -7 12l791 1451c4.66699 8 11.667 12 21 12h131c10 0 15.333 -4.66699 16 -14l258 -1447c0.666992 -9.33301 -3.33301 -14 -12 -14h-94c-10 0 -15.333 4.66699 -16 14l-72 407h-675l-221 -409c-4.66699 -8 -11.667 -12 -21 -12h-99zM779 1362
l-450 -831h597z" />
    <glyph glyph-name="B" unicode="B" horiz-adv-x="1320" 
d="M461 -20c-25.333 0 -52.502 0.331055 -81.502 0.998047s-58.833 1.66699 -89.5 3s-61.167 2.83301 -91.5 4.5s-59.5 3.83398 -87.5 6.50098c-9.33301 0.666992 -13 5.66699 -11 15l268 1451c1.33301 9.33301 7 14.333 17 15c22 2.66699 46.333 4.83398 73 6.50098
s54.167 3.16699 82.5 4.5s57.333 2.33301 87 3s58.5 1 86.5 1c94 0 174.833 -5.16699 242.5 -15.5s122.167 -28.333 163.5 -54s69.5 -60.5 84.5 -104.5s16.833 -99.667 5.5 -167l-2 -11c-8 -44 -19 -83 -33 -117s-30.333 -63.333 -49 -88s-39.5 -45 -62.5 -61
s-46.833 -28.333 -71.5 -37c64.667 -24 111.5 -67.167 140.5 -129.5s34.5 -143.833 16.5 -244.5l-10 -52c-12.667 -67.333 -29 -124.666 -49 -171.999s-44.167 -86.833 -72.5 -118.5s-61 -56.834 -98 -75.501s-78.667 -32.667 -125 -42s-97.166 -15.333 -152.499 -18
s-115.666 -4 -180.999 -4zM1033 458.998c10.667 57.333 12.833 104.831 6.5 142.498s-19.5 67.667 -39.5 90s-46.167 38 -78.5 47s-68.833 13.5 -109.5 13.5h-461l-122 -656c41.333 -3.33301 84.5 -5.66602 129.5 -6.99902s89.5 -2 133.5 -2c82 0 153.333 3 214 9
s112.334 19.833 155.001 41.5s77.167 53.834 103.5 96.501s46.166 100.667 59.499 174zM707.997 1385c-48.667 0 -93 -0.830078 -133 -2.49707s-76 -4.16699 -108 -7.5l-97 -517h407c46 1.33301 86.667 8.33301 122 21s65.833 30.167 91.5 52.5s46.667 49.166 63 80.499
s28.166 66.333 35.499 105l4 16c10 56 8.83301 100.667 -3.5 134s-35.166 58.666 -68.499 75.999s-76.333 28.666 -129 33.999s-114 8 -184 8z" />
    <glyph glyph-name="C" unicode="C" horiz-adv-x="1159" 
d="M623 -22c-94 0 -175.67 11.834 -245.003 35.501s-124.5 62.5 -165.5 116.5s-66.667 125.167 -77 213.5s-3.5 197.166 20.5 326.499l23 135c24.667 134 58.5 245.333 101.5 334s95 159.5 156 212.5s130.667 90.5 209 112.5s164.5 33 258.5 33
c60.667 0 118.5 -2.83301 173.5 -8.5s101.167 -13.167 138.5 -22.5c9.33301 -2.66699 12.333 -8.33398 9 -17.001l-29 -77c-3.33301 -8.66699 -9.66602 -12 -18.999 -10c-42.667 8.66699 -89.5 14.834 -140.5 18.501s-100.833 5.5 -149.5 5.5c-76 0 -145.667 -9 -209 -27
s-119.666 -49 -168.999 -93s-91.666 -102.667 -126.999 -176s-63.333 -165 -84 -275l-27 -155c-20.667 -110.667 -27 -202.667 -19 -276s28.5 -131.833 61.5 -175.5s77.667 -74.5 134 -92.5s122.833 -27 199.5 -27c62 0 118.5 2.5 169.5 7.5s97.5 11.167 139.5 18.5
c9.33301 0.666992 14 -3.33301 14 -12l-1 -77c0 -9.33301 -4.66699 -15 -14 -17c-42 -9.33301 -92 -16.833 -150 -22.5s-118.667 -8.5 -182 -8.5z" />
    <glyph glyph-name="D" unicode="D" horiz-adv-x="1408" 
d="M466 -16c-26 0 -53.6689 0.334961 -83.002 1.00195s-59.333 1.5 -90 2.5s-61.5 2.5 -92.5 4.5s-60.5 4.33301 -88.5 7c-9.33301 0.666992 -13 5.66699 -11 15l267 1447c1.33301 9.33301 7 14.333 17 15c29.333 2 60.333 3.5 93 4.5l96 3
c31.333 1 61.166 1.66699 89.499 2s52.5 0.5 72.5 0.5c64 0 124.833 -3.33301 182.5 -10s110 -19 157 -37s88.167 -43.167 123.5 -75.5s62.833 -74.166 82.5 -125.499s30.667 -113.333 33 -186s-5.5 -158.334 -23.5 -257.001l-21 -113
c-19.333 -102.667 -42.666 -191.167 -69.999 -265.5s-59.166 -137.333 -95.499 -189s-76.666 -93.334 -120.999 -125.001s-93.166 -56.334 -146.499 -74.001s-110.833 -29.5 -172.5 -35.5s-127.834 -9 -198.501 -9zM731.998 1379
c-17.333 0 -37.834 -0.166016 -61.501 -0.499023s-47.834 -0.833008 -72.501 -1.5s-48.667 -1.5 -72 -2.5s-43.333 -2.16699 -60 -3.5l-236 -1270c19.333 -2 40.666 -3.66699 63.999 -5s46.833 -2.5 70.5 -3.5s47 -1.66699 70 -2s44.167 -0.5 63.5 -0.5
c60 0 115.833 3.16699 167.5 9.5s99.334 17.5 143.001 33.5s83.334 38.167 119.001 66.5s67.834 64.166 96.501 107.499s53.834 95.5 75.501 156.5s40.167 132.5 55.5 214.5l22 119c14.667 81.333 22.5 152.333 23.5 213s-5 112.5 -18 155.5s-32.333 78.333 -58 106
s-57.5 49.5 -95.5 65.5s-81.833 27 -131.5 33s-104.834 9 -165.501 9z" />
    <glyph glyph-name="E" unicode="E" horiz-adv-x="1185" 
d="M113 0c-9.33301 0 -13 4.66699 -11 14l266 1447c2 9.33301 7.66699 14 17 14h822c8.66699 0 12.667 -4.66699 12 -14l-16 -85c-0.666992 -9.33301 -6 -14 -16 -14h-722l-93 -502h626c9.33301 0 13 -4.66699 11 -14l-15 -84c-2 -9.33301 -7.66699 -14 -17 -14h-626
l-116 -636h721c9.33301 0 13 -4.66699 11 -14l-16 -84c-2 -9.33301 -7.66699 -14 -17 -14h-821z" />
    <glyph glyph-name="F" unicode="F" horiz-adv-x="1113" 
d="M113 0c-9.33301 0 -13 4.66699 -11 14l266 1447c2 9.33301 7.66699 14 17 14h832c8.66699 0 12.667 -4.66699 12 -14l-16 -85c-0.666992 -9.33301 -6 -14 -16 -14h-732l-93 -502h585c9.33301 0 13 -4.66699 11 -14l-16 -84c-2 -9.33301 -7.66699 -14 -17 -14h-584
l-135 -734c-2 -9.33301 -7.66699 -14 -17 -14h-86z" />
    <glyph glyph-name="G" unicode="G" horiz-adv-x="1272" 
d="M1139 767c9.33301 0 12.9971 -4.66406 10.9971 -13.9971l-131 -712c-2 -9.33301 -7.33301 -15.333 -16 -18c-70 -18.667 -137.167 -30.834 -201.5 -36.501s-126.833 -8.5 -187.5 -8.5c-96 0 -178.167 11.5 -246.5 34.5s-122 61.5 -161 115.5s-62.833 125.167 -71.5 213.5
s-0.666992 197.833 24 328.5l23 135c24.667 132.667 57.667 243.334 99 332.001s91.833 159.667 151.5 213s129.167 91.166 208.5 113.499s169.333 33.5 270 33.5c60 0 118.167 -2.83301 174.5 -8.5s103.166 -13.834 140.499 -24.501
c8.66699 -2.66699 11.334 -8.33398 8.00098 -17.001l-27 -75c-3.33301 -8.66699 -9.66602 -12 -18.999 -10c-43.333 8 -90.666 13.833 -141.999 17.5s-101.666 5.5 -150.999 5.5c-80 0 -152.167 -9 -216.5 -27s-121 -48.833 -170 -92.5s-90.5 -102.167 -124.5 -175.5
s-61.333 -165 -82 -275l-27 -155c-20.667 -110.667 -28.167 -202.5 -22.5 -275.5s24 -131.333 55 -175s73.833 -74.5 128.5 -92.5s120.667 -27 198 -27c58.667 0 111 2 157 6s88.667 9.66699 128 17l100 544l-318 4c-9.33301 0 -13 4.66699 -11 14l14 78
c2 9.33301 7.66699 14 17 14h418z" />
    <glyph glyph-name="H" unicode="H" horiz-adv-x="1427" 
d="M113 0c-9.33301 0 -13 4.66699 -11 14l266 1447c2 9.33301 7.66699 14 17 14h86c9.33301 0 13 -4.66699 11 -14l-110 -601h769l110 601c2 9.33301 7.66699 14 17 14h86c9.33301 0 13 -4.66699 11 -14l-267 -1447c-2 -9.33301 -7.66699 -14 -17 -14h-86
c-9.33301 0 -13 4.66699 -11 14l135 734h-768l-135 -734c-2 -9.33301 -7.66699 -14 -17 -14h-86z" />
    <glyph glyph-name="I" unicode="I" horiz-adv-x="545" 
d="M113 0c-9.33301 0 -13 4.66699 -11 14l266 1447c2 9.33301 7.66699 14 17 14h86c9.33301 0 13 -4.66699 11 -14l-266 -1447c-2 -9.33301 -7.66699 -14 -17 -14h-86z" />
    <glyph glyph-name="J" unicode="J" horiz-adv-x="545" 
d="M-76 -268c-17.333 0 -36.1689 1.33398 -56.502 4.00098s-38.166 6 -53.499 10c-9.33301 2.66699 -12.333 8.33398 -9 17.001l28 77c3.33301 8.66699 9.33301 12 18 10c13.333 -3.33301 27 -5.33301 41 -6s27.667 -1 41 -1c20.667 0 39.834 1.66699 57.501 5
s33.5 10.666 47.5 21.999s26.167 27.666 36.5 48.999s18.833 50.333 25.5 87l269 1455c2 9.33301 7.66699 14 17 14h85c9.33301 0 13 -4.66699 11 -14l-269 -1461c-10 -53.333 -23.333 -97.333 -40 -132s-37 -62 -61 -82s-51.667 -34 -83 -42s-66.333 -12 -105 -12z" />
    <glyph glyph-name="K" unicode="K" horiz-adv-x="1166" 
d="M907 0c-9.33301 0 -16.335 4.00098 -21.002 12.001l-433 744l-120 -102l-117 -640c-2 -9.33301 -7.66699 -14 -17 -14h-86c-9.33301 0 -13 4.66699 -11 14l267 1447c2 9.33301 7.66699 14 17 14h85c9.33301 0 13 -4.66699 11 -14l-118 -641l755 646c6.66699 6 15 9 25 9
h143c4 0 6.33301 -0.833008 7 -2.5s-0.666016 -3.83398 -3.99902 -6.50098l-745 -633l485 -821c4.66699 -8 2.33398 -12 -6.99902 -12h-116z" />
    <glyph glyph-name="L" unicode="L" horiz-adv-x="1023" 
d="M113 0c-9.33301 0 -13 4.66699 -11 14l266 1447c2 9.33301 7.66699 14 17 14h86c9.33301 0 13 -4.66699 11 -14l-248 -1352h664c9.33301 0 13 -4.66699 11 -14l-16 -81c-2 -9.33301 -7.66699 -14 -17 -14h-763z" />
    <glyph glyph-name="M" unicode="M" horiz-adv-x="1648" 
d="M113 0c-9.33301 0 -13.002 4.66699 -11.002 14l266 1447c2 9.33301 7.66699 14 17 14h91c9.33301 0 15.666 -4.33301 18.999 -13l278 -732l14.5 -38.5c5 -13 9.16699 -24.667 12.5 -35l8.5 -26l3.5 -10.5l7.5 10.5l19.5 26l26.5 35.5l29.5 40l548 732
c5.33301 7.33301 12.666 11 21.999 11h110c9.33301 0 13 -4.66699 11 -14l-267 -1447c-2 -9.33301 -7.66699 -14 -17 -14h-86c-9.33301 0 -13 4.66699 -11 14l220 1192l12 72c-1.33301 -0.666992 -7.66602 -8.66699 -18.999 -24l-37 -51l-529 -707
c-5.33301 -7.33301 -12.666 -11 -21.999 -11h-69c-9.33301 0 -15.666 4.33301 -18.999 13l-260 698l-20 58c-5.33301 16 -8.66602 24 -9.99902 24l-18 -89l-218 -1175c-2 -9.33301 -7.66699 -14 -17 -14h-86z" />
    <glyph glyph-name="N" unicode="N" horiz-adv-x="1426" 
d="M113 0c-9.33301 0 -13 4.66699 -11 14l266 1447c2 9.33301 7.66699 14 17 14h97c9.33301 0 15.666 -4.33301 18.999 -13l465 -1151c15.333 -36.667 27 -65.5 35 -86.5s12.667 -31.5 14 -31.5l235 1268c2 9.33301 7.66699 14 17 14h85c9.33301 0 13 -4.66699 11 -14
l-266 -1447c-2 -9.33301 -7.66699 -14 -17 -14h-102c-9.33301 -0 -15.666 4.33301 -18.999 13l-457 1143c-15.333 36 -27.5 65.833 -36.5 89.5s-13.833 35.5 -14.5 35.5l-235 -1267c-2 -9.33301 -7.66699 -14 -17 -14h-86z" />
    <glyph glyph-name="O" unicode="O" horiz-adv-x="1432" 
d="M596 -22c-90 0 -167.501 11.667 -232.501 35s-116.167 62 -153.5 116s-60.333 125.167 -69 213.5s-2 197.5 20 327.5l23 135c24 136.667 56.5 249.5 97.5 338.5s90.5 159.667 148.5 212s124.167 89 198.5 110s157.166 31.5 248.499 31.5
c90.667 0 168.334 -11.5 233.001 -34.5s115.5 -61.5 152.5 -115.5s59.667 -125.167 68 -213.5s1.5 -197.833 -20.5 -328.5l-23 -135c-23.333 -135.333 -55.166 -247.333 -95.499 -336s-89.5 -159.5 -147.5 -212.5s-124.333 -90.167 -199 -111.5s-157.667 -32 -249 -32z
M854.999 1380c-72 0 -137.329 -8.83496 -195.996 -26.502s-110.834 -48.167 -156.501 -91.5s-85 -101.166 -118 -173.499s-59.833 -163.5 -80.5 -273.5l-28 -155c-20 -111.333 -27 -203.333 -21 -276s23.667 -130.5 53 -173.5s70.166 -73.167 122.499 -90.5
s114.5 -26 186.5 -26c70 0 134.333 9.16699 193 27.5s111.167 49.333 157.5 93s86.166 101.834 119.499 174.501s60 163.667 80 273l28 153c20 110 27.167 201.333 21.5 274s-23.334 130.5 -53.001 173.5s-70.5 73.333 -122.5 91s-114 26.5 -186 26.5z" />
    <glyph glyph-name="P" unicode="P" horiz-adv-x="1271" 
d="M676 1385c-11.333 0 -26.4951 -0.333008 -45.4951 -1l-59.5 -2c-20.667 -0.666992 -40.334 -1.66699 -59.001 -3s-33.334 -2.33301 -44.001 -3l-135 -724c10 -1.33301 24.333 -2.33301 43 -3l58.5 -2c20.333 -0.666992 40.166 -1.16699 59.499 -1.5
s34.666 -0.5 45.999 -0.5c98.667 0 182.167 4.5 250.5 13.5s125.166 26 170.499 51s80.833 59.833 106.5 104.5s45.167 102.667 58.5 174l11 53c12.667 71.333 14.667 129.5 6 174.5s-31 80 -67 105s-86.667 42 -152 51s-148 13.5 -248 13.5zM112.005 0
c-9.33301 0 -12.999 4.66699 -10.999 14l269 1449c1.33301 9.33301 7 14.333 17 15c23.333 2 49.333 3.66699 78 5l86 4c28.667 1.33301 55.667 2.33301 81 3s46.666 1 63.999 1c109.333 0 203 -5.66699 281 -17s140.167 -33 186.5 -65s76.833 -76.5 91.5 -133.5
s13.667 -131.5 -3 -223.5l-14 -74c-12 -64.667 -27.167 -120.334 -45.5 -167.001s-41 -86.334 -68 -119.001s-59.167 -59 -96.5 -79s-80.5 -35.5 -129.5 -46.5s-105 -18.333 -168 -22s-133.5 -5.5 -211.5 -5.5c-14 0 -31.833 0.166992 -53.5 0.5s-43 0.833008 -64 1.5
s-40 1.33398 -57 2.00098s-27.833 1.33398 -32.5 2.00098l-97 -531c-2 -9.33301 -7.66699 -14 -17 -14h-86z" />
    <glyph glyph-name="Q" unicode="Q" horiz-adv-x="1434" 
d="M594 -22c-90 0 -167.332 12.002 -231.999 36.002s-115.667 63.167 -153 117.5s-60.333 125.5 -69 213.5s-2 196.333 20 325l23 135c24 137.333 56.5 250.666 97.5 339.999s90.5 160 148.5 212s124.167 88.333 198.5 109s157.166 31 248.499 31
c90.667 0 168.334 -11.833 233.001 -35.5s115.667 -62.5 153 -116.5s60.166 -125.167 68.499 -213.5s1.16602 -197.166 -21.501 -326.499l-23 -135c-20.667 -119.333 -48 -220.5 -82 -303.5s-74.5 -151.333 -121.5 -205s-100.5 -94.334 -160.5 -122.001
s-126.333 -45.834 -199 -54.501l156 -361c4 -8.66699 1.33301 -13 -8 -13h-116c-9.33301 0 -15.666 4.33301 -18.999 13zM854.001 1380c-72 0 -137.33 -8.83496 -195.997 -26.502s-110.834 -48.167 -156.501 -91.5s-85 -101.166 -118 -173.499s-59.833 -163.5 -80.5 -273.5
l-28 -155c-20 -111.333 -27 -203.333 -21 -276s23.667 -130.5 53 -173.5s70.166 -73.167 122.499 -90.5s114.5 -26 186.5 -26c70 0 134.333 9.16699 193 27.5s111.167 49.333 157.5 93s86.166 101.834 119.499 174.501s60 163.667 80 273l28 153
c20 110 27.167 201.333 21.5 274s-23.167 130.5 -52.5 173.5s-70 73.333 -122 91s-114.333 26.5 -187 26.5z" />
    <glyph glyph-name="R" unicode="R" horiz-adv-x="1349" 
d="M1014 0c-9.33301 0 -16.0039 4.33691 -20.0039 13.0039l-245 555c-25.333 -1.33301 -51.666 -2 -78.999 -2h-86c-43.333 0 -85.333 0.333008 -126 1s-87 2.66699 -139 6l-103 -559c-2 -9.33301 -7.66699 -14 -17 -14h-86c-9.33301 0 -13 4.66699 -11 14l267 1446
c1.33301 9.33301 7 14.333 17 15c64.667 5.33301 126.667 8.5 186 9.5s119 1.5 179 1.5c108 0 199.333 -4.83301 274 -14.5s133.834 -29.334 177.501 -59.001s72.167 -71.834 85.5 -126.501s12.333 -126.667 -3 -216l-16 -91c-12.667 -72 -30.5 -132.167 -53.5 -180.5
s-51.167 -87.833 -84.5 -118.5s-72.166 -53.834 -116.499 -69.501s-94.166 -26.834 -149.499 -33.501c4 -7.33301 7.5 -14.5 10.5 -21.5s6.16699 -13.5 9.5 -19.5l242 -523c4 -8.66699 1.33301 -13 -8 -13h-105zM734.996 1379h-73.001c-26 0 -51.333 -0.333008 -76 -1
s-47.5 -1.5 -68.5 -2.5s-37.833 -2.5 -50.5 -4.5l-127 -691c20.667 -2 43.334 -3.5 68.001 -4.5s49 -1.83301 73 -2.5s46.667 -1 68 -1h55c60 0 114 1.16699 162 3.5s91 7.33301 129 15s71.333 18.834 100 33.501s53.5 34.167 74.5 58.5s38.667 54.166 53 89.499
s26.166 78 35.499 128l11 59c14 76 15.667 135.5 5 178.5s-34.167 75 -70.5 96s-85.166 33.833 -146.499 38.5s-135.333 7 -222 7z" />
    <glyph glyph-name="S" unicode="S" horiz-adv-x="1165" 
d="M383 -22c-31.333 0 -62.833 0.830078 -94.5 2.49707s-62.834 3.83398 -93.501 6.50098s-59.667 6 -87 10s-52 8.66699 -74 14c-9.33301 2 -12 7.33301 -8 16l36 76c2.66699 5.33301 5.33398 8.66602 8.00098 9.99902s6.66699 1.66602 12 0.999023
c62 -10 118.167 -16.833 168.5 -20.5s100.166 -5.5 149.499 -5.5c99.333 0 181.333 7 246 21s116 35.667 154 65s64.667 66.666 80 111.999s23 99.666 23 162.999c0 32 -5.16699 59.167 -15.5 81.5s-27.166 42.666 -50.499 60.999s-53.833 36.5 -91.5 54.5
s-83.5 38.333 -137.5 61l-123 53c-47.333 20 -88.5 40.667 -123.5 62s-64.167 44.5 -87.5 69.5s-40.666 52.833 -51.999 83.5s-17 65.667 -17 105c0 74.667 9.83301 138.334 29.5 191.001s53.167 95.834 100.5 129.501s110.5 58.167 189.5 73.5s177.833 23 296.5 23
c58.667 0 115.667 -2.5 171 -7.5s103 -12.167 143 -21.5c10 -2 13 -7.33301 9 -16l-32 -75c-4 -8.66699 -10.667 -12 -20 -10c-19.333 3.33301 -40.833 6.33301 -64.5 9s-48.334 4.83398 -74.001 6.50098s-51.334 2.83398 -77.001 3.50098s-49.5 1 -71.5 1
c-97.333 0 -177 -5.33301 -239 -16s-111 -27.667 -147 -51s-60.833 -53.666 -74.5 -90.999s-20.5 -82.666 -20.5 -135.999c0 -34.667 6 -64 18 -88s29.833 -45.167 53.5 -63.5s52.834 -35.5 87.501 -51.5s74.667 -33 120 -51l145 -59c52 -21.333 95.5 -42.666 130.5 -63.999
s63 -44.333 84 -69s36 -51.5 45 -80.5s13.5 -61.5 13.5 -97.5c0 -90 -11 -166.167 -33 -228.5s-58 -113 -108 -152s-115.667 -67.167 -197 -84.5s-181.333 -26 -300 -26z" />
    <glyph glyph-name="T" unicode="T" horiz-adv-x="1163" 
d="M415 0c-9.33301 0 -13 4.66699 -11 14l250 1348h-486c-9.33301 0 -13 4.66699 -11 14l15 85c2 9.33301 7.66699 14 17 14h1087c9.33301 0 13 -4.66699 11 -14l-16 -85c-2 -9.33301 -7.66699 -14 -17 -14h-486l-249 -1348c-2 -9.33301 -7.66699 -14 -17 -14h-87z" />
    <glyph glyph-name="U" unicode="U" horiz-adv-x="1445" 
d="M597 -22c-82.667 0 -154.501 9.99902 -215.501 29.999s-109.833 51.167 -146.5 93.5s-60.667 96.333 -72 162s-8.33301 143.834 9 234.501l179 963c2 9.33301 7.66699 14 17 14h86c9.33301 0 13 -4.66699 11 -14l-173 -934c-14 -74 -19.5 -138.333 -16.5 -193
s17 -100.167 42 -136.5s62 -63.5 111 -81.5s112.167 -27 189.5 -27c78.667 0 146.334 8.83301 203.001 26.5s104.5 44.667 143.5 81s70.333 82 94 137s42.5 119.5 56.5 193.5l174 934c2 9.33301 7.66699 14 17 14h83c9.33301 0 13 -4.66699 11 -14l-179 -963
c-19.333 -102.667 -46.666 -187.5 -81.999 -254.5s-78.833 -120.167 -130.5 -159.5s-111.834 -66.833 -180.501 -82.5s-145.667 -23.5 -231 -23.5z" />
    <glyph glyph-name="V" unicode="V" horiz-adv-x="1265" 
d="M524 108h2.00098l733 1355c4.66699 8 11.667 12 21 12h98c9.33301 0 11.666 -4 6.99902 -12l-790 -1451c-4.66699 -8 -11.667 -12 -21 -12h-132c-10 0 -15.333 4.66699 -16 14l-253 1447c-0.666992 9.33301 3.33301 14 12 14h93c10 0 15.333 -4.66699 16 -14z" />
    <glyph glyph-name="W" unicode="W" horiz-adv-x="1831" 
d="M305 0c-9.33301 0 -14.002 4.67285 -14.002 14.0059l-49 1447c0 9.33301 4.66699 14 14 14h97c9.33301 0 14 -4.66699 14 -14l18 -1127l4 -233l10 22l24.5 56l32.5 74.5l35 77.5l518 1131c4 8.66699 10.667 13 20 13h91c9.33301 0 14.333 -4.66699 15 -14l98 -1123
c0 -2 0.666992 -9.33301 2 -22s2.83301 -27.834 4.5 -45.501s3.33398 -36.334 5.00098 -56.001s3.33398 -37.834 5.00098 -54.501s3 -30.667 4 -42l1.5 -17l89 241l435 1120c3.33301 8.66699 9.66602 13 18.999 13h101c8.66699 0 11.667 -4.33301 9 -13l-585 -1449
c-3.33301 -8.66699 -9.66602 -13 -18.999 -13h-129c-9.33301 0 -14.333 4.66699 -15 14l-110 1173c-1.33301 13.333 -2.33301 26.666 -3 39.999s-1.16699 25.166 -1.5 35.499s-0.666016 18.833 -0.999023 25.5l-0.5 10c0 -0.666992 -1.33301 -4.33398 -4 -11.001
l-10.5 -25.5l-15 -35l-17.5 -39.5l-545 -1174c-2.66699 -5.33301 -5.33398 -8.83301 -8.00098 -10.5s-6.66699 -2.5 -12 -2.5h-127z" />
    <glyph glyph-name="X" unicode="X" horiz-adv-x="1233" 
d="M951 0c-9.33301 0 -16.001 4.33301 -20.001 13l-302 641l-541 -643c-3.33301 -4 -6.66602 -6.83301 -9.99902 -8.5s-7.66602 -2.5 -12.999 -2.5h-121c-9.33301 0 -11 3.66699 -5 11l625 725l-356 726c-4 8.66699 -1.33301 13 8 13h106
c5.33301 0 9.33301 -0.833008 12 -2.5s5.33398 -5.16699 8.00098 -10.5l302 -641l542 643c3.33301 4 6.66602 6.83301 9.99902 8.5s7.66602 2.5 12.999 2.5h121c9.33301 0 11 -3.66699 5 -11l-625 -726l355 -725c4 -8.66699 1.33301 -13 -8 -13h-106z" />
    <glyph glyph-name="Y" unicode="Y" horiz-adv-x="1131" 
d="M401 0c-9.33301 0 -12.998 4.66699 -10.998 14l91 501l-315 947c-2.66699 8.66699 0.666016 13 9.99902 13h92c9.33301 0 15.333 -4.33301 18 -13l270 -810l571 812c5.33301 7.33301 12.666 11 21.999 11h104c9.33301 0 11.333 -3.66699 6 -11l-664 -948l-92 -502
c-2 -9.33301 -7.66699 -14 -17 -14h-85z" />
    <glyph glyph-name="Z" unicode="Z" horiz-adv-x="1154" 
d="M-15 0c-9.33301 0 -12.999 4.66699 -10.999 14l15 78c1.33301 5.33301 2.83301 9.83301 4.5 13.5s4.16699 7.5 7.5 11.5l1058 1249h-805c-8.66699 0 -12.667 4.66699 -12 14l15 81c0.666992 9.33301 6 14 16 14h927c8.66699 0 12.667 -4.66699 12 -14l-15 -78
c-0.666992 -5.33301 -1.83398 -9.83301 -3.50098 -13.5s-4.16699 -7.5 -7.5 -11.5l-1057 -1250h822c9.33301 0 13 -4.66699 11 -14l-15 -80c-2 -9.33301 -7.66699 -14 -17 -14h-945z" />
    <glyph glyph-name="bracketleft" unicode="[" horiz-adv-x="603" 
d="M16 -389c-9.33301 0 -13 4.66699 -11 14l355 1917c2 9.33301 7.66699 14 17 14h384c9.33301 0 13 -4.66699 11 -14l-14 -81c-2 -9.33301 -7.66699 -14 -17 -14h-285l-319 -1727h284c9.33301 0 13 -4.66699 11 -14l-14 -81c-2 -9.33301 -7.66699 -14 -17 -14h-385z" />
    <glyph glyph-name="backslash" unicode="\" horiz-adv-x="1017" 
d="M729 0c-9.33301 0 -15.334 4.33301 -18.001 13l-492 1529c-3.33301 9.33301 0 14 10 14h95c9.33301 0 15.333 -4.33301 18 -13l494 -1530c2.66699 -8.66699 -0.666016 -13 -9.99902 -13h-97z" />
    <glyph glyph-name="bracketright" unicode="]" horiz-adv-x="578" 
d="M548 1556c9.33301 0 13 -4.66699 11 -14l-355 -1917c-2 -9.33301 -7.66699 -14 -17 -14h-384c-9.33301 0 -13 4.66699 -11 14l14 81c2 9.33301 7.66699 14 17 14h285l319 1727h-284c-9.33301 0 -13 4.66699 -11 14l14 81c2 9.33301 7.66699 14 17 14h385z" />
    <glyph glyph-name="asciicircum" unicode="^" horiz-adv-x="1212" 
d="M494 1162c-4 0 -6.5 0.832031 -7.5 2.49902s0.166992 3.83398 3.5 6.50098l324 293c6 6 14 9 24 9h82c9.33301 0 16.666 -3.66699 21.999 -11l209 -289c5.33301 -7.33301 3.33301 -11 -6 -11h-95c-9.33301 0 -16.666 4 -21.999 12l-154 222l-250 -225
c-6 -6 -14 -9 -24 -9h-106z" />
    <glyph glyph-name="underscore" unicode="_" horiz-adv-x="917" 
d="M-83 -221c-9.33301 0 -13 4.66699 -11 14l15 80c2 9.33301 7.66699 14 17 14h783c9.33301 0 13 -4.66699 11 -14l-15 -80c-2 -9.33301 -7.66699 -14 -17 -14h-783z" />
    <glyph glyph-name="grave" unicode="`" 
d="M676 1262c-9.33301 0 -16.667 3.66699 -22 11l-173 237c-5.33301 7.33301 -3.33301 11 6 11h122c9.33301 0 16.333 -4 21 -12l142 -235c4 -8 1.66699 -12 -7 -12h-89z" />
    <glyph glyph-name="a" unicode="a" horiz-adv-x="1167" 
d="M940 976c-34.667 4 -72 7.16895 -112 9.50195s-85 3.5 -135 3.5c-76 0 -139.333 -6.5 -190 -19.5s-92.834 -35.167 -126.501 -66.5s-60.667 -73.833 -81 -127.5s-38.5 -120.834 -54.5 -201.501l-14 -74c-15.333 -81.333 -22.666 -149 -21.999 -203s12 -97 34 -129
s56.5 -54.667 103.5 -68s109.833 -20 188.5 -20c44.667 0 88.667 1.16699 132 3.5s80.333 5.16602 111 8.49902zM513 -21.998c-94 0 -170.831 8.83301 -230.498 26.5s-104.834 46.334 -135.501 86.001s-48.167 91.167 -52.5 154.5s2.16699 140.666 19.5 231.999l21 116
c12.667 66 27 124.333 43 175s35.167 94.5 57.5 131.5s48 67.833 77 92.5s62.833 44.334 101.5 59.001s82.5 25.167 131.5 31.5s104.5 9.5 166.5 9.5c25.333 0 52.5 -0.5 81.5 -1.5s58.5 -2.33301 88.5 -4s59.5 -3.66699 88.5 -6s56.5 -4.83301 82.5 -7.5
c9.33301 -2 13 -7.33301 11 -16l-193 -1043c-1.33301 -9.33301 -7 -14.333 -17 -15c-62.667 -6.66699 -122.334 -11.834 -179.001 -15.501s-110.667 -5.5 -162 -5.5z" />
    <glyph glyph-name="b" unicode="b" horiz-adv-x="1166" 
d="M608 989c-18 0 -37.8311 -0.499023 -59.498 -1.49902s-43.667 -2.33301 -66 -4s-44.166 -3.83398 -65.499 -6.50098s-41 -5.66699 -59 -9l-163 -871c38 -5.33301 77.667 -9.5 119 -12.5s83.666 -4.5 126.999 -4.5c51.333 0 96.666 2.83301 135.999 8.5
s74.166 15 104.499 28s56.666 30.167 78.999 51.5s41.833 47.5 58.5 78.5s31 67.333 43 109s23 89.5 33 143.5l14 76c14.667 80 21.834 146.5 21.501 199.5s-11.5 95.333 -33.5 127s-56.167 54.167 -102.5 67.5s-108.5 20 -186.5 20zM420.002 -21.999c-52 0 -106 2 -162 6
s-114 11.667 -174 23c-9.33301 2 -13 7.66699 -11 17l289 1564c2 9.33301 7.66699 15 17 17l87 18c9.33301 2 13 -1.66699 11 -11l-101 -544c37.333 6 78.833 11.5 124.5 16.5s90.167 7.5 133.5 7.5c92 0 167 -9.16699 225 -27.5s101.833 -47.5 131.5 -87.5
s46.167 -91.5 49.5 -154.5s-3.33398 -139.5 -20.001 -229.5l-21 -117c-12 -64.667 -26.167 -122 -42.5 -172s-35.666 -93.5 -57.999 -130.5s-48.333 -68 -78 -93s-63.834 -45 -102.501 -60s-82.667 -25.833 -132 -32.5s-104.666 -10 -165.999 -10z" />
    <glyph glyph-name="c" unicode="c" horiz-adv-x="960" 
d="M512 -22c-91.333 0 -166.667 8.16504 -226 24.498s-104.5 44 -135.5 83s-49 91.333 -54 157s1.5 148.167 19.5 247.5l15 92c11.333 63.333 24.833 119.833 40.5 169.5s34.834 93.5 57.501 131.5s49 70.167 79 96.5s64.833 47.833 104.5 64.5
s84.834 28.834 135.501 36.501s108 11.5 172 11.5c43.333 0 84.333 -2 123 -6s73.667 -8.66699 105 -14c10 -2 13 -7.33301 9 -16l-27 -71c-2 -5.33301 -4.33301 -8.66602 -7 -9.99902s-6.66699 -1.66602 -12 -0.999023c-32 5.33301 -66.333 9 -103 11s-72 3 -106 3
c-76.667 0 -141 -6.83301 -193 -20.5s-95.5 -36.834 -130.5 -69.501s-63.167 -76.167 -84.5 -130.5s-39.333 -121.833 -54 -202.5l-12 -61c-15.333 -82.667 -22.333 -151.167 -21 -205.5s13.5 -97.666 36.5 -129.999s58 -55 105 -68s108.833 -19.5 185.5 -19.5
c38 0 76 1.33301 114 4s73 6.66699 105 12c9.33301 2 13.666 -1.66699 12.999 -11l-2 -70c-0.666992 -10 -5.66699 -15.667 -15 -17c-16 -3.33301 -33.833 -6.33301 -53.5 -9s-39.834 -4.83398 -60.501 -6.50098s-41.667 -3 -63 -4s-41.333 -1.5 -60 -1.5z" />
    <glyph glyph-name="d" unicode="d" horiz-adv-x="1165" 
d="M693 989c-76.667 0 -140.501 -6.66699 -191.501 -20s-93.333 -35.833 -127 -67.5s-60.667 -74.167 -81 -127.5s-37.833 -120 -52.5 -200l-15 -74c-15.333 -81.333 -22.666 -149 -21.999 -203s12 -97 34 -129s56.5 -54.667 103.5 -68s109.833 -20 188.5 -20
c41.333 0 82.833 1.5 124.5 4.5s81.5 7.16699 119.5 12.5l163 868c-16.667 4 -35.5 7.5 -56.5 10.5s-42.333 5.5 -64 7.5s-43.167 3.5 -64.5 4.5s-41 1.5 -59 1.5zM511.999 -22c-94 0 -170.831 8.66699 -230.498 26s-104.834 45.666 -135.501 84.999
s-48.167 90.833 -52.5 154.5s2.16699 141.5 19.5 233.5l21 116c18 96 40.667 175.833 68 239.5s63.333 114.834 108 153.501s99.5 66 164.5 82s143.833 24 236.5 24c42 0 84.333 -2.5 127 -7.5s81.667 -11.167 117 -18.5l96 522c2 9.33301 7.66699 15 17 17l88 18
c9.33301 2 13 -1.66699 11 -11l-294 -1588c-2 -10 -7.66699 -15.333 -17 -16c-62.667 -10 -122.834 -17.5 -180.501 -22.5s-112.167 -7.5 -163.5 -7.5z" />
    <glyph glyph-name="e" unicode="e" horiz-adv-x="1145" 
d="M485 -22c-84 0 -153.831 9.5 -209.498 28.5s-98.334 49.5 -128.001 91.5s-46.834 96.333 -51.501 163s1.66602 147.667 18.999 243l13 78c16 88 38 164.167 66 228.5s64 117.333 108 159s96.833 72.5 158.5 92.5s134.167 30 217.5 30
c66.667 0 124.167 -7.66699 172.5 -23s88 -37.833 119 -67.5s53.833 -66 68.5 -109s22 -92.5 22 -148.5c0 -30 -1.83301 -57.667 -5.5 -83s-8 -48.166 -13 -68.499s-10.167 -37.666 -15.5 -51.999s-9.66602 -25.5 -12.999 -33.5c-3.33301 -8.66699 -9.66602 -13 -18.999 -13
l-773 -1c-13.333 -76.667 -19 -141.334 -17 -194.001s13.833 -95.334 35.5 -128.001s54.167 -56.167 97.5 -70.5s99.666 -21.5 168.999 -21.5c56 0 112.5 1.16699 169.5 3.5s116.5 6.5 178.5 12.5c9.33301 0.666992 14 -3.66602 14 -12.999l-1 -68
c0 -9.33301 -4.66699 -14.333 -14 -15c-58 -6.66699 -116.667 -11.834 -176 -15.501s-123.333 -5.5 -192 -5.5zM935.002 595c12 68 16.834 126.834 14.501 176.501s-14 90.667 -35 123s-52.167 56.333 -93.5 72s-95.333 23.5 -162 23.5
c-64.667 0 -120.334 -7.83301 -167.001 -23.5s-86.5 -39.834 -119.5 -72.501s-60 -74.167 -81 -124.5s-38.5 -110.5 -52.5 -180.5z" />
    <glyph glyph-name="f" unicode="f" horiz-adv-x="688" 
d="M115 979c-9.33301 0.666992 -12.9971 5.66309 -10.9971 14.9961l11 63c2 9.33301 7.66699 14 17 14h206l24 127c14.667 79.333 30.334 146.333 47.001 201s39.334 98.834 68.001 132.501s65.834 57.834 111.501 72.501s104.5 22 176.5 22c32 0 63.167 -1.33301 93.5 -4
s57.166 -5.66699 80.499 -9c10 -1.33301 13 -6.33301 9 -15l-28 -72c-2 -5.33301 -4.33301 -8.66602 -7 -9.99902s-6.66699 -1.66602 -12 -0.999023c-10.667 0.666992 -22.334 1.5 -35.001 2.5s-25.667 1.66699 -39 2l-38.5 1c-12.333 0.333008 -23.5 0.5 -33.5 0.5
c-45.333 0 -83.166 -4 -113.499 -12s-55.333 -21 -75 -39s-35.167 -41.5 -46.5 -70.5s-21 -64.167 -29 -105.5l-41 -223h277c8.66699 0 11.667 -4.33301 9 -13l-30 -76c-3.33301 -8.66699 -9.66602 -13 -18.999 -13h-256l-207 -1122c-12.667 -68 -28.334 -123 -47.001 -165
s-41.667 -74.5 -69 -97.5s-60.333 -38.333 -99 -46s-84.334 -11.5 -137.001 -11.5c-22 0 -46.167 1 -72.5 3s-49.833 5.66699 -70.5 11c-8.66699 2.66699 -11.334 8.33398 -8.00098 17.001l26 71c3.33301 8.66699 9.66602 12 18.999 10c17.333 -3.33301 36.666 -6 57.999 -8
s41.333 -3 60 -3c37.333 0 68.666 3 93.999 9s46.5 17.167 63.5 33.5s31 38.666 42 66.999s20.833 64.833 29.5 109.5l207 1122z" />
    <glyph glyph-name="g" unicode="g" horiz-adv-x="1169" 
d="M293 -473c-18 0 -38.3369 0.331055 -61.0039 0.998047s-46 1.83398 -70 3.50098s-47.667 3.83398 -71 6.50098s-44.333 5.66699 -63 9c-9.33301 2 -12.666 7.33301 -9.99902 16l24 70c2.66699 8.66699 8.66699 12 18 10c34.667 -6 73.667 -10.167 117 -12.5
s86 -3.5 128 -3.5c66.667 0 125 4.5 175 13.5s93 26.667 129 53s66 63.666 90 111.999s43.333 111.5 58 189.5c-14 -2 -30.667 -3.83301 -50 -5.5s-39.666 -3.16699 -60.999 -4.5s-43.166 -2.5 -65.499 -3.5s-43.833 -1.5 -64.5 -1.5c-96 0 -174 9.16699 -234 27.5
s-105.167 47.333 -135.5 87s-47.5 91 -51.5 154s2.66699 139.167 20 228.5l21 116c12.667 66 27 124.333 43 175s35.167 94.5 57.5 131.5s48 67.833 77 92.5s62.833 44.334 101.5 59.001s82.5 25.167 131.5 31.5s104.5 9.5 166.5 9.5c25.333 0 52.5 -0.5 81.5 -1.5
s58.5 -2.33301 88.5 -4s59.5 -3.66699 88.5 -6s56.5 -4.83301 82.5 -7.5c9.33301 -2 13 -7.33301 11 -16l-195 -1054c-18.667 -100.667 -43.667 -182 -75 -244s-70.166 -110.167 -116.499 -144.5s-101.333 -57.5 -165 -69.5s-137.167 -18 -220.5 -18zM693.996 988.998
c-76 0 -139.334 -6.49805 -190.001 -19.498s-92.667 -35.167 -126 -66.5s-60.333 -73.833 -81 -127.5s-39 -120.834 -55 -201.501l-14 -74c-15.333 -81.333 -22.666 -149 -21.999 -203s12 -97 34 -129s56.5 -54.667 103.5 -68s109.833 -20 188.5 -20
c44.667 0 88.667 1.16699 132 3.5s80.333 5.16602 111 8.49902l166 884c-34.667 4 -72 7.16699 -112 9.5s-85 3.5 -135 3.5z" />
    <glyph glyph-name="h" unicode="h" horiz-adv-x="1199" 
d="M818 0c-9.33301 0 -12.9971 4.66406 -10.9971 13.9971l114 613c12.667 70 19.5 128 20.5 174s-6 82.5 -21 109.5s-39.333 45.833 -73 56.5s-78.834 16 -135.501 16c-26.667 0 -55.334 -1.83301 -86.001 -5.5s-61.834 -9.16699 -93.501 -16.5s-63.5 -16.666 -95.5 -27.999
s-62.333 -24.666 -91 -39.999l-162 -879c-2 -9.33301 -7.66699 -14 -17 -14h-83c-9.33301 0 -13 4.66699 -11 14l291 1574c2 9.33301 7.66699 15 17 17l87 18c9.33301 2 13 -1.66699 11 -11l-114 -619c30 16 61.833 30 95.5 42s67.667 22.333 102 31s68 15.167 101 19.5
s64.167 6.5 93.5 6.5c72 0 129.667 -8.5 173 -25.5s75 -43.667 95 -80s30 -83.166 30 -140.499s-7.33301 -126.333 -22 -207l-115 -625c-2 -9.33301 -7.66699 -14 -17 -14h-83z" />
    <glyph glyph-name="i" unicode="i" horiz-adv-x="478" 
d="M83 0c-9.33301 0 -13 4.66699 -11 14l192 1043c2 9.33301 7.66699 14 17 14h83c9.33301 0 13 -4.66699 11 -14l-193 -1043c-2 -9.33301 -7.66699 -14 -17 -14h-82zM310 1252c-9.33301 0 -13 4.66699 -11 14l46 258c2 9.33301 7.66699 15 17 17l98 18
c9.33301 2 13 -1.66699 11 -11l-52 -282c-2 -9.33301 -7.66699 -14 -17 -14h-92z" />
    <glyph glyph-name="j" unicode="j" horiz-adv-x="478" 
d="M-200 -473c-22 0 -46.1631 1.00195 -72.4961 3.00195s-49.833 5.66699 -70.5 11c-8.66699 2.66699 -11.334 8.33398 -8.00098 17.001l26 71c3.33301 8.66699 9.66602 12 18.999 10c17.333 -3.33301 36.5 -6 57.5 -8s41.167 -3 60.5 -3c37.333 0 68.833 3.16699 94.5 9.5
s47 17.666 64 33.999s31 38.666 42 66.999s20.5 64.5 28.5 108.5l223 1210c2 9.33301 7.66699 14 17 14h83c9.33301 0 13 -4.66699 11 -14l-223 -1210c-12.667 -66 -28.167 -119.667 -46.5 -161s-41.333 -73.833 -69 -97.5s-60.834 -39.834 -99.501 -48.501
s-84.334 -13 -137.001 -13zM310.004 1252c-9.33301 0 -13 4.66699 -11 14l46 258c2 9.33301 7.66699 15 17 17l98 18c9.33301 2 13 -1.66699 11 -11l-51 -282c-2 -9.33301 -7.66699 -14 -17 -14h-93z" />
    <glyph glyph-name="k" unicode="k" horiz-adv-x="1050" 
d="M782 0c-10 0 -16.667 4 -20 12l-321 614l-166 -115l-91 -497c-2 -9.33301 -7.66699 -14 -17 -14h-83c-9.33301 0 -13 4.66699 -11 14l291 1574c2 9.33301 7.66699 15 17 17l87 18c9.33301 2 13 -1.66699 11 -11l-178 -963l595 414c7.33301 5.33301 15.666 8 24.999 8h148
c4 0 6.16699 -0.833008 6.5 -2.5s-1.16699 -3.5 -4.5 -5.5l-536 -372l366 -679c4.66699 -8 2.33398 -12 -6.99902 -12h-112z" />
    <glyph glyph-name="l" unicode="l" horiz-adv-x="490" 
d="M89 0c-9.33301 0 -13 4.66699 -11 14l291 1574c2 9.33301 7.66699 15 17 17l87 18c9.33301 2 13 -1.66699 11 -11l-296 -1598c-2 -9.33301 -7.66699 -14 -17 -14h-82z" />
    <glyph glyph-name="m" unicode="m" horiz-adv-x="1731" 
d="M83 0c-9.33301 0 -12.9971 4.66895 -10.9971 14.002l196 1062c2 9.33301 7.66699 14 17 14h60c9.33301 0 14 -4.66699 14 -14l1 -83c46.667 29.333 98.667 53.166 156 71.499s114.333 27.5 171 27.5c59.333 0 108.666 -7.16699 147.999 -21.5
s69.666 -37.833 90.999 -70.5c62.667 30 125.167 52.833 187.5 68.5s120.833 23.5 175.5 23.5c66.667 0 121.667 -7.5 165 -22.5s76.166 -38.667 98.499 -71s34.833 -74 37.5 -125s-2.66602 -112.5 -15.999 -184.5l-124 -675c-2 -9.33301 -7.66699 -14 -17 -14h-82
c-9.33301 0 -13 4.66699 -11 14l118 641c12.667 68.667 18.667 124.5 18 167.5s-9.16699 76.5 -25.5 100.5s-40.833 40.167 -73.5 48.5s-74.334 12.5 -125.001 12.5c-45.333 0 -92 -5.33301 -140 -16s-99.333 -28.667 -154 -54c10.667 -62.667 6 -147.334 -14 -254.001
l-120 -646c-2 -9.33301 -7.66699 -14 -17 -14h-80c-9.33301 0 -13 4.66699 -11 14l117 636c12.667 68.667 18.5 124.667 17.5 168s-9.16699 77.333 -24.5 102s-38 41.5 -68 50.5s-68 13.5 -114 13.5c-43.333 0 -91 -6.5 -143 -19.5s-104 -36.833 -156 -71.5l-163 -879
c-2 -9.33301 -7.66699 -14 -17 -14h-82z" />
    <glyph glyph-name="n" unicode="n" horiz-adv-x="1198" 
d="M83 0c-9.33301 0 -12.998 4.66504 -10.998 13.998l196 1062c2 9.33301 7.66699 14 17 14h60c9.33301 0 14 -4.66699 14 -14l2 -85c30 16 62 30.333 96 43s68.167 23.167 102.5 31.5s68.333 14.833 102 19.5s65.167 7 94.5 7c72 0 129.667 -8.66699 173 -26
s75 -44.333 95 -81s29.833 -83.5 29.5 -140.5s-7.83301 -125.5 -22.5 -205.5l-114 -625c-2 -9.33301 -7.66699 -14 -17 -14h-83c-9.33301 0 -13 4.66699 -11 14l113 613c12.667 70 19.5 128 20.5 174s-6 82.5 -21 109.5s-39.167 45.833 -72.5 56.5s-78.333 16 -135 16
c-26.667 0 -55.334 -1.83301 -86.001 -5.5s-61.834 -9.16699 -93.501 -16.5s-63.5 -16.666 -95.5 -27.999s-62.333 -24.666 -91 -39.999l-163 -879c-2 -9.33301 -7.66699 -14 -17 -14h-82z" />
    <glyph glyph-name="o" unicode="o" horiz-adv-x="1181" 
d="M659 990c-66 0 -122.667 -7.99805 -170 -23.998s-87.5 -41.167 -120.5 -75.5s-60 -78 -81 -131s-38.5 -116.5 -52.5 -190.5l-12 -69c-13.333 -74 -19.5 -137.5 -18.5 -190.5s11.5 -96.5 31.5 -130.5s50.667 -59.167 92 -75.5s95.333 -24.5 162 -24.5
c66 0 122.667 8 170 24s87.5 41.167 120.5 75.5s60 78.166 81 131.499s38.5 117.333 52.5 192l12 67c14 73.333 20.333 136.5 19 189.5s-12 96.667 -32 131s-50.667 59.666 -92 75.999s-95.333 24.5 -162 24.5zM471 -21.998c-81.333 0 -148.831 10.168 -202.498 30.501
s-94.834 51.5 -123.501 93.5s-45.5 95.167 -50.5 159.5s0.833008 140.5 17.5 228.5l15 87c17.333 92 40.5 170.667 69.5 236s65.667 118.666 110 159.999s97 71.5 158 90.5s132.167 28.5 213.5 28.5c82 0 150 -10.167 204 -30.5s95.333 -51.5 124 -93.5
s45.167 -95.5 49.5 -160.5s-1.83398 -141.833 -18.501 -230.5l-15 -87c-16.667 -92 -39.5 -170.5 -68.5 -235.5s-65.5 -118 -109.5 -159s-96.667 -70.833 -158 -89.5s-133 -28 -215 -28z" />
    <glyph glyph-name="p" unicode="p" horiz-adv-x="1166" 
d="M608 989c-42 0 -84.498 -1.33398 -127.498 -4.00098s-83.833 -6.66699 -122.5 -12l-161 -870c16.667 -4 35 -7.33301 55 -10s40.5 -5 61.5 -7s42.167 -3.5 63.5 -4.5s41.333 -1.5 60 -1.5c78 0 142.833 6.66699 194.5 20s94.5 36 128.5 68s61.167 74.833 81.5 128.5
s37.833 120.5 52.5 200.5l14 75c15.333 80.667 22.666 147.834 21.999 201.501s-12 96.5 -34 128.5s-56.333 54.5 -103 67.5s-108.334 19.5 -185.001 19.5zM-1.99805 -451.001c-9.33301 0 -13.001 4.66699 -11.001 14l275 1484c2 10 7.66699 15.333 17 16
c63.333 11.333 124 19 182 23s113 6 165 6c92 0 167.5 -8.33301 226.5 -25s103.833 -44.5 134.5 -83.5s48.167 -90.333 52.5 -154s-2.16699 -142.5 -19.5 -236.5l-19 -113c-17.333 -95.333 -39.666 -175 -66.999 -239s-63.333 -115.5 -108 -154.5
s-99.834 -66.833 -165.501 -83.5s-145.5 -25 -239.5 -25c-41.333 0 -83.666 2.33301 -126.999 7s-82 10.667 -116 18l-80 -440c-2 -9.33301 -7.66699 -14 -17 -14h-83z" />
    <glyph glyph-name="q" unicode="q" horiz-adv-x="1166" 
d="M695 989c-77.333 0 -141.668 -6.49902 -193.001 -19.499s-93.833 -35.5 -127.5 -67.5s-60.667 -74.833 -81 -128.5s-37.833 -120.834 -52.5 -201.501l-15 -75c-15.333 -80 -22.666 -146.833 -21.999 -200.5s12 -96.5 34 -128.5s56.333 -54.667 103 -68s109 -20 187 -20
c18.667 0 38.667 0.5 60 1.5s43 2.5 65 4.5s43.5 4.33301 64.5 7s40.5 6 58.5 10l161 870c-36.667 5.33301 -75.5 9.33301 -116.5 12s-82.833 4 -125.5 4zM686.998 -450.999c-9.33301 0 -13 4.66699 -11 14l82 440c-36.667 -7.33301 -77.5 -13.333 -122.5 -18
s-87.5 -7 -127.5 -7c-94.667 0 -171.5 9 -230.5 27s-103.167 47 -132.5 87s-45.833 91.667 -49.5 155s2.83301 140.333 19.5 231l19 115c18 98 41 179.167 69 243.5s64.5 115.5 109.5 153.5s100.167 64.5 165.5 79.5s144.333 22.5 237 22.5c52 0 106.5 -2.16699 163.5 -6.5
s114.5 -11.833 172.5 -22.5c9.33301 -0.666992 13 -6 11 -16l-275 -1484c-2 -9.33301 -7.66699 -14 -17 -14h-83z" />
    <glyph glyph-name="r" unicode="r" horiz-adv-x="710" 
d="M83 0c-9.33301 0 -13 4.66797 -11 14.001l196 1062c2 9.33301 7.66699 14 17 14h60c9.33301 0 14 -4.66699 14 -14l1 -69c22.667 14 47 26.333 73 37s52.833 19.5 80.5 26.5s55.667 12.333 84 16s55.5 5.5 81.5 5.5c13.333 0 25.333 -0.333008 36 -1s20 -1.66699 28 -3
c9.33301 -2 12.666 -7.33301 9.99902 -16l-24 -84c-2.66699 -8.66699 -8.66699 -12.667 -18 -12c-9.33301 1.33301 -18.333 2.16602 -27 2.49902s-18.667 0.5 -30 0.5c-51.333 0 -101.666 -5 -150.999 -15s-101.333 -29.333 -156 -58l-165 -892
c-2 -9.33301 -7.66699 -14 -17 -14h-82z" />
    <glyph glyph-name="s" unicode="s" horiz-adv-x="977" 
d="M321 -22c-18 0 -39.665 0.496094 -64.998 1.49609s-51.666 2.66699 -78.999 5s-54.666 5.5 -81.999 9.5s-52.333 9 -75 15c-8.66699 2.66699 -11.334 8.33398 -8.00098 17.001l26 71c3.33301 8.66699 9.66602 12 18.999 10c48 -11.333 94 -18.666 138 -21.999
s90.333 -5 139 -5c78.667 0 142.167 3.83301 190.5 11.5s85.833 20.5 112.5 38.5s44.667 41.5 54 70.5s14 64.833 14 107.5c0 20.667 -3.33301 38.5 -10 53.5s-17.667 29 -33 42s-35.333 25.5 -60 37.5s-55.334 25.667 -92.001 41l-171 67c-30.667 12.667 -58 25.5 -82 38.5
s-44.333 27.833 -61 44.5s-29.334 36 -38.001 58s-13 48.333 -13 79c0 59.333 7.83301 109.5 23.5 150.5s42 74.333 79 100s85.833 44.167 146.5 55.5s136 17 226 17c52 0 102.167 -2.16699 150.5 -6.5s89.5 -9.16602 123.5 -14.499c10 -1.33301 13 -6.33301 9 -15l-28 -71
c-2 -5.33301 -4.33301 -8.66602 -7 -9.99902s-6.66699 -1.66602 -12 -0.999023c-33.333 4.66699 -69 8.33398 -107 11.001s-84.333 4 -139 4c-62 0 -115.167 -2.66699 -159.5 -8s-81 -15.333 -110 -30s-50.333 -35.334 -64 -62.001s-20.5 -61.334 -20.5 -104.001
c0 -17.333 2.83301 -32.833 8.5 -46.5s15.5 -26.5 29.5 -38.5s33 -23.833 57 -35.5s54 -24.5 90 -38.5l144 -55c40 -15.333 74.667 -30.5 104 -45.5s53.666 -31.5 72.999 -49.5s33.833 -38.5 43.5 -61.5s14.5 -50.5 14.5 -82.5c0 -65.333 -8.16699 -120.5 -24.5 -165.5
s-43.666 -81.5 -81.999 -109.5s-89.5 -48.167 -153.5 -60.5s-143.667 -18.5 -239 -18.5z" />
    <glyph glyph-name="t" unicode="t" horiz-adv-x="743" 
d="M354 -22c-38.667 0 -71.6699 3.16699 -99.0029 9.5s-48.666 19.333 -63.999 39s-24.333 47.5 -27 83.5s1.66602 83.667 12.999 143l133 718l-208 11c-8.66699 0.666992 -12.667 5.66699 -12 15l11 60c0.666992 9.33301 6 14 16 14h211l37 199c2 9.33301 7.66699 15 17 17
l88 18c9.33301 2 13 -1.66699 11 -11l-43 -223h334c8.66699 0 11.667 -4.33301 9 -13l-29 -74c-3.33301 -8.66699 -9.66602 -13 -18.999 -13h-313l-132 -715c-7.33301 -38.667 -10.666 -69.5 -9.99902 -92.5s5.33398 -40.667 14.001 -53s21.5 -20.333 38.5 -24
s38.167 -5.5 63.5 -5.5c23.333 0 48.333 1.33301 75 4s49.667 6 69 10c9.33301 2 14 -1.66699 14 -11l-3 -67c0 -9.33301 -4.66699 -15 -14 -17c-23.333 -5.33301 -51.333 -10.333 -84 -15s-65 -7 -97 -7z" />
    <glyph glyph-name="u" unicode="u" horiz-adv-x="1196" 
d="M495 -22c-89.333 0 -161.167 8.3291 -215.5 24.9961s-94.666 43 -120.999 79s-40.666 82.333 -42.999 139s4.16699 125.334 19.5 206.001l117 630c2 9.33301 7.66699 14 17 14h82c9.33301 0 13 -4.66699 11 -14l-115 -626c-13.333 -70.667 -19 -128.667 -17 -174
s13.167 -81 33.5 -107s51 -43.833 92 -53.5s93.833 -14.5 158.5 -14.5c24 0 49.167 0.833008 75.5 2.5s52.666 3.83398 78.999 6.50098s51.666 5.83398 75.999 9.50098s46.5 7.83398 66.5 12.501l175 944c2 9.33301 7.66699 14 17 14h83c9.33301 0 13 -4.66699 11 -14
l-186 -1013c-2 -9.33301 -7.66699 -15 -17 -17c-25.333 -6 -53.333 -12 -84 -18s-63.167 -11.167 -97.5 -15.5s-70 -8 -107 -11s-73.833 -4.5 -110.5 -4.5z" />
    <glyph glyph-name="v" unicode="v" horiz-adv-x="991" 
d="M309 0c-10 0 -15.332 4.66699 -15.999 14l-185 1043c-0.666992 9.33301 3.33301 14 12 14h88c10 0 15.333 -4.66699 16 -14l163 -946l515 948c4.66699 8 11.667 12 21 12h95c9.33301 0 11.666 -4 6.99902 -12l-572 -1047c-4.66699 -8 -11.667 -12 -21 -12h-123z" />
    <glyph glyph-name="w" unicode="w" horiz-adv-x="1637" 
d="M264 0c-9.33301 0 -14.3311 4.66309 -14.998 13.9961l-100 1043c-0.666992 9.33301 3.66602 14 12.999 14h87c9.33301 0 14.333 -4.66699 15 -14l77 -863c0 -7.33301 0.166992 -16.166 0.5 -26.499s0.833008 -20.166 1.5 -29.499s1.16699 -17.166 1.5 -23.499
s0.833008 -9.5 1.5 -9.5c1.33301 0.666992 6 9.83398 14 27.501s18 38.167 30 61.5l449 865c3.33301 8 10 12 20 12h87c10 0 15.333 -4.66699 16 -14l125 -865c3.33301 -22 5.83301 -42 7.5 -60s3.16699 -27 4.5 -27c0.666992 0 2.5 3.33301 5.5 10l10.5 24l12.5 28.5
c4.33301 9.66699 8.5 18.167 12.5 25.5l394 865c4 8.66699 10.667 13 20 13h94c9.33301 0 12 -4.33301 8 -13l-489 -1045c-2.66699 -5.33301 -5.33398 -8.83301 -8.00098 -10.5s-6.66699 -2.5 -12 -2.5h-114c-10 0 -15.333 4.66699 -16 14l-130 826
c-2 8.66699 -3.5 17.5 -4.5 26.5s-2 17.167 -3 24.5s-1.66699 13.333 -2 18s-0.833008 7 -1.5 7s-2 -2.5 -4 -7.5s-4.83301 -11.167 -8.5 -18.5s-7.5 -15.5 -11.5 -24.5s-8.33301 -17.5 -13 -25.5l-440 -828c-4.66699 -8 -11.667 -12 -21 -12h-114z" />
    <glyph glyph-name="x" unicode="x" horiz-adv-x="1037" 
d="M751 0c-9.33301 0 -16.334 4 -21.001 12l-237 451l-405 -453c-3.33301 -3.33301 -6.66602 -5.83301 -9.99902 -7.5s-7.66602 -2.5 -12.999 -2.5h-112c-8.66699 -0 -10.334 3.33301 -5.00098 10l484 531l-279 518c-5.33301 8 -3 12 7 12h95c10 0 16.667 -4 20 -12
l237 -453l406 455c3.33301 3.33301 6.66602 5.83301 9.99902 7.5s7.66602 2.5 12.999 2.5h112c8.66699 0 10.334 -3.33301 5.00098 -10l-486 -531l282 -518c4.66699 -8 2.33398 -12 -6.99902 -12h-96z" />
    <glyph glyph-name="y" unicode="y" horiz-adv-x="954" 
d="M-64 -473c-16.667 0 -35.3359 1.16406 -56.0029 3.49707s-39.667 5.83301 -57 10.5c-8.66699 2.66699 -11.334 8.33398 -8.00098 17.001l26 72c2 4.66699 4.33301 7.83398 7 9.50098s6.66699 1.83398 12 0.500977c14 -3.33301 29.5 -6 46.5 -8s32.5 -3 46.5 -3
c26.667 0 50.5 1.33301 71.5 4s41 8.5 60 17.5s37.333 21.833 55 38.5s36 38.667 55 66s39.667 61 62 101s47.5 88 75.5 144c-0.666992 -0 -2.66699 0.833008 -6 2.5s-7.16602 5.66699 -11.499 12s-8.83301 15.666 -13.5 27.999s-9 28.833 -13 49.5l-180 965
c-2 9.33301 1.66699 14 11 14h90c10 0 15.333 -4.66699 16 -14l144 -805c2.66699 -15.333 5.16699 -30.666 7.5 -45.999l6.5 -41c2 -12 3.83301 -21.833 5.5 -29.5s2.83398 -11.5 3.50098 -11.5l465 934c4 8.66699 10.667 13 20 13h98c9.33301 0 12 -4 8 -12l-582 -1141
c-29.333 -56.667 -56.166 -105.667 -80.499 -147s-47.666 -76.5 -69.999 -105.5s-44.5 -52.5 -66.5 -70.5s-45.333 -32 -70 -42s-51.5 -16.833 -80.5 -20.5s-61.5 -5.5 -97.5 -5.5z" />
    <glyph glyph-name="z" unicode="z" horiz-adv-x="989" 
d="M782 104c10 0 14 -4.33301 12 -13l-15 -80c-1.33301 -7.33301 -7 -11 -17 -11h-771c-8.66699 0 -12 5.66699 -10 17l13 66c1.33301 8.66699 3.5 15 6.5 19s6.5 8 10.5 12l805 853h-647c-8 0 -11 4.66699 -9 14l16 78c2 8 7.33301 12 16 12h776c5.33301 0 8.5 -1 9.5 -3
s0.833008 -5.66699 -0.5 -11l-14 -70c-1.33301 -6.66699 -3.33301 -12 -6 -16s-6 -8 -10 -12l-805 -855h640z" />
    <glyph glyph-name="braceleft" unicode="{" horiz-adv-x="631" 
d="M260 -389c-41.333 0 -75.8311 3.16211 -103.498 9.49512s-48.834 18.833 -63.501 37.5s-23 44.834 -25 78.501s2 77.5 12 131.5l66 353c7.33301 40 12.166 73.333 14.499 100s1.16602 49.5 -3.50098 68.5s-13 35.167 -25 48.5s-28.333 27 -49 41
c-8 5.33301 -11 12.666 -9 21.999l15 84c2 8.66699 7 15.334 15 20.001c26.667 14 48.667 27.667 66 41s31.666 29.5 42.999 48.5s20.833 42 28.5 69s15.167 60.5 22.5 100.5l66 353c10.667 60 23.334 107.167 38.001 141.5s32.667 60.166 54 77.499s47 28.166 77 32.499
s65.667 6.5 107 6.5h137c8.66699 0 12.667 -4.66699 12 -14l-15 -82c-0.666992 -9.33301 -6 -14 -16 -14h-136c-24 0 -44 -1.66699 -60 -5s-29.167 -10.166 -39.5 -20.499s-18.666 -25.166 -24.999 -44.499s-12.5 -44.666 -18.5 -75.999l-67 -355
c-8.66699 -46 -17.667 -85.333 -27 -118s-21 -61 -35 -85s-31 -44.667 -51 -62s-44.667 -34 -74 -50l-3 -12c24 -16 42.667 -33.5 56 -52.5s22.5 -41 27.5 -66s6.33301 -53.5 4 -85.5s-7.5 -69 -15.5 -111l-67 -356c-5.33301 -31.333 -8.16602 -56.666 -8.49902 -75.999
s2.66699 -34.166 9 -44.499s16.666 -17.166 30.999 -20.499s33.833 -5 58.5 -5h135c9.33301 0 13 -4.66699 11 -14l-15 -81c-2 -9.33301 -7.66699 -14 -17 -14h-137v0z" />
    <glyph glyph-name="bar" unicode="|" horiz-adv-x="597" 
d="M234 -389c-9.33301 0 -14 4.66699 -14 14v1836c0 9.33301 4.66699 14 14 14h87c9.33301 0 14 -4.66699 14 -14v-1836c0 -9.33301 -4.66699 -14 -14 -14h-87z" />
    <glyph glyph-name="braceright" unicode="}" horiz-adv-x="613" 
d="M323 1474c41.333 0 75.8291 -3.16211 103.496 -9.49512s48.834 -18.833 63.501 -37.5s23 -44.834 25 -78.501s-2 -77.5 -12 -131.5l-66 -353c-7.33301 -40 -12.166 -73.333 -14.499 -100s-1.33301 -49.5 3 -68.5s12.5 -35.167 24.5 -48.5s28.667 -27 50 -41
c8 -5.33301 11 -12.666 9 -21.999l-15 -84c-2 -8.66699 -7 -15.334 -15 -20.001c-26.667 -14 -48.667 -27.667 -66 -41s-31.666 -29.5 -42.999 -48.5s-20.833 -42 -28.5 -69s-15.167 -60.5 -22.5 -100.5l-66 -353c-11.333 -60 -24.166 -107.167 -38.499 -141.5
s-32.166 -60.166 -53.499 -77.499s-47 -28.166 -77 -32.499s-65.667 -6.5 -107 -6.5h-137c-8.66699 0 -12.667 4.66699 -12 14l15 82c0.666992 9.33301 6 14 16 14h136c24 0 44 1.66699 60 5s29.167 10.166 39.5 20.499s18.666 25.166 24.999 44.499
s12.5 44.666 18.5 75.999l67 355c8.66699 46 17.667 85.333 27 118s21 61 35 85s31 44.667 51 62s44.667 34 74 50l3 12c-24 16 -42.667 33.5 -56 52.5s-22.5 41 -27.5 66s-6.33301 53.5 -4 85.5s7.5 69 15.5 111l67 356c5.33301 31.333 8.16602 56.666 8.49902 75.999
s-2.66699 34.166 -9 44.499s-16.666 17.166 -30.999 20.499s-33.833 5 -58.5 5h-135c-9.33301 0 -13 4.66699 -11 14l15 81c2 9.33301 7.66699 14 17 14h137v0z" />
    <glyph glyph-name="asciitilde" unicode="~" horiz-adv-x="1017" 
d="M160 638c-8.66699 0 -12.668 4.66504 -12.001 13.998l6 32c10 58 23.833 103.333 41.5 136s36.834 57 57.501 73s41.834 25.667 63.501 29s41.834 5 60.501 5c34 0 63 -6.66699 87 -20s46.333 -30.666 67 -51.999l54 -56c21.333 -22 41.166 -39.333 59.499 -52
s39.166 -19 62.499 -19c14.667 0 28 1.83301 40 5.5s23.167 11.834 33.5 24.501s19.833 30.834 28.5 54.501s17 55.5 25 95.5c2 9.33301 7.66699 14 17 14h64c8.66699 0 12.667 -4.66699 12 -14l-6 -32c-10 -56.667 -23.667 -101.167 -41 -133.5s-36.333 -56.5 -57 -72.5
s-42.167 -26 -64.5 -30s-42.833 -6 -61.5 -6c-33.333 0 -62.333 6.33301 -87 19s-47 29.667 -67 51l-53 57c-22 23.333 -42 41.166 -60 53.499s-38.667 18.5 -62 18.5c-14.667 0 -28 -2 -40 -6s-23.167 -12.167 -33.5 -24.5s-19.833 -30.5 -28.5 -54.5s-17 -56 -25 -96
c-2 -9.33301 -7.66699 -14 -17 -14h-64z" />
    <glyph glyph-name="uni007F" horiz-adv-x="0" 
 />
    <glyph glyph-name="uni00A0" unicode="&#xa0;" horiz-adv-x="508" 
 />
    <glyph glyph-name="exclamdown" unicode="&#xa1;" horiz-adv-x="493" 
d="M288 624c8.66699 0 12.667 -4.66699 12 -14l-175 -1000c-0.666992 -9.33301 -6 -15 -16 -17l-98 -18c-9.33301 -2 -13 1.66699 -11 11l199 1024c2 9.33301 7.66699 14 17 14h72zM382 1071c9.33301 0 13 -4.66699 11 -14l-37 -201c-2 -9.33301 -7.66699 -15 -17 -17
l-96 -18c-9.33301 -2 -13 1.66699 -11 11l40 225c2 9.33301 7.66699 14 17 14h93z" />
    <glyph glyph-name="cent" unicode="&#xa2;" horiz-adv-x="924" 
d="M319 -262c-9.33301 0 -13.001 4.66504 -11.001 13.998l42 232c-64 6.66699 -116.833 20.667 -158.5 42s-72.667 52.5 -93 93.5s-31 93 -32 156s7.16699 139.833 24.5 230.5l21 114c16 88 35.667 163.333 59 226s52.5 114.834 87.5 156.501s77.5 73.667 127.5 96
s109.667 37.166 179 44.499l43 232c2 9.33301 7.66699 14 17 14h77c9.33301 0 13 -4.66699 11 -14l-42 -226h16c42 0 81.833 -2 119.5 -6s71.5 -9.33301 101.5 -16c8.66699 -2 11.667 -7.33301 9 -16l-31 -72c-4 -8.66699 -10.667 -12 -20 -10
c-29.333 5.33301 -61.5 9 -96.5 11s-68.5 3 -100.5 3h-18l-179 -964h17c36 0 72.167 1.16699 108.5 3.5s69.5 6.5 99.5 12.5c9.33301 2 14 -1.66699 14 -11l2 -70c0 -9.33301 -4.66699 -15 -14 -17c-15.333 -3.33301 -32.5 -6.16602 -51.5 -8.49902
s-38.667 -4.16602 -59 -5.49902s-40.666 -2.5 -60.999 -3.5s-39.5 -1.5 -57.5 -1.5h-17l-41 -226c-2 -9.33301 -7.66699 -14 -17 -14h-76zM202.999 517.998c-13.333 -72.667 -21.166 -134.667 -23.499 -186s2.66699 -94 15 -128s32.666 -60.5 60.999 -79.5
s66.166 -31.833 113.499 -38.5l176 949c-50 -7.33301 -92.667 -20.833 -128 -40.5s-65.666 -46.667 -90.999 -81s-46.5 -77 -63.5 -128s-32.167 -111.5 -45.5 -181.5z" />
    <glyph glyph-name="sterling" unicode="&#xa3;" horiz-adv-x="1072" 
d="M159 735c-8.66699 0 -12.6719 4.66504 -12.0049 13.998l15 81c0.666992 9.33301 6 14 16 14h111l36 193c10 52.667 21.333 100.167 34 142.5s28.334 79.833 47.001 112.5s41.5 60.5 68.5 83.5s59.833 41.833 98.5 56.5s83.834 25.5 135.501 32.5s112.167 10.5 181.5 10.5
h171c9.33301 0 13 -4.66699 11 -14l-14 -82c-2 -9.33301 -7.66699 -14 -17 -14h-169c-79.333 0 -144.333 -5.33301 -195 -16s-91.667 -28.667 -123 -54s-55.333 -58.833 -72 -100.5s-30.667 -93.5 -42 -155.5l-36 -195h481c8.66699 0 11.667 -4.33301 9 -13l-31 -83
c-3.33301 -8.66699 -9.66602 -13 -18.999 -13h-461l-65 -354c-6.66699 -35.333 -13.667 -66.666 -21 -93.999s-15.833 -51.833 -25.5 -73.5s-20.834 -41 -33.501 -58s-27.667 -32.5 -45 -46.5h678c9.33301 0 13 -4.66699 11 -14l-15 -81c-2 -9.33301 -7.66699 -14 -17 -14
h-827c-8.66699 0 -12.667 4.66699 -12 14l16 89c0.666992 8.66699 5.33398 15.334 14.001 20.001c26.667 14 48.834 27.667 66.501 41s32.334 29.333 44.001 48s21.5 41.5 29.5 68.5s15.667 60.5 23 100.5l65 354h-110z" />
    <glyph glyph-name="currency" unicode="&#xa4;" horiz-adv-x="1259" 
d="M268 1122c-6 6.66699 -5.33301 13.335 2 20.002l68 59c6.66699 6 13.334 5.33301 20.001 -2l77 -94c38.667 23.333 82 40.666 130 51.999s101.333 17 160 17s108.667 -7.33301 150 -22s76 -35 104 -61l119 99c6.66699 6 13.334 5.33301 20.001 -2l51 -61
c6 -6.66699 5.33301 -13.334 -2 -20.001l-127 -106c9.33301 -22 16 -45.333 20 -70s6 -50.667 6 -78c0 -87.333 -9.33301 -162.833 -28 -226.5s-46 -117.167 -82 -160.5l78 -96c6 -6.66699 5.33301 -13.334 -2 -20.001l-69 -59c-6.66699 -6 -13.334 -5.33301 -20.001 2
l-78 95c-38.667 -23.333 -82 -40.333 -130 -51s-101.333 -16 -160 -16c-57.333 0 -106.5 7.33301 -147.5 22s-75.167 34.667 -102.5 60l-121 -101c-6.66699 -6 -13.334 -5.33301 -20.001 2l-51 62c-6 6.66699 -5.33301 13.334 2 20.001l129 107c-18 44 -27 94 -27 150
c0 87.333 9 162.5 27 225.5s45 115.833 81 158.5zM340 654.001c0 -37.333 4.66602 -70.3359 13.999 -99.0029s24 -52.667 44 -72s45.833 -34.166 77.5 -44.499s69.834 -15.5 114.501 -15.5c61.333 0 115.333 7.83301 162 23.5s85.667 40.334 117 74.001s54.833 77 70.5 130
s23.5 117.167 23.5 192.5c0 74 -19.667 130.833 -59 170.5s-104 59.5 -194 59.5c-60.667 0 -114.167 -7.66699 -160.5 -23s-85 -39.666 -116 -72.999s-54.333 -76.5 -70 -129.5s-23.5 -117.5 -23.5 -193.5z" />
    <glyph glyph-name="yen" unicode="&#xa5;" horiz-adv-x="1238" 
d="M203 528c-8.66699 0 -11.665 4.33301 -8.99805 13l31 78c3.33301 8.66699 9.66602 13 18.999 13h258l-285 830c-4 8.66699 -1 13 9 13h94c9.33301 0 15.666 -4.33301 18.999 -13l273 -788l566 790c5.33301 7.33301 12.666 11 21.999 11h102
c9.33301 0 11.333 -3.66699 6 -11l-593 -832h315c8.66699 0 11.667 -4.33301 9 -13l-31 -78c-3.33301 -8.66699 -9.66602 -13 -18.999 -13h-342l-27 -150h357c8.66699 0 11.667 -4.33301 9 -13l-30 -79c-3.33301 -8.66699 -9.66602 -13 -18.999 -13h-337l-47 -259
c-2 -9.33301 -7.66699 -14 -17 -14h-85c-9.33301 0 -13 4.66699 -11 14l47 259h-338c-8.66699 0 -11.667 4.33301 -9 13l31 79c3.33301 8.66699 9.66602 13 18.999 13h316l27 150h-330z" />
    <glyph glyph-name="brokenbar" unicode="&#xa6;" horiz-adv-x="589" 
d="M233 707c-9.33301 0 -14 4.66699 -14 14l-8 740c0 9.33301 4.66699 14 14 14h86c9.33301 0 14 -4.66699 14 -14l-8 -740c0 -9.33301 -4.66699 -14 -14 -14h-70zM225 -389c-9.33301 0 -14 4.66699 -14 14l8 740c0 9.33301 4.66699 14 14 14h70
c9.33301 0 14 -4.66699 14 -14l8 -740c0 -9.33301 -4.66699 -14 -14 -14h-86z" />
    <glyph glyph-name="section" unicode="&#xa7;" horiz-adv-x="1087" 
d="M266 -450c-26.667 0 -53.998 0.670898 -81.998 2.00391s-55.667 3.33301 -83 6s-53.5 6 -78.5 10s-47.5 8.33301 -67.5 13c-9.33301 2 -12 7.33301 -8 16l35 79c2.66699 5.33301 5.33398 8.66602 8.00098 9.99902s6.66699 1.66602 12 0.999023
c54 -9.33301 103.667 -15.833 149 -19.5s87.666 -5.5 126.999 -5.5c81.333 0 150.333 6.66699 207 20s102.834 33.166 138.501 59.499s61.5 59.333 77.5 99s24 85.5 24 137.5c0 27.333 -4.66699 51.166 -14 71.499s-24 39.333 -44 57s-45.833 34.667 -77.5 51
s-69.834 34.5 -114.501 54.5l-116 53c-34.667 16 -67.334 33 -98.001 51s-57.334 39.167 -80.001 63.5s-40.667 52.333 -54 84s-20 69.167 -20 112.5c0 74.667 13.833 137.667 41.5 189s69.167 95 124.5 131c-22 25.333 -39.333 54 -52 86s-19 69 -19 111
c0 74.667 11 137.667 33 189s56.167 93 102.5 125s105.5 55 177.5 69s158 21 258 21c25.333 0 50.833 -0.5 76.5 -1.5s50.667 -2.66699 75 -5s47.5 -5.16602 69.5 -8.49902s42 -7 60 -11c9.33301 -2.66699 12.333 -8.33398 9 -17.001l-30 -77
c-3.33301 -8.66699 -9.66602 -12 -18.999 -10c-17.333 3.33301 -36.833 6.16602 -58.5 8.49902s-43.834 4.33301 -66.501 6s-45.5 2.83398 -68.5 3.50098s-44.833 1 -65.5 1c-70.667 0 -132.5 -4.83301 -185.5 -14.5s-97.333 -25.5 -133 -47.5
s-62.334 -50.833 -80.001 -86.5s-26.5 -79.5 -26.5 -131.5c0 -31.333 5.66699 -58.666 17 -81.999s27.5 -44.333 48.5 -63s46.333 -35.834 76 -51.501s62.5 -31.167 98.5 -46.5l130 -58c87.333 -37.333 150.5 -80.166 189.5 -128.499s58.5 -105.833 58.5 -172.5
c0 -79.333 -14.333 -144.333 -43 -195s-69 -93.334 -121 -128.001c24.667 -25.333 42.667 -53.333 54 -84s17 -64 17 -100c0 -79.333 -11.667 -147.333 -35 -204s-59.166 -103 -107.499 -139s-109.5 -62.333 -183.5 -79s-161.667 -25 -263 -25zM454.002 778.004
c-35.333 14 -69 30.668 -101 50.001c-23.333 -14.667 -42.666 -31.834 -57.999 -51.501s-27.666 -40 -36.999 -61s-16 -41.667 -20 -62s-6 -38.5 -6 -54.5c0 -32.667 5.83301 -61.167 17.5 -85.5s28 -46.166 49 -65.499s46.333 -36.833 76 -52.5
s62.834 -31.167 99.501 -46.5l131 -56c18 -7.33301 35 -14.833 51 -22.5s31 -15.834 45 -24.501c23.333 14.667 42.666 32 57.999 52s27.666 40.667 36.999 62s15.833 42.333 19.5 63s5.5 39.334 5.5 56.001c0 26.667 -4.33301 51 -13 73s-22.834 42.833 -42.501 62.5
s-45.5 38.667 -77.5 57s-71.333 37.166 -118 56.499z" />
    <glyph glyph-name="dieresis" unicode="&#xa8;" 
d="M428 1252c-9.33301 0 -13 4.66699 -11 14l47 258c2 9.33301 7.66699 15 17 17l95 18c9.33301 2 13 -1.66699 11 -11l-52 -282c-2 -9.33301 -7.66699 -14 -17 -14h-90zM721 1252c-9.33301 0 -13 4.66699 -11 14l47 258c2 9.33301 7.66699 15 17 17l96 18
c9.33301 2 13 -1.66699 11 -11l-52 -282c-2 -9.33301 -7.66699 -14 -17 -14h-91z" />
    <glyph glyph-name="copyright" unicode="&#xa9;" horiz-adv-x="1574" 
d="M772 340c-64.667 0 -118.166 6.50098 -160.499 19.501s-74.666 34.667 -96.999 65s-35.166 70.166 -38.499 119.499s2 110.666 16 183.999l15 77c13.333 72.667 30.666 133.334 51.999 182.001s48.666 87.834 81.999 117.501s73.5 50.667 120.5 63s102.5 18.5 166.5 18.5
c30.667 0 60.167 -1.16699 88.5 -3.5s53.5 -5.83301 75.5 -10.5c10 -2 13 -7.33301 9 -16l-26 -71c-2 -5.33301 -4.33301 -8.66602 -7 -9.99902s-6.66699 -1.66602 -12 -0.999023c-21.333 3.33301 -44.5 5.66602 -69.5 6.99902s-49.167 2 -72.5 2
c-49.333 0 -91 -4.83301 -125 -14.5s-62.5 -25.834 -85.5 -48.501s-41.667 -52.667 -56 -90s-26.833 -83.666 -37.5 -138.999l-9 -55c-10 -55.333 -14.833 -101.833 -14.5 -139.5s7.83301 -67.834 22.5 -90.501s37.167 -38.834 67.5 -48.501s70.166 -14.5 119.499 -14.5
c25.333 0 50.5 0.666992 75.5 2s48.5 4 70.5 8c9.33301 2 14 -1.66699 14 -11l-1 -71c0 -9.33301 -4.66699 -15 -14 -17c-23.333 -4.66699 -50.333 -8.16699 -81 -10.5s-60 -3.5 -88 -3.5zM259.001 584.001c0 -59.333 7.16504 -113.167 21.498 -161.5
s38.833 -89.5 73.5 -123.5s80.334 -60.333 137.001 -79s127.667 -28 213 -28c110.667 0 207.167 14.5 289.5 43.5s150.666 74 204.999 135s94.833 139 121.5 234s40 208.167 40 339.5c0 58.667 -7.16699 112 -21.5 160s-38.5 89 -72.5 123s-79.5 60.333 -136.5 79
s-127.833 28 -212.5 28c-111.333 0 -208.166 -14.333 -290.499 -43s-150.666 -73.5 -204.999 -134.5s-95 -138.833 -122 -233.5s-40.5 -207.667 -40.5 -339zM1465 948c0 -148 -15.834 -275.832 -47.501 -383.499s-79.834 -196.5 -144.501 -266.5
s-145.667 -121.833 -243 -155.5s-211.666 -50.5 -342.999 -50.5c-98.667 0 -181.667 11.5 -249 34.5s-121.666 55.5 -162.999 97.5s-71 92.667 -89 152s-27 125 -27 197c0 148.667 15.667 277 47 385s79 197.333 143 268s144.667 123 242 157s212 51 344 51
c98.667 0 181.667 -11.5 249 -34.5s121.833 -55.833 163.5 -98.5s71.667 -93.834 90 -153.501s27.5 -126.167 27.5 -199.5z" />
    <glyph glyph-name="ordfeminine" unicode="&#xaa;" horiz-adv-x="948" 
d="M526 789c30 0 59.001 0.666992 87.001 2s56 4.66602 84 9.99902l54 293h-105c-61.333 0 -112.5 -2.16699 -153.5 -6.5s-73.833 -13.166 -98.5 -26.499s-42.334 -32.5 -53.001 -57.5s-16 -58.167 -16 -99.5c0 -26 4.83301 -46.5 14.5 -61.5s23.167 -26.5 40.5 -34.5
s38.5 -13.167 63.5 -15.5s52.5 -3.5 82.5 -3.5zM619.001 1409c-39.333 0 -76.834 -1.67188 -112.501 -5.00488s-71.5 -7.66602 -107.5 -12.999c-9.33301 -0.666992 -13 3.33301 -11 12l10 55c0.666992 9.33301 6 15 16 17c18.667 4 38.5 7.33301 59.5 10s41.667 5 62 7
s39.666 3.33301 57.999 4s34.833 1 49.5 1c63.333 0 112.666 -5.33301 147.999 -16s60.5 -27.667 75.5 -51s21.833 -53.666 20.5 -90.999s-7 -82.666 -17 -135.999l-85 -463c-2 -10 -7.66699 -15.333 -17 -16c-21.333 -3.33301 -43.833 -6.16602 -67.5 -8.49902
s-47 -4.5 -70 -6.5s-44.667 -3.5 -65 -4.5s-38.166 -1.5 -53.499 -1.5c-48 0 -90.167 2.83301 -126.5 8.5s-66.666 15.334 -90.999 29.001s-42.666 32 -54.999 55s-18.5 52.167 -18.5 87.5c0 59.333 8.33301 107.833 25 145.5s43 67.334 79 89.001s82.333 36.5 139 44.5
s125 12 205 12h97l10 57c6.66699 35.333 9.5 64.5 8.5 87.5s-7.16699 41.167 -18.5 54.5s-29 22.666 -53 27.999s-55.333 8 -94 8zM141 505.995c-8.66699 0 -12.667 4.66699 -12 14l13 67c0.666992 9.33301 6 14 16 14h630c8.66699 0 12.667 -4.66699 12 -14l-13 -67
c-0.666992 -9.33301 -6 -14 -16 -14h-630z" />
    <glyph glyph-name="guillemotleft" unicode="&#xab;" horiz-adv-x="1137" 
d="M369 219c-5.33301 0 -9.66895 0.833008 -13.002 2.5s-6.66602 4.5 -9.99902 8.5l-285 369c-6 6.66699 -5.33301 13.334 2 20.001l425 374c6.66699 6 15 9 25 9h122c4 0 6.33301 -0.833008 7 -2.5s-0.666016 -3.83398 -3.99902 -6.50098l-444 -396l287 -367
c6 -7.33301 4.33301 -11 -5 -11h-107zM814.997 219c-5.33301 0 -9.66895 0.833008 -13.002 2.5s-6.66602 4.5 -9.99902 8.5l-285 369c-6 6.66699 -5.33301 13.334 2 20.001l425 374c6.66699 6 15 9 25 9h122c4 0 6.33301 -0.833008 7 -2.5
s-0.666016 -3.83398 -3.99902 -6.50098l-444 -396l287 -367c6 -7.33301 4.33301 -11 -5 -11h-107z" />
    <glyph glyph-name="logicalnot" unicode="&#xac;" horiz-adv-x="1130" 
d="M206 944c-8.66699 0 -12.667 4.66699 -12 14l15 80c0.666992 9.33301 6 14 16 14h785c9.33301 0 13 -4.66699 11 -14l-17 -94l-73 -395c-2 -9.33301 -7.66699 -14 -17 -14h-79c-9.33301 0 -13 4.66699 -11 14l72 395h-690z" />
    <glyph glyph-name="uni00AD" unicode="&#xad;" horiz-adv-x="832" 
d="M173 553c-8.66699 0 -12.667 4.66699 -12 14l15 80c0.666992 9.33301 6 14 16 14h459c9.33301 0 13 -4.66699 11 -14l-14 -80c-2 -9.33301 -7.66699 -14 -17 -14h-458z" />
    <glyph glyph-name="registered" unicode="&#xae;" horiz-adv-x="1276" 
d="M1220 1145c0 -124 -13.332 -229.168 -39.999 -315.501s-66 -156.5 -118 -210.5s-116.5 -93 -193.5 -117s-165.833 -36 -266.5 -36c-77.333 0 -142.5 9.5 -195.5 28.5s-96 45.5 -129 79.5s-56.833 74.667 -71.5 122s-22 99.333 -22 156c0 124.667 13.5 230.167 40.5 316.5
s66.667 156.5 119 210.5s116.666 93 192.999 117s163.833 36 262.5 36c79.333 0 146 -9.5 200 -28.5s97.333 -45.667 130 -80s56 -75.166 70 -122.499s21 -99.333 21 -156zM276.001 858.999c0 -46.667 5.50098 -88.6689 16.501 -126.002s29.5 -69.166 55.5 -95.499
s61 -46.666 105 -60.999s99 -21.5 165 -21.5c91.333 0 169.166 12.167 233.499 36.5s117 60.833 158 109.5s70.833 109.667 89.5 183s28 159 28 257c0 46 -5.5 87.667 -16.5 125s-29.667 69.166 -56 95.499s-61.5 46.5 -105.5 60.5s-99 21 -165 21
c-91.333 0 -169.166 -12 -233.499 -36s-116.833 -60.167 -157.5 -108.5s-70.334 -109.166 -89.001 -182.499s-28 -159 -28 -257zM835.002 665.997c-9.33301 0 -15.334 4.33496 -18.001 13.002l-76 229c-25.333 -2 -52.666 -3 -81.999 -3
c-14.667 0 -30.167 0.166992 -46.5 0.5s-33.166 1.83301 -50.499 4.5l-43 -230c-2 -9.33301 -7.66699 -14 -17 -14h-55c-9.33301 0 -13 4.66699 -11 14l115 627c0.666992 9.33301 6 14.333 16 15c30 2.66699 58.667 4.16699 86 4.5s54 0.5 80 0.5
c46.667 0 86.834 -2.33301 120.501 -7s60.5 -13.834 80.5 -27.501s33 -32.834 39 -57.501s5 -56.667 -3 -96l-8 -43c-8.66699 -48 -23.334 -86 -44.001 -114s-52.334 -48 -95.001 -60l86 -233c2 -6.66699 0.666992 -11.667 -4 -15l-2 -2c-5.33301 -4 -11 -6 -17 -6h-51z
M724.001 1245h-26.501c-9.66699 0 -19.167 -0.166992 -28.5 -0.5s-18 -0.666016 -26 -0.999023s-14.667 -0.833008 -20 -1.5l-48 -254c16 -1.33301 33.833 -2.16602 53.5 -2.49902s35.834 -0.5 48.501 -0.5c33.333 0 62 1.16699 86 3.5s44 7.66602 60 15.999
s28.667 20.5 38 36.5s16.333 37.667 21 65l4 26c5.33301 26 6 46.667 2 62s-12.667 26.666 -26 33.999s-31.5 12 -54.5 14s-50.833 3 -83.5 3z" />
    <glyph glyph-name="macron" unicode="&#xaf;" 
d="M395 1336c-9.33301 0 -13 4.66699 -11 14l13 68c2 9.33301 7.66699 14 17 14h470c9.33301 0 13 -4.66699 11 -14l-13 -68c-2 -9.33301 -7.66699 -14 -17 -14h-470z" />
    <glyph glyph-name="degree" unicode="&#xb0;" horiz-adv-x="770" 
d="M523 1406c-28 0 -53.832 -3.33301 -77.499 -10s-44.834 -17 -63.501 -31s-34.5 -32 -47.5 -54s-22.167 -48.333 -27.5 -79l-5 -26c-11.333 -61.333 -3.5 -105.666 23.5 -132.999s69.167 -41 126.5 -41c27.333 0 53 3.16699 77 9.5s45.5 16.5 64.5 30.5
s34.833 32.167 47.5 54.5s21.667 49.5 27 81.5l4 24c12 61.333 4.33301 105.666 -23 132.999s-69.333 41 -126 41zM436.001 942c-43.333 0 -81.334 5.50195 -114.001 16.502s-59.167 27.333 -79.5 49s-34 48.667 -41 81s-6.5 70.166 1.5 113.499l8 39
c8.66699 44.667 22.5 83.167 41.5 115.5s42.667 58.833 71 79.5s60.666 36 96.999 46s76.166 15 119.499 15c42.667 0 80.334 -5.5 113.001 -16.5s59.167 -27.5 79.5 -49.5s34 -49.5 41 -82.5s6.5 -71.5 -1.5 -115.5l-8 -38c-8 -44 -21.667 -82 -41 -114
s-43.166 -58.333 -71.499 -79s-60.666 -35.834 -96.999 -45.501s-75.833 -14.5 -118.5 -14.5z" />
    <glyph glyph-name="plusminus" unicode="&#xb1;" horiz-adv-x="1122" 
d="M205 783c-9.33301 0 -13 4.66699 -11 14l14 81c2 9.33301 7.66699 14 17 14h340l63 340c2 9.33301 7.66699 14 17 14h81c9.33301 0 13 -4.66699 11 -14l-63 -340h340c9.33301 0 13 -4.66699 11 -14l-14 -81c-2 -9.33301 -7.66699 -14 -17 -14h-340l-63 -339
c-2 -9.33301 -7.66699 -14 -17 -14h-81c-9.33301 0 -13 4.66699 -11 14l63 339h-340zM64 0c-9.33301 0 -13 4.66699 -11 14l14 80c2 9.33301 7.66699 14 17 14h781c9.33301 0 13 -4.66699 11 -14l-14 -80c-2 -9.33301 -7.66699 -14 -17 -14h-781z" />
    <glyph glyph-name="twosuperior" unicode="&#xb2;" horiz-adv-x="828" 
d="M133 598c-9.33301 0 -12.9961 4.66113 -10.9961 13.9941l8 46c7.33301 40.667 17.166 76.5 29.499 107.5s28.666 59.5 48.999 85.5s45.333 51 75 75s66.167 50 109.5 78l163 106l62 40.5c18.667 12.333 34.667 25.5 48 39.5s23.833 29.833 31.5 47.5
s11.5 38.834 11.5 63.501c0 18.667 -3.66699 34.5 -11 47.5s-19.333 23.5 -36 31.5s-38.167 13.667 -64.5 17s-58.833 5 -97.5 5c-25.333 0 -54 -1 -86 -3s-64.667 -6 -98 -12c-9.33301 -2 -14 1.66699 -14 11l1 64c0 9.33301 4.66699 15 14 17
c33.333 6.66699 69 11.334 107 14.001s71.333 4 100 4c54 0 99.667 -3.66699 137 -11s67.666 -18.166 90.999 -32.499s40.166 -32.333 50.499 -54s15.5 -46.5 15.5 -74.5c0 -35.333 -3.66699 -65.666 -11 -90.999s-19 -48.666 -35 -69.999s-36.667 -41.666 -62 -60.999
s-56.333 -40.333 -93 -63l-140 -87c-40 -24.667 -73.333 -47 -100 -67s-48.667 -39.833 -66 -59.5s-30.833 -40.5 -40.5 -62.5s-17.5 -47 -23.5 -75h436c9.33301 0 13 -4.66699 11 -14l-11 -63c-2 -9.33301 -7.66699 -14 -17 -14h-533z" />
    <glyph glyph-name="threesuperior" unicode="&#xb3;" horiz-adv-x="828" 
d="M353 585c-37.333 0 -73.498 1.5 -108.498 4.5s-66.167 6.83301 -93.5 11.5c-9.33301 0.666992 -13 5.66699 -11 15l16 67c2 8.66699 7.66699 12.667 17 12c31.333 -4.66699 63.5 -8.16699 96.5 -10.5s64.5 -3.5 94.5 -3.5c42 0 78.667 2.66699 110 8
s58.166 14.5 80.499 27.5s40.333 30.167 54 51.5s23.5 48 29.5 80l4 21c3.33301 18 4.33301 36.667 3 56s-7.33301 37 -18 53s-27 29 -49 39s-51.667 15 -89 15h-204c-9.33301 0 -13 4.66699 -11 14l10 59c2 9.33301 7.66699 14 17 14h202c36.667 0 67.834 4 93.501 12
s46.667 18.333 63 31s28.5 26.667 36.5 42s13.333 30.333 16 45l2 11c5.33301 28 4.16602 51.167 -3.50098 69.5s-21 32.833 -40 43.5s-43.167 18.167 -72.5 22.5s-63 6.5 -101 6.5c-32 0 -64.667 -1.33301 -98 -4s-65.333 -5.66699 -96 -9
c-10 -0.666992 -14 3.33301 -12 12l7 65c1.33301 9.33301 6.66602 14.666 15.999 15.999c28.667 3.33301 60.5 6.66602 95.5 9.99902s71.167 5 108.5 5c53.333 0 100.166 -3.66699 140.499 -11s73.5 -19.5 99.5 -36.5s44.167 -39.333 54.5 -67
s12.166 -62.167 5.49902 -103.5l-2 -15c-7.33301 -48 -27.166 -88.167 -59.499 -120.5s-78.5 -55.166 -138.5 -68.499c28.667 -8 51.834 -19.833 69.501 -35.5s31.167 -33.5 40.5 -53.5s14.666 -41.167 15.999 -63.5s0 -44.166 -4 -65.499l-4 -22
c-9.33301 -50 -24.666 -91.167 -45.999 -123.5s-48 -57.833 -80 -76.5s-69.5 -31.667 -112.5 -39s-91.167 -11 -144.5 -11z" />
    <glyph glyph-name="acute" unicode="&#xb4;" 
d="M449 1262c-9.33301 0 -10.667 3.33398 -4 10.001l234 239c7.33301 6.66699 15.333 10 24 10h134c4 0 6.5 -0.833008 7.5 -2.5s-0.166992 -3.83398 -3.5 -6.50098l-268 -241c-6 -6 -14 -9 -24 -9h-100z" />
    <glyph glyph-name="mu" unicode="&#xb5;" horiz-adv-x="1262" 
d="M27 -389c-9.33301 0 -13 4.66602 -11 13.999l265 1432c2 9.33301 7.66699 14 17 14h83c9.33301 0 13 -4.66699 11 -14l-121 -651c-13.333 -71.333 -15.5 -128.333 -6.5 -171s26.833 -75.167 53.5 -97.5s60.5 -36.833 101.5 -43.5s87.167 -10 138.5 -10
c24 0 49.333 0.833008 76 2.5s53 3.83398 79 6.50098s51.167 6 75.5 10s46.5 8.66699 66.5 14l174 940c2 9.33301 7.66699 14 17 14h83c9.33301 0 13 -4.66699 11 -14l-187 -1011c-2 -9.33301 -7.66699 -15.333 -17 -18c-25.333 -6 -54.333 -12 -87 -18
s-66.667 -11.333 -102 -16s-71.5 -8.5 -108.5 -11.5s-72.833 -4.5 -107.5 -4.5c-91.333 0 -163.5 10.5 -216.5 31.5s-85.5 55.5 -97.5 103.5l-90 -488c-2 -9.33301 -7.66699 -14 -17 -14h-83z" />
    <glyph glyph-name="paragraph" unicode="&#xb6;" horiz-adv-x="1073" 
d="M353 -451c-9.33301 0 -13.001 4.66797 -11.001 14.001l196 1059c-4 0 -12.167 -0.166992 -24.5 -0.5s-26.333 -0.833008 -42 -1.5s-31.667 -1.16699 -48 -1.5s-30.166 -0.5 -41.499 -0.5c-58.667 0 -106.5 5.16699 -143.5 15.5s-64.5 30.5 -82.5 60.5
s-26.833 72 -26.5 126s8.5 124.667 24.5 212l7 40c16 87.333 34.5 157.5 55.5 210.5s47.167 93.667 78.5 122s69.5 47.166 114.5 56.499s100.167 14 165.5 14h220c9.33301 0 13 -4.66699 11 -14l-351 -1898c-2 -9.33301 -7.66699 -14 -17 -14h-85zM564.999 -450.999
c-9.33301 0 -13 4.66699 -11 14l351 1898c2 9.33301 7.66699 14 17 14h84c9.33301 0 13 -4.66699 11 -14l-352 -1898c-2 -9.33301 -7.66699 -14 -17 -14h-83z" />
    <glyph glyph-name="periodcentered" unicode="&#xb7;" horiz-adv-x="462" 
d="M148 435c-9.33301 0 -13 4.66699 -11 14l37 201c2 9.33301 7.66699 15 17 17l96 18c9.33301 2 13 -1.66699 11 -11l-40 -225c-2 -9.33301 -7.66699 -14 -17 -14h-93z" />
    <glyph glyph-name="cedilla" unicode="&#xb8;" 
d="M199 -389c-9.33301 0 -11.333 3.66699 -6 11l189 265c5.33301 7.33301 12.666 11 21.999 11h92c8.66699 0 10.667 -4 6 -12l-181 -263c-5.33301 -8 -12.666 -12 -21.999 -12h-100z" />
    <glyph glyph-name="onesuperior" unicode="&#xb9;" horiz-adv-x="503" 
d="M197 1371c-9.33301 -0.666992 -14 3.33301 -14 12l1 62c0 8.66699 4.66699 14 14 16l197 28c4 0.666992 8.66699 1.16699 14 1.5s10 0.5 14 0.5h67c9.33301 0 13 -4.66699 11 -14l-159 -865c-2 -9.33301 -7.66699 -14 -17 -14h-73c-9.33301 0 -13 4.66699 -11 14l145 787
z" />
    <glyph glyph-name="ordmasculine" unicode="&#xba;" horiz-adv-x="967" 
d="M629 1404c-43.333 0 -80.667 -5.33105 -112 -15.998s-58 -27.334 -80 -50.001s-40.167 -51.667 -54.5 -87s-26.166 -77.333 -35.499 -126l-9 -50c-9.33301 -49.333 -13.666 -91.5 -12.999 -126.5s7.5 -63.833 20.5 -86.5s32.833 -39.334 59.5 -50.001s61.667 -16 105 -16
s80.666 5.33301 111.999 16s58 27.167 80 49.5s40.167 51.333 54.5 87s26.166 78.5 35.499 128.5l8 48c9.33301 48.667 13.833 90.5 13.5 125.5s-7 63.833 -20 86.5s-32.833 39.5 -59.5 50.5s-61.667 16.5 -105 16.5zM495.999 703.002
c-59.333 0 -108.33 7.16699 -146.997 21.5s-68.167 36.5 -88.5 66.5s-32 67.833 -35 113.5s1.16699 99.834 12.5 162.501l11 64c12 64.667 28.167 120.167 48.5 166.5s46.333 84.166 78 113.499s69.667 51 114 65s96.166 21 155.499 21c58 0 106.167 -7.33301 144.5 -22
s67.666 -37 87.999 -67s32.333 -68 36 -114s-0.5 -100.333 -12.5 -163l-11 -64c-12 -65.333 -28.333 -121 -49 -167s-46.834 -83.5 -78.501 -112.5s-69.5 -50.333 -113.5 -64s-95 -20.5 -153 -20.5zM145.002 506.002c-8.66699 0 -12.667 4.66699 -12 14l13 67
c0.666992 9.33301 6 14 16 14h630c9.33301 0 13 -4.66699 11 -14l-12 -67c-2 -9.33301 -7.66699 -14 -17 -14h-629z" />
    <glyph glyph-name="guillemotright" unicode="&#xbb;" horiz-adv-x="1141" 
d="M319 1001c5.33301 0 9.66895 -0.833008 13.002 -2.5s6.66602 -4.5 9.99902 -8.5l285 -369c6 -6.66699 5.33301 -13.334 -2 -20.001l-425 -374c-6.66699 -6 -15 -9 -25 -9h-122c-4 0 -6.33301 0.833008 -7 2.5s0.666016 3.83398 3.99902 6.50098l444 396l-287 367
c-6 7.33301 -4.33301 11 5 11h107zM766.003 1001c5.33301 0 9.66895 -0.833008 13.002 -2.5s6.66602 -4.5 9.99902 -8.5l285 -369c6 -6.66699 5.33301 -13.334 -2 -20.001l-425 -374c-6.66699 -6 -15 -9 -25 -9h-122c-4 0 -6.33301 0.833008 -7 2.5
s0.666016 3.83398 3.99902 6.50098l444 396l-287 367c-6 7.33301 -4.33301 11 5 11h107z" />
    <glyph glyph-name="onequarter" unicode="&#xbc;" horiz-adv-x="1570" 
d="M754 233c-8.66699 0 -12.666 4.66699 -11.999 14l21 111c0.666992 8.66699 4.33398 16.667 11.001 24l456 506c3.33301 3.33301 6.66602 5.83301 9.99902 7.5s7.66602 2.5 12.999 2.5h160c9.33301 0 13 -4.66699 11 -14l-103 -558h96c9.33301 0 13 -4.66699 11 -14
l-12 -65c-2 -9.33301 -7.66699 -14 -17 -14h-95l-41 -219c-2 -9.33301 -7.66699 -14 -17 -14h-73c-9.33301 0 -13 4.66699 -11 14l40 219h-448zM90.001 0c-9.33301 0 -11 3.66699 -5 11l1145 1453c3.33301 4 6.66602 6.83301 9.99902 8.5s7.66602 2.5 12.999 2.5h107
c9.33301 0 11 -3.66699 5 -11l-1147 -1453c-3.33301 -4 -6.66602 -6.83301 -9.99902 -8.5s-7.66602 -2.5 -12.999 -2.5h-105zM227.001 1371c-9.33301 -0.666992 -14 3.33301 -14 12v62c0 8.66699 4.66699 14 14 16l197 28c4 0.666992 8.66699 1.16699 14 1.5s10 0.5 14 0.5
h67c9.33301 0 13 -4.66699 11 -14l-159 -865c-2 -9.33301 -7.66699 -14 -17 -14h-73c-9.33301 0 -13 4.66699 -11 14l145 787zM864.001 326h356l87 472h-37l-400 -441z" />
    <glyph glyph-name="onehalf" unicode="&#xbd;" horiz-adv-x="1641" 
d="M90 0c-9.33301 0 -11 3.66699 -5 11l1145 1453c3.33301 4 6.66602 6.83301 9.99902 8.5s7.66602 2.5 12.999 2.5h107c9.33301 0 11 -3.66699 5 -11l-1147 -1453c-3.33301 -4 -6.66602 -6.83301 -9.99902 -8.5s-7.66602 -2.5 -12.999 -2.5h-105zM866 0
c-9.33301 0 -12.999 4.66797 -10.999 14.001l9 45c7.33301 40.667 17.166 76.5 29.499 107.5s28.5 59.5 48.5 85.5s45 51 75 75s66.667 50 110 78l162 106l62 40.5c18.667 12.333 34.834 25.666 48.501 39.999s24.167 30.166 31.5 47.499s11 38.333 11 63
c0 18.667 -3.66699 34.5 -11 47.5s-19.333 23.5 -36 31.5s-38.167 13.667 -64.5 17s-58.833 5 -97.5 5c-24.667 0 -53.167 -1 -85.5 -3s-65.166 -6 -98.499 -12c-9.33301 -2 -14 1.66699 -14 11l1 64c0 9.33301 4.66699 15 14 17
c16.667 3.33301 34.167 6.16602 52.5 8.49902s36.666 4.16602 54.999 5.49902s36 2.33301 53 3s32.5 1 46.5 1c54 0 99.667 -3.66699 137 -11s67.833 -18.166 91.5 -32.499s40.667 -32.166 51 -53.499s15.5 -46 15.5 -74c0 -35.333 -3.66699 -65.666 -11 -90.999
s-19 -48.666 -35 -69.999s-36.833 -41.833 -62.5 -61.5s-56.834 -40.834 -93.501 -63.501l-139 -87c-40 -24.667 -73.333 -47 -100 -67s-48.667 -39.833 -66 -59.5s-31 -40.5 -41 -62.5s-18 -47 -24 -75h436c9.33301 0 13 -4.66699 11 -14l-11 -62
c-2 -9.33301 -7.66699 -14 -17 -14h-533zM227.001 1371c-9.33301 -0.666992 -14 3.33301 -14 12v62c0 8.66699 4.66699 14 14 16l197 28c4 0.666992 8.66699 1.16699 14 1.5s10 0.5 14 0.5h67c9.33301 0 13 -4.66699 11 -14l-159 -865c-2 -9.33301 -7.66699 -14 -17 -14h-73
c-9.33301 0 -13 4.66699 -11 14l145 787z" />
    <glyph glyph-name="threequarters" unicode="&#xbe;" horiz-adv-x="1792" 
d="M986 233c-9.33301 0 -12.998 4.66699 -10.998 14l20 111c2 8.66699 6 16.667 12 24l456 506c3.33301 3.33301 6.66602 5.83301 9.99902 7.5s7.66602 2.5 12.999 2.5h159c9.33301 0 13 -4.66699 11 -14l-103 -558h95c9.33301 0 13 -4.66699 11 -14l-11 -65
c-2 -9.33301 -7.66699 -14 -17 -14h-95l-40 -219c-2 -9.33301 -7.66699 -14 -17 -14h-74c-9.33301 0 -13 4.66699 -11 14l40 219h-448zM1096 326h356l87 472h-37l-401 -441zM312.002 0c-9.33301 0 -11 3.66699 -5 11l1146 1453c3.33301 4 6.66602 6.83301 9.99902 8.5
s7.66602 2.5 12.999 2.5h107c9.33301 0 11 -3.66699 5 -11l-1146 -1453c-3.33301 -4 -6.66602 -6.83301 -9.99902 -8.5s-7.66602 -2.5 -12.999 -2.5h-107zM321.002 585c-37.333 0 -73.6611 1.5 -108.994 4.5s-66.333 6.83301 -93 11.5c-9.33301 0.666992 -13 6 -11 16l16 66
c2 8.66699 7.66699 12.667 17 12c30.667 -4.66699 62.667 -8.16699 96 -10.5s65 -3.5 95 -3.5c41.333 0 77.666 2.66699 108.999 8s58.166 14.5 80.499 27.5s40.333 30.167 54 51.5s23.5 48 29.5 80l4 21c3.33301 18 4.33301 36.667 3 56s-7.33301 37 -18 53s-27 29 -49 39
s-51.333 15 -88 15h-204c-8.66699 0 -12.667 4.66699 -12 14l11 59c0.666992 9.33301 6 14 16 14h203c36.667 0 67.667 4 93 12s46.166 18.333 62.499 31s28.5 26.667 36.5 42s13.333 30.333 16 45l2 11c5.33301 28 4.16602 51.167 -3.50098 69.5
s-20.834 32.833 -39.501 43.5s-42.667 18.167 -72 22.5s-63 6.5 -101 6.5c-32 0 -64.667 -1.33301 -98 -4s-65.333 -5.66699 -96 -9c-10 -0.666992 -14 3.33301 -12 12l7 65c1.33301 9.33301 6.66602 14.666 15.999 15.999c28.667 3.33301 60.5 6.66602 95.5 9.99902
s71.167 5 108.5 5c53.333 0 100.166 -3.66699 140.499 -11s73.333 -19.5 99 -36.5s43.667 -39.333 54 -67s12.166 -62.167 5.49902 -103.5l-2 -15c-7.33301 -48 -27.166 -88.167 -59.499 -120.5s-78.166 -55.166 -137.499 -68.499c28 -8 51 -19.833 69 -35.5
s31.5 -33.5 40.5 -53.5s14.167 -41.167 15.5 -63.5s0 -44.166 -4 -65.499l-4 -22c-9.33301 -50 -24.5 -91.167 -45.5 -123.5s-47.5 -57.833 -79.5 -76.5s-69.5 -31.667 -112.5 -39s-91.167 -11 -144.5 -11z" />
    <glyph glyph-name="questiondown" unicode="&#xbf;" horiz-adv-x="832" 
d="M502 660c0.666992 9.33301 6.00293 13.9971 16.0029 13.9971h76c9.33301 0 13.666 -4.66699 12.999 -14c-1.33301 -10 -2.83301 -24 -4.5 -42s-4.16699 -36 -7.5 -54c-4 -26 -8.33301 -49.5 -13 -70.5s-10.334 -40.667 -17.001 -59s-14.834 -35.666 -24.501 -51.999
s-21.667 -33 -36 -50s-31.5 -35 -51.5 -54s-43.667 -40.167 -71 -63.5l-71 -60l-92 -81.5c-26.667 -24.333 -49.667 -47.833 -69 -70.5s-35 -45.5 -47 -68.5s-20.667 -48.167 -26 -75.5c-11.333 -64 4.33398 -108.833 47.001 -134.5s110.667 -38.5 204 -38.5
c36.667 0 74 1.33301 112 4s81 7.33398 129 14.001c9.33301 0.666992 14 -3.33301 14 -12l2 -78c0 -9.33301 -4.66699 -15 -14 -17c-42 -8 -87.5 -13.833 -136.5 -17.5s-94.833 -5.5 -137.5 -5.5c-59.333 0 -112.166 4.5 -158.499 13.5s-84.5 24 -114.5 45
s-51.333 48.833 -64 83.5s-14.667 77.667 -6 129c5.33301 33.333 14 63.833 26 91.5s28.667 55.167 50 82.5s47.666 56 78.999 86s69.333 64 114 102l80 70c37.333 32 66.666 59 87.999 81s38 43.167 50 63.5s21 41.833 27 64.5s12 50.334 18 83.001zM670.003 1071
c9.33301 0 13 -4.66699 11 -14l-38 -201c-2 -9.33301 -7.66699 -15 -17 -17l-95 -18c-9.33301 -2 -13 1.66699 -11 11l40 225c2 9.33301 7.66699 14 17 14h93z" />
    <glyph glyph-name="Agrave" unicode="&#xc0;" horiz-adv-x="1272" 
d="M-71 0c-10 0 -12.333 4 -7 12l791 1451c4.66699 8 11.667 12 21 12h131c10 0 15.333 -4.66699 16 -14l258 -1447c0.666992 -9.33301 -3.33301 -14 -12 -14h-94c-10 0 -15.333 4.66699 -16 14l-72 407h-675l-221 -409c-4.66699 -8 -11.667 -12 -21 -12h-99zM779 1362
l-450 -831h597zM879 1606c-6 0 -10.5 0.668945 -13.5 2.00195s-6.16699 3.66602 -9.5 6.99902l-198 183c-3.33301 3.33301 -4.5 6.16602 -3.5 8.49902s4.16699 3.5 9.5 3.5h131c5.33301 0 9.5 -0.5 12.5 -1.5s6.16699 -3.5 9.5 -7.5l164 -183c6.66699 -8 4.66699 -12 -6 -12
h-96z" />
    <glyph glyph-name="Aacute" unicode="&#xc1;" horiz-adv-x="1272" 
d="M-71 0c-10 0 -12.333 4 -7 12l791 1451c4.66699 8 11.667 12 21 12h131c10 0 15.333 -4.66699 16 -14l258 -1447c0.666992 -9.33301 -3.33301 -14 -12 -14h-94c-10 0 -15.333 4.66699 -16 14l-72 407h-675l-221 -409c-4.66699 -8 -11.667 -12 -21 -12h-99zM779 1362
l-450 -831h597zM676 1606c-9.33301 0 -10.335 3 -3.00195 9l227 186c6.66699 6 15 9 25 9h142c4 0 6.33301 -0.833008 7 -2.5s-0.666016 -3.5 -3.99902 -5.5l-262 -188c-7.33301 -5.33301 -15.666 -8 -24.999 -8h-107z" />
    <glyph glyph-name="Acircumflex" unicode="&#xc2;" horiz-adv-x="1272" 
d="M-71 0c-10 0 -12.333 4 -7 12l791 1451c4.66699 8 11.667 12 21 12h131c10 0 15.333 -4.66699 16 -14l258 -1447c0.666992 -9.33301 -3.33301 -14 -12 -14h-94c-10 0 -15.333 4.66699 -16 14l-72 407h-675l-221 -409c-4.66699 -8 -11.667 -12 -21 -12h-99zM779 1362
l-450 -831h597zM1105 1616c6.66699 -6.66699 5.33398 -10 -3.99902 -10h-95c-5.33301 0 -9.66602 0.833008 -12.999 2.5s-6.66602 4.16699 -9.99902 7.5l-110 122h-20l-159 -123c-6.66699 -6 -15 -9 -25 -9h-115c-4 0 -6.33301 0.833008 -7 2.5s0.666016 3.5 3.99902 5.5
l253 188c7.33301 5.33301 15.666 8 24.999 8h83c5.33301 0 9.66602 -0.833008 12.999 -2.5s7 -4.16699 11 -7.5z" />
    <glyph glyph-name="Atilde" unicode="&#xc3;" horiz-adv-x="1272" 
d="M-71 0c-10 0 -12.333 4 -7 12l791 1451c4.66699 8 11.667 12 21 12h131c10 0 15.333 -4.66699 16 -14l258 -1447c0.666992 -9.33301 -3.33301 -14 -12 -14h-94c-10 0 -15.333 4.66699 -16 14l-72 407h-675l-221 -409c-4.66699 -8 -11.667 -12 -21 -12h-99zM779 1362
l-450 -831h597zM513 1606c-10 0 -14 4.66504 -12 13.998c7.33301 48.667 18.666 87.5 33.999 116.5s32.333 50.833 51 65.5s37.834 24.167 57.501 28.5s37.5 6.5 53.5 6.5c18 0 34 -1.66699 48 -5s27 -8.16602 39 -14.499s24 -14.166 36 -23.499s25 -20.333 39 -33l42 -37.5
c11.333 -9.66699 21.5 -17.167 30.5 -22.5s17.333 -9 25 -11s16.5 -3 26.5 -3c12.667 0 24.5 1.66699 35.5 5s21 9.66602 30 18.999s17 22.333 24 39s12.5 38.667 16.5 66c2 9.33301 7.33301 14 16 14h65c10 0 14 -4.66699 12 -14c-8 -49.333 -19.667 -88.5 -35 -117.5
s-32.5 -50.833 -51.5 -65.5s-38.333 -24 -58 -28s-37.834 -6 -54.501 -6c-18 0 -33.667 1.5 -47 4.5s-26 7.5 -38 13.5s-23.833 13.667 -35.5 23s-24.5 20.666 -38.5 33.999c-16 15.333 -29.667 27.833 -41 37.5s-21.5 17.334 -30.5 23.001s-17.667 9.5 -26 11.5
s-17.166 3 -26.499 3c-12.667 0 -24.5 -1.66699 -35.5 -5s-21 -9.66602 -30 -18.999s-17 -22.5 -24 -39.5s-12.5 -38.833 -16.5 -65.5c-2 -9.33301 -7.33301 -14 -16 -14h-65z" />
    <glyph glyph-name="Adieresis" unicode="&#xc4;" horiz-adv-x="1272" 
d="M-71 0c-10 0 -12.333 4 -7 12l791 1451c4.66699 8 11.667 12 21 12h131c10 0 15.333 -4.66699 16 -14l258 -1447c0.666992 -9.33301 -3.33301 -14 -12 -14h-94c-10 0 -15.333 4.66699 -16 14l-72 407h-675l-221 -409c-4.66699 -8 -11.667 -12 -21 -12h-99zM779 1362
l-450 -831h597zM637 1606c-9.33301 0 -13 4.66699 -11 14l35 194c2 9.33301 7.66699 15 17 17l94 18c9.33301 2 13 -1.66699 11 -11l-40 -218c-2 -9.33301 -7.66699 -14 -17 -14h-89zM929 1606c-8.66699 0 -12.667 4.66699 -12 14l36 194c0.666992 9.33301 6 15 16 17l94 18
c9.33301 2 13 -1.66699 11 -11l-39 -218c-2 -9.33301 -7.66699 -14 -17 -14h-89z" />
    <glyph glyph-name="Aring" unicode="&#xc5;" horiz-adv-x="1264" 
d="M-75 0c-10 0 -12.3311 3.99902 -6.99805 11.999l773 1418c-25.333 13.333 -42.833 32.333 -52.5 57s-11.834 53 -6.50098 85l1 7c7.33301 46 28.833 83.333 64.5 112s83.834 43 144.501 43c29.333 0 54.5 -4.16699 75.5 -12.5s37.667 -19.833 50 -34.5
s20.666 -32.167 24.999 -52.5s4.5 -42.166 0.5 -65.499c-5.33301 -33.333 -17.333 -62 -36 -86s-43.334 -42.333 -74.001 -55l252 -1414c0.666992 -9.33301 -3.33301 -14 -12 -14h-94c-10 0 -15.333 4.66699 -16 14l-72 407h-675l-221 -409c-4.66699 -8 -11.667 -12 -21 -12
h-99zM775.002 1362l-450 -831h597zM828.002 1657c-32 0 -57.998 -8.16504 -77.998 -24.498s-31.333 -35.5 -34 -57.5l-1 -8c-1.33301 -10.667 -0.833008 -20.834 1.5 -30.501s6.66602 -18.334 12.999 -26.001s15.166 -13.667 26.499 -18s25 -6.5 41 -6.5
c32 0 58 8.5 78 25.5s31.667 37.167 35 60.5c2.66699 23.333 -2 43.333 -14 60s-34.667 25 -68 25z" />
    <glyph glyph-name="AE" unicode="&#xc6;" horiz-adv-x="1834" 
d="M769 0c-9.33301 0 -13 4.66699 -11 14l75 411h-535l-284 -413c-5.33301 -8 -12.666 -12 -21.999 -12h-97c-9.33301 0 -11.333 4 -6 12l995 1451c5.33301 8 12.666 12 21.999 12h946c8.66699 0 12.667 -4.66699 12 -14l-16 -85c-0.666992 -9.33301 -6 -14 -16 -14h-711
l-93 -502h626c9.33301 0 13 -4.66699 11 -14l-15 -84c-2 -9.33301 -7.66699 -14 -17 -14h-626l-118 -636h711c9.33301 0 13 -4.66699 11 -14l-15 -84c-2 -9.33301 -7.66699 -14 -17 -14h-810zM944 1362l-571 -829h480l154 829h-63z" />
    <glyph glyph-name="Ccedilla" unicode="&#xc7;" horiz-adv-x="1160" 
d="M623 -22c-94 0 -175.67 11.834 -245.003 35.501s-124.5 62.5 -165.5 116.5s-66.667 125.167 -77 213.5s-3.5 197.166 20.5 326.499l23 135c24.667 134 58.5 245.333 101.5 334s95 159.5 156 212.5s130.667 90.5 209 112.5s164.5 33 258.5 33
c60.667 0 118.5 -2.83301 173.5 -8.5s101.167 -13.167 138.5 -22.5c9.33301 -2.66699 12.333 -8.33398 9 -17.001l-29 -77c-3.33301 -8.66699 -9.66602 -12 -18.999 -10c-42.667 8.66699 -89.5 14.834 -140.5 18.501s-100.833 5.5 -149.5 5.5c-76 0 -145.667 -9 -209 -27
s-119.666 -49 -168.999 -93s-91.666 -102.667 -126.999 -176s-63.333 -165 -84 -275l-27 -155c-20.667 -110.667 -27 -202.667 -19 -276s28.5 -131.833 61.5 -175.5s77.667 -74.5 134 -92.5s122.833 -27 199.5 -27c62 0 118.5 2.5 169.5 7.5s97.5 11.167 139.5 18.5
c9.33301 0.666992 14 -3.33301 14 -12l-1 -77c0 -9.33301 -4.66699 -15 -14 -17c-42 -9.33301 -92 -16.833 -150 -22.5s-118.667 -8.5 -182 -8.5zM353.997 -388.999c-9.33301 0 -11.333 3.66699 -6 11l189 265c5.33301 7.33301 12.666 11 21.999 11h92
c8.66699 0 10.667 -4 6 -12l-181 -263c-5.33301 -8 -12.666 -12 -21.999 -12h-100z" />
    <glyph glyph-name="Egrave" unicode="&#xc8;" horiz-adv-x="1185" 
d="M832 1606c-6 0 -10.5 0.668945 -13.5 2.00195s-6.16699 3.66602 -9.5 6.99902l-198 183c-3.33301 3.33301 -4.5 6.16602 -3.5 8.49902s4.16699 3.5 9.5 3.5h131c5.33301 0 9.5 -0.5 12.5 -1.5s6.16699 -3.5 9.5 -7.5l164 -183c6.66699 -8 4.66699 -12 -6 -12h-96z
M113 0.00195312c-9.33301 0 -13 4.66699 -11 14l266 1447c2 9.33301 7.66699 14 17 14h822c8.66699 0 12.667 -4.66699 12 -14l-16 -85c-0.666992 -9.33301 -6 -14 -16 -14h-722l-93 -502h626c9.33301 0 13 -4.66699 11 -14l-15 -84c-2 -9.33301 -7.66699 -14 -17 -14h-626
l-116 -636h721c9.33301 0 13 -4.66699 11 -14l-16 -84c-2 -9.33301 -7.66699 -14 -17 -14h-821z" />
    <glyph glyph-name="Eacute" unicode="&#xc9;" horiz-adv-x="1185" 
d="M113 0c-9.33301 0 -13 4.66699 -11 14l266 1447c2 9.33301 7.66699 14 17 14h822c8.66699 0 12.667 -4.66699 12 -14l-16 -85c-0.666992 -9.33301 -6 -14 -16 -14h-722l-93 -502h626c9.33301 0 13 -4.66699 11 -14l-15 -84c-2 -9.33301 -7.66699 -14 -17 -14h-626
l-116 -636h721c9.33301 0 13 -4.66699 11 -14l-16 -84c-2 -9.33301 -7.66699 -14 -17 -14h-821zM686 1606c-9.33301 0 -10.335 3 -3.00195 9l227 186c6.66699 6 15 9 25 9h142c4 0 6.33301 -0.833008 7 -2.5s-0.666016 -3.5 -3.99902 -5.5l-262 -188
c-7.33301 -5.33301 -15.666 -8 -24.999 -8h-107z" />
    <glyph glyph-name="Ecircumflex" unicode="&#xca;" horiz-adv-x="1185" 
d="M1077 1616c6.66699 -6.66699 5.33398 -10 -3.99902 -10h-95c-5.33301 0 -9.66602 0.833008 -12.999 2.5s-6.66602 4.16699 -9.99902 7.5l-110 122h-20l-159 -123c-6.66699 -6 -15 -9 -25 -9h-115c-4 0 -6.33301 0.833008 -7 2.5s0.666016 3.5 3.99902 5.5l253 188
c7.33301 5.33301 15.666 8 24.999 8h83c5.33301 0 9.66602 -0.833008 12.999 -2.5s7 -4.16699 11 -7.5zM113 0c-9.33301 0 -13 4.66699 -11 14l266 1447c2 9.33301 7.66699 14 17 14h822c8.66699 0 12.667 -4.66699 12 -14l-16 -85c-0.666992 -9.33301 -6 -14 -16 -14h-722
l-93 -502h626c9.33301 0 13 -4.66699 11 -14l-15 -84c-2 -9.33301 -7.66699 -14 -17 -14h-626l-116 -636h721c9.33301 0 13 -4.66699 11 -14l-16 -84c-2 -9.33301 -7.66699 -14 -17 -14h-821z" />
    <glyph glyph-name="Edieresis" unicode="&#xcb;" horiz-adv-x="1185" 
d="M113 0c-9.33301 0 -13 4.66699 -11 14l266 1447c2 9.33301 7.66699 14 17 14h822c8.66699 0 12.667 -4.66699 12 -14l-16 -85c-0.666992 -9.33301 -6 -14 -16 -14h-722l-93 -502h626c9.33301 0 13 -4.66699 11 -14l-15 -84c-2 -9.33301 -7.66699 -14 -17 -14h-626
l-116 -636h721c9.33301 0 13 -4.66699 11 -14l-16 -84c-2 -9.33301 -7.66699 -14 -17 -14h-821zM609 1606c-9.33301 0 -13 4.66699 -11 14l35 194c2 9.33301 7.66699 15 17 17l94 18c9.33301 2 13 -1.66699 11 -11l-40 -218c-2 -9.33301 -7.66699 -14 -17 -14h-89zM901 1606
c-8.66699 0 -12.667 4.66699 -12 14l36 194c0.666992 9.33301 6 15 16 17l94 18c9.33301 2 13 -1.66699 11 -11l-39 -218c-2 -9.33301 -7.66699 -14 -17 -14h-89z" />
    <glyph glyph-name="Igrave" unicode="&#xcc;" horiz-adv-x="545" 
d="M113 0c-9.33301 0 -13 4.66699 -11 14l266 1447c2 9.33301 7.66699 14 17 14h86c9.33301 0 13 -4.66699 11 -14l-266 -1447c-2 -9.33301 -7.66699 -14 -17 -14h-86zM517 1606c-6 0 -10.5 0.668945 -13.5 2.00195s-6.16699 3.66602 -9.5 6.99902l-198 183
c-3.33301 3.33301 -4.5 6.16602 -3.5 8.49902s4.16699 3.5 9.5 3.5h131c5.33301 0 9.5 -0.5 12.5 -1.5s6.16699 -3.5 9.5 -7.5l164 -183c6.66699 -8 4.66699 -12 -6 -12h-96z" />
    <glyph glyph-name="Iacute" unicode="&#xcd;" horiz-adv-x="545" 
d="M113 0c-9.33301 0 -13 4.66699 -11 14l266 1447c2 9.33301 7.66699 14 17 14h86c9.33301 0 13 -4.66699 11 -14l-266 -1447c-2 -9.33301 -7.66699 -14 -17 -14h-86zM270 1606c-9.33301 0 -10.335 3 -3.00195 9l227 186c6.66699 6 15 9 25 9h142
c4 0 6.33301 -0.833008 7 -2.5s-0.666016 -3.5 -3.99902 -5.5l-262 -188c-7.33301 -5.33301 -15.666 -8 -24.999 -8h-107z" />
    <glyph glyph-name="Icircumflex" unicode="&#xce;" horiz-adv-x="545" 
d="M113 0c-9.33301 0 -13 4.66699 -11 14l266 1447c2 9.33301 7.66699 14 17 14h86c9.33301 0 13 -4.66699 11 -14l-266 -1447c-2 -9.33301 -7.66699 -14 -17 -14h-86zM740 1616c6.66699 -6.66699 5.33398 -10 -3.99902 -10h-95c-5.33301 0 -9.66602 0.833008 -12.999 2.5
s-6.66602 4.16699 -9.99902 7.5l-110 122h-20l-159 -123c-6.66699 -6 -15 -9 -25 -9h-115c-4 0 -6.33301 0.833008 -7 2.5s0.666016 3.5 3.99902 5.5l253 188c7.33301 5.33301 15.666 8 24.999 8h83c5.33301 0 9.66602 -0.833008 12.999 -2.5s7 -4.16699 11 -7.5z" />
    <glyph glyph-name="Idieresis" unicode="&#xcf;" horiz-adv-x="545" 
d="M113 0c-9.33301 0 -13 4.66699 -11 14l266 1447c2 9.33301 7.66699 14 17 14h86c9.33301 0 13 -4.66699 11 -14l-266 -1447c-2 -9.33301 -7.66699 -14 -17 -14h-86zM263 1606c-9.33301 0 -13 4.66699 -11 14l35 194c2 9.33301 7.66699 15 17 17l94 18
c9.33301 2 13 -1.66699 11 -11l-40 -218c-2 -9.33301 -7.66699 -14 -17 -14h-89zM555 1606c-8.66699 0 -12.667 4.66699 -12 14l36 194c0.666992 9.33301 6 15 16 17l94 18c9.33301 2 13 -1.66699 11 -11l-39 -218c-2 -9.33301 -7.66699 -14 -17 -14h-89z" />
    <glyph glyph-name="Eth" unicode="&#xd0;" horiz-adv-x="1414" 
d="M473 -16c-26 0 -53.6689 0.334961 -83.002 1.00195s-59.333 1.5 -90 2.5s-61.5 2.5 -92.5 4.5s-60.5 4.33301 -88.5 7c-9.33301 0.666992 -13 5.66699 -11 15l133 724h-173c-9.33301 0 -13 4.66699 -11 14l15 80c2 9.33301 7.66699 14 17 14h172l114 615
c1.33301 9.33301 7 14.333 17 15c29.333 2 60.333 3.5 93 4.5l96 3c31.333 1 61.166 1.66699 89.499 2s52.5 0.5 72.5 0.5c64 0 124.833 -3.33301 182.5 -10s110 -19 157 -37s88.167 -43.167 123.5 -75.5s62.833 -74.166 82.5 -125.499s30.667 -113.333 33 -186
s-5.5 -158.334 -23.5 -257.001l-21 -113c-19.333 -102.667 -42.666 -191.167 -69.999 -265.5s-59.166 -137.333 -95.499 -189s-76.666 -93.334 -120.999 -125.001s-93.166 -56.334 -146.499 -74.001s-110.833 -29.5 -172.5 -35.5s-127.834 -9 -198.501 -9zM738.998 1379
c-17.333 0 -37.834 -0.166016 -61.501 -0.499023s-47.834 -0.833008 -72.501 -1.5s-48.667 -1.5 -72 -2.5s-43.333 -2.16699 -60 -3.5l-98 -525h277c9.33301 0 13 -4.66699 11 -14l-15 -80c-2 -9.33301 -7.66699 -14 -17 -14h-276l-118 -637
c19.333 -2 40.666 -3.66699 63.999 -5s46.833 -2.5 70.5 -3.5s47 -1.66699 70 -2s44.167 -0.5 63.5 -0.5c60 0 115.833 3.16699 167.5 9.5s99.334 17.5 143.001 33.5s83.334 38.167 119.001 66.5s67.834 64.166 96.501 107.499s53.834 95.5 75.501 156.5
s40.167 132.5 55.5 214.5l22 119c14.667 81.333 22.5 152.333 23.5 213s-5 112.5 -18 155.5s-32.333 78.333 -58 106s-57.5 49.5 -95.5 65.5s-81.833 27 -131.5 33s-104.834 9 -165.501 9z" />
    <glyph glyph-name="Ntilde" unicode="&#xd1;" horiz-adv-x="1430" 
d="M589 1606c-10 0 -14 4.66504 -12 13.998c7.33301 48.667 18.666 87.5 33.999 116.5s32.333 50.833 51 65.5s37.834 24.167 57.501 28.5s37.5 6.5 53.5 6.5c18 0 34 -1.66699 48 -5s27 -8.16602 39 -14.499s24 -14.166 36 -23.499s25 -20.333 39 -33l42 -37.5
c11.333 -9.66699 21.5 -17.167 30.5 -22.5s17.333 -9 25 -11s16.5 -3 26.5 -3c12.667 0 24.5 1.66699 35.5 5s21 9.66602 30 18.999s17 22.333 24 39s12.5 38.667 16.5 66c2 9.33301 7.33301 14 16 14h65c10 0 14 -4.66699 12 -14c-8 -49.333 -19.667 -88.5 -35 -117.5
s-32.5 -50.833 -51.5 -65.5s-38.333 -24 -58 -28s-37.834 -6 -54.501 -6c-18 0 -33.667 1.5 -47 4.5s-26 7.5 -38 13.5s-23.833 13.667 -35.5 23s-24.5 20.666 -38.5 33.999c-16 15.333 -29.667 27.833 -41 37.5s-21.5 17.334 -30.5 23.001s-17.667 9.5 -26 11.5
s-17.166 3 -26.499 3c-12.667 0 -24.5 -1.66699 -35.5 -5s-21 -9.66602 -30 -18.999s-17 -22.5 -24 -39.5s-12.5 -38.833 -16.5 -65.5c-2 -9.33301 -7.33301 -14 -16 -14h-65zM113 -0.00195312c-9.33301 0 -13 4.66699 -11 14l266 1447c2 9.33301 7.66699 14 17 14h97
c9.33301 0 15.666 -4.33301 18.999 -13l465 -1151c15.333 -36.667 27 -65.5 35 -86.5s12.667 -31.5 14 -31.5l235 1268c2 9.33301 7.66699 14 17 14h85c9.33301 0 13 -4.66699 11 -14l-266 -1447c-2 -9.33301 -7.66699 -14 -17 -14h-102
c-9.33301 0 -15.666 4.33301 -18.999 13l-457 1143c-15.333 36 -27.5 65.833 -36.5 89.5s-13.833 35.5 -14.5 35.5l-235 -1267c-2 -9.33301 -7.66699 -14 -17 -14h-86z" />
    <glyph glyph-name="Ograve" unicode="&#xd2;" horiz-adv-x="1432" 
d="M908 1606c-6 0 -10.5 0.668945 -13.5 2.00195s-6.16699 3.66602 -9.5 6.99902l-198 183c-3.33301 3.33301 -4.5 6.16602 -3.5 8.49902s4.16699 3.5 9.5 3.5h131c5.33301 0 9.5 -0.5 12.5 -1.5s6.16699 -3.5 9.5 -7.5l164 -183c6.66699 -8 4.66699 -12 -6 -12h-96z
M596 -21.998c-90 0 -167.501 11.667 -232.501 35s-116.167 62 -153.5 116s-60.333 125.167 -69 213.5s-2 197.5 20 327.5l23 135c24 136.667 56.5 249.5 97.5 338.5s90.5 159.667 148.5 212s124.167 89 198.5 110s157.166 31.5 248.499 31.5
c90.667 0 168.334 -11.5 233.001 -34.5s115.5 -61.5 152.5 -115.5s59.667 -125.167 68 -213.5s1.5 -197.833 -20.5 -328.5l-23 -135c-23.333 -135.333 -55.166 -247.333 -95.499 -336s-89.5 -159.5 -147.5 -212.5s-124.333 -90.167 -199 -111.5s-157.667 -32 -249 -32z
M854.999 1380c-72 0 -137.329 -8.83496 -195.996 -26.502s-110.834 -48.167 -156.501 -91.5s-85 -101.166 -118 -173.499s-59.833 -163.5 -80.5 -273.5l-28 -155c-20 -111.333 -27 -203.333 -21 -276s23.667 -130.5 53 -173.5s70.166 -73.167 122.499 -90.5
s114.5 -26 186.5 -26c70 0 134.333 9.16699 193 27.5s111.167 49.333 157.5 93s86.166 101.834 119.499 174.501s60 163.667 80 273l28 153c20 110 27.167 201.333 21.5 274s-23.334 130.5 -53.001 173.5s-70.5 73.333 -122.5 91s-114 26.5 -186 26.5z" />
    <glyph glyph-name="Oacute" unicode="&#xd3;" horiz-adv-x="1432" 
d="M753 1606c-9.33301 0 -10.335 3 -3.00195 9l227 186c6.66699 6 15 9 25 9h142c4 0 6.33301 -0.833008 7 -2.5s-0.666016 -3.5 -3.99902 -5.5l-262 -188c-7.33301 -5.33301 -15.666 -8 -24.999 -8h-107zM595.998 -22c-90 0 -167.501 11.667 -232.501 35
s-116.167 62 -153.5 116s-60.333 125.167 -69 213.5s-2 197.5 20 327.5l23 135c24 136.667 56.5 249.5 97.5 338.5s90.5 159.667 148.5 212s124.167 89 198.5 110s157.166 31.5 248.499 31.5c90.667 0 168.334 -11.5 233.001 -34.5s115.5 -61.5 152.5 -115.5
s59.667 -125.167 68 -213.5s1.5 -197.833 -20.5 -328.5l-23 -135c-23.333 -135.333 -55.166 -247.333 -95.499 -336s-89.5 -159.5 -147.5 -212.5s-124.333 -90.167 -199 -111.5s-157.667 -32 -249 -32zM854.997 1380c-72 0 -137.329 -8.83496 -195.996 -26.502
s-110.834 -48.167 -156.501 -91.5s-85 -101.166 -118 -173.499s-59.833 -163.5 -80.5 -273.5l-28 -155c-20 -111.333 -27 -203.333 -21 -276s23.667 -130.5 53 -173.5s70.166 -73.167 122.499 -90.5s114.5 -26 186.5 -26c70 0 134.333 9.16699 193 27.5
s111.167 49.333 157.5 93s86.166 101.834 119.499 174.501s60 163.667 80 273l28 153c20 110 27.167 201.333 21.5 274s-23.334 130.5 -53.001 173.5s-70.5 73.333 -122.5 91s-114 26.5 -186 26.5z" />
    <glyph glyph-name="Ocircumflex" unicode="&#xd4;" horiz-adv-x="1432" 
d="M1173 1616c6.66699 -6.66699 5.33398 -10 -3.99902 -10h-95c-5.33301 0 -9.66602 0.833008 -12.999 2.5s-6.66602 4.16699 -9.99902 7.5l-110 122h-20l-159 -123c-6.66699 -6 -15 -9 -25 -9h-115c-4 0 -6.33301 0.833008 -7 2.5s0.666016 3.5 3.99902 5.5l253 188
c7.33301 5.33301 15.666 8 24.999 8h83c5.33301 0 9.66602 -0.833008 12.999 -2.5s7 -4.16699 11 -7.5zM596 -22c-90 0 -167.501 11.667 -232.501 35s-116.167 62 -153.5 116s-60.333 125.167 -69 213.5s-2 197.5 20 327.5l23 135c24 136.667 56.5 249.5 97.5 338.5
s90.5 159.667 148.5 212s124.167 89 198.5 110s157.166 31.5 248.499 31.5c90.667 0 168.334 -11.5 233.001 -34.5s115.5 -61.5 152.5 -115.5s59.667 -125.167 68 -213.5s1.5 -197.833 -20.5 -328.5l-23 -135c-23.333 -135.333 -55.166 -247.333 -95.499 -336
s-89.5 -159.5 -147.5 -212.5s-124.333 -90.167 -199 -111.5s-157.667 -32 -249 -32zM854.999 1380c-72 0 -137.329 -8.83496 -195.996 -26.502s-110.834 -48.167 -156.501 -91.5s-85 -101.166 -118 -173.499s-59.833 -163.5 -80.5 -273.5l-28 -155
c-20 -111.333 -27 -203.333 -21 -276s23.667 -130.5 53 -173.5s70.166 -73.167 122.499 -90.5s114.5 -26 186.5 -26c70 0 134.333 9.16699 193 27.5s111.167 49.333 157.5 93s86.166 101.834 119.499 174.501s60 163.667 80 273l28 153c20 110 27.167 201.333 21.5 274
s-23.334 130.5 -53.001 173.5s-70.5 73.333 -122.5 91s-114 26.5 -186 26.5z" />
    <glyph glyph-name="Otilde" unicode="&#xd5;" horiz-adv-x="1432" 
d="M596 -22c-90 0 -167.501 11.667 -232.501 35s-116.167 62 -153.5 116s-60.333 125.167 -69 213.5s-2 197.5 20 327.5l23 135c24 136.667 56.5 249.5 97.5 338.5s90.5 159.667 148.5 212s124.167 89 198.5 110s157.166 31.5 248.499 31.5
c90.667 0 168.334 -11.5 233.001 -34.5s115.5 -61.5 152.5 -115.5s59.667 -125.167 68 -213.5s1.5 -197.833 -20.5 -328.5l-23 -135c-23.333 -135.333 -55.166 -247.333 -95.499 -336s-89.5 -159.5 -147.5 -212.5s-124.333 -90.167 -199 -111.5s-157.667 -32 -249 -32z
M854.999 1380c-72 0 -137.329 -8.83496 -195.996 -26.502s-110.834 -48.167 -156.501 -91.5s-85 -101.166 -118 -173.499s-59.833 -163.5 -80.5 -273.5l-28 -155c-20 -111.333 -27 -203.333 -21 -276s23.667 -130.5 53 -173.5s70.166 -73.167 122.499 -90.5
s114.5 -26 186.5 -26c70 0 134.333 9.16699 193 27.5s111.167 49.333 157.5 93s86.166 101.834 119.499 174.501s60 163.667 80 273l28 153c20 110 27.167 201.333 21.5 274s-23.334 130.5 -53.001 173.5s-70.5 73.333 -122.5 91s-114 26.5 -186 26.5zM589.003 1606
c-10 0 -14 4.66504 -12 13.998c7.33301 48.667 18.666 87.5 33.999 116.5s32.333 50.833 51 65.5s37.834 24.167 57.501 28.5s37.5 6.5 53.5 6.5c18 0 34 -1.66699 48 -5s27 -8.16602 39 -14.499s24 -14.166 36 -23.499s25 -20.333 39 -33l42 -37.5
c11.333 -9.66699 21.5 -17.167 30.5 -22.5s17.333 -9 25 -11s16.5 -3 26.5 -3c12.667 0 24.5 1.66699 35.5 5s21 9.66602 30 18.999s17 22.333 24 39s12.5 38.667 16.5 66c2 9.33301 7.33301 14 16 14h65c10 0 14 -4.66699 12 -14c-8 -49.333 -19.667 -88.5 -35 -117.5
s-32.5 -50.833 -51.5 -65.5s-38.333 -24 -58 -28s-37.834 -6 -54.501 -6c-18 0 -33.667 1.5 -47 4.5s-26 7.5 -38 13.5s-23.833 13.667 -35.5 23s-24.5 20.666 -38.5 33.999c-16 15.333 -29.667 27.833 -41 37.5s-21.5 17.334 -30.5 23.001s-17.667 9.5 -26 11.5
s-17.166 3 -26.499 3c-12.667 0 -24.5 -1.66699 -35.5 -5s-21 -9.66602 -30 -18.999s-17 -22.5 -24 -39.5s-12.5 -38.833 -16.5 -65.5c-2 -9.33301 -7.33301 -14 -16 -14h-65z" />
    <glyph glyph-name="Odieresis" unicode="&#xd6;" horiz-adv-x="1432" 
d="M596 -22c-90 0 -167.501 11.667 -232.501 35s-116.167 62 -153.5 116s-60.333 125.167 -69 213.5s-2 197.5 20 327.5l23 135c24 136.667 56.5 249.5 97.5 338.5s90.5 159.667 148.5 212s124.167 89 198.5 110s157.166 31.5 248.499 31.5
c90.667 0 168.334 -11.5 233.001 -34.5s115.5 -61.5 152.5 -115.5s59.667 -125.167 68 -213.5s1.5 -197.833 -20.5 -328.5l-23 -135c-23.333 -135.333 -55.166 -247.333 -95.499 -336s-89.5 -159.5 -147.5 -212.5s-124.333 -90.167 -199 -111.5s-157.667 -32 -249 -32z
M854.999 1380c-72 0 -137.329 -8.83496 -195.996 -26.502s-110.834 -48.167 -156.501 -91.5s-85 -101.166 -118 -173.499s-59.833 -163.5 -80.5 -273.5l-28 -155c-20 -111.333 -27 -203.333 -21 -276s23.667 -130.5 53 -173.5s70.166 -73.167 122.499 -90.5
s114.5 -26 186.5 -26c70 0 134.333 9.16699 193 27.5s111.167 49.333 157.5 93s86.166 101.834 119.499 174.501s60 163.667 80 273l28 153c20 110 27.167 201.333 21.5 274s-23.334 130.5 -53.001 173.5s-70.5 73.333 -122.5 91s-114 26.5 -186 26.5zM705.003 1606
c-9.33301 0 -13 4.66699 -11 14l35 194c2 9.33301 7.66699 15 17 17l94 18c9.33301 2 13 -1.66699 11 -11l-40 -218c-2 -9.33301 -7.66699 -14 -17 -14h-89zM997.003 1606c-8.66699 0 -12.667 4.66699 -12 14l36 194c0.666992 9.33301 6 15 16 17l94 18
c9.33301 2 13 -1.66699 11 -11l-39 -218c-2 -9.33301 -7.66699 -14 -17 -14h-89z" />
    <glyph glyph-name="multiply" unicode="&#xd7;" horiz-adv-x="948" 
d="M233 1040c-6 6.66699 -5.33301 13.334 2 20.001l69 58c6.66699 6 13.334 5.33301 20.001 -2l195 -238l285 241c6.66699 6 13.334 5.33301 20.001 -2l46 -54c6 -6.66699 5.33301 -13.334 -2 -20.001l-287 -242l196 -239c6 -6.66699 5.33301 -13.334 -2 -20.001l-70 -59
c-6.66699 -6 -13.334 -5.33301 -20.001 2l-195 239l-285 -240c-6.66699 -6 -13.334 -5.33301 -20.001 2l-44 54c-6 6.66699 -5.33301 13.334 2 20.001l285 241z" />
    <glyph glyph-name="Oslash" unicode="&#xd8;" horiz-adv-x="1387" 
d="M164 210c-19.333 54.667 -29.002 120.335 -29.002 197.002s9.66699 167.334 29 272.001l22 126c24 131.333 56.167 241.166 96.5 329.499s88.5 159.333 144.5 213s119.667 92 191 115s150 34.5 236 34.5c79.333 0 148.333 -9.83301 207 -29.5
s106.334 -51.5 143.001 -95.5l84 93c3.33301 3.33301 6.66602 5.83301 9.99902 7.5s7.66602 2.5 12.999 2.5h113c8.66699 0 10.334 -3.33301 5.00098 -10l-170 -190c20 -54.667 30.5 -121.334 31.5 -200.001s-8.5 -171.667 -28.5 -279l-23 -126
c-24 -132 -56 -242.167 -96 -330.5s-87.667 -159.333 -143 -213s-118.5 -91.834 -189.5 -114.501s-149.833 -34 -236.5 -34c-81.333 0 -152.166 10.167 -212.499 30.5s-108.833 54.5 -145.5 102.5l-91 -101c-3.33301 -3.33301 -6.66602 -5.83301 -9.99902 -7.5
s-7.66602 -2.5 -12.999 -2.5h-112c-8.66699 -0 -10.334 3.33301 -5.00098 10zM1150 815.001c14 76.667 21.832 144 23.499 202s-2.16602 108.333 -11.499 151l-859 -959c28 -42 66.5 -71.667 115.5 -89s107.833 -26 176.5 -26c68 0 129.667 8.83301 185 26.5
s104.833 48.167 148.5 91.5s81.5 101.5 113.5 174.5s58.333 164.833 79 275.5zM832.997 1380c-68 0 -129.834 -8.83398 -185.501 -26.501s-105.5 -48.167 -149.5 -91.5s-82 -101.166 -114 -173.499s-58.333 -163.5 -79 -273.5l-29 -155c-14 -74 -22.167 -139 -24.5 -195
s0.833984 -105 9.50098 -147l856 956c-28.667 38.667 -66.667 66 -114 82s-104 24 -170 24z" />
    <glyph glyph-name="Ugrave" unicode="&#xd9;" horiz-adv-x="1445" 
d="M926 1606c-6 0 -10.5 0.668945 -13.5 2.00195s-6.16699 3.66602 -9.5 6.99902l-198 183c-3.33301 3.33301 -4.5 6.16602 -3.5 8.49902s4.16699 3.5 9.5 3.5h131c5.33301 0 9.5 -0.5 12.5 -1.5s6.16699 -3.5 9.5 -7.5l164 -183c6.66699 -8 4.66699 -12 -6 -12h-96z
M597 -21.998c-82.667 0 -154.501 9.99902 -215.501 29.999s-109.833 51.167 -146.5 93.5s-60.667 96.333 -72 162s-8.33301 143.834 9 234.501l179 963c2 9.33301 7.66699 14 17 14h86c9.33301 0 13 -4.66699 11 -14l-173 -934c-14 -74 -19.5 -138.333 -16.5 -193
s17 -100.167 42 -136.5s62 -63.5 111 -81.5s112.167 -27 189.5 -27c78.667 0 146.334 8.83301 203.001 26.5s104.5 44.667 143.5 81s70.333 82 94 137s42.5 119.5 56.5 193.5l174 934c2 9.33301 7.66699 14 17 14h83c9.33301 0 13 -4.66699 11 -14l-179 -963
c-19.333 -102.667 -46.666 -187.5 -81.999 -254.5s-78.833 -120.167 -130.5 -159.5s-111.834 -66.833 -180.501 -82.5s-145.667 -23.5 -231 -23.5z" />
    <glyph glyph-name="Uacute" unicode="&#xda;" horiz-adv-x="1445" 
d="M597 -22c-82.667 0 -154.501 9.99902 -215.501 29.999s-109.833 51.167 -146.5 93.5s-60.667 96.333 -72 162s-8.33301 143.834 9 234.501l179 963c2 9.33301 7.66699 14 17 14h86c9.33301 0 13 -4.66699 11 -14l-173 -934c-14 -74 -19.5 -138.333 -16.5 -193
s17 -100.167 42 -136.5s62 -63.5 111 -81.5s112.167 -27 189.5 -27c78.667 0 146.334 8.83301 203.001 26.5s104.5 44.667 143.5 81s70.333 82 94 137s42.5 119.5 56.5 193.5l174 934c2 9.33301 7.66699 14 17 14h83c9.33301 0 13 -4.66699 11 -14l-179 -963
c-19.333 -102.667 -46.666 -187.5 -81.999 -254.5s-78.833 -120.167 -130.5 -159.5s-111.834 -66.833 -180.501 -82.5s-145.667 -23.5 -231 -23.5zM802.999 1606c-9.33301 0 -10.335 3 -3.00195 9l227 186c6.66699 6 15 9 25 9h142c4 0 6.33301 -0.833008 7 -2.5
s-0.666016 -3.5 -3.99902 -5.5l-262 -188c-7.33301 -5.33301 -15.666 -8 -24.999 -8h-107z" />
    <glyph glyph-name="Ucircumflex" unicode="&#xdb;" horiz-adv-x="1445" 
d="M1178 1616c6.66699 -6.66699 5.33398 -10 -3.99902 -10h-95c-5.33301 0 -9.66602 0.833008 -12.999 2.5s-6.66602 4.16699 -9.99902 7.5l-110 122h-20l-159 -123c-6.66699 -6 -15 -9 -25 -9h-115c-4 0 -6.33301 0.833008 -7 2.5s0.666016 3.5 3.99902 5.5l253 188
c7.33301 5.33301 15.666 8 24.999 8h83c5.33301 0 9.66602 -0.833008 12.999 -2.5s7 -4.16699 11 -7.5zM597 -22c-82.667 0 -154.501 9.99902 -215.501 29.999s-109.833 51.167 -146.5 93.5s-60.667 96.333 -72 162s-8.33301 143.834 9 234.501l179 963
c2 9.33301 7.66699 14 17 14h86c9.33301 0 13 -4.66699 11 -14l-173 -934c-14 -74 -19.5 -138.333 -16.5 -193s17 -100.167 42 -136.5s62 -63.5 111 -81.5s112.167 -27 189.5 -27c78.667 0 146.334 8.83301 203.001 26.5s104.5 44.667 143.5 81s70.333 82 94 137
s42.5 119.5 56.5 193.5l174 934c2 9.33301 7.66699 14 17 14h83c9.33301 0 13 -4.66699 11 -14l-179 -963c-19.333 -102.667 -46.666 -187.5 -81.999 -254.5s-78.833 -120.167 -130.5 -159.5s-111.834 -66.833 -180.501 -82.5s-145.667 -23.5 -231 -23.5z" />
    <glyph glyph-name="Udieresis" unicode="&#xdc;" horiz-adv-x="1445" 
d="M597 -22c-82.667 0 -154.501 9.99902 -215.501 29.999s-109.833 51.167 -146.5 93.5s-60.667 96.333 -72 162s-8.33301 143.834 9 234.501l179 963c2 9.33301 7.66699 14 17 14h86c9.33301 0 13 -4.66699 11 -14l-173 -934c-14 -74 -19.5 -138.333 -16.5 -193
s17 -100.167 42 -136.5s62 -63.5 111 -81.5s112.167 -27 189.5 -27c78.667 0 146.334 8.83301 203.001 26.5s104.5 44.667 143.5 81s70.333 82 94 137s42.5 119.5 56.5 193.5l174 934c2 9.33301 7.66699 14 17 14h83c9.33301 0 13 -4.66699 11 -14l-179 -963
c-19.333 -102.667 -46.666 -187.5 -81.999 -254.5s-78.833 -120.167 -130.5 -159.5s-111.834 -66.833 -180.501 -82.5s-145.667 -23.5 -231 -23.5zM709.999 1606c-9.33301 0 -13 4.66699 -11 14l35 194c2 9.33301 7.66699 15 17 17l94 18c9.33301 2 13 -1.66699 11 -11
l-40 -218c-2 -9.33301 -7.66699 -14 -17 -14h-89zM1002 1606c-8.66699 0 -12.667 4.66699 -12 14l36 194c0.666992 9.33301 6 15 16 17l94 18c9.33301 2 13 -1.66699 11 -11l-39 -218c-2 -9.33301 -7.66699 -14 -17 -14h-89z" />
    <glyph glyph-name="Yacute" unicode="&#xdd;" horiz-adv-x="1131" 
d="M401 0c-9.33301 0 -12.998 4.66699 -10.998 14l91 501l-315 947c-2.66699 8.66699 0.666016 13 9.99902 13h92c9.33301 0 15.333 -4.33301 18 -13l270 -810l571 812c5.33301 7.33301 12.666 11 21.999 11h104c9.33301 0 11.333 -3.66699 6 -11l-664 -948l-92 -502
c-2 -9.33301 -7.66699 -14 -17 -14h-85zM628.002 1606c-9.33301 0 -10.335 3 -3.00195 9l227 186c6.66699 6 15 9 25 9h142c4 0 6.33301 -0.833008 7 -2.5s-0.666016 -3.5 -3.99902 -5.5l-262 -188c-7.33301 -5.33301 -15.666 -8 -24.999 -8h-107z" />
    <glyph glyph-name="Thorn" unicode="&#xde;" horiz-adv-x="1273" 
d="M113 0c-9.33301 0 -13 4.66211 -11 13.9951l230 1242l37 205c2 9.33301 7.66699 14 17 14h86c9.33301 0 13 -4.66699 11 -14l-36 -198l116 4c38 1.33301 68.667 2 92 2c109.333 0 203.166 -5.5 281.499 -16.5s140.666 -32.333 186.999 -64s76.833 -76.167 91.5 -133.5
s13.334 -132.666 -3.99902 -225.999l-14 -74c-11.333 -63.333 -26.166 -118.166 -44.499 -164.499s-41.166 -85.833 -68.499 -118.5s-59.5 -59.167 -96.5 -79.5s-80.167 -36.166 -129.5 -47.499s-105.5 -19 -168.5 -23s-133.5 -6 -211.5 -6c-14 0 -31.833 0.333008 -53.5 1
l-64 2c-21 0.666992 -39.833 1.33398 -56.5 2.00098s-27.334 1.33398 -32.001 2.00098l-56 -309c-0.666992 -9.33301 -6 -14 -16 -14h-87zM636 1162c-12 0 -27.4971 -0.166992 -46.4971 -0.5s-38.833 -1 -59.5 -2s-40.334 -2 -59.001 -3s-33.334 -1.83301 -44.001 -2.5
l-135 -724c10.667 -1.33301 25.167 -2.33301 43.5 -3s37.833 -1.5 58.5 -2.5s40.5 -1.66699 59.5 -2s34.5 -0.5 46.5 -0.5c98.667 0 182.167 4.5 250.5 13.5s125 26 170 51s80.5 59.833 106.5 104.5s45.667 102.667 59 174l10 53c12.667 71.333 14.667 129.5 6 174.5
s-30.834 80 -66.501 105s-86.167 42 -151.5 51s-148 13.5 -248 13.5z" />
    <glyph glyph-name="germandbls" unicode="&#xdf;" horiz-adv-x="1211" 
d="M84 0c-9.33301 0 -13.001 4.66602 -11.001 13.999l194 1051c18 98 42.667 179.833 74 245.5s69 118.5 113 158.5s94.5 68.333 151.5 85s120.833 25 191.5 25c68 0 126.167 -9.16699 174.5 -27.5s87 -44.333 116 -78s48 -74.667 57 -123s7.83301 -102.5 -3.5 -162.5
l-3 -18c-7.33301 -36 -17.333 -70.5 -30 -103.5s-29.5 -63.5 -50.5 -91.5s-46.833 -52.5 -77.5 -73.5s-67 -37.167 -109 -48.5c48 -13.333 85.833 -34.5 113.5 -63.5s47.834 -62 60.501 -99s19 -76.167 19 -117.5s-3.66699 -81.333 -11 -120l-6 -36
c-14.667 -86.667 -36.5 -158.334 -65.5 -215.001s-64.667 -101.5 -107 -134.5s-91.333 -56.167 -147 -69.5s-117.5 -20 -185.5 -20s-125.333 7 -172 21c-8.66699 2.66699 -11.667 8.33398 -9 17.001l24 70c2.66699 8.66699 8.66699 12 18 10
c21.333 -5.33301 43.166 -9.5 65.499 -12.5s50.166 -4.5 83.499 -4.5c53.333 0 101 5.83301 143 17.5s78.5 30.834 109.5 57.501s57 62 78 106s37.5 98 49.5 162l9 47c8.66699 45.333 10.834 88 6.50098 128s-16.333 75 -36 105s-47.5 53.833 -83.5 71.5
s-81.667 26.5 -137 26.5h-129c-9.33301 0 -13 4.66699 -11 14l15 80c2 9.33301 7.66699 14 17 14h129c54.667 0 100.667 8.16699 138 24.5s68.333 37.333 93 63s43.5 54.167 56.5 85.5s22.167 62.333 27.5 93l2 16c18 95.333 6 166.5 -36 213.5s-112 70.5 -210 70.5
c-55.333 0 -104.833 -7 -148.5 -21s-82.167 -37 -115.5 -69s-61.666 -74.167 -84.999 -126.5s-42 -116.5 -56 -192.5l-195 -1051c-2 -9.33301 -7.66699 -14 -17 -14h-82z" />
    <glyph glyph-name="agrave" unicode="&#xe0;" horiz-adv-x="1167" 
d="M940 976c-34.667 4 -72 7.16895 -112 9.50195s-85 3.5 -135 3.5c-76 0 -139.333 -6.5 -190 -19.5s-92.834 -35.167 -126.501 -66.5s-60.667 -73.833 -81 -127.5s-38.5 -120.834 -54.5 -201.501l-14 -74c-15.333 -81.333 -22.666 -149 -21.999 -203s12 -97 34 -129
s56.5 -54.667 103.5 -68s109.833 -20 188.5 -20c44.667 0 88.667 1.16699 132 3.5s80.333 5.16602 111 8.49902zM513 -21.998c-94 0 -170.831 8.83301 -230.498 26.5s-104.834 46.334 -135.501 86.001s-48.167 91.167 -52.5 154.5s2.16699 140.666 19.5 231.999l21 116
c12.667 66 27 124.333 43 175s35.167 94.5 57.5 131.5s48 67.833 77 92.5s62.833 44.334 101.5 59.001s82.5 25.167 131.5 31.5s104.5 9.5 166.5 9.5c25.333 0 52.5 -0.5 81.5 -1.5s58.5 -2.33301 88.5 -4s59.5 -3.66699 88.5 -6s56.5 -4.83301 82.5 -7.5
c9.33301 -2 13 -7.33301 11 -16l-193 -1043c-1.33301 -9.33301 -7 -14.333 -17 -15c-62.667 -6.66699 -122.334 -11.834 -179.001 -15.501s-110.667 -5.5 -162 -5.5zM732.002 1262c-9.33301 0 -16.667 3.66699 -22 11l-173 237c-5.33301 7.33301 -3.33301 11 6 11h122
c9.33301 0 16.333 -4 21 -12l142 -235c4 -8 1.66699 -12 -7 -12h-89z" />
    <glyph glyph-name="aacute" unicode="&#xe1;" horiz-adv-x="1167" 
d="M940 976c-34.667 4 -72 7.16895 -112 9.50195s-85 3.5 -135 3.5c-76 0 -139.333 -6.5 -190 -19.5s-92.834 -35.167 -126.501 -66.5s-60.667 -73.833 -81 -127.5s-38.5 -120.834 -54.5 -201.501l-14 -74c-15.333 -81.333 -22.666 -149 -21.999 -203s12 -97 34 -129
s56.5 -54.667 103.5 -68s109.833 -20 188.5 -20c44.667 0 88.667 1.16699 132 3.5s80.333 5.16602 111 8.49902zM513 -21.998c-94 0 -170.831 8.83301 -230.498 26.5s-104.834 46.334 -135.501 86.001s-48.167 91.167 -52.5 154.5s2.16699 140.666 19.5 231.999l21 116
c12.667 66 27 124.333 43 175s35.167 94.5 57.5 131.5s48 67.833 77 92.5s62.833 44.334 101.5 59.001s82.5 25.167 131.5 31.5s104.5 9.5 166.5 9.5c25.333 0 52.5 -0.5 81.5 -1.5s58.5 -2.33301 88.5 -4s59.5 -3.66699 88.5 -6s56.5 -4.83301 82.5 -7.5
c9.33301 -2 13 -7.33301 11 -16l-193 -1043c-1.33301 -9.33301 -7 -14.333 -17 -15c-62.667 -6.66699 -122.334 -11.834 -179.001 -15.501s-110.667 -5.5 -162 -5.5zM607.002 1262c-9.33301 0 -10.667 3.33398 -4 10.001l234 239c7.33301 6.66699 15.333 10 24 10h134
c4 0 6.5 -0.833008 7.5 -2.5s-0.166992 -3.83398 -3.5 -6.50098l-268 -241c-6 -6 -14 -9 -24 -9h-100z" />
    <glyph glyph-name="acircumflex" unicode="&#xe2;" horiz-adv-x="1167" 
d="M940 976c-34.667 4 -72 7.16895 -112 9.50195s-85 3.5 -135 3.5c-76 0 -139.333 -6.5 -190 -19.5s-92.834 -35.167 -126.501 -66.5s-60.667 -73.833 -81 -127.5s-38.5 -120.834 -54.5 -201.501l-14 -74c-15.333 -81.333 -22.666 -149 -21.999 -203s12 -97 34 -129
s56.5 -54.667 103.5 -68s109.833 -20 188.5 -20c44.667 0 88.667 1.16699 132 3.5s80.333 5.16602 111 8.49902zM513 -21.998c-94 0 -170.831 8.83301 -230.498 26.5s-104.834 46.334 -135.501 86.001s-48.167 91.167 -52.5 154.5s2.16699 140.666 19.5 231.999l21 116
c12.667 66 27 124.333 43 175s35.167 94.5 57.5 131.5s48 67.833 77 92.5s62.833 44.334 101.5 59.001s82.5 25.167 131.5 31.5s104.5 9.5 166.5 9.5c25.333 0 52.5 -0.5 81.5 -1.5s58.5 -2.33301 88.5 -4s59.5 -3.66699 88.5 -6s56.5 -4.83301 82.5 -7.5
c9.33301 -2 13 -7.33301 11 -16l-193 -1043c-1.33301 -9.33301 -7 -14.333 -17 -15c-62.667 -6.66699 -122.334 -11.834 -179.001 -15.501s-110.667 -5.5 -162 -5.5zM751.002 1440l-162.001 -164c-7.33301 -6.66699 -15.333 -10 -24 -10h-110
c-9.33301 0 -10.666 3.33301 -3.99902 10l253 235c7.33301 6.66699 15.333 10 24 10h82c9.33301 0 16.666 -3.66699 21.999 -11l163 -233c5.33301 -7.33301 3.33301 -11 -6 -11h-92c-9.33301 0 -16.666 4 -21.999 12l-103 162h-21z" />
    <glyph glyph-name="atilde" unicode="&#xe3;" horiz-adv-x="1167" 
d="M940 976c-34.667 4 -72 7.16895 -112 9.50195s-85 3.5 -135 3.5c-76 0 -139.333 -6.5 -190 -19.5s-92.834 -35.167 -126.501 -66.5s-60.667 -73.833 -81 -127.5s-38.5 -120.834 -54.5 -201.501l-14 -74c-15.333 -81.333 -22.666 -149 -21.999 -203s12 -97 34 -129
s56.5 -54.667 103.5 -68s109.833 -20 188.5 -20c44.667 0 88.667 1.16699 132 3.5s80.333 5.16602 111 8.49902zM513 -21.998c-94 0 -170.831 8.83301 -230.498 26.5s-104.834 46.334 -135.501 86.001s-48.167 91.167 -52.5 154.5s2.16699 140.666 19.5 231.999l21 116
c12.667 66 27 124.333 43 175s35.167 94.5 57.5 131.5s48 67.833 77 92.5s62.833 44.334 101.5 59.001s82.5 25.167 131.5 31.5s104.5 9.5 166.5 9.5c25.333 0 52.5 -0.5 81.5 -1.5s58.5 -2.33301 88.5 -4s59.5 -3.66699 88.5 -6s56.5 -4.83301 82.5 -7.5
c9.33301 -2 13 -7.33301 11 -16l-193 -1043c-1.33301 -9.33301 -7 -14.333 -17 -15c-62.667 -6.66699 -122.334 -11.834 -179.001 -15.501s-110.667 -5.5 -162 -5.5zM589.002 1438c-12 0 -23.168 -1.66992 -33.501 -5.00293s-19.666 -10.333 -27.999 -21
s-16.166 -26 -23.499 -46s-14.333 -47 -21 -81c-2 -9.33301 -7.66699 -14 -17 -14h-60c-10 0 -14 4.66699 -12 14c8 52.667 18.833 95 32.5 127s29.5 56.5 47.5 73.5s37.167 28.167 57.5 33.5s40.833 8 61.5 8c14.667 0 28.167 -1.5 40.5 -4.5s24.833 -7.83301 37.5 -14.5
s25.667 -15.667 39 -27s28 -25.333 44 -42c14 -15.333 26.667 -28.166 38 -38.499s21.833 -18.833 31.5 -25.5s19.167 -11.5 28.5 -14.5s19 -4.5 29 -4.5c12 0 23 1.66699 33 5s19.167 10.333 27.5 21s16.166 26.167 23.499 46.5s14.333 47.5 21 81.5
c2 9.33301 7.66699 14 17 14h61c10 0 14 -4.66699 12 -14c-8 -53.333 -19 -96 -33 -128s-29.833 -56.5 -47.5 -73.5s-36.834 -28.167 -57.501 -33.5s-41.334 -8 -62.001 -8c-14.667 0 -28.167 1.5 -40.5 4.5s-24.666 7.83301 -36.999 14.5s-25.166 15.667 -38.499 27
s-28 25.333 -44 42c-14 14.667 -26.667 27.334 -38 38.001s-21.833 19.334 -31.5 26.001s-19.167 11.5 -28.5 14.5s-19 4.5 -29 4.5z" />
    <glyph glyph-name="adieresis" unicode="&#xe4;" horiz-adv-x="1167" 
d="M940 976c-34.667 4 -72 7.16895 -112 9.50195s-85 3.5 -135 3.5c-76 0 -139.333 -6.5 -190 -19.5s-92.834 -35.167 -126.501 -66.5s-60.667 -73.833 -81 -127.5s-38.5 -120.834 -54.5 -201.501l-14 -74c-15.333 -81.333 -22.666 -149 -21.999 -203s12 -97 34 -129
s56.5 -54.667 103.5 -68s109.833 -20 188.5 -20c44.667 0 88.667 1.16699 132 3.5s80.333 5.16602 111 8.49902zM513 -21.998c-94 0 -170.831 8.83301 -230.498 26.5s-104.834 46.334 -135.501 86.001s-48.167 91.167 -52.5 154.5s2.16699 140.666 19.5 231.999l21 116
c12.667 66 27 124.333 43 175s35.167 94.5 57.5 131.5s48 67.833 77 92.5s62.833 44.334 101.5 59.001s82.5 25.167 131.5 31.5s104.5 9.5 166.5 9.5c25.333 0 52.5 -0.5 81.5 -1.5s58.5 -2.33301 88.5 -4s59.5 -3.66699 88.5 -6s56.5 -4.83301 82.5 -7.5
c9.33301 -2 13 -7.33301 11 -16l-193 -1043c-1.33301 -9.33301 -7 -14.333 -17 -15c-62.667 -6.66699 -122.334 -11.834 -179.001 -15.501s-110.667 -5.5 -162 -5.5zM527.002 1252c-9.33301 0 -13 4.66699 -11 14l47 258c2 9.33301 7.66699 15 17 17l95 18
c9.33301 2 13 -1.66699 11 -11l-52 -282c-2 -9.33301 -7.66699 -14 -17 -14h-90zM820.002 1252c-9.33301 0 -13 4.66699 -11 14l47 258c2 9.33301 7.66699 15 17 17l96 18c9.33301 2 13 -1.66699 11 -11l-52 -282c-2 -9.33301 -7.66699 -14 -17 -14h-91z" />
    <glyph glyph-name="aring" unicode="&#xe5;" horiz-adv-x="1167" 
d="M940 976c-34.667 4 -72 7.16895 -112 9.50195s-85 3.5 -135 3.5c-76 0 -139.333 -6.5 -190 -19.5s-92.834 -35.167 -126.501 -66.5s-60.667 -73.833 -81 -127.5s-38.5 -120.834 -54.5 -201.501l-14 -74c-15.333 -81.333 -22.666 -149 -21.999 -203s12 -97 34 -129
s56.5 -54.667 103.5 -68s109.833 -20 188.5 -20c44.667 0 88.667 1.16699 132 3.5s80.333 5.16602 111 8.49902zM513 -21.998c-94 0 -170.831 8.83301 -230.498 26.5s-104.834 46.334 -135.501 86.001s-48.167 91.167 -52.5 154.5s2.16699 140.666 19.5 231.999l21 116
c12.667 66 27 124.333 43 175s35.167 94.5 57.5 131.5s48 67.833 77 92.5s62.833 44.334 101.5 59.001s82.5 25.167 131.5 31.5s104.5 9.5 166.5 9.5c25.333 0 52.5 -0.5 81.5 -1.5s58.5 -2.33301 88.5 -4s59.5 -3.66699 88.5 -6s56.5 -4.83301 82.5 -7.5
c9.33301 -2 13 -7.33301 11 -16l-193 -1043c-1.33301 -9.33301 -7 -14.333 -17 -15c-62.667 -6.66699 -122.334 -11.834 -179.001 -15.501s-110.667 -5.5 -162 -5.5zM746.002 1501c-50 0 -85.5 -10.001 -106.5 -30.001s-31.5 -52 -31.5 -96c0 -28 8.5 -47.667 25.5 -59
s42.167 -17 75.5 -17c51.333 0 87 10.333 107 31s30 53.334 30 98.001c0 26.667 -8 45.5 -24 56.5s-41.333 16.5 -76 16.5zM693.002 1224c-113.333 0 -170 46.334 -170 139.001c0 68 19.667 120.667 59 158s98.333 56 177 56c56 0 98.333 -11.833 127 -35.5
s43 -58.834 43 -105.501c0 -66.667 -20.333 -118.667 -61 -156s-99 -56 -175 -56z" />
    <glyph glyph-name="ae" unicode="&#xe6;" horiz-adv-x="1884" 
d="M1224 -22c-85.333 0 -155.499 9.5 -210.499 28.5s-97.5 49.833 -127.5 92.5l-15 -85c-1.33301 -9.33301 -7 -14.333 -17 -15c-62.667 -6.66699 -122.334 -11.834 -179.001 -15.501s-110.667 -5.5 -162 -5.5c-94 0 -170.833 8.83301 -230.5 26.5
s-104.834 46.334 -135.501 86.001s-48.167 91.167 -52.5 154.5s2.16699 140.666 19.5 231.999l21 116c12.667 66 27 124.333 43 175s35.167 94.5 57.5 131.5s48 67.833 77 92.5s62.833 44.334 101.5 59.001s82.5 25.167 131.5 31.5s104.5 9.5 166.5 9.5
c25.333 0 52.5 -0.5 81.5 -1.5s58.5 -2.33301 88.5 -4s59.5 -3.66699 88.5 -6s56.5 -4.83301 82.5 -7.5c9.33301 -2 13 -7.33301 11 -16l-15 -80c44 39.333 96 68.333 156 87s130.667 28 212 28c66.667 0 124.167 -7.66699 172.5 -23s88 -37.833 119 -67.5
s53.833 -66 68.5 -109s22 -92.5 22 -148.5c0 -30 -1.83301 -57.667 -5.5 -83s-8 -48.166 -13 -68.499s-10.167 -37.666 -15.5 -51.999s-9.66602 -25.5 -12.999 -33.5c-3.33301 -8.66699 -9.66602 -13 -18.999 -13l-773 -1c-13.333 -76.667 -19 -141.334 -17 -194.001
s13.833 -95.334 35.5 -128.001s54.167 -56.167 97.5 -70.5s99.666 -21.5 168.999 -21.5c56 0 112.5 1.16699 169.5 3.5s116.5 6.5 178.5 12.5c9.33301 0.666992 14 -3.66602 14 -12.999l-1 -68c0 -9.33301 -4.66699 -14.333 -14 -15
c-58 -6.66699 -116.667 -11.834 -176 -15.501s-123.333 -5.5 -192 -5.5zM940.001 976c-34.667 4 -72 7.16895 -112 9.50195s-85 3.5 -135 3.5c-76 0 -139.333 -6.5 -190 -19.5s-92.834 -35.167 -126.501 -66.5s-60.667 -73.833 -81 -127.5s-38.5 -120.834 -54.5 -201.501
l-14 -74c-15.333 -81.333 -22.666 -149 -21.999 -203s12 -97 34 -129s56.5 -54.667 103.5 -68s109.833 -20 188.5 -20c44.667 0 88.667 1.16699 132 3.5s80.333 5.16602 111 8.49902zM1674 595.002c12 68 16.834 126.834 14.501 176.501s-14 90.667 -35 123
s-52.167 56.333 -93.5 72s-95.333 23.5 -162 23.5c-64.667 0 -120.334 -7.83301 -167.001 -23.5s-86.5 -39.834 -119.5 -72.501s-60 -74.167 -81 -124.5s-38.5 -110.5 -52.5 -180.5z" />
    <glyph glyph-name="ccedilla" unicode="&#xe7;" horiz-adv-x="958" 
d="M512 -22c-91.333 0 -166.667 8.16504 -226 24.498s-104.5 44 -135.5 83s-49 91.333 -54 157s1.5 148.167 19.5 247.5l15 92c11.333 63.333 24.833 119.833 40.5 169.5s34.834 93.5 57.501 131.5s49 70.167 79 96.5s64.833 47.833 104.5 64.5
s84.834 28.834 135.501 36.501s108 11.5 172 11.5c43.333 0 84.333 -2 123 -6s73.667 -8.66699 105 -14c10 -2 13 -7.33301 9 -16l-27 -71c-2 -5.33301 -4.33301 -8.66602 -7 -9.99902s-6.66699 -1.66602 -12 -0.999023c-32 5.33301 -66.333 9 -103 11s-72 3 -106 3
c-76.667 0 -141 -6.83301 -193 -20.5s-95.5 -36.834 -130.5 -69.501s-63.167 -76.167 -84.5 -130.5s-39.333 -121.833 -54 -202.5l-12 -61c-15.333 -82.667 -22.333 -151.167 -21 -205.5s13.5 -97.666 36.5 -129.999s58 -55 105 -68s108.833 -19.5 185.5 -19.5
c38 0 76 1.33301 114 4s73 6.66699 105 12c9.33301 2 13.666 -1.66699 12.999 -11l-2 -70c-0.666992 -10 -5.66699 -15.667 -15 -17c-16 -3.33301 -33.833 -6.33301 -53.5 -9s-39.834 -4.83398 -60.501 -6.50098s-41.667 -3 -63 -4s-41.333 -1.5 -60 -1.5zM207.999 -389.002
c-9.33301 0 -11.333 3.66699 -6 11l189 265c5.33301 7.33301 12.666 11 21.999 11h92c8.66699 0 10.667 -4 6 -12l-181 -263c-5.33301 -8 -12.666 -12 -21.999 -12h-100z" />
    <glyph glyph-name="egrave" unicode="&#xe8;" horiz-adv-x="1145" 
d="M485 -22c-84 0 -153.831 9.5 -209.498 28.5s-98.334 49.5 -128.001 91.5s-46.834 96.333 -51.501 163s1.66602 147.667 18.999 243l13 78c16 88 38 164.167 66 228.5s64 117.333 108 159s96.833 72.5 158.5 92.5s134.167 30 217.5 30
c66.667 0 124.167 -7.66699 172.5 -23s88 -37.833 119 -67.5s53.833 -66 68.5 -109s22 -92.5 22 -148.5c0 -30 -1.83301 -57.667 -5.5 -83s-8 -48.166 -13 -68.499s-10.167 -37.666 -15.5 -51.999s-9.66602 -25.5 -12.999 -33.5c-3.33301 -8.66699 -9.66602 -13 -18.999 -13
l-773 -1c-13.333 -76.667 -19 -141.334 -17 -194.001s13.833 -95.334 35.5 -128.001s54.167 -56.167 97.5 -70.5s99.666 -21.5 168.999 -21.5c56 0 112.5 1.16699 169.5 3.5s116.5 6.5 178.5 12.5c9.33301 0.666992 14 -3.66602 14 -12.999l-1 -68
c0 -9.33301 -4.66699 -14.333 -14 -15c-58 -6.66699 -116.667 -11.834 -176 -15.501s-123.333 -5.5 -192 -5.5zM935.002 595c12 68 16.834 126.834 14.501 176.501s-14 90.667 -35 123s-52.167 56.333 -93.5 72s-95.333 23.5 -162 23.5
c-64.667 0 -120.334 -7.83301 -167.001 -23.5s-86.5 -39.834 -119.5 -72.501s-60 -74.167 -81 -124.5s-38.5 -110.5 -52.5 -180.5zM720.003 1262c-9.33301 0 -16.667 3.66699 -22 11l-173 237c-5.33301 7.33301 -3.33301 11 6 11h122c9.33301 0 16.333 -4 21 -12l142 -235
c4 -8 1.66699 -12 -7 -12h-89z" />
    <glyph glyph-name="eacute" unicode="&#xe9;" horiz-adv-x="1145" 
d="M584 1262c-9.33301 0 -10.667 3.33398 -4 10.001l234 239c7.33301 6.66699 15.333 10 24 10h134c4 0 6.5 -0.833008 7.5 -2.5s-0.166992 -3.83398 -3.5 -6.50098l-268 -241c-6 -6 -14 -9 -24 -9h-100zM484.999 -21.999c-84 0 -153.831 9.5 -209.498 28.5
s-98.334 49.5 -128.001 91.5s-46.834 96.333 -51.501 163s1.66602 147.667 18.999 243l13 78c16 88 38 164.167 66 228.5s64 117.333 108 159s96.833 72.5 158.5 92.5s134.167 30 217.5 30c66.667 0 124.167 -7.66699 172.5 -23s88 -37.833 119 -67.5s53.833 -66 68.5 -109
s22 -92.5 22 -148.5c0 -30 -1.83301 -57.667 -5.5 -83s-8 -48.166 -13 -68.499s-10.167 -37.666 -15.5 -51.999s-9.66602 -25.5 -12.999 -33.5c-3.33301 -8.66699 -9.66602 -13 -18.999 -13l-773 -1c-13.333 -76.667 -19 -141.334 -17 -194.001
s13.833 -95.334 35.5 -128.001s54.167 -56.167 97.5 -70.5s99.666 -21.5 168.999 -21.5c56 0 112.5 1.16699 169.5 3.5s116.5 6.5 178.5 12.5c9.33301 0.666992 14 -3.66602 14 -12.999l-1 -68c0 -9.33301 -4.66699 -14.333 -14 -15
c-58 -6.66699 -116.667 -11.834 -176 -15.501s-123.333 -5.5 -192 -5.5zM935.001 595.001c12 68 16.834 126.834 14.501 176.501s-14 90.667 -35 123s-52.167 56.333 -93.5 72s-95.333 23.5 -162 23.5c-64.667 0 -120.334 -7.83301 -167.001 -23.5
s-86.5 -39.834 -119.5 -72.501s-60 -74.167 -81 -124.5s-38.5 -110.5 -52.5 -180.5z" />
    <glyph glyph-name="ecircumflex" unicode="&#xea;" horiz-adv-x="1145" 
d="M730 1440l-162.001 -164c-7.33301 -6.66699 -15.333 -10 -24 -10h-110c-9.33301 0 -10.666 3.33301 -3.99902 10l253 235c7.33301 6.66699 15.333 10 24 10h82c9.33301 0 16.666 -3.66699 21.999 -11l163 -233c5.33301 -7.33301 3.33301 -11 -6 -11h-92
c-9.33301 0 -16.666 4 -21.999 12l-103 162h-21zM484.999 -22c-84 0 -153.831 9.5 -209.498 28.5s-98.334 49.5 -128.001 91.5s-46.834 96.333 -51.501 163s1.66602 147.667 18.999 243l13 78c16 88 38 164.167 66 228.5s64 117.333 108 159s96.833 72.5 158.5 92.5
s134.167 30 217.5 30c66.667 0 124.167 -7.66699 172.5 -23s88 -37.833 119 -67.5s53.833 -66 68.5 -109s22 -92.5 22 -148.5c0 -30 -1.83301 -57.667 -5.5 -83s-8 -48.166 -13 -68.499s-10.167 -37.666 -15.5 -51.999s-9.66602 -25.5 -12.999 -33.5
c-3.33301 -8.66699 -9.66602 -13 -18.999 -13l-773 -1c-13.333 -76.667 -19 -141.334 -17 -194.001s13.833 -95.334 35.5 -128.001s54.167 -56.167 97.5 -70.5s99.666 -21.5 168.999 -21.5c56 0 112.5 1.16699 169.5 3.5s116.5 6.5 178.5 12.5
c9.33301 0.666992 14 -3.66602 14 -12.999l-1 -68c0 -9.33301 -4.66699 -14.333 -14 -15c-58 -6.66699 -116.667 -11.834 -176 -15.501s-123.333 -5.5 -192 -5.5zM935.001 595c12 68 16.834 126.834 14.501 176.501s-14 90.667 -35 123s-52.167 56.333 -93.5 72
s-95.333 23.5 -162 23.5c-64.667 0 -120.334 -7.83301 -167.001 -23.5s-86.5 -39.834 -119.5 -72.501s-60 -74.167 -81 -124.5s-38.5 -110.5 -52.5 -180.5z" />
    <glyph glyph-name="edieresis" unicode="&#xeb;" horiz-adv-x="1145" 
d="M492 1252c-9.33301 0 -13 4.66699 -11 14l47 258c2 9.33301 7.66699 15 17 17l95 18c9.33301 2 13 -1.66699 11 -11l-52 -282c-2 -9.33301 -7.66699 -14 -17 -14h-90zM785 1252c-9.33301 0 -13 4.66699 -11 14l47 258c2 9.33301 7.66699 15 17 17l96 18
c9.33301 2 13 -1.66699 11 -11l-52 -282c-2 -9.33301 -7.66699 -14 -17 -14h-91zM485 -22c-84 0 -153.831 9.5 -209.498 28.5s-98.334 49.5 -128.001 91.5s-46.834 96.333 -51.501 163s1.66602 147.667 18.999 243l13 78c16 88 38 164.167 66 228.5s64 117.333 108 159
s96.833 72.5 158.5 92.5s134.167 30 217.5 30c66.667 0 124.167 -7.66699 172.5 -23s88 -37.833 119 -67.5s53.833 -66 68.5 -109s22 -92.5 22 -148.5c0 -30 -1.83301 -57.667 -5.5 -83s-8 -48.166 -13 -68.499s-10.167 -37.666 -15.5 -51.999s-9.66602 -25.5 -12.999 -33.5
c-3.33301 -8.66699 -9.66602 -13 -18.999 -13l-773 -1c-13.333 -76.667 -19 -141.334 -17 -194.001s13.833 -95.334 35.5 -128.001s54.167 -56.167 97.5 -70.5s99.666 -21.5 168.999 -21.5c56 0 112.5 1.16699 169.5 3.5s116.5 6.5 178.5 12.5
c9.33301 0.666992 14 -3.66602 14 -12.999l-1 -68c0 -9.33301 -4.66699 -14.333 -14 -15c-58 -6.66699 -116.667 -11.834 -176 -15.501s-123.333 -5.5 -192 -5.5zM935.002 595c12 68 16.834 126.834 14.501 176.501s-14 90.667 -35 123s-52.167 56.333 -93.5 72
s-95.333 23.5 -162 23.5c-64.667 0 -120.334 -7.83301 -167.001 -23.5s-86.5 -39.834 -119.5 -72.501s-60 -74.167 -81 -124.5s-38.5 -110.5 -52.5 -180.5z" />
    <glyph glyph-name="igrave" unicode="&#xec;" horiz-adv-x="479" 
d="M84 0c-9.33301 0 -13 4.66699 -11 14l192 1043c2 9.33301 7.66699 14 17 14h83c9.33301 0 13 -4.66699 11 -14l-193 -1043c-2 -9.33301 -7.66699 -14 -17 -14h-82zM399 1262c-9.33301 0 -16.667 3.66699 -22 11l-173 237c-5.33301 7.33301 -3.33301 11 6 11h122
c9.33301 0 16.333 -4 21 -12l142 -235c4 -8 1.66699 -12 -7 -12h-89z" />
    <glyph glyph-name="iacute" unicode="&#xed;" horiz-adv-x="478" 
d="M192 1262c-9.33301 0 -10.667 3.33398 -4 10.001l234 239c7.33301 6.66699 15.333 10 24 10h134c4 0 6.5 -0.833008 7.5 -2.5s-0.166992 -3.83398 -3.5 -6.50098l-268 -241c-6 -6 -14 -9 -24 -9h-100zM82.999 0.000976562c-9.33301 0 -13 4.66699 -11 14l192 1043
c2 9.33301 7.66699 14 17 14h83c9.33301 0 13 -4.66699 11 -14l-193 -1043c-2 -9.33301 -7.66699 -14 -17 -14h-82z" />
    <glyph glyph-name="icircumflex" unicode="&#xee;" horiz-adv-x="478" 
d="M381 1440l-162.001 -164c-7.33301 -6.66699 -15.333 -10 -24 -10h-110c-9.33301 0 -10.666 3.33301 -3.99902 10l253 235c7.33301 6.66699 15.333 10 24 10h82c9.33301 0 16.666 -3.66699 21.999 -11l163 -233c5.33301 -7.33301 3.33301 -11 -6 -11h-92
c-9.33301 0 -16.666 4 -21.999 12l-103 162h-21zM82.999 0c-9.33301 0 -13 4.66699 -11 14l192 1043c2 9.33301 7.66699 14 17 14h83c9.33301 0 13 -4.66699 11 -14l-193 -1043c-2 -9.33301 -7.66699 -14 -17 -14h-82z" />
    <glyph glyph-name="idieresis" unicode="&#xef;" horiz-adv-x="478" 
d="M165 1252c-9.33301 0 -13 4.66699 -11 14l47 258c2 9.33301 7.66699 15 17 17l95 18c9.33301 2 13 -1.66699 11 -11l-52 -282c-2 -9.33301 -7.66699 -14 -17 -14h-90zM458 1252c-9.33301 0 -13 4.66699 -11 14l47 258c2 9.33301 7.66699 15 17 17l96 18
c9.33301 2 13 -1.66699 11 -11l-52 -282c-2 -9.33301 -7.66699 -14 -17 -14h-91zM83 0c-9.33301 0 -13 4.66699 -11 14l192 1043c2 9.33301 7.66699 14 17 14h83c9.33301 0 13 -4.66699 11 -14l-193 -1043c-2 -9.33301 -7.66699 -14 -17 -14h-82z" />
    <glyph glyph-name="eth" unicode="&#xf0;" horiz-adv-x="1180" 
d="M859 1403c47.333 -40 85.501 -86.3359 114.501 -139.003s49.5 -113.167 61.5 -181.5s15.667 -145.166 11 -230.499s-16.667 -180.333 -36 -285l-13 -71c-17.333 -94 -40.166 -173.833 -68.499 -239.5s-63.666 -119.167 -105.999 -160.5s-92.833 -71.333 -151.5 -90
s-127 -28 -205 -28c-80.667 0 -147.5 10.5 -200.5 31.5s-93.667 52.833 -122 95.5s-44.666 96.5 -48.999 161.5s1.5 141.5 17.5 229.5l14 71c17.333 93.333 40 172.833 68 238.5s63.167 119.334 105.5 161.001s92.666 72.167 150.999 91.5s126.5 29 204.5 29
c65.333 0 122.333 -8.83301 171 -26.5s89 -44.5 121 -80.5c-8 82.667 -27.167 153.667 -57.5 213s-72.5 110 -126.5 152l-267 -165c-8 -4.66699 -14.333 -3 -19 5l-33 55c-4.66699 8 -3 14.333 5 19l229 140c-36.667 19.333 -77 36.333 -121 51s-92.333 27.334 -145 38.001
c-10 2 -13 7.33301 -9 16l25 63c3.33301 8.66699 9.66602 12 18.999 10c133.333 -28 243.666 -67 330.999 -117l209 128c3.33301 2 6.66602 2.83301 9.99902 2.5s6.33301 -2.83301 9 -7.5l30 -57c4.66699 -8 3 -14.333 -5 -19zM649.001 985.997
c-64 0 -118.83 -8.16699 -164.497 -24.5s-84.834 -42 -117.501 -77s-59.334 -79.5 -80.001 -133.5s-38 -118.667 -52 -194l-10 -51c-14 -75.333 -20.667 -140 -20 -194s10.5 -98.167 29.5 -132.5s48.333 -59.666 88 -75.999s91.5 -24.5 155.5 -24.5
s119.167 8.16699 165.5 24.5s85.833 41.833 118.5 76.5s59.5 79.167 80.5 133.5s38.167 119.166 51.5 194.499l9 49c14 74.667 20.667 139 20 193s-10.5 98.5 -29.5 133.5s-48.333 60.833 -88 77.5s-91.834 25 -156.501 25z" />
    <glyph glyph-name="ntilde" unicode="&#xf1;" horiz-adv-x="1198" 
d="M83 0c-9.33301 0 -12.998 4.66504 -10.998 13.998l196 1062c2 9.33301 7.66699 14 17 14h60c9.33301 0 14 -4.66699 14 -14l2 -85c30 16 62 30.333 96 43s68.167 23.167 102.5 31.5s68.333 14.833 102 19.5s65.167 7 94.5 7c72 0 129.667 -8.66699 173 -26
s75 -44.333 95 -81s29.833 -83.5 29.5 -140.5s-7.83301 -125.5 -22.5 -205.5l-114 -625c-2 -9.33301 -7.66699 -14 -17 -14h-83c-9.33301 0 -13 4.66699 -11 14l113 613c12.667 70 19.5 128 20.5 174s-6 82.5 -21 109.5s-39.167 45.833 -72.5 56.5s-78.333 16 -135 16
c-26.667 0 -55.334 -1.83301 -86.001 -5.5s-61.834 -9.16699 -93.501 -16.5s-63.5 -16.666 -95.5 -27.999s-62.333 -24.666 -91 -39.999l-163 -879c-2 -9.33301 -7.66699 -14 -17 -14h-82zM586.002 1438c-12 0 -23.168 -1.66992 -33.501 -5.00293
s-19.666 -10.333 -27.999 -21s-16.166 -26 -23.499 -46s-14.333 -47 -21 -81c-2 -9.33301 -7.66699 -14 -17 -14h-60c-10 0 -14 4.66699 -12 14c8 52.667 18.833 95 32.5 127s29.5 56.5 47.5 73.5s37.167 28.167 57.5 33.5s40.833 8 61.5 8c14.667 0 28.167 -1.5 40.5 -4.5
s24.833 -7.83301 37.5 -14.5s25.667 -15.667 39 -27s28 -25.333 44 -42c14 -15.333 26.667 -28.166 38 -38.499s21.833 -18.833 31.5 -25.5s19.167 -11.5 28.5 -14.5s19 -4.5 29 -4.5c12 0 23 1.66699 33 5s19.167 10.333 27.5 21s16.166 26.167 23.499 46.5
s14.333 47.5 21 81.5c2 9.33301 7.66699 14 17 14h61c10 0 14 -4.66699 12 -14c-8 -53.333 -19 -96 -33 -128s-29.833 -56.5 -47.5 -73.5s-36.834 -28.167 -57.501 -33.5s-41.334 -8 -62.001 -8c-14.667 0 -28.167 1.5 -40.5 4.5s-24.666 7.83301 -36.999 14.5
s-25.166 15.667 -38.499 27s-28 25.333 -44 42c-14 14.667 -26.667 27.334 -38 38.001s-21.833 19.334 -31.5 26.001s-19.167 11.5 -28.5 14.5s-19 4.5 -29 4.5z" />
    <glyph glyph-name="ograve" unicode="&#xf2;" horiz-adv-x="1181" 
d="M659 990c-66 0 -122.667 -7.99805 -170 -23.998s-87.5 -41.167 -120.5 -75.5s-60 -78 -81 -131s-38.5 -116.5 -52.5 -190.5l-12 -69c-13.333 -74 -19.5 -137.5 -18.5 -190.5s11.5 -96.5 31.5 -130.5s50.667 -59.167 92 -75.5s95.333 -24.5 162 -24.5
c66 0 122.667 8 170 24s87.5 41.167 120.5 75.5s60 78.166 81 131.499s38.5 117.333 52.5 192l12 67c14 73.333 20.333 136.5 19 189.5s-12 96.667 -32 131s-50.667 59.666 -92 75.999s-95.333 24.5 -162 24.5zM471 -21.998c-81.333 0 -148.831 10.168 -202.498 30.501
s-94.834 51.5 -123.501 93.5s-45.5 95.167 -50.5 159.5s0.833008 140.5 17.5 228.5l15 87c17.333 92 40.5 170.667 69.5 236s65.667 118.666 110 159.999s97 71.5 158 90.5s132.167 28.5 213.5 28.5c82 0 150 -10.167 204 -30.5s95.333 -51.5 124 -93.5
s45.167 -95.5 49.5 -160.5s-1.83398 -141.833 -18.501 -230.5l-15 -87c-16.667 -92 -39.5 -170.5 -68.5 -235.5s-65.5 -118 -109.5 -159s-96.667 -70.833 -158 -89.5s-133 -28 -215 -28zM720.002 1262c-9.33301 0 -16.667 3.66699 -22 11l-173 237
c-5.33301 7.33301 -3.33301 11 6 11h122c9.33301 0 16.333 -4 21 -12l142 -235c4 -8 1.66699 -12 -7 -12h-89z" />
    <glyph glyph-name="oacute" unicode="&#xf3;" horiz-adv-x="1181" 
d="M569 1262c-9.33301 0 -10.667 3.33398 -4 10.001l234 239c7.33301 6.66699 15.333 10 24 10h134c4 0 6.5 -0.833008 7.5 -2.5s-0.166992 -3.83398 -3.5 -6.50098l-268 -241c-6 -6 -14 -9 -24 -9h-100zM658.999 990.001c-66 0 -122.667 -7.99805 -170 -23.998
s-87.5 -41.167 -120.5 -75.5s-60 -78 -81 -131s-38.5 -116.5 -52.5 -190.5l-12 -69c-13.333 -74 -19.5 -137.5 -18.5 -190.5s11.5 -96.5 31.5 -130.5s50.667 -59.167 92 -75.5s95.333 -24.5 162 -24.5c66 0 122.667 8 170 24s87.5 41.167 120.5 75.5s60 78.166 81 131.499
s38.5 117.333 52.5 192l12 67c14 73.333 20.333 136.5 19 189.5s-12 96.667 -32 131s-50.667 59.666 -92 75.999s-95.333 24.5 -162 24.5zM470.999 -21.9971c-81.333 0 -148.831 10.168 -202.498 30.501s-94.834 51.5 -123.501 93.5s-45.5 95.167 -50.5 159.5
s0.833008 140.5 17.5 228.5l15 87c17.333 92 40.5 170.667 69.5 236s65.667 118.666 110 159.999s97 71.5 158 90.5s132.167 28.5 213.5 28.5c82 0 150 -10.167 204 -30.5s95.333 -51.5 124 -93.5s45.167 -95.5 49.5 -160.5s-1.83398 -141.833 -18.501 -230.5l-15 -87
c-16.667 -92 -39.5 -170.5 -68.5 -235.5s-65.5 -118 -109.5 -159s-96.667 -70.833 -158 -89.5s-133 -28 -215 -28z" />
    <glyph glyph-name="ocircumflex" unicode="&#xf4;" horiz-adv-x="1181" 
d="M733 1440l-162.001 -164c-7.33301 -6.66699 -15.333 -10 -24 -10h-110c-9.33301 0 -10.666 3.33301 -3.99902 10l253 235c7.33301 6.66699 15.333 10 24 10h82c9.33301 0 16.666 -3.66699 21.999 -11l163 -233c5.33301 -7.33301 3.33301 -11 -6 -11h-92
c-9.33301 0 -16.666 4 -21.999 12l-103 162h-21zM658.999 990c-66 0 -122.667 -7.99805 -170 -23.998s-87.5 -41.167 -120.5 -75.5s-60 -78 -81 -131s-38.5 -116.5 -52.5 -190.5l-12 -69c-13.333 -74 -19.5 -137.5 -18.5 -190.5s11.5 -96.5 31.5 -130.5
s50.667 -59.167 92 -75.5s95.333 -24.5 162 -24.5c66 0 122.667 8 170 24s87.5 41.167 120.5 75.5s60 78.166 81 131.499s38.5 117.333 52.5 192l12 67c14 73.333 20.333 136.5 19 189.5s-12 96.667 -32 131s-50.667 59.666 -92 75.999s-95.333 24.5 -162 24.5z
M470.999 -21.998c-81.333 0 -148.831 10.168 -202.498 30.501s-94.834 51.5 -123.501 93.5s-45.5 95.167 -50.5 159.5s0.833008 140.5 17.5 228.5l15 87c17.333 92 40.5 170.667 69.5 236s65.667 118.666 110 159.999s97 71.5 158 90.5s132.167 28.5 213.5 28.5
c82 0 150 -10.167 204 -30.5s95.333 -51.5 124 -93.5s45.167 -95.5 49.5 -160.5s-1.83398 -141.833 -18.501 -230.5l-15 -87c-16.667 -92 -39.5 -170.5 -68.5 -235.5s-65.5 -118 -109.5 -159s-96.667 -70.833 -158 -89.5s-133 -28 -215 -28z" />
    <glyph glyph-name="otilde" unicode="&#xf5;" horiz-adv-x="1181" 
d="M659 990c-66 0 -122.667 -7.99805 -170 -23.998s-87.5 -41.167 -120.5 -75.5s-60 -78 -81 -131s-38.5 -116.5 -52.5 -190.5l-12 -69c-13.333 -74 -19.5 -137.5 -18.5 -190.5s11.5 -96.5 31.5 -130.5s50.667 -59.167 92 -75.5s95.333 -24.5 162 -24.5
c66 0 122.667 8 170 24s87.5 41.167 120.5 75.5s60 78.166 81 131.499s38.5 117.333 52.5 192l12 67c14 73.333 20.333 136.5 19 189.5s-12 96.667 -32 131s-50.667 59.666 -92 75.999s-95.333 24.5 -162 24.5zM471 -21.998c-81.333 0 -148.831 10.168 -202.498 30.501
s-94.834 51.5 -123.501 93.5s-45.5 95.167 -50.5 159.5s0.833008 140.5 17.5 228.5l15 87c17.333 92 40.5 170.667 69.5 236s65.667 118.666 110 159.999s97 71.5 158 90.5s132.167 28.5 213.5 28.5c82 0 150 -10.167 204 -30.5s95.333 -51.5 124 -93.5
s45.167 -95.5 49.5 -160.5s-1.83398 -141.833 -18.501 -230.5l-15 -87c-16.667 -92 -39.5 -170.5 -68.5 -235.5s-65.5 -118 -109.5 -159s-96.667 -70.833 -158 -89.5s-133 -28 -215 -28zM570.002 1438c-12 0 -23.168 -1.66992 -33.501 -5.00293s-19.666 -10.333 -27.999 -21
s-16.166 -26 -23.499 -46s-14.333 -47 -21 -81c-2 -9.33301 -7.66699 -14 -17 -14h-60c-10 0 -14 4.66699 -12 14c8 52.667 18.833 95 32.5 127s29.5 56.5 47.5 73.5s37.167 28.167 57.5 33.5s40.833 8 61.5 8c14.667 0 28.167 -1.5 40.5 -4.5s24.833 -7.83301 37.5 -14.5
s25.667 -15.667 39 -27s28 -25.333 44 -42c14 -15.333 26.667 -28.166 38 -38.499s21.833 -18.833 31.5 -25.5s19.167 -11.5 28.5 -14.5s19 -4.5 29 -4.5c12 0 23 1.66699 33 5s19.167 10.333 27.5 21s16.166 26.167 23.499 46.5s14.333 47.5 21 81.5
c2 9.33301 7.66699 14 17 14h61c10 0 14 -4.66699 12 -14c-8 -53.333 -19 -96 -33 -128s-29.833 -56.5 -47.5 -73.5s-36.834 -28.167 -57.501 -33.5s-41.334 -8 -62.001 -8c-14.667 0 -28.167 1.5 -40.5 4.5s-24.666 7.83301 -36.999 14.5s-25.166 15.667 -38.499 27
s-28 25.333 -44 42c-14 14.667 -26.667 27.334 -38 38.001s-21.833 19.334 -31.5 26.001s-19.167 11.5 -28.5 14.5s-19 4.5 -29 4.5z" />
    <glyph glyph-name="odieresis" unicode="&#xf6;" horiz-adv-x="1181" 
d="M500 1252c-9.33301 0 -13 4.66699 -11 14l47 258c2 9.33301 7.66699 15 17 17l95 18c9.33301 2 13 -1.66699 11 -11l-52 -282c-2 -9.33301 -7.66699 -14 -17 -14h-90zM793 1252c-9.33301 0 -13 4.66699 -11 14l47 258c2 9.33301 7.66699 15 17 17l96 18
c9.33301 2 13 -1.66699 11 -11l-52 -282c-2 -9.33301 -7.66699 -14 -17 -14h-91zM659 990c-66 0 -122.667 -7.99805 -170 -23.998s-87.5 -41.167 -120.5 -75.5s-60 -78 -81 -131s-38.5 -116.5 -52.5 -190.5l-12 -69c-13.333 -74 -19.5 -137.5 -18.5 -190.5
s11.5 -96.5 31.5 -130.5s50.667 -59.167 92 -75.5s95.333 -24.5 162 -24.5c66 0 122.667 8 170 24s87.5 41.167 120.5 75.5s60 78.166 81 131.499s38.5 117.333 52.5 192l12 67c14 73.333 20.333 136.5 19 189.5s-12 96.667 -32 131s-50.667 59.666 -92 75.999
s-95.333 24.5 -162 24.5zM471 -21.998c-81.333 0 -148.831 10.168 -202.498 30.501s-94.834 51.5 -123.501 93.5s-45.5 95.167 -50.5 159.5s0.833008 140.5 17.5 228.5l15 87c17.333 92 40.5 170.667 69.5 236s65.667 118.666 110 159.999s97 71.5 158 90.5
s132.167 28.5 213.5 28.5c82 0 150 -10.167 204 -30.5s95.333 -51.5 124 -93.5s45.167 -95.5 49.5 -160.5s-1.83398 -141.833 -18.501 -230.5l-15 -87c-16.667 -92 -39.5 -170.5 -68.5 -235.5s-65.5 -118 -109.5 -159s-96.667 -70.833 -158 -89.5s-133 -28 -215 -28z" />
    <glyph glyph-name="divide" unicode="&#xf7;" horiz-adv-x="1114" 
d="M167 744c-9.33301 0 -13 4.66699 -11 14l14 81c2 9.33301 7.66699 14 17 14h823c9.33301 0 13 -4.66699 11 -14l-14 -81c-2 -9.33301 -7.66699 -14 -17 -14h-823zM452 321c-9.33301 0 -13 4.66699 -11 14l37 201c2 9.33301 7.66699 15 17 17l97 18
c9.33301 2 13 -1.66699 11 -11l-41 -225c-2 -9.33301 -7.66699 -14 -17 -14h-93zM579 1007c-9.33301 0 -13 4.66699 -11 14l37 202c2 9.33301 7.66699 15 17 17l97 18c9.33301 2 13 -1.66699 11 -11l-41 -226c-2 -9.33301 -7.66699 -14 -17 -14h-93z" />
    <glyph glyph-name="oslash" unicode="&#xf8;" horiz-adv-x="1187" 
d="M123 144c-18 42 -27.667 91.5029 -29 148.503s5 123.167 19 198.5l16 85c16.667 90 39.667 167.5 69 232.5s66.166 118.5 110.499 160.5s97.333 73 159 93s133.167 30 214.5 30c70.667 0 130.5 -7.33301 179.5 -22s89.167 -37.667 120.5 -69l60 60
c6.66699 6.66699 14.667 10 24 10h104c9.33301 0 10.666 -3.33301 3.99902 -10l-140 -140c17.333 -42 26.5 -91.333 27.5 -148s-5.16699 -122.334 -18.5 -197.001l-16 -85c-16.667 -90.667 -39.5 -168.334 -68.5 -233.001s-65.667 -117.834 -110 -159.501
s-97.166 -72.167 -158.499 -91.5s-133 -29 -215 -29c-138 0 -237.333 29 -298 87l-56 -55c-6 -6.66699 -14 -10 -24 -10h-105c-9.33301 -0 -10.666 3.33301 -3.99902 10zM663 990.003c-66.667 0 -123.668 -8.16895 -171.001 -24.502s-87.666 -41.666 -120.999 -75.999
s-60.5 -78.333 -81.5 -132s-38.167 -117.5 -51.5 -191.5l-12 -60c-11.333 -58 -18.333 -109.333 -21 -154s0 -83.667 8 -117l686 683c-22.667 24.667 -53 42.834 -91 54.501s-86.333 17.5 -145 17.5zM930.999 562.001c10 56.667 16.332 107.002 18.999 151.002
s0.333984 83 -6.99902 117l-684 -683c22.667 -23.333 53 -40.5 91 -51.5s86 -16.5 144 -16.5c66.667 0 123.667 8 171 24s87.5 41.167 120.5 75.5s60.167 78.166 81.5 131.499s39 117.666 53 192.999z" />
    <glyph glyph-name="ugrave" unicode="&#xf9;" horiz-adv-x="1196" 
d="M495 -22c-89.333 0 -161.167 8.3291 -215.5 24.9961s-94.666 43 -120.999 79s-40.666 82.333 -42.999 139s4.16699 125.334 19.5 206.001l117 630c2 9.33301 7.66699 14 17 14h82c9.33301 0 13 -4.66699 11 -14l-115 -626c-13.333 -70.667 -19 -128.667 -17 -174
s13.167 -81 33.5 -107s51 -43.833 92 -53.5s93.833 -14.5 158.5 -14.5c24 0 49.167 0.833008 75.5 2.5s52.666 3.83398 78.999 6.50098s51.666 5.83398 75.999 9.50098s46.5 7.83398 66.5 12.501l175 944c2 9.33301 7.66699 14 17 14h83c9.33301 0 13 -4.66699 11 -14
l-186 -1013c-2 -9.33301 -7.66699 -15 -17 -17c-25.333 -6 -53.333 -12 -84 -18s-63.167 -11.167 -97.5 -15.5s-70 -8 -107 -11s-73.833 -4.5 -110.5 -4.5zM710.999 1262c-9.33301 0 -16.667 3.66699 -22 11l-173 237c-5.33301 7.33301 -3.33301 11 6 11h122
c9.33301 0 16.333 -4 21 -12l142 -235c4 -8 1.66699 -12 -7 -12h-89z" />
    <glyph glyph-name="uacute" unicode="&#xfa;" horiz-adv-x="1196" 
d="M612 1262c-9.33301 0 -10.667 3.33398 -4 10.001l234 239c7.33301 6.66699 15.333 10 24 10h134c4 0 6.5 -0.833008 7.5 -2.5s-0.166992 -3.83398 -3.5 -6.50098l-268 -241c-6 -6 -14 -9 -24 -9h-100zM494.999 -21.999c-89.333 0 -161.167 8.3291 -215.5 24.9961
s-94.666 43 -120.999 79s-40.666 82.333 -42.999 139s4.16699 125.334 19.5 206.001l117 630c2 9.33301 7.66699 14 17 14h82c9.33301 0 13 -4.66699 11 -14l-115 -626c-13.333 -70.667 -19 -128.667 -17 -174s13.167 -81 33.5 -107s51 -43.833 92 -53.5
s93.833 -14.5 158.5 -14.5c24 0 49.167 0.833008 75.5 2.5s52.666 3.83398 78.999 6.50098s51.666 5.83398 75.999 9.50098s46.5 7.83398 66.5 12.501l175 944c2 9.33301 7.66699 14 17 14h83c9.33301 0 13 -4.66699 11 -14l-186 -1013c-2 -9.33301 -7.66699 -15 -17 -17
c-25.333 -6 -53.333 -12 -84 -18s-63.167 -11.167 -97.5 -15.5s-70 -8 -107 -11s-73.833 -4.5 -110.5 -4.5z" />
    <glyph glyph-name="ucircumflex" unicode="&#xfb;" horiz-adv-x="1196" 
d="M734 1440l-162.001 -164c-7.33301 -6.66699 -15.333 -10 -24 -10h-110c-9.33301 0 -10.666 3.33301 -3.99902 10l253 235c7.33301 6.66699 15.333 10 24 10h82c9.33301 0 16.666 -3.66699 21.999 -11l163 -233c5.33301 -7.33301 3.33301 -11 -6 -11h-92
c-9.33301 0 -16.666 4 -21.999 12l-103 162h-21zM494.999 -22c-89.333 0 -161.167 8.3291 -215.5 24.9961s-94.666 43 -120.999 79s-40.666 82.333 -42.999 139s4.16699 125.334 19.5 206.001l117 630c2 9.33301 7.66699 14 17 14h82c9.33301 0 13 -4.66699 11 -14
l-115 -626c-13.333 -70.667 -19 -128.667 -17 -174s13.167 -81 33.5 -107s51 -43.833 92 -53.5s93.833 -14.5 158.5 -14.5c24 0 49.167 0.833008 75.5 2.5s52.666 3.83398 78.999 6.50098s51.666 5.83398 75.999 9.50098s46.5 7.83398 66.5 12.501l175 944
c2 9.33301 7.66699 14 17 14h83c9.33301 0 13 -4.66699 11 -14l-186 -1013c-2 -9.33301 -7.66699 -15 -17 -17c-25.333 -6 -53.333 -12 -84 -18s-63.167 -11.167 -97.5 -15.5s-70 -8 -107 -11s-73.833 -4.5 -110.5 -4.5z" />
    <glyph glyph-name="udieresis" unicode="&#xfc;" horiz-adv-x="1196" 
d="M521 1252c-9.33301 0 -13 4.66699 -11 14l47 258c2 9.33301 7.66699 15 17 17l95 18c9.33301 2 13 -1.66699 11 -11l-52 -282c-2 -9.33301 -7.66699 -14 -17 -14h-90zM814 1252c-9.33301 0 -13 4.66699 -11 14l47 258c2 9.33301 7.66699 15 17 17l96 18
c9.33301 2 13 -1.66699 11 -11l-52 -282c-2 -9.33301 -7.66699 -14 -17 -14h-91zM495 -22c-89.333 0 -161.167 8.3291 -215.5 24.9961s-94.666 43 -120.999 79s-40.666 82.333 -42.999 139s4.16699 125.334 19.5 206.001l117 630c2 9.33301 7.66699 14 17 14h82
c9.33301 0 13 -4.66699 11 -14l-115 -626c-13.333 -70.667 -19 -128.667 -17 -174s13.167 -81 33.5 -107s51 -43.833 92 -53.5s93.833 -14.5 158.5 -14.5c24 0 49.167 0.833008 75.5 2.5s52.666 3.83398 78.999 6.50098s51.666 5.83398 75.999 9.50098
s46.5 7.83398 66.5 12.501l175 944c2 9.33301 7.66699 14 17 14h83c9.33301 0 13 -4.66699 11 -14l-186 -1013c-2 -9.33301 -7.66699 -15 -17 -17c-25.333 -6 -53.333 -12 -84 -18s-63.167 -11.167 -97.5 -15.5s-70 -8 -107 -11s-73.833 -4.5 -110.5 -4.5z" />
    <glyph glyph-name="yacute" unicode="&#xfd;" horiz-adv-x="954" 
d="M-64 -473c-16.667 0 -35.3359 1.16406 -56.0029 3.49707s-39.667 5.83301 -57 10.5c-8.66699 2.66699 -11.334 8.33398 -8.00098 17.001l26 72c2 4.66699 4.33301 7.83398 7 9.50098s6.66699 1.83398 12 0.500977c14 -3.33301 29.5 -6 46.5 -8s32.5 -3 46.5 -3
c26.667 0 50.5 1.33301 71.5 4s41 8.5 60 17.5s37.333 21.833 55 38.5s36 38.667 55 66s39.667 61 62 101s47.5 88 75.5 144c-0.666992 -0 -2.66699 0.833008 -6 2.5s-7.16602 5.66699 -11.499 12s-8.83301 15.666 -13.5 27.999s-9 28.833 -13 49.5l-180 965
c-2 9.33301 1.66699 14 11 14h90c10 0 15.333 -4.66699 16 -14l144 -805c2.66699 -15.333 5.16699 -30.666 7.5 -45.999l6.5 -41c2 -12 3.83301 -21.833 5.5 -29.5s2.83398 -11.5 3.50098 -11.5l465 934c4 8.66699 10.667 13 20 13h98c9.33301 0 12 -4 8 -12l-582 -1141
c-29.333 -56.667 -56.166 -105.667 -80.499 -147s-47.666 -76.5 -69.999 -105.5s-44.5 -52.5 -66.5 -70.5s-45.333 -32 -70 -42s-51.5 -16.833 -80.5 -20.5s-61.5 -5.5 -97.5 -5.5zM472.998 1262c-9.33301 0 -10.667 3.33398 -4 10.001l234 239
c7.33301 6.66699 15.333 10 24 10h134c4 0 6.5 -0.833008 7.5 -2.5s-0.166992 -3.83398 -3.5 -6.50098l-268 -241c-6 -6 -14 -9 -24 -9h-100z" />
    <glyph glyph-name="thorn" unicode="&#xfe;" horiz-adv-x="1167" 
d="M0 -451c-9.33301 0 -13.001 4.66797 -11.001 14.001l268 1443l10 55l97 527c2 9.33301 7.66699 15 17 17l87 18c9.33301 2 13 -1.66699 11 -11l-99 -535c44 5.33301 86.667 9.16602 128 11.499s81.333 3.5 120 3.5c92 0 167.5 -8.33301 226.5 -25
s103.833 -44.5 134.5 -83.5s48.167 -90.333 52.5 -154s-2.16699 -142.5 -19.5 -236.5l-20 -113c-18 -95.333 -40.667 -175 -68 -239s-63.166 -115.5 -107.499 -154.5s-99.333 -66.833 -165 -83.5s-145.5 -25 -239.5 -25c-41.333 0 -83.5 2.33301 -126.5 7
s-81.5 10.667 -115.5 18l-81 -440c-2 -9.33301 -7.66699 -14 -17 -14h-82zM608.999 989.001c-42 0 -84.5 -1.33398 -127.5 -4.00098s-83.833 -6.66699 -122.5 -12l-160 -870c16.667 -4 35 -7.33301 55 -10s40.5 -5 61.5 -7s42.167 -3.5 63.5 -4.5s41.333 -1.5 60 -1.5
c77.333 0 142 6.66699 194 20s95 36 129 68s61.167 74.833 81.5 128.5s37.833 120.5 52.5 200.5l13 75c15.333 80.667 22.833 147.834 22.5 201.501s-11.5 96.5 -33.5 128.5s-56.333 54.5 -103 67.5s-108.667 19.5 -186 19.5z" />
    <glyph glyph-name="ydieresis" unicode="&#xff;" horiz-adv-x="954" 
d="M-64 -473c-16.667 0 -35.3359 1.16406 -56.0029 3.49707s-39.667 5.83301 -57 10.5c-8.66699 2.66699 -11.334 8.33398 -8.00098 17.001l26 72c2 4.66699 4.33301 7.83398 7 9.50098s6.66699 1.83398 12 0.500977c14 -3.33301 29.5 -6 46.5 -8s32.5 -3 46.5 -3
c26.667 0 50.5 1.33301 71.5 4s41 8.5 60 17.5s37.333 21.833 55 38.5s36 38.667 55 66s39.667 61 62 101s47.5 88 75.5 144c-0.666992 -0 -2.66699 0.833008 -6 2.5s-7.16602 5.66699 -11.499 12s-8.83301 15.666 -13.5 27.999s-9 28.833 -13 49.5l-180 965
c-2 9.33301 1.66699 14 11 14h90c10 0 15.333 -4.66699 16 -14l144 -805c2.66699 -15.333 5.16699 -30.666 7.5 -45.999l6.5 -41c2 -12 3.83301 -21.833 5.5 -29.5s2.83398 -11.5 3.50098 -11.5l465 934c4 8.66699 10.667 13 20 13h98c9.33301 0 12 -4 8 -12l-582 -1141
c-29.333 -56.667 -56.166 -105.667 -80.499 -147s-47.666 -76.5 -69.999 -105.5s-44.5 -52.5 -66.5 -70.5s-45.333 -32 -70 -42s-51.5 -16.833 -80.5 -20.5s-61.5 -5.5 -97.5 -5.5zM377.998 1252c-9.33301 0 -13 4.66699 -11 14l47 258c2 9.33301 7.66699 15 17 17l95 18
c9.33301 2 13 -1.66699 11 -11l-52 -282c-2 -9.33301 -7.66699 -14 -17 -14h-90zM670.998 1252c-9.33301 0 -13 4.66699 -11 14l47 258c2 9.33301 7.66699 15 17 17l96 18c9.33301 2 13 -1.66699 11 -11l-52 -282c-2 -9.33301 -7.66699 -14 -17 -14h-91z" />
    <glyph glyph-name="Amacron" unicode="&#x100;" horiz-adv-x="1272" 
d="M-71 0c-10 0 -12.333 4 -7 12l791 1451c4.66699 8 11.667 12 21 12h131c10 0 15.333 -4.66699 16 -14l258 -1447c0.666992 -9.33301 -3.33301 -14 -12 -14h-94c-10 0 -15.333 4.66699 -16 14l-72 407h-675l-221 -409c-4.66699 -8 -11.667 -12 -21 -12h-99zM779 1362
l-450 -831h597zM590 1647c-9.33301 0 -13 4.66699 -11 14l12 66c2 9.33301 7.66699 14 17 14h470c8.66699 0 12.667 -4.66699 12 -14l-13 -66c-0.666992 -9.33301 -6 -14 -16 -14h-471z" />
    <glyph glyph-name="amacron" unicode="&#x101;" horiz-adv-x="1167" 
d="M940 976c-34.667 4 -72 7.16895 -112 9.50195s-85 3.5 -135 3.5c-76 0 -139.333 -6.5 -190 -19.5s-92.834 -35.167 -126.501 -66.5s-60.667 -73.833 -81 -127.5s-38.5 -120.834 -54.5 -201.501l-14 -74c-15.333 -81.333 -22.666 -149 -21.999 -203s12 -97 34 -129
s56.5 -54.667 103.5 -68s109.833 -20 188.5 -20c44.667 0 88.667 1.16699 132 3.5s80.333 5.16602 111 8.49902zM513 -21.998c-94 0 -170.831 8.83301 -230.498 26.5s-104.834 46.334 -135.501 86.001s-48.167 91.167 -52.5 154.5s2.16699 140.666 19.5 231.999l21 116
c12.667 66 27 124.333 43 175s35.167 94.5 57.5 131.5s48 67.833 77 92.5s62.833 44.334 101.5 59.001s82.5 25.167 131.5 31.5s104.5 9.5 166.5 9.5c25.333 0 52.5 -0.5 81.5 -1.5s58.5 -2.33301 88.5 -4s59.5 -3.66699 88.5 -6s56.5 -4.83301 82.5 -7.5
c9.33301 -2 13 -7.33301 11 -16l-193 -1043c-1.33301 -9.33301 -7 -14.333 -17 -15c-62.667 -6.66699 -122.334 -11.834 -179.001 -15.501s-110.667 -5.5 -162 -5.5zM505.002 1336c-9.33301 0 -13 4.66699 -11 14l13 68c2 9.33301 7.66699 14 17 14h470
c9.33301 0 13 -4.66699 11 -14l-13 -68c-2 -9.33301 -7.66699 -14 -17 -14h-470z" />
    <glyph glyph-name="Abreve" unicode="&#x102;" horiz-adv-x="1272" 
d="M-71 0c-10 0 -12.333 4 -7 12l791 1451c4.66699 8 11.667 12 21 12h131c10 0 15.333 -4.66699 16 -14l258 -1447c0.666992 -9.33301 -3.33301 -14 -12 -14h-94c-10 0 -15.333 4.66699 -16 14l-72 407h-675l-221 -409c-4.66699 -8 -11.667 -12 -21 -12h-99zM779 1362
l-450 -831h597zM814 1586c-78.667 0 -136.831 18.6689 -174.498 56.002s-53.834 89.666 -48.501 156.999c0 9.33301 5 14 15 14h62c9.33301 0 13.666 -4.66699 12.999 -14c0 -26 4 -47.333 12 -64s18.5 -30 31.5 -40s28 -17 45 -21s34.5 -6 52.5 -6
c20 0 39.333 2.16699 58 6.5s36.334 11.5 53.001 21.5s31.667 23.5 45 40.5s24.333 38.167 33 63.5c2.66699 8.66699 8.66699 13 18 13h69c9.33301 0 12.666 -4.33301 9.99902 -13c-11.333 -36 -24.833 -67.333 -40.5 -94s-35 -48.834 -58 -66.501s-50.5 -31 -82.5 -40
s-69.667 -13.5 -113 -13.5z" />
    <glyph glyph-name="abreve" unicode="&#x103;" horiz-adv-x="1167" 
d="M940 976c-34.667 4 -72 7.16895 -112 9.50195s-85 3.5 -135 3.5c-76 0 -139.333 -6.5 -190 -19.5s-92.834 -35.167 -126.501 -66.5s-60.667 -73.833 -81 -127.5s-38.5 -120.834 -54.5 -201.501l-14 -74c-15.333 -81.333 -22.666 -149 -21.999 -203s12 -97 34 -129
s56.5 -54.667 103.5 -68s109.833 -20 188.5 -20c44.667 0 88.667 1.16699 132 3.5s80.333 5.16602 111 8.49902zM513 -21.998c-94 0 -170.831 8.83301 -230.498 26.5s-104.834 46.334 -135.501 86.001s-48.167 91.167 -52.5 154.5s2.16699 140.666 19.5 231.999l21 116
c12.667 66 27 124.333 43 175s35.167 94.5 57.5 131.5s48 67.833 77 92.5s62.833 44.334 101.5 59.001s82.5 25.167 131.5 31.5s104.5 9.5 166.5 9.5c25.333 0 52.5 -0.5 81.5 -1.5s58.5 -2.33301 88.5 -4s59.5 -3.66699 88.5 -6s56.5 -4.83301 82.5 -7.5
c9.33301 -2 13 -7.33301 11 -16l-193 -1043c-1.33301 -9.33301 -7 -14.333 -17 -15c-62.667 -6.66699 -122.334 -11.834 -179.001 -15.501s-110.667 -5.5 -162 -5.5zM722.002 1266c-40.667 0 -75.1641 5.66309 -103.497 16.9961s-51.166 27.5 -68.499 48.5
s-29.5 46.333 -36.5 76s-9.5 62.834 -7.5 99.501c0.666992 9.33301 5.66699 14 15 14h68c8.66699 0 13 -4.66699 13 -14c-2 -29.333 -0.333008 -53.666 5 -72.999s13.666 -34.833 24.999 -46.5s25.166 -20 41.499 -25s34.5 -7.5 54.5 -7.5c20.667 0 40.5 2.5 59.5 7.5
s37 13.333 54 25s32.333 27.334 46 47.001s25.5 44.167 35.5 73.5c2.66699 8.66699 8.66699 13 18 13h70c9.33301 0 13 -4.66699 11 -14c-8.66699 -36 -20.5 -68.667 -35.5 -98s-34.333 -54.666 -58 -75.999s-52.334 -37.833 -86.001 -49.5s-73.834 -17.5 -120.501 -17.5z
" />
    <glyph glyph-name="Aogonek" unicode="&#x104;" horiz-adv-x="1274" 
d="M-71 0c-10 0 -12.333 4 -7 12l791 1451c4.66699 8 11.667 12 21 12h131c10 0 15.333 -4.66699 16 -14l258 -1447c1.33301 -6 1.33301 -10.333 0 -13s-4 -5 -8 -7c-36 -18 -69.833 -38.5 -101.5 -61.5s-59.167 -46.667 -82.5 -71s-41.666 -48.666 -54.999 -72.999
s-20 -46.833 -20 -67.5c0 -18 6.5 -30.833 19.5 -38.5s38.167 -11.5 75.5 -11.5c15.333 0 32.166 0.5 50.499 1.5s36.166 2.5 53.499 4.5c9.33301 0.666992 13.666 -3.33301 12.999 -12l-5 -49c-0.666992 -8.66699 -5.66699 -14.334 -15 -17.001
c-15.333 -3.33301 -33.833 -6 -55.5 -8s-45.167 -3 -70.5 -3c-32.667 0 -59.667 2.5 -81 7.5s-38.333 12.333 -51 22s-21.667 21.167 -27 34.5s-8 28.333 -8 45c0 30.667 6.66699 60.667 20 90s31.333 57.5 54 84.5s48.834 52.5 78.501 76.5s60.834 46 93.501 66l-72 407
h-675l-221 -409c-4.66699 -8 -11.667 -12 -21 -12h-99zM779 1362l-450 -831h597z" />
    <glyph glyph-name="aogonek" unicode="&#x105;" horiz-adv-x="1167" 
d="M513 -22c-94 0 -170.831 8.83203 -230.498 26.499s-104.834 46.334 -135.501 86.001s-48.167 91.167 -52.5 154.5s2.16699 140.666 19.5 231.999l21 116c12.667 66 27 124.333 43 175s35.167 94.5 57.5 131.5s48 67.833 77 92.5s62.833 44.334 101.5 59.001
s82.5 25.167 131.5 31.5s104.5 9.5 166.5 9.5c25.333 0 52.5 -0.5 81.5 -1.5s58.5 -2.33301 88.5 -4s59.5 -3.66699 88.5 -6s56.5 -4.83301 82.5 -7.5c9.33301 -2 13 -7.33301 11 -16l-192 -1039c-2 -9.33301 -8.33301 -16.333 -19 -21
c-29.333 -12.667 -59.166 -30.167 -89.499 -52.5s-57.833 -46.5 -82.5 -72.5s-44.834 -52.167 -60.501 -78.5s-23.5 -49.833 -23.5 -70.5c0 -19.333 6.5 -32.833 19.5 -40.5s35.5 -11.5 67.5 -11.5c13.333 0 27.833 0.166992 43.5 0.5s31.167 1.83301 46.5 4.5
c10 2 14.333 -1.66699 13 -11l-5 -49c-0.666992 -8.66699 -5.33398 -14.334 -14.001 -17.001c-31.333 -7.33301 -69.666 -11 -114.999 -11c-31.333 0 -57.166 2.83301 -77.499 8.5s-36.833 13.5 -49.5 23.5s-21.5 21.667 -26.5 35s-7.5 27.333 -7.5 42
c0 26 6.33301 52.833 19 80.5s29 54.334 49 80.001s42.167 49.667 66.5 72s48.166 40.833 71.499 55.5c-32.667 -2 -64.334 -3.66699 -95.001 -5s-60.667 -2 -90 -2zM940.002 975.999c-34.667 4 -72 7.16895 -112 9.50195s-85 3.5 -135 3.5c-76 0 -139.333 -6.5 -190 -19.5
s-92.834 -35.167 -126.501 -66.5s-60.667 -73.833 -81 -127.5s-38.5 -120.834 -54.5 -201.501l-14 -74c-15.333 -81.333 -22.666 -149 -21.999 -203s12 -97 34 -129s56.5 -54.667 103.5 -68s109.833 -20 188.5 -20c44.667 0 88.667 1.16699 132 3.5
s80.333 5.16602 111 8.49902z" />
    <glyph glyph-name="Cacute" unicode="&#x106;" horiz-adv-x="1159" 
d="M623 -22c-94 0 -175.67 11.834 -245.003 35.501s-124.5 62.5 -165.5 116.5s-66.667 125.167 -77 213.5s-3.5 197.166 20.5 326.499l23 135c24.667 134 58.5 245.333 101.5 334s95 159.5 156 212.5s130.667 90.5 209 112.5s164.5 33 258.5 33
c60.667 0 118.5 -2.83301 173.5 -8.5s101.167 -13.167 138.5 -22.5c9.33301 -2.66699 12.333 -8.33398 9 -17.001l-29 -77c-3.33301 -8.66699 -9.66602 -12 -18.999 -10c-42.667 8.66699 -89.5 14.834 -140.5 18.501s-100.833 5.5 -149.5 5.5c-76 0 -145.667 -9 -209 -27
s-119.666 -49 -168.999 -93s-91.666 -102.667 -126.999 -176s-63.333 -165 -84 -275l-27 -155c-20.667 -110.667 -27 -202.667 -19 -276s28.5 -131.833 61.5 -175.5s77.667 -74.5 134 -92.5s122.833 -27 199.5 -27c62 0 118.5 2.5 169.5 7.5s97.5 11.167 139.5 18.5
c9.33301 0.666992 14 -3.33301 14 -12l-1 -77c0 -9.33301 -4.66699 -15 -14 -17c-42 -9.33301 -92 -16.833 -150 -22.5s-118.667 -8.5 -182 -8.5zM776.997 1606c-9.33301 0 -10.335 3 -3.00195 9l227 186c6.66699 6 15 9 25 9h142c4 0 6.33301 -0.833008 7 -2.5
s-0.666016 -3.5 -3.99902 -5.5l-262 -188c-7.33301 -5.33301 -15.666 -8 -24.999 -8h-107z" />
    <glyph glyph-name="cacute" unicode="&#x107;" horiz-adv-x="960" 
d="M551 1262c-9.33301 0 -10.667 3.33398 -4 10.001l234 239c7.33301 6.66699 15.333 10 24 10h134c4 0 6.5 -0.833008 7.5 -2.5s-0.166992 -3.83398 -3.5 -6.50098l-268 -241c-6 -6 -14 -9 -24 -9h-100zM511.999 -21.999c-91.333 0 -166.667 8.16504 -226 24.498
s-104.5 44 -135.5 83s-49 91.333 -54 157s1.5 148.167 19.5 247.5l15 92c11.333 63.333 24.833 119.833 40.5 169.5s34.834 93.5 57.501 131.5s49 70.167 79 96.5s64.833 47.833 104.5 64.5s84.834 28.834 135.501 36.501s108 11.5 172 11.5c43.333 0 84.333 -2 123 -6
s73.667 -8.66699 105 -14c10 -2 13 -7.33301 9 -16l-27 -71c-2 -5.33301 -4.33301 -8.66602 -7 -9.99902s-6.66699 -1.66602 -12 -0.999023c-32 5.33301 -66.333 9 -103 11s-72 3 -106 3c-76.667 0 -141 -6.83301 -193 -20.5s-95.5 -36.834 -130.5 -69.501
s-63.167 -76.167 -84.5 -130.5s-39.333 -121.833 -54 -202.5l-12 -61c-15.333 -82.667 -22.333 -151.167 -21 -205.5s13.5 -97.666 36.5 -129.999s58 -55 105 -68s108.833 -19.5 185.5 -19.5c38 0 76 1.33301 114 4s73 6.66699 105 12c9.33301 2 13.666 -1.66699 12.999 -11
l-2 -70c-0.666992 -10 -5.66699 -15.667 -15 -17c-16 -3.33301 -33.833 -6.33301 -53.5 -9s-39.834 -4.83398 -60.501 -6.50098s-41.667 -3 -63 -4s-41.333 -1.5 -60 -1.5z" />
    <glyph glyph-name="Ccaron" unicode="&#x10c;" horiz-adv-x="1159" 
d="M623 -22c-94 0 -175.67 11.834 -245.003 35.501s-124.5 62.5 -165.5 116.5s-66.667 125.167 -77 213.5s-3.5 197.166 20.5 326.499l23 135c24.667 134 58.5 245.333 101.5 334s95 159.5 156 212.5s130.667 90.5 209 112.5s164.5 33 258.5 33
c60.667 0 118.5 -2.83301 173.5 -8.5s101.167 -13.167 138.5 -22.5c9.33301 -2.66699 12.333 -8.33398 9 -17.001l-29 -77c-3.33301 -8.66699 -9.66602 -12 -18.999 -10c-42.667 8.66699 -89.5 14.834 -140.5 18.501s-100.833 5.5 -149.5 5.5c-76 0 -145.667 -9 -209 -27
s-119.666 -49 -168.999 -93s-91.666 -102.667 -126.999 -176s-63.333 -165 -84 -275l-27 -155c-20.667 -110.667 -27 -202.667 -19 -276s28.5 -131.833 61.5 -175.5s77.667 -74.5 134 -92.5s122.833 -27 199.5 -27c62 0 118.5 2.5 169.5 7.5s97.5 11.167 139.5 18.5
c9.33301 0.666992 14 -3.33301 14 -12l-1 -77c0 -9.33301 -4.66699 -15 -14 -17c-42 -9.33301 -92 -16.833 -150 -22.5s-118.667 -8.5 -182 -8.5zM632.997 1800c-6.66699 6.66699 -5.33398 10 3.99902 10h95c5.33301 0 9.66602 -0.833008 12.999 -2.5
s6.66602 -4.16699 9.99902 -7.5l110 -122h20l159 123c6.66699 6 15 9 25 9h115c4 0 6.33301 -0.833008 7 -2.5s-0.666016 -3.5 -3.99902 -5.5l-253 -188c-7.33301 -5.33301 -15.666 -8 -24.999 -8h-83c-5.33301 0 -9.66602 0.833008 -12.999 2.5s-7 4.16699 -11 7.5z" />
    <glyph glyph-name="ccaron" unicode="&#x10d;" horiz-adv-x="960" 
d="M440 1510c-5.33301 7.33301 -3.33203 11 6.00098 11h92c9.33301 0 16.666 -4 21.999 -12l103 -162h21l162 164c7.33301 6.66699 15.333 10 24 10h110c9.33301 0 10.666 -3.33301 3.99902 -10l-253 -235c-6 -6.66699 -14 -10 -24 -10h-82
c-9.33301 0 -16.666 3.66699 -21.999 11zM512.001 -22c-91.333 0 -166.667 8.16504 -226 24.498s-104.5 44 -135.5 83s-49 91.333 -54 157s1.5 148.167 19.5 247.5l15 92c11.333 63.333 24.833 119.833 40.5 169.5s34.834 93.5 57.501 131.5s49 70.167 79 96.5
s64.833 47.833 104.5 64.5s84.834 28.834 135.501 36.501s108 11.5 172 11.5c43.333 0 84.333 -2 123 -6s73.667 -8.66699 105 -14c10 -2 13 -7.33301 9 -16l-27 -71c-2 -5.33301 -4.33301 -8.66602 -7 -9.99902s-6.66699 -1.66602 -12 -0.999023
c-32 5.33301 -66.333 9 -103 11s-72 3 -106 3c-76.667 0 -141 -6.83301 -193 -20.5s-95.5 -36.834 -130.5 -69.501s-63.167 -76.167 -84.5 -130.5s-39.333 -121.833 -54 -202.5l-12 -61c-15.333 -82.667 -22.333 -151.167 -21 -205.5s13.5 -97.666 36.5 -129.999
s58 -55 105 -68s108.833 -19.5 185.5 -19.5c38 0 76 1.33301 114 4s73 6.66699 105 12c9.33301 2 13.666 -1.66699 12.999 -11l-2 -70c-0.666992 -10 -5.66699 -15.667 -15 -17c-16 -3.33301 -33.833 -6.33301 -53.5 -9s-39.834 -4.83398 -60.501 -6.50098
s-41.667 -3 -63 -4s-41.333 -1.5 -60 -1.5z" />
    <glyph glyph-name="Dcaron" unicode="&#x10e;" horiz-adv-x="1408" 
d="M466 -16c-26 0 -53.6689 0.334961 -83.002 1.00195s-59.333 1.5 -90 2.5s-61.5 2.5 -92.5 4.5s-60.5 4.33301 -88.5 7c-9.33301 0.666992 -13 5.66699 -11 15l267 1447c1.33301 9.33301 7 14.333 17 15c29.333 2 60.333 3.5 93 4.5l96 3
c31.333 1 61.166 1.66699 89.499 2s52.5 0.5 72.5 0.5c64 0 124.833 -3.33301 182.5 -10s110 -19 157 -37s88.167 -43.167 123.5 -75.5s62.833 -74.166 82.5 -125.499s30.667 -113.333 33 -186s-5.5 -158.334 -23.5 -257.001l-21 -113
c-19.333 -102.667 -42.666 -191.167 -69.999 -265.5s-59.166 -137.333 -95.499 -189s-76.666 -93.334 -120.999 -125.001s-93.166 -56.334 -146.499 -74.001s-110.833 -29.5 -172.5 -35.5s-127.834 -9 -198.501 -9zM731.998 1379
c-17.333 0 -37.834 -0.166016 -61.501 -0.499023s-47.834 -0.833008 -72.501 -1.5s-48.667 -1.5 -72 -2.5s-43.333 -2.16699 -60 -3.5l-236 -1270c19.333 -2 40.666 -3.66699 63.999 -5s46.833 -2.5 70.5 -3.5s47 -1.66699 70 -2s44.167 -0.5 63.5 -0.5
c60 0 115.833 3.16699 167.5 9.5s99.334 17.5 143.001 33.5s83.334 38.167 119.001 66.5s67.834 64.166 96.501 107.499s53.834 95.5 75.501 156.5s40.167 132.5 55.5 214.5l22 119c14.667 81.333 22.5 152.333 23.5 213s-5 112.5 -18 155.5s-32.333 78.333 -58 106
s-57.5 49.5 -95.5 65.5s-81.833 27 -131.5 33s-104.834 9 -165.501 9zM584.997 1800c-6.66699 6.66699 -5.33398 10 3.99902 10h95c5.33301 0 9.66602 -0.833008 12.999 -2.5s6.66602 -4.16699 9.99902 -7.5l110 -122h20l159 123c6.66699 6 15 9 25 9h115
c4 0 6.33301 -0.833008 7 -2.5s-0.666016 -3.5 -3.99902 -5.5l-253 -188c-7.33301 -5.33301 -15.666 -8 -24.999 -8h-83c-5.33301 0 -9.66602 0.833008 -12.999 2.5s-7 4.16699 -11 7.5z" />
    <glyph glyph-name="dcaron" unicode="&#x10f;" horiz-adv-x="1165" 
d="M693 989c-76.667 0 -140.501 -6.66699 -191.501 -20s-93.333 -35.833 -127 -67.5s-60.667 -74.167 -81 -127.5s-37.833 -120 -52.5 -200l-15 -74c-15.333 -81.333 -22.666 -149 -21.999 -203s12 -97 34 -129s56.5 -54.667 103.5 -68s109.833 -20 188.5 -20
c41.333 0 82.833 1.5 124.5 4.5s81.5 7.16699 119.5 12.5l163 868c-16.667 4 -35.5 7.5 -56.5 10.5s-42.333 5.5 -64 7.5s-43.167 3.5 -64.5 4.5s-41 1.5 -59 1.5zM511.999 -22c-94 0 -170.831 8.66699 -230.498 26s-104.834 45.666 -135.501 84.999
s-48.167 90.833 -52.5 154.5s2.16699 141.5 19.5 233.5l21 116c18 96 40.667 175.833 68 239.5s63.333 114.834 108 153.501s99.5 66 164.5 82s143.833 24 236.5 24c42 0 84.333 -2.5 127 -7.5s81.667 -11.167 117 -18.5l96 522c2 9.33301 7.66699 15 17 17l88 18
c9.33301 2 13 -1.66699 11 -11l-294 -1588c-2 -10 -7.66699 -15.333 -17 -16c-62.667 -10 -122.834 -17.5 -180.501 -22.5s-112.167 -7.5 -163.5 -7.5zM1239 1215c-9.33301 0 -13 4.66699 -11 14l66 359c2 9.33301 7.66699 15 17 17l92 17c9.33301 2 13 -1.66699 11 -11
l-92 -382c-2 -9.33301 -7.66699 -14 -17 -14h-66z" />
    <glyph glyph-name="Dcroat" unicode="&#x110;" horiz-adv-x="1414" 
d="M473 -16c-26 0 -53.6689 0.334961 -83.002 1.00195s-59.333 1.5 -90 2.5s-61.5 2.5 -92.5 4.5s-60.5 4.33301 -88.5 7c-9.33301 0.666992 -13 5.66699 -11 15l133 724h-173c-9.33301 0 -13 4.66699 -11 14l15 80c2 9.33301 7.66699 14 17 14h172l114 615
c1.33301 9.33301 7 14.333 17 15c29.333 2 60.333 3.5 93 4.5l96 3c31.333 1 61.166 1.66699 89.499 2s52.5 0.5 72.5 0.5c64 0 124.833 -3.33301 182.5 -10s110 -19 157 -37s88.167 -43.167 123.5 -75.5s62.833 -74.166 82.5 -125.499s30.667 -113.333 33 -186
s-5.5 -158.334 -23.5 -257.001l-21 -113c-19.333 -102.667 -42.666 -191.167 -69.999 -265.5s-59.166 -137.333 -95.499 -189s-76.666 -93.334 -120.999 -125.001s-93.166 -56.334 -146.499 -74.001s-110.833 -29.5 -172.5 -35.5s-127.834 -9 -198.501 -9zM738.998 1379
c-17.333 0 -37.834 -0.166016 -61.501 -0.499023s-47.834 -0.833008 -72.501 -1.5s-48.667 -1.5 -72 -2.5s-43.333 -2.16699 -60 -3.5l-98 -525h277c9.33301 0 13 -4.66699 11 -14l-15 -80c-2 -9.33301 -7.66699 -14 -17 -14h-276l-118 -637
c19.333 -2 40.666 -3.66699 63.999 -5s46.833 -2.5 70.5 -3.5s47 -1.66699 70 -2s44.167 -0.5 63.5 -0.5c60 0 115.833 3.16699 167.5 9.5s99.334 17.5 143.001 33.5s83.334 38.167 119.001 66.5s67.834 64.166 96.501 107.499s53.834 95.5 75.501 156.5
s40.167 132.5 55.5 214.5l22 119c14.667 81.333 22.5 152.333 23.5 213s-5 112.5 -18 155.5s-32.333 78.333 -58 106s-57.5 49.5 -95.5 65.5s-81.833 27 -131.5 33s-104.834 9 -165.501 9z" />
    <glyph glyph-name="dcroat" unicode="&#x111;" horiz-adv-x="1165" 
d="M512 -22c-94 0 -170.831 8.66699 -230.498 26s-104.834 45.666 -135.501 84.999s-48.167 90.833 -52.5 154.5s2.16699 141.5 19.5 233.5l21 116c18 96 40.667 175.833 68 239.5s63.333 114.834 108 153.501s99.5 66 164.5 82s143.833 24 236.5 24
c42 0 84.333 -2.5 127 -7.5s81.667 -11.167 117 -18.5l39 214h-312c-8.66699 0 -12.667 4.66699 -12 14l12 63c0.666992 9.33301 6 14 16 14h313l40 217c2 9.33301 7.66699 15 17 17l88 18c9.33301 2 13 -1.66699 11 -11l-45 -241h124c8.66699 0 12.667 -4.66699 12 -14
l-12 -63c-0.666992 -9.33301 -6 -14 -16 -14h-125l-232 -1256c-2 -10 -7.66699 -15.333 -17 -16c-62.667 -10 -122.834 -17.5 -180.501 -22.5s-112.167 -7.5 -163.5 -7.5zM693.002 989c-76.667 0 -140.501 -6.66699 -191.501 -20s-93.333 -35.833 -127 -67.5
s-60.667 -74.167 -81 -127.5s-37.833 -120 -52.5 -200l-15 -74c-15.333 -81.333 -22.666 -149 -21.999 -203s12 -97 34 -129s56.5 -54.667 103.5 -68s109.833 -20 188.5 -20c41.333 0 82.833 1.5 124.5 4.5s81.5 7.16699 119.5 12.5l163 868c-16.667 4 -35.5 7.5 -56.5 10.5
s-42.333 5.5 -64 7.5s-43.167 3.5 -64.5 4.5s-41 1.5 -59 1.5z" />
    <glyph glyph-name="Emacron" unicode="&#x112;" horiz-adv-x="1185" 
d="M113 0c-9.33301 0 -13 4.66699 -11 14l266 1447c2 9.33301 7.66699 14 17 14h822c8.66699 0 12.667 -4.66699 12 -14l-16 -85c-0.666992 -9.33301 -6 -14 -16 -14h-722l-93 -502h626c9.33301 0 13 -4.66699 11 -14l-15 -84c-2 -9.33301 -7.66699 -14 -17 -14h-626
l-116 -636h721c9.33301 0 13 -4.66699 11 -14l-16 -84c-2 -9.33301 -7.66699 -14 -17 -14h-821zM574 1647c-9.33301 0 -13 4.66699 -11 14l12 66c2 9.33301 7.66699 14 17 14h470c8.66699 0 12.667 -4.66699 12 -14l-13 -66c-0.666992 -9.33301 -6 -14 -16 -14h-471z" />
    <glyph glyph-name="emacron" unicode="&#x113;" horiz-adv-x="1145" 
d="M485 -22c-84 0 -153.831 9.5 -209.498 28.5s-98.334 49.5 -128.001 91.5s-46.834 96.333 -51.501 163s1.66602 147.667 18.999 243l13 78c16 88 38 164.167 66 228.5s64 117.333 108 159s96.833 72.5 158.5 92.5s134.167 30 217.5 30
c66.667 0 124.167 -7.66699 172.5 -23s88 -37.833 119 -67.5s53.833 -66 68.5 -109s22 -92.5 22 -148.5c0 -30 -1.83301 -57.667 -5.5 -83s-8 -48.166 -13 -68.499s-10.167 -37.666 -15.5 -51.999s-9.66602 -25.5 -12.999 -33.5c-3.33301 -8.66699 -9.66602 -13 -18.999 -13
l-773 -1c-13.333 -76.667 -19 -141.334 -17 -194.001s13.833 -95.334 35.5 -128.001s54.167 -56.167 97.5 -70.5s99.666 -21.5 168.999 -21.5c56 0 112.5 1.16699 169.5 3.5s116.5 6.5 178.5 12.5c9.33301 0.666992 14 -3.66602 14 -12.999l-1 -68
c0 -9.33301 -4.66699 -14.333 -14 -15c-58 -6.66699 -116.667 -11.834 -176 -15.501s-123.333 -5.5 -192 -5.5zM935.002 595c12 68 16.834 126.834 14.501 176.501s-14 90.667 -35 123s-52.167 56.333 -93.5 72s-95.333 23.5 -162 23.5
c-64.667 0 -120.334 -7.83301 -167.001 -23.5s-86.5 -39.834 -119.5 -72.501s-60 -74.167 -81 -124.5s-38.5 -110.5 -52.5 -180.5zM459.003 1336c-9.33301 0 -13 4.66699 -11 14l13 68c2 9.33301 7.66699 14 17 14h470c9.33301 0 13 -4.66699 11 -14l-13 -68
c-2 -9.33301 -7.66699 -14 -17 -14h-470z" />
    <glyph glyph-name="Edotaccent" unicode="&#x116;" horiz-adv-x="1185" 
d="M753 1606c-8.66699 0 -12.667 4.66699 -12 14l36 194c0.666992 9.33301 6 15 16 17l98 18c9.33301 2 13 -1.66699 11 -11l-39 -218c-2 -9.33301 -7.66699 -14 -17 -14h-93zM113 0c-9.33301 0 -13 4.66699 -11 14l266 1447c2 9.33301 7.66699 14 17 14h822
c8.66699 0 12.667 -4.66699 12 -14l-16 -85c-0.666992 -9.33301 -6 -14 -16 -14h-722l-93 -502h626c9.33301 0 13 -4.66699 11 -14l-15 -84c-2 -9.33301 -7.66699 -14 -17 -14h-626l-116 -636h721c9.33301 0 13 -4.66699 11 -14l-16 -84c-2 -9.33301 -7.66699 -14 -17 -14
h-821z" />
    <glyph glyph-name="edotaccent" unicode="&#x117;" horiz-adv-x="1145" 
d="M485 -22c-84 0 -153.831 9.5 -209.498 28.5s-98.334 49.5 -128.001 91.5s-46.834 96.333 -51.501 163s1.66602 147.667 18.999 243l13 78c16 88 38 164.167 66 228.5s64 117.333 108 159s96.833 72.5 158.5 92.5s134.167 30 217.5 30
c66.667 0 124.167 -7.66699 172.5 -23s88 -37.833 119 -67.5s53.833 -66 68.5 -109s22 -92.5 22 -148.5c0 -30 -1.83301 -57.667 -5.5 -83s-8 -48.166 -13 -68.499s-10.167 -37.666 -15.5 -51.999s-9.66602 -25.5 -12.999 -33.5c-3.33301 -8.66699 -9.66602 -13 -18.999 -13
l-773 -1c-13.333 -76.667 -19 -141.334 -17 -194.001s13.833 -95.334 35.5 -128.001s54.167 -56.167 97.5 -70.5s99.666 -21.5 168.999 -21.5c56 0 112.5 1.16699 169.5 3.5s116.5 6.5 178.5 12.5c9.33301 0.666992 14 -3.66602 14 -12.999l-1 -68
c0 -9.33301 -4.66699 -14.333 -14 -15c-58 -6.66699 -116.667 -11.834 -176 -15.501s-123.333 -5.5 -192 -5.5zM935.002 595c12 68 16.834 126.834 14.501 176.501s-14 90.667 -35 123s-52.167 56.333 -93.5 72s-95.333 23.5 -162 23.5
c-64.667 0 -120.334 -7.83301 -167.001 -23.5s-86.5 -39.834 -119.5 -72.501s-60 -74.167 -81 -124.5s-38.5 -110.5 -52.5 -180.5zM650.003 1252c-9.33301 0 -13 4.66699 -11 14l47 258c2 9.33301 7.66699 15 17 17l97 18c9.33301 2 13 -1.66699 11 -11l-52 -282
c-2 -9.33301 -7.66699 -14 -17 -14h-92z" />
    <glyph glyph-name="Eogonek" unicode="&#x118;" horiz-adv-x="1185" 
d="M871 0c-24 -16.667 -47.6689 -36.832 -71.002 -60.499s-44.333 -48.5 -63 -74.5s-33.667 -51.667 -45 -77s-17 -48 -17 -68c0 -17.333 6.5 -29.833 19.5 -37.5s38.5 -11.5 76.5 -11.5c14.667 0 31.167 0.5 49.5 1.5s36.5 2.5 54.5 4.5
c9.33301 0.666992 13.666 -3.33301 12.999 -12l-6 -49c-0.666992 -8.66699 -5.66699 -14.334 -15 -17.001c-31.333 -7.33301 -73.666 -11 -126.999 -11c-32 0 -58.667 2.5 -80 7.5s-38.5 12.333 -51.5 22s-22.167 21.167 -27.5 34.5s-8 28.333 -8 45
c0 26 5.83301 53.5 17.5 82.5s26.834 57.167 45.501 84.5s39.334 53 62.001 77s45 43.667 67 59h-652c-9.33301 0 -13 4.66699 -11 14l266 1447c2 9.33301 7.66699 14 17 14h822c8.66699 0 12.667 -4.66699 12 -14l-16 -85c-0.666992 -9.33301 -6 -14 -16 -14h-722l-93 -502
h626c9.33301 0 13 -4.66699 11 -14l-15 -84c-2 -9.33301 -7.66699 -14 -17 -14h-626l-116 -636h721c9.33301 0 13 -4.66699 11 -14l-16 -84c-2 -9.33301 -7.66699 -14 -17 -14h-63z" />
    <glyph glyph-name="eogonek" unicode="&#x119;" horiz-adv-x="1146" 
d="M485 -22c-84 0 -153.831 9.49805 -209.498 28.498s-98.334 49.5 -128.001 91.5s-46.834 96.333 -51.501 163s1.66602 147.667 18.999 243l13 78c16 88 38 164.167 66 228.5s64 117.333 108 159s96.833 72.5 158.5 92.5s134.167 30 217.5 30
c66.667 0 124.167 -7.66699 172.5 -23s88 -37.833 119 -67.5s53.833 -66 68.5 -109s22 -92.5 22 -148.5c0 -30 -1.83301 -57.667 -5.5 -83s-8 -48.166 -13 -68.499s-10.167 -37.666 -15.5 -51.999s-9.66602 -25.5 -12.999 -33.5c-3.33301 -8.66699 -9.66602 -13 -18.999 -13
l-773 -1c-13.333 -76.667 -19 -141.334 -17 -194.001s13.833 -95.334 35.5 -128.001s54.167 -56.167 97.5 -70.5s99.666 -21.5 168.999 -21.5c56 0 112.5 1.16699 169.5 3.5s116.5 6.5 178.5 12.5c9.33301 0.666992 14 -3.66602 14 -12.999l-1 -68
c0 -9.33301 -4.66699 -14.333 -14 -15l-61 -6c-23.333 -17.333 -46 -37.666 -68 -60.999s-41.667 -47.5 -59 -72.5s-31.333 -49.667 -42 -74s-16 -46.166 -16 -65.499c0 -17.333 6.5 -29.833 19.5 -37.5s38.5 -11.5 76.5 -11.5c14.667 0 31.167 0.5 49.5 1.5
s36.5 2.5 54.5 4.5c9.33301 0.666992 13.666 -3.33301 12.999 -12l-6 -49c-0.666992 -8.66699 -5.66699 -14.334 -15 -17.001c-31.333 -7.33301 -73.666 -11 -126.999 -11c-32 0 -58.667 2.5 -80 7.5s-38.5 12.333 -51.5 22s-22.167 21.167 -27.5 34.5s-8 28.333 -8 45
c0 24 5 49.167 15 75.5s23 52.333 39 78s34.167 50 54.5 73s40.833 43.167 61.5 60.5c-60 -4 -123.333 -6 -190 -6zM935.002 594.998c12 68 16.834 126.834 14.501 176.501s-14 90.667 -35 123s-52.167 56.333 -93.5 72s-95.333 23.5 -162 23.5
c-64.667 0 -120.334 -7.83301 -167.001 -23.5s-86.5 -39.834 -119.5 -72.501s-60 -74.167 -81 -124.5s-38.5 -110.5 -52.5 -180.5z" />
    <glyph glyph-name="Ecaron" unicode="&#x11a;" horiz-adv-x="1185" 
d="M113 0c-9.33301 0 -13 4.66699 -11 14l266 1447c2 9.33301 7.66699 14 17 14h822c8.66699 0 12.667 -4.66699 12 -14l-16 -85c-0.666992 -9.33301 -6 -14 -16 -14h-722l-93 -502h626c9.33301 0 13 -4.66699 11 -14l-15 -84c-2 -9.33301 -7.66699 -14 -17 -14h-626
l-116 -636h721c9.33301 0 13 -4.66699 11 -14l-16 -84c-2 -9.33301 -7.66699 -14 -17 -14h-821zM576 1800c-6.66699 6.66699 -5.33398 10 3.99902 10h95c5.33301 0 9.66602 -0.833008 12.999 -2.5s6.66602 -4.16699 9.99902 -7.5l110 -122h20l159 123c6.66699 6 15 9 25 9
h115c4 0 6.33301 -0.833008 7 -2.5s-0.666016 -3.5 -3.99902 -5.5l-253 -188c-7.33301 -5.33301 -15.666 -8 -24.999 -8h-83c-5.33301 0 -9.66602 0.833008 -12.999 2.5s-7 4.16699 -11 7.5z" />
    <glyph glyph-name="ecaron" unicode="&#x11b;" horiz-adv-x="1145" 
d="M461 1510c-5.33301 7.33301 -3.33203 11 6.00098 11h92c9.33301 0 16.666 -4 21.999 -12l103 -162h21l162 164c7.33301 6.66699 15.333 10 24 10h110c9.33301 0 10.666 -3.33301 3.99902 -10l-253 -235c-6 -6.66699 -14 -10 -24 -10h-82
c-9.33301 0 -16.666 3.66699 -21.999 11zM485.001 -22c-84 0 -153.831 9.5 -209.498 28.5s-98.334 49.5 -128.001 91.5s-46.834 96.333 -51.501 163s1.66602 147.667 18.999 243l13 78c16 88 38 164.167 66 228.5s64 117.333 108 159s96.833 72.5 158.5 92.5
s134.167 30 217.5 30c66.667 0 124.167 -7.66699 172.5 -23s88 -37.833 119 -67.5s53.833 -66 68.5 -109s22 -92.5 22 -148.5c0 -30 -1.83301 -57.667 -5.5 -83s-8 -48.166 -13 -68.499s-10.167 -37.666 -15.5 -51.999s-9.66602 -25.5 -12.999 -33.5
c-3.33301 -8.66699 -9.66602 -13 -18.999 -13l-773 -1c-13.333 -76.667 -19 -141.334 -17 -194.001s13.833 -95.334 35.5 -128.001s54.167 -56.167 97.5 -70.5s99.666 -21.5 168.999 -21.5c56 0 112.5 1.16699 169.5 3.5s116.5 6.5 178.5 12.5
c9.33301 0.666992 14 -3.66602 14 -12.999l-1 -68c0 -9.33301 -4.66699 -14.333 -14 -15c-58 -6.66699 -116.667 -11.834 -176 -15.501s-123.333 -5.5 -192 -5.5zM935.003 595c12 68 16.834 126.834 14.501 176.501s-14 90.667 -35 123s-52.167 56.333 -93.5 72
s-95.333 23.5 -162 23.5c-64.667 0 -120.334 -7.83301 -167.001 -23.5s-86.5 -39.834 -119.5 -72.501s-60 -74.167 -81 -124.5s-38.5 -110.5 -52.5 -180.5z" />
    <glyph glyph-name="Gbreve" unicode="&#x11e;" horiz-adv-x="1272" 
d="M1139 767c9.33301 0 12.9971 -4.66406 10.9971 -13.9971l-131 -712c-2 -9.33301 -7.33301 -15.333 -16 -18c-70 -18.667 -137.167 -30.834 -201.5 -36.501s-126.833 -8.5 -187.5 -8.5c-96 0 -178.167 11.5 -246.5 34.5s-122 61.5 -161 115.5s-62.833 125.167 -71.5 213.5
s-0.666992 197.833 24 328.5l23 135c24.667 132.667 57.667 243.334 99 332.001s91.833 159.667 151.5 213s129.167 91.166 208.5 113.499s169.333 33.5 270 33.5c60 0 118.167 -2.83301 174.5 -8.5s103.166 -13.834 140.499 -24.501
c8.66699 -2.66699 11.334 -8.33398 8.00098 -17.001l-27 -75c-3.33301 -8.66699 -9.66602 -12 -18.999 -10c-43.333 8 -90.666 13.833 -141.999 17.5s-101.666 5.5 -150.999 5.5c-80 0 -152.167 -9 -216.5 -27s-121 -48.833 -170 -92.5s-90.5 -102.167 -124.5 -175.5
s-61.333 -165 -82 -275l-27 -155c-20.667 -110.667 -28.167 -202.5 -22.5 -275.5s24 -131.333 55 -175s73.833 -74.5 128.5 -92.5s120.667 -27 198 -27c58.667 0 111 2 157 6s88.667 9.66699 128 17l100 544l-318 4c-9.33301 0 -13 4.66699 -11 14l14 78
c2 9.33301 7.66699 14 17 14h418zM879.997 1586c-78.667 0 -136.831 18.6689 -174.498 56.002s-53.834 89.666 -48.501 156.999c0 9.33301 5 14 15 14h62c9.33301 0 13.666 -4.66699 12.999 -14c0 -26 4 -47.333 12 -64s18.5 -30 31.5 -40s28 -17 45 -21s34.5 -6 52.5 -6
c20 0 39.333 2.16699 58 6.5s36.334 11.5 53.001 21.5s31.667 23.5 45 40.5s24.333 38.167 33 63.5c2.66699 8.66699 8.66699 13 18 13h69c9.33301 0 12.666 -4.33301 9.99902 -13c-11.333 -36 -24.833 -67.333 -40.5 -94s-35 -48.834 -58 -66.501s-50.5 -31 -82.5 -40
s-69.667 -13.5 -113 -13.5z" />
    <glyph glyph-name="gbreve" unicode="&#x11f;" horiz-adv-x="1168" 
d="M293 -473c-18 0 -38.3369 0.331055 -61.0039 0.998047s-46 1.83398 -70 3.50098s-47.667 3.83398 -71 6.50098s-44.333 5.66699 -63 9c-9.33301 2 -12.666 7.33301 -9.99902 16l24 70c2.66699 8.66699 8.66699 12 18 10c34.667 -6 73.667 -10.167 117 -12.5
s86 -3.5 128 -3.5c66.667 0 125 4.5 175 13.5s93 26.667 129 53s66 63.666 90 111.999s43.333 111.5 58 189.5c-14 -2 -30.667 -3.83301 -50 -5.5s-39.666 -3.16699 -60.999 -4.5s-43.166 -2.5 -65.499 -3.5s-43.833 -1.5 -64.5 -1.5c-96 0 -174 9.16699 -234 27.5
s-105.167 47.333 -135.5 87s-47.5 91 -51.5 154s2.66699 139.167 20 228.5l21 116c12.667 66 27 124.333 43 175s35.167 94.5 57.5 131.5s48 67.833 77 92.5s62.833 44.334 101.5 59.001s82.5 25.167 131.5 31.5s104.5 9.5 166.5 9.5c25.333 0 52.5 -0.5 81.5 -1.5
s58.5 -2.33301 88.5 -4s59.5 -3.66699 88.5 -6s56.5 -4.83301 82.5 -7.5c9.33301 -2 13 -7.33301 11 -16l-195 -1054c-18.667 -100.667 -43.667 -182 -75 -244s-70.166 -110.167 -116.499 -144.5s-101.333 -57.5 -165 -69.5s-137.167 -18 -220.5 -18zM693.996 988.998
c-76 0 -139.334 -6.49805 -190.001 -19.498s-92.667 -35.167 -126 -66.5s-60.333 -73.833 -81 -127.5s-39 -120.834 -55 -201.501l-14 -74c-15.333 -81.333 -22.666 -149 -21.999 -203s12 -97 34 -129s56.5 -54.667 103.5 -68s109.833 -20 188.5 -20
c44.667 0 88.667 1.16699 132 3.5s80.333 5.16602 111 8.49902l166 884c-34.667 4 -72 7.16699 -112 9.5s-85 3.5 -135 3.5zM701.995 1266c-40.667 0 -75.1641 5.66309 -103.497 16.9961s-51.166 27.5 -68.499 48.5s-29.5 46.333 -36.5 76s-9.5 62.834 -7.5 99.501
c0.666992 9.33301 5.66699 14 15 14h68c8.66699 0 13 -4.66699 13 -14c-2 -29.333 -0.333008 -53.666 5 -72.999s13.666 -34.833 24.999 -46.5s25.166 -20 41.499 -25s34.5 -7.5 54.5 -7.5c20.667 0 40.5 2.5 59.5 7.5s37 13.333 54 25s32.333 27.334 46 47.001
s25.5 44.167 35.5 73.5c2.66699 8.66699 8.66699 13 18 13h70c9.33301 0 13 -4.66699 11 -14c-8.66699 -36 -20.5 -68.667 -35.5 -98s-34.333 -54.666 -58 -75.999s-52.334 -37.833 -86.001 -49.5s-73.834 -17.5 -120.501 -17.5z" />
    <glyph glyph-name="Gcommaaccent" unicode="&#x122;" horiz-adv-x="1272" 
d="M408 -434c-9.33301 0 -12.001 4.33301 -8.00098 13l125 274c2.66699 5.33301 5.33398 9 8.00098 11s6.66699 3.33301 12 4l107 19c10 1.33301 12.333 -2 7 -10l-151 -299c-4.66699 -8 -11.667 -12 -21 -12h-79zM1139 767c9.33301 0 12.9971 -4.66406 10.9971 -13.9971
l-131 -712c-2 -9.33301 -7.33301 -15.333 -16 -18c-70 -18.667 -137.167 -30.834 -201.5 -36.501s-126.833 -8.5 -187.5 -8.5c-96 0 -178.167 11.5 -246.5 34.5s-122 61.5 -161 115.5s-62.833 125.167 -71.5 213.5s-0.666992 197.833 24 328.5l23 135
c24.667 132.667 57.667 243.334 99 332.001s91.833 159.667 151.5 213s129.167 91.166 208.5 113.499s169.333 33.5 270 33.5c60 0 118.167 -2.83301 174.5 -8.5s103.166 -13.834 140.499 -24.501c8.66699 -2.66699 11.334 -8.33398 8.00098 -17.001l-27 -75
c-3.33301 -8.66699 -9.66602 -12 -18.999 -10c-43.333 8 -90.666 13.833 -141.999 17.5s-101.666 5.5 -150.999 5.5c-80 0 -152.167 -9 -216.5 -27s-121 -48.833 -170 -92.5s-90.5 -102.167 -124.5 -175.5s-61.333 -165 -82 -275l-27 -155
c-20.667 -110.667 -28.167 -202.5 -22.5 -275.5s24 -131.333 55 -175s73.833 -74.5 128.5 -92.5s120.667 -27 198 -27c58.667 0 111 2 157 6s88.667 9.66699 128 17l100 544l-318 4c-9.33301 0 -13 4.66699 -11 14l14 78c2 9.33301 7.66699 14 17 14h418z" />
    <glyph glyph-name="gcommaaccent" unicode="&#x123;" horiz-adv-x="1168" 
d="M640 1260c-10 -1.33301 -12.332 2 -6.99902 10l150 282c4.66699 8 11.667 12 21 12h78c9.33301 0 12 -4.33301 8 -13l-113 -256c-2.66699 -5.33301 -5.33398 -9 -8.00098 -11s-6.66699 -3.33301 -12 -4zM292.001 -473c-18 0 -38.3369 0.331055 -61.0039 0.998047
s-46 1.83398 -70 3.50098s-47.667 3.83398 -71 6.50098s-44.333 5.66699 -63 9c-9.33301 2 -12.666 7.33301 -9.99902 16l24 70c2.66699 8.66699 8.66699 12 18 10c34.667 -6 73.667 -10.167 117 -12.5s86 -3.5 128 -3.5c66.667 0 125 4.5 175 13.5s93 26.667 129 53
s66 63.666 90 111.999s43.333 111.5 58 189.5c-14 -2 -30.667 -3.83301 -50 -5.5s-39.666 -3.16699 -60.999 -4.5s-43.166 -2.5 -65.499 -3.5s-43.833 -1.5 -64.5 -1.5c-96 0 -174 9.16699 -234 27.5s-105.167 47.333 -135.5 87s-47.5 91 -51.5 154
s2.66699 139.167 20 228.5l21 116c12.667 66 27 124.333 43 175s35.167 94.5 57.5 131.5s48 67.833 77 92.5s62.833 44.334 101.5 59.001s82.5 25.167 131.5 31.5s104.5 9.5 166.5 9.5c25.333 0 52.5 -0.5 81.5 -1.5s58.5 -2.33301 88.5 -4s59.5 -3.66699 88.5 -6
s56.5 -4.83301 82.5 -7.5c9.33301 -2 13 -7.33301 11 -16l-195 -1054c-18.667 -100.667 -43.667 -182 -75 -244s-70.166 -110.167 -116.499 -144.5s-101.333 -57.5 -165 -69.5s-137.167 -18 -220.5 -18zM692.997 988.998c-76 0 -139.334 -6.49805 -190.001 -19.498
s-92.667 -35.167 -126 -66.5s-60.333 -73.833 -81 -127.5s-39 -120.834 -55 -201.501l-14 -74c-15.333 -81.333 -22.666 -149 -21.999 -203s12 -97 34 -129s56.5 -54.667 103.5 -68s109.833 -20 188.5 -20c44.667 0 88.667 1.16699 132 3.5s80.333 5.16602 111 8.49902
l166 884c-34.667 4 -72 7.16699 -112 9.5s-85 3.5 -135 3.5z" />
    <glyph glyph-name="Imacron" unicode="&#x12a;" horiz-adv-x="545" 
d="M273 1653c-9.33301 0 -13 4.66699 -11 14l12 65c2 9.33301 7.66699 14 17 14h354c9.33301 0 13 -4.66699 11 -14l-12 -65c-2 -9.33301 -7.66699 -14 -17 -14h-354zM113 0c-9.33301 0 -13 4.66699 -11 14l266 1447c2 9.33301 7.66699 14 17 14h86
c9.33301 0 13 -4.66699 11 -14l-266 -1447c-2 -9.33301 -7.66699 -14 -17 -14h-86z" />
    <glyph glyph-name="imacron" unicode="&#x12b;" horiz-adv-x="479" 
d="M188 1314c-9.33301 0 -13 4.66699 -11 14l12 66c2 9.33301 7.66699 14 17 14h356c9.33301 0 13 -4.66699 11 -14l-13 -66c-2 -9.33301 -7.66699 -14 -17 -14h-355zM84 0c-9.33301 0 -13 4.66699 -11 14l192 1043c2 9.33301 7.66699 14 17 14h83
c9.33301 0 13 -4.66699 11 -14l-193 -1043c-2 -9.33301 -7.66699 -14 -17 -14h-82z" />
    </font>
</defs>
</svg>
