<?xml version="1.0" standalone="no"?>
<!DOCTYPE svg PUBLIC "-//W3C//DTD SVG 1.1//EN" "http://www.w3.org/Graphics/SVG/1.1/DTD/svg11.dtd" >
<svg>
<metadata>
Created by FontForge 20090914 at Wed Apr  8 22:57:50 2015
 By www-data
</metadata>
<defs>
<font id="SkodaPro" horiz-adv-x="778" >
  <font-face 
    font-family="Skoda Pro"
    font-weight="400"
    font-stretch="normal"
    units-per-em="2048"
    panose-1="2 0 0 0 0 0 0 0 0 0"
    ascent="1638"
    descent="-410"
    x-height="1071"
    cap-height="1475"
    bbox="-907.002 -473.002 2436 1894"
    underline-thickness="102"
    underline-position="-103"
    unicode-range="U+0020-U+FB02"
  />
<missing-glyph horiz-adv-x="1022" 
 />
    <glyph glyph-name=".notdef" horiz-adv-x="1022" 
 />
    <glyph glyph-name="space" unicode=" " horiz-adv-x="508" 
 />
    <glyph glyph-name="exclam" unicode="!" horiz-adv-x="494" 
d="M207 447c-9.33301 0 -14 4.66699 -14 14l-7 1000c0 9.33301 4.66699 15 14 17l93 18c9.33301 2 14 -1.66699 14 -11l-7 -1024c0 -9.33301 -4.66699 -14 -14 -14h-79zM199 0c-9.33301 0 -14 4.66699 -14 14v201c0 9.33301 4.66699 15 14 17l92 18
c9.33301 2 14 -1.66699 14 -11v-225c0 -9.33301 -4.66699 -14 -14 -14h-92z" />
    <glyph glyph-name="quotedbl" unicode="&#x22;" horiz-adv-x="688" 
d="M157 1016c-9.33301 0 -14 4.66699 -14 14v431c0 10 4.66699 15.333 14 16l96 18c9.33301 0.666992 14 -3.33301 14 -12v-453c0 -9.33301 -4.66699 -14 -14 -14h-96zM435 1016c-9.33301 0 -14 4.66699 -14 14v431c0 10 4.66699 15.333 14 16l96 18
c9.33301 0.666992 14 -3.33301 14 -12v-453c0 -9.33301 -4.66699 -14 -14 -14h-96z" />
    <glyph glyph-name="numbersign" unicode="#" horiz-adv-x="1466" 
d="M827 0c-8.66699 0 -12.667 4.66699 -12 14l65 373h-416l-65 -373c-0.666992 -9.33301 -6 -14 -16 -14h-86c-8.66699 0 -12.667 4.66699 -12 14l65 373h-256c-10 0 -14 4.66699 -12 14l10 82c2 9.33301 7.33301 14 16 14h261l83 480h-255c-10 0 -14 4.66699 -12 14l9 82
c2 9.33301 7.33301 14 16 14h261l65 374c0.666992 9.33301 6 14 16 14h86c8.66699 0 12.667 -4.66699 12 -14l-65 -374h416l65 374c0.666992 9.33301 6 14 16 14h87c8.66699 0 12.667 -4.66699 12 -14l-65 -374h256c10 0 14 -4.66699 12 -14l-10 -82
c-2 -9.33301 -7.33301 -14 -16 -14h-261l-83 -480h254c10 0 14 -4.66699 12 -14l-10 -82c-2 -9.33301 -7.33301 -14 -16 -14h-259l-65 -373c-0.666992 -9.33301 -6 -14 -16 -14h-87zM566 977l-83 -480h416l83 480h-416z" />
    <glyph glyph-name="dollar" unicode="$" horiz-adv-x="1071" 
d="M509 -257c-9.33301 0 -14 4.66797 -14 14.001v228c-5.33301 0 -10.833 -0.166992 -16.5 -0.5s-11.167 -0.5 -16.5 -0.5c-27.333 0 -55.5 0.666992 -84.5 2s-57.5 3.16602 -85.5 5.49902s-55 5.33301 -81 9s-50 7.83398 -72 12.501
c-9.33301 2 -12.666 7.33301 -9.99902 16l20 72c1.33301 5.33301 3.33301 8.66602 6 9.99902s6.66699 1.66602 12 0.999023c56.667 -9.33301 109.667 -15.666 159 -18.999s97.666 -5 144.999 -5h24l2 625l-75 27c-53.333 20 -99.833 40.833 -139.5 62.5
s-72.667 47.5 -99 77.5s-46.166 65.333 -59.499 106s-20 90 -20 148c0 56 7 105 21 147s36.667 77.333 68 106s71.666 51.167 120.999 67.5s109.666 27.166 180.999 32.499v231c0 9.33301 4.66699 14 14 14h74c9.33301 0 14 -4.66699 14 -14l4 -227
c56.667 0 111.167 -2.16699 163.5 -6.5s97.833 -10.166 136.5 -17.499c9.33301 -2 13 -7.66699 11 -17l-14 -70c-2 -8.66699 -7.66699 -12.667 -17 -12c-40 6.66699 -85.333 11.5 -136 14.5s-100 4.5 -148 4.5l-2 -601l61 -21c62 -22.667 113.333 -46.167 154 -70.5
s73 -51.5 97 -81.5s40.833 -64.167 50.5 -102.5s14.5 -82.833 14.5 -133.5c0 -54 -5.16699 -103.167 -15.5 -147.5s-29.166 -83 -56.499 -116s-65.5 -60 -114.5 -81s-111.833 -35.167 -188.5 -42.5v-233c0 -9.33301 -4.66699 -14 -14 -14h-74zM497 1384
c-54 -3.33301 -99.498 -10.335 -136.498 -21.002s-66.833 -26 -89.5 -46s-38.834 -45.167 -48.501 -75.5s-14.5 -66.5 -14.5 -108.5c0 -47.333 5.33301 -86.666 16 -117.999s27.667 -58.166 51 -80.499s53.166 -42 89.499 -59s80.5 -35.167 132.5 -54.5v563zM595.002 92.999
c61.333 6 110.166 17 146.499 33s64 36.167 83 60.5s31.167 52.5 36.5 84.5s8 67.333 8 106c0 40 -3.83301 74 -11.5 102s-21.667 53 -42 75s-48.166 42.5 -83.499 61.5s-81 39.5 -137 61.5v-584z" />
    <glyph glyph-name="percent" unicode="%" horiz-adv-x="1810" 
d="M436 588c-50 0 -95 6.16699 -135 18.5s-74.167 33.166 -102.5 62.499s-50.166 68.666 -65.499 117.999s-23 111 -23 185v140c0 74.667 7.66699 136.667 23 186s37.166 88.833 65.499 118.5s62.5 50.5 102.5 62.5s85 18 135 18s95 -6 135 -18s74 -32.833 102 -62.5
s49.5 -69.167 64.5 -118.5s22.5 -111.333 22.5 -186v-140c0 -74 -7.33301 -135.667 -22 -185s-36 -88.666 -64 -117.999s-62 -50.166 -102 -62.499s-85.333 -18.5 -136 -18.5zM436 1401c-34.667 0 -65.832 -4.5 -93.499 -13.5s-51.334 -24.5 -71.001 -46.5
s-34.667 -51.5 -45 -88.5s-15.5 -83.5 -15.5 -139.5v-142c0 -55.333 5.16699 -101.333 15.5 -138s25.333 -66 45 -88s43.334 -37.5 71.001 -46.5s58.834 -13.5 93.501 -13.5s65.667 4.5 93 13.5s50.666 24.5 69.999 46.5s34.166 51.5 44.499 88.5s15.5 83.5 15.5 139.5v140
c0 56 -5.16699 102.5 -15.5 139.5s-25.333 66.5 -45 88.5s-43.167 37.5 -70.5 46.5s-58 13.5 -92 13.5zM1374 -22c-49.333 0 -94 6 -134 18s-74 32.833 -102 62.5s-49.667 69 -65 118s-23 110.5 -23 184.5v141c0 74.667 7.5 136.667 22.5 186s36.5 88.666 64.5 117.999
s62 50.166 102 62.499s85 18.5 135 18.5s95 -6.16699 135 -18.5s74 -33.166 102 -62.499s49.5 -68.666 64.5 -117.999s22.5 -111.333 22.5 -186v-141c0 -74 -7.33301 -135.5 -22 -184.5s-36 -88.333 -64 -118s-62 -50.5 -102 -62.5s-85.333 -18 -136 -18zM1374 789
c-34.667 0 -65.832 -4.33301 -93.499 -13s-51.167 -24 -70.5 -46s-34.166 -51.5 -44.499 -88.5s-15.5 -83.5 -15.5 -139.5v-142c0 -55.333 5.16699 -101.333 15.5 -138s25.166 -66 44.499 -88s42.833 -37.5 70.5 -46.5s58.834 -13.5 93.501 -13.5s66 4.5 94 13.5
s51.667 24.5 71 46.5s34.166 51.5 44.499 88.5s15.5 83.5 15.5 139.5v140c0 56 -5.33301 102.5 -16 139.5s-25.667 66.5 -45 88.5s-42.833 37.333 -70.5 46s-58.834 13 -93.501 13zM406.004 0c-8.66699 0 -11 4 -7 12l876 1451c4.66699 8 11.667 12 21 12h100
c8.66699 0 11 -4 7 -12l-877 -1451c-4.66699 -8 -11.667 -12 -21 -12h-99z" />
    <glyph glyph-name="ampersand" unicode="&#x26;" horiz-adv-x="1423" 
d="M1221 0c-8.66699 0 -16.665 3.33398 -23.998 10.001l-182 194c-72.667 -68.667 -153.334 -123.5 -242.001 -164.5s-183.334 -61.5 -284.001 -61.5c-53.333 0 -103 3.5 -149 10.5s-85.833 24.167 -119.5 51.5s-60.167 68.666 -79.5 123.999s-29 131 -29 227
c0 78 5.16699 140.833 15.5 188.5s27.5 86.667 51.5 117s55.5 55.666 94.5 75.999s87.5 42.5 145.5 66.5c-32 36 -58.167 68.333 -78.5 97s-36.333 57.167 -48 85.5s-19.5 58 -23.5 89s-6 66.167 -6 105.5c0 54 6.83301 99 20.5 135s34.834 64.833 63.501 86.5s65 37 109 46
s96.333 13.5 157 13.5c58.667 0 109.667 -4.5 153 -13.5s79.166 -24.333 107.499 -46s49.333 -50.5 63 -86.5s20.5 -81 20.5 -135c0 -35.333 -1.33301 -67 -4 -95s-8.33398 -53.5 -17.001 -76.5s-21 -44 -37 -63s-37.167 -37.833 -63.5 -56.5
s-58.666 -37.834 -96.999 -57.501s-83.833 -40.834 -136.5 -63.501l412 -439c46.667 56.667 86.667 117.834 120 183.501s58.333 131.834 75 198.501c2 9.33301 7.66699 14 17 14h86c9.33301 0 13 -4.66699 11 -14c-19.333 -83.333 -48.833 -164.666 -88.5 -243.999
s-87.834 -152.333 -144.501 -219l256 -274c6.66699 -6.66699 5.33398 -10 -3.99902 -10h-121zM227.002 400.001c0 -49.333 3.16504 -91.335 9.49805 -126.002s15.333 -63.5 27 -86.5s25.667 -41.167 42 -54.5s34.5 -23.166 54.5 -29.499s41.5 -10.333 64.5 -12
s47.167 -2.5 72.5 -2.5c83.333 0 162.333 17.833 237 53.5s143 82.834 205 141.501l-445 474c-52 -22 -95.167 -41.667 -129.5 -59s-61.666 -38.333 -81.999 -63s-34.666 -55.167 -42.999 -91.5s-12.5 -84.5 -12.5 -144.5zM614 1402
c-49.333 0 -89.6719 -3.33301 -121.005 -10s-56 -17.5 -74 -32.5s-30.333 -34.5 -37 -58.5s-10 -53.333 -10 -88c0 -37.333 2.33301 -69.333 7 -96s12.834 -51.834 24.501 -75.501s27.334 -47.667 47.001 -72s44.834 -52.833 75.501 -85.5l127 56
c35.333 16 64.833 31.333 88.5 46s42.5 29.167 56.5 43.5s24.833 30.333 32.5 48s12.5 37.334 14.5 59.001s3 47.167 3 76.5c0 34.667 -3.16699 64 -9.5 88s-18.166 43.5 -35.499 58.5s-41.166 25.833 -71.499 32.5s-69.5 10 -117.5 10z" />
    <glyph glyph-name="quotesingle" unicode="'" horiz-adv-x="411" 
d="M157 1016c-9.33301 0 -14 4.66699 -14 14v431c0 10 4.66699 15.333 14 16l96 18c9.33301 0.666992 14 -3.33301 14 -12v-453c0 -9.33301 -4.66699 -14 -14 -14h-96z" />
    <glyph glyph-name="parenleft" unicode="(" horiz-adv-x="543" 
d="M241 517c0 -70.667 4.5 -145.836 13.5 -225.503s23 -159 42 -238s43 -155.5 72 -229.5s63.167 -141 102.5 -201c4.66699 -8 2.66699 -12 -6 -12h-90c-9.33301 0 -16.666 4 -21.999 12c-39.333 58.667 -73.333 124.334 -102 197.001s-52.167 148.334 -70.5 227.001
s-32 157.834 -41 237.501s-13.5 155.5 -13.5 227.5v61c0 72 4.5 147.833 13.5 227.5s22.667 158.834 41 237.501s41.833 154.5 70.5 227.5s62.667 138.833 102 197.5c5.33301 8 12.666 12 21.999 12h90c8.66699 0 10.667 -4 6 -12c-40 -60 -74.333 -127 -103 -201
s-52.5 -150.667 -71.5 -230s-33 -158.833 -42 -238.5s-13.5 -154.834 -13.5 -225.501v-51v0z" />
    <glyph glyph-name="parenright" unicode=")" horiz-adv-x="543" 
d="M302 568c0 70.667 -4.5 145.836 -13.5 225.503s-23 159.167 -42 238.5s-42.833 156 -71.5 230s-63 141 -103 201c-5.33301 8 -3.33301 12 6 12h90c9.33301 0 16.666 -4 21.999 -12c39.333 -58.667 73.333 -124.5 102 -197.5s52.167 -148.833 70.5 -227.5
s32 -157.834 41 -237.501s13.5 -155.5 13.5 -227.5v-61c0 -72 -4.5 -147.833 -13.5 -227.5s-22.667 -158.834 -41 -237.501s-41.833 -154.334 -70.5 -227.001s-62.667 -138.334 -102 -197.001c-5.33301 -8 -12.666 -12 -21.999 -12h-90c-9.33301 0 -11.333 4 -6 12
c39.333 60 73.5 127 102.5 201s53 150.5 72 229.5s33 158.333 42 238s13.5 154.834 13.5 225.501v51z" />
    <glyph glyph-name="asterisk" unicode="*" horiz-adv-x="929" 
d="M336 1171l14.001 7.99902c4.66699 2.66699 8.66699 4.66699 12 6c4 2 8 3.66699 12 5c-4 1.33301 -8 3 -12 5c-8.66699 3.33301 -17.667 8 -27 14l-207 120c-8 4.66699 -9.66699 11 -5 19l33 59c4.66699 8 11 9.66699 19 5l208 -120
c8.66699 -5.33301 16.667 -10.666 24 -15.999l12 -8c-0.666992 4.66699 -1.33398 9.66699 -2.00098 15c-0.666992 4.66699 -1 10 -1 16v20v231c0 9.33301 4.66699 14 14 14h69c9.33301 0 14 -4.66699 14 -14v-231c0 -7.33301 -0.166992 -14 -0.5 -20
s-0.833008 -11.333 -1.5 -16c-0.666992 -5.33301 -1 -10.333 -1 -15l12 8c3.33301 2.66699 7 5.33398 11 8.00098s8.33301 5.33398 13 8.00098l208 120c8 4.66699 14.333 3 19 -5l34 -59c4.66699 -8 3 -14.333 -5 -19l-207 -119c-5.33301 -3.33301 -10.5 -6.33301 -15.5 -9
s-9.16699 -4.66699 -12.5 -6c-4 -2 -8 -3.66699 -12 -5c4 -1.33301 8.33301 -3 13 -5c4 -1.33301 8.16699 -3.33301 12.5 -6s9.16602 -5.33398 14.499 -8.00098l207 -120c8 -4.66699 9.66699 -11 5 -19l-34 -60c-4.66699 -8 -11 -9.66699 -19 -5l-211 122
c-4.66699 2.66699 -8.83398 5.33398 -12.501 8.00098s-7.16699 5 -10.5 7c-3.33301 2.66699 -6.66602 5 -9.99902 7c0 -4 0.333008 -8.33301 1 -13c0.666992 -4 1.16699 -8.33301 1.5 -13s0.5 -9.33398 0.5 -14.001v-243c0 -9.33301 -4.66699 -14 -14 -14h-69
c-9.33301 0 -14 4.66699 -14 14v246v14c0 4.66699 0.333008 8.66699 1 12c0.666992 4 1.33398 7.66699 2.00098 11c-4 -2.66699 -7.66699 -5.33398 -11 -8.00098s-7 -5.16699 -11 -7.5s-8 -4.83301 -12 -7.5l-210 -121c-8 -4.66699 -14.333 -3 -19 5l-33 60
c-4.66699 8 -3 14.333 5 19z" />
    <glyph glyph-name="plus" unicode="+" horiz-adv-x="1021" 
d="M116 745c-9.33301 0 -14 4.66699 -14 14v81c0 9.33301 4.66699 14 14 14h340v340c0 9.33301 4.66699 14 14 14h81c9.33301 0 14 -4.66699 14 -14v-340h340c9.33301 0 14 -4.66699 14 -14v-81c0 -9.33301 -4.66699 -14 -14 -14h-340v-340c0 -9.33301 -4.66699 -14 -14 -14
h-81c-9.33301 0 -14 4.66699 -14 14v340h-340z" />
    <glyph glyph-name="comma" unicode="," horiz-adv-x="447" 
d="M94 -233c-9.33301 0 -13 4.66699 -11 14l79 434c2 10 7.66699 15.333 17 16l114 20c9.33301 0.666992 13 -3.33301 11 -12l-117 -458c-2 -9.33301 -7.66699 -14 -17 -14h-76z" />
    <glyph glyph-name="hyphen" unicode="-" horiz-adv-x="807" 
d="M175 553c-9.33301 0 -14 4.66699 -14 14v80c0 9.33301 4.66699 14 14 14h458c9.33301 0 14 -4.66699 14 -14v-80c0 -9.33301 -4.66699 -14 -14 -14h-458z" />
    <glyph glyph-name="period" unicode="." horiz-adv-x="425" 
d="M163 0c-9.33301 0 -14 4.66699 -14 14v201c0 9.33301 4.66699 15 14 17l92 18c9.33301 2 14 -1.66699 14 -11v-225c0 -9.33301 -4.66699 -14 -14 -14h-92z" />
    <glyph glyph-name="slash" unicode="/" horiz-adv-x="772" 
d="M100 0c-9.33301 0 -12.666 4.33301 -9.99902 13l488 1530c2.66699 8.66699 8.66699 13 18 13h87c9.33301 0 12.666 -4.33301 9.99902 -13l-488 -1530c-2.66699 -8.66699 -8.66699 -13 -18 -13h-87z" />
    <glyph glyph-name="zero" unicode="0" horiz-adv-x="1290" 
d="M643 -22c-52.667 0 -101.167 2.83301 -145.5 8.5s-84.5 16.5 -120.5 32.5s-67.5 38.333 -94.5 67s-49.667 65.834 -68 111.501s-32.166 101.167 -41.499 166.5s-14 142.666 -14 231.999v282c0 89.333 4.66699 166.5 14 231.5s23.166 120.5 41.499 166.5s41 83.333 68 112
s58.5 51 94.5 67s76.167 27 120.5 33s92.833 9 145.5 9c54 0 103.5 -3 148.5 -9s85.5 -17 121.5 -33s67.5 -38.333 94.5 -67s49.667 -66 68 -112s32 -101.667 41 -167s13.5 -142.333 13.5 -231v-282c0 -89.333 -4.5 -166.666 -13.5 -231.999s-22.667 -120.833 -41 -166.5
s-41 -82.834 -68 -111.501s-58.5 -51 -94.5 -67s-76.5 -26.833 -121.5 -32.5s-94.5 -8.5 -148.5 -8.5zM643 1386c-40.667 0 -78 -2.16699 -112 -6.5s-64.667 -12.833 -92 -25.5s-51.333 -30.5 -72 -53.5s-38 -53.333 -52 -91s-24.5 -83.667 -31.5 -138
s-10.5 -118.833 -10.5 -193.5v-282c0 -74.667 3.5 -139.167 10.5 -193.5s17.5 -100.166 31.5 -137.499s31.333 -67.5 52 -90.5s44.667 -40.833 72 -53.5s58 -21.167 92 -25.5s71.333 -6.5 112 -6.5c41.333 0 79.166 2.16699 113.499 6.5s65.333 12.833 93 25.5
s52 30.5 73 53.5s38.333 53.333 52 91s24 83.667 31 138s10.5 119.166 10.5 194.499v280c0 74.667 -3.5 139.167 -10.5 193.5s-17.333 100.333 -31 138s-31 68 -52 91s-45.333 40.833 -73 53.5s-58.667 21.167 -93 25.5s-72.166 6.5 -113.499 6.5z" />
    <glyph glyph-name="one" unicode="1" horiz-adv-x="731" 
d="M64 1311c-10 -0.666992 -15.333 3.33301 -16 12l-14 80c-0.666992 10 3.33301 15.333 12 16l354 54c4 0.666992 8.66699 1.16699 14 1.5s10 0.5 14 0.5h85c9.33301 0 14 -4.66699 14 -14v-1447c0 -9.33301 -4.66699 -14 -14 -14h-85c-9.33301 0 -14 4.66699 -14 14v1351z
" />
    <glyph glyph-name="two" unicode="2" horiz-adv-x="1081" 
d="M121 0c-9.33301 0 -14 4.66602 -14 13.999v69c0 66.667 5 125.5 15 176.5s26.667 98.5 50 142.5s54.666 86.333 93.999 127s88 84 146 130l225 179l80 65.5c24.667 21 45.834 43 63.501 66s31.5 47.833 41.5 74.5s15 57.334 15 92.001c0 47.333 -5.66699 87 -17 119
s-30.833 57.667 -58.5 77s-65 33 -112 41s-106.167 12 -177.5 12c-42 0 -89.5 -1.83301 -142.5 -5.5s-105.5 -10.167 -157.5 -19.5c-9.33301 -2 -15 1.66699 -17 11l-15 77c-2 9.33301 1.66699 15 11 17c24.667 6 51.334 11 80.001 15s57.5 7.16699 86.5 9.5
s57.167 4.16602 84.5 5.49902s52.333 2 75 2c90 0 165.5 -6.5 226.5 -19.5s110.167 -33.5 147.5 -61.5s64.166 -64.5 80.499 -109.5s24.5 -99.5 24.5 -163.5c0 -43.333 -5.33301 -82 -16 -116s-26.167 -65.667 -46.5 -95s-45.5 -57.666 -75.5 -84.999
s-64.333 -56.333 -103 -87l-197 -156c-58 -46 -105.5 -87.5 -142.5 -124.5s-66.167 -74 -87.5 -111s-36 -76 -44 -117s-12 -88.5 -12 -142.5h700c9.33301 0 14 -4.66699 14 -14v-81c0 -9.33301 -4.66699 -14 -14 -14h-811z" />
    <glyph glyph-name="three" unicode="3" horiz-adv-x="1130" 
d="M462 -22c-56.667 0 -111.328 2.82812 -163.995 8.49512s-100 12.167 -142 19.5c-9.33301 2 -13.666 7.66699 -12.999 17l3 82c0.666992 8.66699 5.66699 12.667 15 12c46.667 -8 95.834 -14.5 147.501 -19.5s100.834 -7.5 147.501 -7.5c69.333 0 129.5 5.33301 180.5 16
s93.167 28.334 126.5 53.001s58 57 74 97s24 89.333 24 148v39c0 32.667 -4.5 66.834 -13.5 102.501s-25 68.334 -48 98.001s-53.833 54 -92.5 73s-87.334 28.5 -146.001 28.5h-343c-9.33301 0 -14 4.66699 -14 14v81c0 9.33301 4.66699 14 14 14h341
c60.667 0 110.667 8.33301 150 25s70.166 37.334 92.499 62.001s37.833 51.5 46.5 80.5s13 55.5 13 79.5v23c0 52 -9.33301 94.833 -28 128.5s-45.334 60.334 -80.001 80.001s-77.167 33.5 -127.5 41.5s-106.833 12 -169.5 12c-48.667 0 -98 -2.83301 -148 -8.5
s-98 -11.5 -144 -17.5c-9.33301 -0.666992 -14.333 3.33301 -15 12l-5 81c-0.666992 10 3.66602 15.333 12.999 16c41.333 7.33301 88.166 13.833 140.499 19.5s106.5 8.5 162.5 8.5c80.667 0 153 -5.83301 217 -17.5s118.333 -31.334 163 -59.001s78.667 -64.667 102 -111
s35 -104.166 35 -173.499v-26c0 -34 -4.83301 -67.167 -14.5 -99.5s-24.667 -62.5 -45 -90.5s-46.333 -52.5 -78 -73.5s-69.834 -36.833 -114.501 -47.5c48 -12.667 88.167 -32.334 120.5 -59.001s58.166 -56.667 77.499 -90s33.166 -68.666 41.499 -105.999
s12.5 -73 12.5 -107v-40c0 -81.333 -11.667 -148.833 -35 -202.5s-57 -96.5 -101 -128.5s-98 -54.667 -162 -68s-136.333 -20 -217 -20z" />
    <glyph glyph-name="four" unicode="4" horiz-adv-x="1180" 
d="M77 387c-9.33301 0 -13.999 4.66797 -13.999 14.001v113c0 9.33301 2.66699 17.666 8 24.999l680 925c5.33301 7.33301 12.666 11 21.999 11h125c9.33301 0 14 -4.66699 14 -14v-972h176c9.33301 0 14 -4.66699 14 -14v-74c0 -9.33301 -4.66699 -14 -14 -14h-176v-373
c0 -9.33301 -4.66699 -14 -14 -14h-86c-9.33301 0 -14 4.66699 -14 14v373h-721zM174.001 489.001h624v841h-15l-609 -830v-11z" />
    <glyph glyph-name="five" unicode="5" horiz-adv-x="1114" 
d="M438 -22c-62.667 0 -119.833 2.83008 -171.5 8.49707s-99.5 13.5 -143.5 23.5c-9.33301 2 -13 7.33301 -11 16l20 78c2 8.66699 7.66699 12.667 17 12c49.333 -9.33301 98.333 -16.166 147 -20.499s95 -6.5 139 -6.5c144 0 252.5 28.5 325.5 85.5
s109.5 142.5 109.5 256.5v43c0 55.333 -8.5 103.833 -25.5 145.5s-43.667 76.334 -80 104.001s-83 48.5 -140 62.5s-125.5 21 -205.5 21c-21.333 0 -44.166 -1 -68.499 -3s-48 -4.5 -71 -7.5s-43.833 -5.83301 -62.5 -8.5s-33 -5 -43 -7
c-9.33301 -0.666992 -14 3.33301 -14 12v69c0 4 0.166992 8.66699 0.5 14s0.5 10 0.5 14l61 571c0.666992 9.33301 5.66699 14 15 14h731c9.33301 0 13 -4.66699 11 -14l-18 -82c-2 -9.33301 -7.66699 -14 -17 -14h-624l-50 -472l18 2.5
c12 1.66699 26.333 3.33398 43 5.00098l52.5 5c18.333 1.66699 34.166 2.5 47.499 2.5c190 0 329.833 -35.333 419.5 -106s134.5 -180 134.5 -328v-43c0 -78 -12.333 -145.333 -37 -202s-60.5 -103.667 -107.5 -141s-104.333 -65 -172 -83s-144.5 -27 -230.5 -27z" />
    <glyph glyph-name="six" unicode="6" horiz-adv-x="1216" 
d="M629 -22c-75.333 0 -142.668 9.83301 -202.001 29.5s-109.333 54.334 -150 104.001s-71.667 117 -93 202s-32 192.5 -32 322.5v219c0 120 11.5 221 34.5 303s58.333 148 106 198s107.834 86 180.501 108s158.667 33 258 33c48 0 95.167 -2.5 141.5 -7.5
s89.5 -12.167 129.5 -21.5c9.33301 -2 13 -7.66699 11 -17l-15 -75c-2 -8.66699 -7.66699 -12.667 -17 -12c-35.333 6 -74.833 11.167 -118.5 15.5s-87.167 6.5 -130.5 6.5c-84 0 -155.5 -8.33301 -214.5 -25s-107.167 -45 -144.5 -85s-64.666 -93 -81.999 -159
s-26 -148.333 -26 -247c22 4 47.5 8.33301 76.5 13s59.667 9 92 13s65.5 7.16699 99.5 9.5s67.667 3.5 101 3.5c73.333 0 139.166 -7.66699 197.499 -23s107.833 -40.333 148.5 -75s71.834 -80.334 93.501 -137.001s32.5 -126 32.5 -208v-13c0 -68.667 -10 -132 -30 -190
s-49.833 -108.167 -89.5 -150.5s-89.334 -75.333 -149.001 -99s-129.167 -35.5 -208.5 -35.5zM991.998 464c0 64 -7.83496 117.666 -23.502 160.999s-38.667 78.333 -69 105s-68.333 45.667 -114 57s-98.5 17 -158.5 17c-31.333 0 -63.666 -1.16699 -96.999 -3.5
s-65.833 -5.16602 -97.5 -8.49902s-62 -7.16602 -91 -11.499s-54.5 -8.5 -76.5 -12.5v-132c0 -112 8 -203.333 24 -274s39.5 -126.334 70.5 -167.001s69.333 -68.5 115 -83.5s97.834 -22.5 156.501 -22.5c61.333 0 114.666 8.5 159.999 25.5s82.833 41.167 112.5 72.5
s51.834 69.333 66.501 114s22 94.667 22 150v13z" />
    <glyph glyph-name="seven" unicode="7" horiz-adv-x="1007" 
d="M166 0c-9.33301 0 -12 4 -8 12l693 1353h-769c-10 0 -15.333 4.66699 -16 14l-13 82c-0.666992 9.33301 3.33301 14 12 14h891c9.33301 0 14 -4.66699 14 -14v-84c0 -9.33301 -2 -18.333 -6 -27l-675 -1337c-3.33301 -8.66699 -10 -13 -20 -13h-103z" />
    <glyph glyph-name="eight" unicode="8" horiz-adv-x="1264" 
d="M632 -22c-74.667 0 -142.334 7.16699 -203.001 21.5s-112.5 37.833 -155.5 70.5s-76.333 75.5 -100 128.5s-35.5 118.167 -35.5 195.5v49c0 26.667 4 56.667 12 90s21.333 66 40 98s43.5 61.5 74.5 88.5s69.833 47.5 116.5 61.5c-38 11.333 -69.833 28.333 -95.5 51
s-46.334 48.667 -62.001 78s-26.834 61 -33.501 95s-10 67.667 -10 101v19c0 63.333 10.333 118.333 31 165s50.334 85.334 89.001 116.001s86 53.5 142 68.5s119.333 22.5 190 22.5s133.834 -7.5 189.501 -22.5s102.834 -37.833 141.501 -68.5
s68.334 -69.334 89.001 -116.001s31 -101.667 31 -165v-19c0 -33.333 -3.33301 -67 -10 -101s-17.667 -65.667 -33 -95s-35.833 -55.333 -61.5 -78s-57.5 -39.667 -95.5 -51c46.667 -14 85.5 -34.5 116.5 -61.5s55.833 -56.5 74.5 -88.5s32 -64.667 40 -98
s12 -63.333 12 -90v-49c0 -77.333 -11.833 -142.5 -35.5 -195.5s-57 -95.833 -100 -128.5s-94.833 -56.167 -155.5 -70.5s-128.334 -21.5 -203.001 -21.5zM290 1102c0 -26.667 3.50195 -55.5 10.502 -86.5s20.333 -59.833 40 -86.5s47 -48.834 82 -66.501
s80.5 -26.5 136.5 -26.5h146c56 0 101.5 8.83301 136.5 26.5s62.333 39.834 82 66.501s33 55.5 40 86.5s10.5 59.833 10.5 86.5v16c0 94 -27.833 162.833 -83.5 206.5s-141.834 65.5 -258.501 65.5s-202.834 -21.833 -258.501 -65.5s-83.5 -112.5 -83.5 -206.5v-16z
M559.002 728c-43.333 0 -81 -5 -113 -15s-59.5 -23.167 -82.5 -39.5s-41.833 -34.833 -56.5 -55.5s-26.167 -41.5 -34.5 -62.5s-14.166 -41.167 -17.499 -60.5s-5 -36 -5 -50v-45c0 -56.667 7.83301 -105 23.5 -145s39.5 -72.5 71.5 -97.5s71.833 -43.333 119.5 -55
s103.5 -17.5 167.5 -17.5s119.833 5.83301 167.5 17.5s87.5 30 119.5 55s55.833 57.5 71.5 97.5s23.5 88.333 23.5 145v45c0 14 -1.66699 30.667 -5 50s-9.33301 39.5 -18 60.5s-20.334 41.833 -35.001 62.5s-33.5 39.167 -56.5 55.5s-50.5 29.5 -82.5 39.5
s-69.333 15 -112 15h-146z" />
    <glyph glyph-name="nine" unicode="9" horiz-adv-x="1216" 
d="M487 -22c-48.667 0 -96.334 2.66699 -143.001 8s-90.334 12 -131.001 20c-9.33301 2 -13 7.66699 -11 17l15 77c2 9.33301 7.66699 13 17 11c36 -6.66699 76.167 -12 120.5 -16s88.5 -6 132.5 -6c78.667 0 146.334 8.33301 203.001 25s103.834 44.667 141.501 84
s66 92 85 158s30.5 148 34.5 246c-22.667 -4.66699 -48.334 -9.33398 -77.001 -14.001s-59 -8.83398 -91 -12.501s-65 -6.66699 -99 -9s-67 -3.5 -99 -3.5c-74 0 -140.333 7.83301 -199 23.5s-108.167 41.334 -148.5 77.001s-71.166 82.334 -92.499 140.001
s-32 128.834 -32 213.501v13c0 70 9.33301 133.667 28 191s47.167 106.5 85.5 147.5s87 72.667 146 95s128.5 33.5 208.5 33.5c73.333 0 140 -9.33301 200 -28s111.167 -51.834 153.5 -99.501s75 -112.5 98 -194.5s34.5 -186.333 34.5 -313v-168
c0 -134.667 -11.5 -247.667 -34.5 -339s-58.333 -165 -106 -221s-108 -96 -181 -120s-159.167 -36 -258.5 -36zM226 1019c0 -66 7.6709 -121.333 23.0039 -166s38.166 -80.667 68.499 -108s68.5 -46.833 114.5 -58.5s99.667 -17.5 161 -17.5
c30.667 0 62.5 0.833008 95.5 2.5s65.333 4 97 7s61.834 6.5 90.501 10.5s54.334 8 77.001 12v162c0 109.333 -8.83301 198 -26.5 266s-42.834 121 -75.501 159s-71.834 63.833 -117.501 77.5s-96.834 20.5 -153.501 20.5c-62.667 0 -116.334 -7.83301 -161.001 -23.5
s-81.334 -38.5 -110.001 -68.5s-49.667 -67 -63 -111s-20 -94.333 -20 -151v-13z" />
    <glyph glyph-name="colon" unicode=":" horiz-adv-x="449" 
d="M178 0c-9.33301 0 -14 4.66699 -14 14v201c0 9.33301 4.66699 15 14 17l92 18c9.33301 2 14 -1.66699 14 -11v-225c0 -9.33301 -4.66699 -14 -14 -14h-92zM178 676c-9.33301 0 -14 4.66699 -14 14v201c0 9.33301 4.66699 15 14 17l92 18c9.33301 2 14 -1.66699 14 -11
v-225c0 -9.33301 -4.66699 -14 -14 -14h-92z" />
    <glyph glyph-name="semicolon" unicode=";" horiz-adv-x="514" 
d="M135 -233c-9.33301 0 -13 4.66699 -11 14l79 434c2 10 7.66699 15.333 17 16l114 20c9.33301 0.666992 13 -3.33301 11 -12l-117 -458c-2 -9.33301 -7.66699 -14 -17 -14h-76zM224 676c-9.33301 0 -14 4.66699 -14 14v201c0 9.33301 4.66699 15 14 17l92 18
c9.33301 2 14 -1.66699 14 -11v-225c0 -9.33301 -4.66699 -14 -14 -14h-92z" />
    <glyph glyph-name="less" unicode="&#x3c;" horiz-adv-x="880" 
d="M95 710c-8 5.33301 -12 12.668 -12 22.001v82c0 9.33301 4 16.666 12 21.999l587 407c7.33301 6 12.666 4.33301 15.999 -5l25 -86c2.66699 -8.66699 0 -15.667 -8 -21l-529 -358l529 -359c8 -5.33301 10.667 -12.333 8 -21l-25 -85
c-3.33301 -9.33301 -8.66602 -11 -15.999 -5z" />
    <glyph glyph-name="equal" unicode="=" horiz-adv-x="1155" 
d="M187 529c-9.33301 0 -14 4.66699 -14 14v80c0 9.33301 4.66699 14 14 14h781c9.33301 0 14 -4.66699 14 -14v-80c0 -9.33301 -4.66699 -14 -14 -14h-781zM187 963c-9.33301 0 -14 4.66699 -14 14v79c0 9.33301 4.66699 14 14 14h781c9.33301 0 14 -4.66699 14 -14v-79
c0 -9.33301 -4.66699 -14 -14 -14h-781z" />
    <glyph glyph-name="greater" unicode="&#x3e;" horiz-adv-x="880" 
d="M198 303c-7.33301 -6 -12.666 -4.33496 -15.999 4.99805l-25 85c-2.66699 8.66699 0 15.667 8 21l529 359l-529 358c-8 5.33301 -10.667 12.333 -8 21l25 86c3.33301 9.33301 8.66602 11 15.999 5l587 -407c8 -5.33301 12 -12.666 12 -21.999v-82
c0 -9.33301 -4 -16.666 -12 -21.999z" />
    <glyph glyph-name="question" unicode="?" horiz-adv-x="849" 
d="M362 411c0 -9.33301 -4.66895 -13.9961 -14.002 -13.9961h-81c-9.33301 0 -14 4.66699 -14 14c0 7.33301 -0.166992 16.666 -0.5 27.999l-1 33.5c-0.333008 11 -0.666016 20.833 -0.999023 29.5s-0.5 14.334 -0.5 17.001c0 36.667 1.33301 68.167 4 94.5
s9.16699 51.333 19.5 75s25.5 48 45.5 73s47 55.167 81 90.5l61 61c30.667 30 57.167 57.833 79.5 83.5s40.833 50 55.5 73s25.5 45.167 32.5 66.5s10.5 43.333 10.5 66v19c0 60 -24.333 102.333 -73 127s-119 37 -211 37c-36 0 -73 -1.33301 -111 -4
s-80.333 -7.33398 -127 -14.001c-9.33301 -0.666992 -15 3.33301 -17 12l-15 78c-2 9.33301 1.66699 15 11 17c40 7.33301 84.333 13 133 17s95 6 139 6c58.667 0 112 -4 160 -12s89.333 -22 124 -42s61.5 -47 80.5 -81s28.5 -76.667 28.5 -128v-14
c0 -28.667 -3.33301 -56.167 -10 -82.5s-18 -53.333 -34 -81s-37 -57.167 -63 -88.5s-58.333 -66 -97 -104l-67 -70c-31.333 -32.667 -55.666 -59.834 -72.999 -81.501s-30 -42.334 -38 -62.001s-12.833 -40.834 -14.5 -63.501s-2.5 -51 -2.5 -85v-91zM269.998 0.00390625
c-9.33301 0 -14 4.66699 -14 14v201c0 9.33301 4.66699 15 14 17l92 18c9.33301 2 14 -1.66699 14 -11v-225c0 -9.33301 -4.66699 -14 -14 -14h-92z" />
    <glyph glyph-name="at" unicode="@" horiz-adv-x="1743" 
d="M236 557c-8 -69.333 -11.5 -136.164 -10.5 -200.497s7.83301 -124.5 20.5 -180.5s32.167 -107.333 58.5 -154s61.5 -86.667 105.5 -120s97.167 -59.5 159.5 -78.5s136.166 -28.833 221.499 -29.5c9.33301 0 13.666 -4.66699 12.999 -14l-8 -77
c-0.666992 -9.33301 -5.66699 -14 -15 -14c-96.667 0.666992 -181.167 11.667 -253.5 33s-134.166 50.833 -185.499 88.5s-93.166 82.667 -125.499 135s-56.666 110.5 -72.999 174.5s-25.5 132.667 -27.5 206s1.66699 150 11 230l14 129
c14.667 130 45.334 241.333 92.001 334s107 168.5 181 227.5s160.333 102.333 259 130s207 41.5 325 41.5c82.667 0 155.5 -7.16699 218.5 -21.5s117.667 -34.333 164 -60s84.833 -56.334 115.5 -92.001s55.334 -75 74.001 -118s32 -88.833 40 -137.5s12 -98.667 12 -150
c0 -108.667 -10.167 -203.167 -30.5 -283.5s-48.333 -149 -84 -206s-77.834 -103.833 -126.501 -140.5s-100.834 -65.5 -156.501 -86.5s-114 -35.5 -175 -43.5s-121.833 -12 -182.5 -12h-15c-77.333 0 -140.833 7.66699 -190.5 23s-88 40.5 -115 75.5s-44 80.833 -51 137.5
s-6.16699 126.667 2.5 210l10 104c9.33301 85.333 23.666 156.666 42.999 213.999s46.5 103.166 81.5 137.499s79.333 58.666 133 72.999s119.167 21.5 196.5 21.5c39.333 0 80.666 -2.16699 123.999 -6.5s87.666 -11.5 132.999 -21.5
c9.33301 -2 13.666 -7.66699 12.999 -17l-55 -812c48.667 16.667 93.5 40.334 134.5 71.001s76.5 71 106.5 121s53.5 111.167 70.5 183.5s25.5 158.833 25.5 259.5c0 69.333 -8.66699 133 -26 191s-46.333 108 -87 150s-94.5 74.833 -161.5 98.5s-149.833 35.5 -248.5 35.5
c-103.333 0 -197.666 -12.167 -282.999 -36.5s-159.666 -62.833 -222.999 -115.5s-115.166 -120.5 -155.499 -203.5s-67.5 -182.833 -81.5 -299.5zM950 964.002c-61.333 0 -111.832 -5.83398 -151.499 -17.501s-72 -31.667 -97 -60s-44.167 -66 -57.5 -113
s-23.666 -105.5 -30.999 -175.5l-6 -67c-7.33301 -71.333 -9.33301 -130.166 -6 -176.499s14.666 -83.333 33.999 -111s48.5 -47 87.5 -58s90.167 -16.5 153.5 -16.5c41.333 0 76.833 1.16699 106.5 3.5s58.5 6.83301 86.5 13.5l49 761l-82 11
c-28.667 4 -57.334 6 -86.001 6z" />
    <glyph glyph-name="A" unicode="A" horiz-adv-x="1290" 
d="M45 0c-10 0 -13 4.33301 -9 13l524 1449c3.33301 8.66699 9.66602 13 18.999 13h132c9.33301 0 15.666 -4.33301 18.999 -13l526 -1449c4 -8.66699 1 -13 -9 -13h-98c-9.33301 -0 -15.666 4.33301 -18.999 13l-146 408h-679l-146 -408
c-3.33301 -8.66699 -9.66602 -13 -18.999 -13h-95zM644 1362l-299 -831h599z" />
    <glyph glyph-name="B" unicode="B" horiz-adv-x="1298" 
d="M569 -20c-25.333 0 -52.6631 0.334961 -81.9961 1.00195s-59.333 1.66699 -90 3s-61.334 2.83301 -92.001 4.5s-60.334 3.83398 -89.001 6.50098c-9.33301 0.666992 -14 5.66699 -14 15v1451c0 5.33301 1 9 3 11s5.66699 3.66699 11 5c22 2 46 4 72 6s53.333 3.5 82 4.5
s57.667 1.83301 87 2.5s58.333 1 87 1c94 0 176.167 -4.5 246.5 -13.5s128.666 -26 174.999 -51s81 -59.667 104 -104s34.5 -101.833 34.5 -172.5v-11c0 -40.667 -4.16699 -77.334 -12.5 -110.001s-19.833 -61.334 -34.5 -86.001s-32 -45.5 -52 -62.5
s-41.667 -30.5 -65 -40.5c34.667 -10 66.167 -24.833 94.5 -44.5s52.5 -45 72.5 -76s35.5 -67.667 46.5 -110s16.5 -91.5 16.5 -147.5v-52c0 -94.667 -12.833 -170.334 -38.5 -227.001s-63.834 -100 -114.501 -130s-113.5 -49.667 -188.5 -59s-161.5 -14 -259.5 -14z
M1056 459.002c0 56.667 -6.83594 103.831 -20.5029 141.498s-32.667 67.5 -57 89.5s-53.666 37.5 -87.999 46.5s-71.833 13.5 -112.5 13.5h-463v-654c42.667 -3.33301 86.667 -5.66602 132 -6.99902s90.333 -2 135 -2c82.667 0 153.834 3 213.501 9
s108.834 19.833 147.501 41.5s67.167 53.834 85.5 96.501s27.5 100.667 27.5 174v51zM556 1385c-48.667 0 -93.167 -0.830078 -133.5 -2.49707s-76.166 -4.16699 -107.499 -7.5v-517h410c45.333 1.33301 84.666 8.33301 117.999 21s60.833 30.167 82.5 52.5
s37.834 49.166 48.501 80.499s16 66.333 16 105v16c0 56 -9.33301 100.667 -28 134s-46.334 58.666 -83.001 75.999s-82 28.666 -136 33.999s-116.333 8 -187 8z" />
    <glyph glyph-name="C" unicode="C" horiz-adv-x="1169" 
d="M741 -22c-94.667 0 -179.002 11.3271 -253.002 33.9941s-136.667 60.834 -188 114.501s-90.5 124.667 -117.5 213s-40.5 198.5 -40.5 330.5v135c0 131.333 13.5 241.333 40.5 330s66.167 159.834 117.5 213.501s114 91.834 188 114.501s158.333 34 253 34
c61.333 0 120 -2.83301 176 -8.5s103.333 -13.167 142 -22.5c5.33301 -1.33301 8.83301 -3.33301 10.5 -6s2.16699 -6.66699 1.5 -12l-14 -75c-2 -9.33301 -7.66699 -13 -17 -11c-44.667 8.66699 -93 14.834 -145 18.501s-102.667 5.5 -152 5.5c-76 0 -144 -9 -204 -27
s-110.667 -49 -152 -93s-72.833 -102.667 -94.5 -176s-32.5 -165 -32.5 -275v-155c0 -110.667 10.833 -202.667 32.5 -276s53 -131.833 94 -175.5s91.5 -74.5 151.5 -92.5s128.333 -27 205 -27c62 0 118.333 2.33301 169 7s96.667 10.667 138 18
c10 2 15.333 -1.66699 16 -11l13 -77c0.666992 -5.33301 0.166992 -9.16602 -1.5 -11.499s-5.16699 -4.16602 -10.5 -5.49902c-39.333 -9.33301 -87.666 -16.833 -144.999 -22.5s-117.666 -8.5 -180.999 -8.5z" />
    <glyph glyph-name="D" unicode="D" horiz-adv-x="1394" 
d="M571 -16c-26 0 -53.6641 0.333008 -82.9971 1s-59.333 1.5 -90 2.5s-61.334 2.5 -92.001 4.5s-60.334 4.33301 -89.001 7c-9.33301 0.666992 -14 5.66699 -14 15v1447c0 9.33301 4.66699 14.333 14 15c28.667 2 59.5 3.5 92.5 4.5l97 3c31.667 1 61.667 1.66699 90 2
s52.833 0.5 73.5 0.5c67.333 0 131 -3.16699 191 -9.5s115.167 -18.333 165.5 -36s95.666 -42.5 135.999 -74.5s74.333 -73.5 102 -124.5s49 -113.167 64 -186.5s22.5 -160 22.5 -260v-113c0 -100 -7.33301 -186.833 -22 -260.5s-36 -136.334 -64 -188.001
s-62 -93.667 -102 -126s-85.167 -57.666 -135.5 -75.999s-105.5 -30.833 -165.5 -37.5s-123.667 -10 -191 -10zM582.003 1379c-17.333 0 -37.834 -0.166016 -61.501 -0.499023s-47.834 -0.833008 -72.501 -1.5s-48.667 -1.5 -72 -2.5s-43.333 -2.16699 -60 -3.5v-1270
c20 -2 41.833 -3.66699 65.5 -5s47.5 -2.5 71.5 -3.5s47.667 -1.66699 71 -2s44.666 -0.5 63.999 -0.5c60 0 115.333 3.16699 166 9.5s96.334 17.5 137.001 33.5s76.334 38.167 107.001 66.5s56.334 64.166 77.001 107.499s36.167 95.5 46.5 156.5s15.5 132.5 15.5 214.5
v119c0 81.333 -5.16699 152.333 -15.5 213s-26 112.5 -47 155.5s-47 78.333 -78 106s-67 49.5 -108 65.5s-87.167 27 -138.5 33s-107.333 9 -168 9z" />
    <glyph glyph-name="E" unicode="E" horiz-adv-x="1183" 
d="M218 0c-9.33301 0 -14 4.66699 -14 14v1447c0 9.33301 4.66699 14 14 14h824c9.33301 0 14 -4.66699 14 -14v-85c0 -9.33301 -4.66699 -14 -14 -14h-725v-502h630c9.33301 0 14 -4.66699 14 -14v-84c0 -9.33301 -4.66699 -14 -14 -14h-630v-636h725
c9.33301 0 14 -4.66699 14 -14v-84c0 -9.33301 -4.66699 -14 -14 -14h-824z" />
    <glyph glyph-name="F" unicode="F" horiz-adv-x="1103" 
d="M218 0c-9.33301 0 -14 4.66699 -14 14v1447c0 9.33301 4.66699 14 14 14h834c9.33301 0 14 -4.66699 14 -14v-85c0 -9.33301 -4.66699 -14 -14 -14h-735v-502h587c9.33301 0 14 -4.66699 14 -14v-84c0 -9.33301 -4.66699 -14 -14 -14h-587v-734
c0 -9.33301 -4.66699 -14 -14 -14h-85z" />
    <glyph glyph-name="G" unicode="G" horiz-adv-x="1261" 
d="M678 661c-9.33301 0 -14.002 4.66602 -14.002 13.999v78c0 9.33301 4.66699 14 14 14h424c4.66699 0 7.33398 -2.33301 8.00098 -7v-1c0 -2 0.166992 -4.33301 0.5 -7s0.5 -5 0.5 -7l1 -704c0 -9.33301 -4.33301 -15.333 -13 -18
c-64.667 -18.667 -127.667 -30.834 -189 -36.501s-121.333 -8.5 -180 -8.5c-96 0 -180.5 11.333 -253.5 34s-134.167 60.834 -183.5 114.501s-86.5 124.667 -111.5 213s-37.5 198.5 -37.5 330.5v135c0 131.333 13.167 241.333 39.5 330s65 159.834 116 213.501
s113.833 91.834 188.5 114.501s160.667 34 258 34c58.667 0 115.834 -2.83301 171.501 -8.5s103.167 -13.834 142.5 -24.501c8.66699 -2.66699 12 -8.66699 10 -18l-14 -73c-2 -9.33301 -7.66699 -13 -17 -11c-44 8 -91.333 13.833 -142 17.5s-100 5.5 -148 5.5
c-80.667 0 -151.334 -9 -212.001 -27s-111.5 -48.833 -152.5 -92.5s-71.833 -102.167 -92.5 -175.5s-31 -165 -31 -275v-155c0 -110.667 9.66699 -202.5 29 -275.5s48.5 -131.333 87.5 -175s87.833 -74.5 146.5 -92.5s127 -27 205 -27c56.667 0 106.834 2 150.501 6
s83.5 9.66699 119.5 17v544z" />
    <glyph glyph-name="H" unicode="H" horiz-adv-x="1406" 
d="M218 0c-9.33301 0 -14 4.66699 -14 14v1447c0 9.33301 4.66699 14 14 14h85c9.33301 0 14 -4.66699 14 -14v-601h772v601c0 9.33301 4.66699 14 14 14h86c9.33301 0 14 -4.66699 14 -14v-1447c0 -9.33301 -4.66699 -14 -14 -14h-86c-9.33301 0 -14 4.66699 -14 14v734
h-772v-734c0 -9.33301 -4.66699 -14 -14 -14h-85z" />
    <glyph glyph-name="I" unicode="I" horiz-adv-x="521" 
d="M218 0c-9.33301 0 -14 4.66699 -14 14v1447c0 9.33301 4.66699 14 14 14h85c9.33301 0 14 -4.66699 14 -14v-1447c0 -9.33301 -4.66699 -14 -14 -14h-85z" />
    <glyph glyph-name="J" unicode="J" horiz-adv-x="520" 
d="M76 -268c-17.333 0 -36.168 1.33398 -56.501 4.00098s-39.166 6 -56.499 10c-9.33301 2.66699 -13 8.33398 -11 17.001l14 77c2 8.66699 7.33301 12 16 10c14 -3.33301 28.167 -5.33301 42.5 -6s28.166 -1 41.499 -1c20.667 0 39.5 1.66699 56.5 5
s31.5 10.666 43.5 21.999s21.167 27.666 27.5 48.999s9.5 50.333 9.5 87v1455c0 9.33301 4.66699 14 14 14h85c9.33301 0 14 -4.66699 14 -14v-1461c0 -53.333 -5.16699 -97.333 -15.5 -132s-25.666 -62 -45.999 -82s-45.5 -34 -75.5 -42s-64.333 -12 -103 -12z" />
    <glyph glyph-name="K" unicode="K" horiz-adv-x="1164" 
d="M1013 0c-5.33301 0 -9.66699 0.833008 -13 2.5s-6.66602 4.5 -9.99902 8.5l-576 746l-96 -91v-652c0 -9.33301 -4.66699 -14 -14 -14h-86c-9.33301 0 -14 4.66699 -14 14v1447c0 9.33301 4.66699 14 14 14h86c9.33301 0 14 -4.66699 14 -14v-648l641 652
c7.33301 6.66699 15.333 10 24 10h129c9.33301 0 10.666 -3.33301 3.99902 -10l-617 -624l641 -830c6 -7.33301 4.33301 -11 -5 -11h-122z" />
    <glyph glyph-name="L" unicode="L" horiz-adv-x="1035" 
d="M218 0c-9.33301 0 -14 4.66699 -14 14v1447c0 9.33301 4.66699 14 14 14h85c9.33301 0 14 -4.66699 14 -14v-1349h667c9.33301 0 14 -4.66699 14 -14v-84c0 -9.33301 -4.66699 -14 -14 -14h-766z" />
    <glyph glyph-name="M" unicode="M" horiz-adv-x="1631" 
d="M218 0c-9.33301 0 -14.001 4.66602 -14.001 13.999v1447c0 9.33301 4.66699 14 14 14h101c9.33301 0 16.333 -4 21 -12l415 -733l61 -110c0 0.666992 1.83301 4.33398 5.5 11.001l14.5 26l19.5 35.5l21.5 39.5l414 731c4.66699 8 11.667 12 21 12h101
c9.33301 0 14 -4.66699 14 -14v-1447c0 -9.33301 -4.66699 -14 -14 -14h-86c-9.33301 0 -14 4.66699 -14 14l-2 1264c-1.33301 -0.666992 -6.16602 -8.66699 -14.499 -24l-28.5 -51l-396 -706c-4.66699 -8 -11.667 -12 -21 -12h-71c-9.33301 0 -16.333 4 -21 12l-393 699
l-31 58c-8.66699 16 -13.667 24 -15 24l-3 -1264c0 -9.33301 -4.66699 -14 -14 -14h-85z" />
    <glyph glyph-name="N" unicode="N" horiz-adv-x="1413" 
d="M218 0c-9.33301 0 -14.001 4.66699 -14.001 14v1447c0 9.33301 4.66699 14 14 14h105c9.33301 0 16.333 -4 21 -12l681 -1152l50 -86.5c12 -21 18.667 -31.5 20 -31.5l1 1268c0 9.33301 4.66699 14 14 14h85c9.33301 0 14 -4.66699 14 -14v-1447
c0 -9.33301 -4.66699 -14 -14 -14h-104c-9.33301 0 -16.333 4 -21 12l-678 1144c-21.333 35.333 -38.666 65 -51.999 89s-20.333 36 -21 36l-2 -1267c0 -9.33301 -4.66699 -14 -14 -14h-85z" />
    <glyph glyph-name="O" unicode="O" horiz-adv-x="1422" 
d="M712 -22c-90.667 0 -171.167 11.3359 -241.5 34.0029s-129.5 60.834 -177.5 114.501s-84.5 124.667 -109.5 213s-37.5 198.5 -37.5 330.5v135c0 131.333 12.5 241.166 37.5 329.499s61.5 159.333 109.5 213s107.167 92 177.5 115s150.833 34.5 241.5 34.5
s171 -11.333 241 -34s128.833 -60.834 176.5 -114.501s83.834 -124.834 108.501 -213.501s37 -198.667 37 -330v-135c0 -132 -12.333 -242.167 -37 -330.5s-60.834 -159.333 -108.501 -213s-106.5 -91.834 -176.5 -114.501s-150.333 -34 -241 -34zM712 1380
c-71.333 0 -134.833 -8.83301 -190.5 -26.5s-102.667 -48.167 -141 -91.5s-67.5 -101.166 -87.5 -173.499s-30 -163.5 -30 -273.5v-155c0 -110 9.83301 -201.333 29.5 -274s48.667 -130.667 87 -174s85.333 -73.833 141 -91.5s119.5 -26.5 191.5 -26.5
c71.333 0 134.833 8.83301 190.5 26.5s102.5 48.167 140.5 91.5s66.833 101.5 86.5 174.5s29.5 164.833 29.5 275.5v153c0 110 -9.83301 201.167 -29.5 273.5s-48.5 130.166 -86.5 173.499s-84.833 73.833 -140.5 91.5s-119.167 26.5 -190.5 26.5z" />
    <glyph glyph-name="P" unicode="P" horiz-adv-x="1265" 
d="M527 1385c-12 0 -27.666 -0.333008 -46.999 -1l-59.5 -2c-20.333 -0.666992 -40 -1.66699 -59 -3s-33.833 -2.33301 -44.5 -3v-724c10.667 -1.33301 25.5 -2.33301 44.5 -3l59 -2c20.333 -0.666992 40.166 -1.16699 59.499 -1.5s35 -0.5 47 -0.5
c98.667 0 181.5 4.5 248.5 13.5s121 26 162 51s70.167 59.833 87.5 104.5s26 102.667 26 174v53c0 71.333 -8.66699 129.5 -26 174.5s-46.5 80 -87.5 105s-95 42 -162 51s-149.833 13.5 -248.5 13.5zM218.001 0c-9.33301 0 -13.998 4.66602 -13.998 13.999v1451
c0 9.33301 4.66699 14.333 14 15c23.333 1.33301 49.333 2.66602 78 3.99902s57.167 2.5 85.5 3.5s55.166 1.83301 80.499 2.5s46.666 1 63.999 1c114 0 211.333 -5.33301 292 -16s146.834 -31.834 198.501 -63.501s89.5 -76.167 113.5 -133.5s36 -132.666 36 -225.999v-74
c0 -93.333 -12 -168.833 -36 -226.5s-61.833 -102.167 -113.5 -133.5s-117.834 -52.333 -198.501 -63s-178 -16 -292 -16c-14 0 -32 0.166992 -54 0.5s-43.667 0.833008 -65 1.5s-40.5 1.33398 -57.5 2.00098s-27.833 1.33398 -32.5 2.00098v-531
c0 -9.33301 -4.66699 -14 -14 -14h-85z" />
    <glyph glyph-name="Q" unicode="Q" horiz-adv-x="1423" 
d="M717 -22c-92 0 -173.332 11.335 -243.999 34.002s-130.334 60.834 -179.001 114.501s-85.5 124.667 -110.5 213s-37.5 198.5 -37.5 330.5v135c0 131.333 12.5 241.166 37.5 329.499s61.5 159.333 109.5 213s107.167 92 177.5 115s150.833 34.5 241.5 34.5
s171 -11.333 241 -34s128.833 -60.834 176.5 -114.501s83.834 -124.834 108.501 -213.501s37 -198.667 37 -330v-135c0 -114.667 -9.33301 -213 -28 -295s-46.334 -150 -83.001 -204s-81.667 -95.667 -135 -125s-115 -49 -185 -59l226 -364c4 -8 1.66699 -12 -7 -12h-108
c-9.33301 0 -16.333 4 -21 12zM712.001 1380c-71.333 0 -134.833 -8.83301 -190.5 -26.5s-102.667 -48.167 -141 -91.5s-67.5 -101.166 -87.5 -173.499s-30 -163.5 -30 -273.5v-155c0 -110 9.83301 -201.333 29.5 -274s48.667 -130.667 87 -174s85.333 -73.833 141 -91.5
s119.5 -26.5 191.5 -26.5c71.333 0 134.833 8.83301 190.5 26.5s102.5 48.167 140.5 91.5s66.833 101.5 86.5 174.5s29.5 164.833 29.5 275.5v153c0 110 -9.83301 201.167 -29.5 273.5s-48.5 130.166 -86.5 173.499s-84.833 73.833 -140.5 91.5s-119.167 26.5 -190.5 26.5z
" />
    <glyph glyph-name="R" unicode="R" horiz-adv-x="1330" 
d="M1112 0c-9.33301 0 -16.3311 4.00098 -20.998 12.001l-345 558c-24.667 -1.33301 -50.334 -2.33301 -77.001 -3s-54.667 -1 -84 -1h-64.5c-21 0 -42.167 0.333008 -63.5 1l-66.5 2c-23 0.666992 -47.833 2 -74.5 4v-559c0 -9.33301 -4.66699 -14 -14 -14h-85
c-9.33301 0 -14 4.66699 -14 14v1445c0 9.33301 4.66699 14.333 14 15c64.667 5.33301 126.667 8.66602 186 9.99902s118.666 2 177.999 2c108 0 200.833 -4 278.5 -12s141.167 -26.333 190.5 -55s85.666 -70.5 108.999 -125.5s35 -129.5 35 -223.5v-91
c0 -80.667 -9.16699 -146.667 -27.5 -198s-48.5 -92.666 -90.5 -123.999c-24.667 -19.333 -54 -34.833 -88 -46.5s-73.333 -20.834 -118 -27.501c12.667 -16.667 23.334 -32 32.001 -46l332 -525c4.66699 -8 2.66699 -12 -6 -12h-116zM584.002 1379l-72.999 -0.000976562
c-26 0 -51.333 -0.333008 -76 -1s-47.5 -1.5 -68.5 -2.5s-37.833 -2.5 -50.5 -4.5v-691c22 -2 45.5 -3.5 70.5 -4.5s49.667 -1.83301 74 -2.5s47.166 -1 68.499 -1h55c90.667 0 167.5 3 230.5 9s114.167 20.167 153.5 42.5s67.833 55.333 85.5 99s26.5 102.834 26.5 177.501
v59c0 76 -9.5 135.5 -28.5 178.5s-48.5 75 -88.5 96s-91.333 33.833 -154 38.5s-137.667 7 -225 7z" />
    <glyph glyph-name="S" unicode="S" horiz-adv-x="1162" 
d="M502 -22c-31.333 0 -63.1602 0.831055 -95.4932 2.49805s-64 3.83398 -95 6.50098s-60.667 6 -89 10s-53.833 8.66699 -76.5 14c-9.33301 2 -12.666 7.33301 -9.99902 16l22 76c1.33301 5.33301 3.33301 8.66602 6 9.99902s6.66699 1.66602 12 0.999023
c63.333 -10 120.666 -16.833 171.999 -20.5s101.666 -5.5 150.999 -5.5c66 0 122.667 3 170 9s87.333 14.667 120 26s58.834 25.333 78.501 42s34.667 35.834 45 57.501s17.166 45.834 20.499 72.501s5 55.334 5 86.001c0 42 -4 77.167 -12 105.5s-24.167 53.833 -48.5 76.5
s-59.333 45 -105 67s-105.834 47.667 -180.501 77l-134 53c-60.667 24.667 -112.5 48.5 -155.5 71.5s-78.333 48.833 -106 77.5s-47.834 61.834 -60.501 99.501s-19 83.5 -19 137.5c0 62 9.66699 115.167 29 159.5s50.5 80.666 93.5 108.999s99 49.166 168 62.499
s152.833 20 251.5 20c58 0 115.167 -2.5 171.5 -7.5s105.166 -12.167 146.499 -21.5c9.33301 -2 13 -7.33301 11 -16l-17 -74c-2 -9.33301 -7.66699 -13 -17 -11c-20 3.33301 -42.167 6.33301 -66.5 9s-49.5 4.83398 -75.5 6.50098s-51.833 2.83398 -77.5 3.50098
s-49.5 1 -71.5 1c-79.333 0 -146.333 -4 -201 -12s-99 -21.167 -133 -39.5s-58.5 -42.833 -73.5 -73.5s-22.5 -69 -22.5 -115s6.66699 -84 20 -114s33.5 -56 60.5 -78s61.167 -41.667 102.5 -59s90 -36.333 146 -57l156 -59c67.333 -25.333 122.666 -50.5 165.999 -75.5
s77.666 -52.833 102.999 -83.5s42.833 -65.334 52.5 -104.001s14.5 -83.667 14.5 -135c0 -42 -2.66699 -81 -8 -117s-15.5 -69 -30.5 -99s-35.333 -56.667 -61 -80s-59 -43 -100 -59s-90.333 -28.167 -148 -36.5s-125.834 -12.5 -204.501 -12.5z" />
    <glyph glyph-name="T" unicode="T" horiz-adv-x="1182" 
d="M548 0c-9.33301 0 -14 4.66699 -14 14v1348h-488c-9.33301 0 -14 4.66699 -14 14v85c0 9.33301 4.66699 14 14 14h1090c9.33301 0 14 -4.66699 14 -14v-85c0 -9.33301 -4.66699 -14 -14 -14h-488v-1348c0 -9.33301 -4.66699 -14 -14 -14h-86z" />
    <glyph glyph-name="U" unicode="U" horiz-adv-x="1427" 
d="M709 -22c-83.333 0 -157.331 9.33301 -221.998 28s-119.334 48.667 -164.001 90s-78.5 95 -101.5 161s-34.5 146.333 -34.5 241v963c0 9.33301 4.66699 14 14 14h86c9.33301 0 14 -4.66699 14 -14v-934c0 -74 6.66699 -138.333 20 -193s35.833 -100.167 67.5 -136.5
s73.667 -63.5 126 -81.5s117.166 -27 194.499 -27c80 0 146.667 8.83301 200 26.5s96.333 44.667 129 81s55.834 82 69.501 137s20.5 119.5 20.5 193.5v934c0 9.33301 4.66699 14 14 14h84c9.33301 0 14 -4.66699 14 -14v-963c0 -94.667 -11.833 -175 -35.5 -241
s-58.167 -119.667 -103.5 -161s-100.833 -71.333 -166.5 -90s-140.834 -28 -225.501 -28z" />
    <glyph glyph-name="V" unicode="V" horiz-adv-x="1285" 
d="M641 108h2l483 1354c3.33301 8.66699 9.66602 13 18.999 13h97c10 0 13 -4.33301 9 -13l-525 -1449c-3.33301 -8.66699 -9.66602 -13 -18.999 -13h-131c-9.33301 -0 -15.666 4.33301 -18.999 13l-522 1449c-4 8.66699 -1 13 9 13h93
c9.33301 0 15.666 -4.33301 18.999 -13z" />
    <glyph glyph-name="W" unicode="W" horiz-adv-x="1817" 
d="M407 0c-9.33301 0 -14.999 4.66797 -16.999 14.001l-316 1447c-2 9.33301 1.66699 14 11 14h97c9.33301 0 15 -4.66699 17 -14l229 -1127l47 -233l6 22l15 56l19.5 74.5l20.5 77.5l308 1130c2.66699 9.33301 8.66699 14 18 14h90c9.33301 0 15.333 -4.33301 18 -13
l309 -1124l21.5 -82l20.5 -76.5l15 -56.5l6 -22l48 241l226 1119c2 9.33301 7.66699 14 17 14h99c9.33301 0 13 -4.66699 11 -14l-316 -1447c-2 -9.33301 -7.66699 -14 -17 -14h-130c-9.33301 0 -15.333 4.33301 -18 13l-326 1174l-10 37.5l-9 34l-6.5 26
c-1.66699 7 -2.83398 11.5 -3.50098 13.5c0 -1.33301 -0.833008 -5.5 -2.5 -12.5l-6 -26l-8 -34.5c-3 -12.667 -6.16699 -25.334 -9.5 -38.001l-328 -1174c-2.66699 -8.66699 -8.66699 -13 -18 -13h-128z" />
    <glyph glyph-name="X" unicode="X" horiz-adv-x="1234" 
d="M1063 0c-9.33301 0 -16.666 4 -21.999 12l-423 642l-424 -642c-5.33301 -8 -12.666 -12 -21.999 -12h-113c-9.33301 0 -11.333 4 -6 12l492 724l-492 727c-5.33301 8 -3.33301 12 6 12h113c9.33301 0 16.666 -4 21.999 -12l423 -642l424 642
c5.33301 8 12.666 12 21.999 12h113c8.66699 0 10.667 -4 6 -12l-493 -726l493 -725c4.66699 -8 2.66699 -12 -6 -12h-113z" />
    <glyph glyph-name="Y" unicode="Y" horiz-adv-x="1154" 
d="M535 0c-9.33301 0 -14 4.66699 -14 14v501l-492 948c-4 8 -1.33301 12 8 12h99c10 0 16.667 -4 20 -12l422 -811l422 811c3.33301 8 10 12 20 12h97c9.33301 0 12 -4 8 -12l-490 -948v-501c0 -9.33301 -4.66699 -14 -14 -14h-86z" />
    <glyph glyph-name="Z" unicode="Z" horiz-adv-x="1170" 
d="M108 0c-9.33301 0 -14 4.66699 -14 14v78c0 9.33301 2.66699 18 8 26l837 1248h-815c-9.33301 0 -14 4.66699 -14 14v81c0 9.33301 4.66699 14 14 14h930c9.33301 0 14 -4.66699 14 -14v-78c0 -9.33301 -2.66699 -18 -8 -26l-833 -1249h829c9.33301 0 14 -4.66699 14 -14
v-80c0 -9.33301 -4.66699 -14 -14 -14h-948z" />
    <glyph glyph-name="bracketleft" unicode="[" horiz-adv-x="588" 
d="M194 -389c-9.33301 0 -14 4.66699 -14 14v1917c0 9.33301 4.66699 14 14 14h386c9.33301 0 14 -4.66699 14 -14v-81c0 -9.33301 -4.66699 -14 -14 -14h-286v-1727h286c9.33301 0 14 -4.66699 14 -14v-81c0 -9.33301 -4.66699 -14 -14 -14h-386z" />
    <glyph glyph-name="backslash" unicode="\" horiz-adv-x="772" 
d="M585 0c-9.33301 0 -15.333 4.33301 -18 13l-488 1530c-2.66699 8.66699 0.666016 13 9.99902 13h87c9.33301 0 15.333 -4.33301 18 -13l488 -1530c2.66699 -8.66699 -0.666016 -13 -9.99902 -13h-87z" />
    <glyph glyph-name="bracketright" unicode="]" horiz-adv-x="588" 
d="M8 -389c-9.33301 0 -14 4.66699 -14 14v81c0 9.33301 4.66699 14 14 14h286v1727h-286c-9.33301 0 -14 4.66699 -14 14v81c0 9.33301 4.66699 14 14 14h386c9.33301 0 14 -4.66699 14 -14v-1917c0 -9.33301 -4.66699 -14 -14 -14h-386z" />
    <glyph glyph-name="asciicircum" unicode="^" horiz-adv-x="1212" 
d="M279 1162c-8.66699 0 -10.332 3.33301 -4.99902 10l268 291c3.33301 3.33301 6.66602 5.83301 9.99902 7.5s7.66602 2.5 12.999 2.5h82c5.33301 0 9.66602 -0.833008 12.999 -2.5s6.66602 -4.16699 9.99902 -7.5l269 -291c5.33301 -6.66699 3.66602 -10 -5.00098 -10
h-114c-5.33301 0 -9.66602 0.833008 -12.999 2.5s-6.66602 4.16699 -9.99902 7.5l-191 214l-190 -214c-3.33301 -3.33301 -6.66602 -5.83301 -9.99902 -7.5s-7.66602 -2.5 -12.999 -2.5h-114z" />
    <glyph glyph-name="underscore" unicode="_" horiz-adv-x="918" 
d="M66 -221c-9.33301 0 -14 4.66699 -14 14v80c0 9.33301 4.66699 14 14 14h786c9.33301 0 14 -4.66699 14 -14v-80c0 -9.33301 -4.66699 -14 -14 -14h-786z" />
    <glyph glyph-name="grave" unicode="`" 
d="M452 1262c-5.33301 0 -9.66699 0.833008 -13 2.5s-6.66602 4.5 -9.99902 8.5l-199 237c-6 7.33301 -4.33301 11 5 11h119c9.33301 0 16.666 -3.66699 21.999 -11l173 -237c5.33301 -7.33301 3.33301 -11 -6 -11h-91z" />
    <glyph glyph-name="a" unicode="a" horiz-adv-x="1093" 
d="M565 75c45.333 0 89.5 1.66797 132.5 5.00098s84.167 7.66602 123.5 12.999v446h-165c-95.333 0 -172.5 -3 -231.5 -9s-104.667 -17.333 -137 -34s-54.166 -39.834 -65.499 -69.501s-17 -68.167 -17 -115.5c0 -52 8.5 -93.667 25.5 -125s41.167 -55.166 72.5 -71.499
s69.166 -27 113.499 -32s93.833 -7.5 148.5 -7.5zM534 990.001c-58.667 0 -113.166 -2.33203 -163.499 -6.99902s-101.166 -11.334 -152.499 -20.001c-9.33301 -0.666992 -14 3.33301 -14 12v71c0 9.33301 4.66699 15 14 17c26 4.66699 53.667 8.83398 83 12.501
s58.166 6.83398 86.499 9.50098s55.666 4.66699 81.999 6s50.166 2 71.499 2c87.333 0 156.666 -7.16699 207.999 -21.5s90.5 -37.5 117.5 -69.5s44.333 -73.667 52 -125s11.5 -114 11.5 -188v-665c0 -10 -4.66699 -15.333 -14 -16
c-29.333 -4.66699 -60 -8.83398 -92 -12.501s-63.667 -6.83398 -95 -9.50098s-61.166 -4.66699 -89.499 -6s-53.166 -2 -74.499 -2c-79.333 0 -148 4.83301 -206 14.5s-106.333 27 -145 52s-67.334 59 -86.001 102s-28 97.5 -28 163.5c0 42 3.33301 79.333 10 112
s18.167 61.167 34.5 85.5s38.5 44.833 66.5 61.5s63 30 105 40s91.833 17.167 149.5 21.5s124.834 6.5 201.501 6.5h154v85c0 54 -3.66699 98.333 -11 133s-21.5 62 -42.5 82s-50.167 33.833 -87.5 41.5s-86 11.5 -146 11.5z" />
    <glyph glyph-name="b" unicode="b" horiz-adv-x="1152" 
d="M529 989c-18 0 -37.833 -0.499023 -59.5 -1.49902s-43.334 -2.33301 -65.001 -4s-43 -3.83398 -64 -6.50098s-40.167 -5.66699 -57.5 -9v-871c38.667 -5.33301 78.834 -9.5 120.501 -12.5s84.167 -4.5 127.5 -4.5c76.667 0 139.5 6.66699 188.5 20s87.5 36 115.5 68
s47.333 74.833 58 128.5s16 121.167 16 202.5v76c0 80 -5.16699 146.5 -15.5 199.5s-29.5 95.333 -57.5 127s-66.667 54.167 -116 67.5s-113 20 -191 20zM529 -21.999c-52 0 -106.667 2.00098 -164 6.00098s-117.333 11.667 -180 23c-9.33301 2 -14 7.66699 -14 17v1564
c0 9.33301 4.66699 15 14 17l84 18c9.33301 2 14 -1.66699 14 -11v-544c36 6 76.333 11.5 121 16.5s89 7.5 133 7.5c92.667 0 169.667 -8.66699 231 -26s110.5 -45.833 147.5 -85.5s63.167 -91.167 78.5 -154.5s23 -141 23 -233v-117c0 -95.333 -8 -174.833 -24 -238.5
s-43 -114.834 -81 -153.501s-88.167 -66 -150.5 -82s-139.833 -24 -232.5 -24z" />
    <glyph glyph-name="c" unicode="c" horiz-adv-x="964" 
d="M628 -22c-92 0 -169.501 7.66602 -232.501 22.999s-114 42.5 -153 81.5s-67 91.333 -84 157s-25.5 149.167 -25.5 250.5v92c0 92.667 7.83301 171.334 23.5 236.001s42.5 117.334 80.5 158.001s88.833 70.167 152.5 88.5s143.167 27.5 238.5 27.5
c43.333 0 84.833 -2 124.5 -6s75.834 -8.66699 108.501 -14c9.33301 -2 13 -7.66699 11 -17l-13 -69c-2 -8.66699 -7.66699 -12.667 -17 -12c-32 5.33301 -66.667 9 -104 11s-73.333 3 -108 3c-77.333 0 -140.833 -6.83301 -190.5 -20.5s-88.834 -36.834 -117.501 -69.501
s-48.667 -76.167 -60 -130.5s-17 -121.833 -17 -202.5v-61c0 -82.667 5.66699 -151.167 17 -205.5s31.333 -97.666 60 -129.999s67.834 -55 117.501 -68s113.167 -19.5 190.5 -19.5c38 0 75.333 1.16699 112 3.5s71 6.16602 103 11.499c10 2 15.333 -1.66699 16 -11l12 -71
c0.666992 -9.33301 -3.33301 -15 -12 -17c-32.667 -5.33301 -70.167 -9.83301 -112.5 -13.5s-82.5 -5.5 -120.5 -5.5z" />
    <glyph glyph-name="d" unicode="d" horiz-adv-x="1151" 
d="M621 989c-76.667 0 -139.503 -6.66699 -188.503 -20s-87.5 -35.833 -115.5 -67.5s-47.333 -74.167 -58 -127.5s-16 -120 -16 -200v-74c0 -81.333 5.16699 -149 15.5 -203s29.666 -97 57.999 -129s67.333 -54.667 117 -68s114.167 -20 193.5 -20
c41.333 0 82.833 1.5 124.5 4.5s80.834 7.16699 117.501 12.5v868c-17.333 4 -36.666 7.5 -57.999 10.5s-43.166 5.5 -65.499 7.5s-44.166 3.5 -65.499 4.5s-41 1.5 -59 1.5zM626.997 -22c-94 0 -172.5 8.33008 -235.5 24.9971s-113.667 44.334 -152 83.001
s-65.5 89.834 -81.5 153.501s-24 142.834 -24 237.501v116c0 93.333 7.83301 171.833 23.5 235.5s42.167 115 79.5 154s87 67 149 84s139.667 25.5 233 25.5c42 0 85.167 -2.5 129.5 -7.5s84.5 -11.167 120.5 -18.5v522c0 9.33301 4.66699 15 14 17l83 18
c9.33301 2 14 -1.66699 14 -11v-1588c0 -10 -4.66699 -15.333 -14 -16c-121.333 -20 -234.333 -30 -339 -30z" />
    <glyph glyph-name="e" unicode="e" horiz-adv-x="1151" 
d="M602 -22c-84.667 0 -156.831 9.16797 -216.498 27.501s-108.334 48.333 -146.001 90s-65.167 95.834 -82.5 162.501s-26 148.667 -26 246v78c0 86 8.16699 161 24.5 225s42.666 117 78.999 159s83.5 73.5 141.5 94.5s128.667 31.5 212 31.5c82 0 151.667 -10 209 -30
s104.333 -49.833 141 -89.5s63.334 -89 80.001 -148s25 -127.5 25 -205.5c0 -26 -1.16699 -48.667 -3.5 -68s-4.16602 -33.666 -5.49902 -42.999c-2 -9.33301 -7.66699 -14 -17 -14l-776 -1c0.666992 -76.667 7 -141.334 19 -194.001s32 -95.334 60 -128.001
s65.167 -56.167 111.5 -70.5s104.166 -21.5 173.499 -21.5c28.667 0 56.5 0.166992 83.5 0.5s54 1.33301 81 3s54.5 4.16699 82.5 7.5s57.333 7.66602 88 12.999c10 0.666992 15.333 -3.33301 16 -12l12 -68c0.666992 -9.33301 -3.33301 -15 -12 -17
c-28 -5.33301 -55.833 -9.83301 -83.5 -13.5s-55.667 -6.5 -84 -8.5s-57.833 -3.5 -88.5 -4.5s-63.334 -1.5 -98.001 -1.5zM940.003 595.001c-1.33301 68 -7.83203 126.834 -19.499 176.501s-31 90.667 -58 123s-62.833 56.333 -107.5 72s-100.334 23.5 -167.001 23.5
c-65.333 0 -119.833 -7.83301 -163.5 -23.5s-79 -39.834 -106 -72.501s-46.5 -74.167 -58.5 -124.5s-18.333 -110.5 -19 -180.5z" />
    <glyph glyph-name="f" unicode="f" horiz-adv-x="705" 
d="M286 0c-9.33301 0 -14 4.66797 -14 14.001v955l-209 10c-9.33301 0.666992 -14 5.66699 -14 15v63c0 9.33301 4.66699 14 14 14h209v224c0 59.333 5 110 15 152s27.5 76.167 52.5 102.5s58.333 45.666 100 57.999s94.167 18.5 157.5 18.5c32 0 63.5 -1.33301 94.5 -4
s58.5 -5.66699 82.5 -9c9.33301 -0.666992 13 -6 11 -16l-14 -70c-2 -8.66699 -7.66699 -12.667 -17 -12c-22 2 -47.167 3.5 -75.5 4.5s-52.5 1.5 -72.5 1.5c-46 0 -83.5 -4 -112.5 -12s-51.667 -21 -68 -39s-27.5 -41.5 -33.5 -70.5s-9 -64.167 -9 -105.5v-223h276
c8.66699 0 12.667 -4.66699 12 -14l-14 -74c-0.666992 -9.33301 -6 -14 -16 -14h-258v-955c0 -9.33301 -4.66699 -14 -14 -14h-83z" />
    <glyph glyph-name="g" unicode="g" horiz-adv-x="1151" 
d="M621 990c-78 0 -141.502 -6.83301 -190.502 -20.5s-87.5 -36.5 -115.5 -68.5s-47 -74.833 -57 -128.5s-15 -120.5 -15 -200.5v-76c0 -79.333 5.16699 -145.333 15.5 -198s29.833 -95 58.5 -127s68.334 -54.667 119.001 -68s116.334 -20 197.001 -20
c17.333 0 36.333 0.5 57 1.5s41.5 2.5 62.5 4.5s41.5 4.5 61.5 7.5s38.333 6.5 55 10.5v867c-38 5.33301 -77.833 9.33301 -119.5 12s-84.5 4 -128.5 4zM489.998 -473c-18 0 -38.502 0.500977 -61.502 1.50098s-46.833 2.66699 -71.5 5s-49 5.16602 -73 8.49902
s-46 7.33301 -66 12c-5.33301 1.33301 -8.83301 3.33301 -10.5 6s-2.16699 6.66699 -1.5 12l11 68c0.666992 9.33301 6 13 16 11c36.667 -9.33301 76.834 -15.666 120.501 -18.999s86.5 -5 128.5 -5c70 0 129.5 4.5 178.5 13.5s89 27 120 54s53.5 65.167 67.5 114.5
s21 114.666 21 195.999c-32.667 -7.33301 -70.167 -13.333 -112.5 -18s-84.5 -7 -126.5 -7c-96 0 -175.833 8.83301 -239.5 26.5s-114.5 46.167 -152.5 85.5s-64.833 90.5 -80.5 153.5s-23.5 140.167 -23.5 231.5v116c0 94.667 8 174 24 238s42.833 115.333 80.5 154
s87.834 66.167 150.501 82.5s140.667 24.5 234 24.5c51.333 0 106.166 -1.83301 164.499 -5.5s117.833 -11.167 178.5 -22.5c9.33301 -2 14 -7.66699 14 -17v-1044c0 -98 -9.83301 -178 -29.5 -240s-49.667 -110.5 -90 -145.5s-91.166 -58.833 -152.499 -71.5
s-134 -19 -218 -19z" />
    <glyph glyph-name="h" unicode="h" horiz-adv-x="1185" 
d="M924 0c-9.33301 0 -14.002 4.66699 -14.002 14v613c0 70 -3.66699 128 -11 174s-21.166 82.5 -41.499 109.5s-48.5 45.833 -84.5 56.5s-82.667 16 -140 16c-27.333 0 -56 -1.83301 -86 -5.5s-60.333 -9.33398 -91 -17.001s-60.667 -17.167 -90 -28.5
s-57 -24.666 -83 -39.999v-878c0 -9.33301 -4.66699 -14 -14 -14h-83c-9.33301 0 -14 4.66699 -14 14v1574c0 9.33301 4.66699 15 14 17l83 18c9.33301 2 14 -1.66699 14 -11v-615c26 14.667 54.5 27.834 85.5 39.501s62.833 21.667 95.5 30s65.334 14.666 98.001 18.999
s64 6.5 94 6.5c72.667 0 132.5 -7.33301 179.5 -22s84.167 -39.5 111.5 -74.5s46.333 -81.5 57 -139.5s16 -130.333 16 -217v-625c0 -9.33301 -4.66699 -14 -14 -14h-82z" />
    <glyph glyph-name="i" unicode="i" horiz-adv-x="469" 
d="M194 0c-9.33301 0 -14 4.66699 -14 14v1043c0 9.33301 4.66699 14 14 14h82c9.33301 0 14 -4.66699 14 -14v-1043c0 -9.33301 -4.66699 -14 -14 -14h-82zM188 1252c-9.33301 0 -14 4.66699 -14 14v258c0 9.33301 4.66699 15 14 17l93 18c9.33301 2 14 -1.66699 14 -11
v-282c0 -9.33301 -4.66699 -14 -14 -14h-93z" />
    <glyph glyph-name="j" unicode="j" horiz-adv-x="469" 
d="M-1 -473c-22 0 -46.832 1.00098 -74.499 3.00098s-52.167 5.66699 -73.5 11c-9.33301 2.66699 -13 8.33398 -11 17.001l14 70c2 8.66699 7.66699 12.667 17 12c18 -3.33301 37.833 -6.16602 59.5 -8.49902s42.167 -3.5 61.5 -3.5c37.333 0 68.166 3.16699 92.499 9.5
s43.5 17.666 57.5 33.999s23.833 38.666 29.5 66.999s8.5 64.5 8.5 108.5v1210c0 9.33301 4.66699 14 14 14h82c9.33301 0 14 -4.66699 14 -14v-1210c0 -66 -5.33301 -119.667 -16 -161s-27.5 -73.833 -50.5 -97.5s-53 -39.834 -90 -48.501s-81.833 -13 -134.5 -13z
M188.001 1252c-9.33301 0 -14 4.66699 -14 14v258c0 9.33301 4.66699 15 14 17l93 18c9.33301 2 14 -1.66699 14 -11v-282c0 -9.33301 -4.66699 -14 -14 -14h-93z" />
    <glyph glyph-name="k" unicode="k" horiz-adv-x="1044" 
d="M883 0c-9.33301 0 -16.667 3.66699 -22 11l-431 616l-147 -117v-496c0 -9.33301 -4.66699 -14 -14 -14h-83c-9.33301 0 -14 4.66699 -14 14v1574c0 9.33301 4.66699 15 14 17l83 18c9.33301 2 14 -1.66699 14 -11v-973l533 423c6.66699 6 15 9 25 9h130
c9.33301 0 10.333 -3 3 -9l-459 -366l495 -685c5.33301 -7.33301 3.33301 -11 -6 -11h-121z" />
    <glyph glyph-name="l" unicode="l" horiz-adv-x="486" 
d="M202 0c-9.33301 0 -14 4.66699 -14 14v1574c0 9.33301 4.66699 15 14 17l82 18c9.33301 2 14 -1.66699 14 -11v-1598c0 -9.33301 -4.66699 -14 -14 -14h-82z" />
    <glyph glyph-name="m" unicode="m" horiz-adv-x="1721" 
d="M186 0c-9.33301 0 -13.9971 4.66797 -13.9971 14.001v1062c0 9.33301 4.66699 14 14 14h60c9.33301 0 15 -4.66699 17 -14l17 -83c40 29.333 87.333 53.166 142 71.499s110.334 27.5 167.001 27.5c60.667 0 112.167 -7 154.5 -21s77.166 -37.667 104.499 -71
c56.667 30 114.667 52.833 174 68.5s116.666 23.5 171.999 23.5c67.333 0 124 -7 170 -21s83.333 -37 112 -69s49.167 -73.667 61.5 -125s18.5 -114 18.5 -188v-675c0 -9.33301 -4.66699 -14 -14 -14h-83c-9.33301 0 -14 4.66699 -14 14v641
c0 68.667 -4.33301 124.5 -13 167.5s-23.334 76.5 -44.001 100.5s-48.167 40.167 -82.5 48.5s-76.833 12.5 -127.5 12.5c-46 0 -92.167 -5.33301 -138.5 -16s-94.5 -28.667 -144.5 -54c11.333 -32 19.666 -68.833 24.999 -110.5s8 -89.5 8 -143.5v-646
c0 -9.33301 -4.66699 -14 -14 -14h-81c-9.33301 0 -14 4.66699 -14 14v636c0 68.667 -4.5 124.667 -13.5 168s-23.5 77.333 -43.5 102s-46.167 41.5 -78.5 50.5s-71.5 13.5 -117.5 13.5c-44 0 -90.833 -6.5 -140.5 -19.5s-97.167 -37.167 -142.5 -72.5v-878
c0 -9.33301 -4.66699 -14 -14 -14h-83z" />
    <glyph glyph-name="n" unicode="n" horiz-adv-x="1185" 
d="M924 0c-9.33301 0 -13.999 4.66895 -13.999 14.002v629c0 64 -4.5 117.667 -13.5 161s-24 78.166 -45 104.499s-48.667 45.333 -83 57s-76.833 17.5 -127.5 17.5c-58.667 0 -119.167 -7.66699 -181.5 -23s-121.166 -38 -176.499 -68v-878
c0 -9.33301 -4.66699 -14 -14 -14h-83c-9.33301 0 -14 4.66699 -14 14v1062c0 9.33301 4.66699 14 14 14h60c9.33301 0 15 -4.66699 17 -14l17 -85c60.667 32 123.667 56.833 189 74.5s130.666 26.5 195.999 26.5c68 0 124.667 -7.83301 170 -23.5
s81.666 -40.834 108.999 -75.501s46.833 -79.667 58.5 -135s17.5 -122.333 17.5 -201v-643c0 -9.33301 -4.66699 -14 -14 -14h-82z" />
    <glyph glyph-name="o" unicode="o" horiz-adv-x="1176" 
d="M588 990c-66.667 0 -122.166 -7.99805 -166.499 -23.998s-79.833 -41.167 -106.5 -75.5s-45.667 -78 -57 -131s-17 -116.5 -17 -190.5v-69c0 -74 5.5 -137.5 16.5 -190.5s29.833 -96.5 56.5 -130.5s62.167 -59.167 106.5 -75.5s100.166 -24.5 167.499 -24.5
c66.667 0 122.167 8 166.5 24s79.833 41.167 106.5 75.5s45.667 78.166 57 131.499s17 117.333 17 192v67c0 73.333 -5.5 136.5 -16.5 189.5s-29.667 96.667 -56 131s-61.833 59.666 -106.5 75.999s-100.667 24.5 -168 24.5zM588.001 -21.998
c-82 0 -151.833 9.83301 -209.5 29.5s-104.834 50.167 -141.501 91.5s-63.5 94.333 -80.5 159s-25.5 142 -25.5 232v87c0 90 8.5 167.5 25.5 232.5s43.833 118.333 80.5 160s83.834 72.5 141.501 92.5s127.5 30 209.5 30s152 -10 210 -30s105.167 -50.833 141.5 -92.5
s62.833 -95 79.5 -160s25 -142.5 25 -232.5v-87c0 -90 -8.33301 -167.333 -25 -232s-43.167 -117.667 -79.5 -159s-83.5 -71.833 -141.5 -91.5s-128 -29.5 -210 -29.5z" />
    <glyph glyph-name="p" unicode="p" horiz-adv-x="1151" 
d="M529 989c-42 0 -84.1689 -1.33398 -126.502 -4.00098s-82.166 -6.66699 -119.499 -12v-870c17.333 -4 36.333 -7.33301 57 -10s41.834 -5 63.501 -7s43.167 -3.5 64.5 -4.5s41.666 -1.5 60.999 -1.5c78 0 141.667 6.66699 191 20s88 36 116 68s47.167 74.833 57.5 128.5
s15.5 120.5 15.5 200.5v75c0 80.667 -5.33301 147.834 -16 201.501s-30 96.5 -58 128.5s-66.667 54.5 -116 67.5s-112.666 19.5 -189.999 19.5zM184.998 -451.001c-9.33301 0 -14.0029 4.66797 -14.0029 14.001v1484c0 10 4.66699 15.333 14 16
c62.667 11.333 122.667 19 180 23s112 6 164 6c92.667 0 170.167 -8 232.5 -24s112.5 -43.167 150.5 -81.5s65 -89.5 81 -153.5s24 -144 24 -240v-113c0 -93.333 -7.66699 -171.833 -23 -235.5s-41.666 -115.334 -78.999 -155.001s-87.166 -68.167 -149.499 -85.5
s-140.833 -26 -235.5 -26c-41.333 0 -84.166 2.33301 -128.499 7s-83.833 10.667 -118.5 18v-440c0 -9.33301 -4.66699 -14 -14 -14h-84z" />
    <glyph glyph-name="q" unicode="q" horiz-adv-x="1151" 
d="M623 989c-77.333 0 -140.669 -6.49902 -190.002 -19.499s-88 -35.5 -116 -67.5s-47.333 -74.833 -58 -128.5s-16 -120.834 -16 -201.501v-75c0 -80 5.16699 -146.833 15.5 -200.5s29.5 -96.5 57.5 -128.5s66.833 -54.667 116.5 -68s113.834 -20 192.501 -20
c18 0 37.667 0.5 59 1.5s42.833 2.5 64.5 4.5s42.834 4.33301 63.501 7s40 6 58 10v870c-38 5.33301 -78 9.33301 -120 12s-84.333 4 -127 4zM883.997 -450.999c-9.33301 0 -13.999 4.66699 -13.999 14v440c-36 -7.33301 -75.833 -13.333 -119.5 -18s-85.834 -7 -126.501 -7
c-94.667 0 -173.5 8.66699 -236.5 26s-113.167 45.666 -150.5 84.999s-63.833 90.833 -79.5 154.5s-23.5 141.834 -23.5 234.501v115c0 96 8 176 24 240s43 115.167 81 153.5s88.333 65.5 151 81.5s140.667 24 234 24c52 0 107 -2.16699 165 -6.5s117 -11.833 177 -22.5
c9.33301 -0.666992 14 -6 14 -16v-1484c0 -9.33301 -4.66699 -14 -14 -14h-82z" />
    <glyph glyph-name="r" unicode="r" horiz-adv-x="697" 
d="M186 0c-9.33301 0 -13.9971 4.66699 -13.9971 14v1062c0 9.33301 4.66699 14 14 14h60c9.33301 0 15 -4.66699 17 -14l14 -70c20 14 42 26.5 66 37.5s49.333 20 76 27s53.667 12.333 81 16s54.333 5.5 81 5.5c13.333 0 25.666 -0.333008 36.999 -1s21 -1.66699 29 -3
c9.33301 -2 13.666 -7.33301 12.999 -16l-9 -83c-2 -9.33301 -7.33301 -13.666 -16 -12.999c-9.33301 1.33301 -18.5 2.16602 -27.5 2.49902s-19.167 0.5 -30.5 0.5c-52 0 -101.833 -5 -149.5 -15s-95.834 -29.333 -144.501 -58v-892c0 -9.33301 -4.66699 -14 -14 -14h-83z
" />
    <glyph glyph-name="s" unicode="s" horiz-adv-x="982" 
d="M441 -22c-18 0 -39.6699 0.49707 -65.0029 1.49707s-52 2.66699 -80 5s-56 5.5 -84 9.5s-54 9 -78 15c-5.33301 1.33301 -8.66602 3.33301 -9.99902 6s-1.66602 6.66699 -0.999023 12l13 69c0.666992 9.33301 6 13 16 11c51.333 -10.667 99.333 -17.834 144 -21.501
s91.667 -5.5 141 -5.5c62 0 114.167 2.83301 156.5 8.5s76.5 15.5 102.5 29.5s44.667 33 56 57s17 54.333 17 91c0 28.667 -3.16699 52.667 -9.5 72s-18 36.833 -35 52.5s-40.333 30.334 -70 44.001s-68.167 29.5 -115.5 47.5l-184 67c-40 14.667 -75 29.667 -105 45
s-55 33.5 -75 54.5s-35 46 -45 75s-15 64.5 -15 106.5c0 50 7.83301 91.667 23.5 125s40.5 60.166 74.5 80.499s77.5 34.833 130.5 43.5s116.5 13 190.5 13c52.667 0 103.667 -2.16699 153 -6.5s92 -9.16602 128 -14.499c9.33301 -0.666992 13 -6 11 -16l-13 -69
c-2 -10 -7.66699 -14 -17 -12l-53 6c-18 2 -37.167 3.66699 -57.5 5s-42.166 2.33301 -65.499 3s-49 1 -77 1c-62 0 -113.5 -2.33301 -154.5 -7s-73.5 -13.167 -97.5 -25.5s-41 -28.833 -51 -49.5s-15 -47 -15 -79c0 -26 2.33301 -47.833 7 -65.5s14.5 -33.667 29.5 -48
s36.667 -28.166 65 -41.499s66.5 -29 114.5 -47l155 -55c51.333 -18.667 95 -36.5 131 -53.5s65.333 -36.5 88 -58.5s39.167 -48 49.5 -78s15.5 -67.333 15.5 -112c0 -56 -8.33301 -102.667 -25 -140s-42.834 -67.166 -78.501 -89.499s-81.167 -38.166 -136.5 -47.499
s-121.666 -14 -198.999 -14z" />
    <glyph glyph-name="t" unicode="t" horiz-adv-x="767" 
d="M489 -22c-38.667 0 -72.167 3.16602 -100.5 9.49902s-52 19.333 -71 39s-33.167 47.5 -42.5 83.5s-14 83.667 -14 143v718l-211 11c-9.33301 0.666992 -14 5.66699 -14 15v60c0 9.33301 4.66699 14 14 14h211v199c0 9.33301 4.66699 15 14 17l83 18
c9.33301 2 14 -1.66699 14 -11v-223h335c9.33301 0 13 -4.66699 11 -14l-15 -72c-2 -9.33301 -7.66699 -14 -17 -14h-314v-715c0 -38.667 2.33301 -69.5 7 -92.5s12.5 -40.667 23.5 -53s25.333 -20.333 43 -24s39.5 -5.5 65.5 -5.5c23.333 0 47.833 1.33301 73.5 4
s48.167 6 67.5 10c10 2 15.333 -1.66699 16 -11l10 -67c2 -9.33301 -2 -15.333 -12 -18c-21.333 -5.33301 -48 -10.166 -80 -14.499s-64.333 -6.5 -97 -6.5z" />
    <glyph glyph-name="u" unicode="u" horiz-adv-x="1182" 
d="M609 -22c-88.667 0 -161.332 7.8291 -217.999 23.4961s-101.5 41.334 -134.5 77.001s-55.833 82 -68.5 139s-19 126.833 -19 209.5v630c0 9.33301 4.66699 14 14 14h83c9.33301 0 14 -4.66699 14 -14v-626c0 -70.667 5 -128.667 15 -174s27.5 -81 52.5 -107
s58.5 -43.833 100.5 -53.5s95 -14.5 159 -14.5c24 0 49 0.833008 75 2.5s51.833 3.83398 77.5 6.50098s50.167 5.83398 73.5 9.50098s44.333 7.83398 63 12.501v944c0 9.33301 4.66699 14 14 14h83c9.33301 0 14 -4.66699 14 -14v-1013c0 -9.33301 -4.66699 -15 -14 -17
c-24 -6 -50.5 -12 -79.5 -18s-60 -11.167 -93 -15.5s-67.333 -8 -103 -11s-71.834 -4.5 -108.501 -4.5z" />
    <glyph glyph-name="v" unicode="v" horiz-adv-x="1011" 
d="M445 0c-9.33301 0 -15.666 4.33301 -18.999 13l-380 1045c-4 8.66699 -1 13 9 13h92c9.33301 0 15.666 -4.33301 18.999 -13l339 -947l340 947c3.33301 8.66699 9.66602 13 18.999 13h92c10 0 13 -4.33301 9 -13l-380 -1045c-3.33301 -8.66699 -9.66602 -13 -18.999 -13
h-121z" />
    <glyph glyph-name="w" unicode="w" horiz-adv-x="1637" 
d="M374 0c-9.33301 0 -15.335 4.33008 -18.002 12.9971l-293 1045c-2.66699 8.66699 0.666016 13 9.99902 13h91c9.33301 0 15.333 -4.66699 18 -14l236 -863l7 -26.5c2.66699 -10.333 5 -20.166 7 -29.499s3.83301 -17.166 5.5 -23.499s2.83398 -9.5 3.50098 -9.5
c1.33301 0.666992 4.5 9.83398 9.5 27.501s11.167 38.167 18.5 61.5l288 864c2.66699 8.66699 8.66699 13 18 13h88c9.33301 0 15.333 -4.33301 18 -13l285 -866l11 -32.5c3.33301 -10.333 6.16602 -19.5 8.49902 -27.5s4.33301 -14.5 6 -19.5s2.83398 -7.5 3.50098 -7.5
s1.83398 3.33301 3.50098 10l6 24c2.33301 9.33301 4.83301 18.833 7.5 28.5l7 25.5l237 864c2.66699 9.33301 8.66699 14 18 14h90c9.33301 0 12.666 -4.33301 9.99902 -13l-294 -1045c-2.66699 -8.66699 -8.66699 -13 -18 -13h-115
c-9.33301 -0 -15.666 4.33301 -18.999 13l-286 827l-8 26.5l-7 24.5l-5 18c-1.33301 4.66699 -2.33301 7 -3 7s-1.66699 -2.5 -3 -7.5l-5 -18.5c-2 -7.33301 -4.5 -15.5 -7.5 -24.5l-8.5 -25.5l-287 -827c-3.33301 -8.66699 -9.66602 -13 -18.999 -13h-115z" />
    <glyph glyph-name="x" unicode="x" horiz-adv-x="1039" 
d="M863 0c-9.33301 0 -16.666 3.66699 -21.999 11l-322 452l-323 -452c-5.33301 -7.33301 -12.666 -11 -21.999 -11h-103c-9.33301 0 -11.333 3.66699 -6 11l383 524l-383 525c-5.33301 7.33301 -3.33301 11 6 11h103c9.33301 0 16.666 -3.66699 21.999 -11l323 -454
l322 454c5.33301 7.33301 12.666 11 21.999 11h105c9.33301 0 11.333 -3.66699 6 -11l-384 -525l384 -524c5.33301 -7.33301 3.33301 -11 -6 -11h-105z" />
    <glyph glyph-name="y" unicode="y" horiz-adv-x="973" 
d="M158 -473c-17.333 0 -36.667 1.16699 -58 3.5s-40.666 5.83301 -57.999 10.5c-5.33301 1.33301 -8.83301 3.16602 -10.5 5.49902s-2.16699 6.16602 -1.5 11.499l13 71c2 9.33301 7.66699 13 17 11c15.333 -3.33301 31.5 -6 48.5 -8s32.5 -3 46.5 -3
c28 0 52.833 1.5 74.5 4.5s41.167 8.83301 58.5 17.5s33.333 21.334 48 38.001s29 38.834 43 66.501s28.5 61.334 43.5 101.001s31.5 87.5 49.5 143.5h-3c-8.66699 0 -15.667 3.66699 -21 11c-5.33301 6.66699 -11.666 16.667 -18.999 30s-15 30.666 -23 51.999l-362 965
c-2.66699 8.66699 0.333008 13 9 13h94c9.33301 0 15.666 -4.33301 18.999 -13l298 -806l15.5 -46l13.5 -39l9.5 -27.5c2.33301 -7 4.16602 -10.5 5.49902 -10.5l292 929c2.66699 8.66699 8.66699 13 18 13h95c9.33301 0 12.666 -4.33301 9.99902 -13l-372 -1140
c-18.667 -56 -36.167 -104.667 -52.5 -146s-33.166 -76.5 -50.499 -105.5s-35.333 -52.5 -54 -70.5s-39.5 -32.167 -62.5 -42.5s-48.667 -17.333 -77 -21s-60.5 -5.5 -96.5 -5.5z" />
    <glyph glyph-name="z" unicode="z" horiz-adv-x="1002" 
d="M118 967c-9.33301 0 -14 4.66797 -14 14.001v76c0 9.33301 4.66699 14 14 14h765c9.33301 0 14 -4.66699 14 -14v-73c0 -9.33301 -3 -17.333 -9 -24l-653 -856h650c9.33301 0 14 -4.66699 14 -14v-76c0 -9.33301 -4.66699 -14 -14 -14h-769
c-9.33301 0 -14 4.66699 -14 14v60c0 10.667 1 18.667 3 24s5.66699 11.666 11 18.999l650 850h-648z" />
    <glyph glyph-name="braceleft" unicode="{" horiz-adv-x="627" 
d="M446 -389c-42 0 -77.5 2.65918 -106.5 7.99219s-52.5 16.833 -70.5 34.5s-31 43.5 -39 77.5s-12 79.667 -12 137v353c0 40 -1.5 73.333 -4.5 100s-8.5 49.5 -16.5 68.5s-19.5 35.333 -34.5 49s-34.5 27.5 -58.5 41.5c-8 4.66699 -12 11.667 -12 21v84
c0 9.33301 4 16.333 12 21c24 13.333 43.5 26.833 58.5 40.5s26.5 30 34.5 49s13.5 41.833 16.5 68.5s4.5 60 4.5 100v353c0 58 4 104 12 138s21 59.833 39 77.5s41.5 29.167 70.5 34.5s64.5 8 106.5 8h137c9.33301 0 14 -4.66699 14 -14v-82
c0 -9.33301 -4.66699 -14 -14 -14h-135c-24.667 0 -44.667 -1.66699 -60 -5s-27.166 -10.166 -35.499 -20.499s-13.833 -25.166 -16.5 -44.499s-4 -44.666 -4 -75.999v-355c0 -44 -1.83301 -82.333 -5.5 -115s-10.334 -61.167 -20.001 -85.5s-23 -45.5 -40 -63.5
s-38.833 -35 -65.5 -51v-12c26.667 -16 48.5 -33.167 65.5 -51.5s30.333 -39.666 40 -63.999s16.334 -52.666 20.001 -84.999s5.5 -70.5 5.5 -114.5v-356c0 -31.333 1.33301 -56.666 4 -75.999s8.16699 -34.166 16.5 -44.499s20.166 -17.166 35.499 -20.499s35.333 -5 60 -5
h135c9.33301 0 14 -4.66699 14 -14v-81c0 -9.33301 -4.66699 -14 -14 -14h-137v0z" />
    <glyph glyph-name="bar" unicode="|" horiz-adv-x="476" 
d="M195 -389c-9.33301 0 -14 4.66699 -14 14v1836c0 9.33301 4.66699 14 14 14h86c9.33301 0 14 -4.66699 14 -14v-1836c0 -9.33301 -4.66699 -14 -14 -14h-86z" />
    <glyph glyph-name="braceright" unicode="}" horiz-adv-x="627" 
d="M44 -389c-9.33301 0 -14 4.6748 -14 14.0078v81c0 9.33301 4.66699 14 14 14h135c24.667 0 44.667 1.66699 60 5s27.166 10.166 35.499 20.499s13.833 25.166 16.5 44.499s4 44.666 4 75.999v356c0 44 1.83301 82.167 5.5 114.5s10.334 60.666 20.001 84.999
s23 45.666 40 63.999s38.833 35.5 65.5 51.5v12c-26.667 16 -48.5 33 -65.5 51s-30.333 39.167 -40 63.5s-16.334 52.833 -20.001 85.5s-5.5 71 -5.5 115v355c0 31.333 -1.33301 56.666 -4 75.999s-8.16699 34.166 -16.5 44.499s-20.166 17.166 -35.499 20.499
s-35.333 5 -60 5h-135c-9.33301 0 -14 4.66699 -14 14v82c0 9.33301 4.66699 14 14 14h137c42 0 77.5 -2.66699 106.5 -8s52.5 -16.833 70.5 -34.5s31 -43.5 39 -77.5s12 -80 12 -138v-353c0 -40 1.5 -73.333 4.5 -100s8.5 -49.5 16.5 -68.5s19.5 -35.333 34.5 -49
s34.5 -27.167 58.5 -40.5c8 -4.66699 12 -11.667 12 -21v-84c0 -9.33301 -4 -16.333 -12 -21c-24 -14 -43.5 -27.833 -58.5 -41.5s-26.5 -30 -34.5 -49s-13.5 -41.833 -16.5 -68.5s-4.5 -60 -4.5 -100v-353c0 -57.333 -4 -103 -12 -137s-21 -59.833 -39 -77.5
s-41.5 -29.167 -70.5 -34.5s-64.5 -8 -106.5 -8h-137z" />
    <glyph glyph-name="asciitilde" unicode="~" horiz-adv-x="1025" 
d="M165 638c-9.33301 0 -14.002 4.66406 -14.002 13.9971v37c0 54.667 5.83301 97.834 17.5 129.501s26.334 55.5 44.001 71.5s37 26.167 58 30.5s41.167 6.5 60.5 6.5c33.333 0 62.833 -6 88.5 -18s51.167 -29 76.5 -51l63 -55c24.667 -21.333 47.667 -38.833 69 -52.5
s44 -20.5 68 -20.5c14 0 26.667 1.83301 38 5.5s20.833 11.667 28.5 24s13.667 30.333 18 54s6.83301 55.167 7.5 94.5c0 9.33301 4.66699 14 14 14h66c9.33301 0 14 -4.66699 14 -14v-37c0 -54 -5.83301 -96.667 -17.5 -128s-26.167 -55.166 -43.5 -71.499
s-36.666 -26.666 -57.999 -30.999s-41.333 -6.5 -60 -6.5c-34 0 -64 5.83301 -90 17.5s-51.667 28.5 -77 50.5l-61 54c-25.333 22 -48.5 40 -69.5 54s-43.833 21 -68.5 21c-14 0 -26.667 -2 -38 -6s-20.833 -12.167 -28.5 -24.5s-13.667 -30.333 -18 -54
s-6.83301 -55.167 -7.5 -94.5c0 -9.33301 -4.66699 -14 -14 -14h-66z" />
    <glyph glyph-name="uni007F" horiz-adv-x="0" 
 />
    <glyph glyph-name="uni00A0" unicode="&#xa0;" horiz-adv-x="508" 
 />
    <glyph glyph-name="exclamdown" unicode="&#xa1;" horiz-adv-x="477" 
d="M279 624c9.33301 0 14 -4.66699 14 -14l7 -1000c0 -9.33301 -4.66699 -15 -14 -17l-93 -18c-9.33301 -2 -14 1.66699 -14 11l7 1024c0 9.33301 4.66699 14 14 14h79zM287 1071c9.33301 0 14 -4.66699 14 -14v-201c0 -9.33301 -4.66699 -15 -14 -17l-92 -18
c-9.33301 -2 -14 1.66699 -14 11v225c0 9.33301 4.66699 14 14 14h92z" />
    <glyph glyph-name="cent" unicode="&#xa2;" horiz-adv-x="943" 
d="M488 -262c-9.33301 0 -14.002 4.66406 -14.002 13.9971v232c-65.333 6 -120.666 19.333 -165.999 40s-82 51.334 -110 92.001s-48.333 92.834 -61 156.501s-19 141.5 -19 233.5v114c0 86 5.66699 160 17 222s30.833 114 58.5 156s64.334 74.667 110.001 98
s102.5 39 170.5 47v232c0 9.33301 4.66699 14 14 14h76c9.33301 0 14 -4.66699 14 -14v-227c3.33301 0 6.33301 0.166992 9 0.5s5.66699 0.5 9 0.5c42.667 0 83.334 -1.66699 122.001 -5s73.667 -8.33301 105 -15c9.33301 -2 13 -7.33301 11 -16l-16 -73
c-2 -8.66699 -7.66699 -12.667 -17 -12c-31.333 5.33301 -64.833 9.16602 -100.5 11.499s-69.834 3.5 -102.501 3.5h-20v-964h20c36 0 71.667 1.16699 107 3.5s67.666 6.5 96.999 12.5c9.33301 2 15 -1.66699 17 -11l15 -70c2 -9.33301 -1.66699 -15 -11 -17
c-15.333 -3.33301 -32.166 -6.16602 -50.499 -8.49902s-37.5 -4.16602 -57.5 -5.49902s-40.167 -2.5 -60.5 -3.5s-39.833 -1.5 -58.5 -1.5h-18v-226c0 -9.33301 -4.66699 -14 -14 -14h-76zM226.998 517.997c0 -72 3.66992 -133.667 11.0029 -185s20.333 -94 39 -128
s44 -60.5 76 -79.5s72.333 -32.167 121 -39.5v948c-48.667 -7.33301 -88.834 -20.833 -120.501 -40.5s-56.834 -46.667 -75.501 -81s-31.834 -76.833 -39.501 -127.5s-11.5 -111 -11.5 -181v-86z" />
    <glyph glyph-name="sterling" unicode="&#xa3;" horiz-adv-x="1077" 
d="M130 735c-9.33301 0 -13.999 4.66406 -13.999 13.9971v81c0 9.33301 4.66699 14 14 14h111v193c0 52.667 2.33301 100.167 7 142.5s13.667 79.833 27 112.5s31.333 60.5 54 83.5s52 41.833 88 56.5s79.333 25.5 130 32.5s110.667 10.5 180 10.5h171
c9.33301 0 14 -4.66699 14 -14v-82c0 -9.33301 -4.66699 -14 -14 -14h-169c-80 0 -144.333 -5.33301 -193 -16s-86.334 -28.667 -113.001 -54s-44.5 -58.833 -53.5 -100.5s-13.5 -93.5 -13.5 -155.5v-195h484c9.33301 0 13 -4.66699 11 -14l-15 -81
c-2 -9.33301 -7.66699 -14 -17 -14h-463v-354c0 -35.333 -1.16699 -66.666 -3.5 -93.999s-6.33301 -51.833 -12 -73.5s-13.167 -41 -22.5 -58s-21.333 -32.5 -36 -46.5h680c9.33301 0 14 -4.66699 14 -14v-81c0 -9.33301 -4.66699 -14 -14 -14h-832
c-9.33301 0 -14 4.66699 -14 14v89c0 9.33301 4 16.333 12 21c24 13.333 43.333 26.833 58 40.5s26 29.834 34 48.501s13.5 41.334 16.5 68.001s4.5 60 4.5 100v354h-111z" />
    <glyph glyph-name="currency" unicode="&#xa4;" horiz-adv-x="1224" 
d="M157 1123c-6.66699 6.66699 -6.66992 13.335 -0.00292969 20.002l57 57c6.66699 6.66699 13.334 6.66699 20.001 0l103 -103c31.333 25.333 69.333 44.5 114 57.5s98 19.5 160 19.5c62.667 0 116.334 -6.5 161.001 -19.5s82.667 -32.167 114 -57.5l103 103
c6.66699 6.66699 13.334 6.66699 20.001 0l57 -57c6.66699 -6.66699 6.66699 -13.334 0 -20.001l-109 -109c19.333 -35.333 33.333 -75 42 -119s13 -92.667 13 -146c0 -54 -4.5 -103.5 -13.5 -148.5s-23.5 -85.5 -43.5 -121.5l111 -110
c6.66699 -6.66699 6.66699 -13.334 0 -20.001l-57 -57c-6.66699 -6.66699 -13.334 -6.66699 -20.001 0l-105 104c-32 -24.667 -70.167 -43.334 -114.5 -56.001s-97.166 -19 -158.499 -19s-114.166 6.5 -158.499 19.5s-82.166 31.833 -113.499 56.5l-105 -105
c-6.66699 -6.66699 -13.334 -6.66699 -20.001 0l-56 57c-6.66699 6.66699 -6.66699 13.334 0 20.001l110 110c-20 36 -34.333 76.5 -43 121.5s-13 94.5 -13 148.5c0 53.333 4.16699 102 12.5 146s22.166 83.667 41.499 119zM312.997 749.001
c0 -50 4.33301 -95.167 13 -135.5s24 -74.5 46 -102.5s52.333 -49.667 91 -65s88 -23 148 -23c60.667 0 110.334 7.66699 149.001 23s69.167 37 91.5 65s37.666 62.167 45.999 102.5s12.5 85.5 12.5 135.5s-4.16699 95 -12.5 135s-23.666 74 -45.999 102
s-52.833 49.5 -91.5 64.5s-88.334 22.5 -149.001 22.5c-60 0 -109.333 -7.5 -148 -22.5s-69 -36.5 -91 -64.5s-37.333 -62 -46 -102s-13 -85 -13 -135z" />
    <glyph glyph-name="yen" unicode="&#xa5;" horiz-adv-x="1238" 
d="M678 528l-6 -13v-137h371c9.33301 0 13 -4.66699 11 -14l-15 -77c-2 -9.33301 -7.66699 -14 -17 -14h-350v-259c0 -9.33301 -4.66699 -14 -14 -14h-86c-9.33301 0 -14 4.66699 -14 14v259h-323c-9.33301 0 -13 4.66699 -11 14l15 77c2 9.33301 7.66699 14 17 14h302v137
l-7 13h-316c-9.33301 0 -13 4.66699 -11 14l15 76c2 9.33301 7.66699 14 17 14h241l-431 831c-4 8 -1.33301 12 8 12h99c10 0 16.667 -4 20 -12l422 -811l422 811c3.33301 8 10 12 20 12h97c9.33301 0 12 -4 8 -12l-430 -831h310c9.33301 0 13 -4.66699 11 -14l-15 -76
c-2 -9.33301 -7.66699 -14 -17 -14h-343z" />
    <glyph glyph-name="brokenbar" unicode="&#xa6;" horiz-adv-x="489" 
d="M209 707c-9.33301 0 -14 4.66699 -14 14l-7 740c0 9.33301 4.66699 14 14 14h85c9.33301 0 14 -4.66699 14 -14l-7 -740c0 -9.33301 -4.66699 -14 -14 -14h-71zM202 -389c-9.33301 0 -14 4.66699 -14 14l7 740c0 9.33301 4.66699 14 14 14h71
c9.33301 0 14 -4.66699 14 -14l7 -740c0 -9.33301 -4.66699 -14 -14 -14h-85z" />
    <glyph glyph-name="section" unicode="&#xa7;" horiz-adv-x="1084" 
d="M463 -450c-26.667 0 -54.333 0.667969 -83 2.00098s-57 3.33301 -85 6s-54.833 6 -80.5 10s-48.834 8.33301 -69.501 13c-9.33301 2 -12.666 7.33301 -9.99902 16l20 78c1.33301 5.33301 3.33301 8.83301 6 10.5s6.66699 2.16699 12 1.5
c56 -9.33301 107 -15.833 153 -19.5s88.667 -5.5 128 -5.5c81.333 0 147.5 6.5 198.5 19.5s90.667 31.167 119 54.5s47.666 51.666 57.999 84.999s15.5 70.333 15.5 111c0 36.667 -4.83301 67.5 -14.5 92.5s-26 47.667 -49 68s-53.5 39.666 -91.5 57.999
s-85.333 38.833 -142 61.5l-125 53c-43.333 18 -83.666 37.5 -120.999 58.5s-69.666 46 -96.999 75s-48.666 63 -63.999 102s-23 85.833 -23 140.5c0 58.667 9 108 27 148s44 74 78 102c-32.667 30 -58.334 66 -77.001 108s-28 93.333 -28 154s9.83301 112.834 29.5 156.501
s49.834 79.334 90.501 107.001s91.667 48 153 61s134 19.5 218 19.5c24.667 0 50 -0.5 76 -1.5s51.333 -2.66699 76 -5s48.334 -5.16602 71.001 -8.49902s43.667 -7.33301 63 -12c9.33301 -2 13 -7.33301 11 -16l-15 -76c-2 -9.33301 -7.66699 -13 -17 -11
c-18 3.33301 -38 6.16602 -60 8.49902s-44.667 4.33301 -68 6s-46.5 2.83398 -69.5 3.50098s-44.833 1 -65.5 1c-61.333 0 -115.333 -4 -162 -12s-85.834 -21.333 -117.501 -40s-55.5 -43.167 -71.5 -73.5s-24 -67.833 -24 -112.5c0 -39.333 6.66699 -73 20 -101
s32.333 -52.667 57 -74s54.667 -40.666 90 -57.999s75.333 -34.666 120 -51.999l141 -58c56 -22 103 -44.5 141 -67.5s68.667 -48.333 92 -76s40.166 -58.834 50.499 -93.501s15.5 -74.667 15.5 -120c0 -58.667 -7.33301 -110.834 -22 -156.501s-38 -84.167 -70 -115.5
c32.667 -30 56.167 -64.333 70.5 -103s21.5 -84.334 21.5 -137.001c0 -58 -7.16699 -110.833 -21.5 -158.5s-40.333 -88.334 -78 -122.001s-88.834 -59.667 -153.501 -78s-147 -27.5 -247 -27.5zM423.001 778.001c-20 7.33301 -39.168 15.167 -57.501 23.5
s-36.166 17.166 -53.499 26.499c-30 -22 -50.833 -49.333 -62.5 -82s-17.5 -66 -17.5 -100c0 -41.333 6.5 -76.833 19.5 -106.5s32 -55.667 57 -78s55.5 -42.333 91.5 -60s77 -35.167 123 -52.5l141 -56c22.667 -9.33301 43.834 -18.5 63.501 -27.5
s38.167 -18.167 55.5 -27.5c23.333 22.667 40.166 50.5 50.499 83.5s15.5 71.5 15.5 115.5c0 38.667 -4.83301 71.334 -14.5 98.001s-26 50.667 -49 72s-53.833 41.333 -92.5 60s-87 39 -145 61z" />
    <glyph glyph-name="dieresis" unicode="&#xa8;" 
d="M197 1252c-9.33301 0 -14 4.66699 -14 14v258c0 9.33301 4.66699 15 14 17l90 18c9.33301 2 14 -1.66699 14 -11v-282c0 -9.33301 -4.66699 -14 -14 -14h-90zM491 1252c-9.33301 0 -14 4.66699 -14 14v258c0 9.33301 4.66699 15 14 17l90 18
c9.33301 2 14 -1.66699 14 -11v-282c0 -9.33301 -4.66699 -14 -14 -14h-90z" />
    <glyph glyph-name="copyright" unicode="&#xa9;" horiz-adv-x="1527" 
d="M802 340c-64.667 0 -119.5 6.16602 -164.5 18.499s-81.5 33.333 -109.5 63s-48.167 68.834 -60.5 117.501s-18.5 109.334 -18.5 182.001v84c0 72.667 6.16699 133.334 18.5 182.001s32.5 87.834 60.5 117.501s64.5 50.667 109.5 63s99.833 18.5 164.5 18.5
c30.667 0 60.334 -1.16699 89.001 -3.5s54.667 -5.83301 78 -10.5c9.33301 -2 13 -7.66699 11 -17l-12 -69c-2 -8.66699 -7.66699 -12.667 -17 -12c-23.333 3.33301 -47.333 5.66602 -72 6.99902s-48.667 2 -72 2c-50 0 -91.167 -4.83301 -123.5 -14.5
s-58 -25.834 -77 -48.501s-32.167 -52.667 -39.5 -90s-11 -83.666 -11 -138.999v-55c0 -55.333 3.66699 -101.833 11 -139.5s20.5 -67.834 39.5 -90.501s44.667 -38.834 77 -48.501s73.5 -14.5 123.5 -14.5c25.333 0 50.5 0.666992 75.5 2s48.167 4 69.5 8
c10 2 15.333 -1.66699 16 -11l13 -72c0.666992 -8.66699 -3.33301 -14 -12 -16c-22.667 -4.66699 -49.334 -8.16699 -80.001 -10.5s-59.667 -3.5 -87 -3.5zM233 763.999c0 -58 2.83301 -112.333 8.5 -163s15.667 -97.167 30 -139.5s34.166 -80.166 59.499 -113.499
s57.666 -61.5 96.999 -84.5s86.5 -40.667 141.5 -53s119.5 -18.5 193.5 -18.5s138.5 6.16699 193.5 18.5s102 30 141 53s71.167 51.167 96.5 84.5s45.166 71.166 59.499 113.499s24.333 88.833 30 139.5s8.5 105 8.5 163s-2.83301 112.333 -8.5 163s-15.667 97 -30 139
s-34.166 79.667 -59.499 113s-57.5 61.5 -96.5 84.5s-86 40.5 -141 52.5s-119.5 18 -193.5 18s-138.5 -6 -193.5 -18s-102.167 -29.5 -141.5 -52.5s-71.666 -51.167 -96.999 -84.5s-45.166 -71 -59.499 -113s-24.333 -88.333 -30 -139s-8.5 -105 -8.5 -163zM1393 763.999
c0 -101.333 -9.33301 -193.333 -28 -276s-51.667 -153.334 -99 -212.001s-111.666 -104 -192.999 -136s-184.666 -48 -309.999 -48c-126 0 -229.5 16 -310.5 48s-145 77.333 -192 136s-79.5 129.334 -97.5 212.001s-27 174.667 -27 276s9 193.166 27 275.499
s50.5 152.833 97.5 211.5s111 103.834 192 135.501s184.5 47.5 310.5 47.5c125.333 0 228.666 -15.833 309.999 -47.5s145.666 -76.834 192.999 -135.501s80.333 -129.167 99 -211.5s28 -174.166 28 -275.499z" />
    <glyph glyph-name="ordfeminine" unicode="&#xaa;" horiz-adv-x="962" 
d="M504 789c30 0 58.6699 0.666992 86.0029 2s54.666 4.66602 81.999 9.99902v293h-106c-60.667 0 -109.834 -2 -147.501 -6s-66.834 -11.5 -87.501 -22.5s-34.667 -26.5 -42 -46.5s-11 -46 -11 -78c0 -34 5.33301 -61.167 16 -81.5s25.667 -35.666 45 -45.999
s43 -17 71 -20s59.333 -4.5 94 -4.5zM481.003 1409c-39.333 0 -76.499 -1.6709 -111.499 -5.00391s-69.833 -7.66602 -104.5 -12.999c-9.33301 -0.666992 -14 3.33301 -14 12v55c0 9.33301 4.66699 15 14 17c18 4 37 7.33301 57 10s40 5 60 7s39.167 3.33301 57.5 4
s34.833 1 49.5 1c64 0 114.667 -5.33301 152 -16s65.666 -27.667 84.999 -51s31.666 -53.666 36.999 -90.999s8 -82.666 8 -135.999v-463c0 -10 -4.66699 -15.333 -14 -16c-21.333 -3.33301 -43.5 -6.16602 -66.5 -8.49902s-45.667 -4.5 -68 -6.5s-43.666 -3.5 -63.999 -4.5
s-38.166 -1.5 -53.499 -1.5c-56 0 -104.5 3.5 -145.5 10.5s-75 19.333 -102 37s-47 41.834 -60 72.501s-19.5 69.667 -19.5 117c0 46 5.66699 84.167 17 114.5s31.666 54.5 60.999 72.5s69.833 30.667 121.5 38s117.5 11 197.5 11h97v55c0 35.333 -2.66699 64.5 -8 87.5
s-15 41.167 -29 54.5s-33.333 22.666 -58 27.999s-56.667 8 -96 8zM170.004 505.996c-9.33301 0 -14 4.66699 -14 14v67c0 9.33301 4.66699 14 14 14h630c9.33301 0 14 -4.66699 14 -14v-67c0 -9.33301 -4.66699 -14 -14 -14h-630z" />
    <glyph glyph-name="guillemotleft" unicode="&#xab;" horiz-adv-x="1149" 
d="M451 140c-8.66699 0 -16.667 3.33203 -24 9.99902l-354 372c-6.66699 6.66699 -6.66699 13.334 0 20.001l354 371c7.33301 6.66699 15.333 10 24 10h116c9.33301 0 10.666 -3.33301 3.99902 -10l-367 -381l367 -382c6.66699 -6.66699 5.33398 -10 -3.99902 -10h-116z
M893 139.999c-8.66699 0 -16.667 3.33203 -24 9.99902l-354 372c-6.66699 6.66699 -6.66699 13.334 0 20.001l354 371c7.33301 6.66699 15.333 10 24 10h116c9.33301 0 10.666 -3.33301 3.99902 -10l-367 -381l367 -382c6.66699 -6.66699 5.33398 -10 -3.99902 -10h-116z
" />
    <glyph glyph-name="logicalnot" unicode="&#xac;" horiz-adv-x="1160" 
d="M176 754c-9.33301 0 -14 4.66699 -14 14v80c0 9.33301 4.66699 14 14 14h785c9.33301 0 14 -4.66699 14 -14v-489c0 -9.33301 -4.66699 -14 -14 -14h-80c-9.33301 0 -14 4.66699 -14 14v395h-691z" />
    <glyph glyph-name="uni00AD" unicode="&#xad;" horiz-adv-x="807" 
d="M175 553c-9.33301 0 -14 4.66699 -14 14v80c0 9.33301 4.66699 14 14 14h458c9.33301 0 14 -4.66699 14 -14v-80c0 -9.33301 -4.66699 -14 -14 -14h-458z" />
    <glyph glyph-name="registered" unicode="&#xae;" horiz-adv-x="1269" 
d="M1134 1001c0 -81.333 -7.66699 -154.833 -23 -220.5s-42 -121.834 -80 -168.501s-89.167 -82.667 -153.5 -108s-145.5 -38 -243.5 -38s-179.167 12.667 -243.5 38s-115.166 61.333 -152.499 108s-63.5 102.834 -78.5 168.501s-22.5 139.167 -22.5 220.5
c0 80.667 7.5 153.667 22.5 219s41.167 121.166 78.5 167.499s88.166 82 152.499 107s145.5 37.5 243.5 37.5s179.167 -12.5 243.5 -37.5s115.5 -60.667 153.5 -107s64.667 -102.166 80 -167.499s23 -138.333 23 -219zM226 1001c0 -68.667 5.16699 -130.5 15.5 -185.5
s30.333 -101.833 60 -140.5s71.167 -68.334 124.5 -89.001s122.666 -31 207.999 -31s154.666 10.333 207.999 31s95 50.334 125 89.001s50.333 85.5 61 140.5s16 116.833 16 185.5c0 68 -5.33301 129.333 -16 184s-31 101.167 -61 139.5s-71.667 67.666 -125 87.999
s-122.666 30.5 -207.999 30.5s-154.666 -10.167 -207.999 -30.5s-94.833 -49.666 -124.5 -87.999s-49.667 -84.833 -60 -139.5s-15.5 -116 -15.5 -184zM829 666c-10 0 -16.668 4.00293 -20.001 12.0029l-120 230c-24 -2 -51 -3 -81 -3c-14.667 0 -30 0.166992 -46 0.5
s-33.667 1.83301 -53 4.5v-230c0 -9.33301 -4.66699 -14 -14 -14h-57c-9.33301 0 -14 4.66699 -14 14v627c0 9.33301 4.66699 14.333 14 15c29.333 2.66699 57.666 4.16699 84.999 4.5s54.666 0.5 81.999 0.5c46.667 0 87.167 -2.33301 121.5 -7
s62.833 -13.834 85.5 -27.501s39.334 -32.834 50.001 -57.501s16 -56.667 16 -96v-43c0 -47.333 -7.66699 -84.833 -23 -112.5s-42.666 -47.834 -81.999 -60.501l130 -232c3.33301 -6 2.33301 -11.333 -3 -16l-1 -2c-5.33301 -4.66699 -11.666 -7 -18.999 -7h-51z
M609.999 1245c-15.333 0 -33.168 -0.168945 -53.501 -0.501953s-36.166 -1.16602 -47.499 -2.49902v-254c18.667 -1.33301 37.334 -2.16602 56.001 -2.49902s34.334 -0.5 47.001 -0.5c33.333 0 61.5 1.16699 84.5 3.5s41.667 7.83301 56 16.5s24.666 20.834 30.999 36.501
s9.5 37.167 9.5 64.5v26c0 26 -3.33301 46.667 -10 62s-17.334 26.666 -32.001 33.999s-33.667 12 -57 14s-51.333 3 -84 3z" />
    <glyph glyph-name="macron" unicode="&#xaf;" 
d="M153 1337c-9.33301 0 -14 4.66699 -14 14v69c0 9.33301 4.66699 14 14 14h472c9.33301 0 14 -4.66699 14 -14v-69c0 -9.33301 -4.66699 -14 -14 -14h-472z" />
    <glyph glyph-name="degree" unicode="&#xb0;" horiz-adv-x="786" 
d="M393 1406c-55.333 0 -99.833 -13.668 -133.5 -41.001s-50.5 -71.666 -50.5 -132.999v-26c0 -61.333 16.333 -105.666 49 -132.999s77.667 -41 135 -41c28 0 53.333 3.16699 76 9.5s42 16.5 58 30.5s28.333 32.167 37 54.5s13 49.5 13 81.5v24
c0 61.333 -16.5 105.666 -49.5 132.999s-77.833 41 -134.5 41zM393 941.999c-43.333 0 -82.335 5 -117.002 15s-64.167 25.5 -88.5 46.5s-43.166 47.333 -56.499 79s-20 69.167 -20 112.5v46c0 44 6.5 82 19.5 114s31.833 58.5 56.5 79.5s54.334 36.667 89.001 47
s73.667 15.5 117 15.5s82.333 -5.16699 117 -15.5s64.334 -26 89.001 -47s43.5 -47.5 56.5 -79.5s19.5 -70 19.5 -114v-46c0 -43.333 -6.5 -80.833 -19.5 -112.5s-31.833 -58 -56.5 -79s-54.334 -36.5 -89.001 -46.5s-73.667 -15 -117 -15z" />
    <glyph glyph-name="plusminus" unicode="&#xb1;" horiz-adv-x="1136" 
d="M174 783c-9.33301 0 -14 4.66699 -14 14v81c0 9.33301 4.66699 14 14 14h340v340c0 9.33301 4.66699 14 14 14h80c9.33301 0 14 -4.66699 14 -14v-340h340c9.33301 0 14 -4.66699 14 -14v-81c0 -9.33301 -4.66699 -14 -14 -14h-340v-339c0 -9.33301 -4.66699 -14 -14 -14
h-80c-9.33301 0 -14 4.66699 -14 14v339h-340zM177 0c-9.33301 0 -14 4.66699 -14 14v80c0 9.33301 4.66699 14 14 14h782c9.33301 0 14 -4.66699 14 -14v-80c0 -9.33301 -4.66699 -14 -14 -14h-782z" />
    <glyph glyph-name="twosuperior" unicode="&#xb2;" horiz-adv-x="842" 
d="M149 598c-9.33301 0 -13.998 4.66895 -13.998 14.002v46c0 40.667 3.33301 76.5 10 107.5s17.667 59.5 33 85.5s35.666 51 60.999 75s57 50 95 78l144 106l48 35.5c14.667 11 27.167 22.5 37.5 34.5s18.333 25.167 24 39.5s8.5 30.5 8.5 48.5
c0 25.333 -3.5 46.5 -10.5 63.5s-19.333 30.833 -37 41.5s-41.167 18.167 -70.5 22.5s-66.333 6.5 -111 6.5c-24.667 0 -53 -1 -85 -3s-64 -6 -96 -12c-10 -2 -15.333 1.66699 -16 11l-11 64c-0.666992 9.33301 3.33301 15 12 17c16 3.33301 32.833 6.16602 50.5 8.49902
s35.5 4.16602 53.5 5.49902s35.5 2.33301 52.5 3s32.5 1 46.5 1c62.667 0 115 -4.33301 157 -13s75.667 -22 101 -40s43.5 -40.833 54.5 -68.5s16.5 -60.167 16.5 -97.5c0 -27.333 -3.33301 -51.5 -10 -72.5s-16.834 -40.667 -30.501 -59s-30.5 -36 -50.5 -53
s-43 -34.833 -69 -53.5l-119 -84c-34 -25.333 -62 -48.166 -84 -68.499s-39.5 -40.5 -52.5 -60.5s-22 -40.833 -27 -62.5s-7.5 -46.834 -7.5 -75.501h429c9.33301 0 14 -4.66699 14 -14v-63c0 -9.33301 -4.66699 -14 -14 -14h-533z" />
    <glyph glyph-name="threesuperior" unicode="&#xb3;" horiz-adv-x="844" 
d="M374 585c-38 0 -74.666 1.50098 -109.999 4.50098s-67 6.83301 -95 11.5c-9.33301 0.666992 -13.666 6 -12.999 16l2 66c0.666992 8.66699 5.66699 12.667 15 12c32 -4.66699 64.833 -8.16699 98.5 -10.5s65.5 -3.5 95.5 -3.5c42 0 78.167 2.83301 108.5 8.5
s55.5 15 75.5 28s34.833 30.333 44.5 52s14.5 48.5 14.5 80.5v21c0 20 -2.83301 39.667 -8.5 59s-15.5 36.5 -29.5 51.5s-33.167 27.167 -57.5 36.5s-55.166 14 -92.499 14h-199c-9.33301 0 -14 4.66699 -14 14v59c0 9.33301 4.66699 14 14 14h198
c38 0 69.167 3.83301 93.5 11.5s43.5 17.834 57.5 30.501s23.833 26.667 29.5 42s8.5 30.666 8.5 45.999v11c0 28 -5.5 51.167 -16.5 69.5s-27 32.833 -48 43.5s-46.5 18.167 -76.5 22.5s-64 6.5 -102 6.5c-32 0 -64.333 -1.33301 -97 -4s-64 -5.66699 -94 -9
c-9.33301 -0.666992 -14.333 3.33301 -15 12l-4 65c-0.666992 10 3.66602 15.333 12.999 16c28 3.33301 59 6.66602 93 9.99902s69.667 5 107 5c54 0 102 -3.66699 144 -11s77.667 -19.5 107 -36.5s51.666 -39.333 66.999 -67s23 -62.167 23 -103.5v-15
c0 -21.333 -2.83301 -42 -8.5 -62s-14.334 -38.167 -26.001 -54.5s-26.667 -30.666 -45 -42.999s-40.5 -21.833 -66.5 -28.5c27.333 -8 50.333 -19.833 69 -35.5s33.667 -33.334 45 -53.001s19.5 -40.667 24.5 -63s7.5 -44.833 7.5 -67.5v-22c0 -49.333 -7.5 -90 -22.5 -122
s-37 -57.5 -66 -76.5s-64.333 -32.333 -106 -40s-89.167 -11.5 -142.5 -11.5z" />
    <glyph glyph-name="acute" unicode="&#xb4;" 
d="M235 1262c-9.33301 0 -11.334 3.66699 -6.00098 11l173 237c5.33301 7.33301 12.666 11 21.999 11h119c9.33301 0 11 -3.66699 5 -11l-199 -237c-3.33301 -4 -6.66602 -6.83301 -9.99902 -8.5s-7.66602 -2.5 -12.999 -2.5h-91z" />
    <glyph glyph-name="mu" unicode="&#xb5;" horiz-adv-x="1248" 
d="M203 -389c-9.33301 0 -13.999 4.66602 -13.999 13.999v1432c0 9.33301 4.66699 14 14 14h84c9.33301 0 14 -4.66699 14 -14v-638c0 -72 8.33301 -129.833 25 -173.5s40.334 -77.5 71.001 -101.5s67.167 -40 109.5 -48s89.166 -12 140.499 -12
c24 0 49.167 0.833008 75.5 2.5s52.166 3.83398 77.499 6.50098s49.833 6 73.5 10s44.834 8.66699 63.501 14v940c0 9.33301 4.66699 14 14 14h84c9.33301 0 14 -4.66699 14 -14v-1011c0 -9.33301 -4.66699 -15.333 -14 -18c-47.333 -12.667 -104.5 -24.167 -171.5 -34.5
s-137.833 -15.5 -212.5 -15.5c-94.667 0 -170.834 10 -228.501 30s-98.167 53.667 -121.5 101v-484c0 -9.33301 -4.66699 -14 -14 -14h-84z" />
    <glyph glyph-name="paragraph" unicode="&#xb6;" horiz-adv-x="1069" 
d="M568 -451c-9.33301 0 -13.999 4.66699 -13.999 14v1061c-23.333 -2 -47.5 -3.5 -72.5 -4.5s-53.167 -1.5 -84.5 -1.5c-38.667 0 -73.167 2.16699 -103.5 6.5s-56.833 12 -79.5 23s-41.834 26.333 -57.501 46s-28.167 44.834 -37.5 75.501s-16.166 67.5 -20.499 110.5
s-6.5 93.833 -6.5 152.5v40c0 87.333 5.5 157.5 16.5 210.5s29.5 93.667 55.5 122s60.667 47.166 104 56.499s97.666 14 162.999 14h217c9.33301 0 14 -4.66699 14 -14v-1898c0 -9.33301 -4.66699 -14 -14 -14h-80zM775.001 -451c-9.33301 0 -14 4.66699 -14 14v1898
c0 9.33301 4.66699 14 14 14h81c9.33301 0 14 -4.66699 14 -14v-1898c0 -9.33301 -4.66699 -14 -14 -14h-81z" />
    <glyph glyph-name="periodcentered" unicode="&#xb7;" horiz-adv-x="443" 
d="M175 435c-9.33301 0 -14 4.66699 -14 14v201c0 9.33301 4.66699 15 14 17l92 18c9.33301 2 14 -1.66699 14 -11v-225c0 -9.33301 -4.66699 -14 -14 -14h-92z" />
    <glyph glyph-name="cedilla" unicode="&#xb8;" 
d="M269 -389c-10 0 -12.333 4 -7 12l143 263c4.66699 8 11.667 12 21 12h79c9.33301 0 12 -4 8 -12l-133 -263c-3.33301 -8 -10 -12 -20 -12h-91z" />
    <glyph glyph-name="onesuperior" unicode="&#xb9;" horiz-adv-x="523" 
d="M80 1369c-9.33301 -0.666992 -15 3.33301 -17 12l-12 69c-2 10 1.66699 15.333 11 16l191 29c4 0.666992 8.66699 1.16699 14 1.5s10 0.5 14 0.5h67c9.33301 0 14 -4.66699 14 -14v-871c0 -9.33301 -4.66699 -14 -14 -14h-72c-9.33301 0 -14 4.66699 -14 14v787z" />
    <glyph glyph-name="ordmasculine" unicode="&#xba;" horiz-adv-x="980" 
d="M489 1404c-43.333 0 -79.332 -5.33105 -107.999 -15.998s-51.834 -27.334 -69.501 -50.001s-30.167 -51.667 -37.5 -87s-11 -77.333 -11 -126v-50c0 -49.333 3.66699 -91.5 11 -126.5s19.666 -63.833 36.999 -86.5s40.5 -39.334 69.5 -50.001s65.5 -16 109.5 -16
c42.667 0 78.5 5.33301 107.5 16s52.333 27.167 70 49.5s30.167 51.333 37.5 87s11 78.5 11 128.5v48c0 48.667 -3.5 90.5 -10.5 125.5s-19.167 63.833 -36.5 86.5s-40.666 39.5 -69.999 50.5s-66 16.5 -110 16.5zM489.001 703.002c-59.333 0 -109.502 7 -150.502 21
s-74.5 35.833 -100.5 65.5s-44.833 67.334 -56.5 113.001s-17.5 100.5 -17.5 164.5v64c0 64 6 119 18 165s31 83.833 57 113.5s59.833 51.667 101.5 66s92.167 21.5 151.5 21.5c58 0 107.5 -7.16699 148.5 -21.5s74.5 -36.333 100.5 -66s45 -67.5 57 -113.5s18 -101 18 -165
v-64c0 -64 -6.16699 -118.833 -18.5 -164.5s-31.666 -83.334 -57.999 -113.001s-60.166 -51.5 -101.499 -65.5s-91 -21 -149 -21zM174.999 504.002c-9.33301 0 -14 4.66699 -14 14v69c0 9.33301 4.66699 14 14 14h629c9.33301 0 14 -4.66699 14 -14v-69
c0 -9.33301 -4.66699 -14 -14 -14h-629z" />
    <glyph glyph-name="guillemotright" unicode="&#xbb;" horiz-adv-x="1149" 
d="M140 140c-9.33301 0 -10.666 3.33398 -3.99902 10.001l367 382l-367 381c-6.66699 6.66699 -5.33398 10 3.99902 10h116c8.66699 0 16.667 -3.33301 24 -10l354 -371c6.66699 -6.66699 6.66699 -13.334 0 -20.001l-354 -372c-7.33301 -6.66699 -15.333 -10 -24 -10h-116z
M582 140.001c-9.33301 0 -10.666 3.33398 -3.99902 10.001l367 382l-367 381c-6.66699 6.66699 -5.33398 10 3.99902 10h116c8.66699 0 16.667 -3.33301 24 -10l354 -371c6.66699 -6.66699 6.66699 -13.334 0 -20.001l-354 -372c-7.33301 -6.66699 -15.333 -10 -24 -10h-116
z" />
    <glyph glyph-name="onequarter" unicode="&#xbc;" horiz-adv-x="1603" 
d="M859 233c-9.33301 0 -13.999 4.66797 -13.999 14.001v111c0 9.33301 2.66699 17.666 8 24.999l361 504c5.33301 7.33301 12.666 11 21.999 11h159c9.33301 0 14 -4.66699 14 -14v-558h96c9.33301 0 14 -4.66699 14 -14v-65c0 -9.33301 -4.66699 -14 -14 -14h-96v-219
c0 -9.33301 -4.66699 -14 -14 -14h-73c-9.33301 0 -14 4.66699 -14 14v219h-449zM229.001 0.000976562c-8.66699 0 -11 4 -7 12l876 1451c4.66699 8 11.667 12 21 12h100c8.66699 0 11 -4 7 -12l-878 -1451c-4.66699 -8 -11.667 -12 -21 -12h-98zM957.001 326.001h351v467
h-38l-313 -436v-31zM137.001 1369c-9.33301 -0.666992 -15 3.33301 -17 12l-12 69c-2 10 1.66699 15.333 11 16l191 29c4 0.666992 8.66699 1.16699 14 1.5s10 0.5 14 0.5h67c9.33301 0 14 -4.66699 14 -14v-871c0 -9.33301 -4.66699 -14 -14 -14h-72
c-9.33301 0 -14 4.66699 -14 14v787z" />
    <glyph glyph-name="onehalf" unicode="&#xbd;" horiz-adv-x="1652" 
d="M220 0c-8.66699 0 -11 4 -7 12l876 1451c4.66699 8 11.667 12 21 12h100c8.66699 0 11 -4 7 -12l-878 -1451c-4.66699 -8 -11.667 -12 -21 -12h-98zM985 0c-9.33301 0 -13.998 4.66895 -13.998 14.002v46c0 40.667 3.33301 76.5 10 107.5s17.667 59.5 33 85.5
s35.666 51 60.999 75s57 50 95 78l144 106l48 35.5c14.667 11 27.167 22.5 37.5 34.5s18.333 25.167 24 39.5s8.5 30.5 8.5 48.5c0 25.333 -3.5 46.5 -10.5 63.5s-19.333 30.833 -37 41.5s-41.167 18.167 -70.5 22.5s-66.333 6.5 -111 6.5c-24.667 0 -53 -1 -85 -3
s-64 -6 -96 -12c-10 -2 -15.333 1.66699 -16 11l-11 64c-0.666992 9.33301 3.33301 15 12 17c16 3.33301 32.833 6.16602 50.5 8.49902s35.5 4.16602 53.5 5.49902s35.5 2.33301 52.5 3s32.5 1 46.5 1c62.667 0 115 -4.33301 157 -13s75.667 -22 101 -40
s43.5 -40.833 54.5 -68.5s16.5 -60.167 16.5 -97.5c0 -27.333 -3.33301 -51.5 -10 -72.5s-16.834 -40.667 -30.501 -59s-30.5 -36 -50.5 -53s-43 -34.833 -69 -53.5l-119 -84c-34 -25.333 -62 -48.166 -84 -68.499s-39.5 -40.5 -52.5 -60.5s-22 -40.833 -27 -62.5
s-7.5 -46.834 -7.5 -75.501h429c9.33301 0 14 -4.66699 14 -14v-63c0 -9.33301 -4.66699 -14 -14 -14h-533zM137.002 1369c-9.33301 -0.666992 -15 3.33301 -17 12l-12 69c-2 10 1.66699 15.333 11 16l191 29c4 0.666992 8.66699 1.16699 14 1.5s10 0.5 14 0.5h67
c9.33301 0 14 -4.66699 14 -14v-871c0 -9.33301 -4.66699 -14 -14 -14h-72c-9.33301 0 -14 4.66699 -14 14v787z" />
    <glyph glyph-name="threequarters" unicode="&#xbe;" horiz-adv-x="1801" 
d="M1059 233c-9.33301 0 -13.999 4.66797 -13.999 14.001v111c0 9.33301 2.66699 17.666 8 24.999l360 504c5.33301 7.33301 12.666 11 21.999 11h159c9.33301 0 14 -4.66699 14 -14v-558h95c9.33301 0 14 -4.66699 14 -14v-65c0 -9.33301 -4.66699 -14 -14 -14h-95v-219
c0 -9.33301 -4.66699 -14 -14 -14h-73c-9.33301 0 -14 4.66699 -14 14v219h-448zM1156 326.001h351v467h-38l-313 -436v-31zM436.001 0.000976562c-8.66699 0 -11 4 -7 12l876 1451c4.66699 8 11.667 12 21 12h100c8.66699 0 11 -4 7 -12l-877 -1451
c-4.66699 -8 -11.667 -12 -21 -12h-99zM344.001 585.001c-38 0 -74.666 1.50098 -109.999 4.50098s-67 6.83301 -95 11.5c-9.33301 0.666992 -13.666 6 -12.999 16l2 66c0.666992 8.66699 5.66699 12.667 15 12c32 -4.66699 64.833 -8.16699 98.5 -10.5s65.5 -3.5 95.5 -3.5
c42 0 78.167 2.83301 108.5 8.5s55.5 15 75.5 28s34.833 30.333 44.5 52s14.5 48.5 14.5 80.5v21c0 20 -2.83301 39.667 -8.5 59s-15.5 36.5 -29.5 51.5s-33.167 27.167 -57.5 36.5s-55.166 14 -92.499 14h-199c-9.33301 0 -14 4.66699 -14 14v59
c0 9.33301 4.66699 14 14 14h198c38 0 69.167 3.83301 93.5 11.5s43.5 17.834 57.5 30.501s23.833 26.667 29.5 42s8.5 30.666 8.5 45.999v11c0 28 -5.5 51.167 -16.5 69.5s-27 32.833 -48 43.5s-46.5 18.167 -76.5 22.5s-64 6.5 -102 6.5c-32 0 -64.333 -1.33301 -97 -4
s-64 -5.66699 -94 -9c-9.33301 -0.666992 -14.333 3.33301 -15 12l-4 65c-0.666992 10 3.66602 15.333 12.999 16c28 3.33301 59 6.66602 93 9.99902s69.667 5 107 5c54 0 102 -3.66699 144 -11s77.667 -19.5 107 -36.5s51.666 -39.333 66.999 -67s23 -62.167 23 -103.5v-15
c0 -21.333 -2.83301 -42 -8.5 -62s-14.334 -38.167 -26.001 -54.5s-26.667 -30.666 -45 -42.999s-40.5 -21.833 -66.5 -28.5c27.333 -8 50.333 -19.833 69 -35.5s33.667 -33.334 45 -53.001s19.5 -40.667 24.5 -63s7.5 -44.833 7.5 -67.5v-22c0 -49.333 -7.5 -90 -22.5 -122
s-37 -57.5 -66 -76.5s-64.333 -32.333 -106 -40s-89.167 -11.5 -142.5 -11.5z" />
    <glyph glyph-name="questiondown" unicode="&#xbf;" horiz-adv-x="810" 
d="M474 660c0 9.33301 4.66797 13.9961 14.001 13.9961h81c9.33301 0 14 -4.66699 14 -14c0 -7.33301 0.166992 -16.666 0.5 -27.999l1 -33.5c0.333008 -11 0.666016 -20.833 0.999023 -29.5s0.5 -14.334 0.5 -17.001c0 -36.667 -1.33301 -68.167 -4 -94.5
s-9.16699 -51.333 -19.5 -75s-25.5 -48.167 -45.5 -73.5s-47 -55.333 -81 -90l-61 -61c-30.667 -30 -57.167 -57.833 -79.5 -83.5s-40.833 -50 -55.5 -73s-25.5 -45.167 -32.5 -66.5s-10.5 -43.333 -10.5 -66v-19c0 -60 24.333 -102.333 73 -127s119 -37 211 -37
c36 0 73 1.33301 111 4s80.333 7.33398 127 14.001c9.33301 0.666992 15 -3.33301 17 -12l15 -78c2 -9.33301 -1.66699 -15 -11 -17c-40 -7.33301 -84.333 -13 -133 -17s-95 -6 -139 -6c-58.667 0 -112.167 4 -160.5 12s-89.666 22 -123.999 42s-61 47 -80 81
s-28.5 76.667 -28.5 128v14c0 28.667 3.33301 56.167 10 82.5s18 53.333 34 81s37 57.167 63 88.5s58.333 66 97 104l67 70c31.333 32.667 55.666 59.834 72.999 81.501s30 42.334 38 62.001s12.833 40.834 14.5 63.501s2.5 51 2.5 85v91zM566.001 1071
c9.33301 0 14 -4.66699 14 -14v-201c0 -9.33301 -4.66699 -15 -14 -17l-92 -18c-9.33301 -2 -14 1.66699 -14 11v225c0 9.33301 4.66699 14 14 14h92z" />
    <glyph glyph-name="Agrave" unicode="&#xc0;" horiz-adv-x="1290" 
d="M45 0c-10 0 -13 4.33301 -9 13l524 1449c3.33301 8.66699 9.66602 13 18.999 13h132c9.33301 0 15.666 -4.33301 18.999 -13l526 -1449c4 -8.66699 1 -13 -9 -13h-98c-9.33301 -0 -15.666 4.33301 -18.999 13l-146 408h-679l-146 -408
c-3.33301 -8.66699 -9.66602 -13 -18.999 -13h-95zM644 1362l-299 -831h599zM689 1606c-10 0 -18.334 3 -25.001 9l-238 186c-7.33301 6 -6.33301 9 3 9h144c10 0 18 -3.33301 24 -10l197 -184c6.66699 -6.66699 5.33398 -10 -3.99902 -10h-101z" />
    <glyph glyph-name="Aacute" unicode="&#xc1;" horiz-adv-x="1290" 
d="M45 0c-10 0 -13 4.33301 -9 13l524 1449c3.33301 8.66699 9.66602 13 18.999 13h132c9.33301 0 15.666 -4.33301 18.999 -13l526 -1449c4 -8.66699 1 -13 -9 -13h-98c-9.33301 -0 -15.666 4.33301 -18.999 13l-146 408h-679l-146 -408
c-3.33301 -8.66699 -9.66602 -13 -18.999 -13h-95zM644 1362l-299 -831h599zM502 1606c-9.33301 0 -10.667 3.33301 -4 10l197 184c6 6.66699 14 10 24 10h144c9.33301 0 10.333 -3 3 -9l-238 -186c-6.66699 -6 -15 -9 -25 -9h-101z" />
    <glyph glyph-name="Acircumflex" unicode="&#xc2;" horiz-adv-x="1290" 
d="M45 0c-10 0 -13 4.33301 -9 13l524 1449c3.33301 8.66699 9.66602 13 18.999 13h132c9.33301 0 15.666 -4.33301 18.999 -13l526 -1449c4 -8.66699 1 -13 -9 -13h-98c-9.33301 -0 -15.666 4.33301 -18.999 13l-146 408h-679l-146 -408
c-3.33301 -8.66699 -9.66602 -13 -18.999 -13h-95zM644 1362l-299 -831h599zM580 1801c6 6 14 9 24 9h84c10 0 18 -3 24 -9l211 -186c3.33301 -2.66699 4.5 -4.83398 3.5 -6.50098s-3.5 -2.5 -7.5 -2.5h-108c-10 0 -18 3 -24 9l-131 120h-20l-131 -120c-6 -6 -14 -9 -24 -9
h-108c-4 0 -6.5 0.833008 -7.5 2.5s0.166992 3.83398 3.5 6.50098z" />
    <glyph glyph-name="Atilde" unicode="&#xc3;" horiz-adv-x="1290" 
d="M45 0c-10 0 -13 4.33301 -9 13l524 1449c3.33301 8.66699 9.66602 13 18.999 13h132c9.33301 0 15.666 -4.33301 18.999 -13l526 -1449c4 -8.66699 1 -13 -9 -13h-98c-9.33301 -0 -15.666 4.33301 -18.999 13l-146 408h-679l-146 -408
c-3.33301 -8.66699 -9.66602 -13 -18.999 -13h-95zM644 1362l-299 -831h599zM338 1605c-9.33301 0 -14 4.66797 -14 14.001v22c0 44.667 5.16699 80.167 15.5 106.5s23.166 46.5 38.499 60.5s32.333 23 51 27s36.667 6 54 6c30 0 56.667 -5.33301 80 -16
s46.666 -25 69.999 -43l49 -40c22 -17.333 42.167 -31 60.5 -41s37.5 -15 57.5 -15c12 0 22.833 1.33301 32.5 4s17.834 8.66699 24.501 18s11.834 22.666 15.501 39.999s5.83398 41 6.50098 71c0 9.33301 4.66699 14 14 14h61c9.33301 0 14 -4.66699 14 -14v-23
c0 -44 -5.16699 -79.167 -15.5 -105.5s-23.166 -46.5 -38.499 -60.5s-32.5 -23.167 -51.5 -27.5s-36.833 -6.5 -53.5 -6.5c-29.333 0 -55.833 5.33301 -79.5 16s-47.167 25 -70.5 43l-50 41c-21.333 16.667 -41.166 30.167 -59.499 40.5s-37.5 15.5 -57.5 15.5
c-12 0 -22.833 -1.33301 -32.5 -4s-17.834 -8.66699 -24.501 -18s-11.834 -22.833 -15.501 -40.5s-5.83398 -41.167 -6.50098 -70.5c0 -9.33301 -4.66699 -14 -14 -14h-61z" />
    <glyph glyph-name="Adieresis" unicode="&#xc4;" horiz-adv-x="1290" 
d="M45 0c-10 0 -13 4.33301 -9 13l524 1449c3.33301 8.66699 9.66602 13 18.999 13h132c9.33301 0 15.666 -4.33301 18.999 -13l526 -1449c4 -8.66699 1 -13 -9 -13h-98c-9.33301 -0 -15.666 4.33301 -18.999 13l-146 408h-679l-146 -408
c-3.33301 -8.66699 -9.66602 -13 -18.999 -13h-95zM644 1362l-299 -831h599zM455 1606c-9.33301 0 -14 4.66699 -14 14v194c0 9.33301 4.66699 15 14 17l89 18c9.33301 2 14 -1.66699 14 -11v-218c0 -9.33301 -4.66699 -14 -14 -14h-89zM748 1606
c-9.33301 0 -14 4.66699 -14 14v194c0 9.33301 4.66699 15 14 17l89 18c9.33301 2 14 -1.66699 14 -11v-218c0 -9.33301 -4.66699 -14 -14 -14h-89z" />
    <glyph glyph-name="Aring" unicode="&#xc5;" horiz-adv-x="1283" 
d="M41 0c-10 0 -13.002 4.33203 -9.00195 12.999l512 1417c-27.333 13.333 -47.833 31.5 -61.5 54.5s-20.5 48.5 -20.5 76.5v22c0 20.667 3.83301 40.167 11.5 58.5s19 34.333 34 48s33.833 24.5 56.5 32.5s49 12 79 12c29.333 0 55.333 -4 78 -12s41.667 -18.833 57 -32.5
s26.833 -29.667 34.5 -48s11.5 -37.833 11.5 -58.5v-22c0 -28.667 -7.33301 -54.667 -22 -78s-36 -41.666 -64 -54.999l514 -1415c4 -8.66699 1 -13 -9 -13h-98c-9.33301 -0 -15.666 4.33301 -18.999 13l-146 408h-679l-146 -408
c-3.33301 -8.66699 -9.66602 -13 -18.999 -13h-95zM639.998 1362l-299 -831h599zM644.998 1658c-32.667 0 -56.834 -7.83398 -72.501 -23.501s-23.5 -33.167 -23.5 -52.5v-20c0 -19.333 7.83301 -36.666 23.5 -51.999s39.834 -23 72.501 -23c32 0 56.167 8 72.5 24
s24.5 33.667 24.5 53v18c0 19.333 -7.83301 36.833 -23.5 52.5s-40.167 23.5 -73.5 23.5z" />
    <glyph glyph-name="AE" unicode="&#xc6;" horiz-adv-x="1727" 
d="M881 0c-9.33301 0 -14 4.66699 -14 14v411h-535l-207 -412c-3.33301 -8.66699 -10 -13 -20 -13h-97c-9.33301 -0 -12 4.33301 -8 13l726 1449c3.33301 8.66699 10 13 20 13h858c9.33301 0 14 -4.66699 14 -14v-85c0 -9.33301 -4.66699 -14 -14 -14h-623v-502h448
c9.33301 0 14 -4.66699 14 -14v-84c0 -9.33301 -4.66699 -14 -14 -14h-448v-636h623c9.33301 0 14 -4.66699 14 -14v-84c0 -9.33301 -4.66699 -14 -14 -14h-723zM804 1362l-417 -829h480v829h-63z" />
    <glyph glyph-name="Ccedilla" unicode="&#xc7;" horiz-adv-x="1169" 
d="M741 -22c-94.667 0 -179.002 11.3271 -253.002 33.9941s-136.667 60.834 -188 114.501s-90.5 124.667 -117.5 213s-40.5 198.5 -40.5 330.5v135c0 131.333 13.5 241.333 40.5 330s66.167 159.834 117.5 213.501s114 91.834 188 114.501s158.333 34 253 34
c61.333 0 120 -2.83301 176 -8.5s103.333 -13.167 142 -22.5c5.33301 -1.33301 8.83301 -3.33301 10.5 -6s2.16699 -6.66699 1.5 -12l-14 -75c-2 -9.33301 -7.66699 -13 -17 -11c-44.667 8.66699 -93 14.834 -145 18.501s-102.667 5.5 -152 5.5c-76 0 -144 -9 -204 -27
s-110.667 -49 -152 -93s-72.833 -102.667 -94.5 -176s-32.5 -165 -32.5 -275v-155c0 -110.667 10.833 -202.667 32.5 -276s53 -131.833 94 -175.5s91.5 -74.5 151.5 -92.5s128.333 -27 205 -27c62 0 118.333 2.33301 169 7s96.667 10.667 138 18
c10 2 15.333 -1.66699 16 -11l13 -77c0.666992 -5.33301 0.166992 -9.16602 -1.5 -11.499s-5.16699 -4.16602 -10.5 -5.49902c-39.333 -9.33301 -87.666 -16.833 -144.999 -22.5s-117.666 -8.5 -180.999 -8.5zM535.998 -389.006c-10 0 -12.333 4 -7 12l143 263
c4.66699 8 11.667 12 21 12h79c9.33301 0 12 -4 8 -12l-133 -263c-3.33301 -8 -10 -12 -20 -12h-91z" />
    <glyph glyph-name="Egrave" unicode="&#xc8;" horiz-adv-x="1183" 
d="M648 1606c-10 0 -18.334 3 -25.001 9l-238 186c-7.33301 6 -6.33301 9 3 9h144c10 0 18 -3.33301 24 -10l197 -184c6.66699 -6.66699 5.33398 -10 -3.99902 -10h-101zM217.999 0c-9.33301 0 -14 4.66699 -14 14v1447c0 9.33301 4.66699 14 14 14h824
c9.33301 0 14 -4.66699 14 -14v-85c0 -9.33301 -4.66699 -14 -14 -14h-725v-502h630c9.33301 0 14 -4.66699 14 -14v-84c0 -9.33301 -4.66699 -14 -14 -14h-630v-636h725c9.33301 0 14 -4.66699 14 -14v-84c0 -9.33301 -4.66699 -14 -14 -14h-824z" />
    <glyph glyph-name="Eacute" unicode="&#xc9;" horiz-adv-x="1183" 
d="M218 0c-9.33301 0 -14 4.66699 -14 14v1447c0 9.33301 4.66699 14 14 14h824c9.33301 0 14 -4.66699 14 -14v-85c0 -9.33301 -4.66699 -14 -14 -14h-725v-502h630c9.33301 0 14 -4.66699 14 -14v-84c0 -9.33301 -4.66699 -14 -14 -14h-630v-636h725
c9.33301 0 14 -4.66699 14 -14v-84c0 -9.33301 -4.66699 -14 -14 -14h-824zM500 1606c-9.33301 0 -10.667 3.33301 -4 10l197 184c6 6.66699 14 10 24 10h144c9.33301 0 10.333 -3 3 -9l-238 -186c-6.66699 -6 -15 -9 -25 -9h-101z" />
    <glyph glyph-name="Ecircumflex" unicode="&#xca;" horiz-adv-x="1183" 
d="M546 1801c6 6 14 9 24 9h84c10 0 18 -3 24 -9l211 -186c3.33301 -2.66699 4.5 -4.83398 3.5 -6.50098s-3.5 -2.5 -7.5 -2.5h-108c-10 0 -18 3 -24 9l-131 120h-20l-131 -120c-6 -6 -14 -9 -24 -9h-108c-4 0 -6.5 0.833008 -7.5 2.5s0.166992 3.83398 3.5 6.50098zM218 0
c-9.33301 0 -14 4.66699 -14 14v1447c0 9.33301 4.66699 14 14 14h824c9.33301 0 14 -4.66699 14 -14v-85c0 -9.33301 -4.66699 -14 -14 -14h-725v-502h630c9.33301 0 14 -4.66699 14 -14v-84c0 -9.33301 -4.66699 -14 -14 -14h-630v-636h725c9.33301 0 14 -4.66699 14 -14
v-84c0 -9.33301 -4.66699 -14 -14 -14h-824z" />
    <glyph glyph-name="Edieresis" unicode="&#xcb;" horiz-adv-x="1183" 
d="M218 0c-9.33301 0 -14 4.66699 -14 14v1447c0 9.33301 4.66699 14 14 14h824c9.33301 0 14 -4.66699 14 -14v-85c0 -9.33301 -4.66699 -14 -14 -14h-725v-502h630c9.33301 0 14 -4.66699 14 -14v-84c0 -9.33301 -4.66699 -14 -14 -14h-630v-636h725
c9.33301 0 14 -4.66699 14 -14v-84c0 -9.33301 -4.66699 -14 -14 -14h-824zM418 1606c-9.33301 0 -14 4.66699 -14 14v194c0 9.33301 4.66699 15 14 17l89 18c9.33301 2 14 -1.66699 14 -11v-218c0 -9.33301 -4.66699 -14 -14 -14h-89zM711 1606
c-9.33301 0 -14 4.66699 -14 14v194c0 9.33301 4.66699 15 14 17l89 18c9.33301 2 14 -1.66699 14 -11v-218c0 -9.33301 -4.66699 -14 -14 -14h-89z" />
    <glyph glyph-name="Igrave" unicode="&#xcc;" horiz-adv-x="521" 
d="M218 0c-9.33301 0 -14 4.66699 -14 14v1447c0 9.33301 4.66699 14 14 14h85c9.33301 0 14 -4.66699 14 -14v-1447c0 -9.33301 -4.66699 -14 -14 -14h-85zM331 1606c-10 0 -18.334 3 -25.001 9l-238 186c-7.33301 6 -6.33301 9 3 9h144c10 0 18 -3.33301 24 -10l197 -184
c6.66699 -6.66699 5.33398 -10 -3.99902 -10h-101z" />
    <glyph glyph-name="Iacute" unicode="&#xcd;" horiz-adv-x="521" 
d="M218 0c-9.33301 0 -14 4.66699 -14 14v1447c0 9.33301 4.66699 14 14 14h85c9.33301 0 14 -4.66699 14 -14v-1447c0 -9.33301 -4.66699 -14 -14 -14h-85zM83 1606c-9.33301 0 -10.667 3.33301 -4 10l197 184c6 6.66699 14 10 24 10h144c9.33301 0 10.333 -3 3 -9
l-238 -186c-6.66699 -6 -15 -9 -25 -9h-101z" />
    <glyph glyph-name="Icircumflex" unicode="&#xce;" horiz-adv-x="520" 
d="M218 0c-9.33301 0 -14 4.66699 -14 14v1447c0 9.33301 4.66699 14 14 14h85c9.33301 0 14 -4.66699 14 -14v-1447c0 -9.33301 -4.66699 -14 -14 -14h-85zM196 1801c6 6 14 9 24 9h84c10 0 18 -3 24 -9l211 -186c3.33301 -2.66699 4.5 -4.83398 3.5 -6.50098
s-3.5 -2.5 -7.5 -2.5h-108c-10 0 -18 3 -24 9l-131 120h-20l-131 -120c-6 -6 -14 -9 -24 -9h-108c-4 0 -6.5 0.833008 -7.5 2.5s0.166992 3.83398 3.5 6.50098z" />
    <glyph glyph-name="Idieresis" unicode="&#xcf;" horiz-adv-x="521" 
d="M218 0c-9.33301 0 -14 4.66699 -14 14v1447c0 9.33301 4.66699 14 14 14h85c9.33301 0 14 -4.66699 14 -14v-1447c0 -9.33301 -4.66699 -14 -14 -14h-85zM71 1606c-9.33301 0 -14 4.66699 -14 14v194c0 9.33301 4.66699 15 14 17l89 18c9.33301 2 14 -1.66699 14 -11
v-218c0 -9.33301 -4.66699 -14 -14 -14h-89zM364 1606c-9.33301 0 -14 4.66699 -14 14v194c0 9.33301 4.66699 15 14 17l89 18c9.33301 2 14 -1.66699 14 -11v-218c0 -9.33301 -4.66699 -14 -14 -14h-89z" />
    <glyph glyph-name="Eth" unicode="&#xd0;" horiz-adv-x="1399" 
d="M576 -16c-26 0 -53.6641 0.333008 -82.9971 1s-59.333 1.5 -90 2.5s-61.334 2.5 -92.001 4.5s-60.334 4.33301 -89.001 7c-9.33301 0.666992 -14 5.66699 -14 15v724h-151c-9.33301 0 -14 4.66699 -14 14v80c0 9.33301 4.66699 14 14 14h151v615
c0 9.33301 4.66699 14.333 14 15c28.667 2 59.5 3.5 92.5 4.5l97 3c31.667 1 61.667 1.66699 90 2s52.833 0.5 73.5 0.5c67.333 0 131 -3.16699 191 -9.5s115.167 -18.333 165.5 -36s95.666 -42.5 135.999 -74.5s74.333 -73.5 102 -124.5s49 -113.167 64 -186.5
s22.5 -160 22.5 -260v-113c0 -100 -7.33301 -186.833 -22 -260.5s-36 -136.334 -64 -188.001s-62 -93.667 -102 -126s-85.167 -57.666 -135.5 -75.999s-105.5 -30.833 -165.5 -37.5s-123.667 -10 -191 -10zM587.003 1379c-17.333 0 -37.834 -0.166016 -61.501 -0.499023
s-47.834 -0.833008 -72.501 -1.5s-48.667 -1.5 -72 -2.5s-43.333 -2.16699 -60 -3.5v-525h278c9.33301 0 14 -4.66699 14 -14v-80c0 -9.33301 -4.66699 -14 -14 -14h-278v-637c20 -2 41.833 -3.66699 65.5 -5s47.5 -2.5 71.5 -3.5s47.667 -1.66699 71 -2
s44.666 -0.5 63.999 -0.5c60 0 115.333 3.16699 166 9.5s96.334 17.5 137.001 33.5s76.334 38.167 107.001 66.5s56.334 64.166 77.001 107.499s36.167 95.5 46.5 156.5s15.5 132.5 15.5 214.5v119c0 81.333 -5.16699 152.333 -15.5 213s-26 112.5 -47 155.5
s-47 78.333 -78 106s-67 49.5 -108 65.5s-87.167 27 -138.5 33s-107.333 9 -168 9z" />
    <glyph glyph-name="Ntilde" unicode="&#xd1;" horiz-adv-x="1413" 
d="M398 1605c-9.33301 0 -14 4.66797 -14 14.001v22c0 44.667 5.16699 80.167 15.5 106.5s23.166 46.5 38.499 60.5s32.333 23 51 27s36.667 6 54 6c30 0 56.667 -5.33301 80 -16s46.666 -25 69.999 -43l49 -40c22 -17.333 42.167 -31 60.5 -41s37.5 -15 57.5 -15
c12 0 22.833 1.33301 32.5 4s17.834 8.66699 24.501 18s11.834 22.666 15.501 39.999s5.83398 41 6.50098 71c0 9.33301 4.66699 14 14 14h61c9.33301 0 14 -4.66699 14 -14v-23c0 -44 -5.16699 -79.167 -15.5 -105.5s-23.166 -46.5 -38.499 -60.5
s-32.5 -23.167 -51.5 -27.5s-36.833 -6.5 -53.5 -6.5c-29.333 0 -55.833 5.33301 -79.5 16s-47.167 25 -70.5 43l-50 41c-21.333 16.667 -41.166 30.167 -59.499 40.5s-37.5 15.5 -57.5 15.5c-12 0 -22.833 -1.33301 -32.5 -4s-17.834 -8.66699 -24.501 -18
s-11.834 -22.833 -15.501 -40.5s-5.83398 -41.167 -6.50098 -70.5c0 -9.33301 -4.66699 -14 -14 -14h-61zM218 0.000976562c-9.33301 0 -14.001 4.66699 -14.001 14v1447c0 9.33301 4.66699 14 14 14h105c9.33301 0 16.333 -4 21 -12l681 -1152l50 -86.5
c12 -21 18.667 -31.5 20 -31.5l1 1268c0 9.33301 4.66699 14 14 14h85c9.33301 0 14 -4.66699 14 -14v-1447c0 -9.33301 -4.66699 -14 -14 -14h-104c-9.33301 0 -16.333 4 -21 12l-678 1144c-21.333 35.333 -38.666 65 -51.999 89s-20.333 36 -21 36l-2 -1267
c0 -9.33301 -4.66699 -14 -14 -14h-85z" />
    <glyph glyph-name="Ograve" unicode="&#xd2;" horiz-adv-x="1422" 
d="M729 1606c-10 0 -18.334 3 -25.001 9l-238 186c-7.33301 6 -6.33301 9 3 9h144c10 0 18 -3.33301 24 -10l197 -184c6.66699 -6.66699 5.33398 -10 -3.99902 -10h-101zM711.999 -22c-90.667 0 -171.167 11.3359 -241.5 34.0029s-129.5 60.834 -177.5 114.501
s-84.5 124.667 -109.5 213s-37.5 198.5 -37.5 330.5v135c0 131.333 12.5 241.166 37.5 329.499s61.5 159.333 109.5 213s107.167 92 177.5 115s150.833 34.5 241.5 34.5s171 -11.333 241 -34s128.833 -60.834 176.5 -114.501s83.834 -124.834 108.501 -213.501
s37 -198.667 37 -330v-135c0 -132 -12.333 -242.167 -37 -330.5s-60.834 -159.333 -108.501 -213s-106.5 -91.834 -176.5 -114.501s-150.333 -34 -241 -34zM711.999 1380c-71.333 0 -134.833 -8.83301 -190.5 -26.5s-102.667 -48.167 -141 -91.5
s-67.5 -101.166 -87.5 -173.499s-30 -163.5 -30 -273.5v-155c0 -110 9.83301 -201.333 29.5 -274s48.667 -130.667 87 -174s85.333 -73.833 141 -91.5s119.5 -26.5 191.5 -26.5c71.333 0 134.833 8.83301 190.5 26.5s102.5 48.167 140.5 91.5s66.833 101.5 86.5 174.5
s29.5 164.833 29.5 275.5v153c0 110 -9.83301 201.167 -29.5 273.5s-48.5 130.166 -86.5 173.499s-84.833 73.833 -140.5 91.5s-119.167 26.5 -190.5 26.5z" />
    <glyph glyph-name="Oacute" unicode="&#xd3;" horiz-adv-x="1422" 
d="M572 1606c-9.33301 0 -10.667 3.33301 -4 10l197 184c6 6.66699 14 10 24 10h144c9.33301 0 10.333 -3 3 -9l-238 -186c-6.66699 -6 -15 -9 -25 -9h-101zM711.999 -22c-90.667 0 -171.167 11.3359 -241.5 34.0029s-129.5 60.834 -177.5 114.501s-84.5 124.667 -109.5 213
s-37.5 198.5 -37.5 330.5v135c0 131.333 12.5 241.166 37.5 329.499s61.5 159.333 109.5 213s107.167 92 177.5 115s150.833 34.5 241.5 34.5s171 -11.333 241 -34s128.833 -60.834 176.5 -114.501s83.834 -124.834 108.501 -213.501s37 -198.667 37 -330v-135
c0 -132 -12.333 -242.167 -37 -330.5s-60.834 -159.333 -108.501 -213s-106.5 -91.834 -176.5 -114.501s-150.333 -34 -241 -34zM711.999 1380c-71.333 0 -134.833 -8.83301 -190.5 -26.5s-102.667 -48.167 -141 -91.5s-67.5 -101.166 -87.5 -173.499s-30 -163.5 -30 -273.5
v-155c0 -110 9.83301 -201.333 29.5 -274s48.667 -130.667 87 -174s85.333 -73.833 141 -91.5s119.5 -26.5 191.5 -26.5c71.333 0 134.833 8.83301 190.5 26.5s102.5 48.167 140.5 91.5s66.833 101.5 86.5 174.5s29.5 164.833 29.5 275.5v153
c0 110 -9.83301 201.167 -29.5 273.5s-48.5 130.166 -86.5 173.499s-84.833 73.833 -140.5 91.5s-119.167 26.5 -190.5 26.5z" />
    <glyph glyph-name="Ocircumflex" unicode="&#xd4;" horiz-adv-x="1422" 
d="M644 1801c6 6 14 9 24 9h84c10 0 18 -3 24 -9l211 -186c3.33301 -2.66699 4.5 -4.83398 3.5 -6.50098s-3.5 -2.5 -7.5 -2.5h-108c-10 0 -18 3 -24 9l-131 120h-20l-131 -120c-6 -6 -14 -9 -24 -9h-108c-4 0 -6.5 0.833008 -7.5 2.5s0.166992 3.83398 3.5 6.50098z
M712 -22c-90.667 0 -171.167 11.3359 -241.5 34.0029s-129.5 60.834 -177.5 114.501s-84.5 124.667 -109.5 213s-37.5 198.5 -37.5 330.5v135c0 131.333 12.5 241.166 37.5 329.499s61.5 159.333 109.5 213s107.167 92 177.5 115s150.833 34.5 241.5 34.5
s171 -11.333 241 -34s128.833 -60.834 176.5 -114.501s83.834 -124.834 108.501 -213.501s37 -198.667 37 -330v-135c0 -132 -12.333 -242.167 -37 -330.5s-60.834 -159.333 -108.501 -213s-106.5 -91.834 -176.5 -114.501s-150.333 -34 -241 -34zM712 1380
c-71.333 0 -134.833 -8.83301 -190.5 -26.5s-102.667 -48.167 -141 -91.5s-67.5 -101.166 -87.5 -173.499s-30 -163.5 -30 -273.5v-155c0 -110 9.83301 -201.333 29.5 -274s48.667 -130.667 87 -174s85.333 -73.833 141 -91.5s119.5 -26.5 191.5 -26.5
c71.333 0 134.833 8.83301 190.5 26.5s102.5 48.167 140.5 91.5s66.833 101.5 86.5 174.5s29.5 164.833 29.5 275.5v153c0 110 -9.83301 201.167 -29.5 273.5s-48.5 130.166 -86.5 173.499s-84.833 73.833 -140.5 91.5s-119.167 26.5 -190.5 26.5z" />
    <glyph glyph-name="Otilde" unicode="&#xd5;" horiz-adv-x="1422" 
d="M712 -22c-90.667 0 -171.167 11.3359 -241.5 34.0029s-129.5 60.834 -177.5 114.501s-84.5 124.667 -109.5 213s-37.5 198.5 -37.5 330.5v135c0 131.333 12.5 241.166 37.5 329.499s61.5 159.333 109.5 213s107.167 92 177.5 115s150.833 34.5 241.5 34.5
s171 -11.333 241 -34s128.833 -60.834 176.5 -114.501s83.834 -124.834 108.501 -213.501s37 -198.667 37 -330v-135c0 -132 -12.333 -242.167 -37 -330.5s-60.834 -159.333 -108.501 -213s-106.5 -91.834 -176.5 -114.501s-150.333 -34 -241 -34zM712 1380
c-71.333 0 -134.833 -8.83301 -190.5 -26.5s-102.667 -48.167 -141 -91.5s-67.5 -101.166 -87.5 -173.499s-30 -163.5 -30 -273.5v-155c0 -110 9.83301 -201.333 29.5 -274s48.667 -130.667 87 -174s85.333 -73.833 141 -91.5s119.5 -26.5 191.5 -26.5
c71.333 0 134.833 8.83301 190.5 26.5s102.5 48.167 140.5 91.5s66.833 101.5 86.5 174.5s29.5 164.833 29.5 275.5v153c0 110 -9.83301 201.167 -29.5 273.5s-48.5 130.166 -86.5 173.499s-84.833 73.833 -140.5 91.5s-119.167 26.5 -190.5 26.5zM402 1605
c-9.33301 0 -14 4.66797 -14 14.001v22c0 44.667 5.16699 80.167 15.5 106.5s23.166 46.5 38.499 60.5s32.333 23 51 27s36.667 6 54 6c30 0 56.667 -5.33301 80 -16s46.666 -25 69.999 -43l49 -40c22 -17.333 42.167 -31 60.5 -41s37.5 -15 57.5 -15
c12 0 22.833 1.33301 32.5 4s17.834 8.66699 24.501 18s11.834 22.666 15.501 39.999s5.83398 41 6.50098 71c0 9.33301 4.66699 14 14 14h61c9.33301 0 14 -4.66699 14 -14v-23c0 -44 -5.16699 -79.167 -15.5 -105.5s-23.166 -46.5 -38.499 -60.5
s-32.5 -23.167 -51.5 -27.5s-36.833 -6.5 -53.5 -6.5c-29.333 0 -55.833 5.33301 -79.5 16s-47.167 25 -70.5 43l-50 41c-21.333 16.667 -41.166 30.167 -59.499 40.5s-37.5 15.5 -57.5 15.5c-12 0 -22.833 -1.33301 -32.5 -4s-17.834 -8.66699 -24.501 -18
s-11.834 -22.833 -15.501 -40.5s-5.83398 -41.167 -6.50098 -70.5c0 -9.33301 -4.66699 -14 -14 -14h-61z" />
    <glyph glyph-name="Odieresis" unicode="&#xd6;" horiz-adv-x="1422" 
d="M712 -22c-90.667 0 -171.167 11.3359 -241.5 34.0029s-129.5 60.834 -177.5 114.501s-84.5 124.667 -109.5 213s-37.5 198.5 -37.5 330.5v135c0 131.333 12.5 241.166 37.5 329.499s61.5 159.333 109.5 213s107.167 92 177.5 115s150.833 34.5 241.5 34.5
s171 -11.333 241 -34s128.833 -60.834 176.5 -114.501s83.834 -124.834 108.501 -213.501s37 -198.667 37 -330v-135c0 -132 -12.333 -242.167 -37 -330.5s-60.834 -159.333 -108.501 -213s-106.5 -91.834 -176.5 -114.501s-150.333 -34 -241 -34zM712 1380
c-71.333 0 -134.833 -8.83301 -190.5 -26.5s-102.667 -48.167 -141 -91.5s-67.5 -101.166 -87.5 -173.499s-30 -163.5 -30 -273.5v-155c0 -110 9.83301 -201.333 29.5 -274s48.667 -130.667 87 -174s85.333 -73.833 141 -91.5s119.5 -26.5 191.5 -26.5
c71.333 0 134.833 8.83301 190.5 26.5s102.5 48.167 140.5 91.5s66.833 101.5 86.5 174.5s29.5 164.833 29.5 275.5v153c0 110 -9.83301 201.167 -29.5 273.5s-48.5 130.166 -86.5 173.499s-84.833 73.833 -140.5 91.5s-119.167 26.5 -190.5 26.5zM519 1606
c-9.33301 0 -14 4.66699 -14 14v194c0 9.33301 4.66699 15 14 17l89 18c9.33301 2 14 -1.66699 14 -11v-218c0 -9.33301 -4.66699 -14 -14 -14h-89zM812 1606c-9.33301 0 -14 4.66699 -14 14v194c0 9.33301 4.66699 15 14 17l89 18c9.33301 2 14 -1.66699 14 -11v-218
c0 -9.33301 -4.66699 -14 -14 -14h-89z" />
    <glyph glyph-name="multiply" unicode="&#xd7;" horiz-adv-x="964" 
d="M166 1041c-6.66699 6.66699 -6.66699 13.334 0 20.001l57 56c6.66699 6.66699 13.334 6.66699 20.001 0l240 -240l241 241c6.66699 6.66699 13.334 6.66699 20.001 0l57 -56c6.66699 -6.66699 6.66699 -13.334 0 -20.001l-241 -241l241 -240
c6.66699 -6.66699 6.66699 -13.334 0 -20.001l-58 -57c-6.66699 -6.66699 -13.334 -6.66699 -20.001 0l-241 240l-239 -239c-6.66699 -6.66699 -13.334 -6.66699 -20.001 0l-56 56c-6.66699 6.66699 -6.66699 13.334 0 20.001l239 239z" />
    <glyph glyph-name="Oslash" unicode="&#xd8;" horiz-adv-x="1426" 
d="M241 204c-30.667 54 -53.832 119.168 -69.499 195.501s-23.5 166.5 -23.5 270.5v135c0 131.333 12.5 241.166 37.5 329.499s61.5 159.333 109.5 213s107.167 92 177.5 115s150.833 34.5 241.5 34.5c85.333 0 161.333 -10.167 228 -30.5s123.667 -54.166 171 -101.499
l75 99c5.33301 7.33301 12.666 11 21.999 11h114c9.33301 0 11.333 -3.66699 6 -11l-145 -193c30 -54 52.833 -119.167 68.5 -195.5s23.5 -166.5 23.5 -270.5v-135c0 -132 -12.333 -242.167 -37 -330.5s-60.834 -159.333 -108.501 -213s-106.5 -91.834 -176.5 -114.501
s-150.333 -34 -241 -34c-86 0 -162.5 10 -229.5 30s-124.5 53.667 -172.5 101l-74 -98c-5.33301 -7.33301 -12.666 -11 -21.999 -11h-114c-9.33301 0 -11.333 3.66699 -6 11zM1161 817.001c0 76 -4.66699 142.667 -14 200s-23 107 -41 149l-721 -960
c38 -42 84.333 -71.333 139 -88s118 -25 190 -25c71.333 0 134.833 8.83301 190.5 26.5s102.5 48.167 140.5 91.5s66.833 101.5 86.5 174.5s29.5 165.167 29.5 276.5v155zM714.002 1382c-71.333 0 -134.834 -8.83301 -190.501 -26.5s-102.667 -48.167 -141 -91.5
s-67.5 -101.5 -87.5 -174.5s-30 -164.5 -30 -274.5v-157c0 -76 4.66699 -142.667 14 -200s23 -107 41 -149l721 960c-38 41.333 -84.167 70.5 -138.5 87.5s-117.166 25.5 -188.499 25.5z" />
    <glyph glyph-name="Ugrave" unicode="&#xd9;" horiz-adv-x="1429" 
d="M745 1606c-10 0 -18.334 3 -25.001 9l-238 186c-7.33301 6 -6.33301 9 3 9h144c10 0 18 -3.33301 24 -10l197 -184c6.66699 -6.66699 5.33398 -10 -3.99902 -10h-101zM709.999 -22c-83.333 0 -157.331 9.33301 -221.998 28s-119.334 48.667 -164.001 90
s-78.5 95 -101.5 161s-34.5 146.333 -34.5 241v963c0 9.33301 4.66699 14 14 14h86c9.33301 0 14 -4.66699 14 -14v-934c0 -74 6.66699 -138.333 20 -193s35.833 -100.167 67.5 -136.5s73.667 -63.5 126 -81.5s117.166 -27 194.499 -27c80 0 146.667 8.83301 200 26.5
s96.333 44.667 129 81s55.834 82 69.501 137s20.5 119.5 20.5 193.5v934c0 9.33301 4.66699 14 14 14h84c9.33301 0 14 -4.66699 14 -14v-963c0 -94.667 -11.833 -175 -35.5 -241s-58.167 -119.667 -103.5 -161s-100.833 -71.333 -166.5 -90s-140.834 -28 -225.501 -28z" />
    <glyph glyph-name="Uacute" unicode="&#xda;" horiz-adv-x="1429" 
d="M710 -22c-83.333 0 -157.331 9.33301 -221.998 28s-119.334 48.667 -164.001 90s-78.5 95 -101.5 161s-34.5 146.333 -34.5 241v963c0 9.33301 4.66699 14 14 14h86c9.33301 0 14 -4.66699 14 -14v-934c0 -74 6.66699 -138.333 20 -193s35.833 -100.167 67.5 -136.5
s73.667 -63.5 126 -81.5s117.166 -27 194.499 -27c80 0 146.667 8.83301 200 26.5s96.333 44.667 129 81s55.834 82 69.501 137s20.5 119.5 20.5 193.5v934c0 9.33301 4.66699 14 14 14h84c9.33301 0 14 -4.66699 14 -14v-963c0 -94.667 -11.833 -175 -35.5 -241
s-58.167 -119.667 -103.5 -161s-100.833 -71.333 -166.5 -90s-140.834 -28 -225.501 -28zM597.002 1606c-9.33301 0 -10.667 3.33301 -4 10l197 184c6 6.66699 14 10 24 10h144c9.33301 0 10.333 -3 3 -9l-238 -186c-6.66699 -6 -15 -9 -25 -9h-101z" />
    <glyph glyph-name="Ucircumflex" unicode="&#xdb;" horiz-adv-x="1429" 
d="M647 1801c6 6 14 9 24 9h84c10 0 18 -3 24 -9l211 -186c3.33301 -2.66699 4.5 -4.83398 3.5 -6.50098s-3.5 -2.5 -7.5 -2.5h-108c-10 0 -18 3 -24 9l-131 120h-20l-131 -120c-6 -6 -14 -9 -24 -9h-108c-4 0 -6.5 0.833008 -7.5 2.5s0.166992 3.83398 3.5 6.50098z
M710 -22c-83.333 0 -157.331 9.33301 -221.998 28s-119.334 48.667 -164.001 90s-78.5 95 -101.5 161s-34.5 146.333 -34.5 241v963c0 9.33301 4.66699 14 14 14h86c9.33301 0 14 -4.66699 14 -14v-934c0 -74 6.66699 -138.333 20 -193s35.833 -100.167 67.5 -136.5
s73.667 -63.5 126 -81.5s117.166 -27 194.499 -27c80 0 146.667 8.83301 200 26.5s96.333 44.667 129 81s55.834 82 69.501 137s20.5 119.5 20.5 193.5v934c0 9.33301 4.66699 14 14 14h84c9.33301 0 14 -4.66699 14 -14v-963c0 -94.667 -11.833 -175 -35.5 -241
s-58.167 -119.667 -103.5 -161s-100.833 -71.333 -166.5 -90s-140.834 -28 -225.501 -28z" />
    <glyph glyph-name="Udieresis" unicode="&#xdc;" horiz-adv-x="1429" 
d="M710 -22c-83.333 0 -157.331 9.33301 -221.998 28s-119.334 48.667 -164.001 90s-78.5 95 -101.5 161s-34.5 146.333 -34.5 241v963c0 9.33301 4.66699 14 14 14h86c9.33301 0 14 -4.66699 14 -14v-934c0 -74 6.66699 -138.333 20 -193s35.833 -100.167 67.5 -136.5
s73.667 -63.5 126 -81.5s117.166 -27 194.499 -27c80 0 146.667 8.83301 200 26.5s96.333 44.667 129 81s55.834 82 69.501 137s20.5 119.5 20.5 193.5v934c0 9.33301 4.66699 14 14 14h84c9.33301 0 14 -4.66699 14 -14v-963c0 -94.667 -11.833 -175 -35.5 -241
s-58.167 -119.667 -103.5 -161s-100.833 -71.333 -166.5 -90s-140.834 -28 -225.501 -28zM522.002 1606c-9.33301 0 -14 4.66699 -14 14v194c0 9.33301 4.66699 15 14 17l89 18c9.33301 2 14 -1.66699 14 -11v-218c0 -9.33301 -4.66699 -14 -14 -14h-89zM815.002 1606
c-9.33301 0 -14 4.66699 -14 14v194c0 9.33301 4.66699 15 14 17l89 18c9.33301 2 14 -1.66699 14 -11v-218c0 -9.33301 -4.66699 -14 -14 -14h-89z" />
    <glyph glyph-name="Yacute" unicode="&#xdd;" horiz-adv-x="1154" 
d="M535 0c-9.33301 0 -14 4.66699 -14 14v501l-492 948c-4 8 -1.33301 12 8 12h99c10 0 16.667 -4 20 -12l422 -811l422 811c3.33301 8 10 12 20 12h97c9.33301 0 12 -4 8 -12l-490 -948v-501c0 -9.33301 -4.66699 -14 -14 -14h-86zM462 1606
c-9.33301 0 -10.667 3.33301 -4 10l197 184c6 6.66699 14 10 24 10h144c9.33301 0 10.333 -3 3 -9l-238 -186c-6.66699 -6 -15 -9 -25 -9h-101z" />
    <glyph glyph-name="Thorn" unicode="&#xde;" horiz-adv-x="1271" 
d="M218 0c-9.33301 0 -13.999 4.66406 -13.999 13.9971v1447c0 9.33301 4.66699 14 14 14h85c9.33301 0 14 -4.66699 14 -14v-198l59 2l57.5 2c18.333 0.666992 35.5 1.16699 51.5 1.5s30 0.5 42 0.5c113.333 0 210.333 -5.5 291 -16.5s146.834 -32.333 198.501 -64
s89.5 -76.167 113.5 -133.5s36 -132.666 36 -225.999v-74c0 -93.333 -12 -168.666 -36 -225.999s-61.833 -101.833 -113.5 -133.5s-117.834 -52.834 -198.501 -63.501s-177.667 -16 -291 -16c-14.667 0 -32.834 0.333008 -54.501 1l-65 2
c-21.667 0.666992 -41 1.33398 -58 2.00098s-27.833 1.33398 -32.5 2.00098v-309c0 -9.33301 -4.66699 -14 -14 -14h-85zM527.001 1162c-12 0 -27.5 -0.166992 -46.5 -0.5s-38.833 -1 -59.5 -2l-59.5 -3c-19 -1 -33.833 -1.83301 -44.5 -2.5v-724
c10.667 -1.33301 25.5 -2.33301 44.5 -3s38.833 -1.5 59.5 -2.5s40.5 -1.66699 59.5 -2s34.5 -0.5 46.5 -0.5c98.667 0 181.667 4.5 249 13.5s121.333 26 162 51s69.834 59.833 87.501 104.5s26.5 102.667 26.5 174v53c0 71.333 -8.83301 129.5 -26.5 174.5
s-46.834 80 -87.501 105s-94.667 42 -162 51s-150.333 13.5 -249 13.5z" />
    <glyph glyph-name="germandbls" unicode="&#xdf;" horiz-adv-x="1199" 
d="M186 0c-9.33301 0 -13.9951 4.66895 -13.9951 14.002v1062c0 96 10.5 176.167 31.5 240.5s50.667 116 89 155s84.666 66.667 138.999 83s114.5 24.5 180.5 24.5c132.667 0 235.167 -31.667 307.5 -95s108.5 -156 108.5 -278v-17c0 -36 -3.5 -71.5 -10.5 -106.5
s-18.667 -67.5 -35 -97.5s-38 -56.5 -65 -79.5s-60.167 -40.5 -99.5 -52.5c50 -12.667 91.667 -31.667 125 -57s59.666 -55.5 78.999 -90.5s33 -74 41 -117s12 -88.167 12 -135.5v-32c0 -83.333 -9.5 -153.333 -28.5 -210s-46.5 -102.334 -82.5 -137.001
s-80 -59.334 -132 -74.001s-111 -22 -177 -22c-69.333 0 -131 7.66699 -185 23c-8.66699 2.66699 -12 8.66699 -10 18l12 66c2 9.33301 7.66699 13 17 11c23.333 -5.33301 46 -9.5 68 -12.5s49.667 -4.5 83 -4.5c54 0 101 5.83301 141 17.5s73.167 31 99.5 58
s46.166 62.5 59.499 106.5s20 98.667 20 164v41c0 46.667 -5.83301 90.334 -17.5 131.001s-30 76 -55 106s-57.167 53.667 -96.5 71s-87 26.666 -143 27.999l-129 1c-9.33301 0 -14 4.66699 -14 14v72c0 9.33301 4.66699 14 14 14l129 2
c54.667 0.666992 99.5 9.66699 134.5 27s62.167 39.5 81.5 66.5s32.666 56.833 39.999 89.5s11 64.667 11 96v15c0 92 -25.5 160.833 -76.5 206.5s-126.167 68.5 -225.5 68.5c-55.333 0 -103.5 -7 -144.5 -21s-75.333 -37 -103 -69s-48.334 -74.167 -62.001 -126.5
s-20.5 -116.5 -20.5 -192.5v-1051c0 -9.33301 -4.66699 -14 -14 -14h-83z" />
    <glyph glyph-name="agrave" unicode="&#xe0;" horiz-adv-x="1093" 
d="M565 75c45.333 0 89.5 1.66797 132.5 5.00098s84.167 7.66602 123.5 12.999v446h-165c-95.333 0 -172.5 -3 -231.5 -9s-104.667 -17.333 -137 -34s-54.166 -39.834 -65.499 -69.501s-17 -68.167 -17 -115.5c0 -52 8.5 -93.667 25.5 -125s41.167 -55.166 72.5 -71.499
s69.166 -27 113.499 -32s93.833 -7.5 148.5 -7.5zM534 990.001c-58.667 0 -113.166 -2.33203 -163.499 -6.99902s-101.166 -11.334 -152.499 -20.001c-9.33301 -0.666992 -14 3.33301 -14 12v71c0 9.33301 4.66699 15 14 17c26 4.66699 53.667 8.83398 83 12.501
s58.166 6.83398 86.499 9.50098s55.666 4.66699 81.999 6s50.166 2 71.499 2c87.333 0 156.666 -7.16699 207.999 -21.5s90.5 -37.5 117.5 -69.5s44.333 -73.667 52 -125s11.5 -114 11.5 -188v-665c0 -10 -4.66699 -15.333 -14 -16
c-29.333 -4.66699 -60 -8.83398 -92 -12.501s-63.667 -6.83398 -95 -9.50098s-61.166 -4.66699 -89.499 -6s-53.166 -2 -74.499 -2c-79.333 0 -148 4.83301 -206 14.5s-106.333 27 -145 52s-67.334 59 -86.001 102s-28 97.5 -28 163.5c0 42 3.33301 79.333 10 112
s18.167 61.167 34.5 85.5s38.5 44.833 66.5 61.5s63 30 105 40s91.833 17.167 149.5 21.5s124.834 6.5 201.501 6.5h154v85c0 54 -3.66699 98.333 -11 133s-21.5 62 -42.5 82s-50.167 33.833 -87.5 41.5s-86 11.5 -146 11.5zM538.001 1262
c-5.33301 0 -9.66699 0.833008 -13 2.5s-6.66602 4.5 -9.99902 8.5l-199 237c-6 7.33301 -4.33301 11 5 11h119c9.33301 0 16.666 -3.66699 21.999 -11l173 -237c5.33301 -7.33301 3.33301 -11 -6 -11h-91z" />
    <glyph glyph-name="aacute" unicode="&#xe1;" horiz-adv-x="1093" 
d="M565 75c45.333 0 89.5 1.66797 132.5 5.00098s84.167 7.66602 123.5 12.999v446h-165c-95.333 0 -172.5 -3 -231.5 -9s-104.667 -17.333 -137 -34s-54.166 -39.834 -65.499 -69.501s-17 -68.167 -17 -115.5c0 -52 8.5 -93.667 25.5 -125s41.167 -55.166 72.5 -71.499
s69.166 -27 113.499 -32s93.833 -7.5 148.5 -7.5zM534 990.001c-58.667 0 -113.166 -2.33203 -163.499 -6.99902s-101.166 -11.334 -152.499 -20.001c-9.33301 -0.666992 -14 3.33301 -14 12v71c0 9.33301 4.66699 15 14 17c26 4.66699 53.667 8.83398 83 12.501
s58.166 6.83398 86.499 9.50098s55.666 4.66699 81.999 6s50.166 2 71.499 2c87.333 0 156.666 -7.16699 207.999 -21.5s90.5 -37.5 117.5 -69.5s44.333 -73.667 52 -125s11.5 -114 11.5 -188v-665c0 -10 -4.66699 -15.333 -14 -16
c-29.333 -4.66699 -60 -8.83398 -92 -12.501s-63.667 -6.83398 -95 -9.50098s-61.166 -4.66699 -89.499 -6s-53.166 -2 -74.499 -2c-79.333 0 -148 4.83301 -206 14.5s-106.333 27 -145 52s-67.334 59 -86.001 102s-28 97.5 -28 163.5c0 42 3.33301 79.333 10 112
s18.167 61.167 34.5 85.5s38.5 44.833 66.5 61.5s63 30 105 40s91.833 17.167 149.5 21.5s124.834 6.5 201.501 6.5h154v85c0 54 -3.66699 98.333 -11 133s-21.5 62 -42.5 82s-50.167 33.833 -87.5 41.5s-86 11.5 -146 11.5zM444.001 1262
c-9.33301 0 -11.334 3.66699 -6.00098 11l173 237c5.33301 7.33301 12.666 11 21.999 11h119c9.33301 0 11 -3.66699 5 -11l-199 -237c-3.33301 -4 -6.66602 -6.83301 -9.99902 -8.5s-7.66602 -2.5 -12.999 -2.5h-91z" />
    <glyph glyph-name="acircumflex" unicode="&#xe2;" horiz-adv-x="1093" 
d="M565 75c45.333 0 89.5 1.66797 132.5 5.00098s84.167 7.66602 123.5 12.999v446h-165c-95.333 0 -172.5 -3 -231.5 -9s-104.667 -17.333 -137 -34s-54.166 -39.834 -65.499 -69.501s-17 -68.167 -17 -115.5c0 -52 8.5 -93.667 25.5 -125s41.167 -55.166 72.5 -71.499
s69.166 -27 113.499 -32s93.833 -7.5 148.5 -7.5zM534 990.001c-58.667 0 -113.166 -2.33203 -163.499 -6.99902s-101.166 -11.334 -152.499 -20.001c-9.33301 -0.666992 -14 3.33301 -14 12v71c0 9.33301 4.66699 15 14 17c26 4.66699 53.667 8.83398 83 12.501
s58.166 6.83398 86.499 9.50098s55.666 4.66699 81.999 6s50.166 2 71.499 2c87.333 0 156.666 -7.16699 207.999 -21.5s90.5 -37.5 117.5 -69.5s44.333 -73.667 52 -125s11.5 -114 11.5 -188v-665c0 -10 -4.66699 -15.333 -14 -16
c-29.333 -4.66699 -60 -8.83398 -92 -12.501s-63.667 -6.83398 -95 -9.50098s-61.166 -4.66699 -89.499 -6s-53.166 -2 -74.499 -2c-79.333 0 -148 4.83301 -206 14.5s-106.333 27 -145 52s-67.334 59 -86.001 102s-28 97.5 -28 163.5c0 42 3.33301 79.333 10 112
s18.167 61.167 34.5 85.5s38.5 44.833 66.5 61.5s63 30 105 40s91.833 17.167 149.5 21.5s124.834 6.5 201.501 6.5h154v85c0 54 -3.66699 98.333 -11 133s-21.5 62 -42.5 82s-50.167 33.833 -87.5 41.5s-86 11.5 -146 11.5zM473.001 1510
c3.33301 4 6.66602 6.83301 9.99902 8.5s7.66602 2.5 12.999 2.5h83c5.33301 0 9.66602 -0.833008 12.999 -2.5s6.66602 -4.5 9.99902 -8.5l199 -233c6 -7.33301 4.33301 -11 -5 -11h-98c-5.33301 0 -9.66602 0.833008 -12.999 2.5s-6.66602 4.5 -9.99902 8.5l-127 161h-20
l-128 -161c-3.33301 -4 -6.66602 -6.83301 -9.99902 -8.5s-7.66602 -2.5 -12.999 -2.5h-97c-9.33301 0 -11 3.66699 -5 11z" />
    <glyph glyph-name="atilde" unicode="&#xe3;" horiz-adv-x="1093" 
d="M565 75c45.333 0 89.5 1.66797 132.5 5.00098s84.167 7.66602 123.5 12.999v446h-165c-95.333 0 -172.5 -3 -231.5 -9s-104.667 -17.333 -137 -34s-54.166 -39.834 -65.499 -69.501s-17 -68.167 -17 -115.5c0 -52 8.5 -93.667 25.5 -125s41.167 -55.166 72.5 -71.499
s69.166 -27 113.499 -32s93.833 -7.5 148.5 -7.5zM534 990.001c-58.667 0 -113.166 -2.33203 -163.499 -6.99902s-101.166 -11.334 -152.499 -20.001c-9.33301 -0.666992 -14 3.33301 -14 12v71c0 9.33301 4.66699 15 14 17c26 4.66699 53.667 8.83398 83 12.501
s58.166 6.83398 86.499 9.50098s55.666 4.66699 81.999 6s50.166 2 71.499 2c87.333 0 156.666 -7.16699 207.999 -21.5s90.5 -37.5 117.5 -69.5s44.333 -73.667 52 -125s11.5 -114 11.5 -188v-665c0 -10 -4.66699 -15.333 -14 -16
c-29.333 -4.66699 -60 -8.83398 -92 -12.501s-63.667 -6.83398 -95 -9.50098s-61.166 -4.66699 -89.499 -6s-53.166 -2 -74.499 -2c-79.333 0 -148 4.83301 -206 14.5s-106.333 27 -145 52s-67.334 59 -86.001 102s-28 97.5 -28 163.5c0 42 3.33301 79.333 10 112
s18.167 61.167 34.5 85.5s38.5 44.833 66.5 61.5s63 30 105 40s91.833 17.167 149.5 21.5s124.834 6.5 201.501 6.5h154v85c0 54 -3.66699 98.333 -11 133s-21.5 62 -42.5 82s-50.167 33.833 -87.5 41.5s-86 11.5 -146 11.5zM380.001 1433
c-11.333 0 -21.502 -1.49512 -30.502 -4.49512s-16.833 -9.83301 -23.5 -20.5s-11.667 -25.834 -15 -45.501s-5.33301 -45.834 -6 -78.501c0 -9.33301 -4.66699 -14 -14 -14h-61c-9.33301 0 -14.333 4.66699 -15 14c0 5.33301 -0.166992 11 -0.5 17s-0.5 10.333 -0.5 13
c0 47.333 5.16699 85.166 15.5 113.499s23.166 49.833 38.499 64.5s32.333 24.167 51 28.5s36.667 6.5 54 6.5c28.667 0 54 -5 76 -15s43.667 -23.667 65 -41l57 -46c22.667 -18 43.334 -33.167 62.001 -45.5s38.667 -18.5 60 -18.5c11.333 0 21.5 1.5 30.5 4.5
s16.667 9.66699 23 20s11.166 25.166 14.499 44.499s5.33301 45.666 6 78.999c0 9.33301 4.66699 14 14 14h62c9.33301 0 14 -4.66699 14 -14c0.666992 -5.33301 1 -10.833 1 -16.5v-12.5c0 -48 -5.16699 -86 -15.5 -114s-23.166 -49.333 -38.499 -64
s-32.5 -24.167 -51.5 -28.5s-36.833 -6.5 -53.5 -6.5c-28 0 -52.833 4.83301 -74.5 14.5s-43.5 23.167 -65.5 40.5l-57 46c-23.333 19.333 -44.166 35 -62.499 47s-38.166 18 -59.499 18z" />
    <glyph glyph-name="adieresis" unicode="&#xe4;" horiz-adv-x="1093" 
d="M565 75c45.333 0 89.5 1.66797 132.5 5.00098s84.167 7.66602 123.5 12.999v446h-165c-95.333 0 -172.5 -3 -231.5 -9s-104.667 -17.333 -137 -34s-54.166 -39.834 -65.499 -69.501s-17 -68.167 -17 -115.5c0 -52 8.5 -93.667 25.5 -125s41.167 -55.166 72.5 -71.499
s69.166 -27 113.499 -32s93.833 -7.5 148.5 -7.5zM534 990.001c-58.667 0 -113.166 -2.33203 -163.499 -6.99902s-101.166 -11.334 -152.499 -20.001c-9.33301 -0.666992 -14 3.33301 -14 12v71c0 9.33301 4.66699 15 14 17c26 4.66699 53.667 8.83398 83 12.501
s58.166 6.83398 86.499 9.50098s55.666 4.66699 81.999 6s50.166 2 71.499 2c87.333 0 156.666 -7.16699 207.999 -21.5s90.5 -37.5 117.5 -69.5s44.333 -73.667 52 -125s11.5 -114 11.5 -188v-665c0 -10 -4.66699 -15.333 -14 -16
c-29.333 -4.66699 -60 -8.83398 -92 -12.501s-63.667 -6.83398 -95 -9.50098s-61.166 -4.66699 -89.499 -6s-53.166 -2 -74.499 -2c-79.333 0 -148 4.83301 -206 14.5s-106.333 27 -145 52s-67.334 59 -86.001 102s-28 97.5 -28 163.5c0 42 3.33301 79.333 10 112
s18.167 61.167 34.5 85.5s38.5 44.833 66.5 61.5s63 30 105 40s91.833 17.167 149.5 21.5s124.834 6.5 201.501 6.5h154v85c0 54 -3.66699 98.333 -11 133s-21.5 62 -42.5 82s-50.167 33.833 -87.5 41.5s-86 11.5 -146 11.5zM335.001 1252c-9.33301 0 -14 4.66699 -14 14
v258c0 9.33301 4.66699 15 14 17l90 18c9.33301 2 14 -1.66699 14 -11v-282c0 -9.33301 -4.66699 -14 -14 -14h-90zM629.001 1252c-9.33301 0 -14 4.66699 -14 14v258c0 9.33301 4.66699 15 14 17l90 18c9.33301 2 14 -1.66699 14 -11v-282c0 -9.33301 -4.66699 -14 -14 -14
h-90z" />
    <glyph glyph-name="aring" unicode="&#xe5;" horiz-adv-x="1093" 
d="M565 75c45.333 0 89.5 1.66797 132.5 5.00098s84.167 7.66602 123.5 12.999v446h-165c-95.333 0 -172.5 -3 -231.5 -9s-104.667 -17.333 -137 -34s-54.166 -39.834 -65.499 -69.501s-17 -68.167 -17 -115.5c0 -52 8.5 -93.667 25.5 -125s41.167 -55.166 72.5 -71.499
s69.166 -27 113.499 -32s93.833 -7.5 148.5 -7.5zM534 990.001c-58.667 0 -113.166 -2.33203 -163.499 -6.99902s-101.166 -11.334 -152.499 -20.001c-9.33301 -0.666992 -14 3.33301 -14 12v71c0 9.33301 4.66699 15 14 17c26 4.66699 53.667 8.83398 83 12.501
s58.166 6.83398 86.499 9.50098s55.666 4.66699 81.999 6s50.166 2 71.499 2c87.333 0 156.666 -7.16699 207.999 -21.5s90.5 -37.5 117.5 -69.5s44.333 -73.667 52 -125s11.5 -114 11.5 -188v-665c0 -10 -4.66699 -15.333 -14 -16
c-29.333 -4.66699 -60 -8.83398 -92 -12.501s-63.667 -6.83398 -95 -9.50098s-61.166 -4.66699 -89.499 -6s-53.166 -2 -74.499 -2c-79.333 0 -148 4.83301 -206 14.5s-106.333 27 -145 52s-67.334 59 -86.001 102s-28 97.5 -28 163.5c0 42 3.33301 79.333 10 112
s18.167 61.167 34.5 85.5s38.5 44.833 66.5 61.5s63 30 105 40s91.833 17.167 149.5 21.5s124.834 6.5 201.501 6.5h154v85c0 54 -3.66699 98.333 -11 133s-21.5 62 -42.5 82s-50.167 33.833 -87.5 41.5s-86 11.5 -146 11.5zM538.001 1501c-40 0 -69.5 -7.33301 -88.5 -22
s-28.5 -41 -28.5 -79s9.5 -64.333 28.5 -79s48.5 -22 88.5 -22s69.167 7.5 87.5 22.5s27.5 41.5 27.5 79.5s-9 64.167 -27 78.5s-47.333 21.5 -88 21.5zM536.001 1224c-132.667 0 -199 58.667 -199 176c0 58.667 16.5 102.834 49.5 132.501s82.833 44.5 149.5 44.5
c64.667 0 114 -14.833 148 -44.5s51 -73.5 51 -131.5c0 -58.667 -17 -102.834 -51 -132.501s-83.333 -44.5 -148 -44.5z" />
    <glyph glyph-name="ae" unicode="&#xe6;" horiz-adv-x="1843" 
d="M534 990c-58.667 0 -113.174 -2.33398 -163.507 -7.00098s-101.166 -11.334 -152.499 -20.001c-9.33301 -0.666992 -14 3.33301 -14 12v71c0 9.33301 4.66699 15 14 17c26 4.66699 53.667 8.83398 83 12.501s58.166 6.83398 86.499 9.50098s55.666 4.66699 81.999 6
s50.166 2 71.499 2c56 0 104.5 -3 145.5 -9s75.833 -15.167 104.5 -27.5s52 -28.333 70 -48s32 -43.5 42 -71.5c35.333 52 83.5 90.833 144.5 116.5s138.167 38.5 231.5 38.5c82 0 151.667 -9.33301 209 -28s104.333 -46.667 141 -84s63.334 -83.666 80.001 -138.999
s25 -120 25 -194c0 -26 -1.16699 -48.667 -3.5 -68s-4.16602 -33.666 -5.49902 -42.999c-2 -9.33301 -7.66699 -14 -17 -14h-776v-20c0 -78.667 5.83301 -144.834 17.5 -198.501s31.334 -97.167 59.001 -130.5s64.834 -57.333 111.501 -72s105 -22 175 -22
c56.667 0 112.834 1.33301 168.501 4s113.834 9.33398 174.501 20.001c10 2 15.333 -1.66699 16 -11l13 -68c0.666992 -9.33301 -3.33301 -15 -12 -17c-56 -10.667 -113.167 -18.167 -171.5 -22.5s-121.833 -6.5 -190.5 -6.5c-85.333 0 -157.666 9 -216.999 27
s-108 47.667 -146 89v-70c0 -10 -4.66699 -15.333 -14 -16c-29.333 -4.66699 -60 -8.83398 -92 -12.501s-63.667 -6.83398 -95 -9.50098s-61.166 -4.66699 -89.499 -6s-53.166 -2 -74.499 -2c-79.333 0 -148 4.83301 -206 14.5s-106.333 27 -145 52s-67.334 59 -86.001 102
s-28 97.5 -28 163.5c0 40 3.33301 75.333 10 106s18.167 57.5 34.5 80.5s38.5 42.5 66.5 58.5s63 28.833 105 38.5s91.833 16.667 149.5 21s124.834 6.5 201.501 6.5h154v101c0 54 -3.66699 98.333 -11 133s-21.5 62 -42.5 82s-50.167 33.833 -87.5 41.5s-86 11.5 -146 11.5
zM564.993 74.999c45.333 0 89.5 1.66602 132.5 4.99902s84.167 7.66602 123.5 12.999v429h-165c-95.333 0 -172.5 -2.83301 -231.5 -8.5s-104.667 -16.167 -137 -31.5s-54.166 -36.666 -65.499 -63.999s-17 -63 -17 -107c0 -52 8.5 -93.667 25.5 -125
s41.167 -55.166 72.5 -71.499s69.166 -27 113.499 -32s93.833 -7.5 148.5 -7.5zM1630.99 622.998c-1.33301 63.333 -7.83203 118.167 -19.499 164.5s-31 84.5 -58 114.5s-62.833 52.167 -107.5 66.5s-100.334 21.5 -167.001 21.5c-63.333 0 -116.5 -7.33301 -159.5 -22
s-78 -37.167 -105 -67.5s-47 -69 -60 -116s-20.5 -102.833 -22.5 -167.5z" />
    <glyph glyph-name="ccedilla" unicode="&#xe7;" horiz-adv-x="964" 
d="M628 -22c-92 0 -169.501 7.66602 -232.501 22.999s-114 42.5 -153 81.5s-67 91.333 -84 157s-25.5 149.167 -25.5 250.5v92c0 92.667 7.83301 171.334 23.5 236.001s42.5 117.334 80.5 158.001s88.833 70.167 152.5 88.5s143.167 27.5 238.5 27.5
c43.333 0 84.833 -2 124.5 -6s75.834 -8.66699 108.501 -14c9.33301 -2 13 -7.66699 11 -17l-13 -69c-2 -8.66699 -7.66699 -12.667 -17 -12c-32 5.33301 -66.667 9 -104 11s-73.333 3 -108 3c-77.333 0 -140.833 -6.83301 -190.5 -20.5s-88.834 -36.834 -117.501 -69.501
s-48.667 -76.167 -60 -130.5s-17 -121.833 -17 -202.5v-61c0 -82.667 5.66699 -151.167 17 -205.5s31.333 -97.666 60 -129.999s67.834 -55 117.501 -68s113.167 -19.5 190.5 -19.5c38 0 75.333 1.16699 112 3.5s71 6.16602 103 11.499c10 2 15.333 -1.66699 16 -11l12 -71
c0.666992 -9.33301 -3.33301 -15 -12 -17c-32.667 -5.33301 -70.167 -9.83301 -112.5 -13.5s-82.5 -5.5 -120.5 -5.5zM387.999 -389.001c-10 0 -12.333 4 -7 12l143 263c4.66699 8 11.667 12 21 12h79c9.33301 0 12 -4 8 -12l-133 -263c-3.33301 -8 -10 -12 -20 -12h-91z
" />
    <glyph glyph-name="egrave" unicode="&#xe8;" horiz-adv-x="1151" 
d="M602 -22c-84.667 0 -156.831 9.16797 -216.498 27.501s-108.334 48.333 -146.001 90s-65.167 95.834 -82.5 162.501s-26 148.667 -26 246v78c0 86 8.16699 161 24.5 225s42.666 117 78.999 159s83.5 73.5 141.5 94.5s128.667 31.5 212 31.5c82 0 151.667 -10 209 -30
s104.333 -49.833 141 -89.5s63.334 -89 80.001 -148s25 -127.5 25 -205.5c0 -26 -1.16699 -48.667 -3.5 -68s-4.16602 -33.666 -5.49902 -42.999c-2 -9.33301 -7.66699 -14 -17 -14l-776 -1c0.666992 -76.667 7 -141.334 19 -194.001s32 -95.334 60 -128.001
s65.167 -56.167 111.5 -70.5s104.166 -21.5 173.499 -21.5c28.667 0 56.5 0.166992 83.5 0.5s54 1.33301 81 3s54.5 4.16699 82.5 7.5s57.333 7.66602 88 12.999c10 0.666992 15.333 -3.33301 16 -12l12 -68c0.666992 -9.33301 -3.33301 -15 -12 -17
c-28 -5.33301 -55.833 -9.83301 -83.5 -13.5s-55.667 -6.5 -84 -8.5s-57.833 -3.5 -88.5 -4.5s-63.334 -1.5 -98.001 -1.5zM940.003 595.001c-1.33301 68 -7.83203 126.834 -19.499 176.501s-31 90.667 -58 123s-62.833 56.333 -107.5 72s-100.334 23.5 -167.001 23.5
c-65.333 0 -119.833 -7.83301 -163.5 -23.5s-79 -39.834 -106 -72.501s-46.5 -74.167 -58.5 -124.5s-18.333 -110.5 -19 -180.5zM607.004 1262c-5.33301 0 -9.66699 0.833008 -13 2.5s-6.66602 4.5 -9.99902 8.5l-199 237c-6 7.33301 -4.33301 11 5 11h119
c9.33301 0 16.666 -3.66699 21.999 -11l173 -237c5.33301 -7.33301 3.33301 -11 -6 -11h-91z" />
    <glyph glyph-name="eacute" unicode="&#xe9;" horiz-adv-x="1151" 
d="M506 1262c-9.33301 0 -11.334 3.66699 -6.00098 11l173 237c5.33301 7.33301 12.666 11 21.999 11h119c9.33301 0 11 -3.66699 5 -11l-199 -237c-3.33301 -4 -6.66602 -6.83301 -9.99902 -8.5s-7.66602 -2.5 -12.999 -2.5h-91zM601.999 -22
c-84.667 0 -156.831 9.16797 -216.498 27.501s-108.334 48.333 -146.001 90s-65.167 95.834 -82.5 162.501s-26 148.667 -26 246v78c0 86 8.16699 161 24.5 225s42.666 117 78.999 159s83.5 73.5 141.5 94.5s128.667 31.5 212 31.5c82 0 151.667 -10 209 -30
s104.333 -49.833 141 -89.5s63.334 -89 80.001 -148s25 -127.5 25 -205.5c0 -26 -1.16699 -48.667 -3.5 -68s-4.16602 -33.666 -5.49902 -42.999c-2 -9.33301 -7.66699 -14 -17 -14l-776 -1c0.666992 -76.667 7 -141.334 19 -194.001s32 -95.334 60 -128.001
s65.167 -56.167 111.5 -70.5s104.166 -21.5 173.499 -21.5c28.667 0 56.5 0.166992 83.5 0.5s54 1.33301 81 3s54.5 4.16699 82.5 7.5s57.333 7.66602 88 12.999c10 0.666992 15.333 -3.33301 16 -12l12 -68c0.666992 -9.33301 -3.33301 -15 -12 -17
c-28 -5.33301 -55.833 -9.83301 -83.5 -13.5s-55.667 -6.5 -84 -8.5s-57.833 -3.5 -88.5 -4.5s-63.334 -1.5 -98.001 -1.5zM940.002 595.001c-1.33301 68 -7.83203 126.834 -19.499 176.501s-31 90.667 -58 123s-62.833 56.333 -107.5 72s-100.334 23.5 -167.001 23.5
c-65.333 0 -119.833 -7.83301 -163.5 -23.5s-79 -39.834 -106 -72.501s-46.5 -74.167 -58.5 -124.5s-18.333 -110.5 -19 -180.5z" />
    <glyph glyph-name="ecircumflex" unicode="&#xea;" horiz-adv-x="1151" 
d="M531 1510c3.33301 4 6.66602 6.83301 9.99902 8.5s7.66602 2.5 12.999 2.5h83c5.33301 0 9.66602 -0.833008 12.999 -2.5s6.66602 -4.5 9.99902 -8.5l199 -233c6 -7.33301 4.33301 -11 -5 -11h-98c-5.33301 0 -9.66602 0.833008 -12.999 2.5s-6.66602 4.5 -9.99902 8.5
l-127 161h-20l-128 -161c-3.33301 -4 -6.66602 -6.83301 -9.99902 -8.5s-7.66602 -2.5 -12.999 -2.5h-97c-9.33301 0 -11 3.66699 -5 11zM602 -22c-84.667 0 -156.831 9.16797 -216.498 27.501s-108.334 48.333 -146.001 90s-65.167 95.834 -82.5 162.501
s-26 148.667 -26 246v78c0 86 8.16699 161 24.5 225s42.666 117 78.999 159s83.5 73.5 141.5 94.5s128.667 31.5 212 31.5c82 0 151.667 -10 209 -30s104.333 -49.833 141 -89.5s63.334 -89 80.001 -148s25 -127.5 25 -205.5c0 -26 -1.16699 -48.667 -3.5 -68
s-4.16602 -33.666 -5.49902 -42.999c-2 -9.33301 -7.66699 -14 -17 -14l-776 -1c0.666992 -76.667 7 -141.334 19 -194.001s32 -95.334 60 -128.001s65.167 -56.167 111.5 -70.5s104.166 -21.5 173.499 -21.5c28.667 0 56.5 0.166992 83.5 0.5s54 1.33301 81 3
s54.5 4.16699 82.5 7.5s57.333 7.66602 88 12.999c10 0.666992 15.333 -3.33301 16 -12l12 -68c0.666992 -9.33301 -3.33301 -15 -12 -17c-28 -5.33301 -55.833 -9.83301 -83.5 -13.5s-55.667 -6.5 -84 -8.5s-57.833 -3.5 -88.5 -4.5s-63.334 -1.5 -98.001 -1.5z
M940.003 595.001c-1.33301 68 -7.83203 126.834 -19.499 176.501s-31 90.667 -58 123s-62.833 56.333 -107.5 72s-100.334 23.5 -167.001 23.5c-65.333 0 -119.833 -7.83301 -163.5 -23.5s-79 -39.834 -106 -72.501s-46.5 -74.167 -58.5 -124.5s-18.333 -110.5 -19 -180.5z
" />
    <glyph glyph-name="edieresis" unicode="&#xeb;" horiz-adv-x="1151" 
d="M392 1252c-9.33301 0 -14 4.66699 -14 14v258c0 9.33301 4.66699 15 14 17l90 18c9.33301 2 14 -1.66699 14 -11v-282c0 -9.33301 -4.66699 -14 -14 -14h-90zM686 1252c-9.33301 0 -14 4.66699 -14 14v258c0 9.33301 4.66699 15 14 17l90 18
c9.33301 2 14 -1.66699 14 -11v-282c0 -9.33301 -4.66699 -14 -14 -14h-90zM602 -22c-84.667 0 -156.831 9.16797 -216.498 27.501s-108.334 48.333 -146.001 90s-65.167 95.834 -82.5 162.501s-26 148.667 -26 246v78c0 86 8.16699 161 24.5 225s42.666 117 78.999 159
s83.5 73.5 141.5 94.5s128.667 31.5 212 31.5c82 0 151.667 -10 209 -30s104.333 -49.833 141 -89.5s63.334 -89 80.001 -148s25 -127.5 25 -205.5c0 -26 -1.16699 -48.667 -3.5 -68s-4.16602 -33.666 -5.49902 -42.999c-2 -9.33301 -7.66699 -14 -17 -14l-776 -1
c0.666992 -76.667 7 -141.334 19 -194.001s32 -95.334 60 -128.001s65.167 -56.167 111.5 -70.5s104.166 -21.5 173.499 -21.5c28.667 0 56.5 0.166992 83.5 0.5s54 1.33301 81 3s54.5 4.16699 82.5 7.5s57.333 7.66602 88 12.999c10 0.666992 15.333 -3.33301 16 -12
l12 -68c0.666992 -9.33301 -3.33301 -15 -12 -17c-28 -5.33301 -55.833 -9.83301 -83.5 -13.5s-55.667 -6.5 -84 -8.5s-57.833 -3.5 -88.5 -4.5s-63.334 -1.5 -98.001 -1.5zM940.003 595.001c-1.33301 68 -7.83203 126.834 -19.499 176.501s-31 90.667 -58 123
s-62.833 56.333 -107.5 72s-100.334 23.5 -167.001 23.5c-65.333 0 -119.833 -7.83301 -163.5 -23.5s-79 -39.834 -106 -72.501s-46.5 -74.167 -58.5 -124.5s-18.333 -110.5 -19 -180.5z" />
    <glyph glyph-name="igrave" unicode="&#xec;" horiz-adv-x="470" 
d="M194 0c-9.33301 0 -14 4.66699 -14 14v1043c0 9.33301 4.66699 14 14 14h82c9.33301 0 14 -4.66699 14 -14v-1043c0 -9.33301 -4.66699 -14 -14 -14h-82zM288 1262c-5.33301 0 -9.66699 0.833008 -13 2.5s-6.66602 4.5 -9.99902 8.5l-199 237
c-6 7.33301 -4.33301 11 5 11h119c9.33301 0 16.666 -3.66699 21.999 -11l173 -237c5.33301 -7.33301 3.33301 -11 -6 -11h-91z" />
    <glyph glyph-name="iacute" unicode="&#xed;" horiz-adv-x="469" 
d="M82 1262c-9.33301 0 -11.334 3.66699 -6.00098 11l173 237c5.33301 7.33301 12.666 11 21.999 11h119c9.33301 0 11 -3.66699 5 -11l-199 -237c-3.33301 -4 -6.66602 -6.83301 -9.99902 -8.5s-7.66602 -2.5 -12.999 -2.5h-91zM193.999 0c-9.33301 0 -14 4.66699 -14 14
v1043c0 9.33301 4.66699 14 14 14h82c9.33301 0 14 -4.66699 14 -14v-1043c0 -9.33301 -4.66699 -14 -14 -14h-82z" />
    <glyph glyph-name="icircumflex" unicode="&#xee;" horiz-adv-x="469" 
d="M171 1510c3.33301 4 6.66602 6.83301 9.99902 8.5s7.66602 2.5 12.999 2.5h83c5.33301 0 9.66602 -0.833008 12.999 -2.5s6.66602 -4.5 9.99902 -8.5l199 -233c6 -7.33301 4.33301 -11 -5 -11h-98c-5.33301 0 -9.66602 0.833008 -12.999 2.5s-6.66602 4.5 -9.99902 8.5
l-127 161h-20l-128 -161c-3.33301 -4 -6.66602 -6.83301 -9.99902 -8.5s-7.66602 -2.5 -12.999 -2.5h-97c-9.33301 0 -11 3.66699 -5 11zM194 0c-9.33301 0 -14 4.66699 -14 14v1043c0 9.33301 4.66699 14 14 14h82c9.33301 0 14 -4.66699 14 -14v-1043
c0 -9.33301 -4.66699 -14 -14 -14h-82z" />
    <glyph glyph-name="idieresis" unicode="&#xef;" horiz-adv-x="469" 
d="M44 1252c-9.33301 0 -14 4.66699 -14 14v258c0 9.33301 4.66699 15 14 17l90 18c9.33301 2 14 -1.66699 14 -11v-282c0 -9.33301 -4.66699 -14 -14 -14h-90zM338 1252c-9.33301 0 -14 4.66699 -14 14v258c0 9.33301 4.66699 15 14 17l90 18c9.33301 2 14 -1.66699 14 -11
v-282c0 -9.33301 -4.66699 -14 -14 -14h-90zM194 0c-9.33301 0 -14 4.66699 -14 14v1043c0 9.33301 4.66699 14 14 14h82c9.33301 0 14 -4.66699 14 -14v-1043c0 -9.33301 -4.66699 -14 -14 -14h-82z" />
    <glyph glyph-name="eth" unicode="&#xf0;" horiz-adv-x="1166" 
d="M711 1400c54.667 -39.333 101.332 -85.166 139.999 -137.499s70.167 -112.5 94.5 -180.5s42.166 -144.667 53.499 -230s17 -180.333 17 -285v-71c0 -90.667 -8.16699 -168.667 -24.5 -234s-42 -119 -77 -161s-80.5 -73 -136.5 -93s-123.333 -30 -202 -30
c-80 0 -148.167 10 -204.5 30s-102.333 51 -138 93s-61.667 95.667 -78 161s-24.5 143.333 -24.5 234v71c0 90.667 8.33301 168.5 25 233.5s42.667 118.333 78 160s80.666 72.334 135.999 92.001s122 29.5 200 29.5c38.667 0 72.834 -2.33301 102.501 -7
s56.5 -11.5 80.5 -20.5s46 -20.5 66 -34.5s39.667 -30.333 59 -49c-23.333 85.333 -55.666 158.166 -96.999 218.499s-94 111.833 -158 154.5l-241 -153c-8 -5.33301 -14.667 -4.33301 -20 3l-41 54c-4 8 -2.66699 14.333 4 19l209 129c-82 39.333 -178.333 70 -289 92
c-9.33301 2 -13 7.66699 -11 17l13 61c2 9.33301 7.66699 13 17 11c72.667 -14.667 138.667 -31.834 198 -51.501s114 -43.167 164 -70.5l195 124c8 5.33301 14.667 4.33301 20 -3l40 -55c6.66699 -6.66699 5.33398 -13 -3.99902 -19zM575.998 986
c-64 0 -117.329 -8.16699 -159.996 -24.5s-76.834 -42 -102.501 -77s-44 -79.5 -55 -133.5s-16.5 -118.667 -16.5 -194v-51c0 -75.333 5.33301 -140 16 -194s28.667 -98.167 54 -132.5s59.5 -59.666 102.5 -75.999s96.833 -24.5 161.5 -24.5
c63.333 0 116.333 8.16699 159 24.5s77 41.833 103 76.5s44.5 79.167 55.5 133.5s16.5 119.166 16.5 194.499v49c0 74.667 -5.33301 139 -16 193s-28.834 98.5 -54.501 133.5s-59.834 60.833 -102.501 77.5s-96.334 25 -161.001 25z" />
    <glyph glyph-name="ntilde" unicode="&#xf1;" horiz-adv-x="1185" 
d="M924 0c-9.33301 0 -13.999 4.66895 -13.999 14.002v629c0 64 -4.5 117.667 -13.5 161s-24 78.166 -45 104.499s-48.667 45.333 -83 57s-76.833 17.5 -127.5 17.5c-58.667 0 -119.167 -7.66699 -181.5 -23s-121.166 -38 -176.499 -68v-878
c0 -9.33301 -4.66699 -14 -14 -14h-83c-9.33301 0 -14 4.66699 -14 14v1062c0 9.33301 4.66699 14 14 14h60c9.33301 0 15 -4.66699 17 -14l17 -85c60.667 32 123.667 56.833 189 74.5s130.666 26.5 195.999 26.5c68 0 124.667 -7.83301 170 -23.5
s81.666 -40.834 108.999 -75.501s46.833 -79.667 58.5 -135s17.5 -122.333 17.5 -201v-643c0 -9.33301 -4.66699 -14 -14 -14h-82zM422.001 1433c-11.333 0 -21.502 -1.49512 -30.502 -4.49512s-16.833 -9.83301 -23.5 -20.5s-11.667 -25.834 -15 -45.501
s-5.33301 -45.834 -6 -78.501c0 -9.33301 -4.66699 -14 -14 -14h-61c-9.33301 0 -14.333 4.66699 -15 14c0 5.33301 -0.166992 11 -0.5 17s-0.5 10.333 -0.5 13c0 47.333 5.16699 85.166 15.5 113.499s23.166 49.833 38.499 64.5s32.333 24.167 51 28.5s36.667 6.5 54 6.5
c28.667 0 54 -5 76 -15s43.667 -23.667 65 -41l57 -46c22.667 -18 43.334 -33.167 62.001 -45.5s38.667 -18.5 60 -18.5c11.333 0 21.5 1.5 30.5 4.5s16.667 9.66699 23 20s11.166 25.166 14.499 44.499s5.33301 45.666 6 78.999c0 9.33301 4.66699 14 14 14h62
c9.33301 0 14 -4.66699 14 -14c0.666992 -5.33301 1 -10.833 1 -16.5v-12.5c0 -48 -5.16699 -86 -15.5 -114s-23.166 -49.333 -38.499 -64s-32.5 -24.167 -51.5 -28.5s-36.833 -6.5 -53.5 -6.5c-28 0 -52.833 4.83301 -74.5 14.5s-43.5 23.167 -65.5 40.5l-57 46
c-23.333 19.333 -44.166 35 -62.499 47s-38.166 18 -59.499 18z" />
    <glyph glyph-name="ograve" unicode="&#xf2;" horiz-adv-x="1176" 
d="M588 990c-66.667 0 -122.166 -7.99805 -166.499 -23.998s-79.833 -41.167 -106.5 -75.5s-45.667 -78 -57 -131s-17 -116.5 -17 -190.5v-69c0 -74 5.5 -137.5 16.5 -190.5s29.833 -96.5 56.5 -130.5s62.167 -59.167 106.5 -75.5s100.166 -24.5 167.499 -24.5
c66.667 0 122.167 8 166.5 24s79.833 41.167 106.5 75.5s45.667 78.166 57 131.499s17 117.333 17 192v67c0 73.333 -5.5 136.5 -16.5 189.5s-29.667 96.667 -56 131s-61.833 59.666 -106.5 75.999s-100.667 24.5 -168 24.5zM588.001 -21.998
c-82 0 -151.833 9.83301 -209.5 29.5s-104.834 50.167 -141.501 91.5s-63.5 94.333 -80.5 159s-25.5 142 -25.5 232v87c0 90 8.5 167.5 25.5 232.5s43.833 118.333 80.5 160s83.834 72.5 141.501 92.5s127.5 30 209.5 30s152 -10 210 -30s105.167 -50.833 141.5 -92.5
s62.833 -95 79.5 -160s25 -142.5 25 -232.5v-87c0 -90 -8.33301 -167.333 -25 -232s-43.167 -117.667 -79.5 -159s-83.5 -71.833 -141.5 -91.5s-128 -29.5 -210 -29.5zM605.001 1262c-5.33301 0 -9.66699 0.833008 -13 2.5s-6.66602 4.5 -9.99902 8.5l-199 237
c-6 7.33301 -4.33301 11 5 11h119c9.33301 0 16.666 -3.66699 21.999 -11l173 -237c5.33301 -7.33301 3.33301 -11 -6 -11h-91z" />
    <glyph glyph-name="oacute" unicode="&#xf3;" horiz-adv-x="1176" 
d="M461 1262c-9.33301 0 -11.334 3.66699 -6.00098 11l173 237c5.33301 7.33301 12.666 11 21.999 11h119c9.33301 0 11 -3.66699 5 -11l-199 -237c-3.33301 -4 -6.66602 -6.83301 -9.99902 -8.5s-7.66602 -2.5 -12.999 -2.5h-91zM587.999 990
c-66.667 0 -122.166 -7.99805 -166.499 -23.998s-79.833 -41.167 -106.5 -75.5s-45.667 -78 -57 -131s-17 -116.5 -17 -190.5v-69c0 -74 5.5 -137.5 16.5 -190.5s29.833 -96.5 56.5 -130.5s62.167 -59.167 106.5 -75.5s100.166 -24.5 167.499 -24.5
c66.667 0 122.167 8 166.5 24s79.833 41.167 106.5 75.5s45.667 78.166 57 131.499s17 117.333 17 192v67c0 73.333 -5.5 136.5 -16.5 189.5s-29.667 96.667 -56 131s-61.833 59.666 -106.5 75.999s-100.667 24.5 -168 24.5zM588 -21.998
c-82 0 -151.833 9.83301 -209.5 29.5s-104.834 50.167 -141.501 91.5s-63.5 94.333 -80.5 159s-25.5 142 -25.5 232v87c0 90 8.5 167.5 25.5 232.5s43.833 118.333 80.5 160s83.834 72.5 141.501 92.5s127.5 30 209.5 30s152 -10 210 -30s105.167 -50.833 141.5 -92.5
s62.833 -95 79.5 -160s25 -142.5 25 -232.5v-87c0 -90 -8.33301 -167.333 -25 -232s-43.167 -117.667 -79.5 -159s-83.5 -71.833 -141.5 -91.5s-128 -29.5 -210 -29.5z" />
    <glyph glyph-name="ocircumflex" unicode="&#xf4;" horiz-adv-x="1176" 
d="M523 1510c3.33301 4 6.66602 6.83301 9.99902 8.5s7.66602 2.5 12.999 2.5h83c5.33301 0 9.66602 -0.833008 12.999 -2.5s6.66602 -4.5 9.99902 -8.5l199 -233c6 -7.33301 4.33301 -11 -5 -11h-98c-5.33301 0 -9.66602 0.833008 -12.999 2.5s-6.66602 4.5 -9.99902 8.5
l-127 161h-20l-128 -161c-3.33301 -4 -6.66602 -6.83301 -9.99902 -8.5s-7.66602 -2.5 -12.999 -2.5h-97c-9.33301 0 -11 3.66699 -5 11zM588 990c-66.667 0 -122.166 -7.99805 -166.499 -23.998s-79.833 -41.167 -106.5 -75.5s-45.667 -78 -57 -131s-17 -116.5 -17 -190.5
v-69c0 -74 5.5 -137.5 16.5 -190.5s29.833 -96.5 56.5 -130.5s62.167 -59.167 106.5 -75.5s100.166 -24.5 167.499 -24.5c66.667 0 122.167 8 166.5 24s79.833 41.167 106.5 75.5s45.667 78.166 57 131.499s17 117.333 17 192v67c0 73.333 -5.5 136.5 -16.5 189.5
s-29.667 96.667 -56 131s-61.833 59.666 -106.5 75.999s-100.667 24.5 -168 24.5zM588.001 -21.998c-82 0 -151.833 9.83301 -209.5 29.5s-104.834 50.167 -141.501 91.5s-63.5 94.333 -80.5 159s-25.5 142 -25.5 232v87c0 90 8.5 167.5 25.5 232.5s43.833 118.333 80.5 160
s83.834 72.5 141.501 92.5s127.5 30 209.5 30s152 -10 210 -30s105.167 -50.833 141.5 -92.5s62.833 -95 79.5 -160s25 -142.5 25 -232.5v-87c0 -90 -8.33301 -167.333 -25 -232s-43.167 -117.667 -79.5 -159s-83.5 -71.833 -141.5 -91.5s-128 -29.5 -210 -29.5z" />
    <glyph glyph-name="otilde" unicode="&#xf5;" horiz-adv-x="1176" 
d="M588 990c-66.667 0 -122.166 -7.99805 -166.499 -23.998s-79.833 -41.167 -106.5 -75.5s-45.667 -78 -57 -131s-17 -116.5 -17 -190.5v-69c0 -74 5.5 -137.5 16.5 -190.5s29.833 -96.5 56.5 -130.5s62.167 -59.167 106.5 -75.5s100.166 -24.5 167.499 -24.5
c66.667 0 122.167 8 166.5 24s79.833 41.167 106.5 75.5s45.667 78.166 57 131.499s17 117.333 17 192v67c0 73.333 -5.5 136.5 -16.5 189.5s-29.667 96.667 -56 131s-61.833 59.666 -106.5 75.999s-100.667 24.5 -168 24.5zM588.001 -21.998
c-82 0 -151.833 9.83301 -209.5 29.5s-104.834 50.167 -141.501 91.5s-63.5 94.333 -80.5 159s-25.5 142 -25.5 232v87c0 90 8.5 167.5 25.5 232.5s43.833 118.333 80.5 160s83.834 72.5 141.501 92.5s127.5 30 209.5 30s152 -10 210 -30s105.167 -50.833 141.5 -92.5
s62.833 -95 79.5 -160s25 -142.5 25 -232.5v-87c0 -90 -8.33301 -167.333 -25 -232s-43.167 -117.667 -79.5 -159s-83.5 -71.833 -141.5 -91.5s-128 -29.5 -210 -29.5zM413.001 1433c-11.333 0 -21.502 -1.49512 -30.502 -4.49512s-16.833 -9.83301 -23.5 -20.5
s-11.667 -25.834 -15 -45.501s-5.33301 -45.834 -6 -78.501c0 -9.33301 -4.66699 -14 -14 -14h-61c-9.33301 0 -14.333 4.66699 -15 14c0 5.33301 -0.166992 11 -0.5 17s-0.5 10.333 -0.5 13c0 47.333 5.16699 85.166 15.5 113.499s23.166 49.833 38.499 64.5
s32.333 24.167 51 28.5s36.667 6.5 54 6.5c28.667 0 54 -5 76 -15s43.667 -23.667 65 -41l57 -46c22.667 -18 43.334 -33.167 62.001 -45.5s38.667 -18.5 60 -18.5c11.333 0 21.5 1.5 30.5 4.5s16.667 9.66699 23 20s11.166 25.166 14.499 44.499s5.33301 45.666 6 78.999
c0 9.33301 4.66699 14 14 14h62c9.33301 0 14 -4.66699 14 -14c0.666992 -5.33301 1 -10.833 1 -16.5v-12.5c0 -48 -5.16699 -86 -15.5 -114s-23.166 -49.333 -38.499 -64s-32.5 -24.167 -51.5 -28.5s-36.833 -6.5 -53.5 -6.5c-28 0 -52.833 4.83301 -74.5 14.5
s-43.5 23.167 -65.5 40.5l-57 46c-23.333 19.333 -44.166 35 -62.499 47s-38.166 18 -59.499 18z" />
    <glyph glyph-name="odieresis" unicode="&#xf6;" horiz-adv-x="1176" 
d="M377 1252c-9.33301 0 -14 4.66699 -14 14v258c0 9.33301 4.66699 15 14 17l90 18c9.33301 2 14 -1.66699 14 -11v-282c0 -9.33301 -4.66699 -14 -14 -14h-90zM671 1252c-9.33301 0 -14 4.66699 -14 14v258c0 9.33301 4.66699 15 14 17l90 18
c9.33301 2 14 -1.66699 14 -11v-282c0 -9.33301 -4.66699 -14 -14 -14h-90zM588 990c-66.667 0 -122.166 -7.99805 -166.499 -23.998s-79.833 -41.167 -106.5 -75.5s-45.667 -78 -57 -131s-17 -116.5 -17 -190.5v-69c0 -74 5.5 -137.5 16.5 -190.5s29.833 -96.5 56.5 -130.5
s62.167 -59.167 106.5 -75.5s100.166 -24.5 167.499 -24.5c66.667 0 122.167 8 166.5 24s79.833 41.167 106.5 75.5s45.667 78.166 57 131.499s17 117.333 17 192v67c0 73.333 -5.5 136.5 -16.5 189.5s-29.667 96.667 -56 131s-61.833 59.666 -106.5 75.999
s-100.667 24.5 -168 24.5zM588.001 -21.998c-82 0 -151.833 9.83301 -209.5 29.5s-104.834 50.167 -141.501 91.5s-63.5 94.333 -80.5 159s-25.5 142 -25.5 232v87c0 90 8.5 167.5 25.5 232.5s43.833 118.333 80.5 160s83.834 72.5 141.501 92.5s127.5 30 209.5 30
s152 -10 210 -30s105.167 -50.833 141.5 -92.5s62.833 -95 79.5 -160s25 -142.5 25 -232.5v-87c0 -90 -8.33301 -167.333 -25 -232s-43.167 -117.667 -79.5 -159s-83.5 -71.833 -141.5 -91.5s-128 -29.5 -210 -29.5z" />
    <glyph glyph-name="divide" unicode="&#xf7;" horiz-adv-x="1133" 
d="M155 744c-9.33301 0 -14 4.66699 -14 14v81c0 9.33301 4.66699 14 14 14h823c9.33301 0 14 -4.66699 14 -14v-81c0 -9.33301 -4.66699 -14 -14 -14h-823zM519 321c-9.33301 0 -14 4.66699 -14 14v201c0 9.33301 4.66699 15 14 17l93 18c9.33301 2 14 -1.66699 14 -11
v-225c0 -9.33301 -4.66699 -14 -14 -14h-93zM519 1007c-9.33301 0 -14 4.66699 -14 14v202c0 9.33301 4.66699 15 14 17l93 18c9.33301 2 14 -1.66699 14 -11v-226c0 -9.33301 -4.66699 -14 -14 -14h-93z" />
    <glyph glyph-name="oslash" unicode="&#xf8;" horiz-adv-x="1178" 
d="M204 146c-25.333 41.333 -43.666 90.501 -54.999 147.501s-17 122.833 -17 197.5v85c0 90 8.5 167.5 25.5 232.5s43.833 118.5 80.5 160.5s84 73 142 93s127.667 30 209 30c141.333 0 248 -31 320 -93l51 61c3.33301 4 6.66602 6.83301 9.99902 8.5
s7.66602 2.5 12.999 2.5h97c9.33301 0 11 -3.66699 5 -11l-112 -136c25.333 -42 44 -91.667 56 -149s18 -123.666 18 -198.999v-85c0 -90.667 -8.5 -168.334 -25.5 -233.001s-43.833 -117.834 -80.5 -159.501s-84 -72.167 -142 -91.5s-128 -29 -210 -29
c-72 0 -134.333 7.33301 -187 22s-97.334 38 -134.001 70l-49 -59c-3.33301 -4 -6.66602 -6.83301 -9.99902 -8.5s-7.66602 -2.5 -12.999 -2.5h-98c-9.33301 0 -11 3.66699 -5 11zM937 571.001c0 55.333 -3 104.67 -9 148.003s-16 81.666 -30 114.999l-562 -682
c26.667 -25.333 60.5 -43.833 101.5 -55.5s91.5 -17.5 151.5 -17.5c66.667 0 122.167 8 166.5 24s80 41.167 107 75.5s46.167 78.166 57.5 131.499s17 117.666 17 192.999v68zM589 990.005c-66.667 0 -122.167 -8.16797 -166.5 -24.501s-79.833 -41.666 -106.5 -75.999
s-45.667 -78.333 -57 -132s-17 -117.5 -17 -191.5v-70c0 -54.667 2.83301 -103.5 8.5 -146.5s15.167 -80.833 28.5 -113.5l562 681c-26.667 24.667 -60.5 43 -101.5 55s-91.167 18 -150.5 18z" />
    <glyph glyph-name="ugrave" unicode="&#xf9;" horiz-adv-x="1183" 
d="M610 -22c-88.667 0 -161.332 7.8291 -217.999 23.4961s-101.5 41.334 -134.5 77.001s-55.833 82 -68.5 139s-19 126.833 -19 209.5v630c0 9.33301 4.66699 14 14 14h83c9.33301 0 14 -4.66699 14 -14v-626c0 -70.667 5 -128.667 15 -174s27.5 -81 52.5 -107
s58.5 -43.833 100.5 -53.5s95 -14.5 159 -14.5c24 0 49 0.833008 75 2.5s51.833 3.83398 77.5 6.50098s50.167 5.83398 73.5 9.50098s44.333 7.83398 63 12.501v944c0 9.33301 4.66699 14 14 14h83c9.33301 0 14 -4.66699 14 -14v-1013c0 -9.33301 -4.66699 -15 -14 -17
c-24 -6 -50.5 -12 -79.5 -18s-60 -11.167 -93 -15.5s-67.333 -8 -103 -11s-71.834 -4.5 -108.501 -4.5zM596.002 1262c-5.33301 0 -9.66699 0.833008 -13 2.5s-6.66602 4.5 -9.99902 8.5l-199 237c-6 7.33301 -4.33301 11 5 11h119c9.33301 0 16.666 -3.66699 21.999 -11
l173 -237c5.33301 -7.33301 3.33301 -11 -6 -11h-91z" />
    <glyph glyph-name="uacute" unicode="&#xfa;" horiz-adv-x="1183" 
d="M502 1262c-9.33301 0 -11.334 3.66699 -6.00098 11l173 237c5.33301 7.33301 12.666 11 21.999 11h119c9.33301 0 11 -3.66699 5 -11l-199 -237c-3.33301 -4 -6.66602 -6.83301 -9.99902 -8.5s-7.66602 -2.5 -12.999 -2.5h-91zM609.999 -22
c-88.667 0 -161.332 7.8291 -217.999 23.4961s-101.5 41.334 -134.5 77.001s-55.833 82 -68.5 139s-19 126.833 -19 209.5v630c0 9.33301 4.66699 14 14 14h83c9.33301 0 14 -4.66699 14 -14v-626c0 -70.667 5 -128.667 15 -174s27.5 -81 52.5 -107
s58.5 -43.833 100.5 -53.5s95 -14.5 159 -14.5c24 0 49 0.833008 75 2.5s51.833 3.83398 77.5 6.50098s50.167 5.83398 73.5 9.50098s44.333 7.83398 63 12.501v944c0 9.33301 4.66699 14 14 14h83c9.33301 0 14 -4.66699 14 -14v-1013c0 -9.33301 -4.66699 -15 -14 -17
c-24 -6 -50.5 -12 -79.5 -18s-60 -11.167 -93 -15.5s-67.333 -8 -103 -11s-71.834 -4.5 -108.501 -4.5z" />
    <glyph glyph-name="ucircumflex" unicode="&#xfb;" horiz-adv-x="1183" 
d="M525 1510c3.33301 4 6.66602 6.83301 9.99902 8.5s7.66602 2.5 12.999 2.5h83c5.33301 0 9.66602 -0.833008 12.999 -2.5s6.66602 -4.5 9.99902 -8.5l199 -233c6 -7.33301 4.33301 -11 -5 -11h-98c-5.33301 0 -9.66602 0.833008 -12.999 2.5s-6.66602 4.5 -9.99902 8.5
l-127 161h-20l-128 -161c-3.33301 -4 -6.66602 -6.83301 -9.99902 -8.5s-7.66602 -2.5 -12.999 -2.5h-97c-9.33301 0 -11 3.66699 -5 11zM610 -22c-88.667 0 -161.332 7.8291 -217.999 23.4961s-101.5 41.334 -134.5 77.001s-55.833 82 -68.5 139s-19 126.833 -19 209.5v630
c0 9.33301 4.66699 14 14 14h83c9.33301 0 14 -4.66699 14 -14v-626c0 -70.667 5 -128.667 15 -174s27.5 -81 52.5 -107s58.5 -43.833 100.5 -53.5s95 -14.5 159 -14.5c24 0 49 0.833008 75 2.5s51.833 3.83398 77.5 6.50098s50.167 5.83398 73.5 9.50098
s44.333 7.83398 63 12.501v944c0 9.33301 4.66699 14 14 14h83c9.33301 0 14 -4.66699 14 -14v-1013c0 -9.33301 -4.66699 -15 -14 -17c-24 -6 -50.5 -12 -79.5 -18s-60 -11.167 -93 -15.5s-67.333 -8 -103 -11s-71.834 -4.5 -108.501 -4.5z" />
    <glyph glyph-name="udieresis" unicode="&#xfc;" horiz-adv-x="1183" 
d="M400 1252c-9.33301 0 -14 4.66699 -14 14v258c0 9.33301 4.66699 15 14 17l90 18c9.33301 2 14 -1.66699 14 -11v-282c0 -9.33301 -4.66699 -14 -14 -14h-90zM694 1252c-9.33301 0 -14 4.66699 -14 14v258c0 9.33301 4.66699 15 14 17l90 18
c9.33301 2 14 -1.66699 14 -11v-282c0 -9.33301 -4.66699 -14 -14 -14h-90zM610 -22c-88.667 0 -161.332 7.8291 -217.999 23.4961s-101.5 41.334 -134.5 77.001s-55.833 82 -68.5 139s-19 126.833 -19 209.5v630c0 9.33301 4.66699 14 14 14h83
c9.33301 0 14 -4.66699 14 -14v-626c0 -70.667 5 -128.667 15 -174s27.5 -81 52.5 -107s58.5 -43.833 100.5 -53.5s95 -14.5 159 -14.5c24 0 49 0.833008 75 2.5s51.833 3.83398 77.5 6.50098s50.167 5.83398 73.5 9.50098s44.333 7.83398 63 12.501v944
c0 9.33301 4.66699 14 14 14h83c9.33301 0 14 -4.66699 14 -14v-1013c0 -9.33301 -4.66699 -15 -14 -17c-24 -6 -50.5 -12 -79.5 -18s-60 -11.167 -93 -15.5s-67.333 -8 -103 -11s-71.834 -4.5 -108.501 -4.5z" />
    <glyph glyph-name="yacute" unicode="&#xfd;" horiz-adv-x="973" 
d="M158 -473c-17.333 0 -36.667 1.16699 -58 3.5s-40.666 5.83301 -57.999 10.5c-5.33301 1.33301 -8.83301 3.16602 -10.5 5.49902s-2.16699 6.16602 -1.5 11.499l13 71c2 9.33301 7.66699 13 17 11c15.333 -3.33301 31.5 -6 48.5 -8s32.5 -3 46.5 -3
c28 0 52.833 1.5 74.5 4.5s41.167 8.83301 58.5 17.5s33.333 21.334 48 38.001s29 38.834 43 66.501s28.5 61.334 43.5 101.001s31.5 87.5 49.5 143.5h-3c-8.66699 0 -15.667 3.66699 -21 11c-5.33301 6.66699 -11.666 16.667 -18.999 30s-15 30.666 -23 51.999l-362 965
c-2.66699 8.66699 0.333008 13 9 13h94c9.33301 0 15.666 -4.33301 18.999 -13l298 -806l15.5 -46l13.5 -39l9.5 -27.5c2.33301 -7 4.16602 -10.5 5.49902 -10.5l292 929c2.66699 8.66699 8.66699 13 18 13h95c9.33301 0 12.666 -4.33301 9.99902 -13l-372 -1140
c-18.667 -56 -36.167 -104.667 -52.5 -146s-33.166 -76.5 -50.499 -105.5s-35.333 -52.5 -54 -70.5s-39.5 -32.167 -62.5 -42.5s-48.667 -17.333 -77 -21s-60.5 -5.5 -96.5 -5.5zM394.999 1262c-9.33301 0 -11.334 3.66699 -6.00098 11l173 237
c5.33301 7.33301 12.666 11 21.999 11h119c9.33301 0 11 -3.66699 5 -11l-199 -237c-3.33301 -4 -6.66602 -6.83301 -9.99902 -8.5s-7.66602 -2.5 -12.999 -2.5h-91z" />
    <glyph glyph-name="thorn" unicode="&#xfe;" horiz-adv-x="1152" 
d="M186 -451c-9.33301 0 -14.0029 4.66895 -14.0029 14.002v1445v4v576c0 9.33301 4.66699 15 14 17l83 18c9.33301 2 14 -1.66699 14 -11v-535c44 5.33301 86.5 9.16602 127.5 11.499s80.833 3.5 119.5 3.5c92.667 0 170.167 -8 232.5 -24s112.5 -43.167 150.5 -81.5
s65 -89.5 81 -153.5s24 -144 24 -240v-113c0 -93.333 -7.66699 -171.833 -23 -235.5s-41.666 -115.334 -78.999 -155.001s-87.166 -68.167 -149.499 -85.5s-140.833 -26 -235.5 -26c-41.333 0 -84.166 2.33301 -128.499 7s-83.833 10.667 -118.5 18v-440
c0 -9.33301 -4.66699 -14 -14 -14h-84zM529.997 989.002c-42 0 -84.1689 -1.33398 -126.502 -4.00098s-82.166 -6.66699 -119.499 -12v-870c17.333 -4 36.333 -7.33301 57 -10s41.834 -5 63.501 -7s43.167 -3.5 64.5 -4.5s41.666 -1.5 60.999 -1.5
c78 0 141.667 6.66699 191 20s88 36 116 68s47.167 74.833 57.5 128.5s15.5 120.5 15.5 200.5v75c0 80.667 -5.33301 147.834 -16 201.501s-30 96.5 -58 128.5s-66.667 54.5 -116 67.5s-112.666 19.5 -189.999 19.5z" />
    <glyph glyph-name="ydieresis" unicode="&#xff;" horiz-adv-x="973" 
d="M158 -473c-17.333 0 -36.667 1.16699 -58 3.5s-40.666 5.83301 -57.999 10.5c-5.33301 1.33301 -8.83301 3.16602 -10.5 5.49902s-2.16699 6.16602 -1.5 11.499l13 71c2 9.33301 7.66699 13 17 11c15.333 -3.33301 31.5 -6 48.5 -8s32.5 -3 46.5 -3
c28 0 52.833 1.5 74.5 4.5s41.167 8.83301 58.5 17.5s33.333 21.334 48 38.001s29 38.834 43 66.501s28.5 61.334 43.5 101.001s31.5 87.5 49.5 143.5h-3c-8.66699 0 -15.667 3.66699 -21 11c-5.33301 6.66699 -11.666 16.667 -18.999 30s-15 30.666 -23 51.999l-362 965
c-2.66699 8.66699 0.333008 13 9 13h94c9.33301 0 15.666 -4.33301 18.999 -13l298 -806l15.5 -46l13.5 -39l9.5 -27.5c2.33301 -7 4.16602 -10.5 5.49902 -10.5l292 929c2.66699 8.66699 8.66699 13 18 13h95c9.33301 0 12.666 -4.33301 9.99902 -13l-372 -1140
c-18.667 -56 -36.167 -104.667 -52.5 -146s-33.166 -76.5 -50.499 -105.5s-35.333 -52.5 -54 -70.5s-39.5 -32.167 -62.5 -42.5s-48.667 -17.333 -77 -21s-60.5 -5.5 -96.5 -5.5zM305.999 1252c-9.33301 0 -14 4.66699 -14 14v258c0 9.33301 4.66699 15 14 17l90 18
c9.33301 2 14 -1.66699 14 -11v-282c0 -9.33301 -4.66699 -14 -14 -14h-90zM599.999 1252c-9.33301 0 -14 4.66699 -14 14v258c0 9.33301 4.66699 15 14 17l90 18c9.33301 2 14 -1.66699 14 -11v-282c0 -9.33301 -4.66699 -14 -14 -14h-90z" />
    <glyph glyph-name="Amacron" unicode="&#x100;" horiz-adv-x="1290" 
d="M45 0c-10 0 -13 4.33301 -9 13l524 1449c3.33301 8.66699 9.66602 13 18.999 13h132c9.33301 0 15.666 -4.33301 18.999 -13l526 -1449c4 -8.66699 1 -13 -9 -13h-98c-9.33301 -0 -15.666 4.33301 -18.999 13l-146 408h-679l-146 -408
c-3.33301 -8.66699 -9.66602 -13 -18.999 -13h-95zM644 1362l-299 -831h599zM410 1647c-9.33301 0 -14 4.66699 -14 14v66c0 9.33301 4.66699 14 14 14h472c9.33301 0 14 -4.66699 14 -14v-66c0 -9.33301 -4.66699 -14 -14 -14h-472z" />
    <glyph glyph-name="amacron" unicode="&#x101;" horiz-adv-x="1093" 
d="M565 75c45.333 0 89.5 1.66797 132.5 5.00098s84.167 7.66602 123.5 12.999v446h-165c-95.333 0 -172.5 -3 -231.5 -9s-104.667 -17.333 -137 -34s-54.166 -39.834 -65.499 -69.501s-17 -68.167 -17 -115.5c0 -52 8.5 -93.667 25.5 -125s41.167 -55.166 72.5 -71.499
s69.166 -27 113.499 -32s93.833 -7.5 148.5 -7.5zM534 990.001c-58.667 0 -113.166 -2.33203 -163.499 -6.99902s-101.166 -11.334 -152.499 -20.001c-9.33301 -0.666992 -14 3.33301 -14 12v71c0 9.33301 4.66699 15 14 17c26 4.66699 53.667 8.83398 83 12.501
s58.166 6.83398 86.499 9.50098s55.666 4.66699 81.999 6s50.166 2 71.499 2c87.333 0 156.666 -7.16699 207.999 -21.5s90.5 -37.5 117.5 -69.5s44.333 -73.667 52 -125s11.5 -114 11.5 -188v-665c0 -10 -4.66699 -15.333 -14 -16
c-29.333 -4.66699 -60 -8.83398 -92 -12.501s-63.667 -6.83398 -95 -9.50098s-61.166 -4.66699 -89.499 -6s-53.166 -2 -74.499 -2c-79.333 0 -148 4.83301 -206 14.5s-106.333 27 -145 52s-67.334 59 -86.001 102s-28 97.5 -28 163.5c0 42 3.33301 79.333 10 112
s18.167 61.167 34.5 85.5s38.5 44.833 66.5 61.5s63 30 105 40s91.833 17.167 149.5 21.5s124.834 6.5 201.501 6.5h154v85c0 54 -3.66699 98.333 -11 133s-21.5 62 -42.5 82s-50.167 33.833 -87.5 41.5s-86 11.5 -146 11.5zM292.001 1337c-9.33301 0 -14 4.66699 -14 14v69
c0 9.33301 4.66699 14 14 14h472c9.33301 0 14 -4.66699 14 -14v-69c0 -9.33301 -4.66699 -14 -14 -14h-472z" />
    <glyph glyph-name="Abreve" unicode="&#x102;" horiz-adv-x="1290" 
d="M45 0c-10 0 -13 4.33301 -9 13l524 1449c3.33301 8.66699 9.66602 13 18.999 13h132c9.33301 0 15.666 -4.33301 18.999 -13l526 -1449c4 -8.66699 1 -13 -9 -13h-98c-9.33301 -0 -15.666 4.33301 -18.999 13l-146 408h-679l-146 -408
c-3.33301 -8.66699 -9.66602 -13 -18.999 -13h-95zM644 1362l-299 -831h599zM642 1586c-42 0 -78.3291 5 -108.996 15s-56.334 24.167 -77.001 42.5s-36.834 40.666 -48.501 66.999s-19.5 55.833 -23.5 88.5c-0.666992 9.33301 3.66602 14 12.999 14h68
c9.33301 0 15 -4.66699 17 -14c4 -24.667 11.167 -45.334 21.5 -62.001s22.833 -30.167 37.5 -40.5s30.667 -17.666 48 -21.999s35 -6.5 53 -6.5s35.667 2.16699 53 6.5s33.333 11.666 48 21.999s27.167 23.833 37.5 40.5s17.5 37.334 21.5 62.001
c2 9.33301 7.66699 14 17 14h68c9.33301 0 13.666 -4.66699 12.999 -14c-4 -32.667 -11.667 -62.167 -23 -88.5s-27.333 -48.666 -48 -66.999s-46.5 -32.5 -77.5 -42.5s-67.5 -15 -109.5 -15z" />
    <glyph glyph-name="abreve" unicode="&#x103;" horiz-adv-x="1093" 
d="M565 75c45.333 0 89.5 1.66797 132.5 5.00098s84.167 7.66602 123.5 12.999v446h-165c-95.333 0 -172.5 -3 -231.5 -9s-104.667 -17.333 -137 -34s-54.166 -39.834 -65.499 -69.501s-17 -68.167 -17 -115.5c0 -52 8.5 -93.667 25.5 -125s41.167 -55.166 72.5 -71.499
s69.166 -27 113.499 -32s93.833 -7.5 148.5 -7.5zM534 990.001c-58.667 0 -113.166 -2.33203 -163.499 -6.99902s-101.166 -11.334 -152.499 -20.001c-9.33301 -0.666992 -14 3.33301 -14 12v71c0 9.33301 4.66699 15 14 17c26 4.66699 53.667 8.83398 83 12.501
s58.166 6.83398 86.499 9.50098s55.666 4.66699 81.999 6s50.166 2 71.499 2c87.333 0 156.666 -7.16699 207.999 -21.5s90.5 -37.5 117.5 -69.5s44.333 -73.667 52 -125s11.5 -114 11.5 -188v-665c0 -10 -4.66699 -15.333 -14 -16
c-29.333 -4.66699 -60 -8.83398 -92 -12.501s-63.667 -6.83398 -95 -9.50098s-61.166 -4.66699 -89.499 -6s-53.166 -2 -74.499 -2c-79.333 0 -148 4.83301 -206 14.5s-106.333 27 -145 52s-67.334 59 -86.001 102s-28 97.5 -28 163.5c0 42 3.33301 79.333 10 112
s18.167 61.167 34.5 85.5s38.5 44.833 66.5 61.5s63 30 105 40s91.833 17.167 149.5 21.5s124.834 6.5 201.501 6.5h154v85c0 54 -3.66699 98.333 -11 133s-21.5 62 -42.5 82s-50.167 33.833 -87.5 41.5s-86 11.5 -146 11.5zM552.001 1266
c-44.667 0 -82.5 5.83301 -113.5 17.5s-56.667 28 -77 49s-35.666 46.333 -45.999 76s-17.5 62.5 -21.5 98.5c-0.666992 9.33301 3.66602 14 12.999 14h70c8.66699 0 14 -4.66699 16 -14c4 -29.333 10.5 -53.666 19.5 -72.999s20.333 -34.833 34 -46.5
s29.334 -20 47.001 -25s37.167 -7.5 58.5 -7.5c20.667 0 40 2.5 58 7.5s33.833 13.333 47.5 25s25 27.167 34 46.5s15.5 43.666 19.5 72.999c2 9.33301 7.33301 14 16 14h70c9.33301 0 13.666 -4.66699 12.999 -14c-3.33301 -36 -10.333 -68.833 -21 -98.5s-26 -55 -46 -76
s-45.667 -37.333 -77 -49s-69.333 -17.5 -114 -17.5z" />
    <glyph glyph-name="Aogonek" unicode="&#x104;" horiz-adv-x="1290" 
d="M45 0c-10 0 -13.002 4.33398 -9.00195 13.001l524 1449c3.33301 8.66699 9.66602 13 18.999 13h132c9.33301 0 15.666 -4.33301 18.999 -13l526 -1449c2.66699 -6 1.33398 -10.333 -3.99902 -13c-29.333 -15.333 -57 -33.833 -83 -55.5s-48.667 -44.334 -68 -68.001
s-34.666 -47.167 -45.999 -70.5s-17 -44 -17 -62c0 -13.333 1.16699 -24.666 3.5 -33.999s7.16602 -16.833 14.499 -22.5s18 -9.83398 32 -12.501s32.667 -4 56 -4c18.667 0 35.834 0.333008 51.501 1s30.834 1.66699 45.501 3c9.33301 2 15 -2 17 -12l9 -47
c2 -8.66699 -1.66699 -14 -11 -16c-16 -3.33301 -35.167 -6.16602 -57.5 -8.49902s-45.166 -3.5 -68.499 -3.5c-40 0 -72.5 3.5 -97.5 10.5s-44.333 17 -58 30s-22.834 28.5 -27.501 46.5s-7 38 -7 60c0 24 5 48.333 15 73s23.667 49 41 73s37.5 47.167 60.5 69.5
s47.5 43.166 73.5 62.499l-146 408h-679l-146 -408c-3.33301 -8.66699 -9.66602 -13 -18.999 -13h-95zM643.998 1362l-299 -831h599z" />
    <glyph glyph-name="aogonek" unicode="&#x105;" horiz-adv-x="1095" 
d="M534 990c-58.667 0 -113.169 -2.33008 -163.502 -6.99707s-101.166 -11.334 -152.499 -20.001c-9.33301 -0.666992 -14 3.33301 -14 12v71c0 9.33301 4.66699 15 14 17c26 4.66699 53.667 8.83398 83 12.501s58.166 6.83398 86.499 9.50098s55.666 4.66699 81.999 6
s50.166 2 71.499 2c87.333 0 156.666 -7.16699 207.999 -21.5s90.5 -37.5 117.5 -69.5s44.333 -73.667 52 -125s11.5 -114 11.5 -188v-665c0 -3.33301 -0.5 -6.33301 -1.5 -9s-3.5 -5 -7.5 -7c-25.333 -13.333 -50.666 -30.833 -75.999 -52.5
s-48.166 -44.834 -68.499 -69.501s-36.833 -49.834 -49.5 -75.501s-19 -48.834 -19 -69.501c0 -26 6.83301 -44.167 20.5 -54.5s39.834 -15.5 78.501 -15.5c14 0 28.5 0.166992 43.5 0.5s30.167 1.83301 45.5 4.5c9.33301 2 14.333 -1.66699 15 -11l4 -49
c0.666992 -8.66699 -3.66602 -14.334 -12.999 -17.001c-29.333 -7.33301 -66.666 -11 -111.999 -11c-40 0 -71.833 3.83301 -95.5 11.5s-41.667 18.167 -54 31.5s-20.5 28.5 -24.5 45.5s-6 35.167 -6 54.5c0 22 5 45.333 15 70s23 48.834 39 72.501s34 45.667 54 66
s39.667 37.166 59 50.499c-40 -4 -78.5 -7 -115.5 -9s-69.167 -3 -96.5 -3c-79.333 0 -148 4.83301 -206 14.5s-106.333 27 -145 52s-67.334 59 -86.001 102s-28 97.5 -28 163.5c0 42 3.33301 79.333 10 112s18.167 61.167 34.5 85.5s38.5 44.833 66.5 61.5s63 30 105 40
s91.833 17.167 149.5 21.5s124.834 6.5 201.501 6.5h154v85c0 54 -3.66699 98.333 -11 133s-21.5 62 -42.5 82s-50.167 33.833 -87.5 41.5s-86 11.5 -146 11.5zM564.998 75.0029c45.333 0 89.5 1.66797 132.5 5.00098s84.167 7.66602 123.5 12.999v446h-165
c-95.333 0 -172.5 -3 -231.5 -9s-104.667 -17.333 -137 -34s-54.166 -39.834 -65.499 -69.501s-17 -68.167 -17 -115.5c0 -52 8.5 -93.667 25.5 -125s41.167 -55.166 72.5 -71.499s69.166 -27 113.499 -32s93.833 -7.5 148.5 -7.5z" />
    <glyph glyph-name="Cacute" unicode="&#x106;" horiz-adv-x="1169" 
d="M741 -22c-94.667 0 -179.002 11.3271 -253.002 33.9941s-136.667 60.834 -188 114.501s-90.5 124.667 -117.5 213s-40.5 198.5 -40.5 330.5v135c0 131.333 13.5 241.333 40.5 330s66.167 159.834 117.5 213.501s114 91.834 188 114.501s158.333 34 253 34
c61.333 0 120 -2.83301 176 -8.5s103.333 -13.167 142 -22.5c5.33301 -1.33301 8.83301 -3.33301 10.5 -6s2.16699 -6.66699 1.5 -12l-14 -75c-2 -9.33301 -7.66699 -13 -17 -11c-44.667 8.66699 -93 14.834 -145 18.501s-102.667 5.5 -152 5.5c-76 0 -144 -9 -204 -27
s-110.667 -49 -152 -93s-72.833 -102.667 -94.5 -176s-32.5 -165 -32.5 -275v-155c0 -110.667 10.833 -202.667 32.5 -276s53 -131.833 94 -175.5s91.5 -74.5 151.5 -92.5s128.333 -27 205 -27c62 0 118.333 2.33301 169 7s96.667 10.667 138 18
c10 2 15.333 -1.66699 16 -11l13 -77c0.666992 -5.33301 0.166992 -9.16602 -1.5 -11.499s-5.16699 -4.16602 -10.5 -5.49902c-39.333 -9.33301 -87.666 -16.833 -144.999 -22.5s-117.666 -8.5 -180.999 -8.5zM597.998 1605.99c-9.33301 0 -10.667 3.33301 -4 10l197 184
c6 6.66699 14 10 24 10h144c9.33301 0 10.333 -3 3 -9l-238 -186c-6.66699 -6 -15 -9 -25 -9h-101z" />
    <glyph glyph-name="cacute" unicode="&#x107;" horiz-adv-x="964" 
d="M472 1262c-9.33301 0 -11.334 3.66699 -6.00098 11l173 237c5.33301 7.33301 12.666 11 21.999 11h119c9.33301 0 11 -3.66699 5 -11l-199 -237c-3.33301 -4 -6.66602 -6.83301 -9.99902 -8.5s-7.66602 -2.5 -12.999 -2.5h-91zM627.999 -22
c-92 0 -169.501 7.66602 -232.501 22.999s-114 42.5 -153 81.5s-67 91.333 -84 157s-25.5 149.167 -25.5 250.5v92c0 92.667 7.83301 171.334 23.5 236.001s42.5 117.334 80.5 158.001s88.833 70.167 152.5 88.5s143.167 27.5 238.5 27.5c43.333 0 84.833 -2 124.5 -6
s75.834 -8.66699 108.501 -14c9.33301 -2 13 -7.66699 11 -17l-13 -69c-2 -8.66699 -7.66699 -12.667 -17 -12c-32 5.33301 -66.667 9 -104 11s-73.333 3 -108 3c-77.333 0 -140.833 -6.83301 -190.5 -20.5s-88.834 -36.834 -117.501 -69.501s-48.667 -76.167 -60 -130.5
s-17 -121.833 -17 -202.5v-61c0 -82.667 5.66699 -151.167 17 -205.5s31.333 -97.666 60 -129.999s67.834 -55 117.501 -68s113.167 -19.5 190.5 -19.5c38 0 75.333 1.16699 112 3.5s71 6.16602 103 11.499c10 2 15.333 -1.66699 16 -11l12 -71
c0.666992 -9.33301 -3.33301 -15 -12 -17c-32.667 -5.33301 -70.167 -9.83301 -112.5 -13.5s-82.5 -5.5 -120.5 -5.5z" />
    <glyph glyph-name="Ccaron" unicode="&#x10c;" horiz-adv-x="1169" 
d="M741 -22c-94.667 0 -179.002 11.3271 -253.002 33.9941s-136.667 60.834 -188 114.501s-90.5 124.667 -117.5 213s-40.5 198.5 -40.5 330.5v135c0 131.333 13.5 241.333 40.5 330s66.167 159.834 117.5 213.501s114 91.834 188 114.501s158.333 34 253 34
c61.333 0 120 -2.83301 176 -8.5s103.333 -13.167 142 -22.5c5.33301 -1.33301 8.83301 -3.33301 10.5 -6s2.16699 -6.66699 1.5 -12l-14 -75c-2 -9.33301 -7.66699 -13 -17 -11c-44.667 8.66699 -93 14.834 -145 18.501s-102.667 5.5 -152 5.5c-76 0 -144 -9 -204 -27
s-110.667 -49 -152 -93s-72.833 -102.667 -94.5 -176s-32.5 -165 -32.5 -275v-155c0 -110.667 10.833 -202.667 32.5 -276s53 -131.833 94 -175.5s91.5 -74.5 151.5 -92.5s128.333 -27 205 -27c62 0 118.333 2.33301 169 7s96.667 10.667 138 18
c10 2 15.333 -1.66699 16 -11l13 -77c0.666992 -5.33301 0.166992 -9.16602 -1.5 -11.499s-5.16699 -4.16602 -10.5 -5.49902c-39.333 -9.33301 -87.666 -16.833 -144.999 -22.5s-117.666 -8.5 -180.999 -8.5zM417.998 1800.99c-3.33301 2.66699 -4.5 4.83398 -3.5 6.50098
s3.5 2.5 7.5 2.5h108c10 0 18 -3 24 -9l131 -120h20l131 120c6 6 14 9 24 9h108c4 0 6.5 -0.833008 7.5 -2.5s-0.166992 -3.83398 -3.5 -6.50098l-211 -186c-6 -6 -14 -9 -24 -9h-84c-10 0 -18 3 -24 9z" />
    <glyph glyph-name="ccaron" unicode="&#x10d;" horiz-adv-x="964" 
d="M295 1510c-6 7.33301 -4.33301 11 5 11h97c5.33301 0 9.66602 -0.833008 12.999 -2.5s6.66602 -4.5 9.99902 -8.5l128 -161h20l127 161c3.33301 4 6.66602 6.83301 9.99902 8.5s7.66602 2.5 12.999 2.5h98c9.33301 0 11 -3.66699 5 -11l-199 -233
c-3.33301 -4 -6.66602 -6.83301 -9.99902 -8.5s-7.66602 -2.5 -12.999 -2.5h-83c-5.33301 0 -9.66602 0.833008 -12.999 2.5s-6.66602 4.5 -9.99902 8.5zM628 -22c-92 0 -169.501 7.66602 -232.501 22.999s-114 42.5 -153 81.5s-67 91.333 -84 157
s-25.5 149.167 -25.5 250.5v92c0 92.667 7.83301 171.334 23.5 236.001s42.5 117.334 80.5 158.001s88.833 70.167 152.5 88.5s143.167 27.5 238.5 27.5c43.333 0 84.833 -2 124.5 -6s75.834 -8.66699 108.501 -14c9.33301 -2 13 -7.66699 11 -17l-13 -69
c-2 -8.66699 -7.66699 -12.667 -17 -12c-32 5.33301 -66.667 9 -104 11s-73.333 3 -108 3c-77.333 0 -140.833 -6.83301 -190.5 -20.5s-88.834 -36.834 -117.501 -69.501s-48.667 -76.167 -60 -130.5s-17 -121.833 -17 -202.5v-61c0 -82.667 5.66699 -151.167 17 -205.5
s31.333 -97.666 60 -129.999s67.834 -55 117.501 -68s113.167 -19.5 190.5 -19.5c38 0 75.333 1.16699 112 3.5s71 6.16602 103 11.499c10 2 15.333 -1.66699 16 -11l12 -71c0.666992 -9.33301 -3.33301 -15 -12 -17c-32.667 -5.33301 -70.167 -9.83301 -112.5 -13.5
s-82.5 -5.5 -120.5 -5.5z" />
    <glyph glyph-name="Dcaron" unicode="&#x10e;" horiz-adv-x="1394" 
d="M571 -16c-26 0 -53.6641 0.333008 -82.9971 1s-59.333 1.5 -90 2.5s-61.334 2.5 -92.001 4.5s-60.334 4.33301 -89.001 7c-9.33301 0.666992 -14 5.66699 -14 15v1447c0 9.33301 4.66699 14.333 14 15c28.667 2 59.5 3.5 92.5 4.5l97 3c31.667 1 61.667 1.66699 90 2
s52.833 0.5 73.5 0.5c67.333 0 131 -3.16699 191 -9.5s115.167 -18.333 165.5 -36s95.666 -42.5 135.999 -74.5s74.333 -73.5 102 -124.5s49 -113.167 64 -186.5s22.5 -160 22.5 -260v-113c0 -100 -7.33301 -186.833 -22 -260.5s-36 -136.334 -64 -188.001
s-62 -93.667 -102 -126s-85.167 -57.666 -135.5 -75.999s-105.5 -30.833 -165.5 -37.5s-123.667 -10 -191 -10zM582.003 1379c-17.333 0 -37.834 -0.166016 -61.501 -0.499023s-47.834 -0.833008 -72.501 -1.5s-48.667 -1.5 -72 -2.5s-43.333 -2.16699 -60 -3.5v-1270
c20 -2 41.833 -3.66699 65.5 -5s47.5 -2.5 71.5 -3.5s47.667 -1.66699 71 -2s44.666 -0.5 63.999 -0.5c60 0 115.333 3.16699 166 9.5s96.334 17.5 137.001 33.5s76.334 38.167 107.001 66.5s56.334 64.166 77.001 107.499s36.167 95.5 46.5 156.5s15.5 132.5 15.5 214.5
v119c0 81.333 -5.16699 152.333 -15.5 213s-26 112.5 -47 155.5s-47 78.333 -78 106s-67 49.5 -108 65.5s-87.167 27 -138.5 33s-107.333 9 -168 9zM348.002 1801c-3.33301 2.66699 -4.5 4.83398 -3.5 6.50098s3.5 2.5 7.5 2.5h108c10 0 18 -3 24 -9l131 -120h20l131 120
c6 6 14 9 24 9h108c4 0 6.5 -0.833008 7.5 -2.5s-0.166992 -3.83398 -3.5 -6.50098l-211 -186c-6 -6 -14 -9 -24 -9h-84c-10 0 -18 3 -24 9z" />
    <glyph glyph-name="dcaron" unicode="&#x10f;" horiz-adv-x="1151" 
d="M621 989c-76.667 0 -139.503 -6.66699 -188.503 -20s-87.5 -35.833 -115.5 -67.5s-47.333 -74.167 -58 -127.5s-16 -120 -16 -200v-74c0 -81.333 5.16699 -149 15.5 -203s29.666 -97 57.999 -129s67.333 -54.667 117 -68s114.167 -20 193.5 -20
c41.333 0 82.833 1.5 124.5 4.5s80.834 7.16699 117.501 12.5v868c-17.333 4 -36.666 7.5 -57.999 10.5s-43.166 5.5 -65.499 7.5s-44.166 3.5 -65.499 4.5s-41 1.5 -59 1.5zM626.997 -22c-94 0 -172.5 8.33008 -235.5 24.9971s-113.667 44.334 -152 83.001
s-65.5 89.834 -81.5 153.501s-24 142.834 -24 237.501v116c0 93.333 7.83301 171.833 23.5 235.5s42.167 115 79.5 154s87 67 149 84s139.667 25.5 233 25.5c42 0 85.167 -2.5 129.5 -7.5s84.5 -11.167 120.5 -18.5v522c0 9.33301 4.66699 15 14 17l83 18
c9.33301 2 14 -1.66699 14 -11v-1588c0 -10 -4.66699 -15.333 -14 -16c-121.333 -20 -234.333 -30 -339 -30zM1100 1215c-9.33301 0 -13.999 4.66699 -13.999 14v359c0 9.33301 4.66699 15 14 17l89 17c9.33301 2 13.666 -1.66699 12.999 -11l-21 -382
c-0.666992 -9.33301 -5.66699 -14 -15 -14h-66z" />
    <glyph glyph-name="Dcroat" unicode="&#x110;" horiz-adv-x="1399" 
d="M576 -16c-26 0 -53.6641 0.333008 -82.9971 1s-59.333 1.5 -90 2.5s-61.334 2.5 -92.001 4.5s-60.334 4.33301 -89.001 7c-9.33301 0.666992 -14 5.66699 -14 15v724h-151c-9.33301 0 -14 4.66699 -14 14v80c0 9.33301 4.66699 14 14 14h151v615
c0 9.33301 4.66699 14.333 14 15c28.667 2 59.5 3.5 92.5 4.5l97 3c31.667 1 61.667 1.66699 90 2s52.833 0.5 73.5 0.5c67.333 0 131 -3.16699 191 -9.5s115.167 -18.333 165.5 -36s95.666 -42.5 135.999 -74.5s74.333 -73.5 102 -124.5s49 -113.167 64 -186.5
s22.5 -160 22.5 -260v-113c0 -100 -7.33301 -186.833 -22 -260.5s-36 -136.334 -64 -188.001s-62 -93.667 -102 -126s-85.167 -57.666 -135.5 -75.999s-105.5 -30.833 -165.5 -37.5s-123.667 -10 -191 -10zM587.003 1379c-17.333 0 -37.834 -0.166016 -61.501 -0.499023
s-47.834 -0.833008 -72.501 -1.5s-48.667 -1.5 -72 -2.5s-43.333 -2.16699 -60 -3.5v-525h278c9.33301 0 14 -4.66699 14 -14v-80c0 -9.33301 -4.66699 -14 -14 -14h-278v-637c20 -2 41.833 -3.66699 65.5 -5s47.5 -2.5 71.5 -3.5s47.667 -1.66699 71 -2
s44.666 -0.5 63.999 -0.5c60 0 115.333 3.16699 166 9.5s96.334 17.5 137.001 33.5s76.334 38.167 107.001 66.5s56.334 64.166 77.001 107.499s36.167 95.5 46.5 156.5s15.5 132.5 15.5 214.5v119c0 81.333 -5.16699 152.333 -15.5 213s-26 112.5 -47 155.5
s-47 78.333 -78 106s-67 49.5 -108 65.5s-87.167 27 -138.5 33s-107.333 9 -168 9z" />
    <glyph glyph-name="dcroat" unicode="&#x111;" horiz-adv-x="1151" 
d="M627 -22c-94 0 -172.5 8.33008 -235.5 24.9971s-113.667 44.334 -152 83.001s-65.5 89.834 -81.5 153.501s-24 142.834 -24 237.501v116c0 93.333 7.83301 171.833 23.5 235.5s42.167 115 79.5 154s87 67 149 84s139.667 25.5 233 25.5c42 0 85.167 -2.5 129.5 -7.5
s84.5 -11.167 120.5 -18.5v214h-310c-9.33301 0 -14 4.66699 -14 14v63c0 9.33301 4.66699 14 14 14h310v217c0 9.33301 4.66699 15 14 17l83 18c9.33301 2 14 -1.66699 14 -11v-241h127c9.33301 0 14 -4.66699 14 -14v-63c0 -9.33301 -4.66699 -14 -14 -14h-127v-1256
c0 -10 -4.66699 -15.333 -14 -16c-121.333 -20 -234.333 -30 -339 -30zM621 988.997c-76.667 0 -139.503 -6.66699 -188.503 -20s-87.5 -35.833 -115.5 -67.5s-47.333 -74.167 -58 -127.5s-16 -120 -16 -200v-74c0 -81.333 5.16699 -149 15.5 -203s29.666 -97 57.999 -129
s67.333 -54.667 117 -68s114.167 -20 193.5 -20c41.333 0 82.833 1.5 124.5 4.5s80.834 7.16699 117.501 12.5v868c-17.333 4 -36.666 7.5 -57.999 10.5s-43.166 5.5 -65.499 7.5s-44.166 3.5 -65.499 4.5s-41 1.5 -59 1.5z" />
    <glyph glyph-name="Emacron" unicode="&#x112;" horiz-adv-x="1183" 
d="M218 0c-9.33301 0 -14 4.66699 -14 14v1447c0 9.33301 4.66699 14 14 14h824c9.33301 0 14 -4.66699 14 -14v-85c0 -9.33301 -4.66699 -14 -14 -14h-725v-502h630c9.33301 0 14 -4.66699 14 -14v-84c0 -9.33301 -4.66699 -14 -14 -14h-630v-636h725
c9.33301 0 14 -4.66699 14 -14v-84c0 -9.33301 -4.66699 -14 -14 -14h-824zM373 1647c-9.33301 0 -14 4.66699 -14 14v66c0 9.33301 4.66699 14 14 14h472c9.33301 0 14 -4.66699 14 -14v-66c0 -9.33301 -4.66699 -14 -14 -14h-472z" />
    <glyph glyph-name="emacron" unicode="&#x113;" horiz-adv-x="1151" 
d="M602 -22c-84.667 0 -156.831 9.16797 -216.498 27.501s-108.334 48.333 -146.001 90s-65.167 95.834 -82.5 162.501s-26 148.667 -26 246v78c0 86 8.16699 161 24.5 225s42.666 117 78.999 159s83.5 73.5 141.5 94.5s128.667 31.5 212 31.5c82 0 151.667 -10 209 -30
s104.333 -49.833 141 -89.5s63.334 -89 80.001 -148s25 -127.5 25 -205.5c0 -26 -1.16699 -48.667 -3.5 -68s-4.16602 -33.666 -5.49902 -42.999c-2 -9.33301 -7.66699 -14 -17 -14l-776 -1c0.666992 -76.667 7 -141.334 19 -194.001s32 -95.334 60 -128.001
s65.167 -56.167 111.5 -70.5s104.166 -21.5 173.499 -21.5c28.667 0 56.5 0.166992 83.5 0.5s54 1.33301 81 3s54.5 4.16699 82.5 7.5s57.333 7.66602 88 12.999c10 0.666992 15.333 -3.33301 16 -12l12 -68c0.666992 -9.33301 -3.33301 -15 -12 -17
c-28 -5.33301 -55.833 -9.83301 -83.5 -13.5s-55.667 -6.5 -84 -8.5s-57.833 -3.5 -88.5 -4.5s-63.334 -1.5 -98.001 -1.5zM940.003 595.001c-1.33301 68 -7.83203 126.834 -19.499 176.501s-31 90.667 -58 123s-62.833 56.333 -107.5 72s-100.334 23.5 -167.001 23.5
c-65.333 0 -119.833 -7.83301 -163.5 -23.5s-79 -39.834 -106 -72.501s-46.5 -74.167 -58.5 -124.5s-18.333 -110.5 -19 -180.5zM332.004 1337c-9.33301 0 -14 4.66699 -14 14v69c0 9.33301 4.66699 14 14 14h472c9.33301 0 14 -4.66699 14 -14v-69
c0 -9.33301 -4.66699 -14 -14 -14h-472z" />
    <glyph glyph-name="Edotaccent" unicode="&#x116;" horiz-adv-x="1183" 
d="M562 1606c-9.33301 0 -14 4.66699 -14 14v194c0 9.33301 4.66699 15 14 17l94 18c9.33301 2 14 -1.66699 14 -11v-218c0 -9.33301 -4.66699 -14 -14 -14h-94zM218 0c-9.33301 0 -14 4.66699 -14 14v1447c0 9.33301 4.66699 14 14 14h824c9.33301 0 14 -4.66699 14 -14
v-85c0 -9.33301 -4.66699 -14 -14 -14h-725v-502h630c9.33301 0 14 -4.66699 14 -14v-84c0 -9.33301 -4.66699 -14 -14 -14h-630v-636h725c9.33301 0 14 -4.66699 14 -14v-84c0 -9.33301 -4.66699 -14 -14 -14h-824z" />
    <glyph glyph-name="edotaccent" unicode="&#x117;" horiz-adv-x="1151" 
d="M602 -22c-84.667 0 -156.831 9.16797 -216.498 27.501s-108.334 48.333 -146.001 90s-65.167 95.834 -82.5 162.501s-26 148.667 -26 246v78c0 86 8.16699 161 24.5 225s42.666 117 78.999 159s83.5 73.5 141.5 94.5s128.667 31.5 212 31.5c82 0 151.667 -10 209 -30
s104.333 -49.833 141 -89.5s63.334 -89 80.001 -148s25 -127.5 25 -205.5c0 -26 -1.16699 -48.667 -3.5 -68s-4.16602 -33.666 -5.49902 -42.999c-2 -9.33301 -7.66699 -14 -17 -14l-776 -1c0.666992 -76.667 7 -141.334 19 -194.001s32 -95.334 60 -128.001
s65.167 -56.167 111.5 -70.5s104.166 -21.5 173.499 -21.5c28.667 0 56.5 0.166992 83.5 0.5s54 1.33301 81 3s54.5 4.16699 82.5 7.5s57.333 7.66602 88 12.999c10 0.666992 15.333 -3.33301 16 -12l12 -68c0.666992 -9.33301 -3.33301 -15 -12 -17
c-28 -5.33301 -55.833 -9.83301 -83.5 -13.5s-55.667 -6.5 -84 -8.5s-57.833 -3.5 -88.5 -4.5s-63.334 -1.5 -98.001 -1.5zM940.003 595.001c-1.33301 68 -7.83203 126.834 -19.499 176.501s-31 90.667 -58 123s-62.833 56.333 -107.5 72s-100.334 23.5 -167.001 23.5
c-65.333 0 -119.833 -7.83301 -163.5 -23.5s-79 -39.834 -106 -72.501s-46.5 -74.167 -58.5 -124.5s-18.333 -110.5 -19 -180.5zM541.004 1252c-9.33301 0 -14 4.66699 -14 14v258c0 9.33301 4.66699 15 14 17l94 18c9.33301 2 14 -1.66699 14 -11v-282
c0 -9.33301 -4.66699 -14 -14 -14h-94z" />
    <glyph glyph-name="Eogonek" unicode="&#x118;" horiz-adv-x="1183" 
d="M969 0c-19.333 -16 -37.8311 -34.835 -55.498 -56.502s-33.167 -44.334 -46.5 -68.001s-23.833 -47 -31.5 -70s-11.5 -43.5 -11.5 -61.5c0 -12.667 1.16699 -23.667 3.5 -33s7.16602 -17 14.499 -23s17.833 -10.333 31.5 -13s32.167 -4 55.5 -4
c19.333 0 36.666 0.333008 51.999 1s30.333 1.66699 45 3c9.33301 2 15 -2 17 -12l10 -47c2 -8.66699 -1.66699 -14 -11 -16c-16 -3.33301 -35.167 -6.16602 -57.5 -8.49902s-45.166 -3.5 -68.499 -3.5c-39.333 0 -71.166 3.5 -95.499 10.5s-43.5 17 -57.5 30
s-23.5 28.667 -28.5 47s-7.5 38.5 -7.5 60.5c0 20.667 4 43.334 12 68.001s18.667 49 32 73s28.166 46.833 44.499 68.5s33.166 39.834 50.499 54.501h-648c-9.33301 0 -14 4.66699 -14 14v1447c0 9.33301 4.66699 14 14 14h824c9.33301 0 14 -4.66699 14 -14v-85
c0 -9.33301 -4.66699 -14 -14 -14h-725v-502h630c9.33301 0 14 -4.66699 14 -14v-84c0 -9.33301 -4.66699 -14 -14 -14h-630v-636h725c9.33301 0 14 -4.66699 14 -14v-84c0 -9.33301 -4.66699 -14 -14 -14h-73z" />
    <glyph glyph-name="eogonek" unicode="&#x119;" horiz-adv-x="1153" 
d="M602 -22c-84.667 0 -156.832 9.16699 -216.499 27.5s-108.334 48.333 -146.001 90s-65.167 95.834 -82.5 162.501s-26 148.667 -26 246v78c0 86 8.16699 161 24.5 225s42.666 117 78.999 159s83.5 73.5 141.5 94.5s128.667 31.5 212 31.5c82 0 151.667 -10 209 -30
s104.333 -49.833 141 -89.5s63.334 -89 80.001 -148s25 -127.5 25 -205.5c0 -26 -1.16699 -48.667 -3.5 -68s-4.16602 -33.666 -5.49902 -42.999c-2 -9.33301 -7.66699 -14 -17 -14l-776 -1c0.666992 -76.667 7 -141.334 19 -194.001s32 -95.334 60 -128.001
s65.167 -56.167 111.5 -70.5s104.166 -21.5 173.499 -21.5c28.667 0 56.5 0.166992 83.5 0.5s54 1.33301 81 3s54.5 4.16699 82.5 7.5s57.333 7.66602 88 12.999c10 0.666992 15.333 -3.33301 16 -12l12 -68c0.666992 -9.33301 -3.33301 -15 -12 -17
c-6 -1.33301 -12 -2.5 -18 -3.5s-12 -1.83301 -18 -2.5c-19.333 -16 -37.833 -34.833 -55.5 -56.5s-33.167 -44.334 -46.5 -68.001s-23.833 -47 -31.5 -70s-11.5 -43.5 -11.5 -61.5c0 -12.667 1.16699 -23.667 3.5 -33s7.16602 -17 14.499 -23s17.833 -10.333 31.5 -13
s32.167 -4 55.5 -4c19.333 0 36.666 0.333008 51.999 1s30.333 1.66699 45 3c9.33301 2 15 -2 17 -12l10 -47c2 -8.66699 -1.66699 -14 -11 -16c-16 -3.33301 -35.167 -6.16602 -57.5 -8.49902s-45.166 -3.5 -68.499 -3.5c-39.333 0 -71.166 3.5 -95.499 10.5
s-43.5 17 -57.5 30s-23.5 28.667 -28.5 47s-7.5 38.5 -7.5 60.5c0 18.667 3.5 39.334 10.5 62.001s16.167 45.167 27.5 67.5s24.333 44 39 65s30 39.167 46 54.5c-30 -2.66699 -61.333 -4.5 -94 -5.5s-67.667 -1.5 -105 -1.5zM940.002 595
c-1.33301 68 -7.83203 126.834 -19.499 176.501s-31 90.667 -58 123s-62.833 56.333 -107.5 72s-100.334 23.5 -167.001 23.5c-65.333 0 -119.833 -7.83301 -163.5 -23.5s-79 -39.834 -106 -72.501s-46.5 -74.167 -58.5 -124.5s-18.333 -110.5 -19 -180.5z" />
    <glyph glyph-name="Ecaron" unicode="&#x11a;" horiz-adv-x="1183" 
d="M218 0c-9.33301 0 -14 4.66699 -14 14v1447c0 9.33301 4.66699 14 14 14h824c9.33301 0 14 -4.66699 14 -14v-85c0 -9.33301 -4.66699 -14 -14 -14h-725v-502h630c9.33301 0 14 -4.66699 14 -14v-84c0 -9.33301 -4.66699 -14 -14 -14h-630v-636h725
c9.33301 0 14 -4.66699 14 -14v-84c0 -9.33301 -4.66699 -14 -14 -14h-824zM332 1801c-3.33301 2.66699 -4.5 4.83398 -3.5 6.50098s3.5 2.5 7.5 2.5h108c10 0 18 -3 24 -9l131 -120h20l131 120c6 6 14 9 24 9h108c4 0 6.5 -0.833008 7.5 -2.5
s-0.166992 -3.83398 -3.5 -6.50098l-211 -186c-6 -6 -14 -9 -24 -9h-84c-10 0 -18 3 -24 9z" />
    <glyph glyph-name="ecaron" unicode="&#x11b;" horiz-adv-x="1151" 
d="M329 1510c-6 7.33301 -4.33301 11 5 11h97c5.33301 0 9.66602 -0.833008 12.999 -2.5s6.66602 -4.5 9.99902 -8.5l128 -161h20l127 161c3.33301 4 6.66602 6.83301 9.99902 8.5s7.66602 2.5 12.999 2.5h98c9.33301 0 11 -3.66699 5 -11l-199 -233
c-3.33301 -4 -6.66602 -6.83301 -9.99902 -8.5s-7.66602 -2.5 -12.999 -2.5h-83c-5.33301 0 -9.66602 0.833008 -12.999 2.5s-6.66602 4.5 -9.99902 8.5zM602 -22c-84.667 0 -156.831 9.16797 -216.498 27.501s-108.334 48.333 -146.001 90s-65.167 95.834 -82.5 162.501
s-26 148.667 -26 246v78c0 86 8.16699 161 24.5 225s42.666 117 78.999 159s83.5 73.5 141.5 94.5s128.667 31.5 212 31.5c82 0 151.667 -10 209 -30s104.333 -49.833 141 -89.5s63.334 -89 80.001 -148s25 -127.5 25 -205.5c0 -26 -1.16699 -48.667 -3.5 -68
s-4.16602 -33.666 -5.49902 -42.999c-2 -9.33301 -7.66699 -14 -17 -14l-776 -1c0.666992 -76.667 7 -141.334 19 -194.001s32 -95.334 60 -128.001s65.167 -56.167 111.5 -70.5s104.166 -21.5 173.499 -21.5c28.667 0 56.5 0.166992 83.5 0.5s54 1.33301 81 3
s54.5 4.16699 82.5 7.5s57.333 7.66602 88 12.999c10 0.666992 15.333 -3.33301 16 -12l12 -68c0.666992 -9.33301 -3.33301 -15 -12 -17c-28 -5.33301 -55.833 -9.83301 -83.5 -13.5s-55.667 -6.5 -84 -8.5s-57.833 -3.5 -88.5 -4.5s-63.334 -1.5 -98.001 -1.5z
M940.003 595.001c-1.33301 68 -7.83203 126.834 -19.499 176.501s-31 90.667 -58 123s-62.833 56.333 -107.5 72s-100.334 23.5 -167.001 23.5c-65.333 0 -119.833 -7.83301 -163.5 -23.5s-79 -39.834 -106 -72.501s-46.5 -74.167 -58.5 -124.5s-18.333 -110.5 -19 -180.5z
" />
    <glyph glyph-name="Gbreve" unicode="&#x11e;" horiz-adv-x="1261" 
d="M678 661c-9.33301 0 -14.002 4.66602 -14.002 13.999v78c0 9.33301 4.66699 14 14 14h424c4.66699 0 7.33398 -2.33301 8.00098 -7v-1c0 -2 0.166992 -4.33301 0.5 -7s0.5 -5 0.5 -7l1 -704c0 -9.33301 -4.33301 -15.333 -13 -18
c-64.667 -18.667 -127.667 -30.834 -189 -36.501s-121.333 -8.5 -180 -8.5c-96 0 -180.5 11.333 -253.5 34s-134.167 60.834 -183.5 114.501s-86.5 124.667 -111.5 213s-37.5 198.5 -37.5 330.5v135c0 131.333 13.167 241.333 39.5 330s65 159.834 116 213.501
s113.833 91.834 188.5 114.501s160.667 34 258 34c58.667 0 115.834 -2.83301 171.501 -8.5s103.167 -13.834 142.5 -24.501c8.66699 -2.66699 12 -8.66699 10 -18l-14 -73c-2 -9.33301 -7.66699 -13 -17 -11c-44 8 -91.333 13.833 -142 17.5s-100 5.5 -148 5.5
c-80.667 0 -151.334 -9 -212.001 -27s-111.5 -48.833 -152.5 -92.5s-71.833 -102.167 -92.5 -175.5s-31 -165 -31 -275v-155c0 -110.667 9.66699 -202.5 29 -275.5s48.5 -131.333 87.5 -175s87.833 -74.5 146.5 -92.5s127 -27 205 -27c56.667 0 106.834 2 150.501 6
s83.5 9.66699 119.5 17v544zM669.998 1586c-42 0 -78.3291 5 -108.996 15s-56.334 24.167 -77.001 42.5s-36.834 40.666 -48.501 66.999s-19.5 55.833 -23.5 88.5c-0.666992 9.33301 3.66602 14 12.999 14h68c9.33301 0 15 -4.66699 17 -14
c4 -24.667 11.167 -45.334 21.5 -62.001s22.833 -30.167 37.5 -40.5s30.667 -17.666 48 -21.999s35 -6.5 53 -6.5s35.667 2.16699 53 6.5s33.333 11.666 48 21.999s27.167 23.833 37.5 40.5s17.5 37.334 21.5 62.001c2 9.33301 7.66699 14 17 14h68
c9.33301 0 13.666 -4.66699 12.999 -14c-4 -32.667 -11.667 -62.167 -23 -88.5s-27.333 -48.666 -48 -66.999s-46.5 -32.5 -77.5 -42.5s-67.5 -15 -109.5 -15z" />
    <glyph glyph-name="gbreve" unicode="&#x11f;" horiz-adv-x="1151" 
d="M621 990c-78 0 -141.502 -6.83301 -190.502 -20.5s-87.5 -36.5 -115.5 -68.5s-47 -74.833 -57 -128.5s-15 -120.5 -15 -200.5v-76c0 -79.333 5.16699 -145.333 15.5 -198s29.833 -95 58.5 -127s68.334 -54.667 119.001 -68s116.334 -20 197.001 -20
c17.333 0 36.333 0.5 57 1.5s41.5 2.5 62.5 4.5s41.5 4.5 61.5 7.5s38.333 6.5 55 10.5v867c-38 5.33301 -77.833 9.33301 -119.5 12s-84.5 4 -128.5 4zM489.998 -473c-18 0 -38.502 0.500977 -61.502 1.50098s-46.833 2.66699 -71.5 5s-49 5.16602 -73 8.49902
s-46 7.33301 -66 12c-5.33301 1.33301 -8.83301 3.33301 -10.5 6s-2.16699 6.66699 -1.5 12l11 68c0.666992 9.33301 6 13 16 11c36.667 -9.33301 76.834 -15.666 120.501 -18.999s86.5 -5 128.5 -5c70 0 129.5 4.5 178.5 13.5s89 27 120 54s53.5 65.167 67.5 114.5
s21 114.666 21 195.999c-32.667 -7.33301 -70.167 -13.333 -112.5 -18s-84.5 -7 -126.5 -7c-96 0 -175.833 8.83301 -239.5 26.5s-114.5 46.167 -152.5 85.5s-64.833 90.5 -80.5 153.5s-23.5 140.167 -23.5 231.5v116c0 94.667 8 174 24 238s42.833 115.333 80.5 154
s87.834 66.167 150.501 82.5s140.667 24.5 234 24.5c51.333 0 106.166 -1.83301 164.499 -5.5s117.833 -11.167 178.5 -22.5c9.33301 -2 14 -7.66699 14 -17v-1044c0 -98 -9.83301 -178 -29.5 -240s-49.667 -110.5 -90 -145.5s-91.166 -58.833 -152.499 -71.5
s-134 -19 -218 -19zM588.996 1266c-44.667 0 -82.5 5.83301 -113.5 17.5s-56.667 28 -77 49s-35.666 46.333 -45.999 76s-17.5 62.5 -21.5 98.5c-0.666992 9.33301 3.66602 14 12.999 14h70c8.66699 0 14 -4.66699 16 -14c4 -29.333 10.5 -53.666 19.5 -72.999
s20.333 -34.833 34 -46.5s29.334 -20 47.001 -25s37.167 -7.5 58.5 -7.5c20.667 0 40 2.5 58 7.5s33.833 13.333 47.5 25s25 27.167 34 46.5s15.5 43.666 19.5 72.999c2 9.33301 7.33301 14 16 14h70c9.33301 0 13.666 -4.66699 12.999 -14
c-3.33301 -36 -10.333 -68.833 -21 -98.5s-26 -55 -46 -76s-45.667 -37.333 -77 -49s-69.333 -17.5 -114 -17.5z" />
    <glyph glyph-name="Gcommaaccent" unicode="&#x122;" horiz-adv-x="1263" 
d="M605 -434c-9.33301 0 -12.668 4.66699 -10.001 14l69 272c2.66699 9.33301 8.66699 15 18 17l97 17c9.33301 2 12.333 -1.33301 9 -10l-95 -297c-3.33301 -8.66699 -9.66602 -13 -18.999 -13h-69zM677.998 661c-9.33301 0 -14.002 4.66602 -14.002 13.999v78
c0 9.33301 4.66699 14 14 14h424c4.66699 0 7.33398 -2.33301 8.00098 -7v-1c0 -2 0.166992 -4.33301 0.5 -7s0.5 -5 0.5 -7l1 -704c0 -9.33301 -4.33301 -15.333 -13 -18c-64.667 -18.667 -127.667 -30.834 -189 -36.501s-121.333 -8.5 -180 -8.5
c-96 0 -180.5 11.333 -253.5 34s-134.167 60.834 -183.5 114.501s-86.5 124.667 -111.5 213s-37.5 198.5 -37.5 330.5v135c0 131.333 13.167 241.333 39.5 330s65 159.834 116 213.501s113.833 91.834 188.5 114.501s160.667 34 258 34
c58.667 0 115.834 -2.83301 171.501 -8.5s103.167 -13.834 142.5 -24.501c8.66699 -2.66699 12 -8.66699 10 -18l-14 -73c-2 -9.33301 -7.66699 -13 -17 -11c-44 8 -91.333 13.833 -142 17.5s-100 5.5 -148 5.5c-80.667 0 -151.334 -9 -212.001 -27
s-111.5 -48.833 -152.5 -92.5s-71.833 -102.167 -92.5 -175.5s-31 -165 -31 -275v-155c0 -110.667 9.66699 -202.5 29 -275.5s48.5 -131.333 87.5 -175s87.833 -74.5 146.5 -92.5s127 -27 205 -27c56.667 0 106.834 2 150.501 6s83.5 9.66699 119.5 17v544z" />
    <glyph glyph-name="gcommaaccent" unicode="&#x123;" horiz-adv-x="1151" 
d="M533 1262c-9.33301 -1.33301 -12.666 2.33301 -9.99902 11l92 278c2.66699 8.66699 8.66699 13 18 13h80c9.33301 0 12.666 -4.66699 9.99902 -14l-69 -254c-2.66699 -10 -8.66699 -15.333 -18 -16zM621 989.999c-78 0 -141.502 -6.83301 -190.502 -20.5
s-87.5 -36.5 -115.5 -68.5s-47 -74.833 -57 -128.5s-15 -120.5 -15 -200.5v-76c0 -79.333 5.16699 -145.333 15.5 -198s29.833 -95 58.5 -127s68.334 -54.667 119.001 -68s116.334 -20 197.001 -20c17.333 0 36.333 0.5 57 1.5s41.5 2.5 62.5 4.5s41.5 4.5 61.5 7.5
s38.333 6.5 55 10.5v867c-38 5.33301 -77.833 9.33301 -119.5 12s-84.5 4 -128.5 4zM489.998 -473.001c-18 0 -38.502 0.500977 -61.502 1.50098s-46.833 2.66699 -71.5 5s-49 5.16602 -73 8.49902s-46 7.33301 -66 12c-5.33301 1.33301 -8.83301 3.33301 -10.5 6
s-2.16699 6.66699 -1.5 12l11 68c0.666992 9.33301 6 13 16 11c36.667 -9.33301 76.834 -15.666 120.501 -18.999s86.5 -5 128.5 -5c70 0 129.5 4.5 178.5 13.5s89 27 120 54s53.5 65.167 67.5 114.5s21 114.666 21 195.999c-32.667 -7.33301 -70.167 -13.333 -112.5 -18
s-84.5 -7 -126.5 -7c-96 0 -175.833 8.83301 -239.5 26.5s-114.5 46.167 -152.5 85.5s-64.833 90.5 -80.5 153.5s-23.5 140.167 -23.5 231.5v116c0 94.667 8 174 24 238s42.833 115.333 80.5 154s87.834 66.167 150.501 82.5s140.667 24.5 234 24.5
c51.333 0 106.166 -1.83301 164.499 -5.5s117.833 -11.167 178.5 -22.5c9.33301 -2 14 -7.66699 14 -17v-1044c0 -98 -9.83301 -178 -29.5 -240s-49.667 -110.5 -90 -145.5s-91.166 -58.833 -152.499 -71.5s-134 -19 -218 -19z" />
    <glyph glyph-name="Imacron" unicode="&#x12a;" horiz-adv-x="521" 
d="M72 1653c-9.33301 0 -14 4.66699 -14 14v65c0 9.33301 4.66699 14 14 14h354c9.33301 0 14 -4.66699 14 -14v-65c0 -9.33301 -4.66699 -14 -14 -14h-354zM218 0c-9.33301 0 -14 4.66699 -14 14v1447c0 9.33301 4.66699 14 14 14h85c9.33301 0 14 -4.66699 14 -14v-1447
c0 -9.33301 -4.66699 -14 -14 -14h-85z" />
    <glyph glyph-name="imacron" unicode="&#x12b;" horiz-adv-x="469" 
d="M57 1314c-9.33301 0 -14 4.66699 -14 14v66c0 9.33301 4.66699 14 14 14h356c9.33301 0 14 -4.66699 14 -14v-66c0 -9.33301 -4.66699 -14 -14 -14h-356zM194 0c-9.33301 0 -14 4.66699 -14 14v1043c0 9.33301 4.66699 14 14 14h82c9.33301 0 14 -4.66699 14 -14v-1043
c0 -9.33301 -4.66699 -14 -14 -14h-82z" />
    <glyph glyph-name="Ibreve" unicode="&#x12c;" horiz-adv-x="520" 
d="M260 1587c-38 0 -70.666 4.83301 -97.999 14.5s-50 23.667 -68 42s-32 40.666 -42 66.999s-17 55.833 -21 88.5c-0.666992 9.33301 3.66602 14 12.999 14h64c8.66699 0 14 -4.66699 16 -14c4 -25.333 10.333 -46.5 19 -63.5s19 -30.667 31 -41s25.333 -17.666 40 -21.999
s30 -6.5 46 -6.5s31.333 2.16699 46 6.5s28 11.666 40 21.999s22.333 24 31 41s15 38.167 19 63.5c2 9.33301 7.33301 14 16 14h64c9.33301 0 13.666 -4.66699 12.999 -14c-3.33301 -32.667 -10 -62.167 -20 -88.5s-24.167 -48.666 -42.5 -66.999
s-41.166 -32.333 -68.499 -42s-60 -14.5 -98 -14.5zM217.001 0c-9.33301 0 -14 4.66699 -14 14v1447c0 9.33301 4.66699 14 14 14h85c9.33301 0 14 -4.66699 14 -14v-1447c0 -9.33301 -4.66699 -14 -14 -14h-85z" />
    <glyph glyph-name="ibreve" unicode="&#x12d;" horiz-adv-x="470" 
d="M227 1276c-40 0 -73.666 5.83301 -100.999 17.5s-49.666 28 -66.999 49s-30.333 46.333 -39 76s-15 62.5 -19 98.5c-0.666992 9.33301 3.66602 14 12.999 14h69c9.33301 0 14.333 -4.66699 15 -14c3.33301 -31.333 9 -57.5 17 -78.5s17.5 -37.833 28.5 -50.5
s23.667 -21.5 38 -26.5s29.5 -7.5 45.5 -7.5c18 0 35 2.5 51 7.5s30.333 13.833 43 26.5s23.334 29.5 32.001 50.5s15 47.167 19 78.5c0.666992 9.33301 5.66699 14 15 14h68c9.33301 0 13.666 -4.66699 12.999 -14c-3.33301 -36 -9.83301 -68.833 -19.5 -98.5
s-23.834 -55 -42.501 -76s-42.5 -37.333 -71.5 -49s-64.833 -17.5 -107.5 -17.5zM194.001 0c-9.33301 0 -14 4.66699 -14 14v1043c0 9.33301 4.66699 14 14 14h82c9.33301 0 14 -4.66699 14 -14v-1043c0 -9.33301 -4.66699 -14 -14 -14h-82z" />
    <glyph glyph-name="Iogonek" unicode="&#x12e;" horiz-adv-x="521" 
d="M54 -262c0 23.333 3.83008 47.165 11.4971 71.498s18.334 48.5 32.001 72.5s29.5 47.5 47.5 70.5s37.667 44.5 59 64.5v1444c0 9.33301 4.66699 14 14 14h85c9.33301 0 14 -4.66699 14 -14v-1447c0 -6 -2.66699 -10.667 -8 -14c-20.667 -15.333 -40.5 -33.5 -59.5 -54.5
s-35.833 -43.167 -50.5 -66.5s-26.5 -46.666 -35.5 -69.999s-13.5 -45 -13.5 -65c0 -13.333 1 -24.666 3 -33.999s6.66699 -16.833 14 -22.5s17.833 -9.83398 31.5 -12.501s32.167 -4 55.5 -4c19.333 0 36.833 0.333008 52.5 1s30.834 1.66699 45.501 3
c9.33301 2 15 -2 17 -12l9 -47c2 -8.66699 -1.66699 -14 -11 -16c-16 -3.33301 -35.167 -6.16602 -57.5 -8.49902s-45.166 -3.5 -68.499 -3.5c-39.333 0 -71.166 3.66699 -95.499 11s-43.333 17.5 -57 30.5s-22.834 28.667 -27.501 47s-7 38.833 -7 61.5z" />
    <glyph glyph-name="iogonek" unicode="&#x12f;" horiz-adv-x="469" 
d="M232 -329c15.333 0 32.167 0.5 50.5 1.5s36.5 2.5 54.5 4.5c9.33301 0.666992 14.333 -3.33301 15 -12l4 -49c0.666992 -8.66699 -3.66602 -14.334 -12.999 -17.001c-31.333 -7.33301 -73.333 -11 -126 -11c-39.333 0 -71.333 3.66699 -96 11s-43.667 17.5 -57 30.5
s-22.333 28.667 -27 47s-7 38.833 -7 61.5s4 46.834 12 72.501s19 50.834 33 75.501s30 48.167 48 70.5s37 42.166 57 59.499v1041c0 9.33301 4.66699 14 14 14h82c9.33301 0 14 -4.66699 14 -14v-1043c0 -4 -0.833008 -7.16699 -2.5 -9.5s-3.83398 -4.5 -6.50098 -6.5
c-20 -15.333 -39.333 -33.5 -58 -54.5s-35.167 -43 -49.5 -66s-25.833 -46 -34.5 -69s-13 -44.5 -13 -64.5c0 -13.333 1 -24.666 3 -33.999s6.66699 -16.833 14 -22.5s18 -9.83398 32 -12.501s33 -4 57 -4zM188.001 1252c-9.33301 0 -14 4.66699 -14 14v258
c0 9.33301 4.66699 15 14 17l93 18c9.33301 2 14 -1.66699 14 -11v-282c0 -9.33301 -4.66699 -14 -14 -14h-93z" />
    </font>
</defs>
</svg>
