<?xml version="1.0" standalone="no"?>
<!DOCTYPE svg PUBLIC "-//W3C//DTD SVG 1.1//EN" "http://www.w3.org/Graphics/SVG/1.1/DTD/svg11.dtd" >
<svg>
<metadata>
Created by FontForge 20090914 at Wed Apr  8 22:57:39 2015
 By www-data
</metadata>
<defs>
<font id="SkodaPro-MediumItalic" horiz-adv-x="0" >
  <font-face 
    font-family="Skoda Pro Light"
    font-weight="500"
    font-style="italic"
    font-stretch="normal"
    units-per-em="2048"
    panose-1="2 0 0 0 0 0 0 0 0 0"
    ascent="1638"
    descent="-410"
    x-height="1071"
    cap-height="1475"
    bbox="-817.703 -475 2539.45 1932"
    underline-thickness="102"
    underline-position="-103"
    slope="-10"
    unicode-range="U+0020-U+FB02"
  />
<missing-glyph 
 />
    <glyph glyph-name=".notdef" 
 />
    <glyph glyph-name="space" unicode=" " horiz-adv-x="508" 
 />
    <glyph glyph-name="exclam" unicode="!" horiz-adv-x="547" 
d="M186 493c-10.667 0 -15 5.33301 -13 16l161 950c2 11.333 8.33301 17.333 19 18l159 25c10.667 0.666992 15 -4 13 -14l-194 -979c-2 -10.667 -8.33301 -16 -19 -16h-126zM81 0c-10.667 0 -15 5.33301 -13 16l42 228c2 11.333 8.33301 17.333 19 18l152 24
c10.667 0.666992 15 -4 13 -14l-47 -256c-2 -10.667 -8.33301 -16 -19 -16h-147z" />
    <glyph glyph-name="quotedbl" unicode="&#x22;" horiz-adv-x="765" 
d="M205 981c-10.667 0 -15 5.33301 -13 16l85 462c2 11.333 8.33301 17.333 19 18l150 20c10.667 0.666992 15 -4 13 -14l-101 -486c-2 -10.667 -8.33301 -16 -19 -16h-134zM534 981c-10.667 0 -15 5.33301 -13 16l86 462c2 11.333 8.33301 17.333 19 18l149 20
c10.667 0.666992 15 -4 13 -14l-100 -486c-2 -10.667 -8.33301 -16 -19 -16h-135z" />
    <glyph glyph-name="numbersign" unicode="#" horiz-adv-x="1461" 
d="M682 0c-10.667 0 -14.332 5 -10.999 15l120 341h-348l-120 -341c-3.33301 -10 -10.333 -15 -21 -15h-144c-10.667 0 -14.334 5 -11.001 15l120 341h-229c-11.333 0 -15.333 5 -12 15l40 139c2.66699 10 9.33398 15 20.001 15h241l149 425h-234
c-11.333 0 -15.333 5 -12 15l38 138c2.66699 10 9.33398 15 20.001 15h247l121 342c3.33301 10 10.333 15 21 15h142c10 0 13.667 -5 11 -15l-120 -342h348l120 342c3.33301 10 10.333 15 21 15h143c10 0 13.667 -5 11 -15l-121 -342h231c10.667 0 14.667 -5 12 -15
l-39 -138c-2.66699 -10 -9.33398 -15 -20.001 -15h-243l-149 -425h236c10.667 0 14.667 -5 12 -15l-40 -139c-2.66699 -10 -9.33398 -15 -20.001 -15h-247l-120 -341c-3.33301 -10 -10.333 -15 -21 -15h-142zM651.002 950l-149 -425h348l149 425h-348z" />
    <glyph glyph-name="dollar" unicode="$" horiz-adv-x="1066" 
d="M311 -245c-10.667 0 -14.9971 5.32812 -12.9971 15.9951l41 217c-54 0.666992 -108.333 3.33398 -163 8.00098s-103.334 11.667 -146.001 21c-10.667 2.66699 -14 9 -10 19l49 121c3.33301 10 10.666 14 21.999 12c47.333 -9.33301 94.166 -15.5 140.499 -18.5
s93.833 -4.5 142.5 -4.5l111 542l-70 25c-40.667 14.667 -76.167 31.334 -106.5 50.001s-55.666 40 -75.999 64s-35.5 51.167 -45.5 81.5s-15 65.166 -15 104.499c0 72.667 7.66699 136.834 23 192.501s41 103 77 142s83.833 69.667 143.5 92s134.167 36.833 223.5 43.5
l41 221c2 10.667 8.33301 16 19 16h110c10.667 0 15 -5.33301 13 -16l-40 -217c52 -1.33301 101.5 -4.16602 148.5 -8.49902s88.833 -10.166 125.5 -17.499c10.667 -2 14 -8 10 -18l-43 -118c-2.66699 -5.33301 -5.5 -9 -8.5 -11s-7.5 -2.66699 -13.5 -2
c-38.667 4.66699 -78.834 8.33398 -120.501 11.001s-85.5 4.66699 -131.5 6l-106 -524l61 -22c44.667 -16.667 82.5 -35 113.5 -55s56 -42 75 -66s32.667 -50.333 41 -79s12.5 -60 12.5 -94c0 -77.333 -8.5 -145.333 -25.5 -204s-44 -108.167 -81 -148.5
s-85 -72.333 -144 -96s-130.5 -39.167 -214.5 -46.5l-41 -223c-2 -10.667 -8.33301 -16 -19 -16h-110zM613.003 1326c-57.333 -4 -104 -11.999 -140 -23.999s-64.333 -29 -85 -51s-34.667 -49.667 -42 -83s-11 -73 -11 -119c0 -26 3.5 -48.5 10.5 -67.5s18 -36 33 -51
s33.833 -28.833 56.5 -41.5s50 -25.334 82 -38.001zM507.003 149.996c52.667 5.33301 96.668 15.168 132.001 29.501s63.666 33.666 84.999 57.999s36.333 54 45 89s13 75.833 13 122.5c0 22 -3 41.667 -9 59s-15.833 33.5 -29.5 48.5s-31.667 29.333 -54 43
s-49.833 27.5 -82.5 41.5z" />
    <glyph glyph-name="percent" unicode="%" horiz-adv-x="1889" 
d="M420 589c-51.333 0 -96.335 7.16992 -135.002 21.5029s-69.834 37.166 -93.501 68.499s-39 71.666 -46 120.999s-4.16699 108.666 8.5 177.999l24 131c14.667 80 34.834 145.333 60.501 196s56 90.334 91 119.001s74.333 48.334 118 59.001s91.167 16 142.5 16
s96.333 -7.16699 135 -21.5s69.834 -37 93.501 -68s38.834 -71.167 45.501 -120.5s3.66699 -109.333 -9 -180l-23 -131c-14 -79.333 -33.667 -144.333 -59 -195s-55.5 -90.334 -90.5 -119.001s-74.5 -48.334 -118.5 -59.001s-92 -16 -144 -16zM562.998 1358
c-29.333 0 -56.3311 -3.83301 -80.998 -11.5s-46.834 -20.834 -66.501 -39.501s-36.667 -43.667 -51 -75s-25.833 -70.333 -34.5 -117l-26 -142c-8.66699 -46 -11.667 -84.5 -9 -115.5s10.334 -56 23.001 -75s30 -32.5 52 -40.5s48 -12 78 -12c29.333 0 56.333 4 81 12
s46.667 21.5 66 40.5s36.166 44.167 50.499 75.5s25.5 70 33.5 116l27 141c8.66699 46.667 11.5 85.667 8.5 117s-11 56.333 -24 75s-30.333 31.834 -52 39.501s-46.834 11.5 -75.501 11.5zM1339 -23.9971c-51.333 0 -96.332 7.16992 -134.999 21.5029
s-69.834 37.166 -93.501 68.499s-39 71.666 -46 120.999s-4.16699 108.666 8.5 177.999l24 131c14.667 80 34.667 145.333 60 196s55.5 90.334 90.5 119.001s74.333 48.334 118 59.001s91.167 16 142.5 16s96.666 -7.16699 135.999 -21.5s70.833 -37 94.5 -68
s38.834 -71.333 45.501 -121s3.66699 -109.5 -9 -179.5l-24 -131c-14.667 -79.333 -34.5 -144.333 -59.5 -195s-55 -90.334 -90 -119.001s-74.5 -48.334 -118.5 -59.001s-92 -16 -144 -16zM1482 745.006c-29.333 0 -56.3311 -3.83301 -80.998 -11.5
s-46.834 -20.834 -66.501 -39.501s-36.667 -43.667 -51 -75s-25.833 -70.333 -34.5 -117l-26 -143c-8.66699 -46 -11.5 -84.5 -8.5 -115.5s10.833 -56 23.5 -75s29.834 -32.5 51.501 -40.5s47.167 -12 76.5 -12s56.5 4 81.5 12s47.167 21.5 66.5 40.5
s36.166 44.167 50.499 75.5s25.833 70 34.5 116l26 142c8.66699 46.667 11.5 85.667 8.5 117s-11 56.333 -24 75s-30.333 31.834 -52 39.501s-46.834 11.5 -75.501 11.5zM305.003 0.00585938c-10.667 0 -12.666 4.33301 -5.99902 13l1114 1449
c4 5.33301 7.83301 8.83301 11.5 10.5s8.5 2.5 14.5 2.5h174c10.667 0 12.667 -4.33301 6 -13l-1113 -1449c-6.66699 -8.66699 -15.334 -13 -26.001 -13h-175z" />
    <glyph glyph-name="ampersand" unicode="&#x26;" horiz-adv-x="1388" 
d="M1041 0c-10.667 0 -18.9971 4.33594 -24.9971 13.0029l-97 153c-76.667 -58.667 -161.334 -105 -254.001 -139s-193.334 -51 -302.001 -51c-41.333 0 -82.5 3.83301 -123.5 11.5s-77.667 22.167 -110 43.5s-58.666 51.166 -78.999 89.499s-30.5 88.5 -30.5 150.5
c0 37.333 3 72 9 104s16.167 62.667 30.5 92s33 58.166 56 86.499s51.667 57.666 86 87.999s74.833 62.5 121.5 96.5l161 112c-40.667 66 -71.834 125 -93.501 177s-32.5 103.333 -32.5 154c0 60.667 9.5 111.334 28.5 152.001s46 73.334 81 98.001
s77.167 42.167 126.5 52.5s104.666 15.5 165.999 15.5c44.667 0 85.334 -5 122.001 -15s68 -24.833 94 -44.5s46 -43.834 60 -72.501s21 -61.667 21 -99c0 -46 -6.5 -86.833 -19.5 -122.5s-33.833 -69.834 -62.5 -102.501s-65.334 -66 -110.001 -100
s-98.334 -72.667 -161.001 -116l260 -411c42.667 46 81.667 95.833 117 149.5s66 110.834 92 171.501c2.66699 5.33301 5.5 9.16602 8.5 11.499s7.5 3.5 13.5 3.5h126c10.667 0 14 -5 10 -15c-33.333 -83.333 -73.166 -163.5 -119.499 -240.5s-100.5 -148.167 -162.5 -213.5
l171 -269c6 -9.33301 3.66699 -14 -7 -14h-172zM203.003 321.003c0 -42 6.33105 -75.166 18.998 -99.499s28.834 -43 48.501 -56s41.5 -21.333 65.5 -25s47.333 -5.5 70 -5.5c73.333 0 146.5 14.333 219.5 43s142.833 68.667 209.5 120l-275 432
c-63.333 -44 -117.666 -83.5 -162.999 -118.5s-82.333 -68.333 -111 -100s-49.667 -62.834 -63 -93.501s-20 -63 -20 -97zM734.001 1357c-30 0 -57.8301 -2.83105 -83.4971 -8.49805s-47.834 -14.834 -66.501 -27.501s-33.334 -29.334 -44.001 -50.001s-16 -46 -16 -76
c0 -40 10 -80.5 30 -121.5s44.333 -83.5 73 -127.5c47.333 32 87.666 60.5 120.999 85.5s60.5 49 81.5 72s36.167 45.667 45.5 68s14 46.833 14 73.5c0 38 -13.833 66.167 -41.5 84.5s-65.5 27.5 -113.5 27.5z" />
    <glyph glyph-name="quotesingle" unicode="'" horiz-adv-x="435" 
d="M205 981c-10.667 0 -15 5.33301 -13 16l85 462c2 11.333 8.33301 17.333 19 18l150 20c10.667 0.666992 15 -4 13 -14l-101 -486c-2 -10.667 -8.33301 -16 -19 -16h-134z" />
    <glyph glyph-name="parenleft" unicode="(" horiz-adv-x="599" 
d="M283 518c-11.333 -70.667 -19.8311 -145.504 -25.498 -224.504s-6.83398 -157.667 -3.50098 -236s11.833 -154.666 25.5 -228.999s33.5 -141.833 59.5 -202.5c4.66699 -10 1.66699 -15 -9 -15h-147c-6 0 -10.667 1 -14 3s-6.33301 5.66699 -9 11
c-26.667 58.667 -47.334 125.167 -62.001 199.5s-24.167 151.333 -28.5 231s-4 159.167 1 238.5s14.167 153.333 27.5 222l13 73c13.333 76 31.666 153.333 54.999 232s51.333 155.834 84 231.501s69.167 148.334 109.5 218.001s84.166 133.834 131.499 192.501
c6 8 14.667 12 26 12h157c10.667 0 12.667 -4 6 -12c-49.333 -61.333 -95.166 -129.333 -137.499 -204s-80.166 -151.5 -113.499 -230.5s-61.833 -158 -85.5 -237s-41.167 -153.833 -52.5 -224.5l-8 -49v0z" />
    <glyph glyph-name="parenright" unicode=")" horiz-adv-x="603" 
d="M290 567c11.333 70.667 19.8311 145.503 25.498 224.503s6.83398 157.667 3.50098 236s-11.833 154.5 -25.5 228.5s-33.5 141.667 -59.5 203c-5.33301 10 -2.33301 15 9 15h147c6 0 10.667 -1 14 -3s6.33301 -5.66699 9 -11
c26.667 -58.667 47.334 -125.167 62.001 -199.5s24.167 -151.333 28.5 -231s4 -159.167 -1 -238.5s-14.167 -153.333 -27.5 -222l-13 -73c-13.333 -76 -31.666 -153.333 -54.999 -232s-51.333 -155.834 -84 -231.501s-69.167 -148.334 -109.5 -218.001
s-84.166 -133.834 -131.499 -192.501c-6 -8 -14.667 -12 -26 -12h-157c-10.667 0 -12.667 4 -6 12c49.333 61.333 95.166 129.333 137.499 204s80.166 151.5 113.499 230.5s61.833 158 85.5 237s41.167 153.833 52.5 224.5l8 49v0z" />
    <glyph glyph-name="asterisk" unicode="*" horiz-adv-x="941" 
d="M229 1307c-8 6 -8.99902 13.334 -2.99902 22.001l69 93c4 5.33301 7.5 8.16602 10.5 8.49902s7.16699 -1.16699 12.5 -4.5l200 -129l49 260c2 10.667 8.33301 16 19 16h106c10.667 0 15 -5.33301 13 -16l-48 -258l249 130c9.33301 4.66699 16 2 20 -8l37 -91
c4 -10 1.33301 -17.333 -8 -22l-251 -131l199 -128c8 -6 9 -13.333 3 -22l-70 -93c-6.66699 -8.66699 -14.334 -10 -23.001 -4l-201 129l-48 -262c-2 -10.667 -8.33301 -16 -19 -16h-107c-10.667 0 -15 5.33301 -13 16l48 259l-248 -130c-9.33301 -4.66699 -16 -2 -20 8
l-36 92c-4.66699 10 -2 17.333 8 22l250 131z" />
    <glyph glyph-name="plus" unicode="+" horiz-adv-x="1030" 
d="M114 706c-10.667 0 -15 5.33301 -13 16l26 135c2 10.667 8.33301 16 19 16h330l62 335c2 10.667 8.33301 16 19 16h134c10.667 0 15 -5.33301 13 -16l-62 -335h331c10.667 0 15 -5.33301 13 -16l-25 -135c-2 -10.667 -8.33301 -16 -19 -16h-331l-61 -332
c-2 -10.667 -8.33301 -16 -19 -16h-134c-10.667 0 -15 5.33301 -13 16l61 332h-331z" />
    <glyph glyph-name="comma" unicode="," horiz-adv-x="483" 
d="M-66 -242c-10.667 0 -14.334 4.99805 -11.001 14.998l165 472c2 5.33301 4.5 9.33301 7.5 12s7.5 4.33398 13.5 5.00098l179 24c10.667 0.666992 14 -3.66602 10 -12.999l-219 -500c-3.33301 -10 -10.666 -15 -21.999 -15h-123z" />
    <glyph glyph-name="hyphen" unicode="-" horiz-adv-x="812" 
d="M154 511c-10.667 0 -15 5.33301 -13 16l26 135c2 10.667 8.33301 16 19 16h459c10.667 0 15 -5.33301 13 -16l-25 -135c-2 -10.667 -8.33301 -16 -19 -16h-460z" />
    <glyph glyph-name="period" unicode="." horiz-adv-x="452" 
d="M40 0c-10.667 0 -15 5.33301 -13 16l43 228c2 11.333 8.33301 17.333 19 18l151 24c10.667 0.666992 15 -4 13 -14l-46 -256c-2 -10.667 -8.33301 -16 -19 -16h-148z" />
    <glyph glyph-name="slash" unicode="/" horiz-adv-x="826" 
d="M-13 0c-11.333 0 -14.333 4.66699 -9 14l741 1528c2.66699 5.33301 5.66699 9 9 11s8 3 14 3h162c11.333 0 14.333 -4.66699 9 -14l-741 -1528c-2.66699 -5.33301 -5.66699 -9 -9 -11s-8 -3 -14 -3h-162z" />
    <glyph glyph-name="zero" unicode="0" horiz-adv-x="1311" 
d="M533 -24c-52 0 -99.8301 3.33301 -143.497 10s-82.334 18.667 -116.001 36s-62.167 40.833 -85.5 70.5s-40.5 67.5 -51.5 113.5s-15.667 101.167 -14 165.5s10.5 139.833 26.5 226.5l52 278c17.333 92.667 36.833 172.5 58.5 239.5s46 123.5 73 169.5s57 83 90 111
s69.333 49.667 109 65s83 25.5 130 30.5s98.167 7.5 153.5 7.5c52.667 0 101.167 -3.33301 145.5 -10s83.333 -18.667 117 -36s62 -41 85 -71s39.833 -68 50.5 -114s15.167 -101.167 13.5 -165.5s-10.5 -139.833 -26.5 -226.5l-51 -278
c-16.667 -93.333 -35.834 -173.5 -57.501 -240.5s-45.834 -123.5 -72.501 -169.5s-56.5 -82.833 -89.5 -110.5s-69.5 -49 -109.5 -64s-83.833 -25 -131.5 -30s-99.5 -7.5 -155.5 -7.5zM782.003 1325c-35.333 0 -68.166 -2 -98.499 -6s-58.5 -11.833 -84.5 -23.5
s-49.667 -28 -71 -49s-41 -48.333 -59 -82s-34.5 -74.5 -49.5 -122.5s-28.5 -105 -40.5 -171l-50 -268c-12 -66 -19.5 -123 -22.5 -171s-1.66699 -88.667 4 -122s15.5 -60.5 29.5 -81.5s31.667 -37.333 53 -49s46.5 -19.5 75.5 -23.5s61.167 -6 96.5 -6
c54 0 102 5.16699 144 15.5s79.167 31.5 111.5 63.5s60.666 77.833 84.999 137.5s45.833 139.167 64.5 238.5l49 266c12.667 66 20.5 123 23.5 171s1.66699 88.833 -4 122.5s-15.5 61 -29.5 82s-31.833 37.333 -53.5 49s-47 19.5 -76 23.5s-61.5 6 -97.5 6z" />
    <glyph glyph-name="one" unicode="1" horiz-adv-x="759" 
d="M167 1240c-10.667 -2 -16.001 2.33398 -16.001 13.001l4 140c0 10.667 5.33301 17 16 19l351 60c5.33301 1.33301 10.833 2.16602 16.5 2.49902s10.834 0.5 15.501 0.5h148c10.667 0 15 -5.33301 13 -16l-268 -1443c-2 -10.667 -8.33301 -16 -19 -16h-147
c-10.667 -0 -15 5.33301 -13 16l237 1283z" />
    <glyph glyph-name="two" unicode="2" horiz-adv-x="1088" 
d="M-4 0c-10.667 0 -15.001 5.33691 -13.001 16.0039l18 94c8.66699 47.333 19 90.333 31 129s25.833 74.167 41.5 106.5s34 62.666 55 90.999s45.333 56 73 83s58.834 53.833 93.501 80.5s73.667 55 117 85l248 169c35.333 24 66.833 46.667 94.5 68
s51.167 43.666 70.5 66.999s34 49 44 77s15 61 15 99c0 29.333 -5.16699 54.166 -15.5 74.499s-26.833 36.666 -49.5 48.999s-52.334 21.333 -89.001 27s-81.334 8.5 -134.001 8.5c-39.333 0 -86.5 -1.83301 -141.5 -5.5s-110.167 -10.167 -165.5 -19.5
c-10.667 -2 -16 2.33301 -16 13l2 132c0 10.667 5.33301 17.334 16 20.001c28 6.66699 57.5 12.167 88.5 16.5s62 7.83301 93 10.5s61 4.66699 90 6s55.167 2 78.5 2c80.667 0 149.167 -6.33301 205.5 -19s101.833 -31 136.5 -55s59.834 -53.5 75.501 -88.5
s23.5 -74.833 23.5 -119.5c0 -58 -5.83301 -108.333 -17.5 -151s-30.167 -82 -55.5 -118s-58.166 -70.833 -98.499 -104.5s-89.5 -70.834 -147.5 -111.501l-206 -143c-62 -43.333 -113.167 -81.333 -153.5 -114s-73 -64.5 -98 -95.5s-43.833 -62.833 -56.5 -95.5
s-23 -70.667 -31 -114h648c10.667 0 15 -5.33301 13 -16l-26 -138c-2 -10.667 -8.33301 -16 -19 -16h-838z" />
    <glyph glyph-name="three" unicode="3" horiz-adv-x="1129" 
d="M343 -24c-60.667 0 -118.667 2.66309 -174 7.99609s-104.333 12 -147 20c-10.667 2 -14.667 8 -12 18l33 139c1.33301 6 3.5 10 6.5 12s7.5 2.66699 13.5 2c49.333 -7.33301 99.833 -13 151.5 -17s100.834 -6 147.501 -6c60 0 113 4.5 159 13.5s85.333 23.833 118 44.5
s59 47.834 79 81.501s34.667 75.167 44 124.5l7 35c5.33301 29.333 6.66602 59.166 3.99902 89.499s-11.667 57.666 -27 81.999s-38.666 44.333 -69.999 60s-73.333 23.5 -126 23.5h-304c-10.667 0 -15 5.33301 -13 16l24 135c2 10.667 8.33301 16 19 16h301
c54 0 99.833 6.83301 137.5 20.5s68.5 30.834 92.5 51.501s42 43.334 54 68.001s20 48.334 24 71.001l5 22c8 42 6.5 77 -4.5 105s-30 50.333 -57 67s-61.5 28.5 -103.5 35.5s-90.667 10.5 -146 10.5c-50.667 0 -101.167 -2.33301 -151.5 -7s-101.166 -10 -152.499 -16
c-10 -0.666992 -14.667 4 -14 14l16 138c1.33301 6 3.16602 10.333 5.49902 13s6.5 4.66699 12.5 6c44 7.33301 93.833 13.666 149.5 18.999s112.834 8 171.501 8c83.333 0 156.666 -7.16699 219.999 -21.5s114.833 -36.5 154.5 -66.5s67.167 -68.5 82.5 -115.5
s16.666 -103.167 3.99902 -168.5l-5 -26c-15.333 -80 -47.666 -146.167 -96.999 -198.5s-119 -89.166 -209 -110.499c42 -13.333 76.333 -33.666 103 -60.999s47 -57.833 61 -91.5s22.167 -68.667 24.5 -105s0.5 -70.166 -5.5 -101.499l-8 -39
c-18 -86 -43.833 -156 -77.5 -210s-75.334 -96.5 -125.001 -127.5s-107.5 -52.167 -173.5 -63.5s-140 -17 -222 -17z" />
    <glyph glyph-name="four" unicode="4" horiz-adv-x="1193" 
d="M23 351c-10.667 0 -15 5.33301 -13 16l30 162c1.33301 6 3 11 5 15s5 8.33301 9 13l823 906c7.33301 8 16.333 12 27 12h182c10.667 0 15 -5.33301 13 -16l-177 -954h163c10.667 0 15 -5.33301 13 -16l-23 -122c-2 -10.667 -8.33301 -16 -19 -16h-162l-63 -335
c-2 -10.667 -8.33301 -16 -19 -16h-148c-10.667 -0 -15 5.33301 -13 16l63 335h-691zM222 505h521l132 710h-16l-636 -699z" />
    <glyph glyph-name="five" unicode="5" horiz-adv-x="1116" 
d="M324 -24c-64 0 -122.339 2.99512 -175.006 8.99512s-101.667 14.667 -147 26c-9.33301 2.66699 -12.333 9 -9 19l52 135c2.66699 5.33301 5.5 9 8.5 11s7.5 2.33301 13.5 1c23.333 -4 47.5 -7.66699 72.5 -11s49.833 -6.16602 74.5 -8.49902s48.667 -4.16602 72 -5.49902
s45 -2 65 -2c130.667 0 230.834 24.667 300.501 74s113.5 122 131.5 218l7 35c8.66699 48.667 9.33398 91.334 2.00098 128.001s-24.5 67 -51.5 91s-64.5 42 -112.5 54s-108 18 -180 18c-21.333 0 -44.5 -1 -69.5 -3s-49.667 -4.16699 -74 -6.5
s-46.666 -4.83301 -66.999 -7.5s-36.166 -5 -47.499 -7c-10.667 -0.666992 -15 4 -13 14l20 109l7 31l162 562c2.66699 10 9.33398 15 20.001 15h749c10.667 0 14 -5 10 -15l-51 -141c-2.66699 -5.33301 -5.5 -9.16602 -8.5 -11.499s-7.5 -3.5 -13.5 -3.5h-582l-113 -394
l15 1.5c10 1 21.833 2.33301 35.5 4s27.667 3 42 4s26.166 1.5 35.499 1.5c180.667 0 310.834 -37.167 390.501 -111.5s104.834 -185.166 75.501 -332.499l-7 -35c-17.333 -86 -44 -158.667 -80 -218s-80.833 -107.333 -134.5 -144s-116 -63.167 -187 -79.5
s-150.5 -24.5 -238.5 -24.5z" />
    <glyph glyph-name="six" unicode="6" horiz-adv-x="1225" 
d="M517 -24c-76.667 0 -143.329 11.1641 -199.996 33.4971s-101.5 59 -134.5 110s-53 118 -60 201s0.5 185.167 22.5 306.5l39 212c23.333 127.333 55 233.333 95 318s89.5 152.334 148.5 203.001s127.667 86.5 206 107.5s167.833 31.5 268.5 31.5c48 0 96 -2.66699 144 -8
s94 -13.666 138 -24.999c10.667 -2.66699 13.667 -9 9 -19l-48 -131c-2.66699 -5.33301 -5.5 -9 -8.5 -11s-7.5 -2.33301 -13.5 -1c-37.333 6.66699 -78.333 11.834 -123 15.501s-87.334 5.5 -128.001 5.5c-72.667 0 -136.334 -6.83301 -191.001 -20.5
s-102 -37.167 -142 -70.5s-73.333 -78 -100 -134s-48.334 -126.333 -65.001 -211c22 4 46 7.83301 72 11.5s53.167 7.16699 81.5 10.5s57.5 6 87.5 8s59.667 3 89 3c71.333 0 135 -8.5 191 -25.5s101.833 -43.333 137.5 -79s60 -81.334 73 -137.001
s12.167 -122.5 -2.5 -200.5l-3 -16c-14.667 -77.333 -38 -146.166 -70 -206.499s-72.333 -111.333 -121 -153s-105.834 -73.5 -171.501 -95.5s-139.167 -33 -220.5 -33zM921.005 475.997c10 54 11.3359 99.335 4.00293 136.002s-22.5 66.167 -45.5 88.5
s-53.333 38.166 -91 47.499s-81.834 14 -132.501 14c-24.667 0 -50.667 -0.833008 -78 -2.5s-54.833 -4 -82.5 -7s-54.334 -6.33301 -80.001 -10l-71.5 -10.5l-19 -105c-18 -98 -25.833 -178 -23.5 -240s13.666 -110.5 33.999 -145.5s48.833 -59 85.5 -72
s80.667 -19.5 132 -19.5c104 0 186.5 26.667 247.5 80s100.167 129.666 117.5 228.999z" />
    <glyph glyph-name="seven" unicode="7" horiz-adv-x="1022" 
d="M27 0c-11.333 0 -13.668 4.33301 -7.00098 13l885 1291h-707c-10.667 0 -15.667 5.33301 -15 16l8 139c0.666992 10.667 6.33398 16 17.001 16h911c10.667 0 15 -5.33301 13 -16l-25 -139c-2 -10 -6 -19.667 -12 -29l-858 -1278c-6 -8.66699 -14.333 -13 -25 -13h-185z
" />
    <glyph glyph-name="eight" unicode="8" horiz-adv-x="1274" 
d="M517 -24c-77.333 0 -145.83 8.00098 -205.497 24.001s-108.667 41.167 -147 75.5s-64.5 78.333 -78.5 132s-14 118.167 0 193.5l8 41c6 32 16.333 65 31 99s34.167 66.333 58.5 97s54 58.167 89 82.5s76.167 42.166 123.5 53.499c-34 12 -61.333 31 -82 57
s-35.834 55 -45.501 87s-14.5 64.833 -14.5 98.5s3.66699 64.5 11 92.5l6 23c18.667 71.333 43 130.666 73 177.999s66.5 85 109.5 113s93 47.667 150 59s122.167 17 195.5 17c72.667 0 136.667 -8.16699 192 -24.5s100.166 -40.5 134.499 -72.5s57.333 -71.667 69 -119
s10.834 -102 -2.49902 -164l-5 -23c-8.66699 -39.333 -19.5 -76.166 -32.5 -110.499s-29.5 -65.333 -49.5 -93s-44 -51.667 -72 -72s-61 -35.833 -99 -46.5c41.333 -14.667 74.666 -35.5 99.999 -62.5s44.333 -56.5 57 -88.5s20.167 -64.5 22.5 -97.5
s1.16602 -62.5 -3.50098 -88.5l-7 -42c-16.667 -86.667 -42.167 -157.167 -76.5 -211.5s-76.5 -96.833 -126.5 -127.5s-107.167 -51.667 -171.5 -63s-134.833 -17 -211.5 -17zM426.003 1087c-6 -23.333 -8.50098 -48.333 -7.50098 -75s8.33301 -51.5 22 -74.5
s34.834 -42 63.501 -57s68 -22.5 118 -22.5h117c50 0 91.5 7.5 124.5 22.5s59.833 34 80.5 57s36.5 47.833 47.5 74.5s19.5 51.667 25.5 75l4 16c20 81.333 8.66699 140.5 -34 177.5s-115.667 55.5 -219 55.5c-52 0 -96.833 -4.5 -134.5 -13.5s-70 -23 -97 -42
s-49 -43.167 -66 -72.5s-30.5 -64.333 -40.5 -105zM589.002 690.001c-38.667 0 -73 -4.33301 -103 -13s-56.333 -20 -79 -34s-42.167 -29.833 -58.5 -47.5s-29.833 -35.5 -40.5 -53.5s-19 -35.333 -25 -52s-10 -31 -12 -43l-7 -39c-9.33301 -48.667 -10.5 -90 -3.5 -124
s22.167 -61.833 45.5 -83.5s55 -37.334 95 -47.001s88.333 -14.5 145 -14.5s106.834 4.83301 150.501 14.5s81.334 25.334 113.001 47.001s57.167 49.5 76.5 83.5s33.666 75.333 42.999 124l8 39c2 12 3 26.333 3 43s-2 34 -6 52s-10.833 35.833 -20.5 53.5
s-23.334 33.5 -41.001 47.5s-40 25.333 -67 34s-59.833 13 -98.5 13h-118z" />
    <glyph glyph-name="nine" unicode="9" horiz-adv-x="1226" 
d="M366 -24c-48.667 0 -97.666 2.82812 -146.999 8.49512s-96.666 13.834 -141.999 24.501c-10.667 2.66699 -14.334 9 -11.001 19l49 134c2.66699 5.33301 5.5 9 8.5 11s7.5 2.33301 13.5 1c18.667 -4 38.834 -7.5 60.501 -10.5s43.834 -5.5 66.501 -7.5
s45.167 -3.5 67.5 -4.5s43.833 -1.5 64.5 -1.5c68.667 0 129.334 6.66699 182.001 20s98.834 36.333 138.501 69s73.667 76.334 102 131.001s52.166 123.334 71.499 206.001c-22 -3.33301 -45.833 -6.66602 -71.5 -9.99902s-52.5 -6.33301 -80.5 -9
s-56.667 -4.83398 -86 -6.50098s-58.333 -2.5 -87 -2.5c-74 0 -138.667 9.16699 -194 27.5s-99.833 46.333 -133.5 84s-56 85.667 -67 144s-8.83301 127.5 6.5 207.5l3 16c15.333 83.333 38.666 154.833 69.999 214.5s70.666 108.5 117.999 146.5s102.5 66 165.5 84
s133.833 27 212.5 27c74.667 0 140.667 -10.833 198 -32.5s103.166 -57.5 137.499 -107.5s55.833 -115.667 64.5 -197s2 -181.666 -20 -300.999l-27 -146c-27.333 -145.333 -61.833 -265.666 -103.5 -360.999s-92.334 -171 -152.001 -227s-129 -95.167 -208 -117.5
s-168.833 -33.5 -269.5 -33.5zM359.001 1015c-10.667 -56 -13.501 -103.499 -8.50098 -142.499s18 -70.667 39 -95s50 -42 87 -53s82.167 -16.5 135.5 -16.5c24.667 0 50.5 0.666992 77.5 2s54 3.16602 81 5.49902s53.333 5 79 8s49.5 6.16699 71.5 9.5l25 132
c18 96.667 25 175 21 235s-16.833 106.667 -38.5 140s-51.334 55.833 -89.001 67.5s-81.167 17.5 -130.5 17.5c-53.333 0 -99.666 -5.83301 -138.999 -17.5s-73 -29.667 -101 -54s-50.667 -55 -68 -92s-30.666 -80.5 -39.999 -130.5z" />
    <glyph glyph-name="colon" unicode=":" horiz-adv-x="519" 
d="M69 0c-10.667 0 -15 5.33301 -13 16l43 228c2 11.333 8.33301 17.333 19 18l151 24c10.667 0.666992 15 -4 13 -14l-46 -256c-2 -10.667 -8.33301 -16 -19 -16h-148zM194 676c-10.667 0 -15 5.33301 -13 16l43 228c2 11.333 8.33301 17.333 19 18l151 24
c10.667 0.666992 15 -4 13 -14l-46 -256c-2 -10.667 -8.33301 -16 -19 -16h-148z" />
    <glyph glyph-name="semicolon" unicode=";" horiz-adv-x="545" 
d="M-33 -242c-10.667 0 -14.334 4.99805 -11.001 14.998l165 472c2 5.33301 4.5 9.33301 7.5 12s7.5 4.33398 13.5 5.00098l179 24c10.667 0.666992 14 -3.66602 10 -12.999l-219 -500c-3.33301 -10 -10.666 -15 -21.999 -15h-123zM219 675.998
c-10.667 0 -15 5.33301 -13 16l43 228c2 11.333 8.33301 17.333 19 18l151 24c10.667 0.666992 15 -4 13 -14l-46 -256c-2 -10.667 -8.33301 -16 -19 -16h-148z" />
    <glyph glyph-name="less" unicode="&#x3c;" horiz-adv-x="927" 
d="M108 671c-8.66699 6 -11.999 14.333 -9.99902 25l27 140c2 10.667 7.66699 18.667 17 24l701 410c10 4.66699 15.333 2 16 -8l14 -144c2 -10.667 -2 -18.667 -12 -24l-590 -336l464 -329c8.66699 -6 10.667 -14 6 -24l-60 -136c-4.66699 -10 -11.334 -12 -20.001 -6z" />
    <glyph glyph-name="equal" unicode="=" horiz-adv-x="1194" 
d="M162 481c-10.667 0 -15 5.33301 -13 16l26 135c2 10.667 8.33301 16 19 16h811c10.667 0 15 -5.33301 13 -16l-26 -135c-2 -10.667 -8.33301 -16 -19 -16h-811zM250 952c-10.667 0 -15 5.33301 -13 16l24 134c2 10.667 8.33301 16 19 16h810c10.667 0 15 -5.33301 13 -16
l-24 -134c-2 -10.667 -8.33301 -16 -19 -16h-810z" />
    <glyph glyph-name="greater" unicode="&#x3e;" horiz-adv-x="925" 
d="M868 860c8.66699 -6 11.999 -14.333 9.99902 -25l-27 -140c-2 -10.667 -7.66699 -18.667 -17 -24l-701 -410c-10 -4.66699 -15.333 -2 -16 8l-14 144c-2 10.667 2 18.667 12 24l590 336l-464 329c-8.66699 6 -10.667 14 -6 24l60 136c4.66699 10 11.334 12 20.001 6z" />
    <glyph glyph-name="question" unicode="?" horiz-adv-x="888" 
d="M382 443c-2 -10.667 -8.33105 -15.9961 -18.998 -15.9961h-123c-11.333 0 -17 5.33301 -17 16c-1.33301 9.33301 -2 21 -2 35s0.666992 28.333 2 43c4.66699 38 10.667 71.167 18 99.5s18.166 55.166 32.499 80.499s33.5 50.666 57.5 75.999s55 54 93 86l78 64l79.5 70
c23 20.667 42.667 40.5 59 59.5s29.5 38.333 39.5 58s17.333 41.167 22 64.5c9.33301 52.667 -3.83398 90 -39.501 112s-94.834 33 -177.501 33c-38 0 -75.667 -1.5 -113 -4.5s-79.333 -8.16699 -126 -15.5c-10.667 -0.666992 -16 4 -16 14v132
c0 10.667 5.33301 17.334 16 20.001c44 9.33301 92 16.5 144 21.5s102.667 7.5 152 7.5c62 0 117.167 -5.33301 165.5 -16s88.166 -27.5 119.499 -50.5s53.833 -52.5 67.5 -88.5s16.834 -79.333 9.50098 -130c-5.33301 -36 -13.833 -68.167 -25.5 -96.5
s-27.667 -55.833 -48 -82.5s-45.5 -53.834 -75.5 -81.501l-106 -95.5l-89 -78c-33.333 -28.667 -59.666 -52.834 -78.999 -72.501s-34.5 -38.834 -45.5 -57.501s-19.333 -38.667 -25 -60s-11.5 -48 -17.5 -80zM147.002 0.00390625c-10.667 0 -15 5.33301 -13 16l43 228
c2 11.333 8.33301 17.333 19 18l151 24c10.667 0.666992 15 -4 13 -14l-47 -256c-2 -10.667 -8.33301 -16 -19 -16h-147z" />
    <glyph glyph-name="at" unicode="@" horiz-adv-x="1811" 
d="M272 549c-21.333 -69.333 -37.832 -135.499 -49.499 -198.499s-16.167 -121.5 -13.5 -175.5s13.167 -103 31.5 -147s46.666 -81.667 84.999 -113s87.5 -55.666 147.5 -72.999s133 -26.333 219 -27c10.667 0 14.667 -5 12 -15l-35 -123
c-2.66699 -10 -9.33398 -15 -20.001 -15c-101.333 1.33301 -188.5 12.666 -261.5 33.999s-133.667 51.166 -182 89.499s-85.333 84.166 -111 137.499s-41.667 112.666 -48 177.999s-4.16602 135.666 6.50098 210.999s28.334 154.333 53.001 237l40 135
c40.667 138 93.834 255.167 159.501 351.5s142 174.666 229 234.999s184 104 291 131s222.167 40.5 345.5 40.5c104 0 191.833 -11.833 263.5 -35.5s130 -56.834 175 -99.501s77.5 -93.167 97.5 -151.5s30 -122.166 30 -191.499c0 -124.667 -11.667 -233.667 -35 -327
s-56 -173.5 -98 -240.5s-92.5 -122.333 -151.5 -166s-124.5 -78.334 -196.5 -104.001s-149.333 -43.5 -232 -53.5s-168.334 -15 -257.001 -15c-77.333 0 -139.833 8.33301 -187.5 25s-82 42.834 -103 78.501s-29.833 81.5 -26.5 137.5s17.333 123.333 42 202l34 115
c26 88 53.667 160.667 83 218s64 102.5 104 135.5s87.333 56 142 69s120.334 19.5 197.001 19.5c44.667 0 90.5 -2.66699 137.5 -8s93.5 -12.666 139.5 -21.999c10.667 -2 14.667 -8 12 -18l-188 -765c60.667 16.667 116.334 40.834 167.001 72.501
s94.334 74.667 131.001 129s65.167 121.333 85.5 201s30.5 175.834 30.5 288.501c0 54 -7.83301 102.833 -23.5 146.5s-40.834 80.834 -75.501 111.501s-79.834 54.334 -135.501 71.001s-123.834 25 -204.501 25c-92.667 0 -180.834 -10.5 -264.501 -31.5
s-160.667 -55.833 -231 -104.5s-133 -112.834 -188 -192.501s-100.5 -178.167 -136.5 -295.5zM1005 908.001c-47.333 0 -87.665 -5 -120.998 -15s-62 -27.167 -86 -51.5s-45 -56.833 -63 -97.5s-35.333 -91.667 -52 -153l-18 -67c-18 -68 -29.667 -122.5 -35 -163.5
s-2.33301 -72.5 9 -94.5s32.166 -36.5 62.499 -43.5s71.5 -10.5 123.5 -10.5c32 0 60.333 0.833008 85 2.5s49.334 5.16699 74.001 10.5l163 670c-22.667 3.33301 -45.834 6.33301 -69.501 9s-47.834 4 -72.501 4z" />
    <glyph glyph-name="A" unicode="A" horiz-adv-x="1294" 
d="M-77 0c-11.333 0 -14.333 4.66699 -9 14l765 1447c2.66699 5.33301 5.66699 9 9 11s8 3 14 3h217c10.667 0 17 -5.33301 19 -16l229 -1443c2 -10.667 -2.33301 -16 -13 -16h-163c-11.333 -0 -17.333 5.33301 -18 16l-52 344h-629l-179 -346
c-2.66699 -5.33301 -5.66699 -9 -9 -11s-8 -3 -14 -3h-167zM779 1299l-398 -767h514z" />
    <glyph glyph-name="B" unicode="B" horiz-adv-x="1329" 
d="M454 -19c-24.667 0 -51.6689 0.331055 -81.002 0.998047s-59.666 1.66699 -90.999 3s-63 2.83301 -95 4.5s-62.667 3.83398 -92 6.50098c-10.667 0.666992 -15 6.33398 -13 17.001l268 1446c2 10.667 8.33301 16.334 19 17.001c24 2 50.333 4 79 6s58.5 3.66699 89.5 5
s62 2.33301 93 3s61.167 1 90.5 1c100.667 0 186.167 -6 256.5 -18s126.5 -31.667 168.5 -59s70.167 -63.5 84.5 -108.5s15.5 -100.5 3.5 -166.5l-2 -11c-8 -44 -18.667 -82.333 -32 -115s-28.833 -60.667 -46.5 -84s-37.167 -42.833 -58.5 -58.5s-44 -27.834 -68 -36.501
c30 -14.667 56.333 -33.5 79 -56.5s40.834 -50 54.501 -81s22.167 -65.667 25.5 -104s0.666016 -80.5 -8.00098 -126.5l-9 -47c-13.333 -70 -30.833 -129.5 -52.5 -178.5s-47.5 -89.833 -77.5 -122.5s-64.5 -58.167 -103.5 -76.5s-82.667 -32 -131 -41
s-101.666 -14.5 -159.999 -16.5s-121.833 -3 -190.5 -3zM994.998 456.998c9.33301 49.333 10.998 90.167 4.99805 122.5s-18.167 58 -36.5 77s-42.166 32.333 -71.499 40s-62.666 11.5 -99.999 11.5h-402l-103 -556c34.667 -2.66699 72 -4.66699 112 -6s78 -2 114 -2
c75.333 0 140.333 2.5 195 7.5s100.834 16.667 138.501 35s67.667 45.5 90 81.5s39.166 84.667 50.499 146zM721.996 1328c-42.667 0 -81.667 -0.5 -117 -1.5s-69 -3.16699 -101 -6.5l-84 -452h355c76.667 2 137.5 22 182.5 60s74.167 93 87.5 165l4 15
c8.66699 48.667 7.66699 87.667 -3 117s-30 51.5 -58 66.5s-64.5 24.833 -109.5 29.5s-97.167 7 -156.5 7z" />
    <glyph glyph-name="C" unicode="C" horiz-adv-x="1170" 
d="M621 -24c-96 0 -179.331 12.1689 -249.998 36.502s-127 64 -169 119s-68.5 126.333 -79.5 214s-5.16699 195.167 17.5 322.5l25 140c24 136 58 248.5 102 337.5s97 159.667 159 212s133 89 213 110s168 31.5 264 31.5c64 0 124.667 -3.33301 182 -10
s105.666 -15.667 144.999 -27c10.667 -2.66699 14 -9.33398 10 -20.001l-48 -131c-3.33301 -10 -10.333 -14 -21 -12c-44.667 9.33301 -92.334 16 -143.001 20s-100.667 6 -150 6c-69.333 0 -132.5 -8.16699 -189.5 -24.5s-107.5 -44 -151.5 -83s-81.833 -91 -113.5 -156
s-56.5 -146.167 -74.5 -243.5l-28 -160c-18.667 -98 -24.5 -179.667 -17.5 -245s25.333 -117.5 55 -156.5s70 -66.5 121 -82.5s111.167 -24 180.5 -24c60 0 115.833 2 167.5 6s100.167 9.66699 145.5 17c10.667 2 16 -2.33301 16 -13l-4 -132
c0 -10.667 -5.33301 -17.334 -16 -20.001c-43.333 -10 -95.5 -17.833 -156.5 -23.5s-124.833 -8.5 -191.5 -8.5z" />
    <glyph glyph-name="D" unicode="D" horiz-adv-x="1411" 
d="M449 -16c-24 0 -50.499 0.329102 -79.499 0.996094s-59 1.5 -90 2.5s-62.167 2.33301 -93.5 4s-61.333 3.83398 -90 6.50098c-6 1.33301 -10 3.16602 -12 5.49902s-2.33301 6.5 -1 12.5l267 1443c2 10.667 8.33301 16.334 19 17.001c28 2 58 3.66699 90 5
s63.667 2.5 95 3.5s61 1.66699 89 2s52 0.5 72 0.5c68 0 132.667 -3.5 194 -10.5s117 -20 167 -39s93.667 -44.833 131 -77.5s66.666 -74.667 87.999 -126s33.666 -113 36.999 -185s-4 -156.667 -22 -254l-21 -113c-19.333 -105.333 -43.166 -195.666 -71.499 -270.999
s-61.333 -138.833 -99 -190.5s-79.667 -93.167 -126 -124.5s-97.333 -55.166 -153 -71.499s-116 -27.166 -181 -32.499s-134.833 -8 -209.5 -8zM721.001 1324c-14 0 -30.666 -0.166992 -49.999 -0.5s-39 -0.833008 -59 -1.5s-39.667 -1.5 -59 -2.5s-36 -2.16699 -50 -3.5
l-215 -1159c16 -2 33.667 -3.5 53 -4.5l59.5 -3c20.333 -1 40.166 -1.66699 59.499 -2s36.666 -0.5 51.999 -0.5c82.667 0 156.334 6.83301 221.001 20.5s121.334 39.834 170.001 78.501s89.834 92.5 123.501 161.5s60.834 159.167 81.501 270.5l22 119
c13.333 73.333 20.333 137.333 21 192s-4.83301 101.5 -16.5 140.5s-29.334 71.167 -53.001 96.5s-52.834 45.166 -87.501 59.499s-74.834 24.333 -120.501 30s-96.5 8.5 -152.5 8.5z" />
    <glyph glyph-name="E" unicode="E" horiz-adv-x="1189" 
d="M97 0c-10.667 0 -15 5.33301 -13 16l266 1443c2 10.667 8.33301 16 19 16h848c10.667 0 15 -5.33301 13 -16l-26 -144c-2 -10.667 -8.33301 -16 -19 -16h-684l-79 -427h575c10.667 0 15 -5.33301 13 -16l-27 -143c-2 -10.667 -8.33301 -16 -19 -16h-575l-95 -522h683
c10.667 0 15 -5.33301 13 -16l-27 -143c-2 -10.667 -8.33301 -16 -19 -16h-847z" />
    <glyph glyph-name="F" unicode="F" horiz-adv-x="1125" 
d="M97 0c-10.667 0 -15 5.33301 -13 16l266 1443c2 10.667 8.33301 16 19 16h855c10.667 0 15 -5.33301 13 -16l-26 -144c-2 -10.667 -8.33301 -16 -19 -16h-691l-79 -427h547c10.667 0 15 -5.33301 13 -16l-27 -143c-2 -10.667 -8.33301 -16 -19 -16h-547l-126 -681
c-2 -10.667 -8.33301 -16 -19 -16h-147z" />
    <glyph glyph-name="G" unicode="G" horiz-adv-x="1290" 
d="M1171 784c10.667 0 14.999 -5.33203 12.999 -15.999l-133 -719c-1.33301 -6 -3.33301 -10.5 -6 -13.5s-6.66699 -5.5 -12 -7.5c-73.333 -21.333 -144.833 -35.333 -214.5 -42s-136.167 -10 -199.5 -10c-99.333 0 -184.5 11.833 -255.5 35.5s-127 62.5 -168 116.5
s-66.167 125.167 -75.5 213.5s-1.66602 197.166 23.001 326.499l25 140c24.667 134 58 245.333 100 334s93.667 159.5 155 212.5s132.5 90.333 213.5 112s172.833 32.5 275.5 32.5c30.667 0 61.667 -0.833008 93 -2.5s61.5 -4.16699 90.5 -7.5s56.333 -7.33301 82 -12
s48.5 -10 68.5 -16c10.667 -2.66699 14 -9.33398 10 -20.001l-47 -130c-3.33301 -10 -10.333 -14 -21 -12c-46 8.66699 -95 14.834 -147 18.501s-103.333 5.5 -154 5.5c-73.333 0 -139 -8 -197 -24s-109 -43.333 -153 -82s-81.333 -90.5 -112 -155.5
s-55 -146.167 -73 -243.5l-28 -160c-18.667 -98 -25.334 -179.5 -20.001 -244.5s21.666 -116.833 48.999 -155.5s65.833 -66 115.5 -82s109.834 -24 180.501 -24c48.667 0 92.834 1.5 132.501 4.5s77.5 7.16699 113.5 12.5l82 445l-273 8c-10.667 0 -15 5.33301 -13 16
l24 130c2 10.667 8.33301 16 19 16h437z" />
    <glyph glyph-name="H" unicode="H" horiz-adv-x="1451" 
d="M97 0c-10.667 0 -15 5.33301 -13 16l266 1443c2 10.667 8.33301 16 19 16h147c10.667 0 15 -5.33301 13 -16l-107 -587h697l108 587c2 10.667 8.33301 16 19 16h148c10.667 0 15 -5.33301 13 -16l-268 -1443c-2 -10.667 -8.33301 -16 -19 -16h-147
c-10.667 -0 -15 5.33301 -13 16l126 681h-697l-126 -681c-2 -10.667 -8.33301 -16 -19 -16h-147z" />
    <glyph glyph-name="I" unicode="I" horiz-adv-x="574" 
d="M97 0c-10.667 0 -15 5.33301 -13 16l266 1443c2 10.667 8.33301 16 19 16h147c10.667 0 15 -5.33301 13 -16l-266 -1443c-2 -10.667 -8.33301 -16 -19 -16h-147z" />
    <glyph glyph-name="J" unicode="J" horiz-adv-x="575" 
d="M-85 -307c-20.667 0 -42.6641 1.33301 -65.9971 4s-44 6 -62 10c-10.667 2.66699 -14.334 9 -11.001 19l46 131c2.66699 10.667 9.66699 14.667 21 12c14 -2.66699 27.667 -4.16699 41 -4.5s26.333 -0.5 39 -0.5c20.667 0 39.667 1.66699 57 5
s32.666 10.166 45.999 20.499s24.833 25.333 34.5 45s17.5 45.834 23.5 78.501l267 1446c2 10.667 8.33301 16 19 16h147c10.667 0 15 -5.33301 13 -16l-269 -1459c-10 -54 -24 -100.333 -42 -139s-40.833 -70.5 -68.5 -95.5s-60.834 -43.333 -99.501 -55
s-84 -17.5 -136 -17.5z" />
    <glyph glyph-name="K" unicode="K" horiz-adv-x="1228" 
d="M887 0c-10.667 0 -18.666 4.66699 -23.999 14l-373 681l-122 -108l-105 -571c-2 -10.667 -8.33301 -16 -19 -16h-147c-10.667 -0 -15 5.33301 -13 16l266 1443c2 10.667 8.33301 16 19 16h146c10.667 0 15 -5.33301 13 -16l-112 -607l686 612c8 7.33301 17.333 11 28 11
h231c10 0 11.333 -3.66699 4 -11l-729 -641l462 -809c5.33301 -9.33301 2.66602 -14 -8.00098 -14h-203z" />
    <glyph glyph-name="L" unicode="L" horiz-adv-x="1029" 
d="M97 0c-10.667 0 -15 5.33301 -13 16l266 1443c2 10.667 8.33301 16 19 16h147c10.667 0 15 -5.33301 13 -16l-236 -1289h617c10.667 0 15 -5.33301 13 -16l-26 -138c-2 -10.667 -8.33301 -16 -19 -16h-781z" />
    <glyph glyph-name="M" unicode="M" horiz-adv-x="1667" 
d="M97 0c-10.667 0 -15.0029 5.33301 -13.0029 16l266 1443c2 10.667 8.33301 16 19 16h163c6 0 10.5 -1.16699 13.5 -3.5s5.83301 -6.16602 8.5 -11.499l246 -655c4.66699 -12 9 -24 13 -36s7.5 -23 10.5 -33s5.33301 -18.333 7 -25l2.5 -10l6.5 9.5l17 24.5l23.5 34
c8.66699 12.667 17.667 25 27 37l487 656c4 5.33301 7.83301 8.83301 11.5 10.5s8.5 2.5 14.5 2.5h190c10.667 0 15 -5.33301 13 -16l-267 -1443c-2 -10.667 -8.33301 -16 -19 -16h-148c-10.667 0 -15 5.33301 -13 16l205 1106l11 72
c-1.33301 -0.666992 -7.16602 -8.83398 -17.499 -24.501l-34.5 -50.5l-457 -622c-6 -8.66699 -14.333 -13 -25 -13h-106c-10.667 0 -17.667 5 -21 15l-221 612c-7.33301 22 -13.166 41.333 -17.499 58s-7.16602 25 -8.49902 25l-18 -88l-203 -1090
c-2 -10.667 -8.33301 -16 -19 -16h-147z" />
    <glyph glyph-name="N" unicode="N" horiz-adv-x="1443" 
d="M97 0c-10.667 0 -15.001 5.33301 -13.001 16l266 1443c2 10.667 8.33301 16 19 16h158c6 0 10.5 -1.16699 13.5 -3.5s5.83301 -6.16602 8.5 -11.499l414 -1039c13.333 -34 23.5 -61.167 30.5 -81.5s11.167 -30.5 12.5 -30.5l213 1150c2 10.667 8.33301 16 19 16h148
c10.667 0 15 -5.33301 13 -16l-267 -1443c-2 -10.667 -8.33301 -16 -19 -16h-169c-6 0 -10.5 1.16699 -13.5 3.5s-5.83301 6.16602 -8.5 11.499l-401 1032c-13.333 34 -23.666 62.167 -30.999 84.5s-11.333 33.5 -12 33.5l-215 -1149c-2 -10.667 -8.33301 -16 -19 -16h-147z
" />
    <glyph glyph-name="O" unicode="O" horiz-adv-x="1433" 
d="M596 -24c-92.667 0 -172.329 12.667 -238.996 38s-119.5 65.5 -158.5 120.5s-63.167 126.333 -72.5 214s-3 194.167 19 319.5l25 140c24.667 138.667 57.667 252.667 99 342s91.333 159.833 150 211.5s126.167 87.5 202.5 107.5s161.833 30 256.5 30
c92.667 0 172.167 -12.5 238.5 -37.5s118.666 -65 156.999 -120s62.166 -126.333 71.499 -214s3.33301 -194.5 -18 -320.5l-24 -140c-24 -138 -56.5 -251.5 -97.5 -340.5s-90.833 -159.5 -149.5 -211.5s-126.334 -88.167 -203.001 -108.5s-162.334 -30.5 -257.001 -30.5z
M844.005 1318c-64 0 -122.166 -7.83594 -174.499 -23.5029s-99 -42.667 -140 -81s-76.167 -89.666 -105.5 -153.999s-53 -144.833 -71 -241.5l-28 -160c-18 -98 -24.667 -179.167 -20 -243.5s20 -115.666 46 -153.999s62.167 -65.333 108.5 -81s102.5 -23.5 168.5 -23.5
c63.333 0 121.333 8.16699 174 24.5s99.5 43.833 140.5 82.5s76.167 90.167 105.5 154.5s52.666 144.833 69.999 241.5l30 158c18 96.667 24.667 177.167 20 241.5s-20 115.833 -46 154.5s-62.333 65.834 -109 81.501s-103 23.5 -169 23.5z" />
    <glyph glyph-name="P" unicode="P" horiz-adv-x="1296" 
d="M698 1328c-11.333 0 -25.832 -0.166992 -43.499 -0.5s-35.667 -1 -54 -2l-53.5 -3l-42 -2.5l-116 -622c10.667 -1.33301 24.5 -2.33301 41.5 -3l53 -2c18.333 -0.666992 36.333 -1.16699 54 -1.5s32.167 -0.5 43.5 -0.5c88 0 162 3.66699 222 11s109.667 21.5 149 42.5
s69.833 50.5 91.5 88.5s38.167 87.333 49.5 148l11 56c10.667 60.667 12.167 110 4.5 148s-27 67.5 -58 88.5s-75.333 35.333 -133 43s-130.834 11.5 -219.501 11.5zM96.001 0c-10.667 0 -15.002 5.33008 -13.002 15.9971l269 1443c2 10.667 8.33301 16.334 19 17.001
c28 2 58.5 3.83301 91.5 5.5l98 5c32.333 1.66699 63 2.83398 92 3.50098s53.833 1 74.5 1c113.333 0 209.166 -6.5 287.499 -19.5s140.333 -36 186 -69s75.334 -77.833 89.001 -134.5s12.5 -128.334 -3.5 -215.001l-16 -87c-12 -65.333 -26.833 -121.666 -44.5 -168.999
s-39.667 -87.166 -66 -119.499s-57.666 -58.333 -93.999 -78s-79.333 -34.834 -129 -45.501s-106.5 -17.667 -170.5 -21s-136.667 -5 -218 -5c-13.333 0 -29.666 0.166992 -48.999 0.5l-57.5 1c-19 0.333008 -36.167 0.833008 -51.5 1.5s-26 1.33398 -32 2.00098l-95 -517
c-2 -10.667 -8.33301 -16 -19 -16h-148z" />
    <glyph glyph-name="Q" unicode="Q" horiz-adv-x="1435" 
d="M596 -24c-92.667 0 -172.502 13.001 -239.502 39.001s-119.833 67 -158.5 123s-62.834 127.667 -72.501 215s-3.5 192.333 18.5 315l25 140c16.667 94 37 176.333 61 247s51.833 131.667 83.5 183s67 93.666 106 126.999s81.833 60 128.5 80s97.334 34 152.001 42
s113.667 12 177 12c92.667 0 172.334 -13 239.001 -39s119.334 -66.833 158.001 -122.5s62.667 -127.167 72 -214.5s3 -192.666 -19 -315.999l-25 -140c-20.667 -114 -46.5 -211.167 -77.5 -291.5s-67.667 -147 -110 -200s-90.5 -93.833 -144.5 -122.5s-114 -49 -180 -61
l160 -366c4 -10 0.666992 -15 -10 -15h-190c-6 0 -10.5 1.16699 -13.5 3.5s-5.83301 6.16602 -8.5 11.499zM842.998 1318c-64 0 -122.166 -7.83594 -174.499 -23.5029s-98.833 -42.667 -139.5 -81s-75.667 -89.666 -105 -153.999s-53 -144.833 -71 -241.5l-29 -160
c-18 -98 -24.667 -179.167 -20 -243.5s20 -115.666 46 -153.999s62.333 -65.333 109 -81s103 -23.5 169 -23.5c63.333 0 121.166 8.16699 173.499 24.5s99 43.833 140 82.5s76.333 90.167 106 154.5s53.167 144.833 70.5 241.5l29 158c18 96.667 24.667 177.167 20 241.5
s-20 115.833 -46 154.5s-62.333 65.834 -109 81.501s-103 23.5 -169 23.5z" />
    <glyph glyph-name="R" unicode="R" horiz-adv-x="1360" 
d="M960 0c-6 0 -10.499 1.16602 -13.499 3.49902s-5.83301 6.16602 -8.5 11.499l-208 536c-21.333 -0.666992 -42.666 -1 -63.999 -1h-67c-38 0 -75.167 0.333008 -111.5 1s-77.5 2.66699 -123.5 6l-100 -541c-2 -10.667 -8.33301 -16 -19 -16h-148
c-10.667 0 -15 5.33301 -13 16l267 1443c2 10.667 8.33301 16.334 19 17.001c69.333 5.33301 136 8.5 200 9.5s127.333 1.5 190 1.5c116 0 212.667 -6.16699 290 -18.5s137.833 -34.166 181.5 -65.499s71.5 -74 83.5 -128s10.667 -122.667 -4 -206l-18 -103
c-12.667 -72 -29.834 -132.167 -51.501 -180.5s-48.5 -87.833 -80.5 -118.5s-68.833 -54.167 -110.5 -70.5s-88.834 -27.833 -141.501 -34.5c4.66699 -9.33301 9.16699 -18.833 13.5 -28.5l14.5 -31.5l207 -487c4 -10 0.666992 -15 -10 -15h-174zM739.001 1324
c-19.333 0 -40.166 -0.166992 -62.499 -0.5l-65.5 -1c-21.333 -0.333008 -41.5 -1 -60.5 -2s-34.5 -2.5 -46.5 -4.5l-109 -595c18 -2 37.333 -3.5 58 -4.5s41.5 -1.66699 62.5 -2l60.5 -1c19.333 -0.333008 36.666 -0.5 51.999 -0.5c54.667 0 103.5 1 146.5 3
s81.333 6.33301 115 13s63 16.167 88 28.5s46.5 28.833 64.5 49.5s33 46 45 76s22 66 30 108l11 61c12 64 13.5 114.167 4.5 150.5s-29.333 63.5 -61 81.5s-75 29.167 -130 33.5s-122.5 6.5 -202.5 6.5z" />
    <glyph glyph-name="S" unicode="S" horiz-adv-x="1188" 
d="M397 -24c-68.667 0 -135.501 3.16113 -200.501 9.49414s-120.5 15.166 -166.5 26.499c-10.667 2.66699 -14 9 -10 19l53 130c3.33301 10 10.666 14 21.999 12c32 -5.33301 62 -9.66602 90 -12.999s55 -6 81 -8s51.667 -3.5 77 -4.5s51.333 -1.5 78 -1.5
c88.667 0 161.667 5.5 219 16.5s102.833 28.333 136.5 52s57.167 54.167 70.5 91.5s20 82.333 20 135c0 26 -4.66699 48.5 -14 67.5s-24.5 37 -45.5 54s-48.667 34 -83 51s-76.5 36.5 -126.5 58.5l-132 61c-48 22 -89.333 44.667 -124 68s-63.167 48.333 -85.5 75
s-38.666 55.5 -48.999 86.5s-15.5 65.167 -15.5 102.5c0 76.667 10.5 142.334 31.5 197.001s56.167 99.5 105.5 134.5s115.166 60.833 197.499 77.5s184.5 25 306.5 25c61.333 0 120.833 -2.66699 178.5 -8s108.167 -13.666 151.5 -24.999c9.33301 -2.66699 12.333 -9 9 -19
l-49 -126c-3.33301 -10 -10.666 -14 -21.999 -12c-21.333 3.33301 -44.333 6.33301 -69 9s-49.667 4.83398 -75 6.50098s-50.166 2.83398 -74.499 3.50098s-46.5 1 -66.5 1c-86 0 -157.167 -4.16699 -213.5 -12.5s-101 -21.833 -134 -40.5s-56 -43.5 -69 -74.5
s-19.5 -68.833 -19.5 -113.5c0 -28.667 5.16699 -53.167 15.5 -73.5s26.166 -38.666 47.499 -54.999s48 -32.166 80 -47.499s69.667 -32 113 -50l154 -67c50.667 -21.333 93.167 -43.5 127.5 -66.5s61.833 -47.333 82.5 -73s35.334 -53.167 44.001 -82.5s13 -61.333 13 -96
c0 -94 -11.667 -173 -35 -237s-61 -115.5 -113 -154.5s-120 -67 -204 -84s-186.667 -25.5 -308 -25.5z" />
    <glyph glyph-name="T" unicode="T" horiz-adv-x="1174" 
d="M390 0c-10.667 0 -15 5.33301 -13 16l238 1283h-454c-10.667 0 -15 5.33301 -13 16l27 144c2 10.667 8.33301 16 19 16h1088c10.667 0 15 -5.33301 13 -16l-27 -144c-2 -10.667 -8.33301 -16 -19 -16h-454l-238 -1283c-2 -10.667 -8.33301 -16 -19 -16h-148z" />
    <glyph glyph-name="U" unicode="U" horiz-adv-x="1457" 
d="M605 -24c-84.667 0 -158.832 10.5 -222.499 31.5s-115 53 -154 96s-65 97 -78 162s-11.167 141.833 5.5 230.5l179 963c2 10.667 8.33301 16 19 16h148c10.667 0 15 -5.33301 13 -16l-170 -920c-12.667 -66.667 -17.5 -124.334 -14.5 -173.001s15.667 -89 38 -121
s55.333 -55.833 99 -71.5s100.167 -23.5 169.5 -23.5c70 0 130 7.66699 180 23s92.5 39 127.5 71s63.333 72.333 85 121s38.834 106.667 51.501 174l171 920c2 10.667 8.33301 16 19 16h145c10.667 0 15 -5.33301 13 -16l-179 -963c-20 -106 -48.333 -192.667 -85 -260
s-81.834 -120.166 -135.501 -158.499s-115.834 -64.833 -186.501 -79.5s-150 -22 -238 -22z" />
    <glyph glyph-name="V" unicode="V" horiz-adv-x="1284" 
d="M545 167h2l668 1294c2.66699 5.33301 5.66699 9 9 11s8 3 14 3h164c11.333 0 14.333 -4.66699 9 -14l-762 -1447c-2.66699 -5.33301 -5.66699 -9 -9 -11s-8 -3 -14 -3h-217c-11.333 -0 -17.333 5.33301 -18 16l-224 1443c-0.666992 6 0 10.167 2 12.5s6 3.5 12 3.5h159
c11.333 0 17.333 -5.33301 18 -16z" />
    <glyph glyph-name="W" unicode="W" horiz-adv-x="1861" 
d="M278 0c-10.667 0 -15.999 5.33398 -15.999 16.001l-27 1443c0 10.667 5.33301 16 16 16h167c10.667 0 16 -5.33301 16 -16l-13 -1073l-3 -230l9 21.5l22.5 54.5l30 73l33.5 78l478 1077c3.33301 10 10.666 15 21.999 15h149c10.667 0 16.334 -5.33301 17.001 -16
l79 -1069c0 -6 0.5 -15.833 1.5 -29.5s2 -29 3 -46s2.16699 -34.833 3.5 -53.5s2.5 -35.834 3.5 -51.501l2.5 -38.5l1 -15l81 237l384 1067c3.33301 10 10.333 15 21 15h172c10.667 0 14 -5 10 -15l-561 -1445c-2.66699 -5.33301 -5.5 -9.16602 -8.5 -11.499
s-7.5 -3.5 -13.5 -3.5h-209c-10.667 0 -16.334 5.33301 -17.001 16l-91 1055l-2 40.5c-0.666992 13.667 -1.16699 26.334 -1.5 38.001s-0.5 21.167 -0.5 28.5v11c0 -0.666992 -1.5 -4.83398 -4.5 -12.501l-11 -28.5l-14.5 -37.5c-5.33301 -13.667 -11 -26.834 -17 -39.501
l-481 -1056c-2.66699 -6 -5.66699 -10 -9 -12s-8 -3 -14 -3h-208z" />
    <glyph glyph-name="X" unicode="X" horiz-adv-x="1269" 
d="M927 0c-11.333 0 -18.668 5 -22.001 15l-263 593l-485 -596c-4 -4.66699 -7.83301 -7.83398 -11.5 -9.50098s-8.5 -2.5 -14.5 -2.5h-197c-10.667 0 -12.667 4 -6 12l611 725l-342 724c-5.33301 9.33301 -2.33301 14 9 14h175c10.667 0 18.334 -5 23.001 -15l264 -588
l484 591c4 4.66699 7.83301 7.83398 11.5 9.50098s8.5 2.5 14.5 2.5h197c10.667 0 12.667 -4 6 -12l-610 -725l340 -724c5.33301 -9.33301 2.33301 -14 -9 -14h-175z" />
    <glyph glyph-name="Y" unicode="Y" horiz-adv-x="1163" 
d="M386 0c-10.667 0 -14.999 5.33301 -12.999 16l90 492l-305 952c-4 10 -0.333008 15 11 15h159c10.667 0 17.667 -5 21 -15l233 -748l508 750c6 8.66699 14.333 13 25 13h178c11.333 0 13.666 -4.33301 6.99902 -13l-657 -955l-91 -491c-2 -10.667 -8.33301 -16 -19 -16
h-147z" />
    <glyph glyph-name="Z" unicode="Z" horiz-adv-x="1181" 
d="M-14 0c-10.667 0 -15 5.33398 -13 16.001l25 130c2 11.333 6.33301 20.666 13 27.999l986 1134h-750c-10.667 0 -15 5.33301 -13 16l25 135c2 10.667 8.33301 16 19 16h946c10.667 0 15 -5.33301 13 -16l-23 -130c-2 -10 -6.33301 -19.333 -13 -28l-986 -1134h774
c10.667 0 15 -5.33301 13 -16l-27 -135c-2 -10.667 -8.33301 -16 -19 -16h-970z" />
    <glyph glyph-name="bracketleft" unicode="[" horiz-adv-x="646" 
d="M4 -389c-10.667 0 -15 5.33301 -13 16l354 1913c2 10.667 8.33301 16 19 16h425c10.667 0 15 -5.33301 13 -16l-26 -138c-2 -10.667 -8.33301 -16 -19 -16h-261l-297 -1605h261c10.667 0 15 -5.33301 13 -16l-26 -138c-2 -10.667 -8.33301 -16 -19 -16h-424z" />
    <glyph glyph-name="backslash" unicode="\" horiz-adv-x="1050" 
d="M704 0c-6 0 -10.833 0.833008 -14.5 2.5s-6.5 5.5 -8.5 11.5l-465 1528c-1.33301 5.33301 -1.5 9 -0.5 11s4.16699 3 9.5 3h159c6 0 10.833 -0.833008 14.5 -2.5s6.5 -5.5 8.5 -11.5l465 -1528c1.33301 -5.33301 1.5 -9 0.5 -11s-4.16699 -3 -9.5 -3h-159z" />
    <glyph glyph-name="bracketright" unicode="]" horiz-adv-x="629" 
d="M610 1556c10.667 0 15 -5.33301 13 -16l-354 -1913c-2 -10.667 -8.33301 -16 -19 -16h-425c-10.667 0 -15 5.33301 -13 16l26 138c2 10.667 8.33301 16 19 16h261l297 1605h-261c-10.667 0 -15 5.33301 -13 16l26 138c2 10.667 8.33301 16 19 16h424z" />
    <glyph glyph-name="asciicircum" unicode="^" horiz-adv-x="1242" 
d="M487 1150c-10 0 -11.334 3.66699 -4.00098 11l320 301c8 7.33301 17.333 11 28 11h127c10.667 0 19 -4.33301 25 -13l203 -297c6.66699 -8.66699 4.33398 -13 -6.99902 -13h-125c-10.667 0 -19 4.33301 -25 13l-141 214l-230 -216c-8 -7.33301 -17.333 -11 -28 -11h-143z
" />
    <glyph glyph-name="underscore" unicode="_" horiz-adv-x="940" 
d="M-99 -268c-10.667 0 -15 5.33301 -13 16l26 135c2 10.667 8.33301 16 19 16h820c10.667 0 15 -5.33301 13 -16l-25 -135c-2 -10.667 -8.33301 -16 -19 -16h-821z" />
    <glyph glyph-name="grave" unicode="`" horiz-adv-x="771" 
d="M646 1264c-10.667 0 -19.332 4.33301 -25.999 13l-180 238c-6.66699 8.66699 -4.66699 13 6 13h192c10.667 0 18.667 -4.66699 24 -14l133 -236c5.33301 -9.33301 2.66602 -14 -8.00098 -14h-141z" />
    <glyph glyph-name="a" unicode="a" horiz-adv-x="1183" 
d="M902 929c-30 3.33301 -64 6.16699 -102 8.5s-79.333 3.5 -124 3.5c-66 0 -121 -5.66699 -165 -17s-80.333 -31 -109 -59s-51.834 -65.5 -69.501 -112.5s-33.5 -105.833 -47.5 -176.5l-14 -74c-13.333 -72 -20 -132 -20 -180s9.33301 -86.333 28 -115
s48.334 -49 89.001 -61s95 -18 163 -18c40 0 80.167 1 120.5 3s74.5 4.66699 102.5 8zM505 -23.999c-95.333 0 -173.167 9.66895 -233.5 29.002s-106.166 49.166 -137.499 89.499s-49.333 91.833 -54 154.5s1.33301 137.334 18 224.001l24 126
c19.333 101.333 42.833 184.166 70.5 248.499s63.667 114.666 108 150.999s99 61.333 164 75s144.167 20.5 237.5 20.5c30.667 0 62.667 -0.5 96 -1.5s66.5 -2.5 99.5 -4.5s65.333 -4.33301 97 -7s61.5 -5.33398 89.5 -8.00098c10.667 -0.666992 15 -6.66699 13 -18
l-193 -1039c-1.33301 -6 -3.33301 -10.167 -6 -12.5s-7 -4.16602 -13 -5.49902c-67.333 -7.33301 -132.833 -12.833 -196.5 -16.5s-124.834 -5.5 -183.501 -5.5z" />
    <glyph glyph-name="b" unicode="b" horiz-adv-x="1182" 
d="M623 941c-17.333 0 -36 -0.333008 -56 -1s-40.167 -1.83398 -60.5 -3.50098s-40.166 -3.66699 -59.499 -6s-37 -4.83301 -53 -7.5l-146 -781c33.333 -4 69.5 -7.33301 108.5 -10s77.833 -4 116.5 -4c66.667 0 122.167 6 166.5 18s81.166 32.333 110.499 61
s52.833 66.834 70.5 114.501s33.167 107.167 46.5 178.5l14 77c12.667 70 19 128.333 19 175s-9.33301 84 -28 112s-48 47.833 -88 59.5s-93.667 17.5 -161 17.5zM441 -24c-59.333 0 -120.168 2 -182.501 6s-125.833 11.667 -190.5 23c-10.667 2 -15 8.33301 -13 19
l290 1562c2 11.333 8.33301 17.333 19 18l145 24c10.667 0.666992 15 -4 13 -14l-100 -542c36 5.33301 75.333 10.333 118 15s86.334 7 131.001 7c89.333 0 162.5 -9.5 219.5 -28.5s100.167 -48.667 129.5 -89s46 -91.666 50 -153.999s-2 -136.833 -18 -223.5l-24 -129
c-18 -98.667 -41.167 -179.834 -69.5 -243.501s-65 -114 -110 -151s-100.667 -62.833 -167 -77.5s-146.5 -22 -240.5 -22z" />
    <glyph glyph-name="c" unicode="c" horiz-adv-x="958" 
d="M504 -24c-94 0 -170.664 9.16797 -229.997 27.501s-104.5 47.666 -135.5 87.999s-49 92.833 -54 157.5s0.166992 143.334 15.5 236.001l17 101c16 96 38 176.5 66 241.5s65 117.333 111 157s103 67.834 171 84.501s150.667 25 248 25c44.667 0 86.834 -2 126.501 -6
s75.5 -9 107.5 -15c11.333 -2 15 -8 11 -18l-36 -117c-3.33301 -9.33301 -10.333 -13.666 -21 -12.999c-32.667 5.33301 -67.334 8.83301 -104.001 10.5s-73.334 2.5 -110.001 2.5c-67.333 0 -123.5 -6 -168.5 -18s-82.5 -32.333 -112.5 -61s-54 -66.834 -72 -114.501
s-33.333 -106.834 -46 -177.501l-13 -65c-13.333 -72 -19.833 -131.833 -19.5 -179.5s10.166 -85.667 29.499 -114s49.333 -48.333 90 -60s95 -17.5 163 -17.5c39.333 0 77.833 1.16699 115.5 3.5s73.167 6.16602 106.5 11.499c10.667 2 15.667 -2.33301 15 -13l-10 -116
c-0.666992 -10.667 -6.33398 -17 -17.001 -19c-16.667 -3.33301 -35 -6.33301 -55 -9s-40.667 -5 -62 -7s-42.833 -3.5 -64.5 -4.5s-42.5 -1.5 -62.5 -1.5z" />
    <glyph glyph-name="d" unicode="d" horiz-adv-x="1181" 
d="M676 941c-66 0 -121.166 -5.83203 -165.499 -17.499s-81 -31.667 -110 -60s-52.333 -65.833 -70 -112.5s-32.834 -105 -45.501 -175l-15 -74c-13.333 -72 -20 -132 -20 -180s9.5 -86.333 28.5 -115s48.667 -49 89 -61s94.5 -18 162.5 -18c38 0 76.5 1.33301 115.5 4
s75.167 6 108.5 10l146 779c-14.667 3.33301 -31.5 6.16602 -50.5 8.49902s-38.667 4.33301 -59 6s-40.5 3 -60.5 4s-38 1.5 -54 1.5zM504.001 -23.999c-95.333 0 -173.168 9.16699 -233.501 27.5s-106 47.5 -137 87.5s-48.667 91.5 -53 154.5s1.5 138.833 17.5 227.5
l23 126c12 64.667 26 122 42 172s35 93.333 57 130s47.833 67.334 77.5 92.001s64 44.5 103 59.5s83.167 25.667 132.5 32s105.333 9.5 168 9.5c39.333 0 78.833 -2.33301 118.5 -7s75.5 -10.334 107.5 -17.001l95 516c2 11.333 8.33301 17.333 19 18l147 24
c10.667 0.666992 15 -4 13 -14l-296 -1590c-2 -11.333 -8.33301 -17.333 -19 -18c-67.333 -10 -133.166 -17.5 -197.499 -22.5s-125.833 -7.5 -184.5 -7.5z" />
    <glyph glyph-name="e" unicode="e" horiz-adv-x="1149" 
d="M481 -24c-86.667 0 -158.168 10.165 -214.501 30.498s-99.5 51.833 -129.5 94.5s-47.667 96.667 -53 162s-0.333008 143 15 233l15 88c16 92 38.333 170.333 67 235s65.5 117.334 110.5 158.001s99.167 70.334 162.5 89.001s137.666 28 222.999 28
c69.333 0 128.833 -7.83301 178.5 -23.5s90.5 -38.5 122.5 -68.5s55.667 -67 71 -111s23 -94.333 23 -151c0 -33.333 -2.16699 -64.5 -6.5 -93.5s-9.66602 -55 -15.999 -78s-12.833 -43 -19.5 -60s-12 -29.833 -16 -38.5c-2.66699 -5.33301 -5.5 -9 -8.5 -11
s-7.5 -3 -13.5 -3l-731 -1c-9.33301 -63.333 -12.166 -116 -8.49902 -158s15.5 -75.5 35.5 -100.5s48.833 -42.833 86.5 -53.5s85.5 -16 143.5 -16c56.667 0 114 1.16699 172 3.5s118.667 6.16602 182 11.499c10.667 0.666992 15.667 -4.33301 15 -15l-8 -111
c-0.666992 -6 -2.16699 -10.167 -4.5 -12.5s-6.5 -4.16602 -12.5 -5.49902c-60.667 -6.66699 -121.667 -12 -183 -16s-127.333 -6 -198 -6zM895.999 607.998c8 59.333 10.498 110.167 7.49805 152.5s-13.833 77 -32.5 104s-46 46.667 -82 59s-82.667 18.5 -140 18.5
c-56 0 -104.167 -6.5 -144.5 -19.5s-74.666 -33.5 -102.999 -61.5s-51.666 -63.833 -69.999 -107.5s-33.5 -96.167 -45.5 -157.5z" />
    <glyph glyph-name="f" unicode="f" horiz-adv-x="718" 
d="M111 929c-10.667 0.666992 -14.9951 6.33691 -12.9951 17.0039l19 109c2 10.667 8.33301 16 19 16h186l25 136c14.667 81.333 31.334 149.166 50.001 203.499s43.667 97.666 75 129.999s71.666 55.333 120.999 69s112.333 20.5 189 20.5c33.333 0 66 -1.5 98 -4.5
s59.333 -6.5 82 -10.5c11.333 -2 15 -8 11 -18l-36 -116c-2 -6 -4.5 -10 -7.5 -12s-7.5 -2.66699 -13.5 -2c-20.667 1.33301 -44.5 2.5 -71.5 3.5s-50.5 1.5 -70.5 1.5c-43.333 0 -79 -3.5 -107 -10.5s-50.833 -18.333 -68.5 -34s-31.334 -36 -41.001 -61
s-17.834 -55.5 -24.501 -91.5l-38 -204h258c11.333 0 15 -5 11 -15l-40 -128c-3.33301 -10 -10.333 -15 -21 -15h-237l-194 -1047c-13.333 -72 -29.666 -130.167 -48.999 -174.5s-44.166 -78.833 -74.499 -103.5s-67.333 -41.334 -111 -50.001s-95.834 -13 -156.501 -13
c-24 0 -50 1.16699 -78 3.5s-52.667 5.83301 -74 10.5c-10.667 2.66699 -14.334 9 -11.001 19l41 116c3.33301 10 10.333 14 21 12c16.667 -3.33301 35.167 -5.83301 55.5 -7.5s39.5 -2.5 57.5 -2.5c34.667 0 63.667 2.66699 87 8s42.666 15.166 57.999 29.499
s27.666 33.833 36.999 58.5s17.666 56 24.999 94l193 1047z" />
    <glyph glyph-name="g" unicode="g" horiz-adv-x="1184" 
d="M294 -475c-20 0 -41.502 0.504883 -64.502 1.50488s-46.5 2.33301 -70.5 4s-47.5 3.83398 -70.5 6.50098s-44.167 5.66699 -63.5 9c-10.667 2 -14.667 8 -12 18l33 112c2.66699 10.667 9.33398 15 20.001 13c17.333 -3.33301 36.166 -5.83301 56.499 -7.5
s40.833 -3.16699 61.5 -4.5s41.334 -2.16602 62.001 -2.49902s40 -0.5 58 -0.5c67.333 0 125 4.16699 173 12.5s88.5 24.166 121.5 47.499s59.833 56 80.5 98s37.334 96.667 50.001 164c-13.333 -2 -28.833 -4 -46.5 -6s-36.5 -3.66699 -56.5 -5s-40.667 -2.5 -62 -3.5
s-42.333 -1.5 -63 -1.5c-94.667 0 -171.834 9.5 -231.501 28.5s-105 48.667 -136 89s-48.667 91.5 -53 153.5s1.83398 136 18.501 222l24 126c19.333 101.333 42.833 184.166 70.5 248.499s63.667 114.666 108 150.999s99 61.333 164 75s144.167 20.5 237.5 20.5
c30.667 0 62.667 -0.5 96 -1.5s66.5 -2.5 99.5 -4.5s65.333 -4.33301 97 -7s61.5 -5.33398 89.5 -8.00098c10.667 -0.666992 15 -6.66699 13 -18l-195 -1049c-12.667 -68.667 -28.5 -128.334 -47.5 -179.001s-41.333 -93.834 -67 -129.501s-55 -64.667 -88 -87
s-69.833 -39.833 -110.5 -52.5s-85.667 -21.334 -135 -26.001s-103 -7 -161 -7zM676.998 941.005c-66 0 -120.834 -5.66602 -164.501 -16.999s-80 -31 -109 -59s-52.333 -65.5 -70 -112.5s-33.5 -105.833 -47.5 -176.5l-14 -74c-13.333 -72 -20 -132 -20 -180
s9.33301 -86.333 28 -115s48.334 -49 89.001 -61s95 -18 163 -18c40 0 80.167 1 120.5 3s74.5 4.66699 102.5 8l148 790c-30 3.33301 -64 6.16602 -102 8.49902s-79.333 3.5 -124 3.5z" />
    <glyph glyph-name="h" unicode="h" horiz-adv-x="1212" 
d="M786 0c-10.667 0 -14.999 5.33301 -12.999 16l111 593c10.667 60.667 16.5 111.5 17.5 152.5s-5.16699 73.667 -18.5 98s-35.166 41.666 -65.499 51.999s-70.833 15.5 -121.5 15.5c-23.333 0 -48.333 -1.5 -75 -4.5s-53.667 -7.5 -81 -13.5s-54.333 -13.5 -81 -22.5
s-52 -19.5 -76 -31.5l-155 -839c-2 -10.667 -8.33301 -16 -19 -16h-140c-10.667 0 -15 5.33301 -13 16l291 1570c2 11.333 8.33301 17.333 19 18l145 24c10.667 0.666992 15 -4 13 -14l-114 -612c28.667 14.667 58.834 27.667 90.501 39s63.667 21 96 29
s64.166 14 95.499 18s61.333 6 90 6c68.667 0 124.5 -8.66699 167.5 -26s75.167 -44.666 96.5 -81.999s32.666 -85 33.999 -143s-5.33398 -127.667 -20.001 -209l-114 -618c-2 -10.667 -8.33301 -16 -19 -16h-141z" />
    <glyph glyph-name="i" unicode="i" horiz-adv-x="509" 
d="M70 0c-10.667 0 -15 5.33301 -13 16l192 1039c2 10.667 8.33301 16 19 16h140c10.667 0 15 -5.33301 13 -16l-193 -1039c-2 -10.667 -8.33301 -16 -19 -16h-139zM296 1243c-10.667 0 -15 5.33301 -13 16l49 265c2 11.333 8.33301 17.333 19 18l153 25
c10.667 0.666992 15 -4 13 -14l-55 -294c-2 -10.667 -8.33301 -16 -19 -16h-147z" />
    <glyph glyph-name="j" unicode="j" horiz-adv-x="509" 
d="M-190 -475c-24 0 -49.8311 1.16797 -77.498 3.50098s-52.167 5.83301 -73.5 10.5c-10.667 2.66699 -14.334 9 -11.001 19l41 116c3.33301 10 10.333 14 21 12c16.667 -3.33301 35 -5.83301 55 -7.5s39 -2.5 57 -2.5c34.667 0 63.667 2.66699 87 8
s42.833 15.166 58.5 29.499s28 33.833 37 58.5s17.167 56 24.5 94l220 1189c2 10.667 8.33301 16 19 16h140c10.667 0 15 -5.33301 13 -16l-219 -1189c-12.667 -66.667 -28.834 -122 -48.501 -166s-44.667 -79 -75 -105s-67.333 -44.167 -111 -54.5
s-96.167 -15.5 -157.5 -15.5zM297.002 1243c-10.667 0 -15 5.33301 -13 16l48 265c2 11.333 8.33301 17.333 19 18l153 25c10.667 0.666992 15 -4 13 -14l-54 -294c-2 -10.667 -8.33301 -16 -19 -16h-147z" />
    <glyph glyph-name="k" unicode="k" horiz-adv-x="1101" 
d="M762 0c-6 0 -10.668 1.00098 -14.001 3.00098s-6.33301 5.66699 -9 11l-274 564l-153 -109l-84 -453c-2 -10.667 -8.33301 -16 -19 -16h-140c-10.667 0 -15 5.33301 -13 16l291 1570c2 11.333 8.33301 17.333 19 18l145 24c10.667 0.666992 15 -4 13 -14l-173 -931
l521 379c8.66699 6 18.334 9 29.001 9h237c4.66699 0 7.16699 -0.833008 7.5 -2.5s-1.16699 -3.83398 -4.5 -6.50098l-536 -383l349 -665c5.33301 -9.33301 2.33301 -14 -9 -14h-183z" />
    <glyph glyph-name="l" unicode="l" horiz-adv-x="522" 
d="M76 0c-10.667 0 -15 5.33301 -13 16l291 1570c2 11.333 8.33301 17.333 19 18l145 24c10.667 0.666992 15 -4 13 -14l-296 -1598c-2 -10.667 -8.33301 -16 -19 -16h-140z" />
    <glyph glyph-name="m" unicode="m" horiz-adv-x="1744" 
d="M67 0c-10.667 0 -15.0039 5.33496 -13.0039 16.002l197 1058c2 10.667 8.33301 16 19 16h106c6 0 10.167 -1.16699 12.5 -3.5s4.16602 -6.5 5.49902 -12.5l7 -73c45.333 28 95.333 50.5 150 67.5s109.667 25.5 165 25.5c58 0 106.5 -7.5 145.5 -22.5
s69.5 -38.5 91.5 -70.5c58 30 116.833 53 176.5 69s117.834 24 174.501 24c68.667 0 125.167 -8.83301 169.5 -26.5s78 -44.334 101 -80.001s36 -80.667 39 -135s-2.16699 -117.833 -15.5 -190.5l-120 -646c-2 -10.667 -8.33301 -16 -19 -16h-138
c-10.667 0 -15 5.33301 -13 16l112 610c12 63.333 17.833 114.666 17.5 153.999s-7.66602 70 -21.999 92s-36.166 37 -65.499 45s-66.666 12 -111.999 12c-38 0 -77.5 -4.5 -118.5 -13.5s-82.833 -23.833 -125.5 -44.5c4.66699 -59.333 -1.33301 -131.333 -18 -216
l-119 -639c-2 -10.667 -8.33301 -16 -19 -16h-136c-10.667 -0 -15 5.33301 -13 16l114 618c10.667 58.667 15.834 107 15.501 145s-7 68 -20 90s-32.667 37.333 -59 46s-59.833 13 -100.5 13c-40 0 -82.667 -5.5 -128 -16.5s-89 -30.5 -131 -58.5l-155 -837
c-2 -10.667 -8.33301 -16 -19 -16h-139z" />
    <glyph glyph-name="n" unicode="n" horiz-adv-x="1210" 
d="M67 0c-10.667 0 -14.9971 5.33496 -12.9971 16.002l197 1058c2 10.667 8.33301 16 19 16h106c6 0 10.167 -1.16699 12.5 -3.5s4.16602 -6.5 5.49902 -12.5l8 -75c28.667 15.333 59.167 28.833 91.5 40.5s65 21.5 98 29.5s65.5 14.167 97.5 18.5s62.333 6.5 91 6.5
c68.667 0 124.5 -9.16699 167.5 -27.5s75.167 -46.5 96.5 -84.5s32.666 -85.833 33.999 -143.5s-5.33398 -125.834 -20.001 -204.501l-114 -618c-2 -10.667 -8.33301 -16 -19 -16h-140c-10.667 0 -15 5.33301 -13 16l110 593c10.667 60.667 16.667 111.5 18 152.5
s-4.83398 73.667 -18.501 98s-35.5 41.666 -65.5 51.999s-70.333 15.5 -121 15.5c-24 0 -49.167 -1.5 -75.5 -4.5s-53.166 -7.5 -80.499 -13.5s-54.333 -13.5 -81 -22.5s-52 -19.5 -76 -31.5l-156 -839c-2 -10.667 -8.33301 -16 -19 -16h-140z" />
    <glyph glyph-name="o" unicode="o" horiz-adv-x="1179" 
d="M649 942c-58 0 -107.499 -6.83203 -148.499 -20.499s-75.667 -35.334 -104 -65.001s-51.5 -68 -69.5 -115s-33.333 -103.833 -46 -170.5l-13 -73c-12 -66 -17.667 -122.5 -17 -169.5s9.5 -85.5 26.5 -115.5s43.333 -51.833 79 -65.5s82.5 -20.5 140.5 -20.5
s107.5 6.83301 148.5 20.5s75.667 35.5 104 65.5s51.666 68.5 69.999 115.5s33.833 104.167 46.5 171.5l13 71c12 66 17.833 122.5 17.5 169.5s-9.16602 85.5 -26.499 115.5s-43.833 51.833 -79.5 65.5s-82.834 20.5 -141.501 20.5zM470.001 -23.999
c-84 0 -153.67 10.665 -209.003 31.998s-97.833 53.5 -127.5 96.5s-47.167 96.333 -52.5 160s0 138.167 16 223.5l17 91c18 94.667 41.667 174.834 71 240.501s66.5 118.834 111.5 159.501s98.667 70 161 88s135.5 27 219.5 27c84.667 0 154.834 -10.5 210.501 -31.5
s98.334 -52.667 128.001 -95s47 -95.833 52 -160.5s-0.833008 -140.667 -17.5 -228l-16 -91c-16.667 -95.333 -39.667 -175.5 -69 -240.5s-66.666 -117.667 -111.999 -158s-99.5 -69.333 -162.5 -87s-136.5 -26.5 -220.5 -26.5z" />
    <glyph glyph-name="p" unicode="p" horiz-adv-x="1182" 
d="M620 941c-36 0 -74.501 -1.16602 -115.501 -3.49902s-77.833 -6.16602 -110.5 -11.499l-145 -779c30 -6 64.833 -10.667 104.5 -14s78.5 -5 116.5 -5c67.333 0 123.333 6 168 18s81.834 32.333 111.501 61s53.167 66.667 70.5 114s32.666 106.666 45.999 177.999l14 74
c13.333 71.333 19.833 130.666 19.5 177.999s-10 85 -29 113s-48.667 47.833 -89 59.5s-94.166 17.5 -161.499 17.5zM-17.001 -451.999c-10.667 0 -15 5.33301 -13 16l275 1483c2 11.333 8.33301 17.333 19 18c68.667 10.667 135 18.167 199 22.5s125.667 6.5 185 6.5
c94 0 170.833 -9 230.5 -27s105 -46.667 136 -86s49 -90.333 54 -153s-0.5 -138.667 -16.5 -228l-22 -124c-17.333 -98 -39.833 -179.167 -67.5 -243.5s-64 -115.5 -109 -153.5s-100.667 -64.667 -167 -80s-146.833 -23 -241.5 -23c-38.667 0 -77.5 2.16699 -116.5 6.5
s-74.5 9.83301 -106.5 16.5l-80 -435c-2 -10.667 -8.33301 -16 -19 -16h-140z" />
    <glyph glyph-name="q" unicode="q" horiz-adv-x="1182" 
d="M681 941c-68 0 -124.332 -5.83398 -168.999 -17.501s-81.667 -31.5 -111 -59.5s-52.833 -65.667 -70.5 -113s-32.834 -106.666 -45.501 -177.999l-15 -74c-13.333 -71.333 -20 -130.666 -20 -177.999s9.5 -85.333 28.5 -114s48.667 -49 89 -61s94.166 -18 161.499 -18
c37.333 0 76.5 1.66699 117.5 5s77.5 8 109.5 14l144 779c-31.333 5.33301 -66.166 9.16602 -104.499 11.499s-76.5 3.5 -114.5 3.5zM660.001 -452.001c-10.667 0 -15 5.33301 -13 16l82 435c-34 -6.66699 -71.5 -12.167 -112.5 -16.5s-80.5 -6.5 -118.5 -6.5
c-94.667 0 -171.5 9.5 -230.5 28.5s-103.5 48.5 -133.5 88.5s-47.167 91.333 -51.5 154s1.16699 137.667 16.5 225l22 128c16.667 99.333 39 181 67 245s65 114.5 111 151.5s102.333 62.5 169 76.5s147.667 21 243 21c58.667 0 120 -2.33301 184 -7s126.333 -11.667 187 -21
c10.667 -2 15 -8.33301 13 -19l-275 -1483c-2 -10.667 -8.33301 -16 -19 -16h-141z" />
    <glyph glyph-name="r" unicode="r" horiz-adv-x="742" 
d="M67 0c-10.667 0 -14.999 5.33203 -12.999 15.999l197 1058c2 10.667 8.33301 16 19 16h106c6 0 10.167 -1.16699 12.5 -3.5s4.16602 -6.5 5.49902 -12.5l7 -64c22.667 14.667 47.167 27.334 73.5 38.001s53.333 19.334 81 26.001s55.167 11.667 82.5 15s53.333 5 78 5
c11.333 0 22 -0.333008 32 -1s18.667 -1.66699 26 -3c10.667 -2 14.667 -8 12 -18l-37 -142c-2.66699 -10.667 -9.33398 -15.667 -20.001 -15c-8.66699 1.33301 -17.167 2.16602 -25.5 2.49902s-18.166 0.5 -29.499 0.5c-51.333 0 -100.333 -4.16699 -147 -12.5
s-95 -24.5 -145 -48.5l-156 -841c-2 -10.667 -8.33301 -16 -19 -16h-140z" />
    <glyph glyph-name="s" unicode="s" horiz-adv-x="990" 
d="M328 -24c-18 0 -40.002 0.49707 -66.002 1.49707s-53.167 2.66699 -81.5 5s-56.666 5.33301 -84.999 9s-54.166 8.5 -77.499 14.5c-10.667 2.66699 -14.334 9 -11.001 19l34 117c3.33301 10 10.333 14 21 12c52.667 -10 101.334 -16.667 146.001 -20s90.667 -5 138 -5
c68 0 123 3 165 9s74.5 16.167 97.5 30.5s38.333 33 46 56s11.5 51.5 11.5 85.5c0 16 -2.66699 30.167 -8 42.5s-14.5 23.833 -27.5 34.5s-30.333 21.334 -52 32.001s-48.5 22.334 -80.5 35.001l-171 65c-32.667 12.667 -61.167 26 -85.5 40s-44.666 29.833 -60.999 47.5
s-28.5 37.834 -36.5 60.501s-12 49 -12 79c0 66.667 9.16699 122.167 27.5 166.5s47.166 80 86.499 107s90.333 46.167 153 57.5s138.667 17 228 17c54 0 105.333 -2.33301 154 -7s91.334 -9.66699 128.001 -15c11.333 -0.666992 15 -6.33398 11 -17.001l-36 -117
c-3.33301 -9.33301 -10.333 -13.666 -21 -12.999c-36 4.66699 -74.5 8.33398 -115.5 11.001s-84.833 4 -131.5 4c-55.333 0 -102.5 -2 -141.5 -6s-70.833 -12 -95.5 -24s-42.834 -28.667 -54.501 -50s-17.5 -49 -17.5 -83c0 -14 2.33301 -26.5 7 -37.5
s13.167 -21.667 25.5 -32s29 -20.5 50 -30.5s47.833 -21 80.5 -33l146 -54c40 -14.667 74.333 -29.334 103 -44.001s52.334 -31.167 71.001 -49.5s32.5 -39.166 41.5 -62.499s13.5 -51 13.5 -83c0 -73.333 -9.5 -134 -28.5 -182s-49.167 -86.333 -90.5 -115
s-94.833 -48.834 -160.5 -60.501s-144.834 -17.5 -237.501 -17.5z" />
    <glyph glyph-name="t" unicode="t" horiz-adv-x="774" 
d="M366 -24c-42.667 0 -78.998 3.66895 -108.998 11.002s-53.333 21.666 -70 42.999s-26.5 51.5 -29.5 90.5s1.16699 90.167 12.5 153.5l119 643l-190 17c-10.667 0.666992 -15 6.33398 -13 17.001l18 104c2 10.667 8.33301 16 19 16h194l37 196c2 10.667 8.33301 17 19 19
l146 23c10.667 2 15 -2.33301 13 -13l-43 -225h314c10 0 13.667 -5 11 -15l-45 -124c-3.33301 -10 -10.333 -15 -21 -15h-287l-117 -636c-6 -33.333 -8.66699 -59.833 -8 -79.5s5 -34.834 13 -45.501s19.833 -17.5 35.5 -20.5s35.167 -4.5 58.5 -4.5
c21.333 0 44.166 1 68.499 3s45.5 4.66699 63.5 8c10.667 2 15.667 -2.33301 15 -13l-9 -111c-0.666992 -10.667 -6.33398 -17.334 -17.001 -20.001c-25.333 -5.33301 -55.833 -10.333 -91.5 -15s-71.167 -7 -106.5 -7z" />
    <glyph glyph-name="u" unicode="u" horiz-adv-x="1209" 
d="M501 -24c-94 0 -169.5 9.00098 -226.5 27.001s-99.333 45.833 -127 83.5s-42.834 85.667 -45.501 144s3.66602 127.5 18.999 207.5l115 617c2 10.667 8.33301 16 19 16h140c10.667 0 15 -5.33301 13 -16l-113 -608c-12 -62.667 -17.333 -114.334 -16 -155.001
s11 -72.667 29 -96s45 -39.666 81 -48.999s83 -14 141 -14c20.667 0 42.334 0.666992 65.001 2s45.334 3 68.001 5s44.667 4.66699 66 8s40.666 7 57.999 11l167 896c2 10.667 8.33301 16 19 16h140c10.667 0 15 -5.33301 13 -16l-186 -1008
c-2 -10.667 -8.33301 -17.334 -19 -20.001c-26.667 -6.66699 -56.5 -13 -89.5 -19s-67.833 -11.333 -104.5 -16s-74.167 -8.5 -112.5 -11.5s-76.166 -4.5 -113.499 -4.5z" />
    <glyph glyph-name="v" unicode="v" horiz-adv-x="1029" 
d="M286 0c-10.667 0 -17.001 5.33301 -19.001 16l-165 1039c-2 10.667 2.33301 16 13 16h152c11.333 0 17.333 -5.33301 18 -16l128 -897l464 899c2.66699 5.33301 5.66699 9 9 11s8 3 14 3h162c10.667 0 13.334 -4.66699 8.00098 -14l-553 -1043
c-5.33301 -9.33301 -13.333 -14 -24 -14h-207z" />
    <glyph glyph-name="w" unicode="w" horiz-adv-x="1659" 
d="M240 0c-10.667 0 -16.333 5.33398 -17 16.001l-80 1039c-0.666992 10.667 4.33301 16 15 16h150c10.667 0 16.334 -5.33301 17.001 -16l48 -807c0 -5.33301 0.166992 -13.833 0.5 -25.5s0.5 -23.334 0.5 -35.001v-31c0 -9 0.333008 -13.5 1 -13.5
c1.33301 0.666992 6.16602 11.5 14.499 32.5s19.166 44.833 32.499 71.5l404 810c2.66699 5.33301 5.66699 9 9 11s8 3 14 3h129c11.333 0 17.333 -5.33301 18 -16l101 -811c1.33301 -12.667 2.5 -25 3.5 -37s1.83301 -22.833 2.5 -32.5s1.33398 -17.334 2.00098 -23.001
s1.33398 -8.5 2.00098 -8.5s2.66699 4.5 6 13.5l11.5 31c4.33301 11.667 8.83301 23 13.5 34s8.66699 19.167 12 24.5l346 810c3.33301 10 10.666 15 21.999 15h155c10.667 0 13.667 -5 9 -15l-467 -1041c-4.66699 -10 -12.334 -15 -23.001 -15h-191
c-11.333 0 -17.333 5.33301 -18 16l-107 706c-1.33301 9.33301 -2.5 19.5 -3.5 30.5s-1.66699 21.167 -2 30.5s-0.666016 17 -0.999023 23s-0.833008 9 -1.5 9s-2.16699 -3.16699 -4.5 -9.5s-5.5 -14.166 -9.5 -23.499l-13.5 -30l-14.5 -30l-372 -708
c-2.66699 -5.33301 -5.66699 -9 -9 -11s-8 -3 -14 -3h-191z" />
    <glyph glyph-name="x" unicode="x" horiz-adv-x="1076" 
d="M731 0c-6 0 -10.667 1 -14 3s-6.33301 5.66699 -9 11l-201 416l-356 -418c-6 -8 -14.667 -12 -26 -12h-182c-11.333 0 -13 4 -5 12l472 531l-267 514c-5.33301 9.33301 -2.33301 14 9 14h161c6 0 10.667 -1 14 -3s6.33301 -5.66699 9 -11l201 -415l356 417
c6 8 14.667 12 26 12h184c11.333 0 13 -4 5 -12l-474 -530l269 -515c5.33301 -9.33301 2.33301 -14 -9 -14h-163z" />
    <glyph glyph-name="y" unicode="y" horiz-adv-x="998" 
d="M-55 -475c-18 0 -38.333 1.16797 -61 3.50098s-43 5.83301 -61 10.5c-10 2.66699 -13.333 9 -10 19l40 117c3.33301 10 10.333 14 21 12c14 -2.66699 29.5 -4.83398 46.5 -6.50098s32.5 -2.5 46.5 -2.5c28.667 0 54.334 1.5 77.001 4.5s43.667 8.5 63 16.5
s37.666 19.333 54.999 34s34.833 34 52.5 58s36.334 53 56.001 87s41.5 74.667 65.5 122c-1.33301 0 -4.33301 1.5 -9 4.5s-10.334 9.16699 -17.001 18.5s-13.667 23.166 -21 41.499s-14 42.833 -20 73.5l-172 917c-2 10.667 2.33301 16 13 16h160
c10.667 0 17 -5.33301 19 -16l116 -716l8 -56.5l7 -49.5c2 -14.667 3.66699 -26.334 5 -35.001l2 -13l411 872c2.66699 5.33301 5.66699 9 9 11s8 3 14 3h165c11.333 0 14.333 -4.66699 9 -14l-573 -1139c-42 -83.333 -80.333 -150.666 -115 -201.999
s-70.834 -91.166 -108.501 -119.499s-79.667 -47.333 -126 -57s-102.166 -14.5 -167.499 -14.5z" />
    <glyph glyph-name="z" unicode="z" horiz-adv-x="1021" 
d="M167 914c-11.333 0 -16 6 -14 18l24 126c1.33301 5.33301 3.5 8.83301 6.5 10.5s7.16699 2.5 12.5 2.5h796c11.333 0 16 -6 14 -18l-23 -118c-1.33301 -4.66699 -2.83301 -8.33398 -4.5 -11.001s-4.16699 -5.66699 -7.5 -9l-737 -757h589c11.333 0 16 -6 14 -18l-24 -127
c-1.33301 -5.33301 -3.33301 -8.83301 -6 -10.5s-6.66699 -2.5 -12 -2.5h-801c-11.333 0 -16 6 -14 18l22 114c1.33301 6.66699 3 11.834 5 15.501s4.66699 7.16699 8 10.5l737 756h-585z" />
    <glyph glyph-name="braceleft" unicode="{" horiz-adv-x="682" 
d="M310 -389c-52 0 -95.3301 4.16504 -129.997 12.498s-61.334 23.5 -80.001 45.5s-29.5 52.667 -32.5 92s1.5 90 13.5 152l57 304c6.66699 36 10.834 66.333 12.501 91s0.166992 45.834 -4.5 63.501s-13.167 32.667 -25.5 45s-28.833 24.5 -49.5 36.5
c-5.33301 2.66699 -8.83301 5.66699 -10.5 9s-1.83398 8 -0.500977 14l25 133c1.33301 6 3.33301 10.5 6 13.5s6.66699 6.16699 12 9.5c25.333 12 46.5 24.167 63.5 36.5s31.167 27.333 42.5 45s20.666 38.834 27.999 63.501s14.333 55.334 21 92.001l56 303
c14 74 29.833 131.5 47.5 172.5s39.667 71.167 66 90.5s57.833 30.833 94.5 34.5s81 5.5 133 5.5h132c10.667 0 15 -5.33301 13 -16l-24 -139c-2 -10.667 -8.33301 -16 -19 -16h-132c-22.667 0 -41.334 -1.66699 -56.001 -5s-26.667 -9.66602 -36 -18.999
s-16.833 -22.333 -22.5 -39s-10.834 -38.334 -15.501 -65.001l-58 -307c-9.33301 -50.667 -19.166 -92.5 -29.499 -125.5s-22.666 -61 -36.999 -84s-32 -42.667 -53 -59s-46.833 -32.833 -77.5 -49.5l-3 -16c24.667 -17.333 44 -35.833 58 -55.5s24 -42.167 30 -67.5
s8 -53.833 6 -85.5s-6.66699 -67.834 -14 -108.501l-57 -309c-4.66699 -26.667 -7.33398 -48.334 -8.00098 -65.001s2 -29.667 8 -39s15.5 -15.666 28.5 -18.999s31.167 -5 54.5 -5h130c10.667 0 15 -5.33301 13 -16l-25 -138c-2 -10.667 -8.33301 -16 -19 -16h-132v0z" />
    <glyph glyph-name="bar" unicode="|" horiz-adv-x="638" 
d="M224 -389c-10.667 0 -16 5.33301 -16 16v1832c0 10.667 5.33301 16 16 16h148c10.667 0 16 -5.33301 16 -16v-1832c0 -10.667 -5.33301 -16 -16 -16h-148z" />
    <glyph glyph-name="braceright" unicode="}" horiz-adv-x="668" 
d="M328 1474c52 0 95.333 -4.16504 130 -12.498s61.334 -23.5 80.001 -45.5s29.5 -52.667 32.5 -92s-1.5 -90 -13.5 -152l-57 -304c-6.66699 -36 -10.834 -66.333 -12.501 -91s-0.166992 -45.834 4.5 -63.501s13 -32.667 25 -45s28.667 -24.5 50 -36.5
c5.33301 -2.66699 8.83301 -5.66699 10.5 -9s1.83398 -8 0.500977 -14l-25 -133c-1.33301 -6 -3.33301 -10.5 -6 -13.5s-6.66699 -6.16699 -12 -9.5c-25.333 -12 -46.5 -24.167 -63.5 -36.5s-31.167 -27.333 -42.5 -45s-20.666 -38.834 -27.999 -63.501
s-14.333 -55.334 -21 -92.001l-56 -303c-14 -74 -29.833 -131.5 -47.5 -172.5s-39.667 -71.167 -66 -90.5s-57.833 -30.833 -94.5 -34.5s-81 -5.5 -133 -5.5h-132c-10.667 0 -15 5.33301 -13 16l24 139c2 10.667 8.33301 16 19 16h132c22.667 0 41.334 1.66699 56.001 5
s26.667 9.66602 36 18.999s16.666 22.333 21.999 39s10.666 38.334 15.999 65.001l58 307c9.33301 50.667 19.166 92.5 29.499 125.5s22.666 61 36.999 84s32 42.667 53 59s46.833 32.833 77.5 49.5l3 16c-24.667 16.667 -44 35 -58 55s-24 42.667 -30 68s-8 53.833 -6 85.5
s6.66699 67.834 14 108.501l57 309c4.66699 26.667 7.33398 48.334 8.00098 65.001s-2 29.667 -8 39s-15.667 15.666 -29 18.999s-31.333 5 -54 5h-130c-10.667 0 -15 5.33301 -13 16l25 138c2 10.667 8.33301 16 19 16h132v0z" />
    <glyph glyph-name="asciitilde" unicode="~" horiz-adv-x="1056" 
d="M147 603c-10.667 0 -14.998 5.33008 -12.998 15.9971l7 44c10.667 60.667 25.5 108.334 44.5 143.001s39.833 60.5 62.5 77.5s46.167 27.5 70.5 31.5s47.5 6 69.5 6c36 0 67 -5.5 93 -16.5s50.667 -27.833 74 -50.5l55 -52c12 -11.333 23 -21.166 33 -29.499
s19.5 -15.166 28.5 -20.499s17.833 -9.16602 26.5 -11.499s18 -3.5 28 -3.5c13.333 0 25.5 1.66699 36.5 5s21 10.666 30 21.999s17.5 27.833 25.5 49.5s15.667 50.834 23 87.501c2 10.667 8.33301 16 19 16h101c10.667 0 15 -5.33301 13 -16l-7 -44
c-10 -60 -24.5 -107.167 -43.5 -141.5s-39.833 -60.166 -62.5 -77.499s-46.334 -28.166 -71.001 -32.499s-48 -6.5 -70 -6.5c-36 0 -67.167 5.16699 -93.5 15.5s-51.166 27.166 -74.499 50.499l-54 53l-33.5 31c-9.66699 8.66699 -18.834 15.5 -27.501 20.5
s-17.334 8.66699 -26.001 11s-18 3.5 -28 3.5c-13.333 0 -25.5 -1.66699 -36.5 -5s-21.167 -10.833 -30.5 -22.5s-18 -28.334 -26 -50.001s-15.667 -50.834 -23 -87.501c-2 -10.667 -8.33301 -16 -19 -16h-101z" />
    <glyph glyph-name="uni007F" 
 />
    <glyph glyph-name="uni00A0" unicode="&#xa0;" horiz-adv-x="508" 
 />
    <glyph glyph-name="exclamdown" unicode="&#xa1;" horiz-adv-x="529" 
d="M323 578c10.667 0 15 -5.33301 13 -16l-161 -950c-2 -11.333 -8.33301 -17.333 -19 -18l-159 -25c-10.667 -0.666992 -15 4 -13 14l194 979c2 10.667 8.33301 16 19 16h126zM428 1071c10.667 0 15 -5.33301 13 -16l-42 -228c-2 -11.333 -8.33301 -17.333 -19 -18
l-152 -24c-10.667 -0.666992 -15 4 -13 14l47 256c2 10.667 8.33301 16 19 16h147z" />
    <glyph glyph-name="cent" unicode="&#xa2;" horiz-adv-x="929" 
d="M314 -258c-10.667 0 -15.0029 5.33301 -13.0029 16l41 225c-66 8 -119.667 23.5 -161 46.5s-72.166 55.333 -92.499 97s-30.833 93.5 -31.5 155.5s7 136 23 222l22 118c16.667 90 36.5 166.5 59.5 229.5s52.167 115 87.5 156s78 72.333 128 94s110.333 36.167 181 43.5
l41 223c2 10.667 8.33301 16 19 16h127c10.667 0 15 -5.33301 13 -16l-41 -217c38.667 -1.33301 74.834 -4 108.501 -8s64.5 -9 92.5 -15c10.667 -2 14 -8 10 -18l-44 -121c-2.66699 -5.33301 -5.5 -9 -8.5 -11s-7.5 -2.66699 -13.5 -2c-27.333 4 -55.833 7.16699 -85.5 9.5
s-59.5 4.16602 -89.5 5.49902l-161 -864c32.667 0.666992 64.334 1.83398 95.001 3.50098s60 5.16699 88 10.5c10.667 2 16 -2.33301 16 -13v-114c0 -10.667 -5.33301 -17 -16 -19c-28.667 -5.33301 -62 -9.5 -100 -12.5s-75 -5.16699 -111 -6.5l-40 -218
c-2 -10.667 -8.33301 -16 -19 -16h-125zM250.997 514c-11.333 -60.667 -18.3291 -113 -20.9961 -157s0.166016 -81 8.49902 -111s23.166 -53.667 44.499 -71s50.666 -30 87.999 -38l156 842c-40 -8.66699 -74 -22.167 -102 -40.5s-52 -42.5 -72 -72.5
s-36.833 -66.667 -50.5 -110s-25.834 -94 -36.501 -152z" />
    <glyph glyph-name="sterling" unicode="&#xa3;" horiz-adv-x="1099" 
d="M142 691c-10.667 0 -15 5.33594 -13 16.0029l25 138c2 10.667 8.33301 16 19 16h111l30 161c14.667 80 33 148.5 55 205.5s53.667 103.833 95 140.5s95.666 63.667 162.999 81s154.333 26 261 26h208c10.667 0 15 -5.33301 13 -16l-25 -139
c-2 -10.667 -8.33301 -16 -19 -16h-207c-68 0 -123.333 -4.83301 -166 -14.5s-77 -25.334 -103 -47.001s-45.833 -50.167 -59.5 -85.5s-25.167 -79 -34.5 -131l-31 -165h450c10 0 13.667 -5 11 -15l-51 -140c-3.33301 -10 -10.333 -15 -21 -15h-420l-51 -274
c-6 -30.667 -12.333 -58.334 -19 -83.001s-14 -47 -22 -67s-17 -37.833 -27 -53.5s-21.333 -30.167 -34 -43.5h633c10.667 0 15 -5.33301 13 -16l-26 -138c-2 -10.667 -8.33301 -16 -19 -16h-867c-10.667 0 -15 5.33301 -13 16l26 143c1.33301 6 3.33301 10.5 6 13.5
s6.66699 5.83301 12 8.5c26 12 47.5 24.167 64.5 36.5s31.167 27.166 42.5 44.499s20.833 38.5 28.5 63.5s14.834 55.5 21.501 91.5l50 274h-110z" />
    <glyph glyph-name="currency" unicode="&#xa4;" horiz-adv-x="1270" 
d="M240 1098c-6.66699 8.66699 -6.00098 16.001 1.99902 22.001l116 98c8.66699 6.66699 16 6 22 -2l76 -95c38 18 79.333 31.167 124 39.5s93.334 12.5 146.001 12.5c50.667 0 95.667 -6.33301 135 -19s73.333 -30.334 102 -53.001l113 92c8.66699 6.66699 16 6 22 -2
l91 -109c6.66699 -8.66699 6 -16 -2 -22l-126 -103c13.333 -41.333 20 -84.333 20 -129c0 -81.333 -7.5 -152 -22.5 -212s-37.167 -111 -66.5 -153l77 -94c6.66699 -8.66699 6 -16 -2 -22l-116 -98c-8.66699 -6.66699 -16 -6 -22 2l-77 94
c-36.667 -17.333 -77.5 -30 -122.5 -38s-93.833 -12 -146.5 -12c-50 0 -94.333 6.33301 -133 19s-72.334 30.667 -101.001 54l-116 -94c-8.66699 -6.66699 -16 -6 -22 2l-90 110c-6.66699 8.66699 -6 16 2 22l127 103c-14 40.667 -21 85 -21 133
c0 80 7.33301 149.333 22 208s36.334 109 65.001 151zM384.999 662.001c0 -37.333 5.00195 -69.166 15.002 -95.499s24.5 -48 43.5 -65s41.833 -29.333 68.5 -37s57 -11.5 91 -11.5c51.333 0 97 5.83301 137 17.5s73.667 31.167 101 58.5s48.166 64 62.499 110
s21.5 103 21.5 171c0 74 -19.333 127.167 -58 159.5s-92 48.5 -160 48.5c-51.333 0 -96.833 -5.66699 -136.5 -17s-73.334 -30.833 -101.001 -58.5s-48.667 -64.334 -63 -110.001s-21.5 -102.5 -21.5 -170.5z" />
    <glyph glyph-name="yen" unicode="&#xa5;" horiz-adv-x="1281" 
d="M191 510c-10.667 0 -14 5 -10 15l49 128c2.66699 5.33301 5.5 9.16602 8.5 11.499s7.5 3.5 13.5 3.5h225l-264 792c-3.33301 10 0.333984 15 11.001 15h158c10.667 0 17.667 -5 21 -15l236 -724l505 726c6 8.66699 14.333 13 25 13h179
c11.333 0 13.666 -4.33301 6.99902 -13l-557 -794h300c10.667 0 14 -5 10 -15l-48 -128c-2.66699 -5.33301 -5.5 -9.16602 -8.5 -11.499s-7.5 -3.5 -13.5 -3.5h-340l-24 -131h357c10.667 0 14 -5 10 -15l-48 -129c-2.66699 -5.33301 -5.5 -9.16602 -8.5 -11.499
s-7.5 -3.5 -13.5 -3.5h-326l-37 -204c-2 -10.667 -8.33301 -16 -19 -16h-147c-10.667 0 -15 5.33301 -13 16l37 204h-343c-10.667 0 -14 5 -10 15l48 129c2.66699 5.33301 5.5 9.16602 8.5 11.499s7.5 3.5 13.5 3.5h312l24 131h-328z" />
    <glyph glyph-name="brokenbar" unicode="&#xa6;" horiz-adv-x="633" 
d="M230 707c-10.667 0 -16 5.33301 -16 16l-12 736c0 10.667 5.33301 16 16 16h148c10.667 0 16 -5.33301 16 -16l-11 -736c0 -10.667 -5.33301 -16 -16 -16h-125zM218 -389c-10.667 0 -16 5.33301 -16 16l12 736c0 10.667 5.33301 16 16 16h125
c10.667 0 16 -5.33301 16 -16l11 -736c0 -10.667 -5.33301 -16 -16 -16h-148z" />
    <glyph glyph-name="section" unicode="&#xa7;" horiz-adv-x="1101" 
d="M275 -451c-27.333 0 -55.6729 0.839844 -85.0059 2.50684s-58.166 4 -86.499 7s-55.666 6.66699 -81.999 11s-50.166 9.16602 -71.499 14.499c-9.33301 2.66699 -12.333 9 -9 19l53 135c2.66699 5.33301 5.5 9 8.5 11s7.5 2.33301 13.5 1
c54 -9.33301 103.833 -16 149.5 -20s90.167 -6 133.5 -6c70.667 0 130.167 5.16699 178.5 15.5s87.5 25.833 117.5 46.5s51.5 46.667 64.5 78s19.5 67.666 19.5 108.999c0 22 -3.83301 41.333 -11.5 58s-20.167 32.5 -37.5 47.5s-39.833 30.167 -67.5 45.5
s-61.5 32.333 -101.5 51l-125 61c-35.333 17.333 -67.666 35.666 -96.999 54.999s-54.5 41.333 -75.5 66s-37.333 52.5 -49 83.5s-17.5 66.5 -17.5 106.5c0 75.333 13 140.166 39 194.499s66.333 100.5 121 138.5c-20.667 25.333 -36.5 53.666 -47.5 84.999
s-16.5 67 -16.5 107c0 78.667 11.167 145.167 33.5 199.5s57.5 98.333 105.5 132s109.333 58 184 73s164.667 22.5 270 22.5c24 0 49 -0.666992 75 -2s51.667 -3.16602 77 -5.49902s49.833 -5.5 73.5 -9.5s45.167 -8.66699 64.5 -14c10.667 -2.66699 14 -9.33398 10 -20.001
l-48 -130c-2.66699 -5.33301 -5.5 -9 -8.5 -11s-7.5 -2.33301 -13.5 -1c-18.667 3.33301 -39 6.16602 -61 8.49902s-44.167 4.33301 -66.5 6s-44.666 2.83398 -66.999 3.50098s-43.166 1 -62.499 1c-64 0 -119.167 -4.16699 -165.5 -12.5s-84.333 -21.5 -114 -39.5
s-51.667 -41.333 -66 -70s-21.5 -63.334 -21.5 -104.001c0 -24.667 4.66699 -46.334 14 -65.001s22.833 -35.834 40.5 -51.501s39.667 -30.667 66 -45s56.5 -29.166 90.5 -44.499l139 -67c82.667 -38 142.167 -81.5 178.5 -130.5s54.5 -105.833 54.5 -170.5
c0 -41.333 -3.66699 -78.833 -11 -112.5s-17.833 -64.167 -31.5 -91.5s-30.5 -51.833 -50.5 -73.5s-42.667 -41.167 -68 -58.5c22.667 -27.333 39.167 -56 49.5 -86s15.5 -62 15.5 -96c0 -81.333 -12 -150.833 -36 -208.5s-60.667 -105 -110 -142s-112 -64.167 -188 -81.5
s-166 -26 -270 -26zM432.993 757.007l-27.501 12.001c-9 4 -17.833 8.66699 -26.5 14c-16.667 -13.333 -30.667 -28.333 -42 -45s-20.5 -33.834 -27.5 -51.501s-12.167 -35 -15.5 -52s-5 -32.167 -5 -45.5c0 -27.333 4.83301 -51.333 14.5 -72s23.667 -39.5 42 -56.5
s40.833 -32.833 67.5 -47.5s57.334 -29.667 92.001 -45l140 -63c8 -3.33301 15.667 -6.83301 23 -10.5l22 -11.5c17.333 13.333 31.833 28.5 43.5 45.5s21 34.5 28 52.5s12 35.667 15 53s4.5 33 4.5 47c0 22.667 -3.66699 43.667 -11 63s-19.833 37.5 -37.5 54.5
s-40.667 33.833 -69 50.5s-63.5 34 -105.5 52z" />
    <glyph glyph-name="dieresis" unicode="&#xa8;" horiz-adv-x="772" 
d="M376 1243c-10.667 0 -15 5.33301 -13 16l50 265c2 10.667 8.33301 17 19 19l148 23c10.667 2 15 -2.33301 13 -13l-55 -294c-2 -10.667 -8.33301 -16 -19 -16h-143zM714 1243c-10.667 0 -15 5.33301 -13 16l49 265c2 10.667 8.33301 17 19 19l149 23
c10.667 2 15 -2.33301 13 -13l-55 -294c-2 -10.667 -8.33301 -16 -19 -16h-143z" />
    <glyph glyph-name="copyright" unicode="&#xa9;" horiz-adv-x="1569" 
d="M771 339c-65.333 0 -119.332 7.16895 -161.999 21.502s-75.334 37 -98.001 68s-35.667 71.167 -39 120.5s1.66699 108.666 15 177.999l14 72c12.667 69.333 29.667 127.833 51 175.5s48.833 86.167 82.5 115.5s74.167 50.333 121.5 63s103.333 19 168 19
c32 0 62.5 -1.33301 91.5 -4s55.167 -6.66699 78.5 -12c11.333 -2 15 -8 11 -18l-38 -119c-3.33301 -9.33301 -10.333 -13.666 -21 -12.999c-22.667 3.33301 -46 5.5 -70 6.5s-47.667 1.5 -71 1.5c-39.333 0 -72.666 -4.16699 -99.999 -12.5s-50.333 -21.833 -69 -40.5
s-33.834 -42.667 -45.501 -72s-21.5 -65.333 -29.5 -108l-8 -49c-8 -43.333 -11.833 -79.833 -11.5 -109.5s6.33301 -53.834 18 -72.501s29.667 -32.167 54 -40.5s56.166 -12.5 95.499 -12.5c26.667 0 51.834 0.666992 75.501 2s46.834 3.66602 69.501 6.99902
c10.667 0.666992 15.667 -4 15 -14l-5 -118c-0.666992 -10.667 -6.33398 -17 -17.001 -19c-24 -5.33301 -52 -9.33301 -84 -12s-62.667 -4 -92 -4zM291.001 585.002c0 -57.333 6.83398 -108.831 20.501 -154.498s36.667 -84.5 69 -116.5s75 -56.5 128 -73.5
s118.5 -25.5 196.5 -25.5c102 0 191.667 13.5 269 40.5s141.666 69.333 192.999 127s90 131.5 116 221.5s39 198 39 324c0 56.667 -6.83301 107.667 -20.5 153s-36.5 84 -68.5 116s-74.167 56.5 -126.5 73.5s-117.5 25.5 -195.5 25.5c-102.667 0 -192.667 -13.333 -270 -40
s-142 -68.834 -194 -126.501s-91 -131.334 -117 -221.001s-39 -197.5 -39 -323.5zM1477 931.004c0 -143.333 -15.5 -268.832 -46.5 -376.499s-79 -197.834 -144 -270.501s-147.667 -127.167 -248 -163.5s-219.5 -54.5 -357.5 -54.5c-98 0 -181.5 12 -250.5 36
s-125.167 58 -168.5 102s-74.833 97.333 -94.5 160s-29.5 132.667 -29.5 210c0 144 15.5 270.333 46.5 379s79 199.5 144 272.5s147.667 127.833 248 164.5s219.833 55 358.5 55c98 0 181.5 -12.167 250.5 -36.5s125 -58.833 168 -103.5s74.333 -98.667 94 -162
s29.5 -134 29.5 -212z" />
    <glyph glyph-name="ordfeminine" unicode="&#xaa;" horiz-adv-x="964" 
d="M528 822c25.333 0 50.332 0.666992 74.999 2s48.667 4 72 8l43 232h-84c-51.333 0 -94.166 -1.66699 -128.499 -5s-61.833 -10.5 -82.5 -21.5s-35.5 -26.5 -44.5 -46.5s-13.5 -46.333 -13.5 -79c0 -20 4 -36 12 -48s19.167 -21.167 33.5 -27.5s31.5 -10.333 51.5 -12
s42 -2.5 66 -2.5zM600.999 1370c-36 0 -72.4971 -1.49902 -109.497 -4.49902s-73.5 -6.5 -109.5 -10.5c-10.667 -0.666992 -15 4 -13 14l16 90c2 10 8.33301 16 19 18c19.333 4 39.666 7.33301 60.999 10s42.5 5 63.5 7s41 3.33301 60 4s36.167 1 51.5 1
c69.333 0 123.333 -5.83301 162 -17.5s66.334 -29.667 83.001 -54s24.5 -55.833 23.5 -94.5s-6.5 -85 -16.5 -139l-84 -455c-2 -11.333 -8.33301 -17.333 -19 -18c-24 -3.33301 -49 -6.33301 -75 -9s-51.5 -5 -76.5 -7s-48.667 -3.5 -71 -4.5s-41.833 -1.5 -58.5 -1.5
c-50 0 -93.833 2.83301 -131.5 8.5s-69 15.5 -94 29.5s-43.667 32.667 -56 56s-18.5 52.666 -18.5 87.999c0 60.667 8.33301 110.167 25 148.5s43.167 68.5 79.5 90.5s83.166 37.167 140.499 45.5s126.666 12.5 207.999 12.5h78l8 45c5.33301 28 7.33301 51.5 6 70.5
s-7.33301 34.167 -18 45.5s-26.834 19.333 -48.501 24s-50.167 7 -85.5 7zM125.002 457.001c-10.667 0 -15 5.33301 -13 16l19 106c2 10.667 8.33301 16 19 16h659c10.667 0 15 -5.33301 13 -16l-18 -106c-2 -10.667 -8.33301 -16 -19 -16h-660z" />
    <glyph glyph-name="guillemotleft" unicode="&#xab;" horiz-adv-x="1219" 
d="M347 204c-10.667 0 -19.001 4.33301 -25.001 13l-271 367c-6 8.66699 -5 16.667 3 24l408 372c8 7.33301 17.333 11 28 11h192c10 0 11.333 -3.66699 4 -11l-433 -395l270 -368c6.66699 -8.66699 4.33398 -13 -6.99902 -13h-169zM838.999 204
c-10.667 0 -19.001 4.33301 -25.001 13l-271 367c-6 8.66699 -5 16.667 3 24l408 372c8 7.33301 17.333 11 28 11h192c10 0 11.333 -3.66699 4 -11l-433 -395l270 -368c6.66699 -8.66699 4.33398 -13 -6.99902 -13h-169z" />
    <glyph glyph-name="logicalnot" unicode="&#xac;" horiz-adv-x="1148" 
d="M183 905c-10.667 0 -15 5.33301 -13 16l24 135c2 10.667 8.33301 16 19 16h824c10.667 0 15 -5.33301 13 -16l-28 -151l-75 -404c-2 -10.667 -8.33301 -16 -19 -16h-134c-10.667 0 -15 5.33301 -13 16l74 404h-672z" />
    <glyph glyph-name="uni00AD" unicode="&#xad;" horiz-adv-x="815" 
d="M154 511c-10.667 0 -15 5.33301 -13 16l25 135c2 10.667 8.33301 16 19 16h464c10.667 0 15 -5.33301 13 -16l-25 -135c-2 -10.667 -8.33301 -16 -19 -16h-464z" />
    <glyph glyph-name="registered" unicode="&#xae;" horiz-adv-x="1292" 
d="M1246 1135c0 -130 -14.335 -239.334 -43.002 -328.001s-70.5 -160.167 -125.5 -214.5s-122.167 -93.333 -201.5 -117s-169.333 -35.5 -270 -35.5c-80 0 -147.667 10.167 -203 30.5s-100.166 48.833 -134.499 85.5s-59.166 80 -74.499 130s-23 104.667 -23 164
c0 130.667 14.667 240.5 44 329.5s71.5 160.667 126.5 215s122 93.166 201 116.499s168.167 35 267.5 35c82 0 150.833 -10.333 206.5 -31s100.5 -49.167 134.5 -85.5s58.333 -79.666 73 -129.999s22 -105.166 22 -164.499zM302.998 859.999
c0 -46 5.16602 -87.001 15.499 -123.001s28 -66.667 53 -92s58.333 -44.666 100 -57.999s93.834 -20 156.501 -20c92 0 169.167 12.667 231.5 38s112.333 62 150 110s64.5 106.667 80.5 176s24 148.333 24 237c0 45.333 -5.33301 86 -16 122s-28.5 66.5 -53.5 91.5
s-58.333 44.167 -100 57.5s-93.834 20 -156.501 20c-92 0 -169.167 -12.5 -231.5 -37.5s-112.166 -61.333 -149.499 -109s-64 -106.167 -80 -175.5s-24 -148.333 -24 -237zM815.997 670.998c-10.667 0 -17.332 4.99902 -19.999 14.999l-58 212
c-10.667 -0.666992 -21.5 -1.16699 -32.5 -1.5s-22.5 -0.5 -34.5 -0.5c-9.33301 0 -20.833 0.166992 -34.5 0.5s-27.834 1.16602 -42.501 2.49902l-41 -212c-2 -10.667 -8.33301 -16 -19 -16h-78c-10.667 0 -15 5.33301 -13 16l111 606c2 10.667 8.33301 16.334 19 17.001
c30 2 59 3.33301 87 4s54.667 1 80 1c52 0 95.167 -2.83301 129.5 -8.5s61 -15.667 80 -30s30.667 -33.5 35 -57.5s2.5 -54.333 -5.5 -91l-7 -39c-7.33301 -44 -20.5 -80.167 -39.5 -108.5s-48.833 -49.5 -89.5 -63.5l70 -209c3.33301 -9.33301 1 -17.666 -7 -24.999l-1 -2
c-4.66699 -3.33301 -9 -5.83301 -13 -7.5s-9 -2.5 -15 -2.5h-61zM733.999 1204c-12.667 0 -27.166 -0.167969 -43.499 -0.500977s-29.5 -0.833008 -39.5 -1.5l-40 -201c13.333 -0.666992 28.666 -1 45.999 -1h41c27.333 0 50.833 1 70.5 3s36 6.16699 49 12.5
s23.333 15.833 31 28.5s13.167 29.667 16.5 51l4 26c4 18.667 4.33301 33.5 1 44.5s-10.5 19.333 -21.5 25s-26 9.33398 -45 11.001s-42.167 2.5 -69.5 2.5z" />
    <glyph glyph-name="macron" unicode="&#xaf;" horiz-adv-x="771" 
d="M379 1317c-10.667 0 -15 5.33301 -13 16l20 107c2 10.667 8.33301 16 19 16h491c10.667 0 15 -5.33301 13 -16l-20 -107c-2 -10.667 -8.33301 -16 -19 -16h-491z" />
    <glyph glyph-name="degree" unicode="&#xb0;" horiz-adv-x="799" 
d="M530 1364c-22.667 0 -44.168 -2.66699 -64.501 -8s-38.833 -14 -55.5 -26s-30.834 -27.667 -42.501 -47s-19.834 -42.666 -24.501 -69.999l-5 -26c-5.33301 -27.333 -5.83301 -50.5 -1.5 -69.5s12.5 -34.5 24.5 -46.5s27 -20.667 45 -26s38.667 -8 62 -8
c22 0 43.333 2.5 64 7.5s39.334 13.5 56.001 25.5s30.834 27.667 42.501 47s19.834 43.333 24.501 72l4 24c5.33301 27.333 5.83301 50.666 1.5 69.999s-12.333 35 -24 47s-26.667 20.667 -45 26s-38.833 8 -61.5 8zM443.999 903c-47.333 0 -88.667 6.33105 -124 18.998
s-64 31.334 -86 56.001s-36.667 54.834 -44 90.501s-6.66602 76.167 2.00098 121.5l7 36c9.33301 48 24.333 89.333 45 124s46.334 63 77.001 85s65.667 38.167 105 48.5s82.333 15.5 129 15.5s87.667 -6.5 123 -19.5s64 -31.833 86 -56.5s36.667 -55 44 -91
s6.66602 -77 -2.00098 -123l-7 -36c-9.33301 -48 -24.333 -89 -45 -123s-46.334 -61.833 -77.001 -83.5s-65.667 -37.667 -105 -48s-82 -15.5 -128 -15.5z" />
    <glyph glyph-name="plusminus" unicode="&#xb1;" horiz-adv-x="1142" 
d="M193 791c-10.667 0 -15 5.33301 -13 16l24 136c2 10.667 8.33301 16 19 16h334l62 334c2 10.667 8.33301 16 19 16h135c10.667 0 15 -5.33301 13 -16l-62 -334h333c10.667 0 15 -5.33301 13 -16l-25 -136c-2 -10.667 -8.33301 -16 -19 -16h-334l-61 -331
c-2 -10.667 -8.33301 -16 -19 -16h-135c-10.667 0 -15 5.33301 -13 16l61 331h-332zM54 0c-10.667 0 -15 5.33301 -13 16l25 135c2 10.667 8.33301 16 19 16h817c10.667 0 15 -5.33301 13 -16l-25 -135c-2 -10.667 -8.33301 -16 -19 -16h-817z" />
    <glyph glyph-name="twosuperior" unicode="&#xb2;" horiz-adv-x="841" 
d="M127 599c-10.667 0 -15.001 5.33496 -13.001 16.002l11 59c8 42.667 18.167 79.5 30.5 110.5s28.5 59.5 48.5 85.5s45 50.667 75 74s66.667 49 110 77l156 101l52.5 34.5c15.667 10.333 29 21 40 32s19.333 23.333 25 37s8.5 30.167 8.5 49.5
c0 30 -13.667 51.167 -41 63.5s-73.333 18.5 -138 18.5c-22.667 0 -50.667 -1 -84 -3s-67 -5.66699 -101 -11c-10.667 -2 -16 2.33301 -16 13l2 102c0 10.667 5.33301 17.334 16 20.001c37.333 8 76 13.5 116 16.5s75 4.5 105 4.5c58 0 106.5 -4.5 145.5 -13.5
s70.5 -21.667 94.5 -38s41.167 -35.666 51.5 -57.999s15.5 -46.833 15.5 -73.5c0 -36 -2.83301 -67.333 -8.5 -94s-16 -51 -31 -73s-35.167 -43.167 -60.5 -63.5s-57.666 -42.5 -96.999 -66.5l-128 -78c-34 -20.667 -63 -39.334 -87 -56.001s-44 -32.834 -60 -48.501
s-28.833 -31.834 -38.5 -48.501s-17.167 -35.334 -22.5 -56.001h405c10.667 0 15 -5.33301 13 -16l-19 -101c-2 -10.667 -8.33301 -16 -19 -16h-557z" />
    <glyph glyph-name="threesuperior" unicode="&#xb3;" horiz-adv-x="832" 
d="M359 584c-41.333 0 -80.998 1.49707 -118.998 4.49707s-71.667 6.5 -101 10.5c-10.667 2 -14.667 8 -12 18l25 107c1.33301 6 3.5 10 6.5 12s7.5 2.66699 13.5 2c35.333 -4 70 -6.83301 104 -8.5s66.333 -2.5 97 -2.5c69.333 0 122.333 9.33301 159 28
s59.667 52.667 69 102l4 20c2.66699 16 3.66699 31.667 3 47s-5.5 29.333 -14.5 42s-23.167 22.834 -42.5 30.501s-46 11.5 -80 11.5h-177c-10.667 0 -15 5.33301 -13 16l16 92c2 10.667 8.33301 16 19 16h174c32 0 59 2.5 81 7.5s39.833 12 53.5 21s24 19.667 31 32
s11.833 25.5 14.5 39.5l2 11c4 22.667 2.83301 41.334 -3.5 56.001s-17.5 26.167 -33.5 34.5s-36.333 14.166 -61 17.499s-53 5 -85 5c-34 0 -68.167 -0.833008 -102.5 -2.5s-67.5 -4.16699 -99.5 -7.5c-10.667 -2 -15.334 2.66699 -14.001 14l13 105
c1.33301 6 3.16602 10.333 5.49902 13s6.5 4.33398 12.5 5.00098c30.667 4 64.667 7.66699 102 11s76.666 5 117.999 5c54.667 0 102.5 -3.83301 143.5 -11.5s74.333 -20.334 100 -38.001s43.834 -40.667 54.501 -69s13.334 -62.833 8.00098 -103.5l-2 -16
c-7.33301 -56 -27.5 -98.5 -60.5 -127.5s-78.167 -49.833 -135.5 -62.5c26 -8.66699 47.667 -20.667 65 -36s30.833 -32.666 40.5 -51.999s15.667 -40.166 18 -62.499s1.16602 -44.5 -3.50098 -66.5l-4 -20c-10 -51.333 -25.667 -93.333 -47 -126s-48.333 -58.167 -81 -76.5
s-70.667 -30.833 -114 -37.5s-92.333 -10 -147 -10z" />
    <glyph glyph-name="acute" unicode="&#xb4;" horiz-adv-x="772" 
d="M422 1264c-11.333 0 -13 4 -5 12l230 240c7.33301 8 16.333 12 27 12h206c10.667 0 12 -3.33301 4 -10l-282 -244c-4.66699 -3.33301 -9 -5.83301 -13 -7.5s-9 -2.5 -15 -2.5h-152z" />
    <glyph glyph-name="mu" unicode="&#xb5;" horiz-adv-x="1281" 
d="M13 -389c-10.667 0 -14.999 5.33496 -12.999 16.002l265 1428c2 10.667 8.33301 16 19 16h140c10.667 0 15 -5.33301 13 -16l-114 -613c-12 -65.333 -14.5 -118 -7.5 -158s22 -70.833 45 -92.5s52.833 -36 89.5 -43s78.667 -10.5 126 -10.5
c20.667 0 42.834 0.666992 66.501 2s47 3.16602 70 5.49902s45.333 5.16602 67 8.49902s41.167 7 58.5 11l165 890c2 10.667 8.33301 16 19 16h141c10.667 0 15 -5.33301 13 -16l-187 -1007c-2 -10 -8 -16.333 -18 -19c-28.667 -6.66699 -61.834 -13.167 -99.501 -19.5
s-76.834 -12 -117.501 -17s-80.667 -9 -120 -12s-74.666 -4.5 -105.999 -4.5c-74.667 0 -135.334 8.5 -182.001 25.5s-76.667 44.167 -90 81.5l-84 -456c-2 -10.667 -8.33301 -16 -19 -16h-140z" />
    <glyph glyph-name="paragraph" unicode="&#xb6;" horiz-adv-x="1182" 
d="M352 -452c-10.667 0 -15 5.33203 -13 15.999l194 1044c-4 0 -11 -0.166992 -21 -0.5s-21.167 -0.666016 -33.5 -0.999023l-38 -1c-13 -0.333008 -23.833 -0.5 -32.5 -0.5c-66.667 0 -120.834 5.66699 -162.501 17s-72.667 32.166 -93 62.499s-30.666 72.5 -30.999 126.5
s7.5 123.667 23.5 209l9 51c16 84 34.5 152.333 55.5 205s48 93.834 81 123.501s73.833 49.667 122.5 60s108.667 15.5 180 15.5h258c10.667 0 15 -5.33301 13 -16l-351 -1895c-2 -10.667 -8.33301 -16 -19 -16h-142zM631 -452.001c-10.667 0 -15 5.33301 -13 16l351 1895
c2 10.667 8.33301 16 19 16h141c10.667 0 15 -5.33301 13 -16l-351 -1895c-2 -10.667 -8.33301 -16 -19 -16h-141z" />
    <glyph glyph-name="periodcentered" unicode="&#xb7;" horiz-adv-x="496" 
d="M134 417c-10.667 0 -15 5.33301 -13 16l43 228c2 11.333 8.33301 17.333 19 18l151 24c10.667 0.666992 15 -4 13 -14l-46 -256c-2 -10.667 -8.33301 -16 -19 -16h-148z" />
    <glyph glyph-name="cedilla" unicode="&#xb8;" horiz-adv-x="771" 
d="M175 -389c-11.333 0 -13.666 4.33301 -6.99902 13l193 261c6 8.66699 14.333 13 25 13h141c11.333 0 13.666 -4.33301 6.99902 -13l-174 -261c-6 -8.66699 -14.333 -13 -25 -13h-160z" />
    <glyph glyph-name="onesuperior" unicode="&#xb9;" horiz-adv-x="527" 
d="M199 1325c-10.667 -2 -16 2.33398 -16 13.001l2 99c0 10.667 5.33301 17 16 19l181 28c4.66699 1.33301 10 2.16602 16 2.49902s11.333 0.5 16 0.5h106c10.667 0 15 -5.33301 13 -16l-158 -856c-2 -10.667 -8.33301 -16 -19 -16h-120c-10.667 0 -15 5.33301 -13 16
l136 736z" />
    <glyph glyph-name="ordmasculine" unicode="&#xba;" horiz-adv-x="984" 
d="M634 1360c-37.333 0 -69.668 -4.33496 -97.001 -13.002s-50.5 -22.5 -69.5 -41.5s-34.5 -43.167 -46.5 -72.5s-22 -65 -30 -107l-10 -54c-8 -42 -11.667 -77.667 -11 -107s6.33398 -53.333 17.001 -72s27.167 -32.334 49.5 -41.001s51.5 -13 87.5 -13
c37.333 0 69.333 4.33301 96 13s49.5 22.334 68.5 41.001s34.5 42.834 46.5 72.501s22.333 65.834 31 108.501l10 52c8 41.333 11.833 76.833 11.5 106.5s-5.83301 54 -16.5 73s-27.167 32.833 -49.5 41.5s-51.5 13 -87.5 13zM503.998 698.998
c-62.667 0 -114.169 7.50098 -154.502 22.501s-71.166 37.5 -92.499 67.5s-33.833 67.833 -37.5 113.5s0.166016 99.5 11.499 161.5l12 68c12 66.667 28.5 123.167 49.5 169.5s48 84.166 81 113.499s72.833 50.666 119.5 63.999s101.334 20 164.001 20
c60.667 0 111 -7.66699 151 -23s70.833 -38.166 92.5 -68.499s34.334 -68.5 38.001 -114.5s-0.5 -99.667 -12.5 -161l-12 -68c-12 -66.667 -28.667 -123.167 -50 -169.5s-48.5 -84 -81.5 -113s-72.5 -50 -118.5 -63s-99.333 -19.5 -160 -19.5zM129.996 456.999
c-10.667 0 -15 5.33301 -13 16l19 106c2 10.667 8.33301 16 19 16h659c10.667 0 15 -5.33301 13 -16l-19 -106c-2 -10.667 -8.33301 -16 -19 -16h-659z" />
    <glyph glyph-name="guillemotright" unicode="&#xbb;" horiz-adv-x="1222" 
d="M373 990c10.667 0 19.001 -4.33301 25.001 -13l271 -367c6 -8.66699 5 -16.667 -3 -24l-408 -372c-8 -7.33301 -17.333 -11 -28 -11h-192c-10 0 -11.333 3.66699 -4 11l433 395l-270 368c-6.66699 8.66699 -4.33398 13 6.99902 13h169zM865.001 990
c10.667 0 19.001 -4.33301 25.001 -13l271 -367c6 -8.66699 5 -16.667 -3 -24l-408 -372c-8 -7.33301 -17.333 -11 -28 -11h-192c-10 0 -11.333 3.66699 -4 11l433 395l-270 368c-6.66699 8.66699 -4.33398 13 6.99902 13h169z" />
    <glyph glyph-name="onequarter" unicode="&#xbc;" horiz-adv-x="1692" 
d="M1256 0c-10.667 0 -15 5.33301 -13 16l37 199h-445c-10.667 0 -15 5.33301 -13 16l26 144c2 10 6.66699 19.333 14 28l433 485c7.33301 8 16.333 12 27 12h221c10.667 0 15 -5.33301 13 -16l-99 -531h90c10.667 0 15 -5.33301 13 -16l-20 -106
c-2 -10.667 -8.33301 -16 -19 -16h-89l-37 -199c-2 -10.667 -8.33301 -16 -19 -16h-120zM113 0c-10.667 0 -12.666 4.33301 -5.99902 13l1118 1449c4 5.33301 7.83301 8.83301 11.5 10.5s8.5 2.5 14.5 2.5h175c10.667 0 12.667 -4.33301 6 -13l-1119 -1449
c-6.66699 -8.66699 -15.334 -13 -26.001 -13h-174zM223.001 1325c-10.667 -2 -16 2.33398 -16 13.001l1 99c0 10.667 5.33301 17 16 19l181 28c4.66699 1.33301 10 2.16602 16 2.49902s11.333 0.5 16 0.5h106c10.667 0 15 -5.33301 13 -16l-158 -856
c-2 -10.667 -8.33301 -16 -19 -16h-119c-10.667 0 -15 5.33301 -13 16l137 736zM1010 353.001h296l74 397h-29l-337 -372z" />
    <glyph glyph-name="onehalf" unicode="&#xbd;" horiz-adv-x="1738" 
d="M113 0c-10.667 0 -12.666 4.33301 -5.99902 13l1118 1449c4 5.33301 7.83301 8.83301 11.5 10.5s8.5 2.5 14.5 2.5h175c10.667 0 12.667 -4.33301 6 -13l-1119 -1449c-6.66699 -8.66699 -15.334 -13 -26.001 -13h-174zM944.001 -1
c-10.667 0 -15.001 5.33496 -13.001 16.002l11 59c8 42.667 18.167 79.5 30.5 110.5s28.5 59.5 48.5 85.5s45 50.667 75 74s66.667 49 110 77l156 101l52.5 34.5c15.667 10.333 29 21 40 32s19.333 23.333 25 37s8.5 30.167 8.5 49.5c0 30 -13.667 51.167 -41 63.5
s-73.333 18.5 -138 18.5c-22.667 0 -50.667 -1 -84 -3s-67 -5.66699 -101 -11c-10.667 -2 -16 2.33301 -16 13l2 102c0 10.667 5.33301 17.334 16 20.001c37.333 8 76 13.5 116 16.5s75 4.5 105 4.5c58 0 106.5 -4.5 145.5 -13.5s70.5 -21.667 94.5 -38
s41.167 -35.666 51.5 -57.999s15.5 -46.833 15.5 -73.5c0 -36 -2.83301 -67.333 -8.5 -94s-16 -51 -31 -73s-35.167 -43.167 -60.5 -63.5s-57.666 -42.5 -96.999 -66.5l-128 -78c-34 -20.667 -63 -39.334 -87 -56.001s-44 -32.834 -60 -48.501
s-28.833 -31.834 -38.5 -48.501s-17.167 -35.334 -22.5 -56.001h405c10.667 0 15 -5.33301 13 -16l-19 -101c-2 -10.667 -8.33301 -16 -19 -16h-557zM223 1325c-10.667 -2 -16 2.33398 -16 13.001l1 99c0 10.667 5.33301 17 16 19l181 28
c4.66699 1.33301 10 2.16602 16 2.49902s11.333 0.5 16 0.5h106c10.667 0 15 -5.33301 13 -16l-158 -856c-2 -10.667 -8.33301 -16 -19 -16h-119c-10.667 0 -15 5.33301 -13 16l137 736z" />
    <glyph glyph-name="threequarters" unicode="&#xbe;" horiz-adv-x="1893" 
d="M316 0c-10.667 0 -12.666 4.33301 -5.99902 13l1119 1449c4 5.33301 7.83301 8.83301 11.5 10.5s8.5 2.5 14.5 2.5h175c10.667 0 12.667 -4.33301 6 -13l-1119 -1449c-6.66699 -8.66699 -15.334 -13 -26.001 -13h-175zM1045 215c-10.667 0 -15 5.33301 -13 16l26 144
c2 10 6.66699 19.333 14 28l433 485c7.33301 8 16.333 12 27 12h221c10.667 0 15 -5.33301 13 -16l-99 -531h90c10.667 0 15 -5.33301 13 -16l-20 -106c-2 -10.667 -8.33301 -16 -19 -16h-89l-37 -199c-2 -10.667 -8.33301 -16 -19 -16h-120c-10.667 -0 -15 5.33301 -13 16
l37 199h-445zM1220 353h296l74 397h-29l-337 -372zM329.001 584c-41.333 0 -80.998 1.49707 -118.998 4.49707s-71.667 6.5 -101 10.5c-10.667 2 -14.667 8 -12 18l25 107c1.33301 6 3.5 10 6.5 12s7.5 2.66699 13.5 2c35.333 -4 70 -6.83301 104 -8.5s66.333 -2.5 97 -2.5
c69.333 0 122.333 9.33301 159 28s59.667 52.667 69 102l4 20c2.66699 16 3.66699 31.667 3 47s-5.5 29.333 -14.5 42s-23.167 22.834 -42.5 30.501s-46 11.5 -80 11.5h-177c-10.667 0 -15 5.33301 -13 16l16 92c2 10.667 8.33301 16 19 16h174c32 0 59 2.5 81 7.5
s39.833 12 53.5 21s24 19.667 31 32s11.833 25.5 14.5 39.5l2 11c4 22.667 2.83301 41.334 -3.5 56.001s-17.5 26.167 -33.5 34.5s-36.333 14.166 -61 17.499s-53 5 -85 5c-34 0 -68.167 -0.833008 -102.5 -2.5s-67.5 -4.16699 -99.5 -7.5
c-10.667 -2 -15.334 2.66699 -14.001 14l13 105c1.33301 6 3.16602 10.333 5.49902 13s6.5 4.33398 12.5 5.00098c30.667 4 64.667 7.66699 102 11s76.666 5 117.999 5c54.667 0 102.5 -3.83301 143.5 -11.5s74.333 -20.334 100 -38.001s43.834 -40.667 54.501 -69
s13.334 -62.833 8.00098 -103.5l-2 -16c-7.33301 -56 -27.5 -98.5 -60.5 -127.5s-78.167 -49.833 -135.5 -62.5c26 -8.66699 47.667 -20.667 65 -36s30.833 -32.666 40.5 -51.999s15.667 -40.166 18 -62.499s1.16602 -44.5 -3.50098 -66.5l-4 -20
c-10 -51.333 -25.667 -93.333 -47 -126s-48.333 -58.167 -81 -76.5s-70.667 -30.833 -114 -37.5s-92.333 -10 -147 -10z" />
    <glyph glyph-name="questiondown" unicode="&#xbf;" horiz-adv-x="855" 
d="M466 628c2 10.667 8.33105 15.998 18.998 15.998h123c11.333 0 17 -5.33301 17 -16c1.33301 -9.33301 2 -21 2 -35s-0.666992 -28.333 -2 -43c-4.66699 -38 -10.667 -71.167 -18 -99.5s-18.166 -55.166 -32.499 -80.499s-33.5 -50.666 -57.5 -75.999s-55 -54 -93 -86
l-78 -64l-79.5 -70c-23 -20.667 -42.667 -40.5 -59 -59.5s-29.5 -38.333 -39.5 -58s-17.333 -41.167 -22 -64.5c-9.33301 -52.667 3.83398 -90 39.501 -112s94.834 -33 177.501 -33c38 0 75.667 1.5 113 4.5s79.333 8.16699 126 15.5c10.667 0.666992 16 -4 16 -14v-132
c0 -10.667 -5.33301 -17.334 -16 -20.001c-44 -9.33301 -92 -16.5 -144 -21.5s-102.667 -7.5 -152 -7.5c-62 0 -117.167 5.33301 -165.5 16s-88.166 27.5 -119.499 50.5s-53.833 52.5 -67.5 88.5s-16.834 79.333 -9.50098 130c5.33301 36 13.833 68.167 25.5 96.5
s27.667 55.666 48 81.999s45.333 53.5 75 81.5l106.5 96l89 78c33.333 28.667 59.666 52.834 78.999 72.501s34.5 38.834 45.5 57.501s19.333 38.667 25 60s11.5 48 17.5 80zM700.998 1071c10.667 0 15 -5.33301 13 -16l-43 -228c-2 -11.333 -8.33301 -17.333 -19 -18
l-151 -24c-10.667 -0.666992 -15 4 -13 14l47 256c2 10.667 8.33301 16 19 16h147z" />
    <glyph glyph-name="Agrave" unicode="&#xc0;" horiz-adv-x="1294" 
d="M-77 0c-11.333 0 -14.333 4.66699 -9 14l765 1447c2.66699 5.33301 5.66699 9 9 11s8 3 14 3h217c10.667 0 17 -5.33301 19 -16l229 -1443c2 -10.667 -2.33301 -16 -13 -16h-163c-11.333 -0 -17.333 5.33301 -18 16l-52 344h-629l-179 -346
c-2.66699 -5.33301 -5.66699 -9 -9 -11s-8 -3 -14 -3h-167zM779 1299l-398 -767h514zM856 1604c-6 0 -10.499 0.667969 -13.499 2.00098s-6.16699 3.66602 -9.5 6.99902l-204 192c-3.33301 3.33301 -4.33301 6.5 -3 9.5s4.66602 4.5 9.99902 4.5h192
c6 0 11 -0.833008 15 -2.5s8.33301 -4.16699 13 -7.5l161 -193c6.66699 -8 4.66699 -12 -6 -12h-155z" />
    <glyph glyph-name="Aacute" unicode="&#xc1;" horiz-adv-x="1294" 
d="M-77 0c-11.333 0 -14.333 4.66699 -9 14l765 1447c2.66699 5.33301 5.66699 9 9 11s8 3 14 3h217c10.667 0 17 -5.33301 19 -16l229 -1443c2 -10.667 -2.33301 -16 -13 -16h-163c-11.333 -0 -17.333 5.33301 -18 16l-52 344h-629l-179 -346
c-2.66699 -5.33301 -5.66699 -9 -9 -11s-8 -3 -14 -3h-167zM779 1299l-398 -767h514zM660 1604c-10.667 0 -12 3.33301 -4 10l232 195c4.66699 3.33301 9 5.83301 13 7.5s9 2.5 15 2.5h205c4.66699 0 7.16699 -0.833008 7.5 -2.5s-1.16699 -3.83398 -4.5 -6.50098l-270 -197
c-4.66699 -3.33301 -9.16699 -5.66602 -13.5 -6.99902s-9.5 -2 -15.5 -2h-165z" />
    <glyph glyph-name="Acircumflex" unicode="&#xc2;" horiz-adv-x="1294" 
d="M-77 0c-11.333 0 -14.333 4.66699 -9 14l765 1447c2.66699 5.33301 5.66699 9 9 11s8 3 14 3h217c10.667 0 17 -5.33301 19 -16l229 -1443c2 -10.667 -2.33301 -16 -13 -16h-163c-11.333 -0 -17.333 5.33301 -18 16l-52 344h-629l-179 -346
c-2.66699 -5.33301 -5.66699 -9 -9 -11s-8 -3 -14 -3h-167zM779 1299l-398 -767h514zM1143 1616c8 -8 6.33301 -12.001 -5 -12.001h-147c-6 0 -10.833 0.833008 -14.5 2.5s-7.5 4.83398 -11.5 9.50098l-84 103h-20l-123 -105c-4.66699 -3.33301 -9 -5.83301 -13 -7.5
s-9 -2.5 -15 -2.5h-174c-10.667 0 -11.667 3.33301 -3 10l252 195c5.33301 3.33301 10 5.83301 14 7.5s9 2.5 15 2.5h136c10.667 0 19.667 -4 27 -12z" />
    <glyph glyph-name="Atilde" unicode="&#xc3;" horiz-adv-x="1294" 
d="M-77 0c-11.333 0 -14.333 4.66699 -9 14l765 1447c2.66699 5.33301 5.66699 9 9 11s8 3 14 3h217c10.667 0 17 -5.33301 19 -16l229 -1443c2 -10.667 -2.33301 -16 -13 -16h-163c-11.333 -0 -17.333 5.33301 -18 16l-52 344h-629l-179 -346
c-2.66699 -5.33301 -5.66699 -9 -9 -11s-8 -3 -14 -3h-167zM779 1299l-398 -767h514zM510 1603c-11.333 0 -15.999 5.3291 -13.999 15.9961c8 54.667 20.333 97.834 37 129.501s35.334 55.667 56.001 72s42 26.833 64 31.5s42.333 7 61 7
c16.667 0 31.834 -1.16699 45.501 -3.5s26.667 -6.16602 39 -11.499s24.666 -12.166 36.999 -20.499s26.166 -18.833 41.499 -31.5l42.5 -35c11.667 -9.33301 21.667 -16.666 30 -21.999s15.833 -9.16602 22.5 -11.499s13.667 -3.5 21 -3.5c10 0 19.333 1.33301 28 4
s16.5 8.16699 23.5 16.5s13.167 20 18.5 35s10 34.833 14 59.5c1.33301 6 3.16602 10.167 5.49902 12.5s6.5 3.5 12.5 3.5h106c11.333 0 16 -5.33301 14 -16c-8 -55.333 -20.5 -98.833 -37.5 -130.5s-35.833 -55.667 -56.5 -72s-42 -26.666 -64 -30.999
s-42.333 -6.5 -61 -6.5c-17.333 0 -32.5 0.833008 -45.5 2.5s-25.5 5 -37.5 10s-24.333 11.833 -37 20.5s-27 20 -43 34l-42.5 35c-11.667 9.33301 -21.834 16.666 -30.501 21.999s-16.167 9.16602 -22.5 11.499s-12.833 3.5 -19.5 3.5c-10 0 -19.333 -1.5 -28 -4.5
s-16.5 -8.66699 -23.5 -17s-13.167 -20 -18.5 -35s-10 -34.5 -14 -58.5c-1.33301 -6 -3.16602 -10.167 -5.49902 -12.5s-6.5 -3.5 -12.5 -3.5h-106z" />
    <glyph glyph-name="Adieresis" unicode="&#xc4;" horiz-adv-x="1294" 
d="M-77 0c-11.333 0 -14.333 4.66699 -9 14l765 1447c2.66699 5.33301 5.66699 9 9 11s8 3 14 3h217c10.667 0 17 -5.33301 19 -16l229 -1443c2 -10.667 -2.33301 -16 -13 -16h-163c-11.333 -0 -17.333 5.33301 -18 16l-52 344h-629l-179 -346
c-2.66699 -5.33301 -5.66699 -9 -9 -11s-8 -3 -14 -3h-167zM779 1299l-398 -767h514zM598 1604c-10.667 0 -15 5.33301 -13 16l37 199c2 10.667 8.33301 17 19 19l148 23c10.667 2 15 -2.33301 13 -13l-43 -228c-2 -10.667 -8.33301 -16 -19 -16h-142zM935 1604
c-10.667 0 -15 5.33301 -13 16l36 199c2 10.667 8.33301 17 19 19l148 23c10.667 2 15 -2.33301 13 -13l-42 -228c-2 -10.667 -8.33301 -16 -19 -16h-142z" />
    <glyph glyph-name="Aring" unicode="&#xc5;" horiz-adv-x="1287" 
d="M-81 0c-11.333 0 -14.333 4.66895 -9 14.002l752 1422c-17.333 17.333 -29 38.166 -35 62.499s-7 49.833 -3 76.5l1 8c8 54.667 31.667 97.667 71 129s93.333 47 162 47c34 0 62.5 -5 85.5 -15s41.167 -23.5 54.5 -40.5s22.166 -36.833 26.499 -59.5
s4.83301 -46.334 1.5 -71.001c-9.33301 -64 -38.666 -111.667 -87.999 -143l225 -1414c2 -10.667 -2.33301 -16 -13 -16h-163c-11.333 -0 -17.333 5.33301 -18 16l-52 344h-629l-179 -346c-2.66699 -5.33301 -5.66699 -9 -9 -11s-8 -3 -14 -3h-167zM775 1299l-398 -767h514z
M839 1656c-28.667 0 -52.168 -7.5 -70.501 -22.5s-29.166 -33.167 -32.499 -54.5l-1 -8c-2.66699 -20 1.83301 -37.5 13.5 -52.5s32.167 -22.5 61.5 -22.5c28.667 0 52.5 7.5 71.5 22.5s30.167 34.167 33.5 57.5c2.66699 22 -1.83301 40.833 -13.5 56.5
s-32.5 23.5 -62.5 23.5z" />
    <glyph glyph-name="AE" unicode="&#xc6;" horiz-adv-x="1849" 
d="M768 0c-10.667 0 -15.001 5.33301 -13.001 16l65 354h-507l-232 -357c-6 -8.66699 -14.333 -13 -25 -13h-165c-11.333 -0 -13.666 4.33301 -6.99902 13l945 1449c6 8.66699 14.333 13 25 13h1020c10.667 0 15 -5.33301 13 -16l-26 -144c-2 -10.667 -8.33301 -16 -19 -16
h-669l-79 -427h568c10.667 0 15 -5.33301 13 -16l-27 -143c-2 -10.667 -8.33301 -16 -19 -16h-568l-97 -522h670c10.667 0 15 -5.33301 13 -16l-27 -143c-2 -10.667 -8.33301 -16 -19 -16h-833zM918.999 1299l-497 -762h429l141 762h-73z" />
    <glyph glyph-name="Ccedilla" unicode="&#xc7;" horiz-adv-x="1171" 
d="M621 -24c-96 0 -179.331 12.1689 -249.998 36.502s-127 64 -169 119s-68.5 126.333 -79.5 214s-5.16699 195.167 17.5 322.5l25 140c24 136 58 248.5 102 337.5s97 159.667 159 212s133 89 213 110s168 31.5 264 31.5c64 0 124.667 -3.33301 182 -10
s105.666 -15.667 144.999 -27c10.667 -2.66699 14 -9.33398 10 -20.001l-48 -131c-3.33301 -10 -10.333 -14 -21 -12c-44.667 9.33301 -92.334 16 -143.001 20s-100.667 6 -150 6c-69.333 0 -132.5 -8.16699 -189.5 -24.5s-107.5 -44 -151.5 -83s-81.833 -91 -113.5 -156
s-56.5 -146.167 -74.5 -243.5l-28 -160c-18.667 -98 -24.5 -179.667 -17.5 -245s25.333 -117.5 55 -156.5s70 -66.5 121 -82.5s111.167 -24 180.5 -24c60 0 115.833 2 167.5 6s100.167 9.66699 145.5 17c10.667 2 16 -2.33301 16 -13l-4 -132
c0 -10.667 -5.33301 -17.334 -16 -20.001c-43.333 -10 -95.5 -17.833 -156.5 -23.5s-124.833 -8.5 -191.5 -8.5zM338.002 -388.998c-11.333 0 -13.666 4.33301 -6.99902 13l193 261c6 8.66699 14.333 13 25 13h141c11.333 0 13.666 -4.33301 6.99902 -13l-174 -261
c-6 -8.66699 -14.333 -13 -25 -13h-160z" />
    <glyph glyph-name="Egrave" unicode="&#xc8;" horiz-adv-x="1189" 
d="M97 0c-10.667 0 -15 5.33301 -13 16l266 1443c2 10.667 8.33301 16 19 16h848c10.667 0 15 -5.33301 13 -16l-26 -144c-2 -10.667 -8.33301 -16 -19 -16h-684l-79 -427h575c10.667 0 15 -5.33301 13 -16l-27 -143c-2 -10.667 -8.33301 -16 -19 -16h-575l-95 -522h683
c10.667 0 15 -5.33301 13 -16l-27 -143c-2 -10.667 -8.33301 -16 -19 -16h-847zM801 1604c-6 0 -10.499 0.667969 -13.499 2.00098s-6.16699 3.66602 -9.5 6.99902l-204 192c-3.33301 3.33301 -4.33301 6.5 -3 9.5s4.66602 4.5 9.99902 4.5h192c6 0 11 -0.833008 15 -2.5
s8.33301 -4.16699 13 -7.5l161 -193c6.66699 -8 4.66699 -12 -6 -12h-155z" />
    <glyph glyph-name="Eacute" unicode="&#xc9;" horiz-adv-x="1189" 
d="M97 0c-10.667 0 -15 5.33301 -13 16l266 1443c2 10.667 8.33301 16 19 16h848c10.667 0 15 -5.33301 13 -16l-26 -144c-2 -10.667 -8.33301 -16 -19 -16h-684l-79 -427h575c10.667 0 15 -5.33301 13 -16l-27 -143c-2 -10.667 -8.33301 -16 -19 -16h-575l-95 -522h683
c10.667 0 15 -5.33301 13 -16l-27 -143c-2 -10.667 -8.33301 -16 -19 -16h-847zM653 1604c-10.667 0 -12 3.33301 -4 10l232 195c4.66699 3.33301 9 5.83301 13 7.5s9 2.5 15 2.5h205c4.66699 0 7.16699 -0.833008 7.5 -2.5s-1.16699 -3.83398 -4.5 -6.50098l-270 -197
c-4.66699 -3.33301 -9.16699 -5.66602 -13.5 -6.99902s-9.5 -2 -15.5 -2h-165z" />
    <glyph glyph-name="Ecircumflex" unicode="&#xca;" horiz-adv-x="1189" 
d="M97 0c-10.667 0 -15 5.33301 -13 16l266 1443c2 10.667 8.33301 16 19 16h848c10.667 0 15 -5.33301 13 -16l-26 -144c-2 -10.667 -8.33301 -16 -19 -16h-684l-79 -427h575c10.667 0 15 -5.33301 13 -16l-27 -143c-2 -10.667 -8.33301 -16 -19 -16h-575l-95 -522h683
c10.667 0 15 -5.33301 13 -16l-27 -143c-2 -10.667 -8.33301 -16 -19 -16h-847zM1104 1616c8 -8 6.33301 -12.001 -5 -12.001h-147c-6 0 -10.833 0.833008 -14.5 2.5s-7.5 4.83398 -11.5 9.50098l-84 103h-20l-123 -105c-4.66699 -3.33301 -9 -5.83301 -13 -7.5
s-9 -2.5 -15 -2.5h-174c-10.667 0 -11.667 3.33301 -3 10l252 195c5.33301 3.33301 10 5.83301 14 7.5s9 2.5 15 2.5h136c10.667 0 19.667 -4 27 -12z" />
    <glyph glyph-name="Edieresis" unicode="&#xcb;" horiz-adv-x="1189" 
d="M97 0c-10.667 0 -15 5.33301 -13 16l266 1443c2 10.667 8.33301 16 19 16h848c10.667 0 15 -5.33301 13 -16l-26 -144c-2 -10.667 -8.33301 -16 -19 -16h-684l-79 -427h575c10.667 0 15 -5.33301 13 -16l-27 -143c-2 -10.667 -8.33301 -16 -19 -16h-575l-95 -522h683
c10.667 0 15 -5.33301 13 -16l-27 -143c-2 -10.667 -8.33301 -16 -19 -16h-847zM558 1604c-10.667 0 -15 5.33301 -13 16l37 199c2 10.667 8.33301 17 19 19l148 23c10.667 2 15 -2.33301 13 -13l-43 -228c-2 -10.667 -8.33301 -16 -19 -16h-142zM895 1604
c-10.667 0 -15 5.33301 -13 16l36 199c2 10.667 8.33301 17 19 19l148 23c10.667 2 15 -2.33301 13 -13l-42 -228c-2 -10.667 -8.33301 -16 -19 -16h-142z" />
    <glyph glyph-name="Igrave" unicode="&#xcc;" horiz-adv-x="575" 
d="M97 0c-10.667 0 -15 5.33301 -13 16l266 1443c2 10.667 8.33301 16 19 16h147c10.667 0 15 -5.33301 13 -16l-266 -1443c-2 -10.667 -8.33301 -16 -19 -16h-147zM488 1604c-6 0 -10.499 0.667969 -13.499 2.00098s-6.16699 3.66602 -9.5 6.99902l-204 192
c-3.33301 3.33301 -4.33301 6.5 -3 9.5s4.66602 4.5 9.99902 4.5h192c6 0 11 -0.833008 15 -2.5s8.33301 -4.16699 13 -7.5l161 -193c6.66699 -8 4.66699 -12 -6 -12h-155z" />
    <glyph glyph-name="Iacute" unicode="&#xcd;" horiz-adv-x="574" 
d="M97 0c-10.667 0 -15 5.33301 -13 16l266 1443c2 10.667 8.33301 16 19 16h147c10.667 0 15 -5.33301 13 -16l-266 -1443c-2 -10.667 -8.33301 -16 -19 -16h-147zM245 1604c-10.667 0 -12 3.33301 -4 10l232 195c4.66699 3.33301 9 5.83301 13 7.5s9 2.5 15 2.5h205
c4.66699 0 7.16699 -0.833008 7.5 -2.5s-1.16699 -3.83398 -4.5 -6.50098l-270 -197c-4.66699 -3.33301 -9.16699 -5.66602 -13.5 -6.99902s-9.5 -2 -15.5 -2h-165z" />
    <glyph glyph-name="Icircumflex" unicode="&#xce;" horiz-adv-x="575" 
d="M97 0c-10.667 0 -15 5.33301 -13 16l266 1443c2 10.667 8.33301 16 19 16h147c10.667 0 15 -5.33301 13 -16l-266 -1443c-2 -10.667 -8.33301 -16 -19 -16h-147zM782 1616c8 -8 6.33301 -12.001 -5 -12.001h-147c-6 0 -10.833 0.833008 -14.5 2.5
s-7.5 4.83398 -11.5 9.50098l-84 103h-20l-123 -105c-4.66699 -3.33301 -9 -5.83301 -13 -7.5s-9 -2.5 -15 -2.5h-174c-10.667 0 -11.667 3.33301 -3 10l252 195c5.33301 3.33301 10 5.83301 14 7.5s9 2.5 15 2.5h136c10.667 0 19.667 -4 27 -12z" />
    <glyph glyph-name="Idieresis" unicode="&#xcf;" horiz-adv-x="575" 
d="M97 0c-10.667 0 -15 5.33301 -13 16l266 1443c2 10.667 8.33301 16 19 16h147c10.667 0 15 -5.33301 13 -16l-266 -1443c-2 -10.667 -8.33301 -16 -19 -16h-147zM229 1604c-10.667 0 -15 5.33301 -13 16l37 199c2 10.667 8.33301 17 19 19l148 23
c10.667 2 15 -2.33301 13 -13l-43 -228c-2 -10.667 -8.33301 -16 -19 -16h-142zM566 1604c-10.667 0 -15 5.33301 -13 16l36 199c2 10.667 8.33301 17 19 19l148 23c10.667 2 15 -2.33301 13 -13l-42 -228c-2 -10.667 -8.33301 -16 -19 -16h-142z" />
    <glyph glyph-name="Eth" unicode="&#xd0;" horiz-adv-x="1422" 
d="M460 -16c-24 0 -50.499 0.329102 -79.499 0.996094s-59 1.5 -90 2.5s-62.167 2.33301 -93.5 4s-61.333 3.83398 -90 6.50098c-6 1.33301 -10 3.16602 -12 5.49902s-2.33301 6.5 -1 12.5l126 682h-156c-10.667 0 -15 5.33301 -13 16l25 135c2 10.667 8.33301 16 19 16h156
l110 594c2 10.667 8.33301 16.334 19 17.001c28 2 58 3.66699 90 5s63.667 2.5 95 3.5s61 1.66699 89 2s52 0.5 72 0.5c68.667 0 133.5 -3.5 194.5 -10.5s116.5 -20 166.5 -39s93.667 -44.833 131 -77.5s66.666 -74.667 87.999 -126s33.666 -113 36.999 -185
s-4 -156.667 -22 -254l-21 -113c-19.333 -105.333 -43.166 -195.666 -71.499 -270.999s-61.333 -138.833 -99 -190.5s-79.667 -93.167 -126 -124.5s-97.333 -55.166 -153 -71.499s-116 -27.166 -181 -32.499s-134.833 -8 -209.5 -8zM732.001 1324
c-14 0 -30.666 -0.166992 -49.999 -0.5s-39 -0.833008 -59 -1.5s-39.667 -1.5 -59 -2.5s-36 -2.16699 -50 -3.5l-84 -451h264c10.667 0 15 -5.33301 13 -16l-25 -135c-2 -10.667 -8.33301 -16 -19 -16h-264l-100 -541c16 -2 33.667 -3.5 53 -4.5l59.5 -3
c20.333 -1 40.166 -1.66699 59.499 -2s36.666 -0.5 51.999 -0.5c82.667 0 156.334 6.83301 221.001 20.5s121.334 39.834 170.001 78.501s89.834 92.5 123.501 161.5s60.834 159.167 81.501 270.5l22 119c13.333 73.333 20.333 137.333 21 192s-4.83301 101.5 -16.5 140.5
s-29.334 71.167 -53.001 96.5s-52.834 45.166 -87.501 59.499s-74.834 24.333 -120.501 30s-96.5 8.5 -152.5 8.5z" />
    <glyph glyph-name="Ntilde" unicode="&#xd1;" horiz-adv-x="1453" 
d="M97 0c-10.667 0 -15.001 5.33301 -13.001 16l266 1443c2 10.667 8.33301 16 19 16h158c6 0 10.5 -1.16699 13.5 -3.5s5.83301 -6.16602 8.5 -11.499l414 -1039c13.333 -34 23.5 -61.167 30.5 -81.5s11.167 -30.5 12.5 -30.5l213 1150c2 10.667 8.33301 16 19 16h148
c10.667 0 15 -5.33301 13 -16l-267 -1443c-2 -10.667 -8.33301 -16 -19 -16h-169c-6 0 -10.5 1.16699 -13.5 3.5s-5.83301 6.16602 -8.5 11.499l-401 1032c-13.333 34 -23.666 62.167 -30.999 84.5s-11.333 33.5 -12 33.5l-215 -1149c-2 -10.667 -8.33301 -16 -19 -16h-147z
M584.999 1603c-11.333 0 -15.999 5.3291 -13.999 15.9961c8 54.667 20.333 97.834 37 129.501s35.334 55.667 56.001 72s42 26.833 64 31.5s42.333 7 61 7c16.667 0 31.834 -1.16699 45.501 -3.5s26.667 -6.16602 39 -11.499s24.666 -12.166 36.999 -20.499
s26.166 -18.833 41.499 -31.5l42.5 -35c11.667 -9.33301 21.667 -16.666 30 -21.999s15.833 -9.16602 22.5 -11.499s13.667 -3.5 21 -3.5c10 0 19.333 1.33301 28 4s16.5 8.16699 23.5 16.5s13.167 20 18.5 35s10 34.833 14 59.5c1.33301 6 3.16602 10.167 5.49902 12.5
s6.5 3.5 12.5 3.5h106c11.333 0 16 -5.33301 14 -16c-8 -55.333 -20.5 -98.833 -37.5 -130.5s-35.833 -55.667 -56.5 -72s-42 -26.666 -64 -30.999s-42.333 -6.5 -61 -6.5c-17.333 0 -32.5 0.833008 -45.5 2.5s-25.5 5 -37.5 10s-24.333 11.833 -37 20.5s-27 20 -43 34
l-42.5 35c-11.667 9.33301 -21.834 16.666 -30.501 21.999s-16.167 9.16602 -22.5 11.499s-12.833 3.5 -19.5 3.5c-10 0 -19.333 -1.5 -28 -4.5s-16.5 -8.66699 -23.5 -17s-13.167 -20 -18.5 -35s-10 -34.5 -14 -58.5c-1.33301 -6 -3.16602 -10.167 -5.49902 -12.5
s-6.5 -3.5 -12.5 -3.5h-106z" />
    <glyph glyph-name="Ograve" unicode="&#xd2;" horiz-adv-x="1433" 
d="M596 -24c-92.667 0 -172.329 12.667 -238.996 38s-119.5 65.5 -158.5 120.5s-63.167 126.333 -72.5 214s-3 194.167 19 319.5l25 140c24.667 138.667 57.667 252.667 99 342s91.333 159.833 150 211.5s126.167 87.5 202.5 107.5s161.833 30 256.5 30
c92.667 0 172.167 -12.5 238.5 -37.5s118.666 -65 156.999 -120s62.166 -126.333 71.499 -214s3.33301 -194.5 -18 -320.5l-24 -140c-24 -138 -56.5 -251.5 -97.5 -340.5s-90.833 -159.5 -149.5 -211.5s-126.334 -88.167 -203.001 -108.5s-162.334 -30.5 -257.001 -30.5z
M844.005 1318c-64 0 -122.166 -7.83594 -174.499 -23.5029s-99 -42.667 -140 -81s-76.167 -89.666 -105.5 -153.999s-53 -144.833 -71 -241.5l-28 -160c-18 -98 -24.667 -179.167 -20 -243.5s20 -115.666 46 -153.999s62.167 -65.333 108.5 -81s102.5 -23.5 168.5 -23.5
c63.333 0 121.333 8.16699 174 24.5s99.5 43.833 140.5 82.5s76.167 90.167 105.5 154.5s52.666 144.833 69.999 241.5l30 158c18 96.667 24.667 177.167 20 241.5s-20 115.833 -46 154.5s-62.333 65.834 -109 81.501s-103 23.5 -169 23.5zM879.006 1604
c-6 0 -10.499 0.667969 -13.499 2.00098s-6.16699 3.66602 -9.5 6.99902l-204 192c-3.33301 3.33301 -4.33301 6.5 -3 9.5s4.66602 4.5 9.99902 4.5h192c6 0 11 -0.833008 15 -2.5s8.33301 -4.16699 13 -7.5l161 -193c6.66699 -8 4.66699 -12 -6 -12h-155z" />
    <glyph glyph-name="Oacute" unicode="&#xd3;" horiz-adv-x="1433" 
d="M596 -24c-92.667 0 -172.329 12.667 -238.996 38s-119.5 65.5 -158.5 120.5s-63.167 126.333 -72.5 214s-3 194.167 19 319.5l25 140c24.667 138.667 57.667 252.667 99 342s91.333 159.833 150 211.5s126.167 87.5 202.5 107.5s161.833 30 256.5 30
c92.667 0 172.167 -12.5 238.5 -37.5s118.666 -65 156.999 -120s62.166 -126.333 71.499 -214s3.33301 -194.5 -18 -320.5l-24 -140c-24 -138 -56.5 -251.5 -97.5 -340.5s-90.833 -159.5 -149.5 -211.5s-126.334 -88.167 -203.001 -108.5s-162.334 -30.5 -257.001 -30.5z
M844.005 1318c-64 0 -122.166 -7.83594 -174.499 -23.5029s-99 -42.667 -140 -81s-76.167 -89.666 -105.5 -153.999s-53 -144.833 -71 -241.5l-28 -160c-18 -98 -24.667 -179.167 -20 -243.5s20 -115.666 46 -153.999s62.167 -65.333 108.5 -81s102.5 -23.5 168.5 -23.5
c63.333 0 121.333 8.16699 174 24.5s99.5 43.833 140.5 82.5s76.167 90.167 105.5 154.5s52.666 144.833 69.999 241.5l30 158c18 96.667 24.667 177.167 20 241.5s-20 115.833 -46 154.5s-62.333 65.834 -109 81.501s-103 23.5 -169 23.5zM713.006 1604
c-10.667 0 -12 3.33301 -4 10l232 195c4.66699 3.33301 9 5.83301 13 7.5s9 2.5 15 2.5h205c4.66699 0 7.16699 -0.833008 7.5 -2.5s-1.16699 -3.83398 -4.5 -6.50098l-270 -197c-4.66699 -3.33301 -9.16699 -5.66602 -13.5 -6.99902s-9.5 -2 -15.5 -2h-165z" />
    <glyph glyph-name="Ocircumflex" unicode="&#xd4;" horiz-adv-x="1433" 
d="M596 -24c-92.667 0 -172.329 12.667 -238.996 38s-119.5 65.5 -158.5 120.5s-63.167 126.333 -72.5 214s-3 194.167 19 319.5l25 140c24.667 138.667 57.667 252.667 99 342s91.333 159.833 150 211.5s126.167 87.5 202.5 107.5s161.833 30 256.5 30
c92.667 0 172.167 -12.5 238.5 -37.5s118.666 -65 156.999 -120s62.166 -126.333 71.499 -214s3.33301 -194.5 -18 -320.5l-24 -140c-24 -138 -56.5 -251.5 -97.5 -340.5s-90.833 -159.5 -149.5 -211.5s-126.334 -88.167 -203.001 -108.5s-162.334 -30.5 -257.001 -30.5z
M844.005 1318c-64 0 -122.166 -7.83594 -174.499 -23.5029s-99 -42.667 -140 -81s-76.167 -89.666 -105.5 -153.999s-53 -144.833 -71 -241.5l-28 -160c-18 -98 -24.667 -179.167 -20 -243.5s20 -115.666 46 -153.999s62.167 -65.333 108.5 -81s102.5 -23.5 168.5 -23.5
c63.333 0 121.333 8.16699 174 24.5s99.5 43.833 140.5 82.5s76.167 90.167 105.5 154.5s52.666 144.833 69.999 241.5l30 158c18 96.667 24.667 177.167 20 241.5s-20 115.833 -46 154.5s-62.333 65.834 -109 81.501s-103 23.5 -169 23.5zM1202.01 1616
c8 -8 6.33301 -12.001 -5 -12.001h-147c-6 0 -10.833 0.833008 -14.5 2.5s-7.5 4.83398 -11.5 9.50098l-84 103h-20l-123 -105c-4.66699 -3.33301 -9 -5.83301 -13 -7.5s-9 -2.5 -15 -2.5h-174c-10.667 0 -11.667 3.33301 -3 10l252 195c5.33301 3.33301 10 5.83301 14 7.5
s9 2.5 15 2.5h136c10.667 0 19.667 -4 27 -12z" />
    <glyph glyph-name="Otilde" unicode="&#xd5;" horiz-adv-x="1433" 
d="M596 -24c-92.667 0 -172.329 12.667 -238.996 38s-119.5 65.5 -158.5 120.5s-63.167 126.333 -72.5 214s-3 194.167 19 319.5l25 140c24.667 138.667 57.667 252.667 99 342s91.333 159.833 150 211.5s126.167 87.5 202.5 107.5s161.833 30 256.5 30
c92.667 0 172.167 -12.5 238.5 -37.5s118.666 -65 156.999 -120s62.166 -126.333 71.499 -214s3.33301 -194.5 -18 -320.5l-24 -140c-24 -138 -56.5 -251.5 -97.5 -340.5s-90.833 -159.5 -149.5 -211.5s-126.334 -88.167 -203.001 -108.5s-162.334 -30.5 -257.001 -30.5z
M844.005 1318c-64 0 -122.166 -7.83594 -174.499 -23.5029s-99 -42.667 -140 -81s-76.167 -89.666 -105.5 -153.999s-53 -144.833 -71 -241.5l-28 -160c-18 -98 -24.667 -179.167 -20 -243.5s20 -115.666 46 -153.999s62.167 -65.333 108.5 -81s102.5 -23.5 168.5 -23.5
c63.333 0 121.333 8.16699 174 24.5s99.5 43.833 140.5 82.5s76.167 90.167 105.5 154.5s52.666 144.833 69.999 241.5l30 158c18 96.667 24.667 177.167 20 241.5s-20 115.833 -46 154.5s-62.333 65.834 -109 81.501s-103 23.5 -169 23.5zM574.006 1603
c-11.333 0 -15.999 5.3291 -13.999 15.9961c8 54.667 20.333 97.834 37 129.501s35.334 55.667 56.001 72s42 26.833 64 31.5s42.333 7 61 7c16.667 0 31.834 -1.16699 45.501 -3.5s26.667 -6.16602 39 -11.499s24.666 -12.166 36.999 -20.499s26.166 -18.833 41.499 -31.5
l42.5 -35c11.667 -9.33301 21.667 -16.666 30 -21.999s15.833 -9.16602 22.5 -11.499s13.667 -3.5 21 -3.5c10 0 19.333 1.33301 28 4s16.5 8.16699 23.5 16.5s13.167 20 18.5 35s10 34.833 14 59.5c1.33301 6 3.16602 10.167 5.49902 12.5s6.5 3.5 12.5 3.5h106
c11.333 0 16 -5.33301 14 -16c-8 -55.333 -20.5 -98.833 -37.5 -130.5s-35.833 -55.667 -56.5 -72s-42 -26.666 -64 -30.999s-42.333 -6.5 -61 -6.5c-17.333 0 -32.5 0.833008 -45.5 2.5s-25.5 5 -37.5 10s-24.333 11.833 -37 20.5s-27 20 -43 34l-42.5 35
c-11.667 9.33301 -21.834 16.666 -30.501 21.999s-16.167 9.16602 -22.5 11.499s-12.833 3.5 -19.5 3.5c-10 0 -19.333 -1.5 -28 -4.5s-16.5 -8.66699 -23.5 -17s-13.167 -20 -18.5 -35s-10 -34.5 -14 -58.5c-1.33301 -6 -3.16602 -10.167 -5.49902 -12.5
s-6.5 -3.5 -12.5 -3.5h-106z" />
    <glyph glyph-name="Odieresis" unicode="&#xd6;" horiz-adv-x="1433" 
d="M596 -24c-92.667 0 -172.329 12.667 -238.996 38s-119.5 65.5 -158.5 120.5s-63.167 126.333 -72.5 214s-3 194.167 19 319.5l25 140c24.667 138.667 57.667 252.667 99 342s91.333 159.833 150 211.5s126.167 87.5 202.5 107.5s161.833 30 256.5 30
c92.667 0 172.167 -12.5 238.5 -37.5s118.666 -65 156.999 -120s62.166 -126.333 71.499 -214s3.33301 -194.5 -18 -320.5l-24 -140c-24 -138 -56.5 -251.5 -97.5 -340.5s-90.833 -159.5 -149.5 -211.5s-126.334 -88.167 -203.001 -108.5s-162.334 -30.5 -257.001 -30.5z
M844.005 1318c-64 0 -122.166 -7.83594 -174.499 -23.5029s-99 -42.667 -140 -81s-76.167 -89.666 -105.5 -153.999s-53 -144.833 -71 -241.5l-28 -160c-18 -98 -24.667 -179.167 -20 -243.5s20 -115.666 46 -153.999s62.167 -65.333 108.5 -81s102.5 -23.5 168.5 -23.5
c63.333 0 121.333 8.16699 174 24.5s99.5 43.833 140.5 82.5s76.167 90.167 105.5 154.5s52.666 144.833 69.999 241.5l30 158c18 96.667 24.667 177.167 20 241.5s-20 115.833 -46 154.5s-62.333 65.834 -109 81.501s-103 23.5 -169 23.5zM656.006 1604
c-10.667 0 -15 5.33301 -13 16l37 199c2 10.667 8.33301 17 19 19l148 23c10.667 2 15 -2.33301 13 -13l-43 -228c-2 -10.667 -8.33301 -16 -19 -16h-142zM993.006 1604c-10.667 0 -15 5.33301 -13 16l36 199c2 10.667 8.33301 17 19 19l148 23c10.667 2 15 -2.33301 13 -13
l-42 -228c-2 -10.667 -8.33301 -16 -19 -16h-142z" />
    <glyph glyph-name="multiply" unicode="&#xd7;" horiz-adv-x="984" 
d="M211 1027c-6.66699 8.66699 -6 16 2 22l117 97c8.66699 6.66699 16 6 22 -2l190 -234l282 238c8.66699 6.66699 16 6 22 -2l77 -94c6.66699 -8.66699 6 -16 -2 -22l-282 -239l191 -234c6.66699 -8.66699 6 -16 -2 -22l-116 -98c-8.66699 -6.66699 -16 -6 -22 2l-191 234
l-279 -235c-8.66699 -6.66699 -16 -6 -22 2l-76 95c-6.66699 8.66699 -6 16 2 22l278 235z" />
    <glyph glyph-name="Oslash" unicode="&#xd8;" horiz-adv-x="1397" 
d="M151 226c-18 55.333 -27.168 120.832 -27.501 196.499s9.16699 164.167 28.5 265.5l21 120c24 130.667 56.667 240.334 98 329.001s90.666 159.667 147.999 213s122.666 91.5 195.999 114.5s154.333 34.5 243 34.5c74 0 139.167 -8.16699 195.5 -24.5
s103.833 -42.833 142.5 -79.5l61 68c7.33301 8 16.333 12 27 12h178c11.333 0 13 -4 5 -12l-185 -206c19.333 -56 29.333 -122.5 30 -199.5s-8.66602 -167.167 -27.999 -270.5l-22 -120c-24 -131.333 -56.5 -241.333 -97.5 -330s-90 -159.667 -147 -213
s-122 -91.333 -195 -114s-154.167 -34 -243.5 -34c-75.333 0 -141.666 8.66699 -198.999 26s-105.666 45 -144.999 83l-65 -73c-7.33301 -8 -16.333 -12 -27 -12h-178c-11.333 0 -13 4 -5 12zM1109 816.999c20 108.667 26.3311 197.668 18.998 267.001l-760 -850
c25.333 -28.667 58.333 -48.834 99 -60.501s88.667 -17.5 144 -17.5c60.667 0 115.834 8 165.501 24s93.834 43.167 132.501 81.5s72.167 89.833 100.5 154.5s51.5 145.667 69.5 243zM825.997 1318c-60.667 0 -115.835 -7.83301 -165.502 -23.5s-94 -42.667 -133 -81
s-72.667 -89.666 -101 -153.999s-51.5 -144.833 -69.5 -241.5l-30 -160c-10 -52.667 -16.667 -100.334 -20 -143.001s-3.66602 -81 -0.999023 -115l757 846c-25.333 26 -57.666 44.5 -96.999 55.5s-86 16.5 -140 16.5z" />
    <glyph glyph-name="Ugrave" unicode="&#xd9;" horiz-adv-x="1457" 
d="M605 -24c-84.667 0 -158.832 10.5 -222.499 31.5s-115 53 -154 96s-65 97 -78 162s-11.167 141.833 5.5 230.5l179 963c2 10.667 8.33301 16 19 16h148c10.667 0 15 -5.33301 13 -16l-170 -920c-12.667 -66.667 -17.5 -124.334 -14.5 -173.001s15.667 -89 38 -121
s55.333 -55.833 99 -71.5s100.167 -23.5 169.5 -23.5c70 0 130 7.66699 180 23s92.5 39 127.5 71s63.333 72.333 85 121s38.834 106.667 51.501 174l171 920c2 10.667 8.33301 16 19 16h145c10.667 0 15 -5.33301 13 -16l-179 -963c-20 -106 -48.333 -192.667 -85 -260
s-81.834 -120.166 -135.501 -158.499s-115.834 -64.833 -186.501 -79.5s-150 -22 -238 -22zM894.002 1604c-6 0 -10.499 0.667969 -13.499 2.00098s-6.16699 3.66602 -9.5 6.99902l-204 192c-3.33301 3.33301 -4.33301 6.5 -3 9.5s4.66602 4.5 9.99902 4.5h192
c6 0 11 -0.833008 15 -2.5s8.33301 -4.16699 13 -7.5l161 -193c6.66699 -8 4.66699 -12 -6 -12h-155z" />
    <glyph glyph-name="Uacute" unicode="&#xda;" horiz-adv-x="1457" 
d="M605 -24c-84.667 0 -158.832 10.5 -222.499 31.5s-115 53 -154 96s-65 97 -78 162s-11.167 141.833 5.5 230.5l179 963c2 10.667 8.33301 16 19 16h148c10.667 0 15 -5.33301 13 -16l-170 -920c-12.667 -66.667 -17.5 -124.334 -14.5 -173.001s15.667 -89 38 -121
s55.333 -55.833 99 -71.5s100.167 -23.5 169.5 -23.5c70 0 130 7.66699 180 23s92.5 39 127.5 71s63.333 72.333 85 121s38.834 106.667 51.501 174l171 920c2 10.667 8.33301 16 19 16h145c10.667 0 15 -5.33301 13 -16l-179 -963c-20 -106 -48.333 -192.667 -85 -260
s-81.834 -120.166 -135.501 -158.499s-115.834 -64.833 -186.501 -79.5s-150 -22 -238 -22zM777.002 1604c-10.667 0 -12 3.33301 -4 10l232 195c4.66699 3.33301 9 5.83301 13 7.5s9 2.5 15 2.5h205c4.66699 0 7.16699 -0.833008 7.5 -2.5s-1.16699 -3.83398 -4.5 -6.50098
l-270 -197c-4.66699 -3.33301 -9.16699 -5.66602 -13.5 -6.99902s-9.5 -2 -15.5 -2h-165z" />
    <glyph glyph-name="Ucircumflex" unicode="&#xdb;" horiz-adv-x="1457" 
d="M605 -24c-84.667 0 -158.832 10.5 -222.499 31.5s-115 53 -154 96s-65 97 -78 162s-11.167 141.833 5.5 230.5l179 963c2 10.667 8.33301 16 19 16h148c10.667 0 15 -5.33301 13 -16l-170 -920c-12.667 -66.667 -17.5 -124.334 -14.5 -173.001s15.667 -89 38 -121
s55.333 -55.833 99 -71.5s100.167 -23.5 169.5 -23.5c70 0 130 7.66699 180 23s92.5 39 127.5 71s63.333 72.333 85 121s38.834 106.667 51.501 174l171 920c2 10.667 8.33301 16 19 16h145c10.667 0 15 -5.33301 13 -16l-179 -963c-20 -106 -48.333 -192.667 -85 -260
s-81.834 -120.166 -135.501 -158.499s-115.834 -64.833 -186.501 -79.5s-150 -22 -238 -22zM1214 1616c8 -8 6.33301 -12.001 -5 -12.001h-147c-6 0 -10.833 0.833008 -14.5 2.5s-7.5 4.83398 -11.5 9.50098l-84 103h-20l-123 -105c-4.66699 -3.33301 -9 -5.83301 -13 -7.5
s-9 -2.5 -15 -2.5h-174c-10.667 0 -11.667 3.33301 -3 10l252 195c5.33301 3.33301 10 5.83301 14 7.5s9 2.5 15 2.5h136c10.667 0 19.667 -4 27 -12z" />
    <glyph glyph-name="Udieresis" unicode="&#xdc;" horiz-adv-x="1457" 
d="M605 -24c-84.667 0 -158.832 10.5 -222.499 31.5s-115 53 -154 96s-65 97 -78 162s-11.167 141.833 5.5 230.5l179 963c2 10.667 8.33301 16 19 16h148c10.667 0 15 -5.33301 13 -16l-170 -920c-12.667 -66.667 -17.5 -124.334 -14.5 -173.001s15.667 -89 38 -121
s55.333 -55.833 99 -71.5s100.167 -23.5 169.5 -23.5c70 0 130 7.66699 180 23s92.5 39 127.5 71s63.333 72.333 85 121s38.834 106.667 51.501 174l171 920c2 10.667 8.33301 16 19 16h145c10.667 0 15 -5.33301 13 -16l-179 -963c-20 -106 -48.333 -192.667 -85 -260
s-81.834 -120.166 -135.501 -158.499s-115.834 -64.833 -186.501 -79.5s-150 -22 -238 -22zM668.002 1604c-10.667 0 -15 5.33301 -13 16l37 199c2 10.667 8.33301 17 19 19l148 23c10.667 2 15 -2.33301 13 -13l-43 -228c-2 -10.667 -8.33301 -16 -19 -16h-142zM1005 1604
c-10.667 0 -15 5.33301 -13 16l36 199c2 10.667 8.33301 17 19 19l148 23c10.667 2 15 -2.33301 13 -13l-42 -228c-2 -10.667 -8.33301 -16 -19 -16h-142z" />
    <glyph glyph-name="Yacute" unicode="&#xdd;" horiz-adv-x="1163" 
d="M386 0c-10.667 0 -14.999 5.33301 -12.999 16l90 492l-305 952c-4 10 -0.333008 15 11 15h159c10.667 0 17.667 -5 21 -15l233 -748l508 750c6 8.66699 14.333 13 25 13h178c11.333 0 13.666 -4.33301 6.99902 -13l-657 -955l-91 -491c-2 -10.667 -8.33301 -16 -19 -16
h-147zM606.001 1604c-10.667 0 -12 3.33301 -4 10l232 195c4.66699 3.33301 9 5.83301 13 7.5s9 2.5 15 2.5h205c4.66699 0 7.16699 -0.833008 7.5 -2.5s-1.16699 -3.83398 -4.5 -6.50098l-270 -197c-4.66699 -3.33301 -9.16699 -5.66602 -13.5 -6.99902s-9.5 -2 -15.5 -2
h-165z" />
    <glyph glyph-name="Thorn" unicode="&#xde;" horiz-adv-x="1297" 
d="M97 0c-10.667 0 -15.0059 5.33105 -13.0059 15.998l267 1443c2 10.667 8.33301 16 19 16h148c10.667 0 15 -5.33301 13 -16l-35 -190c36.667 1.33301 71.834 2.33301 105.501 3s62.167 1 85.5 1c113.333 0 209.333 -6 288 -18s140.834 -34.167 186.501 -66.5
s75.334 -77 89.001 -134s12.167 -130.5 -4.5 -220.5l-17 -86c-12 -63.333 -26.667 -118 -44 -164s-39.166 -85.333 -65.499 -118s-57.666 -59.167 -93.999 -79.5s-79.333 -36.166 -129 -47.499s-106.5 -19 -170.5 -23s-136.667 -6 -218 -6
c-13.333 0 -29.666 0.166992 -48.999 0.5l-57.5 1c-19 0.333008 -36.167 0.833008 -51.5 1.5s-26 1.33398 -32 2.00098l-54 -299c-2 -10.667 -8.33301 -16 -19 -16h-148zM657.994 1110c-11.333 0 -25.8311 -0.166992 -43.498 -0.5s-35.834 -1 -54.501 -2l-54 -3l-42 -2.5
l-115 -622c10.667 -1.33301 24.5 -2.33301 41.5 -3l53 -2c18.333 -0.666992 36.333 -1.16699 54 -1.5s32.167 -0.5 43.5 -0.5c88 0 162 3.66699 222 11s109.5 21.5 148.5 42.5s69.5 50.5 91.5 88.5s38.667 87.333 50 148l11 56c10.667 60.667 12.167 110 4.5 148
s-27 67.5 -58 88.5s-75.333 35.333 -133 43s-130.834 11.5 -219.501 11.5z" />
    <glyph glyph-name="germandbls" unicode="&#xdf;" horiz-adv-x="1234" 
d="M68 0c-10.667 0 -15.002 5.33203 -13.002 15.999l193 1039c18.667 102 43.167 186.833 73.5 254.5s67.833 121.667 112.5 162s97.167 68.666 157.5 84.999s130.166 24.5 209.499 24.5c74.667 0 138.334 -10.667 191.001 -32s94.334 -50.666 125.001 -87.999
s50.834 -81.166 60.501 -131.499s8.83398 -104.833 -2.49902 -163.5l-4 -21c-7.33301 -38 -17.333 -73 -30 -105s-29.5 -61 -50.5 -87s-46.833 -48.5 -77.5 -67.5s-67.667 -34.167 -111 -45.5c46 -14 83.167 -34.333 111.5 -61s49.333 -57.667 63 -93s21 -73.5 22 -114.5
s-2.83301 -82.5 -11.5 -124.5l-6 -38c-14 -89.333 -34.5 -162.166 -61.5 -218.499s-61.5 -100.333 -103.5 -132s-91.833 -53.334 -149.5 -65.001s-123.834 -17.5 -198.501 -17.5c-30.667 0 -60.5 1.5 -89.5 4.5s-55.167 7.83301 -78.5 14.5c-10 2.66699 -13.667 9 -11 19
l32 116c2.66699 10.667 9.33398 15 20.001 13c20 -4.66699 40.833 -8.16699 62.5 -10.5s46.834 -3.5 75.501 -3.5c45.333 0 85.666 5 120.999 15s66.166 26.5 92.499 49.5s48.333 53 66 90s31.5 82.833 41.5 137.5l10 54c7.33301 38.667 9.16602 75.334 5.49902 110.001
s-14 64.667 -31 90s-41.5 45.5 -73.5 60.5s-73 22.5 -123 22.5h-101c-10.667 0 -15 5.33301 -13 16l25 134c2 10.667 8.33301 16 19 16h99c48.667 0 89.834 6.83301 123.501 20.5s61.334 31.334 83.001 53.001s38.167 46.167 49.5 73.5s19.666 54.666 24.999 81.999l3 18
c15.333 84 4.83301 146.167 -31.5 186.5s-97.833 60.5 -184.5 60.5c-54 0 -101.167 -6.33301 -141.5 -19s-75 -33.334 -104 -62.001s-53 -66 -72 -112s-34.833 -102.333 -47.5 -169l-193 -1040c-2 -10.667 -8.33301 -16 -19 -16h-140z" />
    <glyph glyph-name="agrave" unicode="&#xe0;" horiz-adv-x="1183" 
d="M902 929c-30 3.33301 -64 6.16699 -102 8.5s-79.333 3.5 -124 3.5c-66 0 -121 -5.66699 -165 -17s-80.333 -31 -109 -59s-51.834 -65.5 -69.501 -112.5s-33.5 -105.833 -47.5 -176.5l-14 -74c-13.333 -72 -20 -132 -20 -180s9.33301 -86.333 28 -115
s48.334 -49 89.001 -61s95 -18 163 -18c40 0 80.167 1 120.5 3s74.5 4.66699 102.5 8zM505 -23.999c-95.333 0 -173.167 9.66895 -233.5 29.002s-106.166 49.166 -137.499 89.499s-49.333 91.833 -54 154.5s1.33301 137.334 18 224.001l24 126
c19.333 101.333 42.833 184.166 70.5 248.499s63.667 114.666 108 150.999s99 61.333 164 75s144.167 20.5 237.5 20.5c30.667 0 62.667 -0.5 96 -1.5s66.5 -2.5 99.5 -4.5s65.333 -4.33301 97 -7s61.5 -5.33398 89.5 -8.00098c10.667 -0.666992 15 -6.66699 13 -18
l-193 -1039c-1.33301 -6 -3.33301 -10.167 -6 -12.5s-7 -4.16602 -13 -5.49902c-67.333 -7.33301 -132.833 -12.833 -196.5 -16.5s-124.834 -5.5 -183.501 -5.5zM697.999 1264c-10.667 0 -19.332 4.33301 -25.999 13l-180 238c-6.66699 8.66699 -4.66699 13 6 13h192
c10.667 0 18.667 -4.66699 24 -14l133 -236c5.33301 -9.33301 2.66602 -14 -8.00098 -14h-141z" />
    <glyph glyph-name="aacute" unicode="&#xe1;" horiz-adv-x="1183" 
d="M902 929c-30 3.33301 -64 6.16699 -102 8.5s-79.333 3.5 -124 3.5c-66 0 -121 -5.66699 -165 -17s-80.333 -31 -109 -59s-51.834 -65.5 -69.501 -112.5s-33.5 -105.833 -47.5 -176.5l-14 -74c-13.333 -72 -20 -132 -20 -180s9.33301 -86.333 28 -115
s48.334 -49 89.001 -61s95 -18 163 -18c40 0 80.167 1 120.5 3s74.5 4.66699 102.5 8zM505 -23.999c-95.333 0 -173.167 9.66895 -233.5 29.002s-106.166 49.166 -137.499 89.499s-49.333 91.833 -54 154.5s1.33301 137.334 18 224.001l24 126
c19.333 101.333 42.833 184.166 70.5 248.499s63.667 114.666 108 150.999s99 61.333 164 75s144.167 20.5 237.5 20.5c30.667 0 62.667 -0.5 96 -1.5s66.5 -2.5 99.5 -4.5s65.333 -4.33301 97 -7s61.5 -5.33398 89.5 -8.00098c10.667 -0.666992 15 -6.66699 13 -18
l-193 -1039c-1.33301 -6 -3.33301 -10.167 -6 -12.5s-7 -4.16602 -13 -5.49902c-67.333 -7.33301 -132.833 -12.833 -196.5 -16.5s-124.834 -5.5 -183.501 -5.5zM586.999 1264c-11.333 0 -13 4 -5 12l230 240c7.33301 8 16.333 12 27 12h206c10.667 0 12 -3.33301 4 -10
l-282 -244c-4.66699 -3.33301 -9 -5.83301 -13 -7.5s-9 -2.5 -15 -2.5h-152z" />
    <glyph glyph-name="acircumflex" unicode="&#xe2;" horiz-adv-x="1183" 
d="M902 929c-30 3.33301 -64 6.16699 -102 8.5s-79.333 3.5 -124 3.5c-66 0 -121 -5.66699 -165 -17s-80.333 -31 -109 -59s-51.834 -65.5 -69.501 -112.5s-33.5 -105.833 -47.5 -176.5l-14 -74c-13.333 -72 -20 -132 -20 -180s9.33301 -86.333 28 -115
s48.334 -49 89.001 -61s95 -18 163 -18c40 0 80.167 1 120.5 3s74.5 4.66699 102.5 8zM505 -23.999c-95.333 0 -173.167 9.66895 -233.5 29.002s-106.166 49.166 -137.499 89.499s-49.333 91.833 -54 154.5s1.33301 137.334 18 224.001l24 126
c19.333 101.333 42.833 184.166 70.5 248.499s63.667 114.666 108 150.999s99 61.333 164 75s144.167 20.5 237.5 20.5c30.667 0 62.667 -0.5 96 -1.5s66.5 -2.5 99.5 -4.5s65.333 -4.33301 97 -7s61.5 -5.33398 89.5 -8.00098c10.667 -0.666992 15 -6.66699 13 -18
l-193 -1039c-1.33301 -6 -3.33301 -10.167 -6 -12.5s-7 -4.16602 -13 -5.49902c-67.333 -7.33301 -132.833 -12.833 -196.5 -16.5s-124.834 -5.5 -183.501 -5.5zM1029 1274c6.66699 -8.66699 4.33301 -13 -7 -13h-145c-10.667 0 -18.667 4.66699 -24 14l-81 143h-21
l-134 -145c-7.33301 -8 -16.333 -12 -27 -12h-166c-10 0 -11.333 3.66699 -4 11l257 245c8 7.33301 17.333 11 28 11h135c10.667 0 19 -4.33301 25 -13z" />
    <glyph glyph-name="atilde" unicode="&#xe3;" horiz-adv-x="1183" 
d="M902 929c-30 3.33301 -64 6.16699 -102 8.5s-79.333 3.5 -124 3.5c-66 0 -121 -5.66699 -165 -17s-80.333 -31 -109 -59s-51.834 -65.5 -69.501 -112.5s-33.5 -105.833 -47.5 -176.5l-14 -74c-13.333 -72 -20 -132 -20 -180s9.33301 -86.333 28 -115
s48.334 -49 89.001 -61s95 -18 163 -18c40 0 80.167 1 120.5 3s74.5 4.66699 102.5 8zM505 -23.999c-95.333 0 -173.167 9.66895 -233.5 29.002s-106.166 49.166 -137.499 89.499s-49.333 91.833 -54 154.5s1.33301 137.334 18 224.001l24 126
c19.333 101.333 42.833 184.166 70.5 248.499s63.667 114.666 108 150.999s99 61.333 164 75s144.167 20.5 237.5 20.5c30.667 0 62.667 -0.5 96 -1.5s66.5 -2.5 99.5 -4.5s65.333 -4.33301 97 -7s61.5 -5.33398 89.5 -8.00098c10.667 -0.666992 15 -6.66699 13 -18
l-193 -1039c-1.33301 -6 -3.33301 -10.167 -6 -12.5s-7 -4.16602 -13 -5.49902c-67.333 -7.33301 -132.833 -12.833 -196.5 -16.5s-124.834 -5.5 -183.501 -5.5zM597.999 1412c-10.667 0 -20.3301 -1.33496 -28.9971 -4.00195s-16.5 -8.66699 -23.5 -18
s-13.667 -22.666 -20 -39.999s-12.5 -40.666 -18.5 -69.999c-2 -10.667 -8.33301 -16 -19 -16h-94c-11.333 0 -16 5.33301 -14 16c6.66699 56 17.334 101.167 32.001 135.5s31.667 60.833 51 79.5s40.666 31 63.999 37s47.333 9 72 9c14 0 27 -1.16699 39 -3.5
s24.167 -6.5 36.5 -12.5s25.166 -14 38.499 -24s28.666 -22.333 45.999 -37c29.333 -27.333 52.5 -46.5 69.5 -57.5s33.833 -16.5 50.5 -16.5c10.667 0 20.167 1.33301 28.5 4s16.166 8.5 23.499 17.5s14 22.333 20 40s12 41.167 18 70.5c2 10.667 8.33301 16 19 16h95
c11.333 0 16 -5.33301 14 -16c-7.33301 -56.667 -18.166 -102.167 -32.499 -136.5s-31.333 -60.833 -51 -79.5s-41.167 -31 -64.5 -37s-47 -9 -71 -9c-14 0 -27.167 1.16699 -39.5 3.5s-24.5 6.5 -36.5 12.5s-24.833 14 -38.5 24s-28.834 22.667 -45.501 38l-39.5 34
c-11 9.33301 -21.167 17 -30.5 23s-18 10.333 -26 13s-16 4 -24 4z" />
    <glyph glyph-name="adieresis" unicode="&#xe4;" horiz-adv-x="1183" 
d="M902 929c-30 3.33301 -64 6.16699 -102 8.5s-79.333 3.5 -124 3.5c-66 0 -121 -5.66699 -165 -17s-80.333 -31 -109 -59s-51.834 -65.5 -69.501 -112.5s-33.5 -105.833 -47.5 -176.5l-14 -74c-13.333 -72 -20 -132 -20 -180s9.33301 -86.333 28 -115
s48.334 -49 89.001 -61s95 -18 163 -18c40 0 80.167 1 120.5 3s74.5 4.66699 102.5 8zM505 -23.999c-95.333 0 -173.167 9.66895 -233.5 29.002s-106.166 49.166 -137.499 89.499s-49.333 91.833 -54 154.5s1.33301 137.334 18 224.001l24 126
c19.333 101.333 42.833 184.166 70.5 248.499s63.667 114.666 108 150.999s99 61.333 164 75s144.167 20.5 237.5 20.5c30.667 0 62.667 -0.5 96 -1.5s66.5 -2.5 99.5 -4.5s65.333 -4.33301 97 -7s61.5 -5.33398 89.5 -8.00098c10.667 -0.666992 15 -6.66699 13 -18
l-193 -1039c-1.33301 -6 -3.33301 -10.167 -6 -12.5s-7 -4.16602 -13 -5.49902c-67.333 -7.33301 -132.833 -12.833 -196.5 -16.5s-124.834 -5.5 -183.501 -5.5zM475.999 1243c-10.667 0 -15 5.33301 -13 16l50 265c2 10.667 8.33301 17 19 19l148 23
c10.667 2 15 -2.33301 13 -13l-55 -294c-2 -10.667 -8.33301 -16 -19 -16h-143zM813.999 1243c-10.667 0 -15 5.33301 -13 16l49 265c2 10.667 8.33301 17 19 19l149 23c10.667 2 15 -2.33301 13 -13l-55 -294c-2 -10.667 -8.33301 -16 -19 -16h-143z" />
    <glyph glyph-name="aring" unicode="&#xe5;" horiz-adv-x="1183" 
d="M902 929c-30 3.33301 -64 6.16699 -102 8.5s-79.333 3.5 -124 3.5c-66 0 -121 -5.66699 -165 -17s-80.333 -31 -109 -59s-51.834 -65.5 -69.501 -112.5s-33.5 -105.833 -47.5 -176.5l-14 -74c-13.333 -72 -20 -132 -20 -180s9.33301 -86.333 28 -115
s48.334 -49 89.001 -61s95 -18 163 -18c40 0 80.167 1 120.5 3s74.5 4.66699 102.5 8zM505 -23.999c-95.333 0 -173.167 9.66895 -233.5 29.002s-106.166 49.166 -137.499 89.499s-49.333 91.833 -54 154.5s1.33301 137.334 18 224.001l24 126
c19.333 101.333 42.833 184.166 70.5 248.499s63.667 114.666 108 150.999s99 61.333 164 75s144.167 20.5 237.5 20.5c30.667 0 62.667 -0.5 96 -1.5s66.5 -2.5 99.5 -4.5s65.333 -4.33301 97 -7s61.5 -5.33398 89.5 -8.00098c10.667 -0.666992 15 -6.66699 13 -18
l-193 -1039c-1.33301 -6 -3.33301 -10.167 -6 -12.5s-7 -4.16602 -13 -5.49902c-67.333 -7.33301 -132.833 -12.833 -196.5 -16.5s-124.834 -5.5 -183.501 -5.5zM745.999 1489c-42.667 0 -73.667 -8.33398 -93 -25.001s-29 -45 -29 -85
c0 -25.333 7.66699 -42.666 23 -51.999s37.333 -14 66 -14c44 0 75.333 8.5 94 25.5s28 45.833 28 86.5c0 24.667 -7.33301 41.5 -22 50.5s-37 13.5 -67 13.5zM689.999 1211c-63.333 0 -110.169 12.999 -140.502 38.999s-45.5 63.333 -45.5 112
c0 70 20.833 125.833 62.5 167.5s106.5 62.5 194.5 62.5c62.667 0 109.334 -13.167 140.001 -39.5s46 -64.166 46 -113.499c0 -34.667 -5.5 -66 -16.5 -94s-27.167 -52 -48.5 -72s-48.166 -35.333 -80.499 -46s-69.5 -16 -111.5 -16z" />
    <glyph glyph-name="ae" unicode="&#xe6;" horiz-adv-x="1874" 
d="M1206 -24c-133.333 0 -232.003 24.6689 -296.003 74.002l-6 -34c-1.33301 -6 -3.33301 -10.167 -6 -12.5s-7 -4.16602 -13 -5.49902c-67.333 -7.33301 -132.833 -12.833 -196.5 -16.5s-124.834 -5.5 -183.501 -5.5c-95.333 0 -173.166 9.66699 -233.499 29
s-106.166 49.166 -137.499 89.499s-49.333 91.833 -54 154.5s1.33301 137.334 18 224.001l24 126c19.333 101.333 42.833 184.166 70.5 248.499s63.667 114.666 108 150.999s99 61.333 164 75s144.167 20.5 237.5 20.5c30.667 0 62.667 -0.5 96 -1.5s66.5 -2.5 99.5 -4.5
s65.333 -4.33301 97 -7s61.5 -5.33398 89.5 -8.00098c10.667 -0.666992 15 -6.66699 13 -18l-5 -25c40.667 22 86.5 38.167 137.5 48.5s108.5 15.5 172.5 15.5c69.333 0 128.833 -7.83301 178.5 -23.5s90.5 -38.5 122.5 -68.5s55.667 -67 71 -111s23 -94.333 23 -151
c0 -33.333 -2.16699 -64.5 -6.5 -93.5s-9.66602 -55 -15.999 -78s-12.833 -43 -19.5 -60s-12 -29.833 -16 -38.5c-2.66699 -5.33301 -5.5 -9 -8.5 -11s-7.5 -3 -13.5 -3l-731 -1c-9.33301 -63.333 -12.166 -116 -8.49902 -158s15.5 -75.5 35.5 -100.5
s48.833 -42.833 86.5 -53.5s85.5 -16 143.5 -16c56.667 0 114 1.16699 172 3.5s118.667 6.16602 182 11.499c10.667 0.666992 15.667 -4.33301 15 -15l-8 -111c-0.666992 -6 -2.16699 -10.167 -4.5 -12.5s-6.5 -4.16602 -12.5 -5.49902
c-60.667 -6.66699 -121.667 -12 -183 -16s-127.333 -6 -198 -6zM901.997 929.002c-30 3.33301 -64 6.16699 -102 8.5s-79.333 3.5 -124 3.5c-66 0 -121 -5.66699 -165 -17s-80.333 -31 -109 -59s-51.834 -65.5 -69.501 -112.5s-33.5 -105.833 -47.5 -176.5l-14 -74
c-13.333 -72 -20 -132 -20 -180s9.33301 -86.333 28 -115s48.334 -49 89.001 -61s95 -18 163 -18c40 0 80.167 1 120.5 3s74.5 4.66699 102.5 8zM1621 608.003c8 59.333 10.501 110.168 7.50098 152.501s-13.833 77 -32.5 104s-46 46.667 -82 59s-82.667 18.5 -140 18.5
c-54 0 -100.5 -6 -139.5 -18s-72.5 -30.833 -100.5 -56.5s-51.333 -58.334 -70 -98.001s-34.334 -87.5 -47.001 -143.5l-5 -30z" />
    <glyph glyph-name="ccedilla" unicode="&#xe7;" horiz-adv-x="957" 
d="M504 -24c-94 0 -170.664 9.16797 -229.997 27.501s-104.5 47.666 -135.5 87.999s-49 92.833 -54 157.5s0.166992 143.334 15.5 236.001l17 101c16 96 38 176.5 66 241.5s65 117.333 111 157s103 67.834 171 84.501s150.667 25 248 25c44.667 0 86.834 -2 126.501 -6
s75.5 -9 107.5 -15c11.333 -2 15 -8 11 -18l-36 -117c-3.33301 -9.33301 -10.333 -13.666 -21 -12.999c-32.667 5.33301 -67.334 8.83301 -104.001 10.5s-73.334 2.5 -110.001 2.5c-67.333 0 -123.5 -6 -168.5 -18s-82.5 -32.333 -112.5 -61s-54 -66.834 -72 -114.501
s-33.333 -106.834 -46 -177.501l-13 -65c-13.333 -72 -19.833 -131.833 -19.5 -179.5s10.166 -85.667 29.499 -114s49.333 -48.333 90 -60s95 -17.5 163 -17.5c39.333 0 77.833 1.16699 115.5 3.5s73.167 6.16602 106.5 11.499c10.667 2 15.667 -2.33301 15 -13l-10 -116
c-0.666992 -10.667 -6.33398 -17 -17.001 -19c-16.667 -3.33301 -35 -6.33301 -55 -9s-40.667 -5 -62 -7s-42.833 -3.5 -64.5 -4.5s-42.5 -1.5 -62.5 -1.5zM175.003 -388.999c-11.333 0 -13.666 4.33301 -6.99902 13l193 261c6 8.66699 14.333 13 25 13h141
c11.333 0 13.666 -4.33301 6.99902 -13l-174 -261c-6 -8.66699 -14.333 -13 -25 -13h-160z" />
    <glyph glyph-name="egrave" unicode="&#xe8;" horiz-adv-x="1149" 
d="M481 -24c-86.667 0 -158.168 10.165 -214.501 30.498s-99.5 51.833 -129.5 94.5s-47.667 96.667 -53 162s-0.333008 143 15 233l15 88c16 92 38.333 170.333 67 235s65.5 117.334 110.5 158.001s99.167 70.334 162.5 89.001s137.666 28 222.999 28
c69.333 0 128.833 -7.83301 178.5 -23.5s90.5 -38.5 122.5 -68.5s55.667 -67 71 -111s23 -94.333 23 -151c0 -33.333 -2.16699 -64.5 -6.5 -93.5s-9.66602 -55 -15.999 -78s-12.833 -43 -19.5 -60s-12 -29.833 -16 -38.5c-2.66699 -5.33301 -5.5 -9 -8.5 -11
s-7.5 -3 -13.5 -3l-731 -1c-9.33301 -63.333 -12.166 -116 -8.49902 -158s15.5 -75.5 35.5 -100.5s48.833 -42.833 86.5 -53.5s85.5 -16 143.5 -16c56.667 0 114 1.16699 172 3.5s118.667 6.16602 182 11.499c10.667 0.666992 15.667 -4.33301 15 -15l-8 -111
c-0.666992 -6 -2.16699 -10.167 -4.5 -12.5s-6.5 -4.16602 -12.5 -5.49902c-60.667 -6.66699 -121.667 -12 -183 -16s-127.333 -6 -198 -6zM895.999 607.998c8 59.333 10.498 110.167 7.49805 152.5s-13.833 77 -32.5 104s-46 46.667 -82 59s-82.667 18.5 -140 18.5
c-56 0 -104.167 -6.5 -144.5 -19.5s-74.666 -33.5 -102.999 -61.5s-51.666 -63.833 -69.999 -107.5s-33.5 -96.167 -45.5 -157.5zM688.997 1264c-10.667 0 -19.332 4.33301 -25.999 13l-180 238c-6.66699 8.66699 -4.66699 13 6 13h192c10.667 0 18.667 -4.66699 24 -14
l133 -236c5.33301 -9.33301 2.66602 -14 -8.00098 -14h-141z" />
    <glyph glyph-name="eacute" unicode="&#xe9;" horiz-adv-x="1149" 
d="M481 -24c-86.667 0 -158.168 10.165 -214.501 30.498s-99.5 51.833 -129.5 94.5s-47.667 96.667 -53 162s-0.333008 143 15 233l15 88c16 92 38.333 170.333 67 235s65.5 117.334 110.5 158.001s99.167 70.334 162.5 89.001s137.666 28 222.999 28
c69.333 0 128.833 -7.83301 178.5 -23.5s90.5 -38.5 122.5 -68.5s55.667 -67 71 -111s23 -94.333 23 -151c0 -33.333 -2.16699 -64.5 -6.5 -93.5s-9.66602 -55 -15.999 -78s-12.833 -43 -19.5 -60s-12 -29.833 -16 -38.5c-2.66699 -5.33301 -5.5 -9 -8.5 -11
s-7.5 -3 -13.5 -3l-731 -1c-9.33301 -63.333 -12.166 -116 -8.49902 -158s15.5 -75.5 35.5 -100.5s48.833 -42.833 86.5 -53.5s85.5 -16 143.5 -16c56.667 0 114 1.16699 172 3.5s118.667 6.16602 182 11.499c10.667 0.666992 15.667 -4.33301 15 -15l-8 -111
c-0.666992 -6 -2.16699 -10.167 -4.5 -12.5s-6.5 -4.16602 -12.5 -5.49902c-60.667 -6.66699 -121.667 -12 -183 -16s-127.333 -6 -198 -6zM895.999 607.998c8 59.333 10.498 110.167 7.49805 152.5s-13.833 77 -32.5 104s-46 46.667 -82 59s-82.667 18.5 -140 18.5
c-56 0 -104.167 -6.5 -144.5 -19.5s-74.666 -33.5 -102.999 -61.5s-51.666 -63.833 -69.999 -107.5s-33.5 -96.167 -45.5 -157.5zM566.997 1264c-11.333 0 -13 4 -5 12l230 240c7.33301 8 16.333 12 27 12h206c10.667 0 12 -3.33301 4 -10l-282 -244
c-4.66699 -3.33301 -9 -5.83301 -13 -7.5s-9 -2.5 -15 -2.5h-152z" />
    <glyph glyph-name="ecircumflex" unicode="&#xea;" horiz-adv-x="1149" 
d="M481 -24c-86.667 0 -158.168 10.165 -214.501 30.498s-99.5 51.833 -129.5 94.5s-47.667 96.667 -53 162s-0.333008 143 15 233l15 88c16 92 38.333 170.333 67 235s65.5 117.334 110.5 158.001s99.167 70.334 162.5 89.001s137.666 28 222.999 28
c69.333 0 128.833 -7.83301 178.5 -23.5s90.5 -38.5 122.5 -68.5s55.667 -67 71 -111s23 -94.333 23 -151c0 -33.333 -2.16699 -64.5 -6.5 -93.5s-9.66602 -55 -15.999 -78s-12.833 -43 -19.5 -60s-12 -29.833 -16 -38.5c-2.66699 -5.33301 -5.5 -9 -8.5 -11
s-7.5 -3 -13.5 -3l-731 -1c-9.33301 -63.333 -12.166 -116 -8.49902 -158s15.5 -75.5 35.5 -100.5s48.833 -42.833 86.5 -53.5s85.5 -16 143.5 -16c56.667 0 114 1.16699 172 3.5s118.667 6.16602 182 11.499c10.667 0.666992 15.667 -4.33301 15 -15l-8 -111
c-0.666992 -6 -2.16699 -10.167 -4.5 -12.5s-6.5 -4.16602 -12.5 -5.49902c-60.667 -6.66699 -121.667 -12 -183 -16s-127.333 -6 -198 -6zM895.999 607.998c8 59.333 10.498 110.167 7.49805 152.5s-13.833 77 -32.5 104s-46 46.667 -82 59s-82.667 18.5 -140 18.5
c-56 0 -104.167 -6.5 -144.5 -19.5s-74.666 -33.5 -102.999 -61.5s-51.666 -63.833 -69.999 -107.5s-33.5 -96.167 -45.5 -157.5zM998.997 1274c6.66699 -8.66699 4.33301 -13 -7 -13h-145c-10.667 0 -18.667 4.66699 -24 14l-81 143h-21l-134 -145
c-7.33301 -8 -16.333 -12 -27 -12h-166c-10 0 -11.333 3.66699 -4 11l257 245c8 7.33301 17.333 11 28 11h135c10.667 0 19 -4.33301 25 -13z" />
    <glyph glyph-name="edieresis" unicode="&#xeb;" horiz-adv-x="1149" 
d="M481 -24c-86.667 0 -158.168 10.165 -214.501 30.498s-99.5 51.833 -129.5 94.5s-47.667 96.667 -53 162s-0.333008 143 15 233l15 88c16 92 38.333 170.333 67 235s65.5 117.334 110.5 158.001s99.167 70.334 162.5 89.001s137.666 28 222.999 28
c69.333 0 128.833 -7.83301 178.5 -23.5s90.5 -38.5 122.5 -68.5s55.667 -67 71 -111s23 -94.333 23 -151c0 -33.333 -2.16699 -64.5 -6.5 -93.5s-9.66602 -55 -15.999 -78s-12.833 -43 -19.5 -60s-12 -29.833 -16 -38.5c-2.66699 -5.33301 -5.5 -9 -8.5 -11
s-7.5 -3 -13.5 -3l-731 -1c-9.33301 -63.333 -12.166 -116 -8.49902 -158s15.5 -75.5 35.5 -100.5s48.833 -42.833 86.5 -53.5s85.5 -16 143.5 -16c56.667 0 114 1.16699 172 3.5s118.667 6.16602 182 11.499c10.667 0.666992 15.667 -4.33301 15 -15l-8 -111
c-0.666992 -6 -2.16699 -10.167 -4.5 -12.5s-6.5 -4.16602 -12.5 -5.49902c-60.667 -6.66699 -121.667 -12 -183 -16s-127.333 -6 -198 -6zM895.999 607.998c8 59.333 10.498 110.167 7.49805 152.5s-13.833 77 -32.5 104s-46 46.667 -82 59s-82.667 18.5 -140 18.5
c-56 0 -104.167 -6.5 -144.5 -19.5s-74.666 -33.5 -102.999 -61.5s-51.666 -63.833 -69.999 -107.5s-33.5 -96.167 -45.5 -157.5zM438.997 1243c-10.667 0 -15 5.33301 -13 16l50 265c2 10.667 8.33301 17 19 19l148 23c10.667 2 15 -2.33301 13 -13l-55 -294
c-2 -10.667 -8.33301 -16 -19 -16h-143zM776.997 1243c-10.667 0 -15 5.33301 -13 16l49 265c2 10.667 8.33301 17 19 19l149 23c10.667 2 15 -2.33301 13 -13l-55 -294c-2 -10.667 -8.33301 -16 -19 -16h-143z" />
    <glyph glyph-name="igrave" unicode="&#xec;" horiz-adv-x="510" 
d="M71 0c-10.667 0 -15 5.33301 -13 16l192 1039c2 10.667 8.33301 16 19 16h140c10.667 0 15 -5.33301 13 -16l-193 -1039c-2 -10.667 -8.33301 -16 -19 -16h-139zM368 1264c-10.667 0 -19.332 4.33301 -25.999 13l-180 238c-6.66699 8.66699 -4.66699 13 6 13h192
c10.667 0 18.667 -4.66699 24 -14l133 -236c5.33301 -9.33301 2.66602 -14 -8.00098 -14h-141z" />
    <glyph glyph-name="iacute" unicode="&#xed;" horiz-adv-x="509" 
d="M70 0c-10.667 0 -15 5.33301 -13 16l192 1039c2 10.667 8.33301 16 19 16h140c10.667 0 15 -5.33301 13 -16l-193 -1039c-2 -10.667 -8.33301 -16 -19 -16h-139zM189 1264c-11.333 0 -13 4 -5 12l230 240c7.33301 8 16.333 12 27 12h206c10.667 0 12 -3.33301 4 -10
l-282 -244c-4.66699 -3.33301 -9 -5.83301 -13 -7.5s-9 -2.5 -15 -2.5h-152z" />
    <glyph glyph-name="icircumflex" unicode="&#xee;" horiz-adv-x="509" 
d="M70 0c-10.667 0 -15 5.33301 -13 16l192 1039c2 10.667 8.33301 16 19 16h140c10.667 0 15 -5.33301 13 -16l-193 -1039c-2 -10.667 -8.33301 -16 -19 -16h-139zM672 1274c6.66699 -8.66699 4.33301 -13 -7 -13h-145c-10.667 0 -18.667 4.66699 -24 14l-81 143h-21
l-134 -145c-7.33301 -8 -16.333 -12 -27 -12h-166c-10 0 -11.333 3.66699 -4 11l257 245c8 7.33301 17.333 11 28 11h135c10.667 0 19 -4.33301 25 -13z" />
    <glyph glyph-name="idieresis" unicode="&#xef;" horiz-adv-x="509" 
d="M70 0c-10.667 0 -15 5.33301 -13 16l192 1039c2 10.667 8.33301 16 19 16h140c10.667 0 15 -5.33301 13 -16l-193 -1039c-2 -10.667 -8.33301 -16 -19 -16h-139zM130 1243c-10.667 0 -15 5.33301 -13 16l50 265c2 10.667 8.33301 17 19 19l148 23
c10.667 2 15 -2.33301 13 -13l-55 -294c-2 -10.667 -8.33301 -16 -19 -16h-143zM468 1243c-10.667 0 -15 5.33301 -13 16l49 265c2 10.667 8.33301 17 19 19l149 23c10.667 2 15 -2.33301 13 -13l-55 -294c-2 -10.667 -8.33301 -16 -19 -16h-143z" />
    <glyph glyph-name="eth" unicode="&#xf0;" horiz-adv-x="1184" 
d="M888 1388c46.667 -41.333 83.665 -88.8311 110.998 -142.498s46.5 -114.334 57.5 -182.001s14 -142.5 9 -224.5s-16.5 -172 -34.5 -270l-14 -75c-18 -98 -41.333 -180.167 -70 -246.5s-64.334 -119.5 -107.001 -159.5s-93.834 -68.667 -153.501 -86
s-129.5 -26 -209.5 -26c-86 0 -157 11.167 -213 33.5s-99 55.333 -129 99s-47.667 97.667 -53 162s0 138.833 16 223.5l14 75c18 96 41 177 69 243s63.333 119.5 106 160.5s93.334 70.667 152.001 89s128 27.5 208 27.5c58 0 108.833 -7 152.5 -21s81.5 -33.667 113.5 -59
c-24 124 -79.333 221.667 -166 293l-259 -157c-9.33301 -5.33301 -16.666 -3.33301 -21.999 6l-44 80c-5.33301 9.33301 -3.33301 16.666 6 21.999l201 123c-33.333 16 -69.166 30.167 -107.499 42.5s-79.833 23.166 -124.5 32.499c-10.667 2 -14 8 -10 18l38 98
c2.66699 5.33301 5.5 9 8.5 11s7.5 2.33301 13.5 1c132 -28 241.667 -65.667 329 -113l214 131c9.33301 5.33301 16.333 3.33301 21 -6l44 -83c4.66699 -9.33301 2.33398 -16.666 -6.99902 -21.999zM645.998 939.002c-56 0 -104.169 -7.16602 -144.502 -21.499
s-74.666 -36.833 -102.999 -67.5s-51.666 -70 -69.999 -118s-33.833 -105.667 -46.5 -173l-10 -55c-12.667 -68 -19 -125.833 -19 -173.5s8.33301 -86.667 25 -117s42.167 -52.5 76.5 -66.5s79.166 -21 134.499 -21c56.667 0 105.667 7.16699 147 21.5
s76.5 36.666 105.5 66.999s52.833 69.5 71.5 117.5s34 106 46 174l10 53c12.667 67.333 18.834 125 18.501 173s-8.83301 87.333 -25.5 118s-42.667 53.167 -78 67.5s-81.333 21.5 -138 21.5z" />
    <glyph glyph-name="ntilde" unicode="&#xf1;" horiz-adv-x="1210" 
d="M67 0c-10.667 0 -14.9971 5.33496 -12.9971 16.002l197 1058c2 10.667 8.33301 16 19 16h106c6 0 10.167 -1.16699 12.5 -3.5s4.16602 -6.5 5.49902 -12.5l8 -75c28.667 15.333 59.167 28.833 91.5 40.5s65 21.5 98 29.5s65.5 14.167 97.5 18.5s62.333 6.5 91 6.5
c68.667 0 124.5 -9.16699 167.5 -27.5s75.167 -46.5 96.5 -84.5s32.666 -85.833 33.999 -143.5s-5.33398 -125.834 -20.001 -204.501l-114 -618c-2 -10.667 -8.33301 -16 -19 -16h-140c-10.667 0 -15 5.33301 -13 16l110 593c10.667 60.667 16.667 111.5 18 152.5
s-4.83398 73.667 -18.501 98s-35.5 41.666 -65.5 51.999s-70.333 15.5 -121 15.5c-24 0 -49.167 -1.5 -75.5 -4.5s-53.166 -7.5 -80.499 -13.5s-54.333 -13.5 -81 -22.5s-52 -19.5 -76 -31.5l-156 -839c-2 -10.667 -8.33301 -16 -19 -16h-140zM598.003 1412
c-10.667 0 -20.3301 -1.33496 -28.9971 -4.00195s-16.5 -8.66699 -23.5 -18s-13.667 -22.666 -20 -39.999s-12.5 -40.666 -18.5 -69.999c-2 -10.667 -8.33301 -16 -19 -16h-94c-11.333 0 -16 5.33301 -14 16c6.66699 56 17.334 101.167 32.001 135.5s31.667 60.833 51 79.5
s40.666 31 63.999 37s47.333 9 72 9c14 0 27 -1.16699 39 -3.5s24.167 -6.5 36.5 -12.5s25.166 -14 38.499 -24s28.666 -22.333 45.999 -37c29.333 -27.333 52.5 -46.5 69.5 -57.5s33.833 -16.5 50.5 -16.5c10.667 0 20.167 1.33301 28.5 4s16.166 8.5 23.499 17.5
s14 22.333 20 40s12 41.167 18 70.5c2 10.667 8.33301 16 19 16h95c11.333 0 16 -5.33301 14 -16c-7.33301 -56.667 -18.166 -102.167 -32.499 -136.5s-31.333 -60.833 -51 -79.5s-41.167 -31 -64.5 -37s-47 -9 -71 -9c-14 0 -27.167 1.16699 -39.5 3.5
s-24.5 6.5 -36.5 12.5s-24.833 14 -38.5 24s-28.834 22.667 -45.501 38l-39.5 34c-11 9.33301 -21.167 17 -30.5 23s-18 10.333 -26 13s-16 4 -24 4z" />
    <glyph glyph-name="ograve" unicode="&#xf2;" horiz-adv-x="1179" 
d="M649 942c-58 0 -107.499 -6.83203 -148.499 -20.499s-75.667 -35.334 -104 -65.001s-51.5 -68 -69.5 -115s-33.333 -103.833 -46 -170.5l-13 -73c-12 -66 -17.667 -122.5 -17 -169.5s9.5 -85.5 26.5 -115.5s43.333 -51.833 79 -65.5s82.5 -20.5 140.5 -20.5
s107.5 6.83301 148.5 20.5s75.667 35.5 104 65.5s51.666 68.5 69.999 115.5s33.833 104.167 46.5 171.5l13 71c12 66 17.833 122.5 17.5 169.5s-9.16602 85.5 -26.499 115.5s-43.833 51.833 -79.5 65.5s-82.834 20.5 -141.501 20.5zM470.001 -23.999
c-84 0 -153.67 10.665 -209.003 31.998s-97.833 53.5 -127.5 96.5s-47.167 96.333 -52.5 160s0 138.167 16 223.5l17 91c18 94.667 41.667 174.834 71 240.501s66.5 118.834 111.5 159.501s98.667 70 161 88s135.5 27 219.5 27c84.667 0 154.834 -10.5 210.501 -31.5
s98.334 -52.667 128.001 -95s47 -95.833 52 -160.5s-0.833008 -140.667 -17.5 -228l-16 -91c-16.667 -95.333 -39.667 -175.5 -69 -240.5s-66.666 -117.667 -111.999 -158s-99.5 -69.333 -162.5 -87s-136.5 -26.5 -220.5 -26.5zM682.998 1264
c-10.667 0 -19.332 4.33301 -25.999 13l-180 238c-6.66699 8.66699 -4.66699 13 6 13h192c10.667 0 18.667 -4.66699 24 -14l133 -236c5.33301 -9.33301 2.66602 -14 -8.00098 -14h-141z" />
    <glyph glyph-name="oacute" unicode="&#xf3;" horiz-adv-x="1179" 
d="M649 942c-58 0 -107.499 -6.83203 -148.499 -20.499s-75.667 -35.334 -104 -65.001s-51.5 -68 -69.5 -115s-33.333 -103.833 -46 -170.5l-13 -73c-12 -66 -17.667 -122.5 -17 -169.5s9.5 -85.5 26.5 -115.5s43.333 -51.833 79 -65.5s82.5 -20.5 140.5 -20.5
s107.5 6.83301 148.5 20.5s75.667 35.5 104 65.5s51.666 68.5 69.999 115.5s33.833 104.167 46.5 171.5l13 71c12 66 17.833 122.5 17.5 169.5s-9.16602 85.5 -26.499 115.5s-43.833 51.833 -79.5 65.5s-82.834 20.5 -141.501 20.5zM470.001 -23.999
c-84 0 -153.67 10.665 -209.003 31.998s-97.833 53.5 -127.5 96.5s-47.167 96.333 -52.5 160s0 138.167 16 223.5l17 91c18 94.667 41.667 174.834 71 240.501s66.5 118.834 111.5 159.501s98.667 70 161 88s135.5 27 219.5 27c84.667 0 154.834 -10.5 210.501 -31.5
s98.334 -52.667 128.001 -95s47 -95.833 52 -160.5s-0.833008 -140.667 -17.5 -228l-16 -91c-16.667 -95.333 -39.667 -175.5 -69 -240.5s-66.666 -117.667 -111.999 -158s-99.5 -69.333 -162.5 -87s-136.5 -26.5 -220.5 -26.5zM552.998 1264c-11.333 0 -13 4 -5 12l230 240
c7.33301 8 16.333 12 27 12h206c10.667 0 12 -3.33301 4 -10l-282 -244c-4.66699 -3.33301 -9 -5.83301 -13 -7.5s-9 -2.5 -15 -2.5h-152z" />
    <glyph glyph-name="ocircumflex" unicode="&#xf4;" horiz-adv-x="1179" 
d="M649 942c-58 0 -107.499 -6.83203 -148.499 -20.499s-75.667 -35.334 -104 -65.001s-51.5 -68 -69.5 -115s-33.333 -103.833 -46 -170.5l-13 -73c-12 -66 -17.667 -122.5 -17 -169.5s9.5 -85.5 26.5 -115.5s43.333 -51.833 79 -65.5s82.5 -20.5 140.5 -20.5
s107.5 6.83301 148.5 20.5s75.667 35.5 104 65.5s51.666 68.5 69.999 115.5s33.833 104.167 46.5 171.5l13 71c12 66 17.833 122.5 17.5 169.5s-9.16602 85.5 -26.499 115.5s-43.833 51.833 -79.5 65.5s-82.834 20.5 -141.501 20.5zM470.001 -23.999
c-84 0 -153.67 10.665 -209.003 31.998s-97.833 53.5 -127.5 96.5s-47.167 96.333 -52.5 160s0 138.167 16 223.5l17 91c18 94.667 41.667 174.834 71 240.501s66.5 118.834 111.5 159.501s98.667 70 161 88s135.5 27 219.5 27c84.667 0 154.834 -10.5 210.501 -31.5
s98.334 -52.667 128.001 -95s47 -95.833 52 -160.5s-0.833008 -140.667 -17.5 -228l-16 -91c-16.667 -95.333 -39.667 -175.5 -69 -240.5s-66.666 -117.667 -111.999 -158s-99.5 -69.333 -162.5 -87s-136.5 -26.5 -220.5 -26.5zM1004 1274
c6.66699 -8.66699 4.33301 -13 -7 -13h-145c-10.667 0 -18.667 4.66699 -24 14l-81 143h-21l-134 -145c-7.33301 -8 -16.333 -12 -27 -12h-166c-10 0 -11.333 3.66699 -4 11l257 245c8 7.33301 17.333 11 28 11h135c10.667 0 19 -4.33301 25 -13z" />
    <glyph glyph-name="otilde" unicode="&#xf5;" horiz-adv-x="1179" 
d="M649 942c-58 0 -107.499 -6.83203 -148.499 -20.499s-75.667 -35.334 -104 -65.001s-51.5 -68 -69.5 -115s-33.333 -103.833 -46 -170.5l-13 -73c-12 -66 -17.667 -122.5 -17 -169.5s9.5 -85.5 26.5 -115.5s43.333 -51.833 79 -65.5s82.5 -20.5 140.5 -20.5
s107.5 6.83301 148.5 20.5s75.667 35.5 104 65.5s51.666 68.5 69.999 115.5s33.833 104.167 46.5 171.5l13 71c12 66 17.833 122.5 17.5 169.5s-9.16602 85.5 -26.499 115.5s-43.833 51.833 -79.5 65.5s-82.834 20.5 -141.501 20.5zM470.001 -23.999
c-84 0 -153.67 10.665 -209.003 31.998s-97.833 53.5 -127.5 96.5s-47.167 96.333 -52.5 160s0 138.167 16 223.5l17 91c18 94.667 41.667 174.834 71 240.501s66.5 118.834 111.5 159.501s98.667 70 161 88s135.5 27 219.5 27c84.667 0 154.834 -10.5 210.501 -31.5
s98.334 -52.667 128.001 -95s47 -95.833 52 -160.5s-0.833008 -140.667 -17.5 -228l-16 -91c-16.667 -95.333 -39.667 -175.5 -69 -240.5s-66.666 -117.667 -111.999 -158s-99.5 -69.333 -162.5 -87s-136.5 -26.5 -220.5 -26.5zM575.998 1412
c-10.667 0 -20.3301 -1.33496 -28.9971 -4.00195s-16.5 -8.66699 -23.5 -18s-13.667 -22.666 -20 -39.999s-12.5 -40.666 -18.5 -69.999c-2 -10.667 -8.33301 -16 -19 -16h-94c-11.333 0 -16 5.33301 -14 16c6.66699 56 17.334 101.167 32.001 135.5s31.667 60.833 51 79.5
s40.666 31 63.999 37s47.333 9 72 9c14 0 27 -1.16699 39 -3.5s24.167 -6.5 36.5 -12.5s25.166 -14 38.499 -24s28.666 -22.333 45.999 -37c29.333 -27.333 52.5 -46.5 69.5 -57.5s33.833 -16.5 50.5 -16.5c10.667 0 20.167 1.33301 28.5 4s16.166 8.5 23.499 17.5
s14 22.333 20 40s12 41.167 18 70.5c2 10.667 8.33301 16 19 16h95c11.333 0 16 -5.33301 14 -16c-7.33301 -56.667 -18.166 -102.167 -32.499 -136.5s-31.333 -60.833 -51 -79.5s-41.167 -31 -64.5 -37s-47 -9 -71 -9c-14 0 -27.167 1.16699 -39.5 3.5
s-24.5 6.5 -36.5 12.5s-24.833 14 -38.5 24s-28.834 22.667 -45.501 38l-39.5 34c-11 9.33301 -21.167 17 -30.5 23s-18 10.333 -26 13s-16 4 -24 4z" />
    <glyph glyph-name="odieresis" unicode="&#xf6;" horiz-adv-x="1179" 
d="M649 942c-58 0 -107.499 -6.83203 -148.499 -20.499s-75.667 -35.334 -104 -65.001s-51.5 -68 -69.5 -115s-33.333 -103.833 -46 -170.5l-13 -73c-12 -66 -17.667 -122.5 -17 -169.5s9.5 -85.5 26.5 -115.5s43.333 -51.833 79 -65.5s82.5 -20.5 140.5 -20.5
s107.5 6.83301 148.5 20.5s75.667 35.5 104 65.5s51.666 68.5 69.999 115.5s33.833 104.167 46.5 171.5l13 71c12 66 17.833 122.5 17.5 169.5s-9.16602 85.5 -26.499 115.5s-43.833 51.833 -79.5 65.5s-82.834 20.5 -141.501 20.5zM470.001 -23.999
c-84 0 -153.67 10.665 -209.003 31.998s-97.833 53.5 -127.5 96.5s-47.167 96.333 -52.5 160s0 138.167 16 223.5l17 91c18 94.667 41.667 174.834 71 240.501s66.5 118.834 111.5 159.501s98.667 70 161 88s135.5 27 219.5 27c84.667 0 154.834 -10.5 210.501 -31.5
s98.334 -52.667 128.001 -95s47 -95.833 52 -160.5s-0.833008 -140.667 -17.5 -228l-16 -91c-16.667 -95.333 -39.667 -175.5 -69 -240.5s-66.666 -117.667 -111.999 -158s-99.5 -69.333 -162.5 -87s-136.5 -26.5 -220.5 -26.5zM449.998 1243c-10.667 0 -15 5.33301 -13 16
l50 265c2 10.667 8.33301 17 19 19l148 23c10.667 2 15 -2.33301 13 -13l-55 -294c-2 -10.667 -8.33301 -16 -19 -16h-143zM787.998 1243c-10.667 0 -15 5.33301 -13 16l49 265c2 10.667 8.33301 17 19 19l149 23c10.667 2 15 -2.33301 13 -13l-55 -294
c-2 -10.667 -8.33301 -16 -19 -16h-143z" />
    <glyph glyph-name="divide" unicode="&#xf7;" horiz-adv-x="1115" 
d="M143 705c-10.667 0 -15 5.33301 -13 16l24 135c2 10.667 8.33301 16 19 16h858c10.667 0 15 -5.33301 13 -16l-25 -135c-2 -10.667 -8.33301 -16 -19 -16h-857zM416 266c-10.667 0 -15 5.33301 -13 16l42 228c2 11.333 8.33301 17.333 19 18l153 24
c10.667 0.666992 15 -4 13 -14l-48 -256c-2 -10.667 -8.33301 -16 -19 -16h-147zM555 1017c-10.667 0 -15 5.33301 -13 16l43 229c2 11.333 8.33301 17.333 19 18l152 24c10.667 0.666992 15 -4 13 -14l-48 -257c-2 -10.667 -8.33301 -16 -19 -16h-147z" />
    <glyph glyph-name="oslash" unicode="&#xf8;" horiz-adv-x="1188" 
d="M106 155c-31.333 80.667 -33.666 192.001 -6.99902 334.001l16 90c16.667 90 39.834 167.5 69.501 232.5s67.334 118.333 113.001 160s100.167 72.5 163.5 92.5s137.333 30 222 30c127.333 0 223.666 -24.667 288.999 -74l40 40c7.33301 7.33301 16.333 11 27 11h163
c10.667 0 12.334 -3.66699 5.00098 -11l-153 -153c15.333 -40.667 23.333 -88.167 24 -142.5s-5.33301 -116.166 -18 -185.499l-17 -90c-16.667 -90.667 -39.667 -168.334 -69 -233.001s-66.833 -117.834 -112.5 -159.501s-100.334 -72.167 -164.001 -91.5
s-137.834 -29 -222.501 -29c-124.667 0 -219 23 -283 69l-34 -34c-7.33301 -7.33301 -16.333 -11 -27 -11h-164c-10.667 0 -12.334 3.66699 -5.00098 11zM654 942.001c-58.667 0 -108.668 -7 -150.001 -21s-76.166 -36 -104.499 -66s-51.666 -68.5 -69.999 -115.5
s-33.5 -103.833 -45.5 -170.5l-11 -60c-8 -42.667 -13.833 -81 -17.5 -115s-4.83398 -65 -3.50098 -93l596 595c-20 15.333 -45.833 26.833 -77.5 34.5s-70.5 11.5 -116.5 11.5zM885.999 559.001c7.33301 40 12.667 76.5 16 109.5s4.33301 62.833 3 89.5l-590 -590
c20 -14.667 45.5 -25.167 76.5 -31.5s68.5 -9.5 112.5 -9.5c58.667 0 108.667 6.83301 150 20.5s76.333 35.5 105 65.5s52 68.5 70 115.5s33.333 104.167 46 171.5z" />
    <glyph glyph-name="ugrave" unicode="&#xf9;" horiz-adv-x="1209" 
d="M501 -24c-94 0 -169.5 9.00098 -226.5 27.001s-99.333 45.833 -127 83.5s-42.834 85.667 -45.501 144s3.66602 127.5 18.999 207.5l115 617c2 10.667 8.33301 16 19 16h140c10.667 0 15 -5.33301 13 -16l-113 -608c-12 -62.667 -17.333 -114.334 -16 -155.001
s11 -72.667 29 -96s45 -39.666 81 -48.999s83 -14 141 -14c20.667 0 42.334 0.666992 65.001 2s45.334 3 68.001 5s44.667 4.66699 66 8s40.666 7 57.999 11l167 896c2 10.667 8.33301 16 19 16h140c10.667 0 15 -5.33301 13 -16l-186 -1008
c-2 -10.667 -8.33301 -17.334 -19 -20.001c-26.667 -6.66699 -56.5 -13 -89.5 -19s-67.833 -11.333 -104.5 -16s-74.167 -8.5 -112.5 -11.5s-76.166 -4.5 -113.499 -4.5zM691 1264c-10.667 0 -19.332 4.33301 -25.999 13l-180 238c-6.66699 8.66699 -4.66699 13 6 13h192
c10.667 0 18.667 -4.66699 24 -14l133 -236c5.33301 -9.33301 2.66602 -14 -8.00098 -14h-141z" />
    <glyph glyph-name="uacute" unicode="&#xfa;" horiz-adv-x="1209" 
d="M501 -24c-94 0 -169.5 9.00098 -226.5 27.001s-99.333 45.833 -127 83.5s-42.834 85.667 -45.501 144s3.66602 127.5 18.999 207.5l115 617c2 10.667 8.33301 16 19 16h140c10.667 0 15 -5.33301 13 -16l-113 -608c-12 -62.667 -17.333 -114.334 -16 -155.001
s11 -72.667 29 -96s45 -39.666 81 -48.999s83 -14 141 -14c20.667 0 42.334 0.666992 65.001 2s45.334 3 68.001 5s44.667 4.66699 66 8s40.666 7 57.999 11l167 896c2 10.667 8.33301 16 19 16h140c10.667 0 15 -5.33301 13 -16l-186 -1008
c-2 -10.667 -8.33301 -17.334 -19 -20.001c-26.667 -6.66699 -56.5 -13 -89.5 -19s-67.833 -11.333 -104.5 -16s-74.167 -8.5 -112.5 -11.5s-76.166 -4.5 -113.499 -4.5zM601 1264c-11.333 0 -13 4 -5 12l230 240c7.33301 8 16.333 12 27 12h206c10.667 0 12 -3.33301 4 -10
l-282 -244c-4.66699 -3.33301 -9 -5.83301 -13 -7.5s-9 -2.5 -15 -2.5h-152z" />
    <glyph glyph-name="ucircumflex" unicode="&#xfb;" horiz-adv-x="1209" 
d="M501 -24c-94 0 -169.5 9.00098 -226.5 27.001s-99.333 45.833 -127 83.5s-42.834 85.667 -45.501 144s3.66602 127.5 18.999 207.5l115 617c2 10.667 8.33301 16 19 16h140c10.667 0 15 -5.33301 13 -16l-113 -608c-12 -62.667 -17.333 -114.334 -16 -155.001
s11 -72.667 29 -96s45 -39.666 81 -48.999s83 -14 141 -14c20.667 0 42.334 0.666992 65.001 2s45.334 3 68.001 5s44.667 4.66699 66 8s40.666 7 57.999 11l167 896c2 10.667 8.33301 16 19 16h140c10.667 0 15 -5.33301 13 -16l-186 -1008
c-2 -10.667 -8.33301 -17.334 -19 -20.001c-26.667 -6.66699 -56.5 -13 -89.5 -19s-67.833 -11.333 -104.5 -16s-74.167 -8.5 -112.5 -11.5s-76.166 -4.5 -113.499 -4.5zM1014 1274c6.66699 -8.66699 4.33301 -13 -7 -13h-145c-10.667 0 -18.667 4.66699 -24 14l-81 143h-21
l-134 -145c-7.33301 -8 -16.333 -12 -27 -12h-166c-10 0 -11.333 3.66699 -4 11l257 245c8 7.33301 17.333 11 28 11h135c10.667 0 19 -4.33301 25 -13z" />
    <glyph glyph-name="udieresis" unicode="&#xfc;" horiz-adv-x="1209" 
d="M501 -24c-94 0 -169.5 9.00098 -226.5 27.001s-99.333 45.833 -127 83.5s-42.834 85.667 -45.501 144s3.66602 127.5 18.999 207.5l115 617c2 10.667 8.33301 16 19 16h140c10.667 0 15 -5.33301 13 -16l-113 -608c-12 -62.667 -17.333 -114.334 -16 -155.001
s11 -72.667 29 -96s45 -39.666 81 -48.999s83 -14 141 -14c20.667 0 42.334 0.666992 65.001 2s45.334 3 68.001 5s44.667 4.66699 66 8s40.666 7 57.999 11l167 896c2 10.667 8.33301 16 19 16h140c10.667 0 15 -5.33301 13 -16l-186 -1008
c-2 -10.667 -8.33301 -17.334 -19 -20.001c-26.667 -6.66699 -56.5 -13 -89.5 -19s-67.833 -11.333 -104.5 -16s-74.167 -8.5 -112.5 -11.5s-76.166 -4.5 -113.499 -4.5zM474 1243c-10.667 0 -15 5.33301 -13 16l50 265c2 10.667 8.33301 17 19 19l148 23
c10.667 2 15 -2.33301 13 -13l-55 -294c-2 -10.667 -8.33301 -16 -19 -16h-143zM812 1243c-10.667 0 -15 5.33301 -13 16l49 265c2 10.667 8.33301 17 19 19l149 23c10.667 2 15 -2.33301 13 -13l-55 -294c-2 -10.667 -8.33301 -16 -19 -16h-143z" />
    <glyph glyph-name="yacute" unicode="&#xfd;" horiz-adv-x="998" 
d="M-55 -475c-18 0 -38.333 1.16797 -61 3.50098s-43 5.83301 -61 10.5c-10 2.66699 -13.333 9 -10 19l40 117c3.33301 10 10.333 14 21 12c14 -2.66699 29.5 -4.83398 46.5 -6.50098s32.5 -2.5 46.5 -2.5c28.667 0 54.334 1.5 77.001 4.5s43.667 8.5 63 16.5
s37.666 19.333 54.999 34s34.833 34 52.5 58s36.334 53 56.001 87s41.5 74.667 65.5 122c-1.33301 0 -4.33301 1.5 -9 4.5s-10.334 9.16699 -17.001 18.5s-13.667 23.166 -21 41.499s-14 42.833 -20 73.5l-172 917c-2 10.667 2.33301 16 13 16h160
c10.667 0 17 -5.33301 19 -16l116 -716l8 -56.5l7 -49.5c2 -14.667 3.66699 -26.334 5 -35.001l2 -13l411 872c2.66699 5.33301 5.66699 9 9 11s8 3 14 3h165c11.333 0 14.333 -4.66699 9 -14l-573 -1139c-42 -83.333 -80.333 -150.666 -115 -201.999
s-70.834 -91.166 -108.501 -119.499s-79.667 -47.333 -126 -57s-102.166 -14.5 -167.499 -14.5zM476 1264c-11.333 0 -13 4 -5 12l230 240c7.33301 8 16.333 12 27 12h206c10.667 0 12 -3.33301 4 -10l-282 -244c-4.66699 -3.33301 -9 -5.83301 -13 -7.5s-9 -2.5 -15 -2.5
h-152z" />
    <glyph glyph-name="thorn" unicode="&#xfe;" horiz-adv-x="1183" 
d="M-16 -452c-10.667 0 -15 5.33301 -13 16l263 1413l16 86l97 523c2 11.333 8.33301 17.333 19 18l145 24c10.667 0.666992 15 -4 13 -14l-98 -530c38.667 3.33301 76.667 5.83301 114 7.5s74 2.5 110 2.5c94 0 171 -9 231 -27s105.5 -46.667 136.5 -86s49 -90.333 54 -153
s-0.833008 -138.667 -17.5 -228l-23 -124c-18 -98 -40.833 -179.167 -68.5 -243.5s-64 -115.5 -109 -153.5s-100.5 -64.667 -166.5 -80s-146.333 -23 -241 -23c-38.667 0 -77.5 2.16699 -116.5 6.5s-74.167 9.83301 -105.5 16.5l-81 -435c-2 -10.667 -8.33301 -16 -19 -16
h-140zM621 941c-36 0 -74.502 -1.16602 -115.502 -3.49902s-77.833 -6.16602 -110.5 -11.499l-144 -779c30 -6 64.833 -10.667 104.5 -14s78.167 -5 115.5 -5c67.333 0 123.333 6 168 18s81.834 32.333 111.501 61s53.334 66.667 71.001 114s33.167 106.666 46.5 177.999
l13 74c13.333 71.333 20 130.666 20 177.999s-9.5 85 -28.5 113s-48.833 47.833 -89.5 59.5s-94.667 17.5 -162 17.5z" />
    <glyph glyph-name="ydieresis" unicode="&#xff;" horiz-adv-x="998" 
d="M-55 -475c-18 0 -38.333 1.16797 -61 3.50098s-43 5.83301 -61 10.5c-10 2.66699 -13.333 9 -10 19l40 117c3.33301 10 10.333 14 21 12c14 -2.66699 29.5 -4.83398 46.5 -6.50098s32.5 -2.5 46.5 -2.5c28.667 0 54.334 1.5 77.001 4.5s43.667 8.5 63 16.5
s37.666 19.333 54.999 34s34.833 34 52.5 58s36.334 53 56.001 87s41.5 74.667 65.5 122c-1.33301 0 -4.33301 1.5 -9 4.5s-10.334 9.16699 -17.001 18.5s-13.667 23.166 -21 41.499s-14 42.833 -20 73.5l-172 917c-2 10.667 2.33301 16 13 16h160
c10.667 0 17 -5.33301 19 -16l116 -716l8 -56.5l7 -49.5c2 -14.667 3.66699 -26.334 5 -35.001l2 -13l411 872c2.66699 5.33301 5.66699 9 9 11s8 3 14 3h165c11.333 0 14.333 -4.66699 9 -14l-573 -1139c-42 -83.333 -80.333 -150.666 -115 -201.999
s-70.834 -91.166 -108.501 -119.499s-79.667 -47.333 -126 -57s-102.166 -14.5 -167.499 -14.5zM349 1243c-10.667 0 -15 5.33301 -13 16l50 265c2 10.667 8.33301 17 19 19l148 23c10.667 2 15 -2.33301 13 -13l-55 -294c-2 -10.667 -8.33301 -16 -19 -16h-143zM687 1243
c-10.667 0 -15 5.33301 -13 16l49 265c2 10.667 8.33301 17 19 19l149 23c10.667 2 15 -2.33301 13 -13l-55 -294c-2 -10.667 -8.33301 -16 -19 -16h-143z" />
    <glyph glyph-name="Amacron" unicode="&#x100;" horiz-adv-x="1294" 
d="M-77 0c-11.333 0 -14.333 4.66699 -9 14l765 1447c2.66699 5.33301 5.66699 9 9 11s8 3 14 3h217c10.667 0 17 -5.33301 19 -16l229 -1443c2 -10.667 -2.33301 -16 -13 -16h-163c-11.333 -0 -17.333 5.33301 -18 16l-52 344h-629l-179 -346
c-2.66699 -5.33301 -5.66699 -9 -9 -11s-8 -3 -14 -3h-167zM779 1299l-398 -767h514zM591 1633c-10.667 0 -15 5.33301 -13 16l19 102c2 10.667 8.33301 16 19 16h490c10.667 0 15 -5.33301 13 -16l-18 -102c-2 -10.667 -8.33301 -16 -19 -16h-491z" />
    <glyph glyph-name="amacron" unicode="&#x101;" horiz-adv-x="1183" 
d="M902 929c-30 3.33301 -64 6.16699 -102 8.5s-79.333 3.5 -124 3.5c-66 0 -121 -5.66699 -165 -17s-80.333 -31 -109 -59s-51.834 -65.5 -69.501 -112.5s-33.5 -105.833 -47.5 -176.5l-14 -74c-13.333 -72 -20 -132 -20 -180s9.33301 -86.333 28 -115
s48.334 -49 89.001 -61s95 -18 163 -18c40 0 80.167 1 120.5 3s74.5 4.66699 102.5 8zM505 -23.999c-95.333 0 -173.167 9.66895 -233.5 29.002s-106.166 49.166 -137.499 89.499s-49.333 91.833 -54 154.5s1.33301 137.334 18 224.001l24 126
c19.333 101.333 42.833 184.166 70.5 248.499s63.667 114.666 108 150.999s99 61.333 164 75s144.167 20.5 237.5 20.5c30.667 0 62.667 -0.5 96 -1.5s66.5 -2.5 99.5 -4.5s65.333 -4.33301 97 -7s61.5 -5.33398 89.5 -8.00098c10.667 -0.666992 15 -6.66699 13 -18
l-193 -1039c-1.33301 -6 -3.33301 -10.167 -6 -12.5s-7 -4.16602 -13 -5.49902c-67.333 -7.33301 -132.833 -12.833 -196.5 -16.5s-124.834 -5.5 -183.501 -5.5zM486.999 1317c-10.667 0 -15 5.33301 -13 16l20 107c2 10.667 8.33301 16 19 16h491
c10.667 0 15 -5.33301 13 -16l-20 -107c-2 -10.667 -8.33301 -16 -19 -16h-491z" />
    <glyph glyph-name="Abreve" unicode="&#x102;" horiz-adv-x="1294" 
d="M-77 0c-11.333 0 -14.333 4.66699 -9 14l765 1447c2.66699 5.33301 5.66699 9 9 11s8 3 14 3h217c10.667 0 17 -5.33301 19 -16l229 -1443c2 -10.667 -2.33301 -16 -13 -16h-163c-11.333 -0 -17.333 5.33301 -18 16l-52 344h-629l-179 -346
c-2.66699 -5.33301 -5.66699 -9 -9 -11s-8 -3 -14 -3h-167zM779 1299l-398 -767h514zM825 1580c-89.333 0 -153.33 19.499 -191.997 58.499s-54.334 96.5 -47.001 172.5c0.666992 10.667 6.66699 16 18 16h98c10.667 0 16 -5.33301 16 -16
c-0.666992 -22 2.5 -40.333 9.5 -55s16.167 -26.334 27.5 -35.001s24.333 -14.667 39 -18s29.667 -5 45 -5c16.667 0 33 1.83301 49 5.5s31 9.83398 45 18.501s26.667 20.334 38 35.001s20.666 33 27.999 55c3.33301 10 10.666 15 21.999 15h107
c10.667 0 14.667 -5.33301 12 -16c-11.333 -40.667 -24.5 -75.5 -39.5 -104.5s-34.5 -52.833 -58.5 -71.5s-53.5 -32.5 -88.5 -41.5s-77.833 -13.5 -128.5 -13.5z" />
    <glyph glyph-name="abreve" unicode="&#x103;" horiz-adv-x="1183" 
d="M902 929c-30 3.33301 -64 6.16699 -102 8.5s-79.333 3.5 -124 3.5c-66 0 -121 -5.66699 -165 -17s-80.333 -31 -109 -59s-51.834 -65.5 -69.501 -112.5s-33.5 -105.833 -47.5 -176.5l-14 -74c-13.333 -72 -20 -132 -20 -180s9.33301 -86.333 28 -115
s48.334 -49 89.001 -61s95 -18 163 -18c40 0 80.167 1 120.5 3s74.5 4.66699 102.5 8zM505 -23.999c-95.333 0 -173.167 9.66895 -233.5 29.002s-106.166 49.166 -137.499 89.499s-49.333 91.833 -54 154.5s1.33301 137.334 18 224.001l24 126
c19.333 101.333 42.833 184.166 70.5 248.499s63.667 114.666 108 150.999s99 61.333 164 75s144.167 20.5 237.5 20.5c30.667 0 62.667 -0.5 96 -1.5s66.5 -2.5 99.5 -4.5s65.333 -4.33301 97 -7s61.5 -5.33398 89.5 -8.00098c10.667 -0.666992 15 -6.66699 13 -18
l-193 -1039c-1.33301 -6 -3.33301 -10.167 -6 -12.5s-7 -4.16602 -13 -5.49902c-67.333 -7.33301 -132.833 -12.833 -196.5 -16.5s-124.834 -5.5 -183.501 -5.5zM723.999 1259c-43.333 0 -80.334 6 -111.001 18s-55.167 29 -73.5 51s-31.166 48.667 -38.499 80
s-9.33301 66 -6 104c0 10.667 5.66699 16 17 16h104c10 0 14.667 -5.33301 14 -16c-2 -23.333 -0.666992 -43 4 -59s11.834 -28.833 21.501 -38.5s21.334 -16.5 35.001 -20.5s28.5 -6 44.5 -6c18 0 35.167 2 51.5 6s31.666 10.833 45.999 20.5s27.333 22.5 39 38.5
s21.5 36 29.5 60c3.33301 10 10.666 15 21.999 15h108c6 0 10 -1.16699 12 -3.5s2.66699 -6.5 2 -12.5c-6 -36.667 -15.833 -70.5 -29.5 -101.5s-33 -57.667 -58 -80s-56.5 -39.833 -94.5 -52.5s-84.333 -19 -139 -19z" />
    <glyph glyph-name="Aogonek" unicode="&#x104;" horiz-adv-x="1296" 
d="M-77 0c-11.333 0 -14.335 4.66895 -9.00195 14.002l765 1447c2.66699 5.33301 5.66699 9 9 11s8 3 14 3h217c10.667 0 17 -5.33301 19 -16l229 -1443c0.666992 -4.66699 0.666992 -8.83398 0 -12.501s-4 -6.5 -10 -8.5c-42 -15.333 -79.167 -33.5 -111.5 -54.5
s-59.166 -42.833 -80.499 -65.5s-37.5 -45.5 -48.5 -68.5s-16.5 -44.167 -16.5 -63.5c0 -18 6.5 -30.667 19.5 -38s37.167 -11 72.5 -11c14 0 29.667 0.333008 47 1s34.333 2.33398 51 5.00098c10.667 0.666992 15.667 -4 15 -14l-6 -69
c-0.666992 -6 -2.16699 -10.333 -4.5 -13s-6.16602 -4.66699 -11.499 -6c-15.333 -3.33301 -34.5 -6.16602 -57.5 -8.49902s-49.5 -3.5 -79.5 -3.5c-35.333 0 -65.333 2.5 -90 7.5s-44.5 12.667 -59.5 23s-25.833 23 -32.5 38s-10 32.5 -10 52.5
c0 35.333 6.5 68.666 19.5 99.999s29.833 60.166 50.5 86.499s44.167 49.666 70.5 69.999s52.5 37.5 78.5 51.5l-52 345h-629l-179 -346c-2.66699 -5.33301 -5.66699 -9 -9 -11s-8 -3 -14 -3h-167zM778.998 1299l-398 -767h514z" />
    <glyph glyph-name="aogonek" unicode="&#x105;" horiz-adv-x="1183" 
d="M505 -24c-95.333 0 -173.166 9.66797 -233.499 29.001s-106.166 49.166 -137.499 89.499s-49.333 91.833 -54 154.5s1.33301 137.334 18 224.001l24 126c19.333 101.333 42.833 184.166 70.5 248.499s63.667 114.666 108 150.999s99 61.333 164 75
s144.167 20.5 237.5 20.5c30.667 0 62.667 -0.5 96 -1.5s66.5 -2.5 99.5 -4.5s65.333 -4.33301 97 -7s61.5 -5.33398 89.5 -8.00098c10.667 -0.666992 15 -6.66699 13 -18l-193 -1039c-1.33301 -6.66699 -3.33301 -11.5 -6 -14.5s-6.66699 -5.5 -12 -7.5
c-30 -13.333 -59.667 -30.166 -89 -50.499s-55.5 -42.333 -78.5 -66s-41.667 -47.334 -56 -71.001s-21.5 -45.167 -21.5 -64.5c0 -18 6 -30.5 18 -37.5s33 -10.5 63 -10.5c12 0 25.167 0.333008 39.5 1s28.5 2 42.5 4c10.667 2 15.667 -2.33301 15 -13l-7 -69
c-0.666992 -10.667 -6 -17 -16 -19c-15.333 -3.33301 -33.833 -6.16602 -55.5 -8.49902s-45.167 -3.5 -70.5 -3.5c-64.667 0 -110.334 10.667 -137.001 32s-40 50 -40 86c0 24.667 5.33301 50 16 76s24.667 51.333 42 76s37.166 47.834 59.499 69.501
s45.166 40.5 68.499 56.5c-30 -2 -59.667 -3.5 -89 -4.5s-57.666 -1.5 -84.999 -1.5zM902 929.001c-30 3.33301 -64 6.16699 -102 8.5s-79.333 3.5 -124 3.5c-66 0 -121 -5.66699 -165 -17s-80.333 -31 -109 -59s-51.834 -65.5 -69.501 -112.5s-33.5 -105.833 -47.5 -176.5
l-14 -74c-13.333 -72 -20 -132 -20 -180s9.33301 -86.333 28 -115s48.334 -49 89.001 -61s95 -18 163 -18c40 0 80.167 1 120.5 3s74.5 4.66699 102.5 8z" />
    <glyph glyph-name="Cacute" unicode="&#x106;" horiz-adv-x="1170" 
d="M621 -24c-96 0 -179.331 12.1689 -249.998 36.502s-127 64 -169 119s-68.5 126.333 -79.5 214s-5.16699 195.167 17.5 322.5l25 140c24 136 58 248.5 102 337.5s97 159.667 159 212s133 89 213 110s168 31.5 264 31.5c64 0 124.667 -3.33301 182 -10
s105.666 -15.667 144.999 -27c10.667 -2.66699 14 -9.33398 10 -20.001l-48 -131c-3.33301 -10 -10.333 -14 -21 -12c-44.667 9.33301 -92.334 16 -143.001 20s-100.667 6 -150 6c-69.333 0 -132.5 -8.16699 -189.5 -24.5s-107.5 -44 -151.5 -83s-81.833 -91 -113.5 -156
s-56.5 -146.167 -74.5 -243.5l-28 -160c-18.667 -98 -24.5 -179.667 -17.5 -245s25.333 -117.5 55 -156.5s70 -66.5 121 -82.5s111.167 -24 180.5 -24c60 0 115.833 2 167.5 6s100.167 9.66699 145.5 17c10.667 2 16 -2.33301 16 -13l-4 -132
c0 -10.667 -5.33301 -17.334 -16 -20.001c-43.333 -10 -95.5 -17.833 -156.5 -23.5s-124.833 -8.5 -191.5 -8.5zM749.002 1604c-10.667 0 -12 3.33301 -4 10l232 195c4.66699 3.33301 9 5.83301 13 7.5s9 2.5 15 2.5h205c4.66699 0 7.16699 -0.833008 7.5 -2.5
s-1.16699 -3.83398 -4.5 -6.50098l-270 -197c-4.66699 -3.33301 -9.16699 -5.66602 -13.5 -6.99902s-9.5 -2 -15.5 -2h-165z" />
    <glyph glyph-name="cacute" unicode="&#x107;" horiz-adv-x="958" 
d="M504 -24c-94 0 -170.664 9.16797 -229.997 27.501s-104.5 47.666 -135.5 87.999s-49 92.833 -54 157.5s0.166992 143.334 15.5 236.001l17 101c16 96 38 176.5 66 241.5s65 117.333 111 157s103 67.834 171 84.501s150.667 25 248 25c44.667 0 86.834 -2 126.501 -6
s75.5 -9 107.5 -15c11.333 -2 15 -8 11 -18l-36 -117c-3.33301 -9.33301 -10.333 -13.666 -21 -12.999c-32.667 5.33301 -67.334 8.83301 -104.001 10.5s-73.334 2.5 -110.001 2.5c-67.333 0 -123.5 -6 -168.5 -18s-82.5 -32.333 -112.5 -61s-54 -66.834 -72 -114.501
s-33.333 -106.834 -46 -177.501l-13 -65c-13.333 -72 -19.833 -131.833 -19.5 -179.5s10.166 -85.667 29.499 -114s49.333 -48.333 90 -60s95 -17.5 163 -17.5c39.333 0 77.833 1.16699 115.5 3.5s73.167 6.16602 106.5 11.499c10.667 2 15.667 -2.33301 15 -13l-10 -116
c-0.666992 -10.667 -6.33398 -17 -17.001 -19c-16.667 -3.33301 -35 -6.33301 -55 -9s-40.667 -5 -62 -7s-42.833 -3.5 -64.5 -4.5s-42.5 -1.5 -62.5 -1.5zM528.003 1264c-11.333 0 -13 4 -5 12l230 240c7.33301 8 16.333 12 27 12h206c10.667 0 12 -3.33301 4 -10
l-282 -244c-4.66699 -3.33301 -9 -5.83301 -13 -7.5s-9 -2.5 -15 -2.5h-152z" />
    <glyph glyph-name="Ccaron" unicode="&#x10c;" horiz-adv-x="1170" 
d="M621 -24c-96 0 -179.331 12.1689 -249.998 36.502s-127 64 -169 119s-68.5 126.333 -79.5 214s-5.16699 195.167 17.5 322.5l25 140c24 136 58 248.5 102 337.5s97 159.667 159 212s133 89 213 110s168 31.5 264 31.5c64 0 124.667 -3.33301 182 -10
s105.666 -15.667 144.999 -27c10.667 -2.66699 14 -9.33398 10 -20.001l-48 -131c-3.33301 -10 -10.333 -14 -21 -12c-44.667 9.33301 -92.334 16 -143.001 20s-100.667 6 -150 6c-69.333 0 -132.5 -8.16699 -189.5 -24.5s-107.5 -44 -151.5 -83s-81.833 -91 -113.5 -156
s-56.5 -146.167 -74.5 -243.5l-28 -160c-18.667 -98 -24.5 -179.667 -17.5 -245s25.333 -117.5 55 -156.5s70 -66.5 121 -82.5s111.167 -24 180.5 -24c60 0 115.833 2 167.5 6s100.167 9.66699 145.5 17c10.667 2 16 -2.33301 16 -13l-4 -132
c0 -10.667 -5.33301 -17.334 -16 -20.001c-43.333 -10 -95.5 -17.833 -156.5 -23.5s-124.833 -8.5 -191.5 -8.5zM611.002 1807c-8 8 -6.33301 12.001 5 12.001h147c6 0 10.833 -0.833008 14.5 -2.5s7.5 -4.83398 11.5 -9.50098l84 -103h20l123 105
c4.66699 3.33301 9 5.83301 13 7.5s9 2.5 15 2.5h174c10.667 0 11.667 -3.33301 3 -10l-252 -195c-5.33301 -3.33301 -10 -5.83301 -14 -7.5s-9 -2.5 -15 -2.5h-136c-10.667 0 -19.667 4 -27 12z" />
    <glyph glyph-name="ccaron" unicode="&#x10d;" horiz-adv-x="958" 
d="M504 -24c-94 0 -170.664 9.16797 -229.997 27.501s-104.5 47.666 -135.5 87.999s-49 92.833 -54 157.5s0.166992 143.334 15.5 236.001l17 101c16 96 38 176.5 66 241.5s65 117.333 111 157s103 67.834 171 84.501s150.667 25 248 25c44.667 0 86.834 -2 126.501 -6
s75.5 -9 107.5 -15c11.333 -2 15 -8 11 -18l-36 -117c-3.33301 -9.33301 -10.333 -13.666 -21 -12.999c-32.667 5.33301 -67.334 8.83301 -104.001 10.5s-73.334 2.5 -110.001 2.5c-67.333 0 -123.5 -6 -168.5 -18s-82.5 -32.333 -112.5 -61s-54 -66.834 -72 -114.501
s-33.333 -106.834 -46 -177.501l-13 -65c-13.333 -72 -19.833 -131.833 -19.5 -179.5s10.166 -85.667 29.499 -114s49.333 -48.333 90 -60s95 -17.5 163 -17.5c39.333 0 77.833 1.16699 115.5 3.5s73.167 6.16602 106.5 11.499c10.667 2 15.667 -2.33301 15 -13l-10 -116
c-0.666992 -10.667 -6.33398 -17 -17.001 -19c-16.667 -3.33301 -35 -6.33301 -55 -9s-40.667 -5 -62 -7s-42.833 -3.5 -64.5 -4.5s-42.5 -1.5 -62.5 -1.5zM406.003 1515c-6.66699 8.66699 -4.33301 13 7 13h145c10.667 0 18.667 -4.66699 24 -14l81 -143h21l134 145
c7.33301 8 16.333 12 27 12h166c10 0 11.333 -3.66699 4 -11l-257 -245c-8 -7.33301 -17.333 -11 -28 -11h-135c-10.667 0 -19 4.33301 -25 13z" />
    <glyph glyph-name="Dcaron" unicode="&#x10e;" horiz-adv-x="1411" 
d="M449 -16c-24 0 -50.499 0.329102 -79.499 0.996094s-59 1.5 -90 2.5s-62.167 2.33301 -93.5 4s-61.333 3.83398 -90 6.50098c-6 1.33301 -10 3.16602 -12 5.49902s-2.33301 6.5 -1 12.5l267 1443c2 10.667 8.33301 16.334 19 17.001c28 2 58 3.66699 90 5
s63.667 2.5 95 3.5s61 1.66699 89 2s52 0.5 72 0.5c68 0 132.667 -3.5 194 -10.5s117 -20 167 -39s93.667 -44.833 131 -77.5s66.666 -74.667 87.999 -126s33.666 -113 36.999 -185s-4 -156.667 -22 -254l-21 -113c-19.333 -105.333 -43.166 -195.666 -71.499 -270.999
s-61.333 -138.833 -99 -190.5s-79.667 -93.167 -126 -124.5s-97.333 -55.166 -153 -71.499s-116 -27.166 -181 -32.499s-134.833 -8 -209.5 -8zM721.001 1324c-14 0 -30.666 -0.166992 -49.999 -0.5s-39 -0.833008 -59 -1.5s-39.667 -1.5 -59 -2.5s-36 -2.16699 -50 -3.5
l-215 -1159c16 -2 33.667 -3.5 53 -4.5l59.5 -3c20.333 -1 40.166 -1.66699 59.499 -2s36.666 -0.5 51.999 -0.5c82.667 0 156.334 6.83301 221.001 20.5s121.334 39.834 170.001 78.501s89.834 92.5 123.501 161.5s60.834 159.167 81.501 270.5l22 119
c13.333 73.333 20.333 137.333 21 192s-4.83301 101.5 -16.5 140.5s-29.334 71.167 -53.001 96.5s-52.834 45.166 -87.501 59.499s-74.834 24.333 -120.501 30s-96.5 8.5 -152.5 8.5zM562.002 1807c-8 8 -6.33301 12.001 5 12.001h147c6 0 10.833 -0.833008 14.5 -2.5
s7.5 -4.83398 11.5 -9.50098l84 -103h20l123 105c4.66699 3.33301 9 5.83301 13 7.5s9 2.5 15 2.5h174c10.667 0 11.667 -3.33301 3 -10l-252 -195c-5.33301 -3.33301 -10 -5.83301 -14 -7.5s-9 -2.5 -15 -2.5h-136c-10.667 0 -19.667 4 -27 12z" />
    <glyph glyph-name="dcaron" unicode="&#x10f;" horiz-adv-x="1181" 
d="M676 941c-66 0 -121.166 -5.83203 -165.499 -17.499s-81 -31.667 -110 -60s-52.333 -65.833 -70 -112.5s-32.834 -105 -45.501 -175l-15 -74c-13.333 -72 -20 -132 -20 -180s9.5 -86.333 28.5 -115s48.667 -49 89 -61s94.5 -18 162.5 -18c38 0 76.5 1.33301 115.5 4
s75.167 6 108.5 10l146 779c-14.667 3.33301 -31.5 6.16602 -50.5 8.49902s-38.667 4.33301 -59 6s-40.5 3 -60.5 4s-38 1.5 -54 1.5zM504.001 -23.999c-95.333 0 -173.168 9.16699 -233.501 27.5s-106 47.5 -137 87.5s-48.667 91.5 -53 154.5s1.5 138.833 17.5 227.5
l23 126c12 64.667 26 122 42 172s35 93.333 57 130s47.833 67.334 77.5 92.001s64 44.5 103 59.5s83.167 25.667 132.5 32s105.333 9.5 168 9.5c39.333 0 78.833 -2.33301 118.5 -7s75.5 -10.334 107.5 -17.001l95 516c2 11.333 8.33301 17.333 19 18l147 24
c10.667 0.666992 15 -4 13 -14l-296 -1590c-2 -11.333 -8.33301 -17.333 -19 -18c-67.333 -10 -133.166 -17.5 -197.499 -22.5s-125.833 -7.5 -184.5 -7.5zM1264 1194c-10.667 0 -14.999 5.33203 -12.999 15.999l70 376c2 11.333 8.33301 17.333 19 18l143 23
c10.667 0.666992 14.667 -3.66602 12 -12.999l-104 -405c-2.66699 -10 -9.33398 -15 -20.001 -15h-107z" />
    <glyph glyph-name="Dcroat" unicode="&#x110;" horiz-adv-x="1422" 
d="M460 -16c-24 0 -50.499 0.329102 -79.499 0.996094s-59 1.5 -90 2.5s-62.167 2.33301 -93.5 4s-61.333 3.83398 -90 6.50098c-6 1.33301 -10 3.16602 -12 5.49902s-2.33301 6.5 -1 12.5l126 682h-156c-10.667 0 -15 5.33301 -13 16l25 135c2 10.667 8.33301 16 19 16h156
l110 594c2 10.667 8.33301 16.334 19 17.001c28 2 58 3.66699 90 5s63.667 2.5 95 3.5s61 1.66699 89 2s52 0.5 72 0.5c68.667 0 133.5 -3.5 194.5 -10.5s116.5 -20 166.5 -39s93.667 -44.833 131 -77.5s66.666 -74.667 87.999 -126s33.666 -113 36.999 -185
s-4 -156.667 -22 -254l-21 -113c-19.333 -105.333 -43.166 -195.666 -71.499 -270.999s-61.333 -138.833 -99 -190.5s-79.667 -93.167 -126 -124.5s-97.333 -55.166 -153 -71.499s-116 -27.166 -181 -32.499s-134.833 -8 -209.5 -8zM732.001 1324
c-14 0 -30.666 -0.166992 -49.999 -0.5s-39 -0.833008 -59 -1.5s-39.667 -1.5 -59 -2.5s-36 -2.16699 -50 -3.5l-84 -451h264c10.667 0 15 -5.33301 13 -16l-25 -135c-2 -10.667 -8.33301 -16 -19 -16h-264l-100 -541c16 -2 33.667 -3.5 53 -4.5l59.5 -3
c20.333 -1 40.166 -1.66699 59.499 -2s36.666 -0.5 51.999 -0.5c82.667 0 156.334 6.83301 221.001 20.5s121.334 39.834 170.001 78.501s89.834 92.5 123.501 161.5s60.834 159.167 81.501 270.5l22 119c13.333 73.333 20.333 137.333 21 192s-4.83301 101.5 -16.5 140.5
s-29.334 71.167 -53.001 96.5s-52.834 45.166 -87.501 59.499s-74.834 24.333 -120.501 30s-96.5 8.5 -152.5 8.5z" />
    <glyph glyph-name="dcroat" unicode="&#x111;" horiz-adv-x="1181" 
d="M504 -24c-95.333 0 -173.168 9.16699 -233.501 27.5s-106 47.5 -137 87.5s-48.667 91.5 -53 154.5s1.5 138.833 17.5 227.5l23 126c12 64.667 26 122 42 172s35 93.333 57 130s47.833 67.334 77.5 92.001s64 44.5 103 59.5s83.167 25.667 132.5 32s105.333 9.5 168 9.5
c39.333 0 78.833 -2.33301 118.5 -7s75.5 -10.334 107.5 -17.001l34 186h-301c-10.667 0 -15 5.33301 -13 16l17 96c2 10.667 8.33301 16 19 16h301l38 202c2 11.333 8.33301 17.333 19 18l147 24c10.667 0.666992 15 -4 13 -14l-43 -230h119c10.667 0 15 -5.33301 13 -16
l-17 -96c-2 -10.667 -8.33301 -16 -19 -16h-120l-229 -1232c-2 -11.333 -8.33301 -17.333 -19 -18c-67.333 -10 -133.166 -17.5 -197.499 -22.5s-125.833 -7.5 -184.5 -7.5zM675.998 941c-66 0 -121.166 -5.83203 -165.499 -17.499s-81 -31.667 -110 -60
s-52.333 -65.833 -70 -112.5s-32.834 -105 -45.501 -175l-15 -74c-13.333 -72 -20 -132 -20 -180s9.5 -86.333 28.5 -115s48.667 -49 89 -61s94.5 -18 162.5 -18c38 0 76.5 1.33301 115.5 4s75.167 6 108.5 10l146 779c-14.667 3.33301 -31.5 6.16602 -50.5 8.49902
s-38.667 4.33301 -59 6s-40.5 3 -60.5 4s-38 1.5 -54 1.5z" />
    <glyph glyph-name="Emacron" unicode="&#x112;" horiz-adv-x="1189" 
d="M97 0c-10.667 0 -15 5.33301 -13 16l266 1443c2 10.667 8.33301 16 19 16h848c10.667 0 15 -5.33301 13 -16l-26 -144c-2 -10.667 -8.33301 -16 -19 -16h-684l-79 -427h575c10.667 0 15 -5.33301 13 -16l-27 -143c-2 -10.667 -8.33301 -16 -19 -16h-575l-95 -522h683
c10.667 0 15 -5.33301 13 -16l-27 -143c-2 -10.667 -8.33301 -16 -19 -16h-847zM561 1633c-10.667 0 -15 5.33301 -13 16l19 102c2 10.667 8.33301 16 19 16h490c10.667 0 15 -5.33301 13 -16l-18 -102c-2 -10.667 -8.33301 -16 -19 -16h-491z" />
    <glyph glyph-name="emacron" unicode="&#x113;" horiz-adv-x="1149" 
d="M481 -24c-86.667 0 -158.168 10.165 -214.501 30.498s-99.5 51.833 -129.5 94.5s-47.667 96.667 -53 162s-0.333008 143 15 233l15 88c16 92 38.333 170.333 67 235s65.5 117.334 110.5 158.001s99.167 70.334 162.5 89.001s137.666 28 222.999 28
c69.333 0 128.833 -7.83301 178.5 -23.5s90.5 -38.5 122.5 -68.5s55.667 -67 71 -111s23 -94.333 23 -151c0 -33.333 -2.16699 -64.5 -6.5 -93.5s-9.66602 -55 -15.999 -78s-12.833 -43 -19.5 -60s-12 -29.833 -16 -38.5c-2.66699 -5.33301 -5.5 -9 -8.5 -11
s-7.5 -3 -13.5 -3l-731 -1c-9.33301 -63.333 -12.166 -116 -8.49902 -158s15.5 -75.5 35.5 -100.5s48.833 -42.833 86.5 -53.5s85.5 -16 143.5 -16c56.667 0 114 1.16699 172 3.5s118.667 6.16602 182 11.499c10.667 0.666992 15.667 -4.33301 15 -15l-8 -111
c-0.666992 -6 -2.16699 -10.167 -4.5 -12.5s-6.5 -4.16602 -12.5 -5.49902c-60.667 -6.66699 -121.667 -12 -183 -16s-127.333 -6 -198 -6zM895.999 607.998c8 59.333 10.498 110.167 7.49805 152.5s-13.833 77 -32.5 104s-46 46.667 -82 59s-82.667 18.5 -140 18.5
c-56 0 -104.167 -6.5 -144.5 -19.5s-74.666 -33.5 -102.999 -61.5s-51.666 -63.833 -69.999 -107.5s-33.5 -96.167 -45.5 -157.5zM440.997 1317c-10.667 0 -15 5.33301 -13 16l20 107c2 10.667 8.33301 16 19 16h491c10.667 0 15 -5.33301 13 -16l-20 -107
c-2 -10.667 -8.33301 -16 -19 -16h-491z" />
    <glyph glyph-name="Edotaccent" unicode="&#x116;" horiz-adv-x="1189" 
d="M97 0c-10.667 0 -15 5.33301 -13 16l266 1443c2 10.667 8.33301 16 19 16h848c10.667 0 15 -5.33301 13 -16l-26 -144c-2 -10.667 -8.33301 -16 -19 -16h-684l-79 -427h575c10.667 0 15 -5.33301 13 -16l-27 -143c-2 -10.667 -8.33301 -16 -19 -16h-575l-95 -522h683
c10.667 0 15 -5.33301 13 -16l-27 -143c-2 -10.667 -8.33301 -16 -19 -16h-847zM724 1604c-10.667 0 -15 5.33301 -13 16l36 199c2 11.333 8.33301 17.333 19 18l153 25c10.667 0.666992 15 -4 13 -14l-42 -228c-2 -10.667 -8.33301 -16 -19 -16h-147z" />
    <glyph glyph-name="edotaccent" unicode="&#x117;" horiz-adv-x="1149" 
d="M481 -24c-86.667 0 -158.168 10.165 -214.501 30.498s-99.5 51.833 -129.5 94.5s-47.667 96.667 -53 162s-0.333008 143 15 233l15 88c16 92 38.333 170.333 67 235s65.5 117.334 110.5 158.001s99.167 70.334 162.5 89.001s137.666 28 222.999 28
c69.333 0 128.833 -7.83301 178.5 -23.5s90.5 -38.5 122.5 -68.5s55.667 -67 71 -111s23 -94.333 23 -151c0 -33.333 -2.16699 -64.5 -6.5 -93.5s-9.66602 -55 -15.999 -78s-12.833 -43 -19.5 -60s-12 -29.833 -16 -38.5c-2.66699 -5.33301 -5.5 -9 -8.5 -11
s-7.5 -3 -13.5 -3l-731 -1c-9.33301 -63.333 -12.166 -116 -8.49902 -158s15.5 -75.5 35.5 -100.5s48.833 -42.833 86.5 -53.5s85.5 -16 143.5 -16c56.667 0 114 1.16699 172 3.5s118.667 6.16602 182 11.499c10.667 0.666992 15.667 -4.33301 15 -15l-8 -111
c-0.666992 -6 -2.16699 -10.167 -4.5 -12.5s-6.5 -4.16602 -12.5 -5.49902c-60.667 -6.66699 -121.667 -12 -183 -16s-127.333 -6 -198 -6zM895.999 607.998c8 59.333 10.498 110.167 7.49805 152.5s-13.833 77 -32.5 104s-46 46.667 -82 59s-82.667 18.5 -140 18.5
c-56 0 -104.167 -6.5 -144.5 -19.5s-74.666 -33.5 -102.999 -61.5s-51.666 -63.833 -69.999 -107.5s-33.5 -96.167 -45.5 -157.5zM618.997 1243c-10.667 0 -15 5.33301 -13 16l50 265c2 11.333 8.33301 17.333 19 18l152 25c10.667 0.666992 15 -4 13 -14l-55 -294
c-2 -10.667 -8.33301 -16 -19 -16h-147z" />
    <glyph glyph-name="Eogonek" unicode="&#x118;" horiz-adv-x="1189" 
d="M790 -306c14 0 29.5 0.331055 46.5 0.998047s34.167 2.33398 51.5 5.00098c10.667 0.666992 15.667 -4 15 -14l-7 -69c-0.666992 -6 -2.16699 -10.333 -4.5 -13s-6.16602 -4.66699 -11.499 -6c-15.333 -3.33301 -34.5 -6.16602 -57.5 -8.49902s-50.5 -3.5 -82.5 -3.5
c-69.333 0 -118.333 10.167 -147 30.5s-43 50.5 -43 90.5c0 28 5.16699 56.167 15.5 84.5s24.166 55.5 41.499 81.5s37.166 50 59.499 72s45.833 40.333 70.5 55h-640c-10.667 -0 -15 5.33301 -13 16l266 1443c2 10.667 8.33301 16 19 16h848c10.667 0 15 -5.33301 13 -16
l-26 -144c-2 -10.667 -8.33301 -16 -19 -16h-684l-79 -427h575c10.667 0 15 -5.33301 13 -16l-27 -143c-2 -10.667 -8.33301 -16 -19 -16h-575l-95 -522h683c10.667 0 15 -5.33301 13 -16l-27 -143c-2 -10.667 -8.33301 -16 -19 -16h-59
c-24.667 -16 -48.334 -34.833 -71.001 -56.5s-42.667 -44.334 -60 -68.001s-31.166 -47.167 -41.499 -70.5s-15.5 -44.666 -15.5 -63.999c0 -17.333 6.33301 -29.5 19 -36.5s37.334 -10.5 74.001 -10.5z" />
    <glyph glyph-name="eogonek" unicode="&#x119;" horiz-adv-x="1150" 
d="M703 -306c14 0 29.4971 0.327148 46.4971 0.994141s34.167 2.33398 51.5 5.00098c10.667 0.666992 15.667 -4 15 -14l-7 -69c-0.666992 -6 -2.16699 -10.333 -4.5 -13s-6.16602 -4.66699 -11.499 -6c-15.333 -3.33301 -34.5 -6.16602 -57.5 -8.49902
s-50.5 -3.5 -82.5 -3.5c-69.333 0 -118.333 10.167 -147 30.5s-43 50.5 -43 90.5c0 24.667 4.16699 49.667 12.5 75s19.5 50 33.5 74s30.5 46.5 49.5 67.5s39.167 39.5 60.5 55.5c-44 -2 -90 -3 -138 -3c-86.667 0 -158.167 10.167 -214.5 30.5s-99.5 51.833 -129.5 94.5
s-47.667 96.667 -53 162s-0.333008 143 15 233l15 88c16 92 38.333 170.333 67 235s65.5 117.334 110.5 158.001s99.167 70.334 162.5 89.001s137.666 28 222.999 28c69.333 0 128.833 -7.83301 178.5 -23.5s90.5 -38.5 122.5 -68.5s55.667 -67 71 -111s23 -94.333 23 -151
c0 -33.333 -2.16699 -64.5 -6.5 -93.5s-9.66602 -55 -15.999 -78s-12.833 -43 -19.5 -60s-12 -29.833 -16 -38.5c-2.66699 -5.33301 -5.5 -9 -8.5 -11s-7.5 -3 -13.5 -3l-731 -1c-9.33301 -63.333 -12.166 -116 -8.49902 -158s15.5 -75.5 35.5 -100.5
s48.833 -42.833 86.5 -53.5s85.5 -16 143.5 -16c56.667 0 114 1.16699 172 3.5s118.667 6.16602 182 11.499c10.667 0.666992 15.667 -4.33301 15 -15l-8 -111c-0.666992 -6 -2.16699 -10.167 -4.5 -12.5s-6.5 -4.16602 -12.5 -5.49902l-78 -8
c-23.333 -16 -45.5 -34.667 -66.5 -56s-39.5 -43.166 -55.5 -65.499s-28.667 -44.666 -38 -66.999s-14 -42.5 -14 -60.5c0 -17.333 6.33301 -29.5 19 -36.5s37.334 -10.5 74.001 -10.5zM895.997 607.994c8 59.333 10.498 110.167 7.49805 152.5s-13.833 77 -32.5 104
s-46 46.667 -82 59s-82.667 18.5 -140 18.5c-56 0 -104.167 -6.5 -144.5 -19.5s-74.666 -33.5 -102.999 -61.5s-51.666 -63.833 -69.999 -107.5s-33.5 -96.167 -45.5 -157.5z" />
    <glyph glyph-name="Ecaron" unicode="&#x11a;" horiz-adv-x="1189" 
d="M97 0c-10.667 0 -15 5.33301 -13 16l266 1443c2 10.667 8.33301 16 19 16h848c10.667 0 15 -5.33301 13 -16l-26 -144c-2 -10.667 -8.33301 -16 -19 -16h-684l-79 -427h575c10.667 0 15 -5.33301 13 -16l-27 -143c-2 -10.667 -8.33301 -16 -19 -16h-575l-95 -522h683
c10.667 0 15 -5.33301 13 -16l-27 -143c-2 -10.667 -8.33301 -16 -19 -16h-847zM545 1807c-8 8 -6.33301 12.001 5 12.001h147c6 0 10.833 -0.833008 14.5 -2.5s7.5 -4.83398 11.5 -9.50098l84 -103h20l123 105c4.66699 3.33301 9 5.83301 13 7.5s9 2.5 15 2.5h174
c10.667 0 11.667 -3.33301 3 -10l-252 -195c-5.33301 -3.33301 -10 -5.83301 -14 -7.5s-9 -2.5 -15 -2.5h-136c-10.667 0 -19.667 4 -27 12z" />
    <glyph glyph-name="ecaron" unicode="&#x11b;" horiz-adv-x="1149" 
d="M481 -24c-86.667 0 -158.168 10.165 -214.501 30.498s-99.5 51.833 -129.5 94.5s-47.667 96.667 -53 162s-0.333008 143 15 233l15 88c16 92 38.333 170.333 67 235s65.5 117.334 110.5 158.001s99.167 70.334 162.5 89.001s137.666 28 222.999 28
c69.333 0 128.833 -7.83301 178.5 -23.5s90.5 -38.5 122.5 -68.5s55.667 -67 71 -111s23 -94.333 23 -151c0 -33.333 -2.16699 -64.5 -6.5 -93.5s-9.66602 -55 -15.999 -78s-12.833 -43 -19.5 -60s-12 -29.833 -16 -38.5c-2.66699 -5.33301 -5.5 -9 -8.5 -11
s-7.5 -3 -13.5 -3l-731 -1c-9.33301 -63.333 -12.166 -116 -8.49902 -158s15.5 -75.5 35.5 -100.5s48.833 -42.833 86.5 -53.5s85.5 -16 143.5 -16c56.667 0 114 1.16699 172 3.5s118.667 6.16602 182 11.499c10.667 0.666992 15.667 -4.33301 15 -15l-8 -111
c-0.666992 -6 -2.16699 -10.167 -4.5 -12.5s-6.5 -4.16602 -12.5 -5.49902c-60.667 -6.66699 -121.667 -12 -183 -16s-127.333 -6 -198 -6zM895.999 607.998c8 59.333 10.498 110.167 7.49805 152.5s-13.833 77 -32.5 104s-46 46.667 -82 59s-82.667 18.5 -140 18.5
c-56 0 -104.167 -6.5 -144.5 -19.5s-74.666 -33.5 -102.999 -61.5s-51.666 -63.833 -69.999 -107.5s-33.5 -96.167 -45.5 -157.5zM428.997 1515c-6.66699 8.66699 -4.33301 13 7 13h145c10.667 0 18.667 -4.66699 24 -14l81 -143h21l134 145c7.33301 8 16.333 12 27 12h166
c10 0 11.333 -3.66699 4 -11l-257 -245c-8 -7.33301 -17.333 -11 -28 -11h-135c-10.667 0 -19 4.33301 -25 13z" />
    <glyph glyph-name="Gbreve" unicode="&#x11e;" horiz-adv-x="1290" 
d="M1171 784c10.667 0 14.999 -5.33203 12.999 -15.999l-133 -719c-1.33301 -6 -3.33301 -10.5 -6 -13.5s-6.66699 -5.5 -12 -7.5c-73.333 -21.333 -144.833 -35.333 -214.5 -42s-136.167 -10 -199.5 -10c-99.333 0 -184.5 11.833 -255.5 35.5s-127 62.5 -168 116.5
s-66.167 125.167 -75.5 213.5s-1.66602 197.166 23.001 326.499l25 140c24.667 134 58 245.333 100 334s93.667 159.5 155 212.5s132.5 90.333 213.5 112s172.833 32.5 275.5 32.5c30.667 0 61.667 -0.833008 93 -2.5s61.5 -4.16699 90.5 -7.5s56.333 -7.33301 82 -12
s48.5 -10 68.5 -16c10.667 -2.66699 14 -9.33398 10 -20.001l-47 -130c-3.33301 -10 -10.333 -14 -21 -12c-46 8.66699 -95 14.834 -147 18.501s-103.333 5.5 -154 5.5c-73.333 0 -139 -8 -197 -24s-109 -43.333 -153 -82s-81.333 -90.5 -112 -155.5
s-55 -146.167 -73 -243.5l-28 -160c-18.667 -98 -25.334 -179.5 -20.001 -244.5s21.666 -116.833 48.999 -155.5s65.833 -66 115.5 -82s109.834 -24 180.501 -24c48.667 0 92.834 1.5 132.501 4.5s77.5 7.16699 113.5 12.5l82 445l-273 8c-10.667 0 -15 5.33301 -13 16
l24 130c2 10.667 8.33301 16 19 16h437zM873.999 1580c-89.333 0 -153.33 19.499 -191.997 58.499s-54.334 96.5 -47.001 172.5c0.666992 10.667 6.66699 16 18 16h98c10.667 0 16 -5.33301 16 -16c-0.666992 -22 2.5 -40.333 9.5 -55s16.167 -26.334 27.5 -35.001
s24.333 -14.667 39 -18s29.667 -5 45 -5c16.667 0 33 1.83301 49 5.5s31 9.83398 45 18.501s26.667 20.334 38 35.001s20.666 33 27.999 55c3.33301 10 10.666 15 21.999 15h107c10.667 0 14.667 -5.33301 12 -16c-11.333 -40.667 -24.5 -75.5 -39.5 -104.5
s-34.5 -52.833 -58.5 -71.5s-53.5 -32.5 -88.5 -41.5s-77.833 -13.5 -128.5 -13.5z" />
    <glyph glyph-name="gbreve" unicode="&#x11f;" horiz-adv-x="1184" 
d="M709 1259c-43.333 0 -80.334 6 -111.001 18s-55.167 29 -73.5 51s-31.166 48.667 -38.499 80s-9.33301 66 -6 104c0 10.667 5.66699 16 17 16h104c10 0 14.667 -5.33301 14 -16c-2 -23.333 -0.666992 -43 4 -59s11.834 -28.833 21.501 -38.5s21.334 -16.5 35.001 -20.5
s28.5 -6 44.5 -6c18 0 35.167 2 51.5 6s31.666 10.833 45.999 20.5s27.333 22.5 39 38.5s21.5 36 29.5 60c3.33301 10 10.666 15 21.999 15h108c6 0 10 -1.16699 12 -3.5s2.66699 -6.5 2 -12.5c-6 -36.667 -15.833 -70.5 -29.5 -101.5s-33 -57.667 -58 -80
s-56.5 -39.833 -94.5 -52.5s-84.333 -19 -139 -19zM293.999 -475c-20 0 -41.502 0.504883 -64.502 1.50488s-46.5 2.33301 -70.5 4s-47.5 3.83398 -70.5 6.50098s-44.167 5.66699 -63.5 9c-10.667 2 -14.667 8 -12 18l33 112c2.66699 10.667 9.33398 15 20.001 13
c17.333 -3.33301 36.166 -5.83301 56.499 -7.5s40.833 -3.16699 61.5 -4.5s41.334 -2.16602 62.001 -2.49902s40 -0.5 58 -0.5c67.333 0 125 4.16699 173 12.5s88.5 24.166 121.5 47.499s59.833 56 80.5 98s37.334 96.667 50.001 164c-13.333 -2 -28.833 -4 -46.5 -6
s-36.5 -3.66699 -56.5 -5s-40.667 -2.5 -62 -3.5s-42.333 -1.5 -63 -1.5c-94.667 0 -171.834 9.5 -231.501 28.5s-105 48.667 -136 89s-48.667 91.5 -53 153.5s1.83398 136 18.501 222l24 126c19.333 101.333 42.833 184.166 70.5 248.499s63.667 114.666 108 150.999
s99 61.333 164 75s144.167 20.5 237.5 20.5c30.667 0 62.667 -0.5 96 -1.5s66.5 -2.5 99.5 -4.5s65.333 -4.33301 97 -7s61.5 -5.33398 89.5 -8.00098c10.667 -0.666992 15 -6.66699 13 -18l-195 -1049c-12.667 -68.667 -28.5 -128.334 -47.5 -179.001
s-41.333 -93.834 -67 -129.501s-55 -64.667 -88 -87s-69.833 -39.833 -110.5 -52.5s-85.667 -21.334 -135 -26.001s-103 -7 -161 -7zM676.997 941.005c-66 0 -120.834 -5.66602 -164.501 -16.999s-80 -31 -109 -59s-52.333 -65.5 -70 -112.5s-33.5 -105.833 -47.5 -176.5
l-14 -74c-13.333 -72 -20 -132 -20 -180s9.33301 -86.333 28 -115s48.334 -49 89.001 -61s95 -18 163 -18c40 0 80.167 1 120.5 3s74.5 4.66699 102.5 8l148 790c-30 3.33301 -64 6.16602 -102 8.49902s-79.333 3.5 -124 3.5z" />
    <glyph glyph-name="Gcommaaccent" unicode="&#x122;" horiz-adv-x="1290" 
d="M1171 784c10.667 0 14.999 -5.33203 12.999 -15.999l-133 -719c-1.33301 -6 -3.33301 -10.5 -6 -13.5s-6.66699 -5.5 -12 -7.5c-73.333 -21.333 -144.833 -35.333 -214.5 -42s-136.167 -10 -199.5 -10c-99.333 0 -184.5 11.833 -255.5 35.5s-127 62.5 -168 116.5
s-66.167 125.167 -75.5 213.5s-1.66602 197.166 23.001 326.499l25 140c24.667 134 58 245.333 100 334s93.667 159.5 155 212.5s132.5 90.333 213.5 112s172.833 32.5 275.5 32.5c30.667 0 61.667 -0.833008 93 -2.5s61.5 -4.16699 90.5 -7.5s56.333 -7.33301 82 -12
s48.5 -10 68.5 -16c10.667 -2.66699 14 -9.33398 10 -20.001l-47 -130c-3.33301 -10 -10.333 -14 -21 -12c-46 8.66699 -95 14.834 -147 18.501s-103.333 5.5 -154 5.5c-73.333 0 -139 -8 -197 -24s-109 -43.333 -153 -82s-81.333 -90.5 -112 -155.5
s-55 -146.167 -73 -243.5l-28 -160c-18.667 -98 -25.334 -179.5 -20.001 -244.5s21.666 -116.833 48.999 -155.5s65.833 -66 115.5 -82s109.834 -24 180.501 -24c48.667 0 92.834 1.5 132.501 4.5s77.5 7.16699 113.5 12.5l82 445l-273 8c-10.667 0 -15 5.33301 -13 16
l24 130c2 10.667 8.33301 16 19 16h437zM381.999 -438.999c-11.333 0 -14.335 4.99902 -9.00195 14.999l128 276c4.66699 10.667 12.334 16.334 23.001 17.001l155 23c10.667 1.33301 13.334 -2.66699 8.00098 -12l-164 -305c-5.33301 -9.33301 -13.333 -14 -24 -14h-117z
" />
    <glyph glyph-name="gcommaaccent" unicode="&#x123;" horiz-adv-x="1184" 
d="M625 1256c-10.667 -1.33301 -13.332 2.66797 -7.99902 12.001l169 293c5.33301 9.33301 13.333 14 24 14h127c10.667 0 13.667 -5 9 -15l-121 -263c-4.66699 -10.667 -12.334 -16.334 -23.001 -17.001zM293.002 -474.999c-20 0 -41.502 0.504883 -64.502 1.50488
s-46.5 2.33301 -70.5 4s-47.5 3.83398 -70.5 6.50098s-44.167 5.66699 -63.5 9c-10.667 2 -14.667 8 -12 18l33 112c2.66699 10.667 9.33398 15 20.001 13c17.333 -3.33301 36.166 -5.83301 56.499 -7.5s40.833 -3.16699 61.5 -4.5s41.334 -2.16602 62.001 -2.49902
s40 -0.5 58 -0.5c67.333 0 125 4.16699 173 12.5s88.5 24.166 121.5 47.499s59.833 56 80.5 98s37.334 96.667 50.001 164c-13.333 -2 -28.833 -4 -46.5 -6s-36.5 -3.66699 -56.5 -5s-40.667 -2.5 -62 -3.5s-42.333 -1.5 -63 -1.5c-94.667 0 -171.834 9.5 -231.501 28.5
s-105 48.667 -136 89s-48.667 91.5 -53 153.5s1.83398 136 18.501 222l24 126c19.333 101.333 42.833 184.166 70.5 248.499s63.667 114.666 108 150.999s99 61.333 164 75s144.167 20.5 237.5 20.5c30.667 0 62.667 -0.5 96 -1.5s66.5 -2.5 99.5 -4.5
s65.333 -4.33301 97 -7s61.5 -5.33398 89.5 -8.00098c10.667 -0.666992 15 -6.66699 13 -18l-195 -1049c-12.667 -68.667 -28.5 -128.334 -47.5 -179.001s-41.333 -93.834 -67 -129.501s-55 -64.667 -88 -87s-69.833 -39.833 -110.5 -52.5s-85.667 -21.334 -135 -26.001
s-103 -7 -161 -7zM676 941.006c-66 0 -120.834 -5.66602 -164.501 -16.999s-80 -31 -109 -59s-52.333 -65.5 -70 -112.5s-33.5 -105.833 -47.5 -176.5l-14 -74c-13.333 -72 -20 -132 -20 -180s9.33301 -86.333 28 -115s48.334 -49 89.001 -61s95 -18 163 -18
c40 0 80.167 1 120.5 3s74.5 4.66699 102.5 8l148 790c-30 3.33301 -64 6.16602 -102 8.49902s-79.333 3.5 -124 3.5z" />
    <glyph glyph-name="Imacron" unicode="&#x12a;" horiz-adv-x="574" 
d="M260 1646c-10.667 0 -15 5.33301 -13 16l19 101c2 10.667 8.33301 16 19 16h408c10.667 0 15 -5.33301 13 -16l-20 -101c-2 -10.667 -8.33301 -16 -19 -16h-407zM97 0c-10.667 0 -15 5.33301 -13 16l266 1443c2 10.667 8.33301 16 19 16h147c10.667 0 15 -5.33301 13 -16
l-266 -1443c-2 -10.667 -8.33301 -16 -19 -16h-147z" />
    <glyph glyph-name="imacron" unicode="&#x12b;" horiz-adv-x="510" 
d="M183 1293c-10.667 0 -15 5.33301 -13 16l19 102c2 10.667 8.33301 16 19 16h386c10.667 0 15 -5.33301 13 -16l-20 -102c-2 -10.667 -8.33301 -16 -19 -16h-385zM71 0c-10.667 0 -15 5.33301 -13 16l192 1039c2 10.667 8.33301 16 19 16h140c10.667 0 15 -5.33301 13 -16
l-193 -1039c-2 -10.667 -8.33301 -16 -19 -16h-139z" />
    <glyph glyph-name="Ibreve" unicode="&#x12c;" horiz-adv-x="575" 
d="M98 0c-10.667 0 -15 5.33301 -13 16l266 1443c2 10.667 8.33301 16 19 16h147c10.667 0 15 -5.33301 13 -16l-266 -1443c-2 -10.667 -8.33301 -16 -19 -16h-147zM464 1580c-89.333 0 -153.33 19.499 -191.997 58.499s-54.334 96.5 -47.001 172.5
c0.666992 10.667 6.66699 16 18 16h98c10.667 0 16 -5.33301 16 -16c-0.666992 -22 2.5 -40.333 9.5 -55s16.167 -26.334 27.5 -35.001s24.333 -14.667 39 -18s29.667 -5 45 -5c16.667 0 33 1.83301 49 5.5s31 9.83398 45 18.501s26.667 20.334 38 35.001
s20.666 33 27.999 55c3.33301 10 10.666 15 21.999 15h107c10.667 0 14.667 -5.33301 12 -16c-11.333 -40.667 -24.5 -75.5 -39.5 -104.5s-34.5 -52.833 -58.5 -71.5s-53.5 -32.5 -88.5 -41.5s-77.833 -13.5 -128.5 -13.5z" />
    <glyph glyph-name="ibreve" unicode="&#x12d;" horiz-adv-x="510" 
d="M71 0c-10.667 0 -15 5.33301 -13 16l192 1039c2 10.667 8.33301 16 19 16h140c10.667 0 15 -5.33301 13 -16l-193 -1039c-2 -10.667 -8.33301 -16 -19 -16h-139zM367 1259c-43.333 0 -80.334 6 -111.001 18s-55.167 29 -73.5 51s-31.166 48.667 -38.499 80
s-9.33301 66 -6 104c0 10.667 5.66699 16 17 16h104c10 0 14.667 -5.33301 14 -16c-2 -23.333 -0.666992 -43 4 -59s11.834 -28.833 21.501 -38.5s21.334 -16.5 35.001 -20.5s28.5 -6 44.5 -6c18 0 35.167 2 51.5 6s31.666 10.833 45.999 20.5s27.333 22.5 39 38.5
s21.5 36 29.5 60c3.33301 10 10.666 15 21.999 15h108c6 0 10 -1.16699 12 -3.5s2.66699 -6.5 2 -12.5c-6 -36.667 -15.833 -70.5 -29.5 -101.5s-33 -57.667 -58 -80s-56.5 -39.833 -94.5 -52.5s-84.333 -19 -139 -19z" />
    </font>
</defs>
</svg>
