<?xml version="1.0" standalone="no"?>
<!DOCTYPE svg PUBLIC "-//W3C//DTD SVG 1.1//EN" "http://www.w3.org/Graphics/SVG/1.1/DTD/svg11.dtd" >
<svg>
<metadata>
Created by FontForge 20090914 at Wed Apr  8 22:57:29 2015
 By www-data
</metadata>
<defs>
<font id="SkodaPro-Medium" horiz-adv-x="778" >
  <font-face 
    font-family="Skoda Pro Light"
    font-weight="500"
    font-stretch="normal"
    units-per-em="2048"
    panose-1="2 0 0 0 0 0 0 0 0 0"
    ascent="1638"
    descent="-410"
    x-height="1071"
    cap-height="1475"
    bbox="-927.002 -475.002 2567 1905"
    underline-thickness="102"
    underline-position="-103"
    unicode-range="U+0020-U+FB02"
  />
<missing-glyph horiz-adv-x="1022" 
 />
    <glyph glyph-name=".notdef" horiz-adv-x="1022" 
 />
    <glyph glyph-name="space" unicode=" " horiz-adv-x="508" 
 />
    <glyph glyph-name="exclam" unicode="!" horiz-adv-x="531" 
d="M200 493c-10.667 0 -16 5.33301 -16 16l-11 950c0 11.333 5.33301 17.333 16 18l153 25c10.667 0.666992 16 -4 16 -14l-11 -979c0 -10.667 -5.33301 -16 -16 -16h-131zM188 0c-10.667 0 -16 5.33301 -16 16v228c0 11.333 5.33301 17.333 16 18l147 24
c6 0.666992 10.167 0 12.5 -2s3.5 -6 3.5 -12v-256c0 -10.667 -5.33301 -16 -16 -16h-147z" />
    <glyph glyph-name="quotedbl" unicode="&#x22;" horiz-adv-x="775" 
d="M150 981c-10.667 0 -16 5.33301 -16 16v462c0 11.333 5.33301 17.333 16 18l145 20c6 0.666992 10.167 0 12.5 -2s3.5 -6 3.5 -12v-486c0 -10.667 -5.33301 -16 -16 -16h-145zM481 981c-10.667 0 -16 5.33301 -16 16v462c0 11.333 5.33301 17.333 16 18l145 20
c6 0.666992 10.167 0 12.5 -2s3.5 -6 3.5 -12v-486c0 -10.667 -5.33301 -16 -16 -16h-145z" />
    <glyph glyph-name="numbersign" unicode="#" horiz-adv-x="1476" 
d="M806 0c-10.667 0 -15.002 5.33301 -13.002 16l56 340h-352l-56 -340c-2 -10.667 -8.33301 -16 -19 -16h-143c-10.667 -0 -15 5.33301 -13 16l56 340h-231c-11.333 0 -16 5.33301 -14 16l12 137c1.33301 6 3.16602 10.167 5.49902 12.5s6.5 3.5 12.5 3.5h244l71 425h-236
c-10.667 0 -15.667 5.33301 -15 16l13 136c0.666992 10.667 6.33398 16 17.001 16h249l57 341c2 10.667 8.33301 16 19 16h143c10.667 0 15 -5.33301 13 -16l-57 -341h352l57 341c2 10.667 8.33301 16 19 16h144c10.667 0 15 -5.33301 13 -16l-57 -341h232
c11.333 0 16 -5.33301 14 -16l-12 -136c-1.33301 -6 -3.16602 -10.167 -5.49902 -12.5s-6.5 -3.5 -12.5 -3.5h-244l-71 -425h236c11.333 0 16 -5.33301 14 -16l-12 -137c-1.33301 -6 -3.16602 -10.167 -5.49902 -12.5s-6.5 -3.5 -12.5 -3.5h-249l-56 -340
c-2 -10.667 -8.33301 -16 -19 -16h-144zM596.998 950l-71 -425h352l71 425h-352z" />
    <glyph glyph-name="dollar" unicode="$" horiz-adv-x="1109" 
d="M506 -245c-10.667 0 -15.998 5.33301 -15.998 16l-4 217c-61.333 0 -122.5 2.5 -183.5 7.5s-115.5 12.5 -163.5 22.5c-10.667 2 -15 8 -13 18l27 120c2.66699 10.667 9.33398 15 20.001 13c55.333 -9.33301 108.666 -15.5 159.999 -18.5s103.666 -4.5 156.999 -4.5l3 542
l-75 25c-60 20 -110.667 41.833 -152 65.5s-75 51 -101 82s-44.667 67.333 -56 109s-17 90.5 -17 146.5c0 58 7.33301 108.5 22 151.5s38 79.333 70 109s73.167 53.167 123.5 70.5s111.166 29 182.499 35v222c0 10.667 5.33301 16 16 16h120c10.667 0 16 -5.33301 16 -16
v-217c55.333 -0.666992 109.166 -3.33398 161.499 -8.00098s98.833 -10.667 139.5 -18c10.667 -2 15 -8.33301 13 -19l-22 -116c-2 -11.333 -8.33301 -16 -19 -14c-42 4.66699 -85.667 8.33398 -131 11.001s-92.666 4.66699 -141.999 6l-4 -525l58 -17
c66.667 -21.333 121 -44.666 163 -69.999s75 -54 99 -86s40.5 -68 49.5 -108s13.5 -85 13.5 -135c0 -56.667 -5.83301 -107.5 -17.5 -152.5s-32 -83.833 -61 -116.5s-67.833 -59.334 -116.5 -80.001s-110 -35 -184 -43v-225c0 -10.667 -5.33301 -16 -16 -16h-120z
M494.002 1325c-47.333 -3.33301 -86.834 -9.66895 -118.501 -19.002s-57 -22.333 -76 -39s-32.5 -37.667 -40.5 -63s-12 -55.666 -12 -90.999c0 -38.667 4.16699 -71.167 12.5 -97.5s22 -49.166 41 -68.499s44.333 -36.333 76 -51s70.834 -30 117.501 -46v475z
M638.001 152.997c50.667 6 91.001 15.5 121.001 28.5s52.833 29.333 68.5 49s25.834 42.667 30.501 69s7 55.833 7 88.5s-3 60.834 -9 84.501s-17.333 44.667 -34 63s-39.834 35.666 -69.501 51.999s-67.834 33.5 -114.501 51.5v-486z" />
    <glyph glyph-name="percent" unicode="%" horiz-adv-x="1897" 
d="M438 589c-51.333 0 -98 6.33301 -140 19s-78 34 -108 64s-53.167 69.833 -69.5 119.5s-24.5 111.834 -24.5 186.501v131c0 75.333 8.16699 138 24.5 188s39.333 90 69 120s65.5 51.167 107.5 63.5s89 18.5 141 18.5s98.833 -6.16699 140.5 -18.5
s77.334 -33.5 107.001 -63.5s52.5 -70 68.5 -120s24 -112.667 24 -188v-131c0 -74.667 -7.83301 -136.834 -23.5 -186.501s-38.334 -89.5 -68.001 -119.5s-65.5 -51.333 -107.5 -64s-89 -19 -141 -19zM438 1354c-30 0 -56.8301 -3.83301 -80.4971 -11.5
s-43.667 -20.834 -60 -39.501s-28.833 -43.667 -37.5 -75s-13 -70.333 -13 -117v-134c0 -46 4.33301 -84.5 13 -115.5s21.167 -56 37.5 -75s36.333 -32.5 60 -40.5s50.5 -12 80.5 -12c29.333 0 55.666 4 78.999 12s43.166 21.5 59.499 40.5s28.833 44.167 37.5 75.5
s13 70 13 116v133c0 46.667 -4.33301 85.667 -13 117s-21.334 56.333 -38.001 75s-36.667 31.834 -60 39.501s-49.333 11.5 -78 11.5zM1460 -24c-51.333 0 -98 6.33301 -140 19s-77.833 34 -107.5 64s-52.667 69.833 -69 119.5s-24.5 111.834 -24.5 186.501v131
c0 75.333 8 138 24 188s38.833 90 68.5 120s65.5 51.167 107.5 63.5s89 18.5 141 18.5s98.833 -6.16699 140.5 -18.5s77.334 -33.5 107.001 -63.5s52.5 -70 68.5 -120s24 -112.667 24 -188v-131c0 -74.667 -7.83301 -136.834 -23.5 -186.501s-38.334 -89.5 -68.001 -119.5
s-65.5 -51.333 -107.5 -64s-89 -19 -141 -19zM1460 740c-30 0 -56.666 -3.83301 -79.999 -11.5s-43.333 -20.667 -60 -39s-29.334 -43.166 -38.001 -74.499s-13 -70.666 -13 -117.999v-134c0 -46 4.33301 -84.333 13 -115s21.334 -55.5 38.001 -74.5s36.667 -32.5 60 -40.5
s50 -12 80 -12s56.667 4 80 12s43.166 21.5 59.499 40.5s28.833 44 37.5 75s13 69.5 13 115.5v133c0 47.333 -4.33301 86.666 -13 117.999s-21.334 56.166 -38.001 74.499s-36.667 31.333 -60 39s-49.666 11.5 -78.999 11.5zM432.004 0
c-10.667 0 -13.334 4.66699 -8.00098 14l849 1447c5.33301 9.33301 13.333 14 24 14h160c10.667 0 13.334 -4.66699 8.00098 -14l-850 -1447c-5.33301 -9.33301 -13.333 -14 -24 -14h-159z" />
    <glyph glyph-name="ampersand" unicode="&#x26;" horiz-adv-x="1450" 
d="M1185 0c-10.667 0 -19.6709 4 -27.0039 12l-149 162c-74.667 -61.333 -156 -109.666 -244 -144.999s-181 -53 -279 -53c-34.667 0 -68.5 1.5 -101.5 4.5s-63.833 9.33301 -92.5 19s-55 23.5 -79 41.5s-44.667 42.5 -62 73.5s-30.666 69 -39.999 114s-14 99.167 -14 162.5
c0 74.667 4.83301 135.667 14.5 183s26 86.666 49 117.999s53.833 58.333 92.5 81s87.334 47 146.001 73c-26.667 32 -49 62 -67 90s-32.5 55.833 -43.5 83.5s-18.833 56.334 -23.5 86.001s-7 62.5 -7 98.5c0 56 8 103 24 141s39.667 68.333 71 91s70 38.834 116 48.501
s99.333 14.5 160 14.5c59.333 0 111.833 -4.83301 157.5 -14.5s84.167 -25.834 115.5 -48.501s55.166 -53 71.499 -91s24.5 -85 24.5 -141c0 -36 -1.5 -68.167 -4.5 -96.5s-8.66699 -54 -17 -77s-20.166 -44.167 -35.499 -63.5s-35.166 -38.333 -59.499 -57
s-54 -37.334 -89 -56.001s-76.5 -39 -124.5 -61l343 -376c42 50.667 78.5 105.167 109.5 163.5s54.5 118.833 70.5 181.5c2.66699 10 9.33398 15 20.001 15h143c10.667 0 14.667 -5.33301 12 -16c-20 -87.333 -50.167 -171 -90.5 -251s-89.833 -153.333 -148.5 -220
l253 -278c8 -8 6.33301 -12 -5 -12h-190zM279.996 406c0 -60 5.66699 -107.167 17 -141.5s27 -60 47 -77s43.667 -27.5 71 -31.5s57 -6 89 -6c70.667 0 139 13.5 205 40.5s127.333 63.833 184 110.5l-385 421c-45.333 -20.667 -82.833 -39.667 -112.5 -57s-53 -37 -70 -59
s-28.833 -48.667 -35.5 -80s-10 -71.333 -10 -120zM630.996 1357c-40.667 0 -74.167 -3.00391 -100.5 -9.00391s-47.333 -15.333 -63 -28s-26.5 -29.167 -32.5 -49.5s-9 -44.833 -9 -73.5c0 -30 2.5 -56.667 7.5 -80s12.667 -45.666 23 -66.999s23.833 -42.666 40.5 -63.999
s36.667 -45 60 -71c41.333 18 77 34.333 107 49s55 28.334 75 41.001s36 25.334 48 38.001s21.167 26.5 27.5 41.5s10.5 31.5 12.5 49.5s3 39 3 63c0 28.667 -3 53.167 -9 73.5s-16.5 36.833 -31.5 49.5s-35.333 22 -61 28s-58.167 9 -97.5 9z" />
    <glyph glyph-name="quotesingle" unicode="'" horiz-adv-x="445" 
d="M150 981c-10.667 0 -16 5.33301 -16 16v462c0 11.333 5.33301 17.333 16 18l145 20c6 0.666992 10.167 0 12.5 -2s3.5 -6 3.5 -12v-486c0 -10.667 -5.33301 -16 -16 -16h-145z" />
    <glyph glyph-name="parenleft" unicode="(" horiz-adv-x="589" 
d="M298 518c0 -73.333 4.5 -149.676 13.5 -229.009s22.833 -158 41.5 -236s42 -153.667 70 -227s61 -140.333 99 -201c6 -9.33301 3.66699 -14 -7 -14h-152c-10.667 0 -19 4.33301 -25 13c-37.333 58 -69.833 122.333 -97.5 193s-50.834 144.334 -69.501 221.001
s-32.667 154.834 -42 234.501s-14 157.5 -14 233.5v73c0 76 4.66699 153.833 14 233.5s23.333 157.834 42 234.501s41.834 150.334 69.501 221.001s60.167 135.334 97.5 194.001c6 8.66699 14.333 13 25 13h152c11.333 0 13.666 -4.33301 6.99902 -13
c-38 -61.333 -71.167 -128.666 -99.5 -201.999s-51.666 -149.166 -69.999 -227.499s-32 -157.166 -41 -236.499s-13.5 -155.666 -13.5 -228.999v-49v0z" />
    <glyph glyph-name="parenright" unicode=")" horiz-adv-x="589" 
d="M291 567c0 73.333 -4.5 149.676 -13.5 229.009s-22.667 158.166 -41 236.499s-41.666 154.166 -69.999 227.499s-61.5 140.666 -99.5 201.999c-6.66699 8.66699 -4.33398 13 6.99902 13h152c10.667 0 19 -4.33301 25 -13c36.667 -58.667 69 -123.334 97 -194.001
s51.333 -144.334 70 -221.001s32.667 -154.834 42 -234.501s14 -157.5 14 -233.5v-73c0 -76 -4.66699 -153.833 -14 -233.5s-23.333 -157.834 -42 -234.501s-42 -150.334 -70 -221.001s-60.333 -135 -97 -193c-6 -8.66699 -14.333 -13 -25 -13h-152
c-10.667 0 -13 4.66699 -7 14c38 60.667 71 127.667 99 201s51.333 149 70 227s32.5 156.667 41.5 236s13.5 155.666 13.5 228.999v49z" />
    <glyph glyph-name="asterisk" unicode="*" horiz-adv-x="955" 
d="M114 1308c-9.33301 5.33301 -11.333 12.666 -6 21.999l52 92c5.33301 9.33301 12.666 11.333 21.999 6l227 -132l-1 261c0 10.667 5.33301 16 16 16h107c10.667 0 16 -5.33301 16 -16l-1 -261l227 132c9.33301 5.33301 16.666 3.33301 21.999 -6l53 -92
c5.33301 -9.33301 3.33301 -16.666 -6 -21.999l-228 -130l228 -130c9.33301 -5.33301 11.333 -12.666 6 -21.999l-53 -93c-5.33301 -9.33301 -12.666 -11.333 -21.999 -6l-228 133l2 -263c0 -10.667 -5.33301 -16 -16 -16h-107c-10.667 0 -16 5.33301 -16 16l1 263
l-227 -133c-9.33301 -5.33301 -16.666 -3.33301 -21.999 6l-52 93c-5.33301 9.33301 -3.33301 16.666 6 21.999l227 130z" />
    <glyph glyph-name="plus" unicode="+" horiz-adv-x="1049" 
d="M108 706c-10.667 0 -16 5.33301 -16 16v135c0 10.667 5.33301 16 16 16h333v335c0 10.667 5.33301 16 16 16h135c10.667 0 16 -5.33301 16 -16v-335h333c10.667 0 16 -5.33301 16 -16v-135c0 -10.667 -5.33301 -16 -16 -16h-333v-332c0 -10.667 -5.33301 -16 -16 -16
h-135c-10.667 0 -16 5.33301 -16 16v332h-333z" />
    <glyph glyph-name="comma" unicode="," horiz-adv-x="486" 
d="M88 -242c-10.667 0 -14.999 5.33301 -12.999 16l77 470c2 11.333 8.33301 17.333 19 18l174 24c10.667 0.666992 14.667 -4 12 -14l-126 -498c-2.66699 -10.667 -9.33398 -16 -20.001 -16h-123z" />
    <glyph glyph-name="hyphen" unicode="-" horiz-adv-x="795" 
d="M166 511c-10.667 0 -16 5.33301 -16 16v135c0 10.667 5.33301 16 16 16h464c10.667 0 16 -5.33301 16 -16v-135c0 -10.667 -5.33301 -16 -16 -16h-464z" />
    <glyph glyph-name="period" unicode="." horiz-adv-x="462" 
d="M154 0c-10.667 0 -16 5.33301 -16 16v228c0 11.333 5.33301 17.333 16 18l147 24c6 0.666992 10.167 0 12.5 -2s3.5 -6 3.5 -12v-256c0 -10.667 -5.33301 -16 -16 -16h-147z" />
    <glyph glyph-name="slash" unicode="/" horiz-adv-x="795" 
d="M92 0c-11.333 0 -15 5 -11 15l463 1526c3.33301 10 10.333 15 21 15h148c11.333 0 15 -5 11 -15l-463 -1526c-3.33301 -10 -10.333 -15 -21 -15h-148z" />
    <glyph glyph-name="zero" unicode="0" horiz-adv-x="1296" 
d="M647 -24c-54 0 -103.998 2.83398 -149.998 8.50098s-87.5 16.667 -124.5 33s-69.833 38.833 -98.5 67.5s-52.5 66 -71.5 112s-33.5 101.833 -43.5 167.5s-15 143.5 -15 233.5v278c0 90 4.83301 167.667 14.5 233s24.167 121.166 43.5 167.499s43.166 84 71.499 113
s61.166 51.5 98.499 67.5s79 27 125 33s96 9 150 9c54.667 0 105.167 -3 151.5 -9s88.166 -17 125.499 -33s70.166 -38.5 98.499 -67.5s52 -66.667 71 -113s33.333 -102.333 43 -168s14.5 -143.167 14.5 -232.5v-278c0 -90 -4.83301 -167.833 -14.5 -233.5
s-24 -121.5 -43 -167.5s-42.667 -83.333 -71 -112s-61.166 -51.167 -98.499 -67.5s-79.166 -27.333 -125.499 -33s-96.833 -8.5 -151.5 -8.5zM647.002 1325c-36 0 -68.834 -2 -98.501 -6s-56.5 -11.833 -80.5 -23.5s-45 -28 -63 -49s-33 -48.333 -45 -82
s-21 -74.5 -27 -122.5s-9 -105 -9 -171v-268c0 -66 3 -123 9 -171s15 -88.667 27 -122s27 -60.5 45 -81.5s39 -37.333 63 -49s50.833 -19.5 80.5 -23.5s62.5 -6 98.5 -6c54.667 0 102.334 5.16699 143.001 15.5s74.5 31.5 101.5 63.5s47.167 77.833 60.5 137.5
s20 139.167 20 238.5v266c0 66 -3 123 -9 171s-15 88.833 -27 122.5s-27 61 -45 82s-39 37.333 -63 49s-51.167 19.5 -81.5 23.5s-63.5 6 -99.5 6z" />
    <glyph glyph-name="one" unicode="1" horiz-adv-x="768" 
d="M69 1245c-10.667 -2 -17 2.33301 -19 13l-21 135c-2 10.667 2.33301 17 13 19l343 60c10 2 20.667 3 32 3h147c10.667 0 16 -5.33301 16 -16v-1443c0 -10.667 -5.33301 -16 -16 -16h-147c-10.667 -0 -16 5.33301 -16 16v1289z" />
    <glyph glyph-name="two" unicode="2" horiz-adv-x="1104" 
d="M117 0c-10.667 0 -16.001 5.32812 -16.001 15.9951v94c0 68.667 5.16699 128.834 15.5 180.501s27.333 99.334 51 143.001s55 85.334 94 125.001s87.5 81.834 145.5 126.501l218 169l71 58.5c21.333 18.333 39.5 37.5 54.5 57.5s26.667 41.333 35 64s12.5 48.667 12.5 78
c0 40 -5.16699 73.5 -15.5 100.5s-28 48.833 -53 65.5s-58.333 28.5 -100 35.5s-93.834 10.5 -156.501 10.5c-19.333 0 -41 -0.333008 -65 -1s-49.167 -2 -75.5 -4s-53.5 -4.66699 -81.5 -8s-55.333 -7.33301 -82 -12c-10.667 -2 -17 2.33301 -19 13l-23 132
c-2 10.667 2 17.334 12 20.001c28 6.66699 57.333 12.167 88 16.5s61.334 7.83301 92.001 10.5s60.334 4.66699 89.001 6s55 2 79 2c96 0 176.167 -7.66699 240.5 -23s115.833 -38.333 154.5 -69s66 -69.167 82 -115.5s24 -100.5 24 -162.5c0 -44 -5 -83.667 -15 -119
s-24.833 -68.166 -44.5 -98.499s-44.334 -59.833 -74.001 -88.5s-64.167 -58.334 -103.5 -89.001l-181 -143c-54.667 -43.333 -99.167 -81.5 -133.5 -114.5s-61.166 -65 -80.499 -96s-32.5 -63 -39.5 -96s-10.5 -71.167 -10.5 -114.5h655c10.667 0 16 -5.33301 16 -16v-138
c0 -10.667 -5.33301 -16 -16 -16h-844z" />
    <glyph glyph-name="three" unicode="3" horiz-adv-x="1133" 
d="M471 -24c-61.333 0 -120.665 2.66309 -177.998 7.99609s-108 12 -152 20c-10.667 2 -15.667 8.33301 -15 19l7 138c0.666992 6 2.16699 10 4.5 12s6.5 2.66699 12.5 2c51.333 -7.33301 103.333 -13 156 -17s103 -6 151 -6c60.667 0 113.334 4.5 158.001 13.5
s81.5 23.833 110.5 44.5s50.5 47.834 64.5 81.501s21 75.167 21 124.5v35c0 29.333 -4 59.166 -12 89.499s-22.167 57.666 -42.5 81.999s-47.833 44.333 -82.5 60s-78.334 23.5 -131.001 23.5h-308c-10.667 0 -16 5.33301 -16 16v135c0 10.667 5.33301 16 16 16h304
c54.667 0 99.667 6.83301 135 20.5s63.166 30.834 83.499 51.501s34.333 43.334 42 68.001s11.5 48.334 11.5 71.001v22c0 42 -8 77 -24 105s-39.167 50.333 -69.5 67s-67.333 28.5 -111 35.5s-93.5 10.5 -149.5 10.5c-51.333 0 -102 -2.33301 -152 -7
s-100.333 -10 -151 -16c-6 -0.666992 -10.167 0 -12.5 2s-3.83301 6 -4.5 12l-9 138c-0.666992 10.667 4.33301 17 15 19c44 7.33301 93.667 13.666 149 18.999s113.333 8 174 8c83.333 0 157.666 -6.16699 222.999 -18.5s120.666 -32.666 165.999 -60.999
s79.833 -66 103.5 -113s35.5 -105.167 35.5 -174.5v-26c0 -36 -4.83301 -70.5 -14.5 -103.5s-24.834 -63.167 -45.501 -90.5s-46.667 -51.5 -78 -72.5s-68.666 -36.833 -111.999 -47.5c44.667 -13.333 82.834 -32.5 114.501 -57.5s57.5 -53.5 77.5 -85.5
s34.667 -66.167 44 -102.5s14 -72.5 14 -108.5v-39c0 -82 -11.667 -150.167 -35 -204.5s-57.333 -97.666 -102 -129.999s-99.5 -55.166 -164.5 -68.499s-138.833 -20 -221.5 -20z" />
    <glyph glyph-name="four" unicode="4" horiz-adv-x="1204" 
d="M73 351c-10.667 0 -15.999 5.33301 -15.999 16v162c0 6 0.666992 11.167 2 15.5s3.66602 8.83301 6.99902 13.5l661 904c6 8.66699 14.333 13 25 13h183c10.667 0 16 -5.33301 16 -16v-954h164c10.667 0 16 -5.33301 16 -16v-122c0 -10.667 -5.33301 -16 -16 -16h-164
v-335c0 -10.667 -5.33301 -16 -16 -16h-148c-10.667 -0 -16 5.33301 -16 16v335h-698zM236.001 505h535v731h-15l-520 -720v-11z" />
    <glyph glyph-name="five" unicode="5" horiz-adv-x="1120" 
d="M445 -24c-64.667 0 -124.167 3 -178.5 9s-105.5 14.667 -153.5 26c-10 2.66699 -14 9.33398 -12 20.001l27 133c2 10.667 8.33301 15 19 13c50 -8.66699 101 -15.334 153 -20.001s98.333 -7 139 -7c131.333 0 227.833 24.667 289.5 74s92.5 122 92.5 218v35
c0 48.667 -7.16699 91.334 -21.5 128.001s-37.5 67 -69.5 91s-73.5 42 -124.5 54s-112.833 18 -185.5 18c-20.667 0 -43.5 -1 -68.5 -3s-49.333 -4.16699 -73 -6.5s-45.667 -4.83301 -66 -7.5s-35.833 -5 -46.5 -7c-10.667 -0.666992 -16 4 -16 14v109
c0 4.66699 0.166992 10 0.5 16s0.833008 11.333 1.5 16l58 560c1.33301 6 3.16602 10.167 5.49902 12.5s6.5 3.5 12.5 3.5h754c10.667 0 15 -5.33301 13 -16l-27 -139c-2 -10.667 -8.33301 -16 -19 -16h-586l-41 -394l15 1.5c10 1 21.667 2.33301 35 4s27.333 3 42 4
s26.667 1.5 36 1.5c91.333 0 171.5 -8.33301 240.5 -25s126.5 -42.834 172.5 -78.501s80.667 -81.667 104 -138s35 -123.833 35 -202.5v-35c0 -81.333 -12.5 -151.333 -37.5 -210s-61.167 -107 -108.5 -145s-105.666 -66 -174.999 -84s-148 -27 -236 -27z" />
    <glyph glyph-name="six" unicode="6" horiz-adv-x="1226" 
d="M632 -24c-77.333 0 -146.665 10.168 -207.998 30.501s-113.333 55.5 -156 105.5s-75.334 116.833 -98.001 200.5s-34 188.5 -34 314.5v212c0 122.667 12.333 226 37 310s61.834 152 111.501 204s112.167 89.333 187.5 112s163.666 34 264.999 34
c48.667 0 97.5 -2.66699 146.5 -8s96.5 -13.666 142.5 -24.999c10.667 -2.66699 15 -9.33398 13 -20.001l-24 -129c-2 -10.667 -8.33301 -15 -19 -13c-39.333 6.66699 -82 11.834 -128 15.501s-89.333 5.5 -130 5.5c-73.333 0 -136.333 -6.83301 -189 -20.5
s-96 -37.167 -130 -70.5s-59.333 -78 -76 -134s-25.667 -126.333 -27 -211c43.333 7.33301 93.666 14.666 150.999 21.999s116 11 176 11c72 0 137.833 -7.5 197.5 -22.5s110.834 -39.833 153.501 -74.5s75.667 -80.167 99 -136.5s35 -125.833 35 -208.5v-16
c0 -72.667 -10.333 -138.834 -31 -198.501s-51.834 -111 -93.501 -154s-93.5 -76.333 -155.5 -100s-134 -35.5 -216 -35.5zM948.001 476.001c0 54 -7.16895 99.333 -21.502 136s-35.166 66.167 -62.499 88.5s-61 38.166 -101 47.499s-85.667 14 -137 14
c-25.333 0 -51.833 -0.833008 -79.5 -2.5s-55 -4 -82 -7s-53.167 -6.33301 -78.5 -10l-70 -10.5v-105c0 -98 7 -178 21 -240s34.5 -110.5 61.5 -145.5s60.5 -59 100.5 -72s85.667 -19.5 137 -19.5c104.667 0 182.834 26.833 234.501 80.5s77.5 129.834 77.5 228.501v17z" />
    <glyph glyph-name="seven" unicode="7" horiz-adv-x="1033" 
d="M155 0c-11.333 0 -14.334 4.66699 -9.00098 14l662 1290h-725c-6 0 -10.167 1.16699 -12.5 3.5s-4.16602 6.5 -5.49902 12.5l-17 139c-0.666992 6 0 10.167 2 12.5s6 3.5 12 3.5h918c10.667 0 16 -5.33301 16 -16v-139c0 -10.667 -2.33301 -20.667 -7 -30l-635 -1276
c-2.66699 -5.33301 -5.66699 -9 -9 -11s-8 -3 -14 -3h-176z" />
    <glyph glyph-name="eight" unicode="8" horiz-adv-x="1271" 
d="M636 -24c-77.333 0 -147.666 6.83301 -210.999 20.5s-117.333 36.834 -162 69.501s-79.167 75.834 -103.5 129.501s-36.5 120.167 -36.5 199.5v47c0 26.667 4.16699 56.334 12.5 89.001s22 64.5 41 95.5s43.833 59.667 74.5 86s68.667 46.833 114 61.5
c-36.667 12 -67.5 29.5 -92.5 52.5s-45.333 49 -61 78s-26.834 60 -33.501 93s-10 65.833 -10 98.5v23c0 66.667 10.5 124 31.5 172s51.5 87.333 91.5 118s89 53.334 147 68.001s124 22 198 22c73.333 0 138.833 -7.33301 196.5 -22s106.5 -37.334 146.5 -68.001
s70.5 -70 91.5 -118s31.5 -105.333 31.5 -172v-23c0 -32.667 -3.33301 -65.5 -10 -98.5s-17.5 -64 -32.5 -93s-35.167 -55 -60.5 -78s-56.333 -40.5 -93 -52.5c44.667 -14.667 82.5 -35.167 113.5 -61.5s56 -55 75 -86s32.667 -62.833 41 -95.5s12.5 -62.334 12.5 -89.001
v-47c0 -79.333 -12.167 -145.833 -36.5 -199.5s-58.833 -96.834 -103.5 -129.501s-98.5 -55.834 -161.5 -69.501s-133.167 -20.5 -210.5 -20.5zM337 1087c0 -23.333 3.00098 -48.5 9.00098 -75.5s17.667 -51.833 35 -74.5s41.666 -41.5 72.999 -56.5s72 -22.5 122 -22.5h119
c50 0 90.5 7.5 121.5 22.5s55.333 33.833 73 56.5s29.5 47.5 35.5 74.5s9 52.167 9 75.5v16c0 82 -23.667 141.333 -71 178s-123 55 -227 55c-104.667 0 -180.667 -18.333 -228 -55s-71 -96 -71 -178v-16zM576.001 690c-38.667 0 -72.499 -4.33301 -101.499 -13
s-53.833 -20 -74.5 -34s-37.5 -29.833 -50.5 -47.5s-23.167 -35.5 -30.5 -53.5s-12.5 -35.333 -15.5 -52s-4.5 -31 -4.5 -43v-39c0 -48.667 6.66699 -90 20 -124s33.833 -61.833 61.5 -83.5s62.667 -37.334 105 -47.001s92.5 -14.5 150.5 -14.5
c57.333 0 107.166 4.83301 149.499 14.5s77.333 25.334 105 47.001s48.167 49.5 61.5 83.5s20 75.333 20 124v39c0 12 -1.5 26.333 -4.5 43s-8.16699 34 -15.5 52s-17.5 35.833 -30.5 53.5s-29.833 33.5 -50.5 47.5s-45.5 25.333 -74.5 34s-62.833 13 -101.5 13h-119z" />
    <glyph glyph-name="nine" unicode="9" horiz-adv-x="1228" 
d="M493 -24c-50 0 -100.169 2.83203 -150.502 8.49902s-99.166 13.834 -146.499 24.501c-10.667 2.66699 -15 9.33398 -13 20.001l23 132c2 10.667 8.33301 15 19 13c40.667 -7.33301 84.834 -13.166 132.501 -17.499s92.5 -6.5 134.5 -6.5c70 0 130.5 6.66699 181.5 20
s93.5 36.5 127.5 69.5s60 77.167 78 132.5s29 125 33 209c-43.333 -8 -93.666 -15.5 -150.999 -22.5s-115.333 -10.5 -174 -10.5c-74.667 0 -141.834 7.66699 -201.501 23s-110.5 40.666 -152.5 75.999s-74.333 81.833 -97 139.5s-34 129.167 -34 214.5v16
c0 73.333 9.66699 139.666 29 198.999s49 110 89 152s90.833 74.333 152.5 97s134.5 34 218.5 34c76 0 144.833 -10 206.5 -30s114.5 -54.333 158.5 -103s78 -114 102 -196s36 -185 36 -309v-171c0 -133.333 -12.333 -245.5 -37 -336.5s-61.834 -164.5 -111.501 -220.5
s-112.167 -96.167 -187.5 -120.5s-163.666 -36.5 -264.999 -36.5zM281.998 1005c0 -56 6.66602 -103 19.999 -141s33.5 -68.5 60.5 -91.5s60.667 -39.5 101 -49.5s87.5 -15 141.5 -15c24.667 0 50.834 0.666992 78.501 2s55 3.33301 82 6s53.167 5.5 78.5 8.5
s48.666 6.16699 69.999 9.5v131c0 96.667 -7.66699 175 -23 235s-37.166 106.667 -65.499 140s-62.5 55.833 -102.5 67.5s-85 17.5 -135 17.5c-108 0 -186 -25.5 -234 -76.5s-72 -126.833 -72 -227.5v-16z" />
    <glyph glyph-name="colon" unicode=":" horiz-adv-x="496" 
d="M173 0c-10.667 0 -16 5.33301 -16 16v228c0 11.333 5.33301 17.333 16 18l147 24c6 0.666992 10.167 0 12.5 -2s3.5 -6 3.5 -12v-256c0 -10.667 -5.33301 -16 -16 -16h-147zM173 676c-10.667 0 -16 5.33301 -16 16v228c0 11.333 5.33301 17.333 16 18l147 24
c6 0.666992 10.167 0 12.5 -2s3.5 -6 3.5 -12v-256c0 -10.667 -5.33301 -16 -16 -16h-147z" />
    <glyph glyph-name="semicolon" unicode=";" horiz-adv-x="545" 
d="M127 -242c-10.667 0 -14.999 5.33301 -12.999 16l77 470c2 11.333 8.33301 17.333 19 18l174 24c10.667 0.666992 14.667 -4 12 -14l-126 -498c-2.66699 -10.667 -9.33398 -16 -20.001 -16h-123zM212.001 676c-10.667 0 -16 5.33301 -16 16v228
c0 11.333 5.33301 17.333 16 18l147 24c6 0.666992 10.167 0 12.5 -2s3.5 -6 3.5 -12v-256c0 -10.667 -5.33301 -16 -16 -16h-147z" />
    <glyph glyph-name="less" unicode="&#x3c;" horiz-adv-x="919" 
d="M89 671c-8.66699 6 -13 14.333 -13 25v140c0 10.667 4.33301 19 13 25l635 408c8 5.33301 14 3.33301 18 -6l44 -141c3.33301 -10 0.333008 -17.667 -9 -23l-538 -333l538 -333c9.33301 -5.33301 12.333 -13 9 -23l-44 -141c-4 -9.33301 -10 -11.333 -18 -6z" />
    <glyph glyph-name="equal" unicode="=" horiz-adv-x="1171" 
d="M178 481c-10.667 0 -16 5.33301 -16 16v135c0 10.667 5.33301 16 16 16h816c10.667 0 16 -5.33301 16 -16v-135c0 -10.667 -5.33301 -16 -16 -16h-816zM178 952c-10.667 0 -16 5.33301 -16 16v134c0 10.667 5.33301 16 16 16h816c10.667 0 16 -5.33301 16 -16v-134
c0 -10.667 -5.33301 -16 -16 -16h-816z" />
    <glyph glyph-name="greater" unicode="&#x3e;" horiz-adv-x="919" 
d="M195 263c-8 -5.33301 -14 -3.33301 -18 6l-44 141c-3.33301 10 -0.333008 17.667 9 23l538 333l-538 333c-9.33301 5.33301 -12.333 13 -9 23l44 141c4 9.33301 10 11.333 18 6l635 -408c8.66699 -6 13 -14.333 13 -25v-140c0 -10.667 -4.33301 -19 -13 -25z" />
    <glyph glyph-name="question" unicode="?" horiz-adv-x="878" 
d="M416 443c0 -10.667 -5.33203 -15.998 -15.999 -15.998h-137c-10 0 -15.333 5 -16 15c-0.666992 6.66699 -1.33398 14.834 -2.00098 24.501l-2 29.5c-0.666992 10 -1.16699 19.667 -1.5 29s-0.5 17 -0.5 23c0 32 1.33301 60.167 4 84.5s8.83398 48.166 18.501 71.499
s23.834 47.166 42.501 71.499s44 52.5 76 84.5l67 65c26.667 26 49.667 49.833 69 71.5s35.333 42 48 61s22 37.667 28 56s9 37.166 9 56.499v15c0 50 -20.5 85.667 -61.5 107s-102.833 32 -185.5 32c-36.667 0 -73.834 -1.5 -111.501 -4.5s-79.5 -8.16699 -125.5 -15.5
c-6 -0.666992 -10.333 0 -13 2s-4.66699 6 -6 12l-23 132c-2 10.667 2.33301 17.334 13 20.001c42 9.33301 89 16.5 141 21.5s103 7.5 153 7.5c62.667 0 119.5 -4.5 170.5 -13.5s94.667 -24.333 131 -46s64.333 -50.334 84 -86.001s29.5 -80.167 29.5 -133.5v-15
c0 -30 -3.33301 -58.333 -10 -85s-17.5 -53.5 -32.5 -80.5s-34.667 -55 -59 -84s-54.166 -61.5 -89.499 -97.5l-75 -78c-28 -29.333 -49.833 -53.666 -65.5 -72.999s-27.334 -38 -35.001 -56s-12.334 -37.833 -14.001 -59.5s-2.5 -48.834 -2.5 -81.501v-67z
M263.001 0.00195312c-10.667 0 -16 5.33301 -16 16v228c0 11.333 5.33301 17.333 16 18l147 24c6 0.666992 10.167 0 12.5 -2s3.5 -6 3.5 -12v-256c0 -10.667 -5.33301 -16 -16 -16h-147z" />
    <glyph glyph-name="at" unicode="@" horiz-adv-x="1794" 
d="M278 549c-8 -68 -11.8379 -133.169 -11.5049 -195.502s6.83301 -120.5 19.5 -174.5s32.334 -103.167 59.001 -147.5s62.167 -82.333 106.5 -114s98.333 -56.5 162 -74.5s139.167 -27.333 226.5 -28c11.333 0 16 -5.33301 14 -16l-12 -121
c-1.33301 -6 -3.16602 -10.167 -5.49902 -12.5s-6.5 -3.5 -12.5 -3.5c-154 1.33301 -280.167 23.833 -378.5 67.5s-174.333 104.5 -228 182.5s-87.834 171 -102.501 279s-15 227.333 -1 358l14 135c14 132 45 245.667 93 341s110.5 173.833 187.5 235.5
s167 107.334 270 137.001s216.5 44.5 340.5 44.5c126 0 231.667 -15.667 317 -47s154 -74.666 206 -129.999s89.167 -120.666 111.5 -195.999s33.5 -157.333 33.5 -246c0 -105.333 -10 -197.333 -30 -276s-48 -146.167 -84 -202.5s-79.167 -103 -129.5 -140
s-105.833 -66.333 -166.5 -88s-125.5 -36.834 -194.5 -45.501s-140.167 -13 -213.5 -13h-13c-73.333 0 -134.166 7.5 -182.499 22.5s-86 39.667 -113 74s-44.167 79.833 -51.5 136.5s-6.66602 126.667 2.00098 210l11 115c8.66699 84 22.5 154.333 41.5 211
s45.833 102 80.5 136s78.5 58.333 131.5 73s118.167 22 195.5 22c44.667 0 91.334 -2.66699 140.001 -8s97 -12.666 145 -21.999c10.667 -2 15.667 -8.33301 15 -19l-47 -759c45.333 15.333 86.333 37 123 65s67.834 64.667 93.501 110s45.334 100.666 59.001 165.999
s20.5 143.333 20.5 234c0 70.667 -8.5 134.667 -25.5 192s-45.667 106.333 -86 147s-93.5 71.834 -159.5 93.501s-148 32.5 -246 32.5c-93.333 0 -180.166 -10.5 -260.499 -31.5s-151.333 -55.833 -213 -104.5s-112.834 -112.834 -153.501 -192.501
s-68.334 -178.167 -83.001 -295.5zM951.995 907.998c-48 0 -87.8301 -5.16797 -119.497 -15.501s-57.334 -27.666 -77.001 -51.999s-34.667 -56.833 -45 -97.5s-18.833 -91.334 -25.5 -152.001l-6 -67c-6.66699 -63.333 -8.83398 -115.166 -6.50098 -155.499
s11.5 -72 27.5 -95s40 -39 72 -48s74.667 -13.5 128 -13.5c32 0 60.5 0.833008 85.5 2.5s49.167 5.16699 72.5 10.5l40 670c-23.333 3.33301 -47.333 6.33301 -72 9s-49.334 4 -74.001 4z" />
    <glyph glyph-name="A" unicode="A" horiz-adv-x="1313" 
d="M37 0c-10.667 0 -14.333 5 -11 15l500 1445c3.33301 10 10.333 15 21 15h218c10.667 0 17.667 -5 21 -15l502 -1445c2.66699 -10 -1 -15 -11 -15h-166c-10.667 0 -17.667 5 -21 15l-117 345h-636l-116 -345c-3.33301 -10 -10.333 -15 -21 -15h-163zM655.001 1299
l-260 -767h520z" />
    <glyph glyph-name="B" unicode="B" horiz-adv-x="1317" 
d="M567 -19c-24.667 0 -51.8311 0.332031 -81.498 0.999023s-60.334 1.66699 -92.001 3s-63.834 2.83301 -96.501 4.5s-64.334 3.83398 -95.001 6.50098c-10.667 0.666992 -16 6.33398 -16 17.001v1446c0 10.667 5.33301 16.334 16 17.001c24 2 50.333 4 79 6
s58.334 3.66699 89.001 5s61.834 2.33301 93.501 3s62.167 1 91.5 1c101.333 0 188.666 -5 261.999 -15s133.666 -28 180.999 -54s82.333 -61.833 105 -107.5s34 -104.167 34 -175.5v-11c0 -37.333 -3.83301 -71.333 -11.5 -102s-18.334 -57.834 -32.001 -81.501
s-30 -44.167 -49 -61.5s-39.5 -31.666 -61.5 -42.999c32.667 -12 62.667 -28.5 90 -49.5s50.833 -46.833 70.5 -77.5s34.834 -66.5 45.501 -107.5s16 -87.5 16 -139.5v-47c0 -96.667 -13.833 -173.834 -41.5 -231.501s-68.5 -101.834 -122.5 -132.501
s-120.667 -50.667 -200 -60s-170.666 -14 -273.999 -14zM1025 456.999c0 48.667 -6.16699 88.832 -18.5 120.499s-29.5 56.834 -51.5 75.501s-48.5 31.667 -79.5 39s-65.5 11 -103.5 11h-406v-551c36 -2.66699 74.333 -4.66699 115 -6s79 -2 115 -2
c76 0 141.167 2.5 195.5 7.5s98.833 16.667 133.5 35s60 45.5 76 81.5s24 84.667 24 146v43zM584.003 1328c-42.667 0 -81.834 -0.5 -117.501 -1.5s-69.167 -3.16699 -100.5 -6.5v-452h360c76.667 2 134.167 22 172.5 60s57.5 93 57.5 165v15c0 48.667 -8 87.667 -24 117
s-39.667 51.5 -71 66.5s-70.166 24.833 -116.499 29.5s-99.833 7 -160.5 7z" />
    <glyph glyph-name="C" unicode="C" horiz-adv-x="1181" 
d="M743 -24c-97.333 0 -184.005 11.333 -260.005 34s-140.333 60.834 -193 114.501s-92.834 124.667 -120.501 213s-41.5 198.5 -41.5 330.5v140c0 131.333 13.833 241.166 41.5 329.499s67.834 159.333 120.501 213s117 91.834 193 114.501s162.667 34 260 34
c64.667 0 126.5 -3.33301 185.5 -10s109.167 -15.667 150.5 -27c10 -3.33301 14 -10 12 -20l-22 -130c-2 -10.667 -8.33301 -15 -19 -13c-46.667 9.33301 -96.167 16 -148.5 20s-103.166 6 -152.499 6c-70 0 -132.167 -8.16699 -186.5 -24.5s-100.166 -44 -137.499 -83
s-65.666 -91 -84.999 -156s-29 -146.167 -29 -243.5v-160c0 -98 9.66699 -179.667 29 -245s47.5 -117.5 84.5 -156.5s82.833 -66.5 137.5 -82.5s117 -24 187 -24c60 0 115.833 2 167.5 6s99.834 9.66699 144.501 17c11.333 2 17.333 -2.33301 18 -13l21 -132
c0.666992 -10.667 -3.66602 -17.334 -12.999 -20.001c-42 -10 -93.333 -17.833 -154 -23.5s-124 -8.5 -190 -8.5z" />
    <glyph glyph-name="D" unicode="D" horiz-adv-x="1403" 
d="M555 -16c-24 0 -50.502 0.331055 -79.502 0.998047s-58.833 1.5 -89.5 2.5s-61.667 2.33301 -93 4s-61.333 3.83398 -90 6.50098c-6 1.33301 -10.167 3.16602 -12.5 5.49902s-3.5 6.5 -3.5 12.5v1443c0 10.667 5.33301 16.334 16 17.001c28 2 58.167 3.66699 90.5 5
s64.5 2.5 96.5 3.5s62.333 1.66699 91 2s53 0.5 73 0.5c71.333 0 138.833 -3.16699 202.5 -9.5s122.334 -18.333 176.001 -36s101.834 -42.5 144.501 -74.5s78.834 -73.667 108.501 -125s52.334 -113.666 68.001 -186.999s23.5 -160 23.5 -260v-113
c0 -100 -7.83301 -186.833 -23.5 -260.5s-38.334 -136.334 -68.001 -188.001s-65.667 -93.667 -108 -126s-90.333 -57.666 -144 -75.999s-112.334 -30.833 -176.001 -37.5s-131.167 -10 -202.5 -10zM584.998 1324c-14.667 0 -31.666 -0.166016 -50.999 -0.499023
s-39.166 -0.833008 -59.499 -1.5s-40 -1.5 -59 -2.5s-35.5 -2.16699 -49.5 -3.5v-1159c16 -2 34 -3.5 54 -4.5l61 -3c20.667 -1 40.834 -1.66699 60.501 -2s37.5 -0.5 53.5 -0.5c55.333 0 106.166 2.83301 152.499 8.5s88.166 15.834 125.499 30.501s70 34.667 98 60
s51.333 57.666 70 96.999s32.667 86.5 42 141.5s14 119.5 14 193.5v119c0 73.333 -4.83301 137.333 -14.5 192s-24 101.5 -43 140.5s-42.833 71.167 -71.5 96.5s-61.834 45.166 -99.501 59.499s-80.167 24.333 -127.5 30s-99.333 8.5 -156 8.5z" />
    <glyph glyph-name="E" unicode="E" horiz-adv-x="1191" 
d="M204 0c-10.667 0 -16 5.33301 -16 16v1443c0 10.667 5.33301 16 16 16h854c10.667 0 16 -5.33301 16 -16v-144c0 -10.667 -5.33301 -16 -16 -16h-690v-427h581c10.667 0 16 -5.33301 16 -16v-143c0 -10.667 -5.33301 -16 -16 -16h-581v-522h690
c10.667 0 16 -5.33301 16 -16v-143c0 -10.667 -5.33301 -16 -16 -16h-854z" />
    <glyph glyph-name="F" unicode="F" horiz-adv-x="1119" 
d="M204 0c-10.667 0 -16 5.33301 -16 16v1443c0 10.667 5.33301 16 16 16h861c10.667 0 16 -5.33301 16 -16v-144c0 -10.667 -5.33301 -16 -16 -16h-697v-427h552c10.667 0 16 -5.33301 16 -16v-143c0 -10.667 -5.33301 -16 -16 -16h-552v-681
c0 -10.667 -5.33301 -16 -16 -16h-148z" />
    <glyph glyph-name="G" unicode="G" horiz-adv-x="1281" 
d="M689 622c-10.667 0 -16 5.33105 -16 15.998v130c0 10.667 5.33301 16 16 16h439c10.667 0 16 -5.33301 16 -16l1 -19l1 -700c0 -10.667 -5 -17.667 -15 -21c-66.667 -21.333 -133.5 -35.333 -200.5 -42s-130.833 -10 -191.5 -10c-99.333 0 -187 11.333 -263 34
s-139.667 60.834 -191 114.501s-90.166 124.667 -116.499 213s-39.5 198.5 -39.5 330.5v140c0 131.333 13.5 241.166 40.5 329.499s66.833 159.333 119.5 213s117.667 91.834 195 114.501s166 34 266 34c30 0 60.5 -0.833008 91.5 -2.5s61 -4.16699 90 -7.5
s56.667 -7.33301 83 -12s49.833 -10 70.5 -16c10 -3.33301 14 -10 12 -20l-23 -129c-2 -10.667 -8.33301 -15 -19 -13c-46.667 8.66699 -95.834 14.834 -147.501 18.501s-102.167 5.5 -151.5 5.5c-74 0 -138.833 -8 -194.5 -24s-102 -43.333 -139 -82
s-64.667 -90.5 -83 -155.5s-27.5 -146.167 -27.5 -243.5v-160c0 -98 8.66699 -179.5 26 -244.5s43.5 -116.833 78.5 -155.5s79.167 -66 132.5 -82s115.666 -24 186.999 -24c46.667 0 88.834 1.5 126.501 4.5s72.5 7.16699 104.5 12.5v445z" />
    <glyph glyph-name="H" unicode="H" horiz-adv-x="1439" 
d="M204 0c-10.667 0 -16 5.33301 -16 16v1443c0 10.667 5.33301 16 16 16h148c10.667 0 16 -5.33301 16 -16v-587h704v587c0 10.667 5.33301 16 16 16h147c10.667 0 16 -5.33301 16 -16v-1443c0 -10.667 -5.33301 -16 -16 -16h-147c-10.667 -0 -16 5.33301 -16 16v681h-704
v-681c0 -10.667 -5.33301 -16 -16 -16h-148z" />
    <glyph glyph-name="I" unicode="I" horiz-adv-x="556" 
d="M204 0c-10.667 0 -16 5.33301 -16 16v1443c0 10.667 5.33301 16 16 16h148c10.667 0 16 -5.33301 16 -16v-1443c0 -10.667 -5.33301 -16 -16 -16h-148z" />
    <glyph glyph-name="J" unicode="J" horiz-adv-x="555" 
d="M77 -307c-21.333 0 -43.8359 1.33203 -67.5029 3.99902s-45.167 6 -64.5 10c-10.667 2.66699 -15 9 -13 19l21 131c2 10.667 8.33301 15 19 13c14.667 -3.33301 28.834 -5.16602 42.501 -5.49902s26.834 -0.5 39.501 -0.5c20.667 0 39.334 1.66699 56.001 5
s30.667 10.166 42 20.499s20 25.333 26 45s9 45.834 9 78.501v1446c0 10.667 5.33301 16 16 16h148c10.667 0 16 -5.33301 16 -16v-1459c0 -54 -5.5 -100.333 -16.5 -139s-28.167 -70.5 -51.5 -95.5s-53.333 -43.333 -90 -55s-80.667 -17.5 -132 -17.5z" />
    <glyph glyph-name="K" unicode="K" horiz-adv-x="1223" 
d="M998 0c-6 0 -10.833 0.833008 -14.5 2.5s-7.5 5.16699 -11.5 10.5l-511 690l-93 -91v-596c0 -10.667 -5.33301 -16 -16 -16h-148c-10.667 -0 -16 5.33301 -16 16v1443c0 10.667 5.33301 16 16 16h148c10.667 0 16 -5.33301 16 -16v-610l573 614
c7.33301 8 16.333 12 27 12h211c11.333 0 13 -4 5 -12l-590 -625l616 -825c7.33301 -8.66699 5.33301 -13 -6 -13h-206z" />
    <glyph glyph-name="L" unicode="L" horiz-adv-x="1043" 
d="M204 0c-10.667 0 -16 5.33301 -16 16v1443c0 10.667 5.33301 16 16 16h148c10.667 0 16 -5.33301 16 -16v-1284h624c10.667 0 16 -5.33301 16 -16v-143c0 -10.667 -5.33301 -16 -16 -16h-788z" />
    <glyph glyph-name="M" unicode="M" horiz-adv-x="1659" 
d="M204 0c-10.667 0 -16 5.33398 -16 16.001v1443c0 10.667 5.33301 16 16 16h177c10.667 0 18.667 -4.66699 24 -14l371 -656l18.5 -35l17 -32.5l12.5 -24.5l6 -12c0 0.666992 1.66699 4.16699 5 10.5l12.5 24.5l17 33.5l19.5 36.5l370 655
c5.33301 9.33301 13.333 14 24 14h177c10.667 0 16 -5.33301 16 -16v-1443c0 -10.667 -5.33301 -16 -16 -16h-148c-10.667 0 -16 5.33301 -16 16l-2 1178c-1.33301 -0.666992 -5.5 -8.83398 -12.5 -24.501s-15.833 -32.5 -26.5 -50.5l-342 -621
c-5.33301 -9.33301 -13.333 -14 -24 -14h-108c-10.667 0 -18.667 4.66699 -24 14l-340 613c-11.333 22 -20.833 41.333 -28.5 58s-12.167 25 -13.5 25l-2 -1178c0 -10.667 -5.33301 -16 -16 -16h-148z" />
    <glyph glyph-name="N" unicode="N" horiz-adv-x="1444" 
d="M204 0c-10.667 0 -16 5.33301 -16 16v1443c0 10.667 5.33301 16 16 16h171c10.667 0 18.667 -4.66699 24 -14l613 -1040l45.5 -81.5c11 -20.333 17.167 -30.5 18.5 -30.5l1 1150c0 10.667 5.33301 16 16 16h147c10.667 0 16 -5.33301 16 -16v-1443
c0 -10.667 -5.33301 -16 -16 -16h-170c-10.667 0 -18.667 4.66699 -24 14l-611 1033c-20 34 -35.667 62.167 -47 84.5s-17.333 33.5 -18 33.5l-2 -1149c0 -10.667 -5.33301 -16 -16 -16h-148z" />
    <glyph glyph-name="O" unicode="O" horiz-adv-x="1430" 
d="M716 -24c-93.333 0 -176.166 11.333 -248.499 34s-133.333 60.834 -183 114.501s-87.5 124.667 -113.5 213s-39 198.5 -39 330.5v140c0 130.667 13 240.334 39 329.001s63.833 159.667 113.5 213s110.667 91.5 183 114.5s155.166 34.5 248.499 34.5
s176.166 -11.333 248.499 -34s133.166 -60.834 182.499 -114.501s86.833 -124.834 112.5 -213.501s38.5 -198.667 38.5 -330v-140c0 -131.333 -12.833 -241.333 -38.5 -330s-63.167 -159.667 -112.5 -213s-110.166 -91.333 -182.499 -114s-155.166 -34 -248.499 -34z
M716 1318c-64.667 0 -122 -7.83496 -172 -23.502s-92.167 -42.667 -126.5 -81s-60.333 -89.666 -78 -153.999s-26.5 -144.833 -26.5 -241.5v-160c0 -97.333 8.83301 -178.166 26.5 -242.499s43.5 -115.666 77.5 -153.999s76 -65.5 126 -81.5s107.667 -24 173 -24
c64.667 0 121.834 8 171.501 24s91.5 43.167 125.5 81.5s59.833 89.833 77.5 154.5s26.5 145.667 26.5 243v158c0 96.667 -8.83301 177.167 -26.5 241.5s-43.5 115.666 -77.5 153.999s-75.833 65.5 -125.5 81.5s-106.834 24 -171.501 24z" />
    <glyph glyph-name="P" unicode="P" horiz-adv-x="1294" 
d="M563 1328c-12 0 -26.833 -0.166992 -44.5 -0.5s-35.834 -1 -54.501 -2l-54.5 -3c-17.667 -1 -31.834 -1.83301 -42.501 -2.5v-622c10.667 -1.33301 24.834 -2.33301 42.501 -3l54.5 -2c18.667 -0.666992 36.834 -1.16699 54.501 -1.5s32.5 -0.5 44.5 -0.5
c88.667 0 162.667 3.66699 222 11s106.666 21.5 141.999 42.5s60.5 50.5 75.5 88.5s22.5 87.333 22.5 148v56c0 60.667 -7.5 110 -22.5 148s-40.167 67.5 -75.5 88.5s-82.666 35.333 -141.999 43s-133.333 11.5 -222 11.5zM204 0c-10.667 0 -16 5.33105 -16 15.998v1446
c0 10.667 5.33301 16.334 16 17.001c28 2 58.5 3.66699 91.5 5s65.667 2.5 98 3.5s63 1.83301 92 2.5s53.833 1 74.5 1c80 0 151.5 -2.5 214.5 -7.5s118.5 -13.667 166.5 -26s88.833 -29 122.5 -50s61 -47.833 82 -80.5s36.333 -71.5 46 -116.5s14.5 -97.5 14.5 -157.5v-87
c0 -90.667 -11.167 -164.5 -33.5 -221.5s-58.833 -101.5 -109.5 -133.5s-117.167 -53.833 -199.5 -65.5s-183.5 -17.5 -303.5 -17.5c-13.333 0 -29.833 0.166992 -49.5 0.5l-58.5 1c-19.333 0.333008 -36.833 0.833008 -52.5 1.5s-26.5 1.33398 -32.5 2.00098v-517
c0 -10.667 -5.33301 -16 -16 -16h-147z" />
    <glyph glyph-name="Q" unicode="Q" horiz-adv-x="1431" 
d="M716 -24c-93.333 0 -176.163 11.332 -248.496 33.999s-133.333 60.834 -183 114.501s-87.5 124.667 -113.5 213s-39 198.5 -39 330.5v140c0 130.667 13 240.334 39 329.001s63.833 159.667 113.5 213s110.667 91.5 183 114.5s155.166 34.5 248.499 34.5
s176.166 -11.333 248.499 -34s133.166 -60.834 182.499 -114.501s86.833 -124.834 112.5 -213.501s38.5 -198.667 38.5 -330v-140c0 -104.667 -8 -195.5 -24 -272.5s-39.667 -142.167 -71 -195.5s-69.833 -96.166 -115.5 -128.499s-98.5 -55.833 -158.5 -70.5l224 -375
c5.33301 -9.33301 2.66602 -14 -8.00098 -14h-184c-10.667 0 -18.667 4.66699 -24 14l-199 352c-4 0 -7.83301 -0.166992 -11.5 -0.5s-7.16699 -0.5 -10.5 -0.5zM716.003 1318c-64.667 0 -122 -7.83496 -172 -23.502s-92.167 -42.667 -126.5 -81
s-60.333 -89.666 -78 -153.999s-26.5 -144.833 -26.5 -241.5v-160c0 -97.333 8.83301 -178.166 26.5 -242.499s43.5 -115.666 77.5 -153.999s76 -65.5 126 -81.5s107.667 -24 173 -24c64.667 0 121.834 8 171.501 24s91.5 43.167 125.5 81.5s59.833 89.833 77.5 154.5
s26.5 145.667 26.5 243v158c0 96.667 -8.83301 177.167 -26.5 241.5s-43.5 115.666 -77.5 153.999s-75.833 65.5 -125.5 81.5s-106.834 24 -171.501 24z" />
    <glyph glyph-name="R" unicode="R" horiz-adv-x="1350" 
d="M1064 0c-10.667 0 -18.666 4.66992 -23.999 14.0029l-310 538c-19.333 -0.666992 -39.333 -1.16699 -60 -1.5s-41.667 -0.5 -63 -0.5h-57c-18.667 0 -37.667 0.333008 -57 1s-39.333 1.5 -60 2.5s-42.667 2.16699 -66 3.5v-541c0 -10.667 -5.33301 -16 -16 -16h-148
c-10.667 0 -16 5.33301 -16 16v1442c0 10.667 5.33301 16.334 16 17.001c69.333 5.33301 136 8.66602 200 9.99902s127.667 2 191 2c116.667 0 215.334 -4.83301 296.001 -14.5s146 -29.334 196 -59.001s86 -71.834 108 -126.501s33 -127.334 33 -218.001v-103
c0 -78.667 -8.83301 -144 -26.5 -196s-46.834 -93.667 -87.501 -125c-23.333 -18 -51 -33 -83 -45s-69 -21.667 -111 -29c8 -10.667 15.667 -21.667 23 -33l23 -36l296 -488c5.33301 -9.33301 2.66602 -14 -8.00098 -14h-189zM602.001 1324
c-19.333 0 -40.334 -0.166992 -63.001 -0.5l-66 -1c-21.333 -0.333008 -41.333 -1 -60 -2s-34 -2.5 -46 -4.5v-595c18.667 -2 38.667 -3.5 60 -4.5s42.666 -1.66699 63.999 -2l61.5 -1c19.667 -0.333008 37.167 -0.5 52.5 -0.5c82.667 0 152.167 2.66699 208.5 8
s101.833 17.5 136.5 36.5s59.5 46.833 74.5 83.5s22.5 86.667 22.5 150v61c0 64 -8 114.167 -24 150.5s-41.667 63.5 -77 81.5s-81.166 29.167 -137.499 33.5s-125.166 6.5 -206.499 6.5z" />
    <glyph glyph-name="S" unicode="S" horiz-adv-x="1181" 
d="M514 -24c-68.667 0 -136.171 3.16797 -202.504 9.50098s-123.833 15.166 -172.5 26.499c-10.667 2.66699 -15 9 -13 19l29 129c2.66699 10.667 9.33398 15 20.001 13c32.667 -5.33301 63.5 -9.66602 92.5 -12.999s56.833 -6 83.5 -8s52.667 -3.5 78 -4.5
s51.333 -1.5 78 -1.5c88.667 0 159 5.16699 211 15.5s91.5 25.833 118.5 46.5s44.5 46 52.5 76s12 64.667 12 104c0 34.667 -3.66699 63.667 -11 87s-22.166 45 -44.499 65s-54.166 40 -95.499 60s-95.666 44 -162.999 72l-145 61c-62.667 26.667 -115.5 53.167 -158.5 79.5
s-77.833 54.666 -104.5 84.999s-45.834 64.166 -57.501 101.499s-17.5 80.666 -17.5 129.999c0 66.667 10.333 123.5 31 170.5s53.667 85.167 99 114.5s103.666 50.833 174.999 64.5s157.666 20.5 258.999 20.5c61.333 0 121.333 -2.66699 180 -8
s110.667 -13.666 156 -24.999c10 -2.66699 14 -9 12 -19l-26 -125c-2 -10.667 -8.33301 -15 -19 -13c-21.333 3.33301 -44.666 6.33301 -69.999 9s-50.833 4.83398 -76.5 6.50098s-50.834 2.83398 -75.501 3.50098s-47 1 -67 1c-72 0 -132.833 -3.16699 -182.5 -9.5
s-90.167 -17 -121.5 -32s-54 -35.167 -68 -60.5s-21 -57 -21 -95c0 -37.333 5.66699 -68.666 17 -93.999s29 -47.5 53 -66.5s54.833 -36.833 92.5 -53.5s83.167 -35.334 136.5 -56.001l168 -67c66 -26 120.167 -52 162.5 -78s76 -54.667 101 -86s42.333 -66.5 52 -105.5
s14.5 -83.833 14.5 -134.5c0 -43.333 -3 -83.833 -9 -121.5s-17 -71.834 -33 -102.501s-37.667 -57.834 -65 -81.501s-62.166 -43.667 -104.499 -60s-93.166 -28.666 -152.499 -36.999s-128.666 -12.5 -207.999 -12.5z" />
    <glyph glyph-name="T" unicode="T" horiz-adv-x="1193" 
d="M522 0c-10.667 0 -16 5.33301 -16 16v1283h-458c-10.667 0 -16 5.33301 -16 16v144c0 10.667 5.33301 16 16 16h1097c10.667 0 16 -5.33301 16 -16v-144c0 -10.667 -5.33301 -16 -16 -16h-459v-1283c0 -10.667 -5.33301 -16 -16 -16h-148z" />
    <glyph glyph-name="U" unicode="U" horiz-adv-x="1447" 
d="M721 -24c-87.333 0 -165 9.33398 -233 28.001s-125.333 48.667 -172 90s-82.167 95 -106.5 161s-36.5 146.333 -36.5 241v963c0 10.667 5.33301 16 16 16h147c10.667 0 16 -5.33301 16 -16v-920c0 -66.667 6.16699 -124.334 18.5 -173.001s32.833 -89 61.5 -121
s66.5 -55.833 113.5 -71.5s105.5 -23.5 175.5 -23.5c70.667 0 130 7.66699 178 23s86.667 39 116 71s50.333 72.333 63 121s19 106.667 19 174v920c0 10.667 5.33301 16 16 16h146c10.667 0 16 -5.33301 16 -16v-963c0 -94.667 -12.5 -175 -37.5 -241
s-61.167 -119.667 -108.5 -161s-105.333 -71.333 -174 -90s-146.667 -28 -234 -28z" />
    <glyph glyph-name="V" unicode="V" horiz-adv-x="1304" 
d="M650 167h1.99902l431 1293c3.33301 10 10.333 15 21 15h164c10 0 13.667 -5 11 -15l-499 -1445c-3.33301 -10 -10.333 -15 -21 -15h-216c-10.667 0 -17.667 5 -21 15l-496 1445c-3.33301 10 0.333984 15 11.001 15h160c10.667 0 17.667 -5 21 -15z" />
    <glyph glyph-name="W" unicode="W" horiz-adv-x="1858" 
d="M386 0c-10.667 0 -16.999 5.33203 -18.999 15.999l-297 1443c-2 10.667 2.33301 16 13 16h168c10.667 0 17 -5.33301 19 -16l189 -1073l40 -230l5 21.5l13 54.5l17.5 73c6.33301 26.667 12.833 52.667 19.5 78l279 1077c2.66699 10 9.33398 15 20.001 15h149
c10.667 0 17.334 -5 20.001 -15l281 -1070l20 -80l18 -75.5l13.5 -56.5l5.5 -22l40 237l187 1066c2 10.667 8.33301 16 19 16h169c10.667 0 15 -5.33301 13 -16l-296 -1443c-2 -10.667 -8.33301 -16 -19 -16h-210c-10.667 0 -17.334 5 -20.001 15l-288 1056
c-3.33301 12.667 -6.5 25.5 -9.5 38.5l-8.5 36c-2.66699 11 -4.83398 20.5 -6.50098 28.5s-2.5 13 -2.5 15c0 -1.33301 -0.833008 -5.83301 -2.5 -13.5l-6 -28.5c-2.33301 -11.333 -5 -23.666 -8 -36.999s-6.16699 -26.333 -9.5 -39l-288 -1056
c-2.66699 -10 -9.33398 -15 -20.001 -15h-208z" />
    <glyph glyph-name="X" unicode="X" horiz-adv-x="1272" 
d="M1039 0c-6 0 -10.833 1 -14.5 3s-7.16699 5.66699 -10.5 11l-377 595l-378 -595c-3.33301 -5.33301 -6.83301 -9 -10.5 -11s-8.5 -3 -14.5 -3h-186c-11.333 -0 -13.666 4.33301 -6.99902 13l480 724l-480 725c-6.66699 8.66699 -4.33398 13 6.99902 13h186
c10.667 0 19 -4.33301 25 -13l377 -591l378 591c6 8.66699 14.333 13 25 13h186c11.333 0 13.666 -4.33301 6.99902 -13l-480 -725l480 -724c6.66699 -8.66699 4.33398 -13 -6.99902 -13h-186z" />
    <glyph glyph-name="Y" unicode="Y" horiz-adv-x="1186" 
d="M520 0c-10.667 0 -16 5.33301 -16 16v491l-486 954c-5.33301 9.33301 -2.33301 14 9 14h169c6 0 10.667 -1 14 -3s6.33301 -5.66699 9 -11l375 -749l374 749c2.66699 5.33301 5.66699 9 9 11s8 3 14 3h168c11.333 0 14.333 -4.66699 9 -14l-484 -954v-491
c0 -10.667 -5.33301 -16 -16 -16h-148z" />
    <glyph glyph-name="Z" unicode="Z" horiz-adv-x="1196" 
d="M106 0c-10.667 0 -15.999 5.33398 -15.999 16.001v130c0 6 0.666992 11.167 2 15.5s3.66602 8.83301 6.99902 13.5l787 1133h-760c-10.667 0 -16 5.33301 -16 16v135c0 10.667 5.33301 16 16 16h953c10.667 0 16 -5.33301 16 -16v-130c0 -10.667 -3 -20.334 -9 -29.001
l-785 -1133h782c10.667 0 16 -5.33301 16 -16v-135c0 -10.667 -5.33301 -16 -16 -16h-977z" />
    <glyph glyph-name="bracketleft" unicode="[" horiz-adv-x="635" 
d="M183 -389c-10.667 0 -16 5.33301 -16 16v1913c0 10.667 5.33301 16 16 16h428c10.667 0 16 -5.33301 16 -16v-138c0 -10.667 -5.33301 -16 -16 -16h-264v-1605h264c10.667 0 16 -5.33301 16 -16v-138c0 -10.667 -5.33301 -16 -16 -16h-428z" />
    <glyph glyph-name="backslash" unicode="\" horiz-adv-x="795" 
d="M555 0c-10.667 0 -17.667 5 -21 15l-463 1526c-4 10 -0.333008 15 11 15h148c10.667 0 17.667 -5 21 -15l463 -1526c4 -10 0.333008 -15 -11 -15h-148z" />
    <glyph glyph-name="bracketright" unicode="]" horiz-adv-x="635" 
d="M24 -389c-10.667 0 -16 5.33301 -16 16v138c0 10.667 5.33301 16 16 16h264v1605h-264c-10.667 0 -16 5.33301 -16 16v138c0 10.667 5.33301 16 16 16h428c10.667 0 16 -5.33301 16 -16v-1913c0 -10.667 -5.33301 -16 -16 -16h-428z" />
    <glyph glyph-name="asciicircum" unicode="^" horiz-adv-x="1242" 
d="M275 1150c-11.333 0 -13 4 -5 12l261 299c7.33301 8 16.333 12 27 12h127c10.667 0 19.667 -4 27 -12l262 -299c8 -8 6.33301 -12 -5 -12h-161c-11.333 0 -20 4 -26 12l-160 186l-161 -186c-6 -8 -14.667 -12 -26 -12h-160z" />
    <glyph glyph-name="underscore" unicode="_" horiz-adv-x="944" 
d="M59 -268c-10.667 0 -16 5.33301 -16 16v135c0 10.667 5.33301 16 16 16h826c10.667 0 16 -5.33301 16 -16v-135c0 -10.667 -5.33301 -16 -16 -16h-826z" />
    <glyph glyph-name="grave" unicode="`" 
d="M426 1264c-11.333 0 -20.001 4 -26.001 12l-202 240c-6.66699 8 -4.66699 12 6 12h192c10.667 0 19 -4.33301 25 -13l160 -238c6.66699 -8.66699 4.33398 -13 -6.99902 -13h-148z" />
    <glyph glyph-name="a" unicode="a" horiz-adv-x="1107" 
d="M562 118c40 0 79.3311 1.16797 117.998 3.50098s74.667 6.16602 108 11.499v365h-141c-84 0 -152 -2.5 -204 -7.5s-92.5 -14.167 -121.5 -27.5s-48.667 -32 -59 -56s-15.5 -55.333 -15.5 -94c0 -43.333 7.66699 -78 23 -104s36.833 -45.667 64.5 -59
s60.834 -22 99.501 -26s81.334 -6 128.001 -6zM520.998 943.001c-54 0 -107 -1.99609 -159 -5.99609s-103.333 -9.66699 -154 -17c-10.667 -0.666992 -16 4 -16 14v114c0 10.667 5.33301 17 16 19c26.667 4.66699 54.667 8.66699 84 12s58.666 6.33301 87.999 9
s57.5 4.66699 84.5 6s51.167 2 72.5 2c94 0 168.833 -7.5 224.5 -22.5s98 -38.833 127 -71.5s47.667 -75.167 56 -127.5s12.5 -115.5 12.5 -189.5v-661c0 -11.333 -5.33301 -17.333 -16 -18c-31.333 -4.66699 -64.5 -8.83398 -99.5 -12.501
s-69.167 -6.83398 -102.5 -9.50098s-65.166 -4.66699 -95.499 -6s-56.833 -2 -79.5 -2c-81.333 0 -152 5 -212 15s-109.5 27.667 -148.5 53s-68 59.333 -87 102s-28.5 97 -28.5 163c0 43.333 3.33301 81.666 10 114.999s18.167 62.5 34.5 87.5s38.333 45.833 66 62.5
s62.5 30.167 104.5 40.5s92 17.666 150 21.999s125.667 6.5 203 6.5h132v70c0 45.333 -3.5 82.833 -10.5 112.5s-20.167 53.167 -39.5 70.5s-46.333 29.5 -81 36.5s-80 10.5 -136 10.5z" />
    <glyph glyph-name="b" unicode="b" horiz-adv-x="1175" 
d="M557 941c-17.333 0 -35.999 -0.333008 -55.999 -1s-40.167 -1.83398 -60.5 -3.50098s-40 -3.66699 -59 -6s-36.167 -4.83301 -51.5 -7.5v-781c34 -4 70.667 -7.33301 110 -10s78.666 -4 117.999 -4c67.333 0 122.333 6 165 18s76 32.333 100 61s40.5 66.834 49.5 114.501
s13.5 107.167 13.5 178.5v77c0 70 -4.33301 128.333 -13 175s-25.167 84 -49.5 112s-57.833 47.833 -100.5 59.5s-98 17.5 -166 17.5zM555.001 -24c-60 0 -121.832 1.99707 -185.499 5.99707s-129.167 11.667 -196.5 23c-10.667 2 -16 8.33301 -16 19v1562
c0 10.667 5.33301 17 16 19l141 22c10.667 2 16 -2.33301 16 -13v-542c35.333 5.33301 74 10.333 116 15s86 7 132 7c90 0 165.5 -8.66699 226.5 -26s109.833 -45.5 146.5 -84.5s62.834 -90 78.501 -153s23.5 -140.167 23.5 -231.5v-129
c0 -93.333 -8.16699 -171.666 -24.5 -234.999s-43.833 -114.166 -82.5 -152.499s-89.834 -65.666 -153.501 -81.999s-142.834 -24.5 -237.501 -24.5z" />
    <glyph glyph-name="c" unicode="c" horiz-adv-x="963" 
d="M624 -24c-95.333 0 -175.167 8.33594 -239.5 25.0029s-116.166 44.667 -155.499 84s-67.5 91.5 -84.5 156.5s-25.5 146.167 -25.5 243.5v101c0 90.667 8 168.167 24 232.5s43.333 117 82 158s90.5 70.833 155.5 89.5s146.167 28 243.5 28c44.667 0 87.334 -2 128.001 -6
s78 -9 112 -15c11.333 -2 16 -8.33301 14 -19l-14 -115c-0.666992 -6 -2.33398 -10 -5.00098 -12s-7 -2.66699 -13 -2c-34 5.33301 -69.5 8.83301 -106.5 10.5s-74.167 2.5 -111.5 2.5c-68 0 -123.833 -6 -167.5 -18s-77.834 -32.333 -102.501 -61
s-41.667 -66.834 -51 -114.501s-14 -106.834 -14 -177.501v-65c0 -72 4.66699 -131.833 14 -179.5s26.333 -85.667 51 -114s58.667 -48.333 102 -60s99.333 -17.5 168 -17.5c40 0 78.5 1.16699 115.5 3.5s71.833 6.16602 104.5 11.499c6 0.666992 10.167 0 12.5 -2
s4.16602 -6 5.49902 -12l12 -116c2 -10.667 -2.66699 -17 -14 -19c-33.333 -6 -71.666 -11 -114.999 -15s-85 -6 -125 -6z" />
    <glyph glyph-name="d" unicode="d" horiz-adv-x="1174" 
d="M616 941c-67.333 0 -122.166 -5.83203 -164.499 -17.499s-75.666 -31.667 -99.999 -60s-41 -65.833 -50 -112.5s-13.5 -105 -13.5 -175v-74c0 -72 4.5 -132 13.5 -180s25.667 -86.333 50 -115s58.166 -49 101.499 -61s99.333 -18 168 -18c38 0 76.667 1.33301 116 4
s75.333 6 108 10v779c-15.333 3.33301 -32.833 6.16602 -52.5 8.49902s-39.834 4.33301 -60.501 6s-41 3 -61 4s-38.333 1.5 -55 1.5zM623 -23.999c-96 0 -176.168 8.33301 -240.501 25s-115.833 44.334 -154.5 83.001s-66.167 89.667 -82.5 153s-24.5 142 -24.5 236v126
c0 92.667 7.83301 170.5 23.5 233.5s42.5 113.833 80.5 152.5s88.5 66.5 151.5 83.5s141.5 25.5 235.5 25.5c40 0 80.5 -2.33301 121.5 -7s78.167 -10.334 111.5 -17.001v516c0 10.667 5.33301 17 16 19l140 22c10.667 2 16 -2.33301 16 -13v-1590
c0 -11.333 -5.33301 -17.333 -16 -18c-66 -10 -130.667 -17.5 -194 -22.5s-124.666 -7.5 -183.999 -7.5z" />
    <glyph glyph-name="e" unicode="e" horiz-adv-x="1157" 
d="M601 -24c-87.333 0 -161.664 9.33105 -222.997 27.998s-111.166 48.667 -149.499 90s-66.333 95 -84 161s-26.5 146.333 -26.5 241v88c0 86.667 8.5 162 25.5 226s44.167 117 81.5 159s85.833 73.333 145.5 94s132.5 31 218.5 31c84.667 0 157 -10 217 -30
s108.667 -50.167 146 -90.5s64.666 -90.833 81.999 -151.5s26 -131.667 26 -213c0 -31.333 -1.5 -59 -4.5 -83s-5.83301 -42 -8.5 -54c-2 -10.667 -8.33301 -16 -19 -16l-739 -1c2 -63.333 8.83301 -116 20.5 -158s30 -75.5 55 -100.5s57.5 -42.833 97.5 -53.5
s89.333 -16 148 -16c28.667 0 57 0.166992 85 0.5s56 1.33301 84 3s56.667 3.83398 86 6.50098s59.666 6.33398 90.999 11.001c6 0.666992 10.167 0 12.5 -2s4.16602 -6 5.49902 -12l12 -111c2 -10.667 -2.66699 -17 -14 -19c-59.333 -10 -118.333 -17.167 -177 -21.5
s-123.334 -6.5 -194.001 -6.5zM903.002 607.998c-2.66699 58.667 -9.66699 109.167 -21 151.5s-29 77 -53 104s-55.5 46.833 -94.5 59.5s-87.5 19 -145.5 19c-56.667 0 -104.167 -6.5 -142.5 -19.5s-69 -33.5 -92 -61.5s-39.667 -63.833 -50 -107.5
s-15.833 -96.167 -16.5 -157.5z" />
    <glyph glyph-name="f" unicode="f" horiz-adv-x="731" 
d="M269 0c-10.667 0 -16 5.33203 -16 15.999v897l-189 16c-10.667 0.666992 -16 6.33398 -16 17.001v109c0 10.667 5.33301 16 16 16h189v206c0 64 5.5 118.333 16.5 163s30 81 57 109s63.667 48.5 110 61.5s104.5 19.5 174.5 19.5c34 0 67.333 -1.5 100 -4.5
s60.667 -6.5 84 -10.5c6 -1.33301 10 -3.33301 12 -6s2.66699 -7 2 -13l-15 -115c-0.666992 -6 -2.33398 -10 -5.00098 -12s-7 -2.66699 -13 -2c-21.333 1.33301 -45.5 2.5 -72.5 3.5s-50.833 1.5 -71.5 1.5c-44 0 -79.5 -3.5 -106.5 -10.5s-48 -18.333 -63 -34
s-25 -36 -30 -61s-7.5 -55.5 -7.5 -91.5v-204h259c11.333 0 16 -5.33301 14 -16l-14 -126c-1.33301 -6 -3.16602 -10.167 -5.49902 -12.5s-6.5 -3.5 -12.5 -3.5h-241v-897c0 -10.667 -5.33301 -16 -16 -16h-140z" />
    <glyph glyph-name="g" unicode="g" horiz-adv-x="1174" 
d="M617 943c-68 0 -123.504 -6.16895 -166.504 -18.502s-76.5 -32.833 -100.5 -61.5s-40.333 -66.667 -49 -114s-13 -106 -13 -176v-75c0 -69.333 4.33301 -127.166 13 -173.499s25.334 -83.5 50.001 -111.5s59 -48 103 -60s101 -18 171 -18c16 0 33.833 0.5 53.5 1.5
s39.334 2.33301 59.001 4s38.834 3.83398 57.501 6.50098s35.334 5.66699 50.001 9v774c-34 4 -70.5 7.16699 -109.5 9.5s-78.5 3.5 -118.5 3.5zM492.996 -475.002c-20 0 -41.832 0.498047 -65.499 1.49805s-47.667 2.5 -72 4.5s-48.5 4.66699 -72.5 8s-46 7.33301 -66 12
c-11.333 2.66699 -16 9.33398 -14 20.001l11 111c1.33301 5.33301 3.16602 9 5.49902 11s6.5 2.33301 12.5 1c36.667 -7.33301 77 -12.5 121 -15.5s85 -4.5 123 -4.5c69.333 0 127.666 4.16699 174.999 12.5s85.333 24.5 114 48.5s49.167 57.5 61.5 100.5
s18.5 99.167 18.5 168.5c-30 -7.33301 -64.667 -13.166 -104 -17.499s-80.333 -6.5 -123 -6.5c-95.333 0 -174.833 8.66699 -238.5 26s-114.667 45.5 -153 84.5s-65.5 89.833 -81.5 152.5s-24 139.667 -24 231v126c0 93.333 8 171.5 24 234.5s43.333 113.833 82 152.5
s89.834 66.167 153.501 82.5s143.5 24.5 239.5 24.5c58.667 0 121.167 -2.16699 187.5 -6.5s130.833 -11.5 193.5 -21.5c10.667 -2 16 -8.33301 16 -19v-1041c0 -98.667 -10.833 -179.167 -32.5 -241.5s-54.167 -111.333 -97.5 -147s-97.833 -60 -163.5 -73
s-142.5 -19.5 -230.5 -19.5z" />
    <glyph glyph-name="h" unicode="h" horiz-adv-x="1205" 
d="M898 0c-10.667 0 -16 5.33398 -16 16.001v593c0 60.667 -3.16699 111.5 -9.5 152.5s-18.666 73.667 -36.999 98s-44 41.666 -77 51.999s-75.833 15.5 -128.5 15.5c-24 0 -49 -1.5 -75 -4.5s-52.167 -7.66699 -78.5 -14s-52 -14 -77 -23s-48.167 -19.5 -69.5 -31.5v-838
c0 -10.667 -5.33301 -16 -16 -16h-140c-10.667 -0 -16 5.33301 -16 16v1570c0 10.667 5.33301 17 16 19l140 22c10.667 2 16 -2.33301 16 -13v-614c24 14.667 50.333 27.834 79 39.501s58.167 21.5 88.5 29.5s61.166 14.167 92.499 18.5s62 6.5 92 6.5
c70 0 128.833 -7.66699 176.5 -23s86 -40.833 115 -76.5s49.667 -82.834 62 -141.501s18.5 -131.667 18.5 -219v-618c0 -10.667 -5.33301 -16 -16 -16h-140z" />
    <glyph glyph-name="i" unicode="i" horiz-adv-x="501" 
d="M181 0c-10.667 0 -16 5.33301 -16 16v1039c0 10.667 5.33301 16 16 16h140c10.667 0 16 -5.33301 16 -16v-1039c0 -10.667 -5.33301 -16 -16 -16h-140zM177 1243c-10.667 0 -16 5.33301 -16 16v265c0 10.667 5.33301 17 16 19l147 23c10.667 2 16 -2.33301 16 -13v-294
c0 -10.667 -5.33301 -16 -16 -16h-147z" />
    <glyph glyph-name="j" unicode="j" horiz-adv-x="501" 
d="M9 -475c-24.667 0 -51.499 1.16797 -80.499 3.50098s-54.833 5.83301 -77.5 10.5c-10.667 2.66699 -15 9 -13 19l19 115c2 10.667 8.33301 15 19 13c17.333 -3.33301 36.5 -5.83301 57.5 -7.5s40.833 -2.5 59.5 -2.5c34.667 0 63.167 2.66699 85.5 8s40 15.166 53 29.499
s21.833 33.833 26.5 58.5s7 56 7 94v1189c0 10.667 5.33301 16 16 16h140c10.667 0 16 -5.33301 16 -16v-1189c0 -66.667 -5.66699 -122 -17 -166s-29.833 -79 -55.5 -105s-59.334 -44.167 -101.001 -54.5s-93.167 -15.5 -154.5 -15.5zM177.001 1243
c-10.667 0 -16 5.33301 -16 16v265c0 10.667 5.33301 17 16 19l147 23c10.667 2 16 -2.33301 16 -13v-294c0 -10.667 -5.33301 -16 -16 -16h-147z" />
    <glyph glyph-name="k" unicode="k" horiz-adv-x="1098" 
d="M869 0c-6.66699 0 -11.6689 0.833984 -15.002 2.50098s-6.66602 5.16699 -9.99902 10.5l-373 572l-141 -117v-452c0 -10.667 -5.33301 -16 -16 -16h-140c-10.667 0 -16 5.33301 -16 16v1570c0 10.667 5.33301 17 16 19l140 22c10.667 2 16 -2.33301 16 -13v-946l471 393
c4.66699 3.33301 9 5.83301 13 7.5s9 2.5 15 2.5h211c3.33301 0 5.5 -1.33301 6.5 -4s-0.166992 -5.33398 -3.5 -8.00098l-442 -366l470 -679c6.66699 -9.33301 4.33398 -14 -6.99902 -14h-195z" />
    <glyph glyph-name="l" unicode="l" horiz-adv-x="517" 
d="M189 0c-10.667 0 -16 5.33301 -16 16v1570c0 10.667 5.33301 17 16 19l139 22c10.667 2 16 -2.33301 16 -13v-1598c0 -10.667 -5.33301 -16 -16 -16h-139z" />
    <glyph glyph-name="m" unicode="m" horiz-adv-x="1743" 
d="M174 0c-10.667 0 -16.001 5.33594 -16.001 16.0029v1058c0 10.667 5.33301 16 16 16h106c10.667 0 17.334 -5 20.001 -15l22 -74c40 28 86.167 50.5 138.5 67.5s106.166 25.5 161.499 25.5c60.667 0 112.167 -7 154.5 -21s77.5 -37.667 105.5 -71
c52 30 106.5 52.833 163.5 68.5s113.833 23.5 170.5 23.5c69.333 0 128 -7.83301 176 -23.5s86.833 -40.834 116.5 -75.501s51.167 -79.334 64.5 -134.001s20 -121 20 -199v-646c0 -10.667 -5.33301 -16 -16 -16h-139c-10.667 0 -16 5.33301 -16 16v610
c0 63.333 -3.83301 114.666 -11.5 153.999s-20.834 70 -39.501 92s-43.5 37 -74.5 45s-69.833 12 -116.5 12c-38 0 -76.833 -4.5 -116.5 -13.5s-79.5 -23.833 -119.5 -44.5c14.667 -56.667 22 -128.667 22 -216v-639c0 -10.667 -5.33301 -16 -16 -16h-136
c-10.667 -0 -16 5.33301 -16 16v618c0 58.667 -3.83301 107 -11.5 145s-20.167 68 -37.5 90s-40.166 37.333 -68.499 46s-63.5 13 -105.5 13c-39.333 0 -80.666 -5.5 -123.999 -16.5s-84 -30.5 -122 -58.5v-837c0 -10.667 -5.33301 -16 -16 -16h-139z" />
    <glyph glyph-name="n" unicode="n" horiz-adv-x="1205" 
d="M898 0c-10.667 0 -16.001 5.33203 -16.001 15.999v605c0 56 -3.83301 103.5 -11.5 142.5s-20.834 70.667 -39.501 95s-43.834 41.833 -75.501 52.5s-71.5 16 -119.5 16c-25.333 0 -51.166 -1.66699 -77.499 -5s-52.666 -8 -78.999 -14s-52.166 -13.5 -77.499 -22.5
s-49.333 -19.5 -72 -31.5v-838c0 -10.667 -5.33301 -16 -16 -16h-140c-10.667 0 -16 5.33301 -16 16v1058c0 10.667 5.33301 16 16 16h106c10.667 0 17.667 -5 21 -15l23 -77c54.667 30 113 53.5 175 70.5s125.667 25.5 191 25.5c66 0 122.167 -8 168.5 -24
s84 -41.667 113 -77s50 -81.166 63 -137.499s19.5 -124.833 19.5 -205.5v-634c0 -10.667 -5.33301 -16 -16 -16h-140z" />
    <glyph glyph-name="o" unicode="o" horiz-adv-x="1179" 
d="M589 942c-58.667 0 -107.335 -6.83203 -146.002 -20.499s-69.5 -35.334 -92.5 -65.001s-39.167 -68 -48.5 -115s-14 -103.833 -14 -170.5v-73c0 -66 4.66699 -122.5 14 -169.5s25.5 -85.5 48.5 -115.5s53.833 -51.833 92.5 -65.5s87.334 -20.5 146.001 -20.5
s107.334 6.83301 146.001 20.5s69.667 35.5 93 65.5s39.833 68.5 49.5 115.5s14.5 104.167 14.5 171.5v71c0 66 -4.5 122.5 -13.5 169.5s-25 85.5 -48 115.5s-54 51.833 -93 65.5s-88.5 20.5 -148.5 20.5zM588.999 -23.999c-84.667 0 -156.834 9.83301 -216.501 29.5
s-108.334 50.167 -146.001 91.5s-65.167 94.333 -82.5 159s-26 142 -26 232v91c0 90 8.66699 167.5 26 232.5s44.833 118.333 82.5 160s86.334 72.5 146.001 92.5s131.834 30 216.501 30c85.333 0 157.833 -10 217.5 -30s108.334 -50.833 146.001 -92.5
s65.167 -95 82.5 -160s26 -142.5 26 -232.5v-91c0 -90 -8.66699 -167.333 -26 -232s-44.833 -117.667 -82.5 -159s-86.334 -71.833 -146.001 -91.5s-132.167 -29.5 -217.5 -29.5z" />
    <glyph glyph-name="p" unicode="p" horiz-adv-x="1174" 
d="M554 941c-36.667 0 -75.168 -1.16602 -115.501 -3.49902s-76.5 -6.16602 -108.5 -11.499v-779c31.333 -6 67.333 -10.667 108 -14s80 -5 118 -5c68 0 123.5 6 166.5 18s76.5 32.333 100.5 61s40.5 66.667 49.5 114s13.5 106.666 13.5 177.999v74
c0 71.333 -4.5 130.666 -13.5 177.999s-25.667 85 -50 113s-58.166 47.833 -101.499 59.5s-99 17.5 -167 17.5zM172.999 -451.999c-10.667 0 -16.0029 5.33203 -16.0029 15.999v1483c0 11.333 5.33301 17.333 16 18c67.333 10.667 132.833 18.167 196.5 22.5
s125.5 6.5 185.5 6.5c94.667 0 173.834 -8 237.501 -24s114.834 -43.167 153.501 -81.5s66.167 -89.166 82.5 -152.499s24.5 -142 24.5 -236v-124c0 -92.667 -7.83301 -170.834 -23.5 -234.501s-42.5 -115.167 -80.5 -154.5s-88.667 -67.666 -152 -84.999
s-142.666 -26 -237.999 -26c-39.333 0 -79.333 2.16699 -120 6.5s-77 9.83301 -109 16.5v-435c0 -10.667 -5.33301 -16 -16 -16h-141z" />
    <glyph glyph-name="q" unicode="q" horiz-adv-x="1174" 
d="M621 941c-68 0 -123.669 -5.83398 -167.002 -17.501s-77.166 -31.5 -101.499 -59.5s-41 -65.667 -50 -113s-13.5 -106.666 -13.5 -177.999v-74c0 -71.333 4.5 -130.666 13.5 -177.999s25.667 -85.333 50 -114s58 -49 101 -61s98.5 -18 166.5 -18
c37.333 0 76.333 1.66699 117 5s77 8 109 14v779c-33.333 5.33301 -69.666 9.16602 -108.999 11.499s-78 3.5 -116 3.5zM861.998 -452.001c-10.667 0 -16.001 5.33398 -16.001 16.001v435c-33.333 -6.66699 -70.166 -12.167 -110.499 -16.5s-79.5 -6.5 -117.5 -6.5
c-95.333 0 -174.833 8.5 -238.5 25.5s-114.667 45 -153 84s-65.5 90.167 -81.5 153.5s-24 141 -24 233v128c0 94 8.16699 172.667 24.5 236s44 114.166 83 152.499s90.5 65.5 154.5 81.5s144 24 240 24c58.667 0 120.667 -2.33301 186 -7s129.333 -11.667 192 -21
c10.667 -2 16 -8.33301 16 -19v-1483c0 -10.667 -5.33301 -16 -16 -16h-139z" />
    <glyph glyph-name="r" unicode="r" horiz-adv-x="732" 
d="M174 0c-10.667 0 -15.999 5.33301 -15.999 16v1058c0 10.667 5.33301 16 16 16h106c10.667 0 17.667 -5 21 -15l19 -66c20 14.667 42.333 27.5 67 38.5s50.167 19.833 76.5 26.5s53 11.667 80 15s52.833 5 77.5 5c12.667 0 24.167 -0.333008 34.5 -1
s19.166 -1.66699 26.499 -3c6 -1.33301 10.167 -3.16602 12.5 -5.49902s3.16602 -6.5 2.49902 -12.5l-11 -142c-0.666992 -10.667 -6.33398 -15.667 -17.001 -15c-9.33301 1.33301 -18.166 2.16602 -26.499 2.49902s-18.166 0.5 -29.499 0.5
c-52 0 -100.667 -4.16699 -146 -12.5s-91 -24.5 -137 -48.5v-841c0 -10.667 -5.33301 -16 -16 -16h-140z" />
    <glyph glyph-name="s" unicode="s" horiz-adv-x="994" 
d="M449 -24c-18.667 0 -41.166 0.5 -67.499 1.5s-53.833 2.66699 -82.5 5s-57.667 5.33301 -87 9s-56.333 8.5 -81 14.5c-11.333 2.66699 -16 9.33398 -14 20.001l12 115c1.33301 6 3.16602 10 5.49902 12s6.5 2.33301 12.5 1c54.667 -10 105 -16.667 151 -20s93 -5 141 -5
c55.333 0 101.666 2.16699 138.999 6.5s67.333 12.166 90 23.499s38.834 26.5 48.501 45.5s14.5 43.167 14.5 72.5c0 22.667 -2.5 41.667 -7.5 57s-14.667 29.333 -29 42s-34.5 25 -60.5 37s-60 25.667 -102 41l-185 65c-43.333 15.333 -80.333 31.333 -111 48
s-55.834 36.334 -75.501 59.001s-34 49.167 -43 79.5s-13.5 66.833 -13.5 109.5c0 54.667 8.83301 99.834 26.5 135.501s44.5 64.167 80.5 85.5s81.333 36.333 136 45s119.334 13 194.001 13c54 0 106.333 -2.33301 157 -7s95 -9.66699 133 -15
c6 -0.666992 10 -2.33398 12 -5.00098s2.66699 -7 2 -13l-14 -115c-0.666992 -6 -2.33398 -10 -5.00098 -12s-7 -2.66699 -13 -2c-38 4.66699 -78 8.33398 -120 11.001s-87 4 -135 4c-56 0 -102.167 -1.83301 -138.5 -5.5s-65.166 -10.334 -86.499 -20.001
s-36.166 -22.834 -44.499 -39.501s-12.5 -38 -12.5 -64c0 -20.667 1.83301 -38.167 5.5 -52.5s12 -27.5 25 -39.5s32.167 -23.667 57.5 -35s59.333 -24.666 102 -39.999l158 -54c52 -18 95.833 -35.667 131.5 -53s64.334 -37.333 86.001 -60s37.334 -49.667 47.001 -81
s14.5 -69.666 14.5 -114.999c0 -61.333 -9.33301 -111.833 -28 -151.5s-46.834 -70.834 -84.501 -93.501s-84.834 -38.334 -141.501 -47.001s-123.334 -13 -200.001 -13z" />
    <glyph glyph-name="t" unicode="t" horiz-adv-x="795" 
d="M500 -24c-42.667 0 -79.6641 3.66797 -110.997 11.001s-57.5 21.666 -78.5 42.999s-36.667 51.5 -47 90.5s-15.5 90.167 -15.5 153.5v643l-196 17c-10.667 0.666992 -16 6.33398 -16 17.001v104c0 10.667 5.33301 16 16 16h196v196c0 10.667 5.33301 17 16 19l141 23
c10.667 2 16 -2.33301 16 -13v-225h316c10.667 0 15 -5.33301 13 -16l-21 -122c-2 -10.667 -8.33301 -16 -19 -16h-289v-636c0 -33.333 2.16699 -59.833 6.5 -79.5s11.666 -34.834 21.999 -45.501s23.666 -17.5 39.999 -20.5s36.5 -4.5 60.5 -4.5c20.667 0 43 1 67 3
s45 4.66699 63 8c6 1.33301 10.167 0.833008 12.5 -1.5s4.16602 -6.16602 5.49902 -11.499l11 -111c2 -10.667 -2.66699 -17.334 -14 -20.001c-24 -6 -53.5 -11.167 -88.5 -15.5s-70.5 -6.5 -106.5 -6.5z" />
    <glyph glyph-name="u" unicode="u" horiz-adv-x="1201" 
d="M619 -24c-92.667 0 -168.669 8 -228.002 24s-106.166 42.333 -140.499 79s-58 84.334 -71 143.001s-19.5 130.667 -19.5 216v617c0 10.667 5.33301 16 16 16h140c10.667 0 16 -5.33301 16 -16v-608c0 -62.667 4.33301 -114.334 13 -155.001s23.667 -72.667 45 -96
s50.5 -39.666 87.5 -48.999s83.833 -14 140.5 -14c20 0 41 0.666992 63 2s43.833 3 65.5 5s42.667 4.66699 63 8s38.5 7 54.5 11v896c0 10.667 5.33301 16 16 16h140c10.667 0 16 -5.33301 16 -16v-1008c0 -10.667 -5 -17.334 -15 -20.001
c-25.333 -6.66699 -53.666 -13 -84.999 -19s-64.5 -11.333 -99.5 -16s-71 -8.5 -108 -11.5s-73.5 -4.5 -109.5 -4.5z" />
    <glyph glyph-name="v" unicode="v" horiz-adv-x="1046" 
d="M420 0c-10.667 0 -17.668 5 -21.001 15l-364 1041c-3.33301 10 0.333984 15 11.001 15h152c10.667 0 17.667 -5 21 -15l302 -904h3l302 904c3.33301 10 10.333 15 21 15h152c10 0 13.667 -5 11 -15l-364 -1041c-3.33301 -10 -10.333 -15 -21 -15h-205z" />
    <glyph glyph-name="w" unicode="w" horiz-adv-x="1665" 
d="M352 0c-10.667 0 -17.3389 5.00098 -20.0059 15.001l-275 1041c-3.33301 10 0.666992 15 12 15h153c10.667 0 17.334 -5.33301 20.001 -16l199 -807c2 -5.33301 4.16699 -13.833 6.5 -25.5s4.5 -23.334 6.5 -35.001l5.5 -31c1.66699 -9 2.83398 -13.5 3.50098 -13.5
s1.83398 3 3.50098 9s3.66699 13.833 6 23.5s5.16602 20.667 8.49902 33s7 25.166 11 38.499l255 809c3.33301 10 10.333 15 21 15h130c10.667 0 17.667 -5 21 -15l252 -812c4 -12.667 7.66699 -25 11 -37l9 -32.5l6.5 -23c1.66699 -5.66699 2.83398 -8.5 3.50098 -8.5
s1.83398 4.5 3.50098 13.5s3.83398 19.333 6.50098 31l7.5 34c2.33301 11 4.16602 19.167 5.49902 24.5l200 809c2.66699 10.667 9.33398 16 20.001 16h152c10.667 0 14.667 -5 12 -15l-276 -1041c-2.66699 -10 -9.33398 -15 -20.001 -15h-192c-10.667 0 -17.667 5 -21 15
l-241 707c-3.33301 9.33301 -6.33301 19.5 -9 30.5l-7.5 30.5c-2.33301 9.33301 -4.16602 17 -5.49902 23s-2.33301 9 -3 9s-1.66699 -3.16699 -3 -9.5s-3.16602 -14.166 -5.49902 -23.499s-5 -19.333 -8 -30s-6.16699 -20.667 -9.5 -30l-242 -707
c-3.33301 -10 -10.333 -15 -21 -15h-192z" />
    <glyph glyph-name="x" unicode="x" horiz-adv-x="1080" 
d="M846 0c-10.667 0 -19 4.33301 -25 13l-282 417l-281 -417c-6 -8.66699 -14.333 -13 -25 -13h-172c-11.333 -0 -13.666 4.33301 -6.99902 13l371 523l-371 522c-6.66699 8.66699 -4.33398 13 6.99902 13h172c10.667 0 19 -4.33301 25 -13l281 -416l282 416
c6 8.66699 14.333 13 25 13h173c11.333 0 13.666 -4.33301 6.99902 -13l-373 -522l373 -523c6.66699 -8.66699 4.33398 -13 -6.99902 -13h-173z" />
    <glyph glyph-name="y" unicode="y" horiz-adv-x="1015" 
d="M164 -475c-18.667 0 -39.502 1.16797 -62.502 3.50098s-44.167 5.83301 -63.5 10.5c-10 2.66699 -14 9 -12 19l18 116c2 10.667 8.33301 15 19 13c15.333 -2.66699 31.333 -4.83398 48 -6.50098s32.334 -2.5 47.001 -2.5c44.667 0 82 3.5 112 10.5s56.333 21.833 79 44.5
s43.5 55.167 62.5 97.5s40.167 98.833 63.5 169.5h-4c-6.66699 0 -12 2 -16 6c-6.66699 6 -17.167 19 -31.5 39s-29.833 51.667 -46.5 95l-346 916c-4 10 -0.666992 15 10 15h161c10.667 0 17.667 -5 21 -15l258 -717c6.66699 -18 13 -36 19 -54l15.5 -48
c4.33301 -14 8 -25.333 11 -34s4.83301 -13 5.5 -13l251 866c2.66699 10 9.33398 15 20.001 15h161c11.333 0 15 -5 11 -15l-364 -1138c-26.667 -81.333 -52.5 -147.5 -77.5 -198.5s-54 -91 -87 -120s-71.833 -48.667 -116.5 -59s-100 -15.5 -166 -15.5z" />
    <glyph glyph-name="z" unicode="z" horiz-adv-x="1028" 
d="M118 914c-10.667 0 -16.001 5.33301 -16.001 16v125c0 10.667 5.33301 16 16 16h791c10.667 0 16 -5.33301 16 -16v-117c0 -5.33301 -0.666992 -9.66602 -2 -12.999s-3.66602 -7 -6.99902 -11l-607 -756h604c10.667 0 16 -5.33301 16 -16v-126
c0 -10.667 -5.33301 -16 -16 -16h-799c-10.667 0 -16 5.33301 -16 16v115c0 7.33301 0.833008 12.666 2.5 15.999s4.16699 7.33301 7.5 12l605 755h-595z" />
    <glyph glyph-name="braceleft" unicode="{" horiz-adv-x="679" 
d="M497 -389c-52 0 -96.165 2.66602 -132.498 7.99902s-65.833 18.166 -88.5 38.499s-39.167 50.666 -49.5 90.999s-15.5 95.166 -15.5 164.499v304c0 36 -1.5 66.5 -4.5 91.5s-8.5 46.167 -16.5 63.5s-19.5 32.333 -34.5 45s-34.5 24.667 -58.5 36
c-5.33301 3.33301 -9 6.5 -11 9.5s-3 7.5 -3 13.5v133c0 6 1 10.5 3 13.5s5.66699 6.16699 11 9.5c24 12 43.5 24.167 58.5 36.5s26.5 27.333 34.5 45s13.5 38.834 16.5 63.501s4.5 55.334 4.5 92.001v303c0 70 5.16699 125 15.5 165s26.666 70.333 48.999 91
s51.666 33.667 87.999 39s80.5 8 132.5 8h133c10.667 0 16 -5.33301 16 -16v-139c0 -10.667 -5.33301 -16 -16 -16h-131c-23.333 0 -42 -1.66699 -56 -5s-24.833 -9.66602 -32.5 -18.999s-12.667 -22.333 -15 -39s-3.5 -38.334 -3.5 -65.001v-307
c0 -46 -2.16699 -85.167 -6.5 -117.5s-11.833 -60.666 -22.5 -84.999s-25 -45.5 -43 -63.5s-41 -35.333 -69 -52v-16c28 -17.333 51 -35 69 -53s32.333 -39 43 -63s18.167 -52.167 22.5 -84.5s6.5 -71.166 6.5 -116.499v-309c0 -26.667 1.16699 -48.334 3.5 -65.001
s7.33301 -29.667 15 -39s18.5 -15.666 32.5 -18.999s32.667 -5 56 -5h131c10.667 0 16 -5.33301 16 -16v-138c0 -10.667 -5.33301 -16 -16 -16h-132v0z" />
    <glyph glyph-name="bar" unicode="|" horiz-adv-x="517" 
d="M184 -389c-10.667 0 -16 5.33301 -16 16v1832c0 10.667 5.33301 16 16 16h148c10.667 0 16 -5.33301 16 -16v-1832c0 -10.667 -5.33301 -16 -16 -16h-148z" />
    <glyph glyph-name="braceright" unicode="}" horiz-adv-x="680" 
d="M51 -389c-10.667 0 -15.998 5.33398 -15.998 16.001v138c0 10.667 5.33301 16 16 16h131c23.333 0 42 1.66699 56 5s24.833 9.66602 32.5 18.999s12.667 22.333 15 39s3.5 38.334 3.5 65.001v309c0 45.333 2.16699 84.166 6.5 116.499s11.833 60.5 22.5 84.5s25 45 43 63
s41 35.667 69 53v16c-28 16.667 -51 34 -69 52s-32.333 39.167 -43 63.5s-18.167 52.666 -22.5 84.999s-6.5 71.5 -6.5 117.5v307c0 26.667 -1.16699 48.334 -3.5 65.001s-7.33301 29.667 -15 39s-18.5 15.666 -32.5 18.999s-32.667 5 -56 5h-131
c-10.667 0 -16 5.33301 -16 16v139c0 10.667 5.33301 16 16 16h133c52 0 96.167 -2.66699 132.5 -8s65.666 -18.333 87.999 -39s38.666 -51 48.999 -91s15.5 -95 15.5 -165v-303c0 -36.667 1.5 -67.334 4.5 -92.001s8.5 -45.834 16.5 -63.501s19.5 -32.667 34.5 -45
s34.5 -24.5 58.5 -36.5c5.33301 -3.33301 9 -6.5 11 -9.5s3 -7.5 3 -13.5v-133c0 -6 -1 -10.5 -3 -13.5s-5.66699 -6.16699 -11 -9.5c-24 -11.333 -43.5 -23.333 -58.5 -36s-26.5 -27.667 -34.5 -45s-13.5 -38.5 -16.5 -63.5s-4.5 -55.5 -4.5 -91.5v-304
c0 -69.333 -5.16699 -124.166 -15.5 -164.499s-26.833 -70.666 -49.5 -90.999s-52.167 -33.166 -88.5 -38.499s-80.5 -8 -132.5 -8h-132z" />
    <glyph glyph-name="asciitilde" unicode="~" horiz-adv-x="1059" 
d="M155 603c-10.667 0 -16.001 5.33301 -16.001 16v54c0 57.333 6.33301 102.5 19 135.5s28.834 57.833 48.501 74.5s41.334 27.167 65.001 31.5s46.5 6.5 68.5 6.5c17.333 0 33.5 -0.833008 48.5 -2.5s29.5 -4.83398 43.5 -9.50098s27.833 -11 41.5 -19
s28.167 -18 43.5 -30l60 -49c26 -21.333 49.333 -38.333 70 -51s41.667 -19 63 -19c12.667 0 24 1.66699 34 5s18.333 10.5 25 21.5s11.834 27 15.501 48s5.83398 49.5 6.50098 85.5c0 10.667 5.33301 16 16 16h105c10.667 0 16 -5.33301 16 -16v-54
c0 -57.333 -6.33301 -102.333 -19 -135s-28.667 -57.5 -48 -74.5s-40.833 -27.667 -64.5 -32s-46.5 -6.5 -68.5 -6.5c-18 0 -34.5 0.833008 -49.5 2.5s-29.5 4.83398 -43.5 9.50098s-28 11 -42 19s-28.333 18 -43 30l-59 48c-26.667 22 -50.334 39.333 -71.001 52
s-41.667 19 -63 19c-12.667 0 -24 -1.66699 -34 -5s-18.333 -10.5 -25 -21.5s-11.834 -27 -15.501 -48s-5.83398 -49.5 -6.50098 -85.5c0 -10.667 -5.33301 -16 -16 -16h-105z" />
    <glyph glyph-name="uni007F" horiz-adv-x="0" 
 />
    <glyph glyph-name="uni00A0" unicode="&#xa0;" horiz-adv-x="508" 
 />
    <glyph glyph-name="exclamdown" unicode="&#xa1;" horiz-adv-x="516" 
d="M324 579c10.667 0 16 -5.33301 16 -16l11 -950c0 -11.333 -5.33301 -17.333 -16 -18l-153 -25c-10.667 -0.666992 -16 4 -16 14l11 979c0 10.667 5.33301 16 16 16h131zM336 1072c10.667 0 16 -5.33301 16 -16v-228c0 -11.333 -5.33301 -17.333 -16 -18l-147 -24
c-6 -0.666992 -10.167 0 -12.5 2s-3.5 6 -3.5 12v256c0 10.667 5.33301 16 16 16h147z" />
    <glyph glyph-name="cent" unicode="&#xa2;" horiz-adv-x="948" 
d="M479 -258c-10.667 0 -16 5.33008 -16 15.9971v225c-67.333 6.66699 -123.833 20.834 -169.5 42.501s-82.5 53 -110.5 94s-48 92.833 -60 155.5s-18 139 -18 229v118c0 84.667 5.66699 158 17 220s30.833 114 58.5 156s64.334 74.833 110.001 98.5
s103.167 39.5 172.5 47.5v224c0 10.667 5.33301 16 16 16h126c10.667 0 16 -5.33301 16 -16v-217c40 -1.33301 78 -3.66602 114 -6.99902s69 -7.66602 99 -12.999c10.667 -2 15 -8.33301 13 -19l-21 -122c-1.33301 -6 -3.33301 -10 -6 -12s-7 -2.66699 -13 -2
c-29.333 4.66699 -60 8.16699 -92 10.5s-63.333 3.83301 -94 4.5v-864c34 0 66.5 1 97.5 3s60.167 5.66699 87.5 11c10.667 2 17 -2.33301 19 -13l22 -115c2 -10 -2.33301 -16 -13 -18c-28 -5.33301 -61.333 -9.5 -100 -12.5s-76.334 -5.16699 -113.001 -6.5v-218
c0 -10.667 -5.33301 -16 -16 -16h-126zM274 513.997c0 -60 2.66895 -111.833 8.00195 -155.5s15.166 -80.5 29.499 -110.5s33.666 -53.833 57.999 -71.5s55.5 -30.5 93.5 -38.5v840c-38 -8.66699 -69.167 -22.167 -93.5 -40.5s-43.5 -42.5 -57.5 -72.5
s-23.833 -66.5 -29.5 -109.5s-8.5 -93.5 -8.5 -151.5v-90z" />
    <glyph glyph-name="sterling" unicode="&#xa3;" horiz-adv-x="1105" 
d="M123 691c-10.667 0 -16 5.33203 -16 15.999v138c0 10.667 5.33301 16 16 16h111v161c0 53.333 2.33301 101.5 7 144.5s13.334 81.333 26.001 115s30.5 62.667 53.5 87s52.833 44.333 89.5 60s81 27.334 133 35.001s113.667 11.5 185 11.5h209
c10.667 0 16 -5.33301 16 -16v-139c0 -10.667 -5.33301 -16 -16 -16h-207c-68.667 0 -123.834 -4.83301 -165.501 -14.5s-73.667 -25.334 -96 -47.001s-37 -50.167 -44 -85.5s-10.5 -79 -10.5 -131v-165h455c10.667 0 15 -5.33301 13 -16l-24 -138
c-2 -10.667 -8.33301 -16 -19 -16h-425v-274c0 -61.333 -4 -111.166 -12 -149.499s-22.667 -70.833 -44 -97.5h639c10.667 0 16 -5.33301 16 -16v-138c0 -10.667 -5.33301 -16 -16 -16h-874c-10.667 -0 -16 5.33301 -16 16v143c0 6 1 10.5 3 13.5s5.66699 6.16699 11 9.5
c24 11.333 43.333 23.166 58 35.499s26 27.333 34 45s13.5 38.834 16.5 63.501s4.5 55 4.5 91v274h-111z" />
    <glyph glyph-name="currency" unicode="&#xa4;" horiz-adv-x="1241" 
d="M136 1099c-7.33301 7.33301 -7.33203 14.666 0.000976562 21.999l97 96c7.33301 7.33301 14.666 7.33301 21.999 0l107 -108c32 21.333 69.333 37.333 112 48s91.667 16 147 16s104.166 -5.33301 146.499 -16s79.5 -26.334 111.5 -47.001l107 107
c7.33301 7.33301 14.666 7.33301 21.999 0l96 -96c7.33301 -7.33301 7.33301 -14.666 0 -21.999l-116 -116c15.333 -33.333 26.5 -70.5 33.5 -111.5s10.5 -86.167 10.5 -135.5c0 -50 -3.66699 -96 -11 -138s-18.666 -80 -33.999 -114l117 -116
c7.33301 -7.33301 7.33301 -14.666 0 -21.999l-96 -96c-7.33301 -7.33301 -14.666 -7.33301 -21.999 0l-108 107c-63.333 -41.333 -149 -62 -257 -62s-194 21 -258 63l-108 -108c-7.33301 -7.33301 -14.666 -7.33301 -21.999 0l-96 97
c-7.33301 7.33301 -7.33301 14.666 0 21.999l118 117c-16 34 -27.667 71.667 -35 113s-11 87 -11 137c0 48.667 3.66699 93.334 11 134.001s18.666 77.667 33.999 111zM361.001 736c0 -46 4.33301 -86.667 13 -122s23 -64.833 43 -88.5s46.667 -41.667 80 -54
s74.666 -18.5 123.999 -18.5s90.5 6.16699 123.5 18.5s59.5 30.333 79.5 54s34.167 53.167 42.5 88.5s12.5 76 12.5 122s-4.16699 86.5 -12.5 121.5s-22.5 64.5 -42.5 88.5s-46.5 42 -79.5 54s-74.167 18 -123.5 18s-90.666 -6 -123.999 -18s-60 -30 -80 -54
s-34.333 -53.5 -43 -88.5s-13 -75.5 -13 -121.5z" />
    <glyph glyph-name="yen" unicode="&#xa5;" horiz-adv-x="1285" 
d="M731 510l-1 -3v-128h369c10.667 0 15 -5.33301 13 -16l-24 -127c-2 -10.667 -8.33301 -16 -19 -16h-339v-204c0 -10.667 -5.33301 -16 -16 -16h-148c-10.667 -0 -16 5.33301 -16 16v204h-328c-10.667 0 -15 5.33301 -13 16l24 127c2 10.667 8.33301 16 19 16h298v128
l-2 3h-326c-10.667 0 -15 5.33301 -13 16l24 126c2 10.667 8.33301 16 19 16h216l-404 793c-5.33301 9.33301 -2.33301 14 9 14h169c6 0 10.667 -1 14 -3s6.33301 -5.66699 9 -11l375 -749l374 749c2.66699 5.33301 5.66699 9 9 11s8 3 14 3h168
c11.333 0 14.333 -4.66699 9 -14l-403 -793h287c10.667 0 15 -5.33301 13 -16l-24 -126c-2 -10.667 -8.33301 -16 -19 -16h-337z" />
    <glyph glyph-name="brokenbar" unicode="&#xa6;" horiz-adv-x="529" 
d="M202 707c-10.667 0 -16 5.33301 -16 16l-11 736c0 10.667 5.33301 16 16 16h147c10.667 0 16 -5.33301 16 -16l-11 -736c0 -10.667 -5.33301 -16 -16 -16h-125zM191 -389c-10.667 0 -16 5.33301 -16 16l11 736c0 10.667 5.33301 16 16 16h125
c10.667 0 16 -5.33301 16 -16l11 -736c0 -10.667 -5.33301 -16 -16 -16h-147z" />
    <glyph glyph-name="section" unicode="&#xa7;" horiz-adv-x="1095" 
d="M470 -451c-27.333 0 -55.835 0.834961 -85.502 2.50195s-59.167 4 -88.5 7s-57.5 6.66699 -84.5 11s-51.5 9.16602 -73.5 14.499c-10 2.66699 -14 9 -12 19l29 134c2 10.667 8.33301 15 19 13c56 -9.33301 107.167 -16 153.5 -20s91.166 -6 134.499 -6
c70.667 0 127.834 5 171.501 15s77.667 24.167 102 42.5s40.833 40.666 49.5 66.999s13 55.5 13 87.5c0 28.667 -3.83301 53.334 -11.5 74.001s-21.334 39.5 -41.001 56.5s-46.167 33.833 -79.5 50.5s-75.666 36 -126.999 58l-135 61c-46 20 -87.167 41.5 -123.5 64.5
s-67.166 49.167 -92.499 78.5s-44.833 63.333 -58.5 102s-20.5 84 -20.5 136c0 60.667 8.33301 111.667 25 153s41.667 76.666 75 105.999c-32 32 -56.667 68.833 -74 110.5s-26 91.834 -26 150.501c0 66 10.333 121.833 31 167.5s52 83 94 112s95 50 159 63
s139.667 19.5 227 19.5c24 0 49 -0.666992 75 -2s52 -3.16602 78 -5.49902s51.167 -5.5 75.5 -9.5s46.833 -8.66699 67.5 -14c10 -3.33301 14 -10 12 -20l-23 -129c-2 -10.667 -8.33301 -15 -19 -13c-19.333 3.33301 -40.166 6.16602 -62.499 8.49902
s-44.833 4.33301 -67.5 6s-45.167 2.83398 -67.5 3.50098s-43.5 1 -63.5 1c-55.333 0 -103.5 -3.33301 -144.5 -10s-75 -17.667 -102 -33s-47.167 -35.333 -60.5 -60s-20 -54.667 -20 -90c0 -30.667 5.16699 -57 15.5 -79s26 -42 47 -60s47.167 -34.833 78.5 -50.5
s68 -32.167 110 -49.5l151 -67c54 -23.333 99.333 -47 136 -71s66.167 -50.333 88.5 -79s38.333 -60.334 48 -95.001s14.5 -74 14.5 -118c0 -58.667 -7.16699 -111.167 -21.5 -157.5s-37.5 -85.5 -69.5 -117.5c32 -32 55.167 -67.833 69.5 -107.5s21.5 -85.5 21.5 -137.5
c0 -60.667 -7.5 -115.334 -22.5 -164.001s-42 -90 -81 -124s-91.833 -60.167 -158.5 -78.5s-151.667 -27.5 -255 -27.5zM403.998 757.002l-29.998 12.002c-10 4 -19.667 8.33301 -29 13c-20.667 -19.333 -35.167 -42.833 -43.5 -70.5s-12.5 -53.5 -12.5 -77.5
c0 -36 5.16699 -66.667 15.5 -92s26.166 -48 47.499 -68s48.333 -38.167 81 -54.5s71.334 -33.5 116.001 -51.5l151 -63l30 -13c9.33301 -4 18.666 -8.33301 27.999 -13c17.333 20 29.666 43.833 36.999 71.5s11 57.5 11 89.5c0 33.333 -3.83301 61.666 -11.5 84.999
s-21.5 44.5 -41.5 63.5s-47.333 37.167 -82 54.5s-78.667 36.666 -132 57.999z" />
    <glyph glyph-name="dieresis" unicode="&#xa8;" 
d="M148 1243c-10.667 0 -16 5.33301 -16 16v265c0 10.667 5.33301 17 16 19l143 23c10.667 2 16 -2.33301 16 -13v-294c0 -10.667 -5.33301 -16 -16 -16h-143zM487 1243c-10.667 0 -16 5.33301 -16 16v265c0 10.667 5.33301 17 16 19l143 23c10.667 2 16 -2.33301 16 -13
v-294c0 -10.667 -5.33301 -16 -16 -16h-143z" />
    <glyph glyph-name="copyright" unicode="&#xa9;" horiz-adv-x="1528" 
d="M803 339c-66 0 -121.668 6.33691 -167.001 19.0039s-82.166 33.667 -110.499 63s-48.833 67.666 -61.5 114.999s-19 105.666 -19 174.999v88c0 69.333 6.33301 127.833 19 175.5s33.167 86.167 61.5 115.5s65.166 50.333 110.499 63s101 19 167 19
c31.333 0 62.166 -1.33301 92.499 -4s57.5 -6.66699 81.5 -12c6 -1.33301 10 -3.33301 12 -6s2.66699 -7 2 -13l-17 -117c-0.666992 -6 -2.33398 -10 -5.00098 -12s-7 -2.66699 -13 -2c-23.333 3.33301 -47.166 5.5 -71.499 6.5s-48.166 1.5 -71.499 1.5
c-40 0 -73.167 -4.16699 -99.5 -12.5s-47.333 -21.833 -63 -40.5s-26.5 -42.667 -32.5 -72s-9 -65.333 -9 -108v-49c0 -43.333 3 -79.833 9 -109.5s16.833 -53.834 32.5 -72.501s36.667 -32.167 63 -40.5s59.5 -12.5 99.5 -12.5c26 0 51 0.666992 75 2
s47 3.66602 69 6.99902c6 0.666992 10.333 0 13 -2s4.33398 -6 5.00098 -12l16 -118c0.666992 -6 0 -10.333 -2 -13s-6 -4.66699 -12 -6c-23.333 -5.33301 -50.833 -9.33301 -82.5 -12s-62.167 -4 -91.5 -4zM263.999 757.004c0 -84 6.66699 -159.5 20 -226.5
s38.5 -123.833 75.5 -170.5s87.833 -82.5 152.5 -107.5s148.667 -37.5 252 -37.5c102.667 0 186.5 12.5 251.5 37.5s115.833 60.833 152.5 107.5s61.667 103.5 75 170.5s20 142.5 20 226.5s-6.66699 159.167 -20 225.5s-38.333 122.833 -75 169.5
s-87.5 82.334 -152.5 107.001s-148.833 37 -251.5 37c-103.333 0 -187.333 -12.333 -252 -37s-115.5 -60.334 -152.5 -107.001s-62.167 -103.167 -75.5 -169.5s-20 -141.5 -20 -225.5zM1412 757.004c0 -106 -10.333 -201.5 -31 -286.5s-55.834 -157.5 -105.501 -217.5
s-116.167 -106.167 -199.5 -138.5s-187.333 -48.5 -312 -48.5c-125.333 0 -229.5 16.167 -312.5 48.5s-149.167 78.5 -198.5 138.5s-84.166 132.5 -104.499 217.5s-30.5 180.5 -30.5 286.5c0 105.333 10.167 200.333 30.5 285s55.166 156.834 104.499 216.501
s115.5 105.667 198.5 138s187.167 48.5 312.5 48.5c124.667 0 228.667 -16.167 312 -48.5s149.833 -78.333 199.5 -138s84.834 -131.834 105.501 -216.501s31 -179.667 31 -285z" />
    <glyph glyph-name="ordfeminine" unicode="&#xaa;" horiz-adv-x="973" 
d="M496 822c25.333 0 50 0.666016 74 1.99902s47.667 4 71 8v232h-84c-51.333 0 -92.833 -1.5 -124.5 -4.5s-56.167 -9 -73.5 -18s-29.166 -21.5 -35.499 -37.5s-9.5 -36.667 -9.5 -62c0 -27.333 4.33301 -48.833 13 -64.5s21 -27.667 37 -36s35.167 -13.666 57.5 -15.999
s47.166 -3.5 74.499 -3.5zM467 1370c-36 0 -72.1689 -1.5 -108.502 -4.5s-72.166 -6.5 -107.499 -10.5c-6 -0.666992 -10.167 0 -12.5 2s-3.5 6 -3.5 12v89c0 10.667 5.33301 17 16 19c18.667 4 38.334 7.33301 59.001 10s41.334 5 62.001 7s40.5 3.33301 59.5 4
s36.167 1 51.5 1c69.333 0 124.5 -5.83301 165.5 -17.5s72.167 -29.667 93.5 -54s35 -55.833 41 -94.5s9 -85 9 -139v-455c0 -11.333 -5.33301 -17.333 -16 -18c-23.333 -3.33301 -47.833 -6.33301 -73.5 -9s-50.834 -5 -75.501 -7s-48 -3.5 -70 -4.5s-41.333 -1.5 -58 -1.5
c-58 0 -108.167 3.5 -150.5 10.5s-77.333 19.5 -105 37.5s-48.167 42.333 -61.5 73s-20 69.667 -20 117s5.66699 86.833 17 118.5s31.833 57 61.5 76s70.5 32.333 122.5 40s118.667 11.5 200 11.5h78v40c0 28 -2.33301 51.5 -7 70.5s-13.5 34.167 -26.5 45.5
s-30.667 19.333 -53 24s-51.5 7 -87.5 7zM159.998 456.999c-10.667 0 -16 5.33301 -16 16v106c0 10.667 5.33301 16 16 16h659c10.667 0 16 -5.33301 16 -16v-106c0 -10.667 -5.33301 -16 -16 -16h-659z" />
    <glyph glyph-name="guillemotleft" unicode="&#xab;" horiz-adv-x="1232" 
d="M426 139c-10.667 0 -19.667 4 -27 12l-335 370c-7.33301 8 -7.33301 16 0 24l335 369c7.33301 8 16.333 12 27 12h185c11.333 0 13 -4 5 -12l-356 -381l356 -382c8 -8 6.33301 -12 -5 -12h-185zM919 139c-10.667 0 -19.667 4 -27 12l-335 370
c-7.33301 8 -7.33301 16 0 24l335 369c7.33301 8 16.333 12 27 12h185c11.333 0 13 -4 5 -12l-356 -381l356 -382c8 -8 6.33301 -12 -5 -12h-185z" />
    <glyph glyph-name="logicalnot" unicode="&#xac;" horiz-adv-x="1172" 
d="M154 740c-10.667 0 -16 5.33301 -16 16v135c0 10.667 5.33301 16 16 16h823c10.667 0 16 -5.33301 16 -16v-555c0 -10.667 -5.33301 -16 -16 -16h-134c-10.667 0 -16 5.33301 -16 16v404h-673z" />
    <glyph glyph-name="uni00AD" unicode="&#xad;" horiz-adv-x="795" 
d="M166 511c-10.667 0 -16 5.33301 -16 16v135c0 10.667 5.33301 16 16 16h464c10.667 0 16 -5.33301 16 -16v-135c0 -10.667 -5.33301 -16 -16 -16h-464z" />
    <glyph glyph-name="registered" unicode="&#xae;" horiz-adv-x="1277" 
d="M1157 995c0 -85.333 -8.66699 -162.333 -26 -231s-46.166 -127 -86.499 -175s-93.666 -84.833 -159.999 -110.5s-148.5 -38.5 -246.5 -38.5s-180 12.833 -246 38.5s-119.167 62.5 -159.5 110.5s-69 106.333 -86 175s-25.5 145.667 -25.5 231
c0 84.667 8.5 161.167 25.5 229.5s45.667 126.166 86 173.499s93.5 83.833 159.5 109.5s148 38.5 246 38.5s180.167 -12.833 246.5 -38.5s119.666 -62.167 159.999 -109.5s69.166 -105.166 86.499 -173.499s26 -144.833 26 -229.5zM247 995
c0 -67.333 5.5 -127.5 16.5 -180.5s31 -97.833 60 -134.5s68.833 -64.5 119.5 -83.5s115.667 -28.5 195 -28.5c80 0 145.333 9.5 196 28.5s90.667 46.833 120 83.5s49.5 81.5 60.5 134.5s16.5 113.167 16.5 180.5c0 66.667 -5.5 126.334 -16.5 179.001
s-31.167 97.167 -60.5 133.5s-69.333 64 -120 83s-116 28.5 -196 28.5c-79.333 0 -144.333 -9.5 -195 -28.5s-90.5 -46.667 -119.5 -83s-49 -80.833 -60 -133.5s-16.5 -112.334 -16.5 -179.001zM807 671c-6 0 -10.665 1.00098 -13.998 3.00098s-6.33301 5.66699 -9 11
l-103 213c-9.33301 -0.666992 -19.5 -1.16699 -30.5 -1.5s-22.167 -0.5 -33.5 -0.5c-10 0 -21.833 0.166992 -35.5 0.5s-28.167 1.16602 -43.5 2.49902v-212c0 -10.667 -5.33301 -16 -16 -16h-83c-10.667 0 -16 5.33301 -16 16v606c0 10.667 5.33301 16.334 16 17.001
c30 2 59.167 3.33301 87.5 4s56.166 1 83.499 1c52.667 0 96.667 -2.83301 132 -8.5s63.666 -15.667 84.999 -30s36.5 -33.5 45.5 -57.5s13.5 -54.333 13.5 -91v-39c0 -42.667 -6.33301 -77.834 -19 -105.501s-37 -48.834 -73 -63.501l110 -208
c5.33301 -9.33301 4.33301 -17.666 -3 -24.999l-5 -5c-7.33301 -7.33301 -16.333 -11 -27 -11h-62zM622.002 1204c-12.667 0 -26.667 -0.166992 -42 -0.5s-29.333 -0.833008 -42 -1.5v-200c18 -1.33301 34.5 -2 49.5 -2h38.5c26.667 0 49.334 1 68.001 3
s33.667 6.33301 45 13s19.666 16.167 24.999 28.5s8 29.166 8 50.499v26c0 18.667 -2.83301 33.5 -8.5 44.5s-14.5 19.333 -26.5 25s-27.5 9.33398 -46.5 11.001s-41.833 2.5 -68.5 2.5z" />
    <glyph glyph-name="macron" unicode="&#xaf;" 
d="M142 1318c-10.667 0 -16 5.33301 -16 16v111c0 10.667 5.33301 16 16 16h494c10.667 0 16 -5.33301 16 -16v-111c0 -10.667 -5.33301 -16 -16 -16h-494z" />
    <glyph glyph-name="degree" unicode="&#xb0;" horiz-adv-x="814" 
d="M407 1364c-22.667 0 -43.834 -2.66699 -63.501 -8s-36.667 -14 -51 -26s-25.666 -27.667 -33.999 -47s-12.5 -42.666 -12.5 -69.999v-26c0 -27.333 4 -50.5 12 -69.5s19.167 -34.5 33.5 -46.5s31.333 -20.667 51 -26s41.167 -8 64.5 -8c22.667 0 43.834 2.5 63.501 7.5
s36.667 13.5 51 25.5s25.666 27.667 33.999 47s12.5 43.333 12.5 72v24c0 27.333 -4 50.666 -12 69.999s-19.167 35 -33.5 47s-31.333 20.667 -51 26s-41.167 8 -64.5 8zM407 903c-47.333 0 -89.8301 5.5 -127.497 16.5s-69.834 27.667 -96.501 50s-47.167 50.5 -61.5 84.5
s-21.5 73.667 -21.5 119v53c0 46 7.16699 86.167 21.5 120.5s34.666 62.666 60.999 84.999s58.5 39.166 96.5 50.499s80.667 17 128 17s90 -5.66699 128 -17s70.167 -28.166 96.5 -50.499s46.666 -50.666 60.999 -84.999s21.5 -74.5 21.5 -120.5v-53
c0 -45.333 -7.16699 -85 -21.5 -119s-34.833 -62.167 -61.5 -84.5s-59 -39 -97 -50s-80.333 -16.5 -127 -16.5z" />
    <glyph glyph-name="plusminus" unicode="&#xb1;" horiz-adv-x="1151" 
d="M159 791c-10.667 0 -16 5.33301 -16 16v136c0 10.667 5.33301 16 16 16h333v334c0 10.667 5.33301 16 16 16h135c10.667 0 16 -5.33301 16 -16v-334h333c10.667 0 16 -5.33301 16 -16v-136c0 -10.667 -5.33301 -16 -16 -16h-333v-331c0 -10.667 -5.33301 -16 -16 -16
h-135c-10.667 0 -16 5.33301 -16 16v331h-333zM167 0c-10.667 0 -16 5.33301 -16 16v135c0 10.667 5.33301 16 16 16h817c10.667 0 16 -5.33301 16 -16v-135c0 -10.667 -5.33301 -16 -16 -16h-817z" />
    <glyph glyph-name="twosuperior" unicode="&#xb2;" horiz-adv-x="848" 
d="M140 599c-10.667 0 -15.9961 5.33105 -15.9961 15.998v59c0 42.667 3.16699 79.5 9.5 110.5s17.333 59.5 33 85.5s36.167 50.667 61.5 74s57 49 95 77l138 101c15.333 10.667 29.166 20.834 41.499 30.501s22.666 19.334 30.999 29.001s14.666 20 18.999 31
s6.5 23.833 6.5 38.5c0 20 -3.16699 36.667 -9.5 50s-17.166 24.166 -32.499 32.499s-35.5 14.333 -60.5 18s-56.167 5.5 -93.5 5.5c-22.667 0 -50.334 -1 -83.001 -3s-65.334 -5.66699 -98.001 -11c-10.667 -2 -17 2.33301 -19 13l-16 102
c-2 10.667 2.33301 17.334 13 20.001c17.333 4 35.5 7.33301 54.5 10s38 4.83398 57 6.50098s37.333 2.83398 55 3.50098s34.167 1 49.5 1c67.333 0 123.166 -5.16699 167.499 -15.5s79.5 -25.333 105.5 -45s44.333 -43.834 55 -72.501s16 -61.334 16 -98.001
c0 -28.667 -3.33301 -54.167 -10 -76.5s-16.667 -43 -30 -62s-30.166 -37.5 -50.499 -55.5s-44.5 -36.667 -72.5 -56l-102 -71c-30 -21.333 -54.5 -40.5 -73.5 -57.5s-34 -33.667 -45 -50s-18.667 -33 -23 -50s-6.83301 -36.167 -7.5 -57.5h390c10.667 0 16 -5.33301 16 -16
v-101c0 -10.667 -5.33301 -16 -16 -16h-556z" />
    <glyph glyph-name="threesuperior" unicode="&#xb3;" horiz-adv-x="842" 
d="M377 584c-41.333 0 -81.335 1.50098 -120.002 4.50098s-73 6.83301 -103 11.5c-10.667 0.666992 -15.667 6.66699 -15 18l5 106c0.666992 6 2.16699 10 4.5 12s6.5 2.66699 12.5 2c36 -4 71.333 -6.83301 106 -8.5s67 -2.5 97 -2.5c69.333 0 120.666 9.66699 153.999 29
s50 54.666 50 105.999v20c0 20 -2.5 37.667 -7.5 53s-13.833 28.5 -26.5 39.5s-30 19.333 -52 25s-49.667 8.5 -83 8.5h-166c-10.667 0 -16 5.33301 -16 16v92c0 10.667 5.33301 16 16 16h163c34 0 62.167 2.33301 84.5 7s40 11.334 53 20.001s22 19.167 27 31.5
s7.5 26.166 7.5 41.499v11c0 22.667 -4.5 41.334 -13.5 56.001s-22.333 26.167 -40 34.5s-39.167 14.166 -64.5 17.499s-54 5 -86 5c-34 0 -67.833 -0.833008 -101.5 -2.5s-66.167 -4.16699 -97.5 -7.5c-10.667 -2 -16.334 2.66699 -17.001 14l-7 105
c-0.666992 11.333 4.33301 17.333 15 18c30 4 63.333 7.66699 100 11s75.334 5 116.001 5c55.333 0 104.5 -3.83301 147.5 -11.5s79.333 -20.167 109 -37.5s52.334 -40.166 68.001 -68.499s23.5 -63.166 23.5 -104.499v-16c0 -46 -9.5 -85.5 -28.5 -118.5
s-50.5 -56.167 -94.5 -69.5c22 -8.66699 40.667 -20.334 56 -35.001s28 -31.5 38 -50.5s17.333 -39.833 22 -62.5s7 -46.334 7 -71.001v-20c0 -49.333 -7.66699 -90 -23 -122s-37.666 -57.5 -66.999 -76.5s-65.166 -32.333 -107.499 -40s-90.833 -11.5 -145.5 -11.5z" />
    <glyph glyph-name="acute" unicode="&#xb4;" 
d="M204 1264c-11.333 0 -13.667 4.33301 -7 13l160 238c6 8.66699 14.333 13 25 13h192c10.667 0 12.667 -4 6 -12l-202 -240c-6 -8 -14.667 -12 -26 -12h-148z" />
    <glyph glyph-name="mu" unicode="&#xb5;" horiz-adv-x="1271" 
d="M191 -389c-10.667 0 -16.0029 5.33496 -16.0029 16.002v1428c0 10.667 5.33301 16 16 16h141c10.667 0 16 -5.33301 16 -16v-583c0 -66.667 7.33301 -121.5 22 -164.5s35.334 -77 62.001 -102s59 -42.5 97 -52.5s80.667 -15 128 -15c20.667 0 42.5 0.666992 65.5 2
s46 3.16602 69 5.49902s45 5.16602 66 8.49902s39.833 7 56.5 11v890c0 10.667 5.33301 16 16 16h140c10.667 0 16 -5.33301 16 -16v-1006c0 -10.667 -5 -17.334 -15 -20.001c-25.333 -7.33301 -53.666 -14.166 -84.999 -20.499s-64.666 -11.833 -99.999 -16.5
s-71.833 -8.5 -109.5 -11.5s-75.167 -4.5 -112.5 -4.5c-82 0 -148.5 7.33301 -199.5 22s-89.833 39.667 -116.5 75v-446c0 -10.667 -5.33301 -16 -16 -16h-141z" />
    <glyph glyph-name="paragraph" unicode="&#xb6;" horiz-adv-x="1176" 
d="M567 -452c-10.667 0 -15.999 5.33594 -15.999 16.0029v1046c-19.333 -2 -39.166 -3.33301 -59.499 -4s-42.833 -1 -67.5 -1c-67.333 0 -123 5.66699 -167 17s-79 32.166 -105 62.499s-44.167 72.5 -54.5 126.5s-15.5 123.667 -15.5 209v51c0 56 2.5 105 7.5 147
s13 77.833 24 107.5s25.667 54.167 44 73.5s41.166 34.666 68.499 45.999s59.166 19.166 95.499 23.499s78.5 6.5 126.5 6.5h253c10.667 0 16 -5.33301 16 -16v-1895c0 -10.667 -5.33301 -16 -16 -16h-134zM839.001 -451.997c-10.667 0 -16 5.33301 -16 16v1895
c0 10.667 5.33301 16 16 16h136c10.667 0 16 -5.33301 16 -16v-1895c0 -10.667 -5.33301 -16 -16 -16h-136z" />
    <glyph glyph-name="periodcentered" unicode="&#xb7;" horiz-adv-x="480" 
d="M166 417c-10.667 0 -16 5.33301 -16 16v228c0 11.333 5.33301 17.333 16 18l147 24c6 0.666992 10.167 0 12.5 -2s3.5 -6 3.5 -12v-256c0 -10.667 -5.33301 -16 -16 -16h-147z" />
    <glyph glyph-name="cedilla" unicode="&#xb8;" 
d="M245 -389c-10.667 0 -13.333 4.66699 -8 14l146 259c5.33301 9.33301 13.333 14 24 14h123c11.333 0 14.333 -4.66699 9 -14l-133 -259c-2.66699 -5.33301 -5.66699 -9 -9 -11s-8 -3 -14 -3h-138z" />
    <glyph glyph-name="onesuperior" unicode="&#xb9;" horiz-adv-x="541" 
d="M89 1319c-10.667 -2 -17.001 2.33398 -19.001 13.001l-21 117c-2 10.667 2.33301 17 13 19l175 28c5.33301 1.33301 10.833 2.16602 16.5 2.49902s10.834 0.5 15.501 0.5h106c10.667 0 16 -5.33301 16 -16v-868c0 -10.667 -5.33301 -16 -16 -16h-119
c-10.667 0 -16 5.33301 -16 16v733z" />
    <glyph glyph-name="ordmasculine" unicode="&#xba;" horiz-adv-x="992" 
d="M496 1360c-36.667 0 -67.332 -4.33496 -91.999 -13.002s-44.334 -22.5 -59.001 -41.5s-25.167 -43.167 -31.5 -72.5s-9.5 -65 -9.5 -107v-54c0 -42 3 -77.667 9 -107s16.5 -53.333 31.5 -72s34.833 -32.334 59.5 -41.001s55.667 -13 93 -13
c36.667 0 67.167 4.33301 91.5 13s43.833 22.334 58.5 41.001s25.167 42.834 31.5 72.501s9.5 65.834 9.5 108.501v52c0 41.333 -3 76.833 -9 106.5s-16.167 54 -30.5 73s-33.833 32.833 -58.5 41.5s-56 13 -94 13zM496.002 698.998c-62.667 0 -115.669 7 -159.002 21
s-78.5 35.833 -105.5 65.5s-46.5 67.5 -58.5 113.5s-18 101 -18 165v68c0 64 6.33301 119.167 19 165.5s32.667 84.333 60 114s63 51.667 107 66s97.333 21.5 160 21.5c60.667 0 112.334 -7.16699 155.001 -21.5s77.5 -36.333 104.5 -66s46.667 -67.667 59 -114
s18.5 -101.5 18.5 -165.5v-68c0 -64 -6.5 -119 -19.5 -165s-33.167 -83.833 -60.5 -113.5s-62.666 -51.5 -105.999 -65.5s-95.333 -21 -156 -21zM166 451.998c-10.667 0 -16 5.33301 -16 16v111c0 10.667 5.33301 16 16 16h659c10.667 0 16 -5.33301 16 -16v-111
c0 -10.667 -5.33301 -16 -16 -16h-659z" />
    <glyph glyph-name="guillemotright" unicode="&#xbb;" horiz-adv-x="1233" 
d="M129 139c-11.333 0 -13 4 -5 12l356 382l-356 381c-8 8 -6.33301 12 5 12h185c10.667 0 19.667 -4 27 -12l335 -369c7.33301 -8 7.33301 -16 0 -24l-335 -370c-7.33301 -8 -16.333 -12 -27 -12h-185zM622 139c-11.333 0 -13 4 -5 12l356 382l-356 381
c-8 8 -6.33301 12 5 12h185c10.667 0 19.667 -4 27 -12l335 -369c7.33301 -8 7.33301 -16 0 -24l-335 -370c-7.33301 -8 -16.333 -12 -27 -12h-185z" />
    <glyph glyph-name="onequarter" unicode="&#xbc;" horiz-adv-x="1693" 
d="M915 215c-10.667 0 -15.999 5.33301 -15.999 16v144c0 6 0.666992 11.167 2 15.5s3.66602 8.83301 6.99902 13.5l343 483c6 8.66699 14.333 13 25 13h220c10.667 0 16 -5.33301 16 -16v-531h90c10.667 0 16 -5.33301 16 -16v-106c0 -10.667 -5.33301 -16 -16 -16h-90
v-199c0 -10.667 -5.33301 -16 -16 -16h-119c-10.667 -0 -16 5.33301 -16 16v199h-446zM274.001 0c-10.667 0 -13.334 4.66699 -8.00098 14l849 1447c5.33301 9.33301 13.333 14 24 14h160c10.667 0 13.334 -4.66699 8.00098 -14l-850 -1447
c-5.33301 -9.33301 -13.333 -14 -24 -14h-159zM1075 353h286v387h-30l-256 -362v-25zM197.001 1319c-10.667 -2 -17.001 2.33398 -19.001 13.001l-21 117c-2 10.667 2.33301 17 13 19l175 28c5.33301 1.33301 10.833 2.16602 16.5 2.49902s10.834 0.5 15.501 0.5h106
c10.667 0 16 -5.33301 16 -16v-868c0 -10.667 -5.33301 -16 -16 -16h-119c-10.667 0 -16 5.33301 -16 16v733z" />
    <glyph glyph-name="onehalf" unicode="&#xbd;" horiz-adv-x="1745" 
d="M254 0c-10.667 0 -13.334 4.66699 -8.00098 14l849 1447c5.33301 9.33301 13.333 14 24 14h160c10.667 0 13.334 -4.66699 8.00098 -14l-850 -1447c-5.33301 -9.33301 -13.333 -14 -24 -14h-159zM1061 0c-10.667 0 -15.9961 5.33105 -15.9961 15.998v59
c0 42.667 3.16699 79.5 9.5 110.5s17.333 59.5 33 85.5s36.167 50.667 61.5 74s57 49 95 77l138 101c15.333 10.667 29.166 20.834 41.499 30.501s22.666 19.334 30.999 29.001s14.666 20 18.999 31s6.5 23.833 6.5 38.5c0 20 -3.16699 36.667 -9.5 50
s-17.166 24.166 -32.499 32.499s-35.5 14.333 -60.5 18s-56.167 5.5 -93.5 5.5c-22.667 0 -50.334 -1 -83.001 -3s-65.334 -5.66699 -98.001 -11c-10.667 -2 -17 2.33301 -19 13l-16 102c-2 10.667 2.33301 17.334 13 20.001c17.333 4 35.5 7.33301 54.5 10
s38 4.83398 57 6.50098s37.333 2.83398 55 3.50098s34.167 1 49.5 1c67.333 0 123.166 -5.16699 167.499 -15.5s79.5 -25.333 105.5 -45s44.333 -43.834 55 -72.501s16 -61.334 16 -98.001c0 -28.667 -3.33301 -54.167 -10 -76.5s-16.667 -43 -30 -62
s-30.166 -37.5 -50.499 -55.5s-44.5 -36.667 -72.5 -56l-102 -71c-30 -21.333 -54.5 -40.5 -73.5 -57.5s-34 -33.667 -45 -50s-18.667 -33 -23 -50s-6.83301 -36.167 -7.5 -57.5h390c10.667 0 16 -5.33301 16 -16v-101c0 -10.667 -5.33301 -16 -16 -16h-556zM197.004 1319
c-10.667 -2 -17.001 2.33398 -19.001 13.001l-21 117c-2 10.667 2.33301 17 13 19l175 28c5.33301 1.33301 10.833 2.16602 16.5 2.49902s10.834 0.5 15.501 0.5h106c10.667 0 16 -5.33301 16 -16v-868c0 -10.667 -5.33301 -16 -16 -16h-119c-10.667 0 -16 5.33301 -16 16
v733z" />
    <glyph glyph-name="threequarters" unicode="&#xbe;" horiz-adv-x="1873" 
d="M424 0c-10.667 0 -13.334 4.66699 -8.00098 14l849 1447c5.33301 9.33301 13.333 14 24 14h160c10.667 0 13.334 -4.66699 8.00098 -14l-850 -1447c-5.33301 -9.33301 -13.333 -14 -24 -14h-159zM1095 215c-10.667 0 -15.999 5.33301 -15.999 16v144
c0 6 0.666992 11.167 2 15.5s3.66602 8.83301 6.99902 13.5l343 483c6 8.66699 14.333 13 25 13h220c10.667 0 16 -5.33301 16 -16v-531h90c10.667 0 16 -5.33301 16 -16v-106c0 -10.667 -5.33301 -16 -16 -16h-90v-199c0 -10.667 -5.33301 -16 -16 -16h-119
c-10.667 -0 -16 5.33301 -16 16v199h-446zM1255 353h286v387h-30l-256 -362v-25zM349.001 584c-41.333 0 -81.335 1.50098 -120.002 4.50098s-73 6.83301 -103 11.5c-10.667 0.666992 -15.667 6.66699 -15 18l5 106c0.666992 6 2.16699 10 4.5 12s6.5 2.66699 12.5 2
c36 -4 71.333 -6.83301 106 -8.5s67 -2.5 97 -2.5c69.333 0 120.666 9.66699 153.999 29s50 54.666 50 105.999v20c0 20 -2.5 37.667 -7.5 53s-13.833 28.5 -26.5 39.5s-30 19.333 -52 25s-49.667 8.5 -83 8.5h-166c-10.667 0 -16 5.33301 -16 16v92
c0 10.667 5.33301 16 16 16h163c34 0 62.167 2.33301 84.5 7s40 11.334 53 20.001s22 19.167 27 31.5s7.5 26.166 7.5 41.499v11c0 22.667 -4.5 41.334 -13.5 56.001s-22.333 26.167 -40 34.5s-39.167 14.166 -64.5 17.499s-54 5 -86 5c-34 0 -67.833 -0.833008 -101.5 -2.5
s-66.167 -4.16699 -97.5 -7.5c-10.667 -2 -16.334 2.66699 -17.001 14l-7 105c-0.666992 11.333 4.33301 17.333 15 18c30 4 63.333 7.66699 100 11s75.334 5 116.001 5c55.333 0 104.5 -3.83301 147.5 -11.5s79.333 -20.167 109 -37.5s52.334 -40.166 68.001 -68.499
s23.5 -63.166 23.5 -104.499v-16c0 -46 -9.5 -85.5 -28.5 -118.5s-50.5 -56.167 -94.5 -69.5c22 -8.66699 40.667 -20.334 56 -35.001s28 -31.5 38 -50.5s17.333 -39.833 22 -62.5s7 -46.334 7 -71.001v-20c0 -49.333 -7.66699 -90 -23 -122s-37.666 -57.5 -66.999 -76.5
s-65.166 -32.333 -107.499 -40s-90.833 -11.5 -145.5 -11.5z" />
    <glyph glyph-name="questiondown" unicode="&#xbf;" horiz-adv-x="842" 
d="M451 628c0 10.667 5.33203 15.998 15.999 15.998h137c10 0 15.333 -5 16 -15c0.666992 -6.66699 1.33398 -14.834 2.00098 -24.501l2 -29.5c0.666992 -10 1.16699 -19.667 1.5 -29s0.5 -17 0.5 -23c0 -32 -1.33301 -60.167 -4 -84.5s-8.83398 -48.166 -18.501 -71.499
s-23.834 -47.166 -42.501 -71.499s-44 -52.5 -76 -84.5l-67 -65c-26.667 -26 -49.667 -49.833 -69 -71.5s-35.333 -42 -48 -61s-22 -37.667 -28 -56s-9 -37.166 -9 -56.499v-15c0 -50 20.5 -85.667 61.5 -107s102.833 -32 185.5 -32c36.667 0 73.834 1.5 111.501 4.5
s79.5 8.16699 125.5 15.5c6 0.666992 10.333 0 13 -2s4.66699 -6 6 -12l23 -132c2 -10.667 -2.33301 -17.334 -13 -20.001c-42 -9.33301 -89 -16.5 -141 -21.5s-103 -7.5 -153 -7.5c-62.667 0 -119.5 4.5 -170.5 13.5s-94.667 24.333 -131 46s-64.333 50.334 -84 86.001
s-29.5 80.167 -29.5 133.5v15c0 30 3.33301 58.333 10 85s17.5 53.5 32.5 80.5s34.667 55 59 84s54.166 61.5 89.499 97.5l75 78c28 28.667 49.833 52.834 65.5 72.501s27.334 38.5 35.001 56.5s12.334 37.667 14.001 59s2.5 48.666 2.5 81.999v67zM603.999 1071
c10.667 0 16 -5.33301 16 -16v-228c0 -11.333 -5.33301 -17.333 -16 -18l-147 -24c-6 -0.666992 -10.167 0 -12.5 2s-3.5 6 -3.5 12v256c0 10.667 5.33301 16 16 16h147z" />
    <glyph glyph-name="Agrave" unicode="&#xc0;" horiz-adv-x="1313" 
d="M37 0c-10.667 0 -14.333 5 -11 15l500 1445c3.33301 10 10.333 15 21 15h218c10.667 0 17.667 -5 21 -15l502 -1445c2.66699 -10 -1 -15 -11 -15h-166c-10.667 0 -17.667 5 -21 15l-117 345h-636l-116 -345c-3.33301 -10 -10.333 -15 -21 -15h-163zM655.001 1299
l-260 -767h520zM663.001 1604c-6 0 -10.999 0.833008 -14.999 2.5s-8.33301 4.16699 -13 7.5l-237 195c-8 6.66699 -6.66699 10 4 10h204c10.667 0 19.667 -3.66699 27 -11l188 -193c3.33301 -3.33301 4.66602 -6 3.99902 -8s-3.66699 -3 -9 -3h-153z" />
    <glyph glyph-name="Aacute" unicode="&#xc1;" horiz-adv-x="1313" 
d="M37 0c-10.667 0 -14.333 5 -11 15l500 1445c3.33301 10 10.333 15 21 15h218c10.667 0 17.667 -5 21 -15l502 -1445c2.66699 -10 -1 -15 -11 -15h-166c-10.667 0 -17.667 5 -21 15l-117 345h-636l-116 -345c-3.33301 -10 -10.333 -15 -21 -15h-163zM655.001 1299
l-260 -767h520zM504.001 1604c-5.33301 0 -8.33203 1 -8.99902 3s0.666016 4.66699 3.99902 8l188 193c7.33301 7.33301 16.333 11 27 11h204c10.667 0 12 -3.33301 4 -10l-237 -195c-4.66699 -3.33301 -9 -5.83301 -13 -7.5s-9 -2.5 -15 -2.5h-153z" />
    <glyph glyph-name="Acircumflex" unicode="&#xc2;" horiz-adv-x="1313" 
d="M37 0c-10.667 0 -14.333 5 -11 15l500 1445c3.33301 10 10.333 15 21 15h218c10.667 0 17.667 -5 21 -15l502 -1445c2.66699 -10 -1 -15 -11 -15h-166c-10.667 0 -17.667 5 -21 15l-117 345h-636l-116 -345c-3.33301 -10 -10.333 -15 -21 -15h-163zM655.001 1299
l-260 -767h520zM561.001 1808c8 7.33301 17.333 11 28 11h136c10.667 0 20 -3.66699 28 -11l207 -193c7.33301 -7.33301 6 -11 -4 -11h-165c-10.667 0 -19.667 4 -27 12l-97 103h-20l-97 -103c-7.33301 -8 -16.333 -12 -27 -12h-165c-10 0 -11.333 3.66699 -4 11z" />
    <glyph glyph-name="Atilde" unicode="&#xc3;" horiz-adv-x="1313" 
d="M37 0c-10.667 0 -14.333 5 -11 15l500 1445c3.33301 10 10.333 15 21 15h218c10.667 0 17.667 -5 21 -15l502 -1445c2.66699 -10 -1 -15 -11 -15h-166c-10.667 0 -17.667 5 -21 15l-117 345h-636l-116 -345c-3.33301 -10 -10.333 -15 -21 -15h-163zM655.001 1299
l-260 -767h520zM332.001 1602c-10.667 0 -15.999 5.33008 -15.999 15.9971v34c0 46.667 5.5 83.834 16.5 111.501s25 48.834 42 63.501s35.833 24.334 56.5 29.001s41 7 61 7c30 0 57.167 -4.66699 81.5 -14s50.5 -24.333 78.5 -45l40 -29
c24 -17.333 44.167 -30.333 60.5 -39s32.5 -13 48.5 -13c10.667 0 20 1.16699 28 3.5s15 7.5 21 15.5s10.5 19.667 13.5 35s4.83301 36 5.5 62c0 10.667 5.33301 16 16 16h96c10.667 0 16 -5.33301 16 -16v-34c0 -46 -5.5 -83 -16.5 -111s-25 -49.5 -42 -64.5
s-35.833 -24.833 -56.5 -29.5s-41 -7 -61 -7c-30 0 -57.167 4.66699 -81.5 14s-50.5 24.333 -78.5 45l-41 30c-22.667 16.667 -42.334 29.5 -59.001 38.5s-33 13.5 -49 13.5c-10 0 -19.167 -1.16699 -27.5 -3.5s-15.333 -7.5 -21 -15.5s-10 -19.667 -13 -35
s-4.83301 -36 -5.5 -62c0 -10.667 -5.33301 -16 -16 -16h-97z" />
    <glyph glyph-name="Adieresis" unicode="&#xc4;" horiz-adv-x="1313" 
d="M37 0c-10.667 0 -14.333 5 -11 15l500 1445c3.33301 10 10.333 15 21 15h218c10.667 0 17.667 -5 21 -15l502 -1445c2.66699 -10 -1 -15 -11 -15h-166c-10.667 0 -17.667 5 -21 15l-117 345h-636l-116 -345c-3.33301 -10 -10.333 -15 -21 -15h-163zM655.001 1299
l-260 -767h520zM417.001 1604c-10.667 0 -16 5.33301 -16 16v199c0 10.667 5.33301 17 16 19l142 23c10.667 2 16 -2.33301 16 -13v-228c0 -10.667 -5.33301 -16 -16 -16h-142zM755.001 1604c-10.667 0 -16 5.33301 -16 16v199c0 10.667 5.33301 17 16 19l142 23
c10.667 2 16 -2.33301 16 -13v-228c0 -10.667 -5.33301 -16 -16 -16h-142z" />
    <glyph glyph-name="Aring" unicode="&#xc5;" horiz-adv-x="1305" 
d="M33 0c-10.667 0 -14.333 4.99902 -11 14.999l491 1420c-20.667 16 -36 35.333 -46 58s-15 47.334 -15 74.001v18c0 24 4.16699 46.5 12.5 67.5s20.833 39.333 37.5 55s37.667 28.167 63 37.5s55 14 89 14s63.5 -4.66699 88.5 -14s46 -21.833 63 -37.5s29.667 -34 38 -55
s12.5 -43.5 12.5 -67.5v-18c0 -27.333 -5.5 -52.5 -16.5 -75.5s-27.167 -42.5 -48.5 -58.5l493 -1418c2.66699 -10 -1 -15 -11 -15h-166c-10.667 0 -17.667 5 -21 15l-117 345h-636l-116 -345c-3.33301 -10 -10.333 -15 -21 -15h-163zM651.001 1299l-260 -767h520z
M658.001 1657c-29.333 0 -51.499 -7.33301 -66.499 -22s-22.5 -31 -22.5 -49v-19c0 -18.667 7.5 -35 22.5 -49s37.167 -21 66.5 -21s51.666 7.16699 66.999 21.5s23 30.833 23 49.5v18c0 18 -7.5 34.333 -22.5 49s-37.5 22 -67.5 22z" />
    <glyph glyph-name="AE" unicode="&#xc6;" horiz-adv-x="1746" 
d="M879 0c-10.667 0 -16 5.33301 -16 16v354h-508l-165 -355c-2.66699 -6 -5.66699 -10 -9 -12s-8 -3 -14 -3h-165c-11.333 0 -14.333 4.66699 -9 14l676 1447c2.66699 5.33301 5.66699 9 9 11s8 3 14 3h934c10.667 0 16 -5.33301 16 -16v-144
c0 -10.667 -5.33301 -16 -16 -16h-584v-427h418c10.667 0 16 -5.33301 16 -16v-143c0 -10.667 -5.33301 -16 -16 -16h-418v-522h584c10.667 0 16 -5.33301 16 -16v-143c0 -10.667 -5.33301 -16 -16 -16h-747zM788 1299l-355 -762h430v762h-75z" />
    <glyph glyph-name="Ccedilla" unicode="&#xc7;" horiz-adv-x="1181" 
d="M743 -24c-97.333 0 -184.005 11.333 -260.005 34s-140.333 60.834 -193 114.501s-92.834 124.667 -120.501 213s-41.5 198.5 -41.5 330.5v140c0 131.333 13.833 241.166 41.5 329.499s67.834 159.333 120.501 213s117 91.834 193 114.501s162.667 34 260 34
c64.667 0 126.5 -3.33301 185.5 -10s109.167 -15.667 150.5 -27c10 -3.33301 14 -10 12 -20l-22 -130c-2 -10.667 -8.33301 -15 -19 -13c-46.667 9.33301 -96.167 16 -148.5 20s-103.166 6 -152.499 6c-70 0 -132.167 -8.16699 -186.5 -24.5s-100.166 -44 -137.499 -83
s-65.666 -91 -84.999 -156s-29 -146.167 -29 -243.5v-160c0 -98 9.66699 -179.667 29 -245s47.5 -117.5 84.5 -156.5s82.833 -66.5 137.5 -82.5s117 -24 187 -24c60 0 115.833 2 167.5 6s99.834 9.66699 144.501 17c11.333 2 17.333 -2.33301 18 -13l21 -132
c0.666992 -10.667 -3.66602 -17.334 -12.999 -20.001c-42 -10 -93.333 -17.833 -154 -23.5s-124 -8.5 -190 -8.5zM520.995 -389c-10.667 0 -13.333 4.66699 -8 14l146 259c5.33301 9.33301 13.333 14 24 14h123c11.333 0 14.333 -4.66699 9 -14l-133 -259
c-2.66699 -5.33301 -5.66699 -9 -9 -11s-8 -3 -14 -3h-138z" />
    <glyph glyph-name="Egrave" unicode="&#xc8;" horiz-adv-x="1191" 
d="M204 0c-10.667 0 -16 5.33301 -16 16v1443c0 10.667 5.33301 16 16 16h854c10.667 0 16 -5.33301 16 -16v-144c0 -10.667 -5.33301 -16 -16 -16h-690v-427h581c10.667 0 16 -5.33301 16 -16v-143c0 -10.667 -5.33301 -16 -16 -16h-581v-522h690
c10.667 0 16 -5.33301 16 -16v-143c0 -10.667 -5.33301 -16 -16 -16h-854zM624 1604c-6 0 -10.999 0.833008 -14.999 2.5s-8.33301 4.16699 -13 7.5l-237 195c-8 6.66699 -6.66699 10 4 10h204c10.667 0 19.667 -3.66699 27 -11l188 -193
c3.33301 -3.33301 4.66602 -6 3.99902 -8s-3.66699 -3 -9 -3h-153z" />
    <glyph glyph-name="Eacute" unicode="&#xc9;" horiz-adv-x="1191" 
d="M204 0c-10.667 0 -16 5.33301 -16 16v1443c0 10.667 5.33301 16 16 16h854c10.667 0 16 -5.33301 16 -16v-144c0 -10.667 -5.33301 -16 -16 -16h-690v-427h581c10.667 0 16 -5.33301 16 -16v-143c0 -10.667 -5.33301 -16 -16 -16h-581v-522h690
c10.667 0 16 -5.33301 16 -16v-143c0 -10.667 -5.33301 -16 -16 -16h-854zM484 1604c-5.33301 0 -8.33203 1 -8.99902 3s0.666016 4.66699 3.99902 8l188 193c7.33301 7.33301 16.333 11 27 11h204c10.667 0 12 -3.33301 4 -10l-237 -195
c-4.66699 -3.33301 -9 -5.83301 -13 -7.5s-9 -2.5 -15 -2.5h-153z" />
    <glyph glyph-name="Ecircumflex" unicode="&#xca;" horiz-adv-x="1191" 
d="M204 0c-10.667 0 -16 5.33301 -16 16v1443c0 10.667 5.33301 16 16 16h854c10.667 0 16 -5.33301 16 -16v-144c0 -10.667 -5.33301 -16 -16 -16h-690v-427h581c10.667 0 16 -5.33301 16 -16v-143c0 -10.667 -5.33301 -16 -16 -16h-581v-522h690
c10.667 0 16 -5.33301 16 -16v-143c0 -10.667 -5.33301 -16 -16 -16h-854zM523 1808c8 7.33301 17.333 11 28 11h136c10.667 0 20 -3.66699 28 -11l207 -193c7.33301 -7.33301 6 -11 -4 -11h-165c-10.667 0 -19.667 4 -27 12l-97 103h-20l-97 -103
c-7.33301 -8 -16.333 -12 -27 -12h-165c-10 0 -11.333 3.66699 -4 11z" />
    <glyph glyph-name="Edieresis" unicode="&#xcb;" horiz-adv-x="1191" 
d="M204 0c-10.667 0 -16 5.33301 -16 16v1443c0 10.667 5.33301 16 16 16h854c10.667 0 16 -5.33301 16 -16v-144c0 -10.667 -5.33301 -16 -16 -16h-690v-427h581c10.667 0 16 -5.33301 16 -16v-143c0 -10.667 -5.33301 -16 -16 -16h-581v-522h690
c10.667 0 16 -5.33301 16 -16v-143c0 -10.667 -5.33301 -16 -16 -16h-854zM371 1604c-10.667 0 -16 5.33301 -16 16v199c0 10.667 5.33301 17 16 19l142 23c10.667 2 16 -2.33301 16 -13v-228c0 -10.667 -5.33301 -16 -16 -16h-142zM709 1604c-10.667 0 -16 5.33301 -16 16
v199c0 10.667 5.33301 17 16 19l142 23c10.667 2 16 -2.33301 16 -13v-228c0 -10.667 -5.33301 -16 -16 -16h-142z" />
    <glyph glyph-name="Igrave" unicode="&#xcc;" horiz-adv-x="556" 
d="M204 0c-10.667 0 -16 5.33301 -16 16v1443c0 10.667 5.33301 16 16 16h148c10.667 0 16 -5.33301 16 -16v-1443c0 -10.667 -5.33301 -16 -16 -16h-148zM307 1604c-6 0 -10.999 0.833008 -14.999 2.5s-8.33301 4.16699 -13 7.5l-237 195c-8 6.66699 -6.66699 10 4 10h204
c10.667 0 19.667 -3.66699 27 -11l188 -193c3.33301 -3.33301 4.66602 -6 3.99902 -8s-3.66699 -3 -9 -3h-153z" />
    <glyph glyph-name="Iacute" unicode="&#xcd;" horiz-adv-x="556" 
d="M204 0c-10.667 0 -16 5.33301 -16 16v1443c0 10.667 5.33301 16 16 16h148c10.667 0 16 -5.33301 16 -16v-1443c0 -10.667 -5.33301 -16 -16 -16h-148zM73 1604c-5.33301 0 -8.33203 1 -8.99902 3s0.666016 4.66699 3.99902 8l188 193c7.33301 7.33301 16.333 11 27 11
h204c10.667 0 12 -3.33301 4 -10l-237 -195c-4.66699 -3.33301 -9 -5.83301 -13 -7.5s-9 -2.5 -15 -2.5h-153z" />
    <glyph glyph-name="Icircumflex" unicode="&#xce;" horiz-adv-x="555" 
d="M204 0c-10.667 0 -16 5.33301 -16 16v1443c0 10.667 5.33301 16 16 16h148c10.667 0 16 -5.33301 16 -16v-1443c0 -10.667 -5.33301 -16 -16 -16h-148zM183 1808c8 7.33301 17.333 11 28 11h136c10.667 0 20 -3.66699 28 -11l207 -193c7.33301 -7.33301 6 -11 -4 -11
h-165c-10.667 0 -19.667 4 -27 12l-97 103h-20l-97 -103c-7.33301 -8 -16.333 -12 -27 -12h-165c-10 0 -11.333 3.66699 -4 11z" />
    <glyph glyph-name="Idieresis" unicode="&#xcf;" horiz-adv-x="556" 
d="M204 0c-10.667 0 -16 5.33301 -16 16v1443c0 10.667 5.33301 16 16 16h148c10.667 0 16 -5.33301 16 -16v-1443c0 -10.667 -5.33301 -16 -16 -16h-148zM40 1604c-10.667 0 -16 5.33301 -16 16v199c0 10.667 5.33301 17 16 19l142 23c10.667 2 16 -2.33301 16 -13v-228
c0 -10.667 -5.33301 -16 -16 -16h-142zM378 1604c-10.667 0 -16 5.33301 -16 16v199c0 10.667 5.33301 17 16 19l142 23c10.667 2 16 -2.33301 16 -13v-228c0 -10.667 -5.33301 -16 -16 -16h-142z" />
    <glyph glyph-name="Eth" unicode="&#xd0;" horiz-adv-x="1413" 
d="M564 -16c-24 0 -50.502 0.331055 -79.502 0.998047s-58.833 1.5 -89.5 2.5s-61.667 2.33301 -93 4s-61.333 3.83398 -90 6.50098c-6 1.33301 -10.167 3.16602 -12.5 5.49902s-3.5 6.5 -3.5 12.5v682h-137c-10.667 0 -16 5.33301 -16 16v135c0 10.667 5.33301 16 16 16
h137v594c0 10.667 5.33301 16.334 16 17.001c28 2 58.167 3.66699 90.5 5s64.5 2.5 96.5 3.5s62.333 1.66699 91 2s53 0.5 73 0.5c71.333 0 138.833 -3.16699 202.5 -9.5s122.334 -18.333 176.001 -36s101.834 -42.5 144.501 -74.5s78.834 -73.667 108.501 -125
s52.334 -113.666 68.001 -186.999s23.5 -160 23.5 -260v-113c0 -100 -7.83301 -186.833 -23.5 -260.5s-38.334 -136.334 -68.001 -188.001s-65.667 -93.667 -108 -126s-90.333 -57.666 -144 -75.999s-112.334 -30.833 -176.001 -37.5s-131.167 -10 -202.5 -10zM593.998 1324
c-14.667 0 -31.666 -0.166016 -50.999 -0.499023s-39.166 -0.833008 -59.499 -1.5s-40 -1.5 -59 -2.5s-35.5 -2.16699 -49.5 -3.5v-451h259c10.667 0 16 -5.33301 16 -16v-135c0 -10.667 -5.33301 -16 -16 -16h-259v-541c16 -2 34 -3.5 54 -4.5l61 -3
c20.667 -1 40.834 -1.66699 60.501 -2s37.5 -0.5 53.5 -0.5c55.333 0 106.166 2.83301 152.499 8.5s88.166 15.834 125.499 30.501s70 34.667 98 60s51.333 57.666 70 96.999s32.667 86.5 42 141.5s14 119.5 14 193.5v119c0 73.333 -4.83301 137.333 -14.5 192
s-24 101.5 -43 140.5s-42.833 71.167 -71.5 96.5s-61.834 45.166 -99.501 59.499s-80.167 24.333 -127.5 30s-99.333 8.5 -156 8.5z" />
    <glyph glyph-name="Ntilde" unicode="&#xd1;" horiz-adv-x="1444" 
d="M204 0c-10.667 0 -16 5.33301 -16 16v1443c0 10.667 5.33301 16 16 16h171c10.667 0 18.667 -4.66699 24 -14l613 -1040l45.5 -81.5c11 -20.333 17.167 -30.5 18.5 -30.5l1 1150c0 10.667 5.33301 16 16 16h147c10.667 0 16 -5.33301 16 -16v-1443
c0 -10.667 -5.33301 -16 -16 -16h-170c-10.667 0 -18.667 4.66699 -24 14l-611 1033c-20 34 -35.667 62.167 -47 84.5s-17.333 33.5 -18 33.5l-2 -1149c0 -10.667 -5.33301 -16 -16 -16h-148zM397 1602c-10.667 0 -15.999 5.33008 -15.999 15.9971v34
c0 46.667 5.5 83.834 16.5 111.501s25 48.834 42 63.501s35.833 24.334 56.5 29.001s41 7 61 7c30 0 57.167 -4.66699 81.5 -14s50.5 -24.333 78.5 -45l40 -29c24 -17.333 44.167 -30.333 60.5 -39s32.5 -13 48.5 -13c10.667 0 20 1.16699 28 3.5s15 7.5 21 15.5
s10.5 19.667 13.5 35s4.83301 36 5.5 62c0 10.667 5.33301 16 16 16h96c10.667 0 16 -5.33301 16 -16v-34c0 -46 -5.5 -83 -16.5 -111s-25 -49.5 -42 -64.5s-35.833 -24.833 -56.5 -29.5s-41 -7 -61 -7c-30 0 -57.167 4.66699 -81.5 14s-50.5 24.333 -78.5 45l-41 30
c-22.667 16.667 -42.334 29.5 -59.001 38.5s-33 13.5 -49 13.5c-10 0 -19.167 -1.16699 -27.5 -3.5s-15.333 -7.5 -21 -15.5s-10 -19.667 -13 -35s-4.83301 -36 -5.5 -62c0 -10.667 -5.33301 -16 -16 -16h-97z" />
    <glyph glyph-name="Ograve" unicode="&#xd2;" horiz-adv-x="1430" 
d="M716 -24c-93.333 0 -176.166 11.333 -248.499 34s-133.333 60.834 -183 114.501s-87.5 124.667 -113.5 213s-39 198.5 -39 330.5v140c0 130.667 13 240.334 39 329.001s63.833 159.667 113.5 213s110.667 91.5 183 114.5s155.166 34.5 248.499 34.5
s176.166 -11.333 248.499 -34s133.166 -60.834 182.499 -114.501s86.833 -124.834 112.5 -213.501s38.5 -198.667 38.5 -330v-140c0 -131.333 -12.833 -241.333 -38.5 -330s-63.167 -159.667 -112.5 -213s-110.166 -91.333 -182.499 -114s-155.166 -34 -248.499 -34z
M716 1318c-64.667 0 -122 -7.83496 -172 -23.502s-92.167 -42.667 -126.5 -81s-60.333 -89.666 -78 -153.999s-26.5 -144.833 -26.5 -241.5v-160c0 -97.333 8.83301 -178.166 26.5 -242.499s43.5 -115.666 77.5 -153.999s76 -65.5 126 -81.5s107.667 -24 173 -24
c64.667 0 121.834 8 171.501 24s91.5 43.167 125.5 81.5s59.833 89.833 77.5 154.5s26.5 145.667 26.5 243v158c0 96.667 -8.83301 177.167 -26.5 241.5s-43.5 115.666 -77.5 153.999s-75.833 65.5 -125.5 81.5s-106.834 24 -171.501 24zM706 1604
c-6 0 -10.999 0.833008 -14.999 2.5s-8.33301 4.16699 -13 7.5l-237 195c-8 6.66699 -6.66699 10 4 10h204c10.667 0 19.667 -3.66699 27 -11l188 -193c3.33301 -3.33301 4.66602 -6 3.99902 -8s-3.66699 -3 -9 -3h-153z" />
    <glyph glyph-name="Oacute" unicode="&#xd3;" horiz-adv-x="1430" 
d="M716 -24c-93.333 0 -176.166 11.333 -248.499 34s-133.333 60.834 -183 114.501s-87.5 124.667 -113.5 213s-39 198.5 -39 330.5v140c0 130.667 13 240.334 39 329.001s63.833 159.667 113.5 213s110.667 91.5 183 114.5s155.166 34.5 248.499 34.5
s176.166 -11.333 248.499 -34s133.166 -60.834 182.499 -114.501s86.833 -124.834 112.5 -213.501s38.5 -198.667 38.5 -330v-140c0 -131.333 -12.833 -241.333 -38.5 -330s-63.167 -159.667 -112.5 -213s-110.166 -91.333 -182.499 -114s-155.166 -34 -248.499 -34z
M716 1318c-64.667 0 -122 -7.83496 -172 -23.502s-92.167 -42.667 -126.5 -81s-60.333 -89.666 -78 -153.999s-26.5 -144.833 -26.5 -241.5v-160c0 -97.333 8.83301 -178.166 26.5 -242.499s43.5 -115.666 77.5 -153.999s76 -65.5 126 -81.5s107.667 -24 173 -24
c64.667 0 121.834 8 171.501 24s91.5 43.167 125.5 81.5s59.833 89.833 77.5 154.5s26.5 145.667 26.5 243v158c0 96.667 -8.83301 177.167 -26.5 241.5s-43.5 115.666 -77.5 153.999s-75.833 65.5 -125.5 81.5s-106.834 24 -171.501 24zM549 1604
c-5.33301 0 -8.33203 1 -8.99902 3s0.666016 4.66699 3.99902 8l188 193c7.33301 7.33301 16.333 11 27 11h204c10.667 0 12 -3.33301 4 -10l-237 -195c-4.66699 -3.33301 -9 -5.83301 -13 -7.5s-9 -2.5 -15 -2.5h-153z" />
    <glyph glyph-name="Ocircumflex" unicode="&#xd4;" horiz-adv-x="1430" 
d="M716 -24c-93.333 0 -176.166 11.333 -248.499 34s-133.333 60.834 -183 114.501s-87.5 124.667 -113.5 213s-39 198.5 -39 330.5v140c0 130.667 13 240.334 39 329.001s63.833 159.667 113.5 213s110.667 91.5 183 114.5s155.166 34.5 248.499 34.5
s176.166 -11.333 248.499 -34s133.166 -60.834 182.499 -114.501s86.833 -124.834 112.5 -213.501s38.5 -198.667 38.5 -330v-140c0 -131.333 -12.833 -241.333 -38.5 -330s-63.167 -159.667 -112.5 -213s-110.166 -91.333 -182.499 -114s-155.166 -34 -248.499 -34z
M716 1318c-64.667 0 -122 -7.83496 -172 -23.502s-92.167 -42.667 -126.5 -81s-60.333 -89.666 -78 -153.999s-26.5 -144.833 -26.5 -241.5v-160c0 -97.333 8.83301 -178.166 26.5 -242.499s43.5 -115.666 77.5 -153.999s76 -65.5 126 -81.5s107.667 -24 173 -24
c64.667 0 121.834 8 171.501 24s91.5 43.167 125.5 81.5s59.833 89.833 77.5 154.5s26.5 145.667 26.5 243v158c0 96.667 -8.83301 177.167 -26.5 241.5s-43.5 115.666 -77.5 153.999s-75.833 65.5 -125.5 81.5s-106.834 24 -171.501 24zM618 1808
c8 7.33301 17.333 11 28 11h136c10.667 0 20 -3.66699 28 -11l207 -193c7.33301 -7.33301 6 -11 -4 -11h-165c-10.667 0 -19.667 4 -27 12l-97 103h-20l-97 -103c-7.33301 -8 -16.333 -12 -27 -12h-165c-10 0 -11.333 3.66699 -4 11z" />
    <glyph glyph-name="Otilde" unicode="&#xd5;" horiz-adv-x="1430" 
d="M716 -24c-93.333 0 -176.166 11.333 -248.499 34s-133.333 60.834 -183 114.501s-87.5 124.667 -113.5 213s-39 198.5 -39 330.5v140c0 130.667 13 240.334 39 329.001s63.833 159.667 113.5 213s110.667 91.5 183 114.5s155.166 34.5 248.499 34.5
s176.166 -11.333 248.499 -34s133.166 -60.834 182.499 -114.501s86.833 -124.834 112.5 -213.501s38.5 -198.667 38.5 -330v-140c0 -131.333 -12.833 -241.333 -38.5 -330s-63.167 -159.667 -112.5 -213s-110.166 -91.333 -182.499 -114s-155.166 -34 -248.499 -34z
M716 1318c-64.667 0 -122 -7.83496 -172 -23.502s-92.167 -42.667 -126.5 -81s-60.333 -89.666 -78 -153.999s-26.5 -144.833 -26.5 -241.5v-160c0 -97.333 8.83301 -178.166 26.5 -242.499s43.5 -115.666 77.5 -153.999s76 -65.5 126 -81.5s107.667 -24 173 -24
c64.667 0 121.834 8 171.501 24s91.5 43.167 125.5 81.5s59.833 89.833 77.5 154.5s26.5 145.667 26.5 243v158c0 96.667 -8.83301 177.167 -26.5 241.5s-43.5 115.666 -77.5 153.999s-75.833 65.5 -125.5 81.5s-106.834 24 -171.501 24zM390 1602
c-10.667 0 -15.999 5.33008 -15.999 15.9971v34c0 46.667 5.5 83.834 16.5 111.501s25 48.834 42 63.501s35.833 24.334 56.5 29.001s41 7 61 7c30 0 57.167 -4.66699 81.5 -14s50.5 -24.333 78.5 -45l40 -29c24 -17.333 44.167 -30.333 60.5 -39s32.5 -13 48.5 -13
c10.667 0 20 1.16699 28 3.5s15 7.5 21 15.5s10.5 19.667 13.5 35s4.83301 36 5.5 62c0 10.667 5.33301 16 16 16h96c10.667 0 16 -5.33301 16 -16v-34c0 -46 -5.5 -83 -16.5 -111s-25 -49.5 -42 -64.5s-35.833 -24.833 -56.5 -29.5s-41 -7 -61 -7
c-30 0 -57.167 4.66699 -81.5 14s-50.5 24.333 -78.5 45l-41 30c-22.667 16.667 -42.334 29.5 -59.001 38.5s-33 13.5 -49 13.5c-10 0 -19.167 -1.16699 -27.5 -3.5s-15.333 -7.5 -21 -15.5s-10 -19.667 -13 -35s-4.83301 -36 -5.5 -62c0 -10.667 -5.33301 -16 -16 -16h-97z
" />
    <glyph glyph-name="Odieresis" unicode="&#xd6;" horiz-adv-x="1430" 
d="M716 -24c-93.333 0 -176.166 11.333 -248.499 34s-133.333 60.834 -183 114.501s-87.5 124.667 -113.5 213s-39 198.5 -39 330.5v140c0 130.667 13 240.334 39 329.001s63.833 159.667 113.5 213s110.667 91.5 183 114.5s155.166 34.5 248.499 34.5
s176.166 -11.333 248.499 -34s133.166 -60.834 182.499 -114.501s86.833 -124.834 112.5 -213.501s38.5 -198.667 38.5 -330v-140c0 -131.333 -12.833 -241.333 -38.5 -330s-63.167 -159.667 -112.5 -213s-110.166 -91.333 -182.499 -114s-155.166 -34 -248.499 -34z
M716 1318c-64.667 0 -122 -7.83496 -172 -23.502s-92.167 -42.667 -126.5 -81s-60.333 -89.666 -78 -153.999s-26.5 -144.833 -26.5 -241.5v-160c0 -97.333 8.83301 -178.166 26.5 -242.499s43.5 -115.666 77.5 -153.999s76 -65.5 126 -81.5s107.667 -24 173 -24
c64.667 0 121.834 8 171.501 24s91.5 43.167 125.5 81.5s59.833 89.833 77.5 154.5s26.5 145.667 26.5 243v158c0 96.667 -8.83301 177.167 -26.5 241.5s-43.5 115.666 -77.5 153.999s-75.833 65.5 -125.5 81.5s-106.834 24 -171.501 24zM474 1604
c-10.667 0 -16 5.33301 -16 16v199c0 10.667 5.33301 17 16 19l142 23c10.667 2 16 -2.33301 16 -13v-228c0 -10.667 -5.33301 -16 -16 -16h-142zM812 1604c-10.667 0 -16 5.33301 -16 16v199c0 10.667 5.33301 17 16 19l142 23c10.667 2 16 -2.33301 16 -13v-228
c0 -10.667 -5.33301 -16 -16 -16h-142z" />
    <glyph glyph-name="multiply" unicode="&#xd7;" horiz-adv-x="995" 
d="M144 1028c-7.33301 7.33301 -7.33301 14.666 0 21.999l97 95c7.33301 7.33301 14.666 7.33301 21.999 0l235 -235l237 237c7.33301 7.33301 14.666 7.33301 21.999 0l96 -96c7.33301 -7.33301 7.33301 -14.666 0 -21.999l-237 -237l236 -236
c7.33301 -7.33301 7.33301 -14.666 0 -21.999l-96 -96c-7.33301 -7.33301 -14.666 -7.33301 -21.999 0l-236 236l-235 -235c-7.33301 -7.33301 -14.666 -7.33301 -21.999 0l-95 97c-7.33301 7.33301 -7.33301 14.666 0 21.999l234 234z" />
    <glyph glyph-name="Oslash" unicode="&#xd8;" horiz-adv-x="1437" 
d="M223 218c-29.333 53.333 -51.333 116.832 -66 190.499s-22 160.167 -22 259.5v140c0 130.667 13 240.334 39 329.001s63.833 159.667 113.5 213s110.667 91.5 183 114.5s155.166 34.5 248.499 34.5c78.667 0 149.5 -8.16699 212.5 -24.5s118.5 -43.166 166.5 -80.499
l50 68c4 5.33301 7.83301 8.83301 11.5 10.5s8.5 2.5 14.5 2.5h185c11.333 0 13.333 -4.33301 6 -13l-152 -205c29.333 -54 51.333 -117.833 66 -191.5s22 -159.834 22 -258.501v-140c0 -131.333 -12.833 -241.333 -38.5 -330s-63.167 -159.667 -112.5 -213
s-110.166 -91.333 -182.499 -114s-155.166 -34 -248.499 -34c-78.667 0 -149.834 8 -213.501 24s-119.5 42.667 -167.5 80l-50 -67c-6 -8.66699 -14.333 -13 -25 -13h-186c-11.333 -0 -13.333 4.33301 -6 13zM1120 820.999c0 55.333 -2.66895 104.833 -8.00195 148.5
s-13.666 83.167 -24.999 118.5l-640 -861c33.333 -28 72.5 -47.5 117.5 -58.5s96.5 -16.5 154.5 -16.5c64.667 0 121.834 8 171.501 24s91.5 43.333 125.5 82s59.833 90.667 77.5 156s26.5 147 26.5 245v162zM718.998 1322c-64.667 0 -121.999 -7.99902 -171.999 -23.999
s-92.167 -43.167 -126.5 -81.5s-60.333 -89.833 -78 -154.5s-26.5 -146 -26.5 -244v-165c0 -55.333 2.66699 -104.833 8 -148.5s13.333 -83.167 24 -118.5l640 861c-32.667 27.333 -71.334 46.666 -116.001 57.999s-95.667 17 -153 17z" />
    <glyph glyph-name="Ugrave" unicode="&#xd9;" horiz-adv-x="1449" 
d="M722 -24c-87.333 0 -165 9.33398 -233 28.001s-125.333 48.667 -172 90s-82.167 95 -106.5 161s-36.5 146.333 -36.5 241v963c0 10.667 5.33301 16 16 16h147c10.667 0 16 -5.33301 16 -16v-920c0 -66.667 6.16699 -124.334 18.5 -173.001s32.833 -89 61.5 -121
s66.5 -55.833 113.5 -71.5s105.5 -23.5 175.5 -23.5c70.667 0 130 7.66699 178 23s86.667 39 116 71s50.333 72.333 63 121s19 106.667 19 174v920c0 10.667 5.33301 16 16 16h146c10.667 0 16 -5.33301 16 -16v-963c0 -94.667 -12.5 -175 -37.5 -241
s-61.167 -119.667 -108.5 -161s-105.333 -71.333 -174 -90s-146.667 -28 -234 -28zM719 1604c-6 0 -10.999 0.833008 -14.999 2.5s-8.33301 4.16699 -13 7.5l-237 195c-8 6.66699 -6.66699 10 4 10h204c10.667 0 19.667 -3.66699 27 -11l188 -193
c3.33301 -3.33301 4.66602 -6 3.99902 -8s-3.66699 -3 -9 -3h-153z" />
    <glyph glyph-name="Uacute" unicode="&#xda;" horiz-adv-x="1449" 
d="M722 -24c-87.333 0 -165 9.33398 -233 28.001s-125.333 48.667 -172 90s-82.167 95 -106.5 161s-36.5 146.333 -36.5 241v963c0 10.667 5.33301 16 16 16h147c10.667 0 16 -5.33301 16 -16v-920c0 -66.667 6.16699 -124.334 18.5 -173.001s32.833 -89 61.5 -121
s66.5 -55.833 113.5 -71.5s105.5 -23.5 175.5 -23.5c70.667 0 130 7.66699 178 23s86.667 39 116 71s50.333 72.333 63 121s19 106.667 19 174v920c0 10.667 5.33301 16 16 16h146c10.667 0 16 -5.33301 16 -16v-963c0 -94.667 -12.5 -175 -37.5 -241
s-61.167 -119.667 -108.5 -161s-105.333 -71.333 -174 -90s-146.667 -28 -234 -28zM580 1604c-5.33301 0 -8.33203 1 -8.99902 3s0.666016 4.66699 3.99902 8l188 193c7.33301 7.33301 16.333 11 27 11h204c10.667 0 12 -3.33301 4 -10l-237 -195
c-4.66699 -3.33301 -9 -5.83301 -13 -7.5s-9 -2.5 -15 -2.5h-153z" />
    <glyph glyph-name="Ucircumflex" unicode="&#xdb;" horiz-adv-x="1449" 
d="M722 -24c-87.333 0 -165 9.33398 -233 28.001s-125.333 48.667 -172 90s-82.167 95 -106.5 161s-36.5 146.333 -36.5 241v963c0 10.667 5.33301 16 16 16h147c10.667 0 16 -5.33301 16 -16v-920c0 -66.667 6.16699 -124.334 18.5 -173.001s32.833 -89 61.5 -121
s66.5 -55.833 113.5 -71.5s105.5 -23.5 175.5 -23.5c70.667 0 130 7.66699 178 23s86.667 39 116 71s50.333 72.333 63 121s19 106.667 19 174v920c0 10.667 5.33301 16 16 16h146c10.667 0 16 -5.33301 16 -16v-963c0 -94.667 -12.5 -175 -37.5 -241
s-61.167 -119.667 -108.5 -161s-105.333 -71.333 -174 -90s-146.667 -28 -234 -28zM627 1808c8 7.33301 17.333 11 28 11h136c10.667 0 20 -3.66699 28 -11l207 -193c7.33301 -7.33301 6 -11 -4 -11h-165c-10.667 0 -19.667 4 -27 12l-97 103h-20l-97 -103
c-7.33301 -8 -16.333 -12 -27 -12h-165c-10 0 -11.333 3.66699 -4 11z" />
    <glyph glyph-name="Udieresis" unicode="&#xdc;" horiz-adv-x="1449" 
d="M722 -24c-87.333 0 -165 9.33398 -233 28.001s-125.333 48.667 -172 90s-82.167 95 -106.5 161s-36.5 146.333 -36.5 241v963c0 10.667 5.33301 16 16 16h147c10.667 0 16 -5.33301 16 -16v-920c0 -66.667 6.16699 -124.334 18.5 -173.001s32.833 -89 61.5 -121
s66.5 -55.833 113.5 -71.5s105.5 -23.5 175.5 -23.5c70.667 0 130 7.66699 178 23s86.667 39 116 71s50.333 72.333 63 121s19 106.667 19 174v920c0 10.667 5.33301 16 16 16h146c10.667 0 16 -5.33301 16 -16v-963c0 -94.667 -12.5 -175 -37.5 -241
s-61.167 -119.667 -108.5 -161s-105.333 -71.333 -174 -90s-146.667 -28 -234 -28zM483 1604c-10.667 0 -16 5.33301 -16 16v199c0 10.667 5.33301 17 16 19l142 23c10.667 2 16 -2.33301 16 -13v-228c0 -10.667 -5.33301 -16 -16 -16h-142zM821 1604
c-10.667 0 -16 5.33301 -16 16v199c0 10.667 5.33301 17 16 19l142 23c10.667 2 16 -2.33301 16 -13v-228c0 -10.667 -5.33301 -16 -16 -16h-142z" />
    <glyph glyph-name="Yacute" unicode="&#xdd;" horiz-adv-x="1186" 
d="M520 0c-10.667 0 -16 5.33301 -16 16v491l-486 954c-5.33301 9.33301 -2.33301 14 9 14h169c6 0 10.667 -1 14 -3s6.33301 -5.66699 9 -11l375 -749l374 749c2.66699 5.33301 5.66699 9 9 11s8 3 14 3h168c11.333 0 14.333 -4.66699 9 -14l-484 -954v-491
c0 -10.667 -5.33301 -16 -16 -16h-148zM455 1604c-5.33301 0 -8.33203 1 -8.99902 3s0.666016 4.66699 3.99902 8l188 193c7.33301 7.33301 16.333 11 27 11h204c10.667 0 12 -3.33301 4 -10l-237 -195c-4.66699 -3.33301 -9 -5.83301 -13 -7.5s-9 -2.5 -15 -2.5h-153z" />
    <glyph glyph-name="Thorn" unicode="&#xde;" horiz-adv-x="1300" 
d="M204 0c-10.667 0 -16 5.33203 -16 15.999v1443c0 10.667 5.33301 16 16 16h148c10.667 0 16 -5.33301 16 -16v-190c37.333 1.33301 72.833 2.33301 106.5 3s62.5 1 86.5 1c120 0 221.167 -6 303.5 -18s148.833 -34.167 199.5 -66.5s87.167 -77 109.5 -134
s33.5 -130.5 33.5 -220.5v-86c0 -90.667 -11.167 -164.5 -33.5 -221.5s-58.833 -101.5 -109.5 -133.5s-117.167 -53.833 -199.5 -65.5s-183.5 -17.5 -303.5 -17.5c-13.333 0 -29.833 0.166992 -49.5 0.5l-58.5 1c-19.333 0.333008 -36.833 0.833008 -52.5 1.5
s-26.5 1.33398 -32.5 2.00098v-299c0 -10.667 -5.33301 -16 -16 -16h-148zM563 1110c-12 0 -26.833 -0.166992 -44.5 -0.5s-35.834 -1 -54.501 -2l-54 -3l-42 -2.5v-622c10.667 -1.33301 24.667 -2.33301 42 -3l54 -2c18.667 -0.666992 36.834 -1.16699 54.501 -1.5
s32.5 -0.5 44.5 -0.5c88.667 0 162.667 3.66699 222 11s106.833 21.5 142.5 42.5s61 50.5 76 88.5s22.5 87.333 22.5 148v56c0 60.667 -7.5 110 -22.5 148s-40.333 67.5 -76 88.5s-83.167 35.333 -142.5 43s-133.333 11.5 -222 11.5z" />
    <glyph glyph-name="germandbls" unicode="&#xdf;" horiz-adv-x="1228" 
d="M174 0c-10.667 0 -15.9971 5.33691 -15.9971 16.0039v1064c0 97.333 11.167 178.166 33.5 242.499s54 115.666 95 153.999s90.167 65.333 147.5 81s121 23.5 191 23.5c148.667 0 260.667 -33.167 336 -99.5s113 -162.5 113 -288.5v-17
c0 -37.333 -3.83301 -73.5 -11.5 -108.5s-20 -67.5 -37 -97.5s-39.333 -56.333 -67 -79s-61.5 -39.667 -101.5 -51c48 -12 88.5 -31.167 121.5 -57.5s59.667 -57.166 80 -92.499s35 -73.833 44 -115.5s13.5 -83.834 13.5 -126.501v-31c0 -82 -8.83301 -151 -26.5 -207
s-44.334 -101.333 -80.001 -136s-80.167 -59.667 -133.5 -75s-115.333 -23 -186 -23c-70 0 -132 7.66699 -186 23c-10.667 2.66699 -15 9.33398 -13 20.001l15 111c0.666992 10.667 6.66699 15 18 13c21.333 -4 42.5 -7.33301 63.5 -10s45.5 -4 73.5 -4
c46 0 86.167 4.83301 120.5 14.5s62.833 26.167 85.5 49.5s39.5 54.166 50.5 92.499s16.5 86.166 16.5 143.499v38c0 42 -4.83301 80.667 -14.5 116s-25.334 66 -47.001 92s-50.167 46.5 -85.5 61.5s-78.666 23.5 -129.999 25.5l-102 2c-10.667 0 -16 5.33301 -16 16v118
c0 10.667 5.33301 16 16 16l100 3c50 2 90.667 10.667 122 26s55.833 34.5 73.5 57.5s29.667 48.667 36 77s9.5 56.833 9.5 85.5v14c0 82.667 -22.5 143.5 -67.5 182.5s-112.167 58.5 -201.5 58.5c-54 0 -99.833 -6.33301 -137.5 -19s-68.334 -33.334 -92.001 -62.001
s-40.834 -66 -51.501 -112s-16 -102.333 -16 -169v-1040c0 -10.667 -5.33301 -16 -16 -16h-140z" />
    <glyph glyph-name="agrave" unicode="&#xe0;" horiz-adv-x="1107" 
d="M562 118c40 0 79.3311 1.16797 117.998 3.50098s74.667 6.16602 108 11.499v365h-141c-84 0 -152 -2.5 -204 -7.5s-92.5 -14.167 -121.5 -27.5s-48.667 -32 -59 -56s-15.5 -55.333 -15.5 -94c0 -43.333 7.66699 -78 23 -104s36.833 -45.667 64.5 -59
s60.834 -22 99.501 -26s81.334 -6 128.001 -6zM520.998 943.001c-54 0 -107 -1.99609 -159 -5.99609s-103.333 -9.66699 -154 -17c-10.667 -0.666992 -16 4 -16 14v114c0 10.667 5.33301 17 16 19c26.667 4.66699 54.667 8.66699 84 12s58.666 6.33301 87.999 9
s57.5 4.66699 84.5 6s51.167 2 72.5 2c94 0 168.833 -7.5 224.5 -22.5s98 -38.833 127 -71.5s47.667 -75.167 56 -127.5s12.5 -115.5 12.5 -189.5v-661c0 -11.333 -5.33301 -17.333 -16 -18c-31.333 -4.66699 -64.5 -8.83398 -99.5 -12.501
s-69.167 -6.83398 -102.5 -9.50098s-65.166 -4.66699 -95.499 -6s-56.833 -2 -79.5 -2c-81.333 0 -152 5 -212 15s-109.5 27.667 -148.5 53s-68 59.333 -87 102s-28.5 97 -28.5 163c0 43.333 3.33301 81.666 10 114.999s18.167 62.5 34.5 87.5s38.333 45.833 66 62.5
s62.5 30.167 104.5 40.5s92 17.666 150 21.999s125.667 6.5 203 6.5h132v70c0 45.333 -3.5 82.833 -10.5 112.5s-20.167 53.167 -39.5 70.5s-46.333 29.5 -81 36.5s-80 10.5 -136 10.5zM518.998 1264c-11.333 0 -20.001 4 -26.001 12l-202 240c-6.66699 8 -4.66699 12 6 12
h192c10.667 0 19 -4.33301 25 -13l160 -238c6.66699 -8.66699 4.33398 -13 -6.99902 -13h-148z" />
    <glyph glyph-name="aacute" unicode="&#xe1;" horiz-adv-x="1107" 
d="M562 118c40 0 79.3311 1.16797 117.998 3.50098s74.667 6.16602 108 11.499v365h-141c-84 0 -152 -2.5 -204 -7.5s-92.5 -14.167 -121.5 -27.5s-48.667 -32 -59 -56s-15.5 -55.333 -15.5 -94c0 -43.333 7.66699 -78 23 -104s36.833 -45.667 64.5 -59
s60.834 -22 99.501 -26s81.334 -6 128.001 -6zM520.998 943.001c-54 0 -107 -1.99609 -159 -5.99609s-103.333 -9.66699 -154 -17c-10.667 -0.666992 -16 4 -16 14v114c0 10.667 5.33301 17 16 19c26.667 4.66699 54.667 8.66699 84 12s58.666 6.33301 87.999 9
s57.5 4.66699 84.5 6s51.167 2 72.5 2c94 0 168.833 -7.5 224.5 -22.5s98 -38.833 127 -71.5s47.667 -75.167 56 -127.5s12.5 -115.5 12.5 -189.5v-661c0 -11.333 -5.33301 -17.333 -16 -18c-31.333 -4.66699 -64.5 -8.83398 -99.5 -12.501
s-69.167 -6.83398 -102.5 -9.50098s-65.166 -4.66699 -95.499 -6s-56.833 -2 -79.5 -2c-81.333 0 -152 5 -212 15s-109.5 27.667 -148.5 53s-68 59.333 -87 102s-28.5 97 -28.5 163c0 43.333 3.33301 81.666 10 114.999s18.167 62.5 34.5 87.5s38.333 45.833 66 62.5
s62.5 30.167 104.5 40.5s92 17.666 150 21.999s125.667 6.5 203 6.5h132v70c0 45.333 -3.5 82.833 -10.5 112.5s-20.167 53.167 -39.5 70.5s-46.333 29.5 -81 36.5s-80 10.5 -136 10.5zM419.998 1264c-11.333 0 -13.667 4.33301 -7 13l160 238c6 8.66699 14.333 13 25 13
h192c10.667 0 12.667 -4 6 -12l-202 -240c-6 -8 -14.667 -12 -26 -12h-148z" />
    <glyph glyph-name="acircumflex" unicode="&#xe2;" horiz-adv-x="1107" 
d="M562 118c40 0 79.3311 1.16797 117.998 3.50098s74.667 6.16602 108 11.499v365h-141c-84 0 -152 -2.5 -204 -7.5s-92.5 -14.167 -121.5 -27.5s-48.667 -32 -59 -56s-15.5 -55.333 -15.5 -94c0 -43.333 7.66699 -78 23 -104s36.833 -45.667 64.5 -59
s60.834 -22 99.501 -26s81.334 -6 128.001 -6zM520.998 943.001c-54 0 -107 -1.99609 -159 -5.99609s-103.333 -9.66699 -154 -17c-10.667 -0.666992 -16 4 -16 14v114c0 10.667 5.33301 17 16 19c26.667 4.66699 54.667 8.66699 84 12s58.666 6.33301 87.999 9
s57.5 4.66699 84.5 6s51.167 2 72.5 2c94 0 168.833 -7.5 224.5 -22.5s98 -38.833 127 -71.5s47.667 -75.167 56 -127.5s12.5 -115.5 12.5 -189.5v-661c0 -11.333 -5.33301 -17.333 -16 -18c-31.333 -4.66699 -64.5 -8.83398 -99.5 -12.501
s-69.167 -6.83398 -102.5 -9.50098s-65.166 -4.66699 -95.499 -6s-56.833 -2 -79.5 -2c-81.333 0 -152 5 -212 15s-109.5 27.667 -148.5 53s-68 59.333 -87 102s-28.5 97 -28.5 163c0 43.333 3.33301 81.666 10 114.999s18.167 62.5 34.5 87.5s38.333 45.833 66 62.5
s62.5 30.167 104.5 40.5s92 17.666 150 21.999s125.667 6.5 203 6.5h132v70c0 45.333 -3.5 82.833 -10.5 112.5s-20.167 53.167 -39.5 70.5s-46.333 29.5 -81 36.5s-80 10.5 -136 10.5zM446.998 1516c4 4.66699 7.83301 7.83398 11.5 9.50098s8.5 2.5 14.5 2.5h141
c6 0 10.833 -0.833008 14.5 -2.5s7.5 -4.83398 11.5 -9.50098l198 -243c6.66699 -8 4.66699 -12 -6 -12h-154c-10.667 0 -19 4.33301 -25 13l-100 138h-20l-100 -138c-6 -8.66699 -14.333 -13 -25 -13h-153c-10.667 0 -12.667 4 -6 12z" />
    <glyph glyph-name="atilde" unicode="&#xe3;" horiz-adv-x="1107" 
d="M562 118c40 0 79.3311 1.16797 117.998 3.50098s74.667 6.16602 108 11.499v365h-141c-84 0 -152 -2.5 -204 -7.5s-92.5 -14.167 -121.5 -27.5s-48.667 -32 -59 -56s-15.5 -55.333 -15.5 -94c0 -43.333 7.66699 -78 23 -104s36.833 -45.667 64.5 -59
s60.834 -22 99.501 -26s81.334 -6 128.001 -6zM520.998 943.001c-54 0 -107 -1.99609 -159 -5.99609s-103.333 -9.66699 -154 -17c-10.667 -0.666992 -16 4 -16 14v114c0 10.667 5.33301 17 16 19c26.667 4.66699 54.667 8.66699 84 12s58.666 6.33301 87.999 9
s57.5 4.66699 84.5 6s51.167 2 72.5 2c94 0 168.833 -7.5 224.5 -22.5s98 -38.833 127 -71.5s47.667 -75.167 56 -127.5s12.5 -115.5 12.5 -189.5v-661c0 -11.333 -5.33301 -17.333 -16 -18c-31.333 -4.66699 -64.5 -8.83398 -99.5 -12.501
s-69.167 -6.83398 -102.5 -9.50098s-65.166 -4.66699 -95.499 -6s-56.833 -2 -79.5 -2c-81.333 0 -152 5 -212 15s-109.5 27.667 -148.5 53s-68 59.333 -87 102s-28.5 97 -28.5 163c0 43.333 3.33301 81.666 10 114.999s18.167 62.5 34.5 87.5s38.333 45.833 66 62.5
s62.5 30.167 104.5 40.5s92 17.666 150 21.999s125.667 6.5 203 6.5h132v70c0 45.333 -3.5 82.833 -10.5 112.5s-20.167 53.167 -39.5 70.5s-46.333 29.5 -81 36.5s-80 10.5 -136 10.5zM397.998 1401c-9.33301 0 -17.333 -1.16895 -24 -3.50195s-12.5 -7.83301 -17.5 -16.5
s-8.83301 -21 -11.5 -37s-4.33398 -37.667 -5.00098 -65c0 -10.667 -5.33301 -16 -16 -16h-98c-10.667 0 -16.334 5.33301 -17.001 16c-0.666992 6.66699 -1.16699 13.834 -1.5 21.501s-0.5 14.167 -0.5 19.5c0 48.667 5.5 87.5 16.5 116.5s25 51.333 42 67
s35.833 25.834 56.5 30.501s41 7 61 7c28 0 52.5 -3.33301 73.5 -10s43.167 -17.667 66.5 -33l56 -37l64.5 -43c17.667 -12 35.5 -18 53.5 -18c8.66699 0 16.5 1.16699 23.5 3.5s12.833 7.83301 17.5 16.5s8.33398 20.834 11.001 36.501s4.33398 37.167 5.00098 64.5
c0 10.667 5.33301 16 16 16h99c10.667 0 16.334 -5.33301 17.001 -16c0.666992 -6 1.16699 -12.833 1.5 -20.5s0.5 -14.167 0.5 -19.5c0 -48.667 -5.5 -87.5 -16.5 -116.5s-25 -51.333 -42 -67s-35.833 -25.834 -56.5 -30.501s-41 -7 -61 -7c-28 0 -52.167 3 -72.5 9
s-42.833 17.333 -67.5 34l-56 37l-36 24l-29.5 19.5c-9 5.66699 -17.833 10 -26.5 13s-17.334 4.5 -26.001 4.5z" />
    <glyph glyph-name="adieresis" unicode="&#xe4;" horiz-adv-x="1107" 
d="M562 118c40 0 79.3311 1.16797 117.998 3.50098s74.667 6.16602 108 11.499v365h-141c-84 0 -152 -2.5 -204 -7.5s-92.5 -14.167 -121.5 -27.5s-48.667 -32 -59 -56s-15.5 -55.333 -15.5 -94c0 -43.333 7.66699 -78 23 -104s36.833 -45.667 64.5 -59
s60.834 -22 99.501 -26s81.334 -6 128.001 -6zM520.998 943.001c-54 0 -107 -1.99609 -159 -5.99609s-103.333 -9.66699 -154 -17c-10.667 -0.666992 -16 4 -16 14v114c0 10.667 5.33301 17 16 19c26.667 4.66699 54.667 8.66699 84 12s58.666 6.33301 87.999 9
s57.5 4.66699 84.5 6s51.167 2 72.5 2c94 0 168.833 -7.5 224.5 -22.5s98 -38.833 127 -71.5s47.667 -75.167 56 -127.5s12.5 -115.5 12.5 -189.5v-661c0 -11.333 -5.33301 -17.333 -16 -18c-31.333 -4.66699 -64.5 -8.83398 -99.5 -12.501
s-69.167 -6.83398 -102.5 -9.50098s-65.166 -4.66699 -95.499 -6s-56.833 -2 -79.5 -2c-81.333 0 -152 5 -212 15s-109.5 27.667 -148.5 53s-68 59.333 -87 102s-28.5 97 -28.5 163c0 43.333 3.33301 81.666 10 114.999s18.167 62.5 34.5 87.5s38.333 45.833 66 62.5
s62.5 30.167 104.5 40.5s92 17.666 150 21.999s125.667 6.5 203 6.5h132v70c0 45.333 -3.5 82.833 -10.5 112.5s-20.167 53.167 -39.5 70.5s-46.333 29.5 -81 36.5s-80 10.5 -136 10.5zM294.998 1243c-10.667 0 -16 5.33301 -16 16v265c0 10.667 5.33301 17 16 19l143 23
c10.667 2 16 -2.33301 16 -13v-294c0 -10.667 -5.33301 -16 -16 -16h-143zM633.998 1243c-10.667 0 -16 5.33301 -16 16v265c0 10.667 5.33301 17 16 19l143 23c10.667 2 16 -2.33301 16 -13v-294c0 -10.667 -5.33301 -16 -16 -16h-143z" />
    <glyph glyph-name="aring" unicode="&#xe5;" horiz-adv-x="1107" 
d="M562 118c40 0 79.3311 1.16797 117.998 3.50098s74.667 6.16602 108 11.499v365h-141c-84 0 -152 -2.5 -204 -7.5s-92.5 -14.167 -121.5 -27.5s-48.667 -32 -59 -56s-15.5 -55.333 -15.5 -94c0 -43.333 7.66699 -78 23 -104s36.833 -45.667 64.5 -59
s60.834 -22 99.501 -26s81.334 -6 128.001 -6zM520.998 943.001c-54 0 -107 -1.99609 -159 -5.99609s-103.333 -9.66699 -154 -17c-10.667 -0.666992 -16 4 -16 14v114c0 10.667 5.33301 17 16 19c26.667 4.66699 54.667 8.66699 84 12s58.666 6.33301 87.999 9
s57.5 4.66699 84.5 6s51.167 2 72.5 2c94 0 168.833 -7.5 224.5 -22.5s98 -38.833 127 -71.5s47.667 -75.167 56 -127.5s12.5 -115.5 12.5 -189.5v-661c0 -11.333 -5.33301 -17.333 -16 -18c-31.333 -4.66699 -64.5 -8.83398 -99.5 -12.501
s-69.167 -6.83398 -102.5 -9.50098s-65.166 -4.66699 -95.499 -6s-56.833 -2 -79.5 -2c-81.333 0 -152 5 -212 15s-109.5 27.667 -148.5 53s-68 59.333 -87 102s-28.5 97 -28.5 163c0 43.333 3.33301 81.666 10 114.999s18.167 62.5 34.5 87.5s38.333 45.833 66 62.5
s62.5 30.167 104.5 40.5s92 17.666 150 21.999s125.667 6.5 203 6.5h132v70c0 45.333 -3.5 82.833 -10.5 112.5s-20.167 53.167 -39.5 70.5s-46.333 29.5 -81 36.5s-80 10.5 -136 10.5zM553.998 1489c-34.667 0 -60.667 -6.16699 -78 -18.5s-26 -35.5 -26 -69.5
s8.66699 -57.167 26 -69.5s43.333 -18.5 78 -18.5s60.5 6.16699 77.5 18.5s25.5 35.833 25.5 70.5c0 34 -8.33301 57 -25 69s-42.667 18 -78 18zM549.998 1211c-74.667 0 -129.834 16.333 -165.501 49s-53.5 79.667 -53.5 141s17.833 108.5 53.5 141.5
s90.834 49.5 165.501 49.5c72.667 0 127.167 -16.5 163.5 -49.5s54.5 -79.833 54.5 -140.5c0 -62 -18.167 -109.333 -54.5 -142s-90.833 -49 -163.5 -49z" />
    <glyph glyph-name="ae" unicode="&#xe6;" horiz-adv-x="1829" 
d="M521 943c-54 0 -107.002 -1.99902 -159.002 -5.99902s-103.333 -9.66699 -154 -17c-10.667 -0.666992 -16 4 -16 14v114c0 10.667 5.33301 17 16 19c26.667 4.66699 54.667 8.66699 84 12s58.666 6.33301 87.999 9s57.5 4.66699 84.5 6s51.167 2 72.5 2
c52 0 98 -2.33301 138 -7s74.833 -11.667 104.5 -21s54.667 -21.333 75 -36s37.166 -32.334 50.499 -53.001c38 38.667 86 67.5 144 86.5s128.667 28.5 212 28.5c84.667 0 156.834 -9.5 216.501 -28.5s108.334 -47.5 146.001 -85.5s65.167 -85.667 82.5 -143
s26 -124.666 26 -201.999c0 -31.333 -1.5 -59 -4.5 -83s-5.83301 -42 -8.5 -54c-2 -10.667 -8.33301 -16 -19 -16h-741c0.666992 -68 6.33398 -124.833 17.001 -170.5s28.334 -82.167 53.001 -109.5s57.5 -46.666 98.5 -57.999s92.167 -17 153.5 -17
c57.333 0 114.666 1.16699 171.999 3.5s117.333 8.16602 180 17.499c6 0.666992 10.333 0 13 -2s4.33398 -6 5.00098 -12l13 -111c2 -10.667 -2.66699 -17 -14 -19c-59.333 -9.33301 -119.5 -16.333 -180.5 -21s-126.833 -7 -197.5 -7c-68.667 0 -128.834 5.5 -180.501 16.5
s-96.5 28.5 -134.5 52.5v-21c0 -11.333 -5.33301 -17.333 -16 -18c-31.333 -4.66699 -64.5 -8.83398 -99.5 -12.501s-69.167 -6.83398 -102.5 -9.50098s-65.166 -4.66699 -95.499 -6s-56.833 -2 -79.5 -2c-81.333 0 -152 5 -212 15s-109.5 27.667 -148.5 53
s-68 59.333 -87 102s-28.5 97 -28.5 163c0 41.333 3.33301 77.833 10 109.5s18.167 59.334 34.5 83.001s38.333 43.5 66 59.5s62.5 28.833 104.5 38.5s92 16.667 150 21s125.667 6.5 203 6.5h132v86c0 45.333 -3.5 82.833 -10.5 112.5s-20.167 53.167 -39.5 70.5
s-46.333 29.5 -81 36.5s-80 10.5 -136 10.5zM561.998 118.001c40 0 79.3311 1.16797 117.998 3.50098s74.667 6.16602 108 11.499v349h-141c-84 0 -152 -2.16699 -204 -6.5s-92.5 -12.833 -121.5 -25.5s-48.667 -30 -59 -52s-15.5 -50.333 -15.5 -85
c0 -43.333 7.66699 -78 23 -104s36.833 -45.667 64.5 -59s60.834 -22 99.501 -26s81.334 -6 128.001 -6zM1575 634.002c-3.33301 54.667 -10.668 101.499 -22.001 140.499s-29 70.833 -53 95.5s-55.333 42.834 -94 54.501s-87 17.5 -145 17.5
c-55.333 0 -101.666 -6 -138.999 -18s-67.833 -31 -91.5 -57s-41 -59.167 -52 -99.5s-17.5 -88.833 -19.5 -145.5z" />
    <glyph glyph-name="ccedilla" unicode="&#xe7;" horiz-adv-x="964" 
d="M624 -24c-95.333 0 -175.167 8.33594 -239.5 25.0029s-116.166 44.667 -155.499 84s-67.5 91.5 -84.5 156.5s-25.5 146.167 -25.5 243.5v101c0 90.667 8 168.167 24 232.5s43.333 117 82 158s90.5 70.833 155.5 89.5s146.167 28 243.5 28c44.667 0 87.334 -2 128.001 -6
s78 -9 112 -15c11.333 -2 16 -8.33301 14 -19l-14 -115c-0.666992 -6 -2.33398 -10 -5.00098 -12s-7 -2.66699 -13 -2c-34 5.33301 -69.5 8.83301 -106.5 10.5s-74.167 2.5 -111.5 2.5c-68 0 -123.833 -6 -167.5 -18s-77.834 -32.333 -102.501 -61
s-41.667 -66.834 -51 -114.501s-14 -106.834 -14 -177.501v-65c0 -72 4.66699 -131.833 14 -179.5s26.333 -85.667 51 -114s58.667 -48.333 102 -60s99.333 -17.5 168 -17.5c40 0 78.5 1.16699 115.5 3.5s71.833 6.16602 104.5 11.499c6 0.666992 10.167 0 12.5 -2
s4.16602 -6 5.49902 -12l12 -116c2 -10.667 -2.66699 -17 -14 -19c-33.333 -6 -71.666 -11 -114.999 -15s-85 -6 -125 -6zM354.999 -388.997c-10.667 0 -13.333 4.66699 -8 14l146 259c5.33301 9.33301 13.333 14 24 14h123c11.333 0 14.333 -4.66699 9 -14l-133 -259
c-2.66699 -5.33301 -5.66699 -9 -9 -11s-8 -3 -14 -3h-138z" />
    <glyph glyph-name="egrave" unicode="&#xe8;" horiz-adv-x="1157" 
d="M601 -24c-87.333 0 -161.664 9.33105 -222.997 27.998s-111.166 48.667 -149.499 90s-66.333 95 -84 161s-26.5 146.333 -26.5 241v88c0 86.667 8.5 162 25.5 226s44.167 117 81.5 159s85.833 73.333 145.5 94s132.5 31 218.5 31c84.667 0 157 -10 217 -30
s108.667 -50.167 146 -90.5s64.666 -90.833 81.999 -151.5s26 -131.667 26 -213c0 -31.333 -1.5 -59 -4.5 -83s-5.83301 -42 -8.5 -54c-2 -10.667 -8.33301 -16 -19 -16l-739 -1c2 -63.333 8.83301 -116 20.5 -158s30 -75.5 55 -100.5s57.5 -42.833 97.5 -53.5
s89.333 -16 148 -16c28.667 0 57 0.166992 85 0.5s56 1.33301 84 3s56.667 3.83398 86 6.50098s59.666 6.33398 90.999 11.001c6 0.666992 10.167 0 12.5 -2s4.16602 -6 5.49902 -12l12 -111c2 -10.667 -2.66699 -17 -14 -19c-59.333 -10 -118.333 -17.167 -177 -21.5
s-123.334 -6.5 -194.001 -6.5zM903.002 607.998c-2.66699 58.667 -9.66699 109.167 -21 151.5s-29 77 -53 104s-55.5 46.833 -94.5 59.5s-87.5 19 -145.5 19c-56.667 0 -104.167 -6.5 -142.5 -19.5s-69 -33.5 -92 -61.5s-39.667 -63.833 -50 -107.5
s-15.833 -96.167 -16.5 -157.5zM580.002 1264c-11.333 0 -20.001 4 -26.001 12l-202 240c-6.66699 8 -4.66699 12 6 12h192c10.667 0 19 -4.33301 25 -13l160 -238c6.66699 -8.66699 4.33398 -13 -6.99902 -13h-148z" />
    <glyph glyph-name="eacute" unicode="&#xe9;" horiz-adv-x="1157" 
d="M601 -24c-87.333 0 -161.664 9.33105 -222.997 27.998s-111.166 48.667 -149.499 90s-66.333 95 -84 161s-26.5 146.333 -26.5 241v88c0 86.667 8.5 162 25.5 226s44.167 117 81.5 159s85.833 73.333 145.5 94s132.5 31 218.5 31c84.667 0 157 -10 217 -30
s108.667 -50.167 146 -90.5s64.666 -90.833 81.999 -151.5s26 -131.667 26 -213c0 -31.333 -1.5 -59 -4.5 -83s-5.83301 -42 -8.5 -54c-2 -10.667 -8.33301 -16 -19 -16l-739 -1c2 -63.333 8.83301 -116 20.5 -158s30 -75.5 55 -100.5s57.5 -42.833 97.5 -53.5
s89.333 -16 148 -16c28.667 0 57 0.166992 85 0.5s56 1.33301 84 3s56.667 3.83398 86 6.50098s59.666 6.33398 90.999 11.001c6 0.666992 10.167 0 12.5 -2s4.16602 -6 5.49902 -12l12 -111c2 -10.667 -2.66699 -17 -14 -19c-59.333 -10 -118.333 -17.167 -177 -21.5
s-123.334 -6.5 -194.001 -6.5zM903.002 607.998c-2.66699 58.667 -9.66699 109.167 -21 151.5s-29 77 -53 104s-55.5 46.833 -94.5 59.5s-87.5 19 -145.5 19c-56.667 0 -104.167 -6.5 -142.5 -19.5s-69 -33.5 -92 -61.5s-39.667 -63.833 -50 -107.5
s-15.833 -96.167 -16.5 -157.5zM482.002 1264c-11.333 0 -13.667 4.33301 -7 13l160 238c6 8.66699 14.333 13 25 13h192c10.667 0 12.667 -4 6 -12l-202 -240c-6 -8 -14.667 -12 -26 -12h-148z" />
    <glyph glyph-name="ecircumflex" unicode="&#xea;" horiz-adv-x="1157" 
d="M601 -24c-87.333 0 -161.664 9.33105 -222.997 27.998s-111.166 48.667 -149.499 90s-66.333 95 -84 161s-26.5 146.333 -26.5 241v88c0 86.667 8.5 162 25.5 226s44.167 117 81.5 159s85.833 73.333 145.5 94s132.5 31 218.5 31c84.667 0 157 -10 217 -30
s108.667 -50.167 146 -90.5s64.666 -90.833 81.999 -151.5s26 -131.667 26 -213c0 -31.333 -1.5 -59 -4.5 -83s-5.83301 -42 -8.5 -54c-2 -10.667 -8.33301 -16 -19 -16l-739 -1c2 -63.333 8.83301 -116 20.5 -158s30 -75.5 55 -100.5s57.5 -42.833 97.5 -53.5
s89.333 -16 148 -16c28.667 0 57 0.166992 85 0.5s56 1.33301 84 3s56.667 3.83398 86 6.50098s59.666 6.33398 90.999 11.001c6 0.666992 10.167 0 12.5 -2s4.16602 -6 5.49902 -12l12 -111c2 -10.667 -2.66699 -17 -14 -19c-59.333 -10 -118.333 -17.167 -177 -21.5
s-123.334 -6.5 -194.001 -6.5zM903.002 607.998c-2.66699 58.667 -9.66699 109.167 -21 151.5s-29 77 -53 104s-55.5 46.833 -94.5 59.5s-87.5 19 -145.5 19c-56.667 0 -104.167 -6.5 -142.5 -19.5s-69 -33.5 -92 -61.5s-39.667 -63.833 -50 -107.5
s-15.833 -96.167 -16.5 -157.5zM495.002 1516c4 4.66699 7.83301 7.83398 11.5 9.50098s8.5 2.5 14.5 2.5h141c6 0 10.833 -0.833008 14.5 -2.5s7.5 -4.83398 11.5 -9.50098l198 -243c6.66699 -8 4.66699 -12 -6 -12h-154c-10.667 0 -19 4.33301 -25 13l-100 138h-20
l-100 -138c-6 -8.66699 -14.333 -13 -25 -13h-153c-10.667 0 -12.667 4 -6 12z" />
    <glyph glyph-name="edieresis" unicode="&#xeb;" horiz-adv-x="1157" 
d="M601 -24c-87.333 0 -161.664 9.33105 -222.997 27.998s-111.166 48.667 -149.499 90s-66.333 95 -84 161s-26.5 146.333 -26.5 241v88c0 86.667 8.5 162 25.5 226s44.167 117 81.5 159s85.833 73.333 145.5 94s132.5 31 218.5 31c84.667 0 157 -10 217 -30
s108.667 -50.167 146 -90.5s64.666 -90.833 81.999 -151.5s26 -131.667 26 -213c0 -31.333 -1.5 -59 -4.5 -83s-5.83301 -42 -8.5 -54c-2 -10.667 -8.33301 -16 -19 -16l-739 -1c2 -63.333 8.83301 -116 20.5 -158s30 -75.5 55 -100.5s57.5 -42.833 97.5 -53.5
s89.333 -16 148 -16c28.667 0 57 0.166992 85 0.5s56 1.33301 84 3s56.667 3.83398 86 6.50098s59.666 6.33398 90.999 11.001c6 0.666992 10.167 0 12.5 -2s4.16602 -6 5.49902 -12l12 -111c2 -10.667 -2.66699 -17 -14 -19c-59.333 -10 -118.333 -17.167 -177 -21.5
s-123.334 -6.5 -194.001 -6.5zM903.002 607.998c-2.66699 58.667 -9.66699 109.167 -21 151.5s-29 77 -53 104s-55.5 46.833 -94.5 59.5s-87.5 19 -145.5 19c-56.667 0 -104.167 -6.5 -142.5 -19.5s-69 -33.5 -92 -61.5s-39.667 -63.833 -50 -107.5
s-15.833 -96.167 -16.5 -157.5zM343.002 1243c-10.667 0 -16 5.33301 -16 16v265c0 10.667 5.33301 17 16 19l143 23c10.667 2 16 -2.33301 16 -13v-294c0 -10.667 -5.33301 -16 -16 -16h-143zM682.002 1243c-10.667 0 -16 5.33301 -16 16v265c0 10.667 5.33301 17 16 19
l143 23c10.667 2 16 -2.33301 16 -13v-294c0 -10.667 -5.33301 -16 -16 -16h-143z" />
    <glyph glyph-name="igrave" unicode="&#xec;" horiz-adv-x="502" 
d="M181 0c-10.667 0 -16 5.33301 -16 16v1039c0 10.667 5.33301 16 16 16h140c10.667 0 16 -5.33301 16 -16v-1039c0 -10.667 -5.33301 -16 -16 -16h-140zM264 1264c-11.333 0 -20.001 4 -26.001 12l-202 240c-6.66699 8 -4.66699 12 6 12h192c10.667 0 19 -4.33301 25 -13
l160 -238c6.66699 -8.66699 4.33398 -13 -6.99902 -13h-148z" />
    <glyph glyph-name="iacute" unicode="&#xed;" horiz-adv-x="501" 
d="M181 0c-10.667 0 -16 5.33301 -16 16v1039c0 10.667 5.33301 16 16 16h140c10.667 0 16 -5.33301 16 -16v-1039c0 -10.667 -5.33301 -16 -16 -16h-140zM67 1264c-11.333 0 -13.667 4.33301 -7 13l160 238c6 8.66699 14.333 13 25 13h192c10.667 0 12.667 -4 6 -12
l-202 -240c-6 -8 -14.667 -12 -26 -12h-148z" />
    <glyph glyph-name="icircumflex" unicode="&#xee;" horiz-adv-x="501" 
d="M181 0c-10.667 0 -16 5.33301 -16 16v1039c0 10.667 5.33301 16 16 16h140c10.667 0 16 -5.33301 16 -16v-1039c0 -10.667 -5.33301 -16 -16 -16h-140zM155 1516c4 4.66699 7.83301 7.83398 11.5 9.50098s8.5 2.5 14.5 2.5h141c6 0 10.833 -0.833008 14.5 -2.5
s7.5 -4.83398 11.5 -9.50098l198 -243c6.66699 -8 4.66699 -12 -6 -12h-154c-10.667 0 -19 4.33301 -25 13l-100 138h-20l-100 -138c-6 -8.66699 -14.333 -13 -25 -13h-153c-10.667 0 -12.667 4 -6 12z" />
    <glyph glyph-name="idieresis" unicode="&#xef;" horiz-adv-x="501" 
d="M181 0c-10.667 0 -16 5.33301 -16 16v1039c0 10.667 5.33301 16 16 16h140c10.667 0 16 -5.33301 16 -16v-1039c0 -10.667 -5.33301 -16 -16 -16h-140zM11 1243c-10.667 0 -16 5.33301 -16 16v265c0 10.667 5.33301 17 16 19l143 23c10.667 2 16 -2.33301 16 -13v-294
c0 -10.667 -5.33301 -16 -16 -16h-143zM350 1243c-10.667 0 -16 5.33301 -16 16v265c0 10.667 5.33301 17 16 19l143 23c10.667 2 16 -2.33301 16 -13v-294c0 -10.667 -5.33301 -16 -16 -16h-143z" />
    <glyph glyph-name="eth" unicode="&#xf0;" horiz-adv-x="1172" 
d="M742 1387c54 -41.333 99.832 -88.832 137.499 -142.499s68.167 -114.167 91.5 -181.5s40.166 -142 50.499 -224s15.5 -172 15.5 -270v-75c0 -90.667 -8.33301 -168.667 -25 -234s-43.167 -119 -79.5 -161s-83.333 -73 -141 -93s-127.5 -30 -209.5 -30
c-83.333 0 -154.5 10 -213.5 30s-107 51 -144 93s-64 95.667 -81 161s-25.5 143.333 -25.5 234v75c0 89.333 8.5 166.166 25.5 230.499s43.833 117.166 80.5 158.499s83.5 71.833 140.5 91.5s125.167 29.5 204.5 29.5c54 0 103.833 -7.83301 149.5 -23.5
s87.167 -37.5 124.5 -65.5c-23.333 68.667 -54.166 129 -92.499 181s-85.166 97.333 -140.499 136l-237 -145c-9.33301 -5.33301 -17 -3.66602 -23 5.00098l-54 75c-6 8.66699 -4.33301 15.667 5 21l185 113c-73.333 31.333 -156 56.333 -248 75
c-10.667 2 -15 8.33301 -13 19l21 96c2 10.667 8.33301 15 19 13c72 -14.667 137.833 -31.667 197.5 -51s114.167 -41.666 163.5 -66.999l212 129c9.33301 5.33301 17 3.66602 23 -5.00098l53 -75c6.66699 -8 5 -15 -5 -21zM581.999 939.001
c-56 0 -102.835 -7.16602 -140.502 -21.499s-67.667 -36.833 -90 -67.5s-38.333 -70 -48 -118s-14.5 -105.667 -14.5 -173v-55c0 -68 4.5 -125.833 13.5 -173.5s24.833 -86.667 47.5 -117s52.667 -52.5 90 -66.5s84.666 -21 141.999 -21c56 0 102.833 7.16699 140.5 21.5
s67.834 36.666 90.501 66.999s38.834 69.5 48.501 117.5s14.5 106 14.5 174v53c0 67.333 -4.66699 125 -14 173s-25.166 87.333 -47.499 118s-52.5 53.167 -90.5 67.5s-85.333 21.5 -142 21.5z" />
    <glyph glyph-name="ntilde" unicode="&#xf1;" horiz-adv-x="1204" 
d="M898 0c-10.667 0 -16.001 5.33203 -16.001 15.999v605c0 56 -3.83301 103.5 -11.5 142.5s-20.834 70.667 -39.501 95s-43.834 41.833 -75.501 52.5s-71.5 16 -119.5 16c-25.333 0 -51.166 -1.66699 -77.499 -5s-52.666 -8 -78.999 -14s-52.166 -13.5 -77.499 -22.5
s-49.333 -19.5 -72 -31.5v-838c0 -10.667 -5.33301 -16 -16 -16h-140c-10.667 0 -16 5.33301 -16 16v1058c0 10.667 5.33301 16 16 16h106c10.667 0 17.667 -5 21 -15l23 -77c54.667 30 113 53.5 175 70.5s125.667 25.5 191 25.5c66 0 122.167 -8 168.5 -24
s84 -41.667 113 -77s50 -81.166 63 -137.499s19.5 -124.833 19.5 -205.5v-634c0 -10.667 -5.33301 -16 -16 -16h-140zM439.999 1401c-9.33301 0 -17.333 -1.16895 -24 -3.50195s-12.5 -7.83301 -17.5 -16.5s-8.83301 -21 -11.5 -37s-4.33398 -37.667 -5.00098 -65
c0 -10.667 -5.33301 -16 -16 -16h-98c-10.667 0 -16.334 5.33301 -17.001 16c-0.666992 6.66699 -1.16699 13.834 -1.5 21.501s-0.5 14.167 -0.5 19.5c0 48.667 5.5 87.5 16.5 116.5s25 51.333 42 67s35.833 25.834 56.5 30.501s41 7 61 7c28 0 52.5 -3.33301 73.5 -10
s43.167 -17.667 66.5 -33l56 -37l64.5 -43c17.667 -12 35.5 -18 53.5 -18c8.66699 0 16.5 1.16699 23.5 3.5s12.833 7.83301 17.5 16.5s8.33398 20.834 11.001 36.501s4.33398 37.167 5.00098 64.5c0 10.667 5.33301 16 16 16h99c10.667 0 16.334 -5.33301 17.001 -16
c0.666992 -6 1.16699 -12.833 1.5 -20.5s0.5 -14.167 0.5 -19.5c0 -48.667 -5.5 -87.5 -16.5 -116.5s-25 -51.333 -42 -67s-35.833 -25.834 -56.5 -30.501s-41 -7 -61 -7c-28 0 -52.167 3 -72.5 9s-42.833 17.333 -67.5 34l-56 37l-36 24l-29.5 19.5
c-9 5.66699 -17.833 10 -26.5 13s-17.334 4.5 -26.001 4.5z" />
    <glyph glyph-name="ograve" unicode="&#xf2;" horiz-adv-x="1179" 
d="M589 942c-58.667 0 -107.335 -6.83203 -146.002 -20.499s-69.5 -35.334 -92.5 -65.001s-39.167 -68 -48.5 -115s-14 -103.833 -14 -170.5v-73c0 -66 4.66699 -122.5 14 -169.5s25.5 -85.5 48.5 -115.5s53.833 -51.833 92.5 -65.5s87.334 -20.5 146.001 -20.5
s107.334 6.83301 146.001 20.5s69.667 35.5 93 65.5s39.833 68.5 49.5 115.5s14.5 104.167 14.5 171.5v71c0 66 -4.5 122.5 -13.5 169.5s-25 85.5 -48 115.5s-54 51.833 -93 65.5s-88.5 20.5 -148.5 20.5zM588.999 -23.999c-84.667 0 -156.834 9.83301 -216.501 29.5
s-108.334 50.167 -146.001 91.5s-65.167 94.333 -82.5 159s-26 142 -26 232v91c0 90 8.66699 167.5 26 232.5s44.833 118.333 82.5 160s86.334 72.5 146.001 92.5s131.834 30 216.501 30c85.333 0 157.833 -10 217.5 -30s108.334 -50.833 146.001 -92.5
s65.167 -95 82.5 -160s26 -142.5 26 -232.5v-91c0 -90 -8.66699 -167.333 -26 -232s-44.833 -117.667 -82.5 -159s-86.334 -71.833 -146.001 -91.5s-132.167 -29.5 -217.5 -29.5zM572.999 1264c-11.333 0 -20.001 4 -26.001 12l-202 240c-6.66699 8 -4.66699 12 6 12h192
c10.667 0 19 -4.33301 25 -13l160 -238c6.66699 -8.66699 4.33398 -13 -6.99902 -13h-148z" />
    <glyph glyph-name="oacute" unicode="&#xf3;" horiz-adv-x="1179" 
d="M589 942c-58.667 0 -107.335 -6.83203 -146.002 -20.499s-69.5 -35.334 -92.5 -65.001s-39.167 -68 -48.5 -115s-14 -103.833 -14 -170.5v-73c0 -66 4.66699 -122.5 14 -169.5s25.5 -85.5 48.5 -115.5s53.833 -51.833 92.5 -65.5s87.334 -20.5 146.001 -20.5
s107.334 6.83301 146.001 20.5s69.667 35.5 93 65.5s39.833 68.5 49.5 115.5s14.5 104.167 14.5 171.5v71c0 66 -4.5 122.5 -13.5 169.5s-25 85.5 -48 115.5s-54 51.833 -93 65.5s-88.5 20.5 -148.5 20.5zM588.999 -23.999c-84.667 0 -156.834 9.83301 -216.501 29.5
s-108.334 50.167 -146.001 91.5s-65.167 94.333 -82.5 159s-26 142 -26 232v91c0 90 8.66699 167.5 26 232.5s44.833 118.333 82.5 160s86.334 72.5 146.001 92.5s131.834 30 216.501 30c85.333 0 157.833 -10 217.5 -30s108.334 -50.833 146.001 -92.5
s65.167 -95 82.5 -160s26 -142.5 26 -232.5v-91c0 -90 -8.66699 -167.333 -26 -232s-44.833 -117.667 -82.5 -159s-86.334 -71.833 -146.001 -91.5s-132.167 -29.5 -217.5 -29.5zM440.999 1264c-11.333 0 -13.667 4.33301 -7 13l160 238c6 8.66699 14.333 13 25 13h192
c10.667 0 12.667 -4 6 -12l-202 -240c-6 -8 -14.667 -12 -26 -12h-148z" />
    <glyph glyph-name="ocircumflex" unicode="&#xf4;" horiz-adv-x="1179" 
d="M589 942c-58.667 0 -107.335 -6.83203 -146.002 -20.499s-69.5 -35.334 -92.5 -65.001s-39.167 -68 -48.5 -115s-14 -103.833 -14 -170.5v-73c0 -66 4.66699 -122.5 14 -169.5s25.5 -85.5 48.5 -115.5s53.833 -51.833 92.5 -65.5s87.334 -20.5 146.001 -20.5
s107.334 6.83301 146.001 20.5s69.667 35.5 93 65.5s39.833 68.5 49.5 115.5s14.5 104.167 14.5 171.5v71c0 66 -4.5 122.5 -13.5 169.5s-25 85.5 -48 115.5s-54 51.833 -93 65.5s-88.5 20.5 -148.5 20.5zM588.999 -23.999c-84.667 0 -156.834 9.83301 -216.501 29.5
s-108.334 50.167 -146.001 91.5s-65.167 94.333 -82.5 159s-26 142 -26 232v91c0 90 8.66699 167.5 26 232.5s44.833 118.333 82.5 160s86.334 72.5 146.001 92.5s131.834 30 216.501 30c85.333 0 157.833 -10 217.5 -30s108.334 -50.833 146.001 -92.5
s65.167 -95 82.5 -160s26 -142.5 26 -232.5v-91c0 -90 -8.66699 -167.333 -26 -232s-44.833 -117.667 -82.5 -159s-86.334 -71.833 -146.001 -91.5s-132.167 -29.5 -217.5 -29.5zM491.999 1516c4 4.66699 7.83301 7.83398 11.5 9.50098s8.5 2.5 14.5 2.5h141
c6 0 10.833 -0.833008 14.5 -2.5s7.5 -4.83398 11.5 -9.50098l198 -243c6.66699 -8 4.66699 -12 -6 -12h-154c-10.667 0 -19 4.33301 -25 13l-100 138h-20l-100 -138c-6 -8.66699 -14.333 -13 -25 -13h-153c-10.667 0 -12.667 4 -6 12z" />
    <glyph glyph-name="otilde" unicode="&#xf5;" horiz-adv-x="1179" 
d="M589 942c-58.667 0 -107.335 -6.83203 -146.002 -20.499s-69.5 -35.334 -92.5 -65.001s-39.167 -68 -48.5 -115s-14 -103.833 -14 -170.5v-73c0 -66 4.66699 -122.5 14 -169.5s25.5 -85.5 48.5 -115.5s53.833 -51.833 92.5 -65.5s87.334 -20.5 146.001 -20.5
s107.334 6.83301 146.001 20.5s69.667 35.5 93 65.5s39.833 68.5 49.5 115.5s14.5 104.167 14.5 171.5v71c0 66 -4.5 122.5 -13.5 169.5s-25 85.5 -48 115.5s-54 51.833 -93 65.5s-88.5 20.5 -148.5 20.5zM588.999 -23.999c-84.667 0 -156.834 9.83301 -216.501 29.5
s-108.334 50.167 -146.001 91.5s-65.167 94.333 -82.5 159s-26 142 -26 232v91c0 90 8.66699 167.5 26 232.5s44.833 118.333 82.5 160s86.334 72.5 146.001 92.5s131.834 30 216.501 30c85.333 0 157.833 -10 217.5 -30s108.334 -50.833 146.001 -92.5
s65.167 -95 82.5 -160s26 -142.5 26 -232.5v-91c0 -90 -8.66699 -167.333 -26 -232s-44.833 -117.667 -82.5 -159s-86.334 -71.833 -146.001 -91.5s-132.167 -29.5 -217.5 -29.5zM423.999 1401c-9.33301 0 -17.333 -1.16895 -24 -3.50195s-12.5 -7.83301 -17.5 -16.5
s-8.83301 -21 -11.5 -37s-4.33398 -37.667 -5.00098 -65c0 -10.667 -5.33301 -16 -16 -16h-98c-10.667 0 -16.334 5.33301 -17.001 16c-0.666992 6.66699 -1.16699 13.834 -1.5 21.501s-0.5 14.167 -0.5 19.5c0 48.667 5.5 87.5 16.5 116.5s25 51.333 42 67
s35.833 25.834 56.5 30.501s41 7 61 7c28 0 52.5 -3.33301 73.5 -10s43.167 -17.667 66.5 -33l56 -37l64.5 -43c17.667 -12 35.5 -18 53.5 -18c8.66699 0 16.5 1.16699 23.5 3.5s12.833 7.83301 17.5 16.5s8.33398 20.834 11.001 36.501s4.33398 37.167 5.00098 64.5
c0 10.667 5.33301 16 16 16h99c10.667 0 16.334 -5.33301 17.001 -16c0.666992 -6 1.16699 -12.833 1.5 -20.5s0.5 -14.167 0.5 -19.5c0 -48.667 -5.5 -87.5 -16.5 -116.5s-25 -51.333 -42 -67s-35.833 -25.834 -56.5 -30.501s-41 -7 -61 -7c-28 0 -52.167 3 -72.5 9
s-42.833 17.333 -67.5 34l-56 37l-36 24l-29.5 19.5c-9 5.66699 -17.833 10 -26.5 13s-17.334 4.5 -26.001 4.5z" />
    <glyph glyph-name="odieresis" unicode="&#xf6;" horiz-adv-x="1179" 
d="M589 942c-58.667 0 -107.335 -6.83203 -146.002 -20.499s-69.5 -35.334 -92.5 -65.001s-39.167 -68 -48.5 -115s-14 -103.833 -14 -170.5v-73c0 -66 4.66699 -122.5 14 -169.5s25.5 -85.5 48.5 -115.5s53.833 -51.833 92.5 -65.5s87.334 -20.5 146.001 -20.5
s107.334 6.83301 146.001 20.5s69.667 35.5 93 65.5s39.833 68.5 49.5 115.5s14.5 104.167 14.5 171.5v71c0 66 -4.5 122.5 -13.5 169.5s-25 85.5 -48 115.5s-54 51.833 -93 65.5s-88.5 20.5 -148.5 20.5zM588.999 -23.999c-84.667 0 -156.834 9.83301 -216.501 29.5
s-108.334 50.167 -146.001 91.5s-65.167 94.333 -82.5 159s-26 142 -26 232v91c0 90 8.66699 167.5 26 232.5s44.833 118.333 82.5 160s86.334 72.5 146.001 92.5s131.834 30 216.501 30c85.333 0 157.833 -10 217.5 -30s108.334 -50.833 146.001 -92.5
s65.167 -95 82.5 -160s26 -142.5 26 -232.5v-91c0 -90 -8.66699 -167.333 -26 -232s-44.833 -117.667 -82.5 -159s-86.334 -71.833 -146.001 -91.5s-132.167 -29.5 -217.5 -29.5zM331.999 1243c-10.667 0 -16 5.33301 -16 16v265c0 10.667 5.33301 17 16 19l143 23
c10.667 2 16 -2.33301 16 -13v-294c0 -10.667 -5.33301 -16 -16 -16h-143zM670.999 1243c-10.667 0 -16 5.33301 -16 16v265c0 10.667 5.33301 17 16 19l143 23c10.667 2 16 -2.33301 16 -13v-294c0 -10.667 -5.33301 -16 -16 -16h-143z" />
    <glyph glyph-name="divide" unicode="&#xf7;" horiz-adv-x="1129" 
d="M136 705c-10.667 0 -16 5.33301 -16 16v135c0 10.667 5.33301 16 16 16h857c10.667 0 16 -5.33301 16 -16v-135c0 -10.667 -5.33301 -16 -16 -16h-857zM491 266c-10.667 0 -16 5.33301 -16 16v228c0 11.333 5.33301 17.333 16 18l147 24c6 0.666992 10.167 0 12.5 -2
s3.5 -6 3.5 -12v-256c0 -10.667 -5.33301 -16 -16 -16h-147zM491 1017c-10.667 0 -16 5.33301 -16 16v229c0 11.333 5.33301 17.333 16 18l147 24c6 0.666992 10.167 0 12.5 -2s3.5 -6 3.5 -12v-257c0 -10.667 -5.33301 -16 -16 -16h-147z" />
    <glyph glyph-name="oslash" unicode="&#xf8;" horiz-adv-x="1184" 
d="M187 158c-23.333 40.667 -40.334 88.334 -51.001 143.001s-16 117.334 -16 188.001v90c0 90 8.66699 167.5 26 232.5s45 118.333 83 160s86.833 72.5 146.5 92.5s131.834 30 216.501 30c131.333 0 234.333 -25.667 309 -77l35 42c6 8 14.667 12 26 12h150
c10.667 0 12.667 -4 6 -12l-122 -147c24 -41.333 41.5 -89.5 52.5 -144.5s16.5 -117.833 16.5 -188.5v-90c0 -90.667 -8.66699 -168.334 -26 -233.001s-45 -117.834 -83 -159.501s-87 -72.167 -147 -91.5s-132.333 -29 -217 -29c-67.333 0 -126.5 6.16699 -177.5 18.5
s-95.167 31.5 -132.5 57.5l-33 -40c-6 -8 -14.667 -12 -26 -12h-151c-10.667 0 -12.667 4 -6 12zM894.999 579c0 38 -1.33301 72.834 -4 104.501s-7.33398 60.167 -14.001 85.5l-493 -594c23.333 -16.667 51.833 -28.834 85.5 -36.501s74.5 -11.5 122.5 -11.5
c58.667 0 107.334 6.83301 146.001 20.5s69.667 35.5 93 65.5s39.833 68.5 49.5 115.5s14.5 104.167 14.5 171.5v79zM591.999 942.001c-58.667 0 -107.501 -7 -146.501 -21s-70 -36 -93 -66s-39.167 -68.5 -48.5 -115.5s-14 -103.833 -14 -170.5v-81
c0 -38 1.16699 -72.333 3.5 -103s6.5 -58.667 12.5 -84l493 593c-23.333 16 -51.666 28 -84.999 36s-74 12 -122 12z" />
    <glyph glyph-name="ugrave" unicode="&#xf9;" horiz-adv-x="1202" 
d="M620 -24c-92.667 0 -168.669 8 -228.002 24s-106.166 42.333 -140.499 79s-58 84.334 -71 143.001s-19.5 130.667 -19.5 216v617c0 10.667 5.33301 16 16 16h140c10.667 0 16 -5.33301 16 -16v-608c0 -62.667 4.33301 -114.334 13 -155.001s23.667 -72.667 45 -96
s50.5 -39.666 87.5 -48.999s83.833 -14 140.5 -14c20 0 41 0.666992 63 2s43.833 3 65.5 5s42.667 4.66699 63 8s38.5 7 54.5 11v896c0 10.667 5.33301 16 16 16h140c10.667 0 16 -5.33301 16 -16v-1008c0 -10.667 -5 -17.334 -15 -20.001
c-25.333 -6.66699 -53.666 -13 -84.999 -19s-64.5 -11.333 -99.5 -16s-71 -8.5 -108 -11.5s-73.5 -4.5 -109.5 -4.5zM580.998 1264c-11.333 0 -20.001 4 -26.001 12l-202 240c-6.66699 8 -4.66699 12 6 12h192c10.667 0 19 -4.33301 25 -13l160 -238
c6.66699 -8.66699 4.33398 -13 -6.99902 -13h-148z" />
    <glyph glyph-name="uacute" unicode="&#xfa;" horiz-adv-x="1202" 
d="M620 -24c-92.667 0 -168.669 8 -228.002 24s-106.166 42.333 -140.499 79s-58 84.334 -71 143.001s-19.5 130.667 -19.5 216v617c0 10.667 5.33301 16 16 16h140c10.667 0 16 -5.33301 16 -16v-608c0 -62.667 4.33301 -114.334 13 -155.001s23.667 -72.667 45 -96
s50.5 -39.666 87.5 -48.999s83.833 -14 140.5 -14c20 0 41 0.666992 63 2s43.833 3 65.5 5s42.667 4.66699 63 8s38.5 7 54.5 11v896c0 10.667 5.33301 16 16 16h140c10.667 0 16 -5.33301 16 -16v-1008c0 -10.667 -5 -17.334 -15 -20.001
c-25.333 -6.66699 -53.666 -13 -84.999 -19s-64.5 -11.333 -99.5 -16s-71 -8.5 -108 -11.5s-73.5 -4.5 -109.5 -4.5zM481.998 1264c-11.333 0 -13.667 4.33301 -7 13l160 238c6 8.66699 14.333 13 25 13h192c10.667 0 12.667 -4 6 -12l-202 -240c-6 -8 -14.667 -12 -26 -12
h-148z" />
    <glyph glyph-name="ucircumflex" unicode="&#xfb;" horiz-adv-x="1202" 
d="M620 -24c-92.667 0 -168.669 8 -228.002 24s-106.166 42.333 -140.499 79s-58 84.334 -71 143.001s-19.5 130.667 -19.5 216v617c0 10.667 5.33301 16 16 16h140c10.667 0 16 -5.33301 16 -16v-608c0 -62.667 4.33301 -114.334 13 -155.001s23.667 -72.667 45 -96
s50.5 -39.666 87.5 -48.999s83.833 -14 140.5 -14c20 0 41 0.666992 63 2s43.833 3 65.5 5s42.667 4.66699 63 8s38.5 7 54.5 11v896c0 10.667 5.33301 16 16 16h140c10.667 0 16 -5.33301 16 -16v-1008c0 -10.667 -5 -17.334 -15 -20.001
c-25.333 -6.66699 -53.666 -13 -84.999 -19s-64.5 -11.333 -99.5 -16s-71 -8.5 -108 -11.5s-73.5 -4.5 -109.5 -4.5zM501.998 1516c4 4.66699 7.83301 7.83398 11.5 9.50098s8.5 2.5 14.5 2.5h141c6 0 10.833 -0.833008 14.5 -2.5s7.5 -4.83398 11.5 -9.50098l198 -243
c6.66699 -8 4.66699 -12 -6 -12h-154c-10.667 0 -19 4.33301 -25 13l-100 138h-20l-100 -138c-6 -8.66699 -14.333 -13 -25 -13h-153c-10.667 0 -12.667 4 -6 12z" />
    <glyph glyph-name="udieresis" unicode="&#xfc;" horiz-adv-x="1202" 
d="M620 -24c-92.667 0 -168.669 8 -228.002 24s-106.166 42.333 -140.499 79s-58 84.334 -71 143.001s-19.5 130.667 -19.5 216v617c0 10.667 5.33301 16 16 16h140c10.667 0 16 -5.33301 16 -16v-608c0 -62.667 4.33301 -114.334 13 -155.001s23.667 -72.667 45 -96
s50.5 -39.666 87.5 -48.999s83.833 -14 140.5 -14c20 0 41 0.666992 63 2s43.833 3 65.5 5s42.667 4.66699 63 8s38.5 7 54.5 11v896c0 10.667 5.33301 16 16 16h140c10.667 0 16 -5.33301 16 -16v-1008c0 -10.667 -5 -17.334 -15 -20.001
c-25.333 -6.66699 -53.666 -13 -84.999 -19s-64.5 -11.333 -99.5 -16s-71 -8.5 -108 -11.5s-73.5 -4.5 -109.5 -4.5zM358.998 1243c-10.667 0 -16 5.33301 -16 16v265c0 10.667 5.33301 17 16 19l143 23c10.667 2 16 -2.33301 16 -13v-294c0 -10.667 -5.33301 -16 -16 -16
h-143zM697.998 1243c-10.667 0 -16 5.33301 -16 16v265c0 10.667 5.33301 17 16 19l143 23c10.667 2 16 -2.33301 16 -13v-294c0 -10.667 -5.33301 -16 -16 -16h-143z" />
    <glyph glyph-name="yacute" unicode="&#xfd;" horiz-adv-x="1015" 
d="M164 -475c-18.667 0 -39.502 1.16797 -62.502 3.50098s-44.167 5.83301 -63.5 10.5c-10 2.66699 -14 9 -12 19l18 116c2 10.667 8.33301 15 19 13c15.333 -2.66699 31.333 -4.83398 48 -6.50098s32.334 -2.5 47.001 -2.5c44.667 0 82 3.5 112 10.5s56.333 21.833 79 44.5
s43.5 55.167 62.5 97.5s40.167 98.833 63.5 169.5h-4c-6.66699 0 -12 2 -16 6c-6.66699 6 -17.167 19 -31.5 39s-29.833 51.667 -46.5 95l-346 916c-4 10 -0.666992 15 10 15h161c10.667 0 17.667 -5 21 -15l258 -717c6.66699 -18 13 -36 19 -54l15.5 -48
c4.33301 -14 8 -25.333 11 -34s4.83301 -13 5.5 -13l251 866c2.66699 10 9.33398 15 20.001 15h161c11.333 0 15 -5 11 -15l-364 -1138c-26.667 -81.333 -52.5 -147.5 -77.5 -198.5s-54 -91 -87 -120s-71.833 -48.667 -116.5 -59s-100 -15.5 -166 -15.5zM392.998 1264
c-11.333 0 -13.667 4.33301 -7 13l160 238c6 8.66699 14.333 13 25 13h192c10.667 0 12.667 -4 6 -12l-202 -240c-6 -8 -14.667 -12 -26 -12h-148z" />
    <glyph glyph-name="thorn" unicode="&#xfe;" horiz-adv-x="1175" 
d="M174 -452c-10.667 0 -16.0029 5.33203 -16.0029 15.999v1419v4v599c0 10.667 5.33301 17 16 19l140 22c10.667 2 16 -2.33301 16 -13v-530c39.333 3.33301 77.833 5.83301 115.5 7.5s74.5 2.5 110.5 2.5c94.667 0 173.834 -8 237.501 -24s114.834 -43.167 153.501 -81.5
s66.167 -89.166 82.5 -152.499s24.5 -142 24.5 -236v-124c0 -92.667 -7.83301 -170.834 -23.5 -234.501s-42.5 -115.167 -80.5 -154.5s-88.667 -67.666 -152 -84.999s-142.666 -26 -237.999 -26c-39.333 0 -79.333 2.16699 -120 6.5s-77 9.83301 -109 16.5v-435
c0 -10.667 -5.33301 -16 -16 -16h-141zM554.997 940.999c-36.667 0 -75.168 -1.16602 -115.501 -3.49902s-76.5 -6.16602 -108.5 -11.499v-779c31.333 -6 67.333 -10.667 108 -14s80 -5 118 -5c68 0 123.5 6 166.5 18s76.5 32.333 100.5 61s40.5 66.667 49.5 114
s13.5 106.666 13.5 177.999v74c0 71.333 -4.5 130.666 -13.5 177.999s-25.667 85 -50 113s-58.166 47.833 -101.499 59.5s-99 17.5 -167 17.5z" />
    <glyph glyph-name="ydieresis" unicode="&#xff;" horiz-adv-x="1015" 
d="M164 -475c-18.667 0 -39.502 1.16797 -62.502 3.50098s-44.167 5.83301 -63.5 10.5c-10 2.66699 -14 9 -12 19l18 116c2 10.667 8.33301 15 19 13c15.333 -2.66699 31.333 -4.83398 48 -6.50098s32.334 -2.5 47.001 -2.5c44.667 0 82 3.5 112 10.5s56.333 21.833 79 44.5
s43.5 55.167 62.5 97.5s40.167 98.833 63.5 169.5h-4c-6.66699 0 -12 2 -16 6c-6.66699 6 -17.167 19 -31.5 39s-29.833 51.667 -46.5 95l-346 916c-4 10 -0.666992 15 10 15h161c10.667 0 17.667 -5 21 -15l258 -717c6.66699 -18 13 -36 19 -54l15.5 -48
c4.33301 -14 8 -25.333 11 -34s4.83301 -13 5.5 -13l251 866c2.66699 10 9.33398 15 20.001 15h161c11.333 0 15 -5 11 -15l-364 -1138c-26.667 -81.333 -52.5 -147.5 -77.5 -198.5s-54 -91 -87 -120s-71.833 -48.667 -116.5 -59s-100 -15.5 -166 -15.5zM278.998 1243
c-10.667 0 -16 5.33301 -16 16v265c0 10.667 5.33301 17 16 19l143 23c10.667 2 16 -2.33301 16 -13v-294c0 -10.667 -5.33301 -16 -16 -16h-143zM617.998 1243c-10.667 0 -16 5.33301 -16 16v265c0 10.667 5.33301 17 16 19l143 23c10.667 2 16 -2.33301 16 -13v-294
c0 -10.667 -5.33301 -16 -16 -16h-143z" />
    <glyph glyph-name="Amacron" unicode="&#x100;" horiz-adv-x="1313" 
d="M37 0c-10.667 0 -14.333 5 -11 15l500 1445c3.33301 10 10.333 15 21 15h218c10.667 0 17.667 -5 21 -15l502 -1445c2.66699 -10 -1 -15 -11 -15h-166c-10.667 0 -17.667 5 -21 15l-117 345h-636l-116 -345c-3.33301 -10 -10.333 -15 -21 -15h-163zM655.001 1299
l-260 -767h520zM410.001 1633c-10.667 0 -16 5.33301 -16 16v102c0 10.667 5.33301 16 16 16h494c10.667 0 16 -5.33301 16 -16v-102c0 -10.667 -5.33301 -16 -16 -16h-494z" />
    <glyph glyph-name="amacron" unicode="&#x101;" horiz-adv-x="1107" 
d="M562 118c40 0 79.3311 1.16797 117.998 3.50098s74.667 6.16602 108 11.499v365h-141c-84 0 -152 -2.5 -204 -7.5s-92.5 -14.167 -121.5 -27.5s-48.667 -32 -59 -56s-15.5 -55.333 -15.5 -94c0 -43.333 7.66699 -78 23 -104s36.833 -45.667 64.5 -59
s60.834 -22 99.501 -26s81.334 -6 128.001 -6zM520.998 943.001c-54 0 -107 -1.99609 -159 -5.99609s-103.333 -9.66699 -154 -17c-10.667 -0.666992 -16 4 -16 14v114c0 10.667 5.33301 17 16 19c26.667 4.66699 54.667 8.66699 84 12s58.666 6.33301 87.999 9
s57.5 4.66699 84.5 6s51.167 2 72.5 2c94 0 168.833 -7.5 224.5 -22.5s98 -38.833 127 -71.5s47.667 -75.167 56 -127.5s12.5 -115.5 12.5 -189.5v-661c0 -11.333 -5.33301 -17.333 -16 -18c-31.333 -4.66699 -64.5 -8.83398 -99.5 -12.501
s-69.167 -6.83398 -102.5 -9.50098s-65.166 -4.66699 -95.499 -6s-56.833 -2 -79.5 -2c-81.333 0 -152 5 -212 15s-109.5 27.667 -148.5 53s-68 59.333 -87 102s-28.5 97 -28.5 163c0 43.333 3.33301 81.666 10 114.999s18.167 62.5 34.5 87.5s38.333 45.833 66 62.5
s62.5 30.167 104.5 40.5s92 17.666 150 21.999s125.667 6.5 203 6.5h132v70c0 45.333 -3.5 82.833 -10.5 112.5s-20.167 53.167 -39.5 70.5s-46.333 29.5 -81 36.5s-80 10.5 -136 10.5zM288.998 1318c-10.667 0 -16 5.33301 -16 16v111c0 10.667 5.33301 16 16 16h494
c10.667 0 16 -5.33301 16 -16v-111c0 -10.667 -5.33301 -16 -16 -16h-494z" />
    <glyph glyph-name="Abreve" unicode="&#x102;" horiz-adv-x="1313" 
d="M37 0c-10.667 0 -14.333 5 -11 15l500 1445c3.33301 10 10.333 15 21 15h218c10.667 0 17.667 -5 21 -15l502 -1445c2.66699 -10 -1 -15 -11 -15h-166c-10.667 0 -17.667 5 -21 15l-117 345h-636l-116 -345c-3.33301 -10 -10.333 -15 -21 -15h-163zM655.001 1299
l-260 -767h520zM654.001 1580c-48.667 0 -89.6689 5.33301 -123.002 16s-60.666 25.834 -81.999 45.501s-37.333 43.834 -48 72.501s-17.667 61 -21 97c-0.666992 10.667 4.33301 16 15 16h108c10.667 0 17 -5.33301 19 -16c3.33301 -21.333 9.33301 -39.166 18 -53.499
s19 -26 31 -35s25 -15.333 39 -19s28.667 -5.5 44 -5.5c14.667 0 29.167 1.83301 43.5 5.5s27.5 10 39.5 19s22.333 20.667 31 35s14.667 32.166 18 53.499c2 10.667 8.33301 16 19 16h108c10.667 0 15.667 -5.33301 15 -16c-3.33301 -36 -10.333 -68.333 -21 -97
s-26.667 -52.834 -48 -72.501s-48.666 -34.834 -81.999 -45.501s-74.333 -16 -123 -16z" />
    <glyph glyph-name="abreve" unicode="&#x103;" horiz-adv-x="1107" 
d="M562 118c40 0 79.3311 1.16797 117.998 3.50098s74.667 6.16602 108 11.499v365h-141c-84 0 -152 -2.5 -204 -7.5s-92.5 -14.167 -121.5 -27.5s-48.667 -32 -59 -56s-15.5 -55.333 -15.5 -94c0 -43.333 7.66699 -78 23 -104s36.833 -45.667 64.5 -59
s60.834 -22 99.501 -26s81.334 -6 128.001 -6zM520.998 943.001c-54 0 -107 -1.99609 -159 -5.99609s-103.333 -9.66699 -154 -17c-10.667 -0.666992 -16 4 -16 14v114c0 10.667 5.33301 17 16 19c26.667 4.66699 54.667 8.66699 84 12s58.666 6.33301 87.999 9
s57.5 4.66699 84.5 6s51.167 2 72.5 2c94 0 168.833 -7.5 224.5 -22.5s98 -38.833 127 -71.5s47.667 -75.167 56 -127.5s12.5 -115.5 12.5 -189.5v-661c0 -11.333 -5.33301 -17.333 -16 -18c-31.333 -4.66699 -64.5 -8.83398 -99.5 -12.501
s-69.167 -6.83398 -102.5 -9.50098s-65.166 -4.66699 -95.499 -6s-56.833 -2 -79.5 -2c-81.333 0 -152 5 -212 15s-109.5 27.667 -148.5 53s-68 59.333 -87 102s-28.5 97 -28.5 163c0 43.333 3.33301 81.666 10 114.999s18.167 62.5 34.5 87.5s38.333 45.833 66 62.5
s62.5 30.167 104.5 40.5s92 17.666 150 21.999s125.667 6.5 203 6.5h132v70c0 45.333 -3.5 82.833 -10.5 112.5s-20.167 53.167 -39.5 70.5s-46.333 29.5 -81 36.5s-80 10.5 -136 10.5zM553.998 1258c-50.667 0 -92.832 5.83301 -126.499 17.5s-61 28.5 -82 50.5
s-36.5 48.667 -46.5 80s-16.333 66.333 -19 105c-0.666992 10.667 4.33301 16 15 16h109c6 0 10.167 -1.16699 12.5 -3.5s4.16602 -6.5 5.49902 -12.5c6 -47.333 19.833 -79.666 41.5 -96.999s51.834 -26 90.501 -26s68.834 8.66699 90.501 26s35.5 49.666 41.5 96.999
c1.33301 6 3.16602 10.167 5.49902 12.5s6.5 3.5 12.5 3.5h109c10.667 0 15.667 -5.33301 15 -16c-2.66699 -38.667 -9 -73.667 -19 -105s-25.5 -58 -46.5 -80s-48.333 -38.833 -82 -50.5s-75.834 -17.5 -126.501 -17.5z" />
    <glyph glyph-name="Aogonek" unicode="&#x104;" horiz-adv-x="1313" 
d="M37 0c-10.667 0 -14.3359 4.99707 -11.0029 14.9971l500 1445c3.33301 10 10.333 15 21 15h218c10.667 0 17.667 -5 21 -15l502 -1445c2.66699 -7.33301 0.666992 -12.333 -6 -15c-35.333 -14 -66.333 -30.667 -93 -50s-49.334 -39.666 -68.001 -60.999
s-32.667 -42.666 -42 -63.999s-14 -41 -14 -59c0 -13.333 1.16699 -24.666 3.5 -33.999s7.16602 -16.833 14.499 -22.5s17.833 -9.66699 31.5 -12s31.5 -3.5 53.5 -3.5c17.333 0 34.333 0.5 51 1.5s32.667 2.16699 48 3.5c6 0.666992 10.333 0 13 -2s4.33398 -6 5.00098 -12
l9 -68c2 -10 -2.66699 -16.333 -14 -19c-17.333 -3.33301 -38.166 -6.16602 -62.499 -8.49902s-49.166 -3.5 -74.499 -3.5c-43.333 0 -79.166 3.5 -107.499 10.5s-50.666 17.167 -66.999 30.5s-27.833 30.166 -34.5 50.499s-10 43.5 -10 69.5c0 26.667 5 52.667 15 78
s22.833 49.5 38.5 72.5s33.5 44.167 53.5 63.5s40 36 60 50l-118 349h-636l-116 -345c-3.33301 -10 -10.333 -15 -21 -15h-163zM654.998 1299l-260 -767h520z" />
    <glyph glyph-name="aogonek" unicode="&#x105;" horiz-adv-x="1108" 
d="M521 943c-54 0 -106.999 -1.99805 -158.999 -5.99805s-103.333 -9.66699 -154 -17c-10.667 -2 -16 2.66699 -16 14v114c0 10.667 5.33301 17 16 19c26.667 4.66699 54.667 8.66699 84 12s58.666 6.33301 87.999 9s57.5 4.66699 84.5 6s51.167 2 72.5 2
c94 0 168.833 -7.5 224.5 -22.5s98 -38.833 127 -71.5s47.667 -75.167 56 -127.5s12.5 -115.5 12.5 -189.5v-664c0 -4.66699 -0.833008 -7.83398 -2.5 -9.50098s-3.83398 -3.16699 -6.50098 -4.5c-25.333 -13.333 -50.333 -30 -75 -50s-46.667 -41.333 -66 -64
s-35 -45.5 -47 -68.5s-18 -43.833 -18 -62.5c0 -12.667 1.33301 -23.334 4 -32.001s7.5 -15.667 14.5 -21s16.5 -9.16602 28.5 -11.499s27.333 -3.5 46 -3.5c12.667 0 26 0.333008 40 1s27.667 2 41 4c11.333 2 17.333 -2.33301 18 -13l6 -69
c0.666992 -10.667 -3.66602 -17 -12.999 -19c-15.333 -3.33301 -33.833 -6.16602 -55.5 -8.49902s-45.167 -3.5 -70.5 -3.5c-40 0 -73 3.66699 -99 11s-46.5 17.666 -61.5 30.999s-25.333 29.333 -31 48s-8.5 39.667 -8.5 63c0 21.333 4 43.5 12 66.5s18.667 45.5 32 67.5
s29 42.667 47 62s36.667 36 56 50c-36 -3.33301 -69.833 -5.66602 -101.5 -6.99902s-59.167 -2 -82.5 -2c-81.333 0 -152 5 -212 15s-109.5 27.667 -148.5 53s-68 59.333 -87 102s-28.5 97 -28.5 163c0 43.333 3.33301 81.666 10 114.999s18.167 62.5 34.5 87.5
s38.333 45.833 66 62.5s62.5 30.167 104.5 40.5s92 17.666 150 21.999s125.667 6.5 203 6.5h132v70c0 45.333 -3.5 82.833 -10.5 112.5s-20.167 53.167 -39.5 70.5s-46.333 29.5 -81 36.5s-80 10.5 -136 10.5zM562.001 118.002c40 0 79.3311 1.16797 117.998 3.50098
s74.667 6.16602 108 11.499v365h-141c-84 0 -152 -2.5 -204 -7.5s-92.5 -14.167 -121.5 -27.5s-48.667 -32 -59 -56s-15.5 -55.333 -15.5 -94c0 -43.333 7.66699 -78 23 -104s36.833 -45.667 64.5 -59s60.834 -22 99.501 -26s81.334 -6 128.001 -6z" />
    <glyph glyph-name="Cacute" unicode="&#x106;" horiz-adv-x="1181" 
d="M743 -24c-97.333 0 -184.005 11.333 -260.005 34s-140.333 60.834 -193 114.501s-92.834 124.667 -120.501 213s-41.5 198.5 -41.5 330.5v140c0 131.333 13.833 241.166 41.5 329.499s67.834 159.333 120.501 213s117 91.834 193 114.501s162.667 34 260 34
c64.667 0 126.5 -3.33301 185.5 -10s109.167 -15.667 150.5 -27c10 -3.33301 14 -10 12 -20l-22 -130c-2 -10.667 -8.33301 -15 -19 -13c-46.667 9.33301 -96.167 16 -148.5 20s-103.166 6 -152.499 6c-70 0 -132.167 -8.16699 -186.5 -24.5s-100.166 -44 -137.499 -83
s-65.666 -91 -84.999 -156s-29 -146.167 -29 -243.5v-160c0 -98 9.66699 -179.667 29 -245s47.5 -117.5 84.5 -156.5s82.833 -66.5 137.5 -82.5s117 -24 187 -24c60 0 115.833 2 167.5 6s99.834 9.66699 144.501 17c11.333 2 17.333 -2.33301 18 -13l21 -132
c0.666992 -10.667 -3.66602 -17.334 -12.999 -20.001c-42 -10 -93.333 -17.833 -154 -23.5s-124 -8.5 -190 -8.5zM585.995 1604c-5.33301 0 -8.33203 1 -8.99902 3s0.666016 4.66699 3.99902 8l188 193c7.33301 7.33301 16.333 11 27 11h204c10.667 0 12 -3.33301 4 -10
l-237 -195c-4.66699 -3.33301 -9 -5.83301 -13 -7.5s-9 -2.5 -15 -2.5h-153z" />
    <glyph glyph-name="cacute" unicode="&#x107;" horiz-adv-x="963" 
d="M624 -24c-95.333 0 -175.167 8.33594 -239.5 25.0029s-116.166 44.667 -155.499 84s-67.5 91.5 -84.5 156.5s-25.5 146.167 -25.5 243.5v101c0 90.667 8 168.167 24 232.5s43.333 117 82 158s90.5 70.833 155.5 89.5s146.167 28 243.5 28c44.667 0 87.334 -2 128.001 -6
s78 -9 112 -15c11.333 -2 16 -8.33301 14 -19l-14 -115c-0.666992 -6 -2.33398 -10 -5.00098 -12s-7 -2.66699 -13 -2c-34 5.33301 -69.5 8.83301 -106.5 10.5s-74.167 2.5 -111.5 2.5c-68 0 -123.833 -6 -167.5 -18s-77.834 -32.333 -102.501 -61
s-41.667 -66.834 -51 -114.501s-14 -106.834 -14 -177.501v-65c0 -72 4.66699 -131.833 14 -179.5s26.333 -85.667 51 -114s58.667 -48.333 102 -60s99.333 -17.5 168 -17.5c40 0 78.5 1.16699 115.5 3.5s71.833 6.16602 104.5 11.499c6 0.666992 10.167 0 12.5 -2
s4.16602 -6 5.49902 -12l12 -116c2 -10.667 -2.66699 -17 -14 -19c-33.333 -6 -71.666 -11 -114.999 -15s-85 -6 -125 -6zM451.999 1264c-11.333 0 -13.667 4.33301 -7 13l160 238c6 8.66699 14.333 13 25 13h192c10.667 0 12.667 -4 6 -12l-202 -240
c-6 -8 -14.667 -12 -26 -12h-148z" />
    <glyph glyph-name="Ccaron" unicode="&#x10c;" horiz-adv-x="1181" 
d="M743 -24c-97.333 0 -184.005 11.333 -260.005 34s-140.333 60.834 -193 114.501s-92.834 124.667 -120.501 213s-41.5 198.5 -41.5 330.5v140c0 131.333 13.833 241.166 41.5 329.499s67.834 159.333 120.501 213s117 91.834 193 114.501s162.667 34 260 34
c64.667 0 126.5 -3.33301 185.5 -10s109.167 -15.667 150.5 -27c10 -3.33301 14 -10 12 -20l-22 -130c-2 -10.667 -8.33301 -15 -19 -13c-46.667 9.33301 -96.167 16 -148.5 20s-103.166 6 -152.499 6c-70 0 -132.167 -8.16699 -186.5 -24.5s-100.166 -44 -137.499 -83
s-65.666 -91 -84.999 -156s-29 -146.167 -29 -243.5v-160c0 -98 9.66699 -179.667 29 -245s47.5 -117.5 84.5 -156.5s82.833 -66.5 137.5 -82.5s117 -24 187 -24c60 0 115.833 2 167.5 6s99.834 9.66699 144.501 17c11.333 2 17.333 -2.33301 18 -13l21 -132
c0.666992 -10.667 -3.66602 -17.334 -12.999 -20.001c-42 -10 -93.333 -17.833 -154 -23.5s-124 -8.5 -190 -8.5zM395.995 1808c-7.33301 7.33301 -6 11 4 11h165c10.667 0 19.667 -4 27 -12l97 -103h20l97 103c7.33301 8 16.333 12 27 12h165c10 0 11.333 -3.66699 4 -11
l-207 -193c-8 -7.33301 -17.333 -11 -28 -11h-136c-10.667 0 -20 3.66699 -28 11z" />
    <glyph glyph-name="ccaron" unicode="&#x10d;" horiz-adv-x="963" 
d="M624 -24c-95.333 0 -175.167 8.33594 -239.5 25.0029s-116.166 44.667 -155.499 84s-67.5 91.5 -84.5 156.5s-25.5 146.167 -25.5 243.5v101c0 90.667 8 168.167 24 232.5s43.333 117 82 158s90.5 70.833 155.5 89.5s146.167 28 243.5 28c44.667 0 87.334 -2 128.001 -6
s78 -9 112 -15c11.333 -2 16 -8.33301 14 -19l-14 -115c-0.666992 -6 -2.33398 -10 -5.00098 -12s-7 -2.66699 -13 -2c-34 5.33301 -69.5 8.83301 -106.5 10.5s-74.167 2.5 -111.5 2.5c-68 0 -123.833 -6 -167.5 -18s-77.834 -32.333 -102.501 -61
s-41.667 -66.834 -51 -114.501s-14 -106.834 -14 -177.501v-65c0 -72 4.66699 -131.833 14 -179.5s26.333 -85.667 51 -114s58.667 -48.333 102 -60s99.333 -17.5 168 -17.5c40 0 78.5 1.16699 115.5 3.5s71.833 6.16602 104.5 11.499c6 0.666992 10.167 0 12.5 -2
s4.16602 -6 5.49902 -12l12 -116c2 -10.667 -2.66699 -17 -14 -19c-33.333 -6 -71.666 -11 -114.999 -15s-85 -6 -125 -6zM260.999 1516c-6.66699 8 -4.66699 12 6 12h153c10.667 0 19 -4.33301 25 -13l100 -138h20l100 138c6 8.66699 14.333 13 25 13h154
c10.667 0 12.667 -4 6 -12l-198 -243c-4 -4.66699 -7.83301 -7.83398 -11.5 -9.50098s-8.5 -2.5 -14.5 -2.5h-141c-6 0 -10.833 0.833008 -14.5 2.5s-7.5 4.83398 -11.5 9.50098z" />
    <glyph glyph-name="Dcaron" unicode="&#x10e;" horiz-adv-x="1403" 
d="M555 -16c-24 0 -50.502 0.331055 -79.502 0.998047s-58.833 1.5 -89.5 2.5s-61.667 2.33301 -93 4s-61.333 3.83398 -90 6.50098c-6 1.33301 -10.167 3.16602 -12.5 5.49902s-3.5 6.5 -3.5 12.5v1443c0 10.667 5.33301 16.334 16 17.001c28 2 58.167 3.66699 90.5 5
s64.5 2.5 96.5 3.5s62.333 1.66699 91 2s53 0.5 73 0.5c71.333 0 138.833 -3.16699 202.5 -9.5s122.334 -18.333 176.001 -36s101.834 -42.5 144.501 -74.5s78.834 -73.667 108.501 -125s52.334 -113.666 68.001 -186.999s23.5 -160 23.5 -260v-113
c0 -100 -7.83301 -186.833 -23.5 -260.5s-38.334 -136.334 -68.001 -188.001s-65.667 -93.667 -108 -126s-90.333 -57.666 -144 -75.999s-112.334 -30.833 -176.001 -37.5s-131.167 -10 -202.5 -10zM584.998 1324c-14.667 0 -31.666 -0.166016 -50.999 -0.499023
s-39.166 -0.833008 -59.499 -1.5s-40 -1.5 -59 -2.5s-35.5 -2.16699 -49.5 -3.5v-1159c16 -2 34 -3.5 54 -4.5l61 -3c20.667 -1 40.834 -1.66699 60.501 -2s37.5 -0.5 53.5 -0.5c55.333 0 106.166 2.83301 152.499 8.5s88.166 15.834 125.499 30.501s70 34.667 98 60
s51.333 57.666 70 96.999s32.667 86.5 42 141.5s14 119.5 14 193.5v119c0 73.333 -4.83301 137.333 -14.5 192s-24 101.5 -43 140.5s-42.833 71.167 -71.5 96.5s-61.834 45.166 -99.501 59.499s-80.167 24.333 -127.5 30s-99.333 8.5 -156 8.5zM330.999 1808
c-7.33301 7.33301 -6 11 4 11h165c10.667 0 19.667 -4 27 -12l97 -103h20l97 103c7.33301 8 16.333 12 27 12h165c10 0 11.333 -3.66699 4 -11l-207 -193c-8 -7.33301 -17.333 -11 -28 -11h-136c-10.667 0 -20 3.66699 -28 11z" />
    <glyph glyph-name="dcaron" unicode="&#x10f;" horiz-adv-x="1174" 
d="M616 941c-67.333 0 -122.166 -5.83203 -164.499 -17.499s-75.666 -31.667 -99.999 -60s-41 -65.833 -50 -112.5s-13.5 -105 -13.5 -175v-74c0 -72 4.5 -132 13.5 -180s25.667 -86.333 50 -115s58.166 -49 101.499 -61s99.333 -18 168 -18c38 0 76.667 1.33301 116 4
s75.333 6 108 10v779c-15.333 3.33301 -32.833 6.16602 -52.5 8.49902s-39.834 4.33301 -60.501 6s-41 3 -61 4s-38.333 1.5 -55 1.5zM623 -23.999c-96 0 -176.168 8.33301 -240.501 25s-115.833 44.334 -154.5 83.001s-66.167 89.667 -82.5 153s-24.5 142 -24.5 236v126
c0 92.667 7.83301 170.5 23.5 233.5s42.5 113.833 80.5 152.5s88.5 66.5 151.5 83.5s141.5 25.5 235.5 25.5c40 0 80.5 -2.33301 121.5 -7s78.167 -10.334 111.5 -17.001v516c0 10.667 5.33301 17 16 19l140 22c10.667 2 16 -2.33301 16 -13v-1590
c0 -11.333 -5.33301 -17.333 -16 -18c-66 -10 -130.667 -17.5 -194 -22.5s-124.666 -7.5 -183.999 -7.5zM1140 1194c-10.667 0 -15.999 5.33301 -15.999 16v376c0 11.333 5.33301 17.333 16 18l139 23c10.667 0.666992 15.667 -4 15 -14l-30 -403
c-0.666992 -10.667 -6.33398 -16 -17.001 -16h-107z" />
    <glyph glyph-name="Dcroat" unicode="&#x110;" horiz-adv-x="1413" 
d="M564 -16c-24 0 -50.502 0.331055 -79.502 0.998047s-58.833 1.5 -89.5 2.5s-61.667 2.33301 -93 4s-61.333 3.83398 -90 6.50098c-6 1.33301 -10.167 3.16602 -12.5 5.49902s-3.5 6.5 -3.5 12.5v682h-137c-10.667 0 -16 5.33301 -16 16v135c0 10.667 5.33301 16 16 16
h137v594c0 10.667 5.33301 16.334 16 17.001c28 2 58.167 3.66699 90.5 5s64.5 2.5 96.5 3.5s62.333 1.66699 91 2s53 0.5 73 0.5c71.333 0 138.833 -3.16699 202.5 -9.5s122.334 -18.333 176.001 -36s101.834 -42.5 144.501 -74.5s78.834 -73.667 108.501 -125
s52.334 -113.666 68.001 -186.999s23.5 -160 23.5 -260v-113c0 -100 -7.83301 -186.833 -23.5 -260.5s-38.334 -136.334 -68.001 -188.001s-65.667 -93.667 -108 -126s-90.333 -57.666 -144 -75.999s-112.334 -30.833 -176.001 -37.5s-131.167 -10 -202.5 -10zM593.998 1324
c-14.667 0 -31.666 -0.166016 -50.999 -0.499023s-39.166 -0.833008 -59.499 -1.5s-40 -1.5 -59 -2.5s-35.5 -2.16699 -49.5 -3.5v-451h259c10.667 0 16 -5.33301 16 -16v-135c0 -10.667 -5.33301 -16 -16 -16h-259v-541c16 -2 34 -3.5 54 -4.5l61 -3
c20.667 -1 40.834 -1.66699 60.501 -2s37.5 -0.5 53.5 -0.5c55.333 0 106.166 2.83301 152.499 8.5s88.166 15.834 125.499 30.501s70 34.667 98 60s51.333 57.666 70 96.999s32.667 86.5 42 141.5s14 119.5 14 193.5v119c0 73.333 -4.83301 137.333 -14.5 192
s-24 101.5 -43 140.5s-42.833 71.167 -71.5 96.5s-61.834 45.166 -99.501 59.499s-80.167 24.333 -127.5 30s-99.333 8.5 -156 8.5z" />
    <glyph glyph-name="dcroat" unicode="&#x111;" horiz-adv-x="1174" 
d="M623 -24c-96 0 -176.168 8.33301 -240.501 25s-115.833 44.334 -154.5 83.001s-66.167 89.667 -82.5 153s-24.5 142 -24.5 236v126c0 92.667 7.83301 170.5 23.5 233.5s42.5 113.833 80.5 152.5s88.5 66.5 151.5 83.5s141.5 25.5 235.5 25.5c40 0 80.5 -2.33301 121.5 -7
s78.167 -10.334 111.5 -17.001v186h-300c-10.667 0 -16 5.33301 -16 16v96c0 10.667 5.33301 16 16 16h300v202c0 10.667 5.33301 17 16 19l140 22c10.667 2 16 -2.33301 16 -13v-230h122c10.667 0 16 -5.33301 16 -16v-96c0 -10.667 -5.33301 -16 -16 -16h-122v-1232
c0 -11.333 -5.33301 -17.333 -16 -18c-66 -10 -130.667 -17.5 -194 -22.5s-124.666 -7.5 -183.999 -7.5zM615.999 941c-67.333 0 -122.166 -5.83203 -164.499 -17.499s-75.666 -31.667 -99.999 -60s-41 -65.833 -50 -112.5s-13.5 -105 -13.5 -175v-74
c0 -72 4.5 -132 13.5 -180s25.667 -86.333 50 -115s58.166 -49 101.499 -61s99.333 -18 168 -18c38 0 76.667 1.33301 116 4s75.333 6 108 10v779c-15.333 3.33301 -32.833 6.16602 -52.5 8.49902s-39.834 4.33301 -60.501 6s-41 3 -61 4s-38.333 1.5 -55 1.5z" />
    <glyph glyph-name="Emacron" unicode="&#x112;" horiz-adv-x="1191" 
d="M204 0c-10.667 0 -16 5.33301 -16 16v1443c0 10.667 5.33301 16 16 16h854c10.667 0 16 -5.33301 16 -16v-144c0 -10.667 -5.33301 -16 -16 -16h-690v-427h581c10.667 0 16 -5.33301 16 -16v-143c0 -10.667 -5.33301 -16 -16 -16h-581v-522h690
c10.667 0 16 -5.33301 16 -16v-143c0 -10.667 -5.33301 -16 -16 -16h-854zM364 1633c-10.667 0 -16 5.33301 -16 16v102c0 10.667 5.33301 16 16 16h494c10.667 0 16 -5.33301 16 -16v-102c0 -10.667 -5.33301 -16 -16 -16h-494z" />
    <glyph glyph-name="emacron" unicode="&#x113;" horiz-adv-x="1157" 
d="M601 -24c-87.333 0 -161.664 9.33105 -222.997 27.998s-111.166 48.667 -149.499 90s-66.333 95 -84 161s-26.5 146.333 -26.5 241v88c0 86.667 8.5 162 25.5 226s44.167 117 81.5 159s85.833 73.333 145.5 94s132.5 31 218.5 31c84.667 0 157 -10 217 -30
s108.667 -50.167 146 -90.5s64.666 -90.833 81.999 -151.5s26 -131.667 26 -213c0 -31.333 -1.5 -59 -4.5 -83s-5.83301 -42 -8.5 -54c-2 -10.667 -8.33301 -16 -19 -16l-739 -1c2 -63.333 8.83301 -116 20.5 -158s30 -75.5 55 -100.5s57.5 -42.833 97.5 -53.5
s89.333 -16 148 -16c28.667 0 57 0.166992 85 0.5s56 1.33301 84 3s56.667 3.83398 86 6.50098s59.666 6.33398 90.999 11.001c6 0.666992 10.167 0 12.5 -2s4.16602 -6 5.49902 -12l12 -111c2 -10.667 -2.66699 -17 -14 -19c-59.333 -10 -118.333 -17.167 -177 -21.5
s-123.334 -6.5 -194.001 -6.5zM903.002 607.998c-2.66699 58.667 -9.66699 109.167 -21 151.5s-29 77 -53 104s-55.5 46.833 -94.5 59.5s-87.5 19 -145.5 19c-56.667 0 -104.167 -6.5 -142.5 -19.5s-69 -33.5 -92 -61.5s-39.667 -63.833 -50 -107.5
s-15.833 -96.167 -16.5 -157.5zM325.002 1318c-10.667 0 -16 5.33301 -16 16v111c0 10.667 5.33301 16 16 16h494c10.667 0 16 -5.33301 16 -16v-111c0 -10.667 -5.33301 -16 -16 -16h-494z" />
    <glyph glyph-name="Edotaccent" unicode="&#x116;" horiz-adv-x="1191" 
d="M204 0c-10.667 0 -16 5.33301 -16 16v1443c0 10.667 5.33301 16 16 16h854c10.667 0 16 -5.33301 16 -16v-144c0 -10.667 -5.33301 -16 -16 -16h-690v-427h581c10.667 0 16 -5.33301 16 -16v-143c0 -10.667 -5.33301 -16 -16 -16h-581v-522h690
c10.667 0 16 -5.33301 16 -16v-143c0 -10.667 -5.33301 -16 -16 -16h-854zM537 1604c-10.667 0 -16 5.33301 -16 16v199c0 10.667 5.33301 17 16 19l148 23c10.667 2 16 -2.33301 16 -13v-228c0 -10.667 -5.33301 -16 -16 -16h-148z" />
    <glyph glyph-name="edotaccent" unicode="&#x117;" horiz-adv-x="1157" 
d="M601 -24c-87.333 0 -161.664 9.33105 -222.997 27.998s-111.166 48.667 -149.499 90s-66.333 95 -84 161s-26.5 146.333 -26.5 241v88c0 86.667 8.5 162 25.5 226s44.167 117 81.5 159s85.833 73.333 145.5 94s132.5 31 218.5 31c84.667 0 157 -10 217 -30
s108.667 -50.167 146 -90.5s64.666 -90.833 81.999 -151.5s26 -131.667 26 -213c0 -31.333 -1.5 -59 -4.5 -83s-5.83301 -42 -8.5 -54c-2 -10.667 -8.33301 -16 -19 -16l-739 -1c2 -63.333 8.83301 -116 20.5 -158s30 -75.5 55 -100.5s57.5 -42.833 97.5 -53.5
s89.333 -16 148 -16c28.667 0 57 0.166992 85 0.5s56 1.33301 84 3s56.667 3.83398 86 6.50098s59.666 6.33398 90.999 11.001c6 0.666992 10.167 0 12.5 -2s4.16602 -6 5.49902 -12l12 -111c2 -10.667 -2.66699 -17 -14 -19c-59.333 -10 -118.333 -17.167 -177 -21.5
s-123.334 -6.5 -194.001 -6.5zM903.002 607.998c-2.66699 58.667 -9.66699 109.167 -21 151.5s-29 77 -53 104s-55.5 46.833 -94.5 59.5s-87.5 19 -145.5 19c-56.667 0 -104.167 -6.5 -142.5 -19.5s-69 -33.5 -92 -61.5s-39.667 -63.833 -50 -107.5
s-15.833 -96.167 -16.5 -157.5zM517.002 1243c-10.667 0 -16 5.33301 -16 16v265c0 10.667 5.33301 17 16 19l148 23c10.667 2 16 -2.33301 16 -13v-294c0 -10.667 -5.33301 -16 -16 -16h-148z" />
    <glyph glyph-name="Eogonek" unicode="&#x118;" horiz-adv-x="1191" 
d="M946 -306c17.333 0 34.3311 0.49707 50.998 1.49707s32.667 2.16699 48 3.5c6 0.666992 10.333 0 13 -2s4.33398 -6 5.00098 -12l9 -68c2 -10 -2.66699 -16.333 -14 -19c-17.333 -3.33301 -38.166 -6.16602 -62.499 -8.49902s-49.166 -3.5 -74.499 -3.5
c-40.667 0 -74.667 3.5 -102 10.5s-49.5 17.333 -66.5 31s-29.167 30.5 -36.5 50.5s-11 43.333 -11 70c0 21.333 3.66699 43.833 11 67.5s17.333 46.834 30 69.501s27.5 44 44.5 64s34.833 37 53.5 51h-640c-10.667 0 -16 5.33301 -16 16v1443c0 10.667 5.33301 16 16 16
h854c10.667 0 16 -5.33301 16 -16v-144c0 -10.667 -5.33301 -16 -16 -16h-690v-427h581c10.667 0 16 -5.33301 16 -16v-143c0 -10.667 -5.33301 -16 -16 -16h-581v-522h690c10.667 0 16 -5.33301 16 -16v-143c0 -10.667 -5.33301 -16 -16 -16h-70
c-20.667 -15.333 -39.667 -32.666 -57 -51.999s-32.333 -39.5 -45 -60.5s-22.5 -42 -29.5 -63s-10.5 -40.167 -10.5 -57.5c0 -12.667 1.16699 -23.667 3.5 -33s7 -17 14 -23s17.167 -10.333 30.5 -13s30.666 -4 51.999 -4z" />
    <glyph glyph-name="eogonek" unicode="&#x119;" horiz-adv-x="1159" 
d="M892 -306c17.333 0 34.334 0.496094 51.001 1.49609s32.667 2.16699 48 3.5c6 0.666992 10.333 0 13 -2s4.33398 -6 5.00098 -12l9 -68c2 -10 -2.66699 -16.333 -14 -19c-17.333 -3.33301 -38.166 -6.16602 -62.499 -8.49902s-49.166 -3.5 -74.499 -3.5
c-40.667 0 -74.667 3.5 -102 10.5s-49.5 17.333 -66.5 31s-29.167 30.5 -36.5 50.5s-11 43.333 -11 70c0 19.333 3 39.5 9 60.5s14.167 41.833 24.5 62.5s22.666 40.334 36.999 59.001s29.5 35.667 45.5 51c-26 -1.33301 -52.667 -2.5 -80 -3.5s-56 -1.5 -86 -1.5
c-87.333 0 -161.666 9.33301 -222.999 28s-111.166 48.667 -149.499 90s-66.333 95 -84 161s-26.5 146.333 -26.5 241v88c0 86.667 8.5 162 25.5 226s44.167 117 81.5 159s85.833 73.333 145.5 94s132.5 31 218.5 31c84.667 0 157 -10 217 -30s108.667 -50.167 146 -90.5
s64.666 -90.833 81.999 -151.5s26 -131.667 26 -213c0 -31.333 -1.5 -59 -4.5 -83s-5.83301 -42 -8.5 -54c-2 -10.667 -8.33301 -16 -19 -16l-739 -1c2 -63.333 8.83301 -116 20.5 -158s30 -75.5 55 -100.5s57.5 -42.833 97.5 -53.5s89.333 -16 148 -16
c28.667 0 57 0.166992 85 0.5s56 1.33301 84 3s56.667 3.83398 86 6.50098s59.666 6.33398 90.999 11.001c6 0.666992 10.167 0 12.5 -2s4.16602 -6 5.49902 -12l12 -111c2 -10.667 -2.66699 -17 -14 -19c-7.33301 -1.33301 -14.333 -2.33301 -21 -3
s-13.334 -1.66699 -20.001 -3c-20 -15.333 -38.5 -32.666 -55.5 -51.999s-31.667 -39.333 -44 -60s-22 -41.334 -29 -62.001s-10.5 -39.667 -10.5 -57c0 -12.667 1.16699 -23.667 3.5 -33s7 -17 14 -23s17.167 -10.333 30.5 -13s30.666 -4 51.999 -4zM903.001 607.996
c-2.66699 58.667 -9.66699 109.167 -21 151.5s-29 77 -53 104s-55.5 46.833 -94.5 59.5s-87.5 19 -145.5 19c-56.667 0 -104.167 -6.5 -142.5 -19.5s-69 -33.5 -92 -61.5s-39.667 -63.833 -50 -107.5s-15.833 -96.167 -16.5 -157.5z" />
    <glyph glyph-name="Ecaron" unicode="&#x11a;" horiz-adv-x="1191" 
d="M204 0c-10.667 0 -16 5.33301 -16 16v1443c0 10.667 5.33301 16 16 16h854c10.667 0 16 -5.33301 16 -16v-144c0 -10.667 -5.33301 -16 -16 -16h-690v-427h581c10.667 0 16 -5.33301 16 -16v-143c0 -10.667 -5.33301 -16 -16 -16h-581v-522h690
c10.667 0 16 -5.33301 16 -16v-143c0 -10.667 -5.33301 -16 -16 -16h-854zM308 1808c-7.33301 7.33301 -6 11 4 11h165c10.667 0 19.667 -4 27 -12l97 -103h20l97 103c7.33301 8 16.333 12 27 12h165c10 0 11.333 -3.66699 4 -11l-207 -193c-8 -7.33301 -17.333 -11 -28 -11
h-136c-10.667 0 -20 3.66699 -28 11z" />
    <glyph glyph-name="ecaron" unicode="&#x11b;" horiz-adv-x="1157" 
d="M601 -24c-87.333 0 -161.664 9.33105 -222.997 27.998s-111.166 48.667 -149.499 90s-66.333 95 -84 161s-26.5 146.333 -26.5 241v88c0 86.667 8.5 162 25.5 226s44.167 117 81.5 159s85.833 73.333 145.5 94s132.5 31 218.5 31c84.667 0 157 -10 217 -30
s108.667 -50.167 146 -90.5s64.666 -90.833 81.999 -151.5s26 -131.667 26 -213c0 -31.333 -1.5 -59 -4.5 -83s-5.83301 -42 -8.5 -54c-2 -10.667 -8.33301 -16 -19 -16l-739 -1c2 -63.333 8.83301 -116 20.5 -158s30 -75.5 55 -100.5s57.5 -42.833 97.5 -53.5
s89.333 -16 148 -16c28.667 0 57 0.166992 85 0.5s56 1.33301 84 3s56.667 3.83398 86 6.50098s59.666 6.33398 90.999 11.001c6 0.666992 10.167 0 12.5 -2s4.16602 -6 5.49902 -12l12 -111c2 -10.667 -2.66699 -17 -14 -19c-59.333 -10 -118.333 -17.167 -177 -21.5
s-123.334 -6.5 -194.001 -6.5zM903.002 607.998c-2.66699 58.667 -9.66699 109.167 -21 151.5s-29 77 -53 104s-55.5 46.833 -94.5 59.5s-87.5 19 -145.5 19c-56.667 0 -104.167 -6.5 -142.5 -19.5s-69 -33.5 -92 -61.5s-39.667 -63.833 -50 -107.5
s-15.833 -96.167 -16.5 -157.5zM299.002 1516c-6.66699 8 -4.66699 12 6 12h153c10.667 0 19 -4.33301 25 -13l100 -138h20l100 138c6 8.66699 14.333 13 25 13h154c10.667 0 12.667 -4 6 -12l-198 -243c-4 -4.66699 -7.83301 -7.83398 -11.5 -9.50098s-8.5 -2.5 -14.5 -2.5
h-141c-6 0 -10.833 0.833008 -14.5 2.5s-7.5 4.83398 -11.5 9.50098z" />
    <glyph glyph-name="Gbreve" unicode="&#x11e;" horiz-adv-x="1281" 
d="M689 622c-10.667 0 -16 5.33105 -16 15.998v130c0 10.667 5.33301 16 16 16h439c10.667 0 16 -5.33301 16 -16l1 -19l1 -700c0 -10.667 -5 -17.667 -15 -21c-66.667 -21.333 -133.5 -35.333 -200.5 -42s-130.833 -10 -191.5 -10c-99.333 0 -187 11.333 -263 34
s-139.667 60.834 -191 114.501s-90.166 124.667 -116.499 213s-39.5 198.5 -39.5 330.5v140c0 131.333 13.5 241.166 40.5 329.499s66.833 159.333 119.5 213s117.667 91.834 195 114.501s166 34 266 34c30 0 60.5 -0.833008 91.5 -2.5s61 -4.16699 90 -7.5
s56.667 -7.33301 83 -12s49.833 -10 70.5 -16c10 -3.33301 14 -10 12 -20l-23 -129c-2 -10.667 -8.33301 -15 -19 -13c-46.667 8.66699 -95.834 14.834 -147.501 18.501s-102.167 5.5 -151.5 5.5c-74 0 -138.833 -8 -194.5 -24s-102 -43.333 -139 -82
s-64.667 -90.5 -83 -155.5s-27.5 -146.167 -27.5 -243.5v-160c0 -98 8.66699 -179.5 26 -244.5s43.5 -116.833 78.5 -155.5s79.167 -66 132.5 -82s115.666 -24 186.999 -24c46.667 0 88.834 1.5 126.501 4.5s72.5 7.16699 104.5 12.5v445zM674 1580
c-48.667 0 -89.6689 5.33301 -123.002 16s-60.666 25.834 -81.999 45.501s-37.333 43.834 -48 72.501s-17.667 61 -21 97c-0.666992 10.667 4.33301 16 15 16h108c10.667 0 17 -5.33301 19 -16c3.33301 -21.333 9.33301 -39.166 18 -53.499s19 -26 31 -35s25 -15.333 39 -19
s28.667 -5.5 44 -5.5c14.667 0 29.167 1.83301 43.5 5.5s27.5 10 39.5 19s22.333 20.667 31 35s14.667 32.166 18 53.499c2 10.667 8.33301 16 19 16h108c10.667 0 15.667 -5.33301 15 -16c-3.33301 -36 -10.333 -68.333 -21 -97s-26.667 -52.834 -48 -72.501
s-48.666 -34.834 -81.999 -45.501s-74.333 -16 -123 -16z" />
    <glyph glyph-name="gbreve" unicode="&#x11f;" horiz-adv-x="1174" 
d="M597 1258c-50.667 0 -92.832 5.83301 -126.499 17.5s-61 28.5 -82 50.5s-36.5 48.667 -46.5 80s-16.333 66.333 -19 105c-0.666992 10.667 4.33301 16 15 16h109c6 0 10.167 -1.16699 12.5 -3.5s4.16602 -6.5 5.49902 -12.5c6 -47.333 19.833 -79.666 41.5 -96.999
s51.834 -26 90.501 -26s68.834 8.66699 90.501 26s35.5 49.666 41.5 96.999c1.33301 6 3.16602 10.167 5.49902 12.5s6.5 3.5 12.5 3.5h109c10.667 0 15.667 -5.33301 15 -16c-2.66699 -38.667 -9 -73.667 -19 -105s-25.5 -58 -46.5 -80s-48.333 -38.833 -82 -50.5
s-75.834 -17.5 -126.501 -17.5zM617.002 943c-68 0 -123.504 -6.16895 -166.504 -18.502s-76.5 -32.833 -100.5 -61.5s-40.333 -66.667 -49 -114s-13 -106 -13 -176v-75c0 -69.333 4.33301 -127.166 13 -173.499s25.334 -83.5 50.001 -111.5s59 -48 103 -60s101 -18 171 -18
c16 0 33.833 0.5 53.5 1.5s39.334 2.33301 59.001 4s38.834 3.83398 57.501 6.50098s35.334 5.66699 50.001 9v774c-34 4 -70.5 7.16699 -109.5 9.5s-78.5 3.5 -118.5 3.5zM492.998 -475.002c-20 0 -41.832 0.498047 -65.499 1.49805s-47.667 2.5 -72 4.5
s-48.5 4.66699 -72.5 8s-46 7.33301 -66 12c-11.333 2.66699 -16 9.33398 -14 20.001l11 111c1.33301 5.33301 3.16602 9 5.49902 11s6.5 2.33301 12.5 1c36.667 -7.33301 77 -12.5 121 -15.5s85 -4.5 123 -4.5c69.333 0 127.666 4.16699 174.999 12.5s85.333 24.5 114 48.5
s49.167 57.5 61.5 100.5s18.5 99.167 18.5 168.5c-30 -7.33301 -64.667 -13.166 -104 -17.499s-80.333 -6.5 -123 -6.5c-95.333 0 -174.833 8.66699 -238.5 26s-114.667 45.5 -153 84.5s-65.5 89.833 -81.5 152.5s-24 139.667 -24 231v126c0 93.333 8 171.5 24 234.5
s43.333 113.833 82 152.5s89.834 66.167 153.501 82.5s143.5 24.5 239.5 24.5c58.667 0 121.167 -2.16699 187.5 -6.5s130.833 -11.5 193.5 -21.5c10.667 -2 16 -8.33301 16 -19v-1041c0 -98.667 -10.833 -179.167 -32.5 -241.5s-54.167 -111.333 -97.5 -147
s-97.833 -60 -163.5 -73s-142.5 -19.5 -230.5 -19.5z" />
    <glyph glyph-name="Gcommaaccent" unicode="&#x122;" horiz-adv-x="1283" 
d="M689 622c-10.667 0 -16 5.33105 -16 15.998v130c0 10.667 5.33301 16 16 16h439c10.667 0 16 -5.33301 16 -16l1 -19l1 -700c0 -10.667 -5 -17.667 -15 -21c-66.667 -21.333 -133.5 -35.333 -200.5 -42s-130.833 -10 -191.5 -10c-99.333 0 -187 11.333 -263 34
s-139.667 60.834 -191 114.501s-90.166 124.667 -116.499 213s-39.5 198.5 -39.5 330.5v140c0 131.333 13.5 241.166 40.5 329.499s66.833 159.333 119.5 213s117.667 91.834 195 114.501s166 34 266 34c30 0 60.5 -0.833008 91.5 -2.5s61 -4.16699 90 -7.5
s56.667 -7.33301 83 -12s49.833 -10 70.5 -16c10 -3.33301 14 -10 12 -20l-23 -129c-2 -10.667 -8.33301 -15 -19 -13c-46.667 8.66699 -95.834 14.834 -147.501 18.501s-102.167 5.5 -151.5 5.5c-74 0 -138.833 -8 -194.5 -24s-102 -43.333 -139 -82
s-64.667 -90.5 -83 -155.5s-27.5 -146.167 -27.5 -243.5v-160c0 -98 8.66699 -179.5 26 -244.5s43.5 -116.833 78.5 -155.5s79.167 -66 132.5 -82s115.666 -24 186.999 -24c46.667 0 88.834 1.5 126.501 4.5s72.5 7.16699 104.5 12.5v445zM585 -439.002
c-11.333 0 -15.334 5 -12.001 15l61 276c2.66699 10 9.33398 16 20.001 18l151 21c12.667 2 16.667 -2.66699 12 -14l-108 -301c-3.33301 -10 -10.333 -15 -21 -15h-103z" />
    <glyph glyph-name="gcommaaccent" unicode="&#x123;" horiz-adv-x="1174" 
d="M529 1257c-10 -0.666992 -13.666 3.66797 -10.999 13.001l107 290c3.33301 10 10.333 15 21 15h129c10.667 0 14.667 -5 12 -15l-75 -263c-2.66699 -10.667 -9.33398 -16.334 -20.001 -17.001zM617.001 943.002c-68 0 -123.504 -6.16895 -166.504 -18.502
s-76.5 -32.833 -100.5 -61.5s-40.333 -66.667 -49 -114s-13 -106 -13 -176v-75c0 -69.333 4.33301 -127.166 13 -173.499s25.334 -83.5 50.001 -111.5s59 -48 103 -60s101 -18 171 -18c16 0 33.833 0.5 53.5 1.5s39.334 2.33301 59.001 4s38.834 3.83398 57.501 6.50098
s35.334 5.66699 50.001 9v774c-34 4 -70.5 7.16699 -109.5 9.5s-78.5 3.5 -118.5 3.5zM492.997 -475c-20 0 -41.832 0.498047 -65.499 1.49805s-47.667 2.5 -72 4.5s-48.5 4.66699 -72.5 8s-46 7.33301 -66 12c-11.333 2.66699 -16 9.33398 -14 20.001l11 111
c1.33301 5.33301 3.16602 9 5.49902 11s6.5 2.33301 12.5 1c36.667 -7.33301 77 -12.5 121 -15.5s85 -4.5 123 -4.5c69.333 0 127.666 4.16699 174.999 12.5s85.333 24.5 114 48.5s49.167 57.5 61.5 100.5s18.5 99.167 18.5 168.5
c-30 -7.33301 -64.667 -13.166 -104 -17.499s-80.333 -6.5 -123 -6.5c-95.333 0 -174.833 8.66699 -238.5 26s-114.667 45.5 -153 84.5s-65.5 89.833 -81.5 152.5s-24 139.667 -24 231v126c0 93.333 8 171.5 24 234.5s43.333 113.833 82 152.5s89.834 66.167 153.501 82.5
s143.5 24.5 239.5 24.5c58.667 0 121.167 -2.16699 187.5 -6.5s130.833 -11.5 193.5 -21.5c10.667 -2 16 -8.33301 16 -19v-1041c0 -98.667 -10.833 -179.167 -32.5 -241.5s-54.167 -111.333 -97.5 -147s-97.833 -60 -163.5 -73s-142.5 -19.5 -230.5 -19.5z" />
    <glyph glyph-name="Imacron" unicode="&#x12a;" horiz-adv-x="556" 
d="M63 1646c-10.667 0 -16 5.33301 -16 16v101c0 10.667 5.33301 16 16 16h408c10.667 0 16 -5.33301 16 -16v-101c0 -10.667 -5.33301 -16 -16 -16h-408zM204 0c-10.667 0 -16 5.33301 -16 16v1443c0 10.667 5.33301 16 16 16h148c10.667 0 16 -5.33301 16 -16v-1443
c0 -10.667 -5.33301 -16 -16 -16h-148z" />
    <glyph glyph-name="imacron" unicode="&#x12b;" horiz-adv-x="501" 
d="M57 1293c-10.667 0 -16 5.33301 -16 16v102c0 10.667 5.33301 16 16 16h388c10.667 0 16 -5.33301 16 -16v-102c0 -10.667 -5.33301 -16 -16 -16h-388zM181 0c-10.667 0 -16 5.33301 -16 16v1039c0 10.667 5.33301 16 16 16h140c10.667 0 16 -5.33301 16 -16v-1039
c0 -10.667 -5.33301 -16 -16 -16h-140z" />
    <glyph glyph-name="Ibreve" unicode="&#x12c;" horiz-adv-x="555" 
d="M277 1584c-45.333 0 -83.4971 5 -114.497 15s-56.167 24.667 -75.5 44s-34 43 -44 71s-16.333 60.333 -19 97c-0.666992 10.667 4.33301 16 15 16h96c6 0 10.167 -1.16699 12.5 -3.5s4.16602 -6.5 5.49902 -12.5c3.33301 -23.333 9 -42.666 17 -57.999
s17.5 -27.666 28.5 -36.999s23.167 -16 36.5 -20s27.333 -6 42 -6s28.834 2 42.501 6s26 10.667 37 20s20.5 21.666 28.5 36.999s13.667 34.666 17 57.999c1.33301 6 3.16602 10.167 5.49902 12.5s6.5 3.5 12.5 3.5h96c10.667 0 15.667 -5.33301 15 -16
c-2.66699 -36.667 -8.83398 -69 -18.501 -97s-24.334 -51.667 -44.001 -71s-45 -34 -76 -44s-69.5 -15 -115.5 -15zM203.003 0c-10.667 0 -16 5.33301 -16 16v1443c0 10.667 5.33301 16 16 16h148c10.667 0 16 -5.33301 16 -16v-1443c0 -10.667 -5.33301 -16 -16 -16h-148z
" />
    <glyph glyph-name="ibreve" unicode="&#x12d;" horiz-adv-x="502" 
d="M245 1265c-47.333 0 -86.502 6 -117.502 18s-56 29 -75 51s-32.833 48.667 -41.5 80s-14.334 66.333 -17.001 105c-0.666992 10.667 4.33301 16 15 16h105c10.667 0 16.334 -5.33301 17.001 -16c2.66699 -28.667 7.33398 -52.5 14.001 -71.5s15 -34.333 25 -46
s21.333 -19.834 34 -24.501s26.334 -7 41.001 -7c16 0 31 2.33301 45 7s26.5 12.834 37.5 24.501s20.167 27 27.5 46s12.666 42.833 15.999 71.5c0.666992 10.667 6.33398 16 17.001 16h104c10.667 0 15.667 -5.33301 15 -16c-2.66699 -38.667 -8.66699 -73.667 -18 -105
s-24 -58 -44 -80s-46.167 -39 -78.5 -51s-72.833 -18 -121.5 -18zM180.998 0c-10.667 0 -16 5.33301 -16 16v1039c0 10.667 5.33301 16 16 16h140c10.667 0 16 -5.33301 16 -16v-1039c0 -10.667 -5.33301 -16 -16 -16h-140z" />
    <glyph glyph-name="Iogonek" unicode="&#x12e;" horiz-adv-x="556" 
d="M49 -247c0 18.667 3.3291 39.667 9.99609 63s16 46.833 28 70.5s26.5 46.5 43.5 68.5s36.167 41.333 57.5 58v1446c0 10.667 5.33301 16 16 16h148c10.667 0 16 -5.33301 16 -16v-1443c0 -5.33301 -0.333008 -8.83301 -1 -10.5s-2.66699 -3.16699 -6 -4.5
c-23.333 -12.667 -45.666 -28.334 -66.999 -47.001s-40 -38.5 -56 -59.5s-28.667 -42.5 -38 -64.5s-14 -43 -14 -63c0 -13.333 1 -24.666 3 -33.999s6.5 -16.833 13.5 -22.5s17 -9.83398 30 -12.501s30.5 -4 52.5 -4c17.333 0 34.333 0.5 51 1.5s32.667 2.16699 48 3.5
c6 0.666992 10.333 0 13 -2s4.33398 -6 5.00098 -12l9 -68c2 -10 -2.66699 -16.333 -14 -19c-17.333 -3.33301 -38.166 -6.16602 -62.499 -8.49902s-49.166 -3.5 -74.499 -3.5c-41.333 0 -75.5 3.5 -102.5 10.5s-48.5 17.5 -64.5 31.5s-27.333 31.5 -34 52.5
s-10 45.167 -10 72.5z" />
    <glyph glyph-name="iogonek" unicode="&#x12f;" horiz-adv-x="501" 
d="M265 -306c14 0 29.667 0.330078 47 0.99707s34.666 2.33398 51.999 5.00098c10.667 0.666992 16.334 -4 17.001 -14l7 -69c0.666992 -10.667 -4 -17 -14 -19c-15.333 -3.33301 -34.166 -6.16602 -56.499 -8.49902s-49.5 -3.5 -81.5 -3.5
c-41.333 0 -75.666 3.5 -102.999 10.5s-49 17.5 -65 31.5s-27.167 31.5 -33.5 52.5s-9.5 45.167 -9.5 72.5c0 24 3.66699 48.167 11 72.5s17.333 48 30 71s27.5 45 44.5 66s35.167 39.833 54.5 56.5v1036c0 10.667 5.33301 16 16 16h140c10.667 0 16 -5.33301 16 -16v-1039
c0 -7.33301 -3 -12.666 -9 -15.999c-23.333 -12.667 -45 -28.167 -65 -46.5s-37.5 -38 -52.5 -59s-26.833 -42.5 -35.5 -64.5s-13 -43 -13 -63c0 -13.333 1 -24.666 3 -33.999s6.66699 -16.833 14 -22.5s17.666 -9.83398 30.999 -12.501s31.666 -4 54.999 -4zM177 1243
c-10.667 0 -16 5.33301 -16 16v265c0 10.667 5.33301 17 16 19l147 23c10.667 2 16 -2.33301 16 -13v-294c0 -10.667 -5.33301 -16 -16 -16h-147z" />
    <glyph glyph-name="Idotaccent" unicode="&#x130;" horiz-adv-x="556" 
d="M204 0c-10.667 0 -16 5.33301 -16 16v1443c0 10.667 5.33301 16 16 16h148c10.667 0 16 -5.33301 16 -16v-1443c0 -10.667 -5.33301 -16 -16 -16h-148zM205 1604c-10.667 0 -16 5.33301 -16 16v199c0 10.667 5.33301 17 16 19l148 23c10.667 2 16 -2.33301 16 -13v-228
c0 -10.667 -5.33301 -16 -16 -16h-148z" />
    <glyph glyph-name="dotlessi" unicode="&#x131;" horiz-adv-x="501" 
d="M181 0c-10.667 0 -16 5.33301 -16 16v1039c0 10.667 5.33301 16 16 16h140c10.667 0 16 -5.33301 16 -16v-1039c0 -10.667 -5.33301 -16 -16 -16h-140z" />
    <glyph glyph-name="IJ" unicode="&#x132;" horiz-adv-x="1111" 
d="M204 0c-10.667 0 -16 5.33301 -16 16v1443c0 10.667 5.33301 16 16 16h148c10.667 0 16 -5.33301 16 -16v-1443c0 -10.667 -5.33301 -16 -16 -16h-148zM633 -307c-21.333 0 -43.8359 1.33203 -67.5029 3.99902s-45.167 6 -64.5 10c-10.667 2.66699 -15 9 -13 19l21 131
c2 10.667 8.33301 15 19 13c14.667 -3.33301 28.834 -5.16602 42.501 -5.49902s26.834 -0.5 39.501 -0.5c20.667 0 39.334 1.66699 56.001 5s30.667 10.166 42 20.499s20 25.333 26 45s9 45.834 9 78.501v1446c0 10.667 5.33301 16 16 16h148c10.667 0 16 -5.33301 16 -16
v-1459c0 -54 -5.5 -100.333 -16.5 -139s-28.167 -70.5 -51.5 -95.5s-53.333 -43.333 -90 -55s-80.667 -17.5 -132 -17.5z" />
    <glyph glyph-name="ij" unicode="&#x133;" horiz-adv-x="1003" 
d="M181 0c-10.667 0 -16 5.33301 -16 16v1039c0 10.667 5.33301 16 16 16h140c10.667 0 16 -5.33301 16 -16v-1039c0 -10.667 -5.33301 -16 -16 -16h-140zM177 1243c-10.667 0 -16 5.33301 -16 16v265c0 10.667 5.33301 17 16 19l147 23c10.667 2 16 -2.33301 16 -13v-294
c0 -10.667 -5.33301 -16 -16 -16h-147zM510 -475c-24.667 0 -51.499 1.16797 -80.499 3.50098s-54.833 5.83301 -77.5 10.5c-10.667 2.66699 -15 9 -13 19l19 115c2 10.667 8.33301 15 19 13c17.333 -3.33301 36.5 -5.83301 57.5 -7.5s40.833 -2.5 59.5 -2.5
c34.667 0 63.167 2.66699 85.5 8s40 15.166 53 29.499s21.833 33.833 26.5 58.5s7 56 7 94v1189c0 10.667 5.33301 16 16 16h140c10.667 0 16 -5.33301 16 -16v-1189c0 -66.667 -5.66699 -122 -17 -166s-29.833 -79 -55.5 -105s-59.334 -44.167 -101.001 -54.5
s-93.167 -15.5 -154.5 -15.5zM678.001 1243c-10.667 0 -16 5.33301 -16 16v265c0 10.667 5.33301 17 16 19l147 23c10.667 2 16 -2.33301 16 -13v-294c0 -10.667 -5.33301 -16 -16 -16h-147z" />
    <glyph glyph-name="Kcommaaccent" unicode="&#x136;" horiz-adv-x="1210" 
d="M991 0c-6 0 -10.833 0.833008 -14.5 2.5s-7.5 5.16699 -11.5 10.5l-511 690l-93 -91v-596c0 -10.667 -5.33301 -16 -16 -16h-148c-10.667 -0 -16 5.33301 -16 16v1443c0 10.667 5.33301 16 16 16h148c10.667 0 16 -5.33301 16 -16v-610l573 614
c7.33301 8 16.333 12 27 12h211c11.333 0 13 -4 5 -12l-590 -625l616 -825c7.33301 -8.66699 5.33301 -13 -6 -13h-206zM480 -439c-11.333 0 -15.334 5 -12.001 15l61 276c2.66699 10 9.33398 16 20.001 18l151 21c12.667 2 16.667 -2.66699 12 -14l-108 -301
c-3.33301 -10 -10.333 -15 -21 -15h-103z" />
    <glyph glyph-name="kcommaaccent" unicode="&#x137;" horiz-adv-x="1099" 
d="M869 0c-6.66699 0 -11.6689 0.833984 -15.002 2.50098s-6.66602 5.16699 -9.99902 10.5l-373 572l-141 -117v-452c0 -10.667 -5.33301 -16 -16 -16h-140c-10.667 0 -16 5.33301 -16 16v1570c0 10.667 5.33301 17 16 19l140 22c10.667 2 16 -2.33301 16 -13v-946l471 393
c4.66699 3.33301 9 5.83301 13 7.5s9 2.5 15 2.5h211c3.33301 0 5.5 -1.33301 6.5 -4s-0.166992 -5.33398 -3.5 -8.00098l-442 -366l470 -679c6.66699 -9.33301 4.33398 -14 -6.99902 -14h-195zM398.998 -438.999c-11.333 0 -15.334 5 -12.001 15l61 276
c2.66699 10 9.33398 16 20.001 18l151 21c12.667 2 16.667 -2.66699 12 -14l-108 -301c-3.33301 -10 -10.333 -15 -21 -15h-103z" />
    </font>
</defs>
</svg>
