<?xml version="1.0" standalone="no"?>
<!DOCTYPE svg PUBLIC "-//W3C//DTD SVG 1.1//EN" "http://www.w3.org/Graphics/SVG/1.1/DTD/svg11.dtd" >
<svg>
<metadata>
Created by FontForge 20090914 at Wed Apr  8 22:56:58 2015
 By www-data
</metadata>
<defs>
<font id="SkodaPro-Light" horiz-adv-x="778" >
  <font-face 
    font-family="Skoda Pro Light"
    font-weight="300"
    font-stretch="normal"
    units-per-em="2048"
    panose-1="2 0 0 0 0 0 0 0 0 0"
    ascent="1638"
    descent="-410"
    x-height="1071"
    cap-height="1475"
    bbox="-890.001 -471 2332 1884"
    underline-thickness="102"
    underline-position="-103"
    unicode-range="U+0020-U+FB02"
  />
<missing-glyph horiz-adv-x="1022" 
 />
    <glyph glyph-name=".notdef" horiz-adv-x="1022" 
 />
    <glyph glyph-name="space" unicode=" " horiz-adv-x="508" 
 />
    <glyph glyph-name="exclam" unicode="!" horiz-adv-x="464" 
d="M213 410c-8 0 -12 4 -12 12l-4 1041c0 8 4 13 12 15l45 14c8 2 12 -1 12 -9l-4 -1061c0 -8 -4 -12 -12 -12h-37zM207 0c-8 0 -12 4 -12 12v181c0 8 4 13 12 15l49 14c8 2 12 -1 12 -9v-201c0 -8 -4 -12 -12 -12h-49z" />
    <glyph glyph-name="quotedbl" unicode="&#x22;" horiz-adv-x="618" 
d="M163 1044c-8 0 -12 4 -12 12v407c0 8 4 13 12 15l57 14c8 2 12 -1 12 -9v-427c0 -8 -4 -12 -12 -12h-57zM398 1044c-8 0 -12 4 -12 12v407c0 8 4 13 12 15l58 14c8 2 12 -1 12 -9v-427c0 -8 -4 -12 -12 -12h-58z" />
    <glyph glyph-name="numbersign" unicode="#" horiz-adv-x="1458" 
d="M843 0c-7.33301 0 -10.666 4 -9.99902 12l71 400h-467l-71 -400c-0.666992 -8 -5.33398 -12 -14.001 -12h-41c-7.33301 0 -10.666 4 -9.99902 12l71 400h-276c-7.33301 0 -10.666 4 -9.99902 12l8 39c0.666992 8 5.33398 12 14.001 12h275l93 524h-270
c-7.33301 0 -10.666 4 -9.99902 12l7 40c0.666992 8 5.33398 12 14.001 12h271l71 400c0.666992 8 5.33398 12 14.001 12h41c7.33301 0 10.666 -4 9.99902 -12l-71 -400h467l71 400c0.666992 8 5.33398 12 14.001 12h42c7.33301 0 10.666 -4 9.99902 -12l-71 -400h276
c7.33301 0 10.666 -4 9.99902 -12l-8 -40c-0.666992 -8 -5.33398 -12 -14.001 -12h-276l-93 -524h270c7.33301 0 10.666 -4 9.99902 -12l-8 -39c-0.666992 -8 -5.33398 -12 -14.001 -12h-269l-71 -400c-0.666992 -8 -5.33398 -12 -14.001 -12h-42zM541 999l-93 -524h467
l93 524h-467z" />
    <glyph glyph-name="dollar" unicode="$" horiz-adv-x="1041" 
d="M511 -266c-8 0 -11.9961 3.99707 -11.9961 11.9971v235c-8.66699 0 -17.334 -0.166992 -26.001 -0.5s-17.667 -0.5 -27 -0.5c-26 0 -53 0.666992 -81 2s-55.5 3.16602 -82.5 5.49902s-52.833 5.33301 -77.5 9s-47 7.83398 -67 12.501c-8.66699 2 -11 6.66699 -7 14l13 34
c3.33301 6.66699 9 9.66699 17 9c56.667 -9.33301 108.167 -15.833 154.5 -19.5s89.833 -5.5 130.5 -5.5h27c8.66699 0 17.334 0.333008 26.001 1v690l-74 30c-47.333 19.333 -90.166 39.333 -128.499 60s-71 45.167 -98 73.5s-47.833 62.833 -62.5 103.5
s-22 90.667 -22 150c0 54.667 6.66699 102.5 20 143.5s35.166 75.5 65.499 103.5s70 50 119 66s109.167 26 180.5 30v237c0 8 4 12 12 12h38c8 0 12 -4 12 -12v-234h28c52 0 102.667 -2.16699 152 -6.5s91.666 -10.166 126.999 -17.499c8 -2 11 -7 9 -15l-8 -33
c-2 -8 -7 -11 -15 -9c-17.333 3.33301 -36.833 6.33301 -58.5 9s-44.334 4.83398 -68.001 6.50098s-47.334 2.83398 -71.001 3.50098s-46.167 1 -67.5 1h-28v-661l63 -25c58.667 -24 107.834 -47.667 147.501 -71s71.5 -49.5 95.5 -78.5s41 -61.833 51 -98.5
s15 -80.334 15 -131.001c0 -52 -4.33301 -100 -13 -144s-26.334 -82.667 -53.001 -116s-64.334 -60.666 -113.001 -81.999s-113 -35.333 -193 -42v-239c0 -8 -4 -12 -12 -12h-38zM561.004 44.9971c70 6.66699 125.668 19.1689 167.001 37.502s72.666 41.5 93.999 69.5
s35 60.333 41 97s9 76.667 9 120c0 45.333 -4.5 83.666 -13.5 114.999s-25.167 59.166 -48.5 83.499s-55 47.333 -95 69s-91.333 45.167 -154 70.5v-662zM499.005 1431c-59.333 -3.33301 -109.669 -10.999 -151.002 -22.999s-74.666 -29.167 -99.999 -51.5
s-43.666 -50.5 -54.999 -84.5s-17 -75 -17 -123c0 -54 6.33301 -98.5 19 -133.5s32.167 -64.833 58.5 -89.5s59.5 -46.334 99.5 -65.001s87.333 -39 142 -61z" />
    <glyph glyph-name="percent" unicode="%" horiz-adv-x="1740" 
d="M434 588c-48 0 -91.3311 5.83301 -129.998 17.5s-71.5 32 -98.5 61s-47.667 67.833 -62 116.5s-21.5 110 -21.5 184v147c0 74 7.16699 135.5 21.5 184.5s35 88 62 117s59.833 49.5 98.5 61.5s82 18 130 18c48.667 0 92.167 -6 130.5 -18s70.833 -32.5 97.5 -61.5
s47.167 -68 61.5 -117s21.5 -110.5 21.5 -184.5v-147c0 -74 -7 -135.333 -21 -184s-34.333 -87.5 -61 -116.5s-59.334 -49.333 -98.001 -61s-82.334 -17.5 -131.001 -17.5zM434.002 1438c-38.667 0 -73.501 -5.00293 -104.501 -15.0029s-57.5 -27.333 -79.5 -52
s-38.833 -57.834 -50.5 -99.501s-17.5 -94.167 -17.5 -157.5v-147c0 -63.333 5.83301 -115.666 17.5 -156.999s28.5 -74.166 50.5 -98.499s48.5 -41.5 79.5 -51.5s65.833 -15 104.5 -15s73.5 5 104.5 15s57.333 27.333 79 52s38.334 57.834 50.001 99.501
s17.5 94.167 17.5 157.5v145c0 63.333 -5.83301 115.833 -17.5 157.5s-28.5 74.834 -50.5 99.501s-48.5 42 -79.5 52s-65.5 15 -103.5 15zM1306 -20.0029c-48 0 -91.335 5.83301 -130.002 17.5s-71.334 32 -98.001 61s-47.167 67.667 -61.5 116s-21.5 109.5 -21.5 183.5v148
c0 74 7.16699 135.5 21.5 184.5s34.833 88 61.5 117s59.334 49.5 98.001 61.5s82 18 130 18c48.667 0 92.334 -6 131.001 -18s71.334 -32.5 98.001 -61.5s47 -68 61 -117s21 -110.5 21 -184.5v-148c0 -74 -7 -135.167 -21 -183.5s-34.167 -87 -60.5 -116
s-58.833 -49.333 -97.5 -61s-82.667 -17.5 -132 -17.5zM1306 828.997c-38.667 0 -73.501 -5.00098 -104.501 -15.001s-57.5 -27.167 -79.5 -51.5s-38.833 -57.333 -50.5 -99s-17.5 -94.167 -17.5 -157.5v-148c0 -63.333 5.83301 -115.5 17.5 -156.5s28.5 -73.833 50.5 -98.5
s48.5 -41.834 79.5 -51.501s65.833 -14.5 104.5 -14.5s73.667 4.83301 105 14.5s57.833 26.834 79.5 51.501s38.334 57.834 50.001 99.501s17.5 94.167 17.5 157.5v146c0 63.333 -5.83301 115.833 -17.5 157.5s-28.5 74.667 -50.5 99s-48.5 41.5 -79.5 51.5
s-65.833 15 -104.5 15zM383.998 -0.00390625c-8.66699 0 -10.667 3.33301 -6 10l899 1455c3.33301 6.66699 9.33301 10 18 10h52c8.66699 0 10.667 -3.33301 6 -10l-899 -1455c-3.33301 -6.66699 -9.33301 -10 -18 -10h-52z" />
    <glyph glyph-name="ampersand" unicode="&#x26;" horiz-adv-x="1402" 
d="M1250 0c-8 0 -14.6631 3 -19.9961 9l-213 221c-35.333 -37.333 -73 -71.333 -113 -102s-82 -57 -126 -79s-90.167 -39 -138.5 -51s-97.833 -18 -148.5 -18c-32.667 0 -64.5 1.16699 -95.5 3.5s-60 7.83301 -87 16.5s-51.833 21.834 -74.5 39.501s-42.167 41.667 -58.5 72
s-29 68.333 -38 114s-13.5 100.834 -13.5 165.501c0 54 2.5 100.5 7.5 139.5s12.667 72.333 23 100s23.666 51 39.999 70s36.166 35.833 59.499 50.5s50.166 28.334 80.499 41.001l102.5 42c-34 36 -62 68.667 -84 98s-39.333 58.666 -52 87.999s-21.5 60.166 -26.5 92.499
s-7.5 69.833 -7.5 112.5c0 52 6 95.167 18 129.5s31.333 62 58 83s61.167 35.833 103.5 44.5s93.833 13 154.5 13c58.667 0 108.5 -4.33301 149.5 -13s74.5 -23.5 100.5 -44.5s44.833 -48.667 56.5 -83s17.5 -77.5 17.5 -129.5c0 -38 -1.33301 -71.167 -4 -99.5
s-8.33398 -53.833 -17.001 -76.5s-21.167 -43.167 -37.5 -61.5s-38.5 -36.5 -66.5 -54.5s-62.5 -36.5 -103.5 -55.5s-90.167 -40.167 -147.5 -63.5l468 -491c50.667 62.667 93.5 129.5 128.5 200.5s60.833 141.833 77.5 212.5c2 8 7 12 15 12h41c8 0 11 -4 9 -12
c-18.667 -80.667 -47.334 -160.334 -86.001 -239.001s-86 -151.667 -142 -219l260 -269c4.66699 -6 3.33398 -9 -3.99902 -9h-66zM185.004 395c0 -56.667 3.66602 -104.833 10.999 -144.5s17.666 -72.667 30.999 -99s29.333 -46.833 48 -61.5s39.334 -25.667 62.001 -33
s47 -11.833 73 -13.5s53 -2.5 81 -2.5c46.667 0 92.167 5.66699 136.5 17s86.833 27.333 127.5 48s79.334 45.334 116.001 74.001s71 60 103 94l-491 513c-56.667 -22.667 -104 -43 -142 -61s-68.5 -40.167 -91.5 -66.5s-39.5 -59.833 -49.5 -100.5
s-15 -95.334 -15 -164.001zM601.003 1438c-56 0 -101.669 -3.66602 -137.002 -10.999s-63 -19.5 -83 -36.5s-33.667 -39 -41 -66s-11 -60.167 -11 -99.5c0 -42.667 2 -78.334 6 -107.001s12.333 -55.667 25 -81s30.334 -51.5 53.001 -78.5s52.667 -59.5 90 -97.5l143.5 61.5
c39.667 17.667 72.834 34.5 99.501 50.5s47.667 31.833 63 47.5s27 33 35 52s13.167 40.833 15.5 65.5s3.5 53.667 3.5 87c0 39.333 -3.5 72.5 -10.5 99.5s-20 49 -39 66s-45.667 29.167 -80 36.5s-78.5 11 -132.5 11z" />
    <glyph glyph-name="quotesingle" unicode="'" horiz-adv-x="383" 
d="M163 1044c-8 0 -12 4 -12 12v407c0 8 4 13 12 15l57 14c8 2 12 -1 12 -9v-427c0 -8 -4 -12 -12 -12h-57z" />
    <glyph glyph-name="parenleft" unicode="(" horiz-adv-x="506" 
d="M196 516c0 -69.333 4.49805 -143.833 13.498 -223.5s23 -159.334 42 -239.001s43.333 -157 73 -232s64.834 -141.833 105.501 -200.5c4.66699 -6.66699 3 -10 -5 -10h-41c-8.66699 0 -15 3.33301 -19 10c-41.333 58.667 -76.666 125.5 -105.999 200.5
s-53.166 152.333 -71.499 232s-31.833 159.334 -40.5 239.001s-13 154.167 -13 223.5v53c0 69.333 4.33301 143.833 13 223.5s22.167 159.5 40.5 239.5s42.166 157.333 71.499 232s64.666 141.667 105.999 201c4 6.66699 10.333 10 19 10h41c8 0 9.66699 -3.33301 5 -10
c-41.333 -59.333 -76.666 -126.333 -105.999 -201s-53.5 -152 -72.5 -232s-33 -159.833 -42 -239.5s-13.5 -154.167 -13.5 -223.5v-53v0z" />
    <glyph glyph-name="parenright" unicode=")" horiz-adv-x="506" 
d="M310 569c0 69.333 -4.50195 143.833 -13.502 223.5s-23 159.5 -42 239.5s-43.167 157.333 -72.5 232s-64.666 141.667 -105.999 201c-4.66699 6.66699 -3 10 5 10h41c8.66699 0 15 -3.33301 19 -10c41.333 -59.333 76.666 -126.333 105.999 -201s53.166 -152 71.499 -232
s31.833 -159.833 40.5 -239.5s13 -154.167 13 -223.5v-53c0 -69.333 -4.33301 -143.833 -13 -223.5s-22.167 -159.334 -40.5 -239.001s-42.166 -157 -71.499 -232s-64.666 -141.833 -105.999 -200.5c-4 -6.66699 -10.333 -10 -19 -10h-41c-8 0 -9.66699 3.33301 -5 10
c40.667 58.667 75.834 125.5 105.501 200.5s54 152.333 73 232s33 159.334 42 239.001s13.5 154.167 13.5 223.5v53z" />
    <glyph glyph-name="asterisk" unicode="*" horiz-adv-x="908" 
d="M363 1182c4.66699 2.66699 9.33203 4.99707 13.999 6.99707l12 5c4 2 8 3.66699 12 5c-4.66699 1.33301 -9 3 -13 5l-12 5c-4.66699 2 -9 4.33301 -13 7l-224 130c-6.66699 4 -8 9.33301 -4 16l18 33c4 6.66699 9.33301 8 16 4l228 -131c8 -5.33301 15 -10.333 21 -15
l9 -9c-0.666992 4 -1.33398 8.33301 -2.00098 13c-0.666992 4 -1.16699 8.5 -1.5 13.5s-0.5 10.167 -0.5 15.5v258c0 8 4 12 12 12h38c8 0 12 -4 12 -12v-258c0 -6 -0.166992 -11.667 -0.5 -17s-0.833008 -9.66602 -1.5 -12.999
c-0.666992 -4.66699 -1.33398 -8.66699 -2.00098 -12c2.66699 3.33301 5.66699 6.33301 9 9c2.66699 2.66699 5.83398 5.16699 9.50098 7.5l11.5 7.5l228 131c6.66699 4 12 2.66699 16 -4l19 -33c4 -6.66699 2.66699 -12 -4 -16l-223 -129
c-8.66699 -5.33301 -17.667 -9.66602 -27 -12.999c-4.66699 -2 -9 -3.66699 -13 -5l12 -5c4 -1.33301 8.5 -3.16602 13.5 -5.49902s10.5 -5.16602 16.5 -8.49902l221 -127c6.66699 -4 8 -9.33301 4 -16l-19 -34c-4 -6.66699 -9.33301 -8 -16 -4l-221 128
c-5.33301 2.66699 -10.166 5.66699 -14.499 9l-11.5 9c-4 2.66699 -7.66699 5.66699 -11 9c0.666992 -4 1.33398 -8.33301 2.00098 -13c0.666992 -4 1.16699 -9 1.5 -15s0.5 -12.667 0.5 -20v-254c0 -8 -4 -12 -12 -12h-38c-8 0 -12 4 -12 12v258
c0 6.66699 0.166992 12.667 0.5 18s0.833008 10 1.5 14c0.666992 4.66699 1.33398 8.66699 2.00098 12c-3.33301 -2.66699 -6.33301 -5.33398 -9 -8.00098s-5.83398 -5.16699 -9.50098 -7.5l-11.5 -7.5l-228 -132c-6.66699 -4 -12 -2.66699 -16 4l-18 34
c-4 6.66699 -2.66699 12 4 16z" />
    <glyph glyph-name="plus" unicode="+" horiz-adv-x="998" 
d="M122 776c-8 0 -12 4 -12 12v38c0 8 4 12 12 12h346v346c0 8 4 12 12 12h38c8 0 12 -4 12 -12v-346h346c8 0 12 -4 12 -12v-38c0 -8 -4 -12 -12 -12h-346v-346c0 -8 -4 -12 -12 -12h-38c-8 0 -12 4 -12 12v346h-346z" />
    <glyph glyph-name="comma" unicode="," horiz-adv-x="415" 
d="M99 -225c-7.33301 0 -10.668 4 -10.001 12l82 406c0.666992 8 5.33398 13 14.001 15l66 14c8 2 11 -1 9 -9l-107 -426c-2 -8 -7 -12 -15 -12h-39z" />
    <glyph glyph-name="hyphen" unicode="-" horiz-adv-x="817" 
d="M181 586c-8 0 -12 4 -12 12v37c0 8 4 12 12 12h455c8 0 12 -4 12 -12v-37c0 -8 -4 -12 -12 -12h-455z" />
    <glyph glyph-name="period" unicode="." horiz-adv-x="395" 
d="M169 0c-8 0 -12 4 -12 12v181c0 8 4 13 12 15l49 14c8 2 12 -1 12 -9v-201c0 -8 -4 -12 -12 -12h-49z" />
    <glyph glyph-name="slash" unicode="/" horiz-adv-x="753" 
d="M106 0c-8.66699 0 -11.334 3.66699 -8.00098 11l506 1534c2.66699 7.33301 8 11 16 11h39c8.66699 0 11.334 -3.66699 8.00098 -11l-506 -1534c-2.66699 -7.33301 -8 -11 -16 -11h-39z" />
    <glyph glyph-name="zero" unicode="0" horiz-adv-x="1285" 
d="M640 -20c-51.333 0 -98.666 2.83301 -141.999 8.5s-82.333 16.5 -117 32.5s-65.167 38.167 -91.5 66.5s-48.166 65.166 -65.499 110.499s-30.5 100.5 -39.5 165.5s-13.5 141.833 -13.5 230.5v285c0 88.667 4.5 165.5 13.5 230.5s22.167 120.333 39.5 166
s39.166 82.667 65.499 111s56.833 50.666 91.5 66.999s73.667 27.333 117 33s90.666 8.5 141.999 8.5c52.667 0 101 -2.83301 145 -8.5s83.5 -16.667 118.5 -33s65.667 -38.666 92 -66.999s48.166 -65.333 65.499 -111s30.333 -101 39 -166s13 -141.833 13 -230.5v-285
c0 -88.667 -4.33301 -165.5 -13 -230.5s-21.667 -120.167 -39 -165.5s-39.166 -82.166 -65.499 -110.499s-57 -50.5 -92 -66.5s-74.5 -26.833 -118.5 -32.5s-92.333 -8.5 -145 -8.5zM640 1434c-44 0 -84.833 -2.16602 -122.5 -6.49902s-71.5 -13.166 -101.5 -26.499
s-56.5 -32.5 -79.5 -57.5s-42.167 -57.833 -57.5 -98.5s-27 -90.667 -35 -150s-12 -130 -12 -212v-293c0 -82 4 -152.5 12 -211.5s19.667 -108.833 35 -149.5s34.5 -73.334 57.5 -98.001s49.5 -43.667 79.5 -57s63.667 -22.166 101 -26.499s78.333 -6.5 123 -6.5
c45.333 0 87 2.16699 125 6.5s72.167 13.166 102.5 26.499s57.166 32.333 80.499 57s42.666 57.5 57.999 98.5s26.833 91 34.5 150s11.5 129.833 11.5 212.5v291c0 82 -3.83301 152.667 -11.5 212s-19.167 109.333 -34.5 150s-34.666 73.5 -57.999 98.5
s-50.166 44.167 -80.499 57.5s-64.5 22.166 -102.5 26.499s-79.667 6.5 -125 6.5z" />
    <glyph glyph-name="one" unicode="1" horiz-adv-x="701" 
d="M59 1364c-8.66699 -2 -13.332 1.33301 -13.999 10l-6 37c-0.666992 7.33301 2.66602 12 9.99902 14l363 48c3.33301 0.666992 7.33301 1.16699 12 1.5s8.66699 0.5 12 0.5h37c8 0 12 -4 12 -12v-1451c0 -8 -4 -12 -12 -12h-37c-8 0 -12 4 -12 12v1401z" />
    <glyph glyph-name="two" unicode="2" horiz-adv-x="1063" 
d="M123 0c-8 0 -12.001 4.00488 -12.001 12.0049v49c0 65.333 4.83301 123.333 14.5 174s26.334 98.167 50.001 142.5s55 87.166 94 128.499s87.833 85.666 146.5 132.999l231 186l87.5 72.5c27 23 50.333 47 70 72s35.167 52.333 46.5 82s17 64.167 17 103.5
c0 54 -6 98.833 -18 134.5s-33 64.167 -63 85.5s-70.667 36.5 -122 45.5s-116 13.5 -194 13.5c-44 0 -91.833 -1.83301 -143.5 -5.5s-102.834 -10.834 -153.501 -21.501c-8 -0.666992 -13 2.66602 -15 9.99902l-9 35c-2 8 1 13 9 15
c22.667 4.66699 47.5 8.83398 74.5 12.501s54.333 6.66699 82 9s54.834 4 81.501 5s50.667 1.5 72 1.5c84.667 0 156.167 -5.5 214.5 -16.5s105.833 -29.667 142.5 -56s63.167 -61.333 79.5 -105s24.5 -97.834 24.5 -162.501c0 -43.333 -5.5 -81.333 -16.5 -114
s-27 -63.334 -48 -92.001s-46.5 -56.334 -76.5 -83.001s-64.333 -55.334 -103 -86.001l-209 -166c-60 -48 -109.667 -92.167 -149 -132.5s-70.5 -81.166 -93.5 -122.499s-39.167 -85.666 -48.5 -132.999s-14 -102.333 -14 -165h738c8 0 12 -4 12 -12v-37
c0 -8 -4 -12 -12 -12h-787z" />
    <glyph glyph-name="three" unicode="3" horiz-adv-x="1128" 
d="M455 -20c-52 0 -103.007 2.83789 -153.007 8.50488s-94.667 12.167 -134 19.5c-8 0.666992 -12 5.33398 -12 14.001l2 38c0 7.33301 4 10.666 12 9.99902c42 -8 88.333 -14.833 139 -20.5s99.334 -8.5 146.001 -8.5c76.667 0 143 6 199 18s102.333 31.833 139 59.5
s63.834 64 81.501 109s26.5 100.833 26.5 167.5v41c0 36 -5 74 -15 114s-27.333 76.667 -52 110s-58 61 -100 83s-95 33 -159 33h-371c-8 0 -12 4 -12 12v38c0 8 4 12 12 12h371c66 0 120 9.66699 162 29s75.167 43 99.5 71s41.166 58 50.499 90s14 60.667 14 86v25
c0 59.333 -10.333 108.166 -31 146.499s-50.167 68.666 -88.5 90.999s-85.166 37.833 -140.499 46.5s-117.333 13 -186 13c-46.667 0 -94.667 -3.16699 -144 -9.5s-95.666 -12.833 -138.999 -19.5c-8 -0.666992 -12.333 2.66602 -13 9.99902l-2 37
c-0.666992 8.66699 3 13.334 11 14.001c39.333 7.33301 84 13.666 134 18.999s101 8 153 8c79.333 0 150.333 -5.5 213 -16.5s115.834 -30 159.501 -57s77.167 -63.5 100.5 -109.5s35 -103.667 35 -173v-25c0 -32 -4.66699 -64.333 -14 -97s-24.166 -63 -44.499 -91
s-46.666 -52.667 -78.999 -74s-71.166 -37 -116.499 -47c50.667 -12.667 92.334 -32.834 125.001 -60.501s58.5 -59 77.5 -94s32.333 -71.333 40 -109s11.5 -72.834 11.5 -105.501v-41c0 -80 -11.5 -146.667 -34.5 -200s-56.333 -96 -100 -128s-96.834 -54.5 -159.501 -67.5
s-134 -19.5 -214 -19.5z" />
    <glyph glyph-name="four" unicode="4" horiz-adv-x="1161" 
d="M79 416c-8 0 -12 4 -12 12v74c0 8 2.33301 15.333 7 22l697 941c4 6.66699 10.333 10 19 10h79c8 0 12 -4 12 -12v-986h186c8 0 12 -4 12 -12v-37c0 -8 -4 -12 -12 -12h-186v-404c0 -8 -4 -12 -12 -12h-38c-8 0 -12 4 -12 12v404h-740zM125 477h694v928h-14z" />
    <glyph glyph-name="five" unicode="5" horiz-adv-x="1110" 
d="M432 -20c-62 0 -117.832 2.49902 -167.499 7.49902s-94.834 12.167 -135.501 21.5c-8 2 -10.667 6.66699 -8 14l14 34c2.66699 6.66699 8 9.66699 16 9c48 -9.33301 95 -15.833 141 -19.5s92.667 -5.5 140 -5.5c152.667 0 270.334 31.667 353.001 95
s124 158.666 124 285.999v49c0 60.667 -9.33301 113.834 -28 159.501s-47.834 83.834 -87.501 114.501s-90.5 53.834 -152.5 69.501s-136.333 23.5 -223 23.5c-22 0 -45 -1 -69 -3s-47 -4.5 -69 -7.5s-41.833 -6 -59.5 -9s-31.167 -5.5 -40.5 -7.5
c-8 -0.666992 -12 2.66602 -12 9.99902v37c0 3.33301 0.166992 7.33301 0.5 12s0.5 8.66699 0.5 12l61 581c0.666992 8 5 12 13 12h714c8 0 11 -4 9 -12l-11 -38c-2 -8 -7 -12 -15 -12h-655l-56 -534l20.5 3c13.667 2 30 4 49 6s39.333 4 61 6s40.5 3 56.5 3
c98 0 182 -9 252 -27s127.5 -44.833 172.5 -80.5s78 -80.167 99 -133.5s31.5 -115 31.5 -185v-49c0 -74.667 -12.333 -139.667 -37 -195s-60.167 -101.333 -106.5 -138s-102.833 -64 -169.5 -82s-142 -27 -226 -27z" />
    <glyph glyph-name="six" unicode="6" horiz-adv-x="1208" 
d="M627 -20c-74 0 -139.831 9.50293 -197.498 28.5029s-106.167 53.167 -145.5 102.5s-69.166 117 -89.499 203s-30.5 195.667 -30.5 329v225c0 118 11 217 33 297s56 144.5 102 193.5s104.333 84 175 105s155 31.5 253 31.5c48 0 94 -2.33301 138 -7
s83.333 -10.667 118 -18c8 -0.666992 11 -5.33398 9 -14.001l-8 -33c-2 -7.33301 -7 -10.666 -15 -9.99902c-32.667 5.33301 -69.834 10.166 -111.501 14.499s-85.167 6.5 -130.5 6.5c-90.667 0 -167.834 -9.33301 -231.501 -28s-115.5 -50 -155.5 -94
s-69.167 -102 -87.5 -174s-27.5 -161.333 -27.5 -268v-14c22.667 4.66699 49.667 9.5 81 14.5s64.833 9.66699 100.5 14s72.5 7.83301 110.5 10.5s74.667 4 110 4c74 0 139.833 -7.83301 197.5 -23.5s106 -41 145 -76s68.667 -80.667 89 -137s30.5 -125.5 30.5 -207.5v-11
c0 -65.333 -9.5 -126.333 -28.5 -183s-47.833 -105.834 -86.5 -147.501s-86.834 -74.334 -144.501 -98.001s-125.167 -35.5 -202.5 -35.5zM1028 455.003c0 71.333 -8.33691 131.503 -25.0039 180.503s-41.667 88.5 -75 118.5s-75.166 51.5 -125.499 64.5
s-108.833 19.5 -175.5 19.5c-36 0 -73 -1.33301 -111 -4s-74.667 -6 -110 -10s-68.666 -8.33301 -99.999 -13s-58.333 -9.33398 -81 -14.001v-154c0 -122.667 8.83301 -223 26.5 -301s43.5 -139.333 77.5 -184s76 -75.334 126 -92.001s107.333 -25 172 -25
c68.667 0 128.334 9.83301 179.001 29.5s92.334 47.167 125.001 82.5s57 77.666 73 126.999s24 104 24 164v11z" />
    <glyph glyph-name="seven" unicode="7" horiz-adv-x="987" 
d="M174 0c-8 0 -10.333 3.66797 -7 11.001l718 1402h-804c-8 0 -13 4 -15 12l-8 38c-2 8 1 12 9 12h871c8 0 12 -4 12 -12v-40c0 -6.66699 -1.66699 -14.334 -5 -23.001l-709 -1389c-4 -7.33301 -9.66699 -11 -17 -11h-45z" />
    <glyph glyph-name="eight" unicode="8" horiz-adv-x="1258" 
d="M629 -20c-72 0 -137.498 7.33301 -196.498 22s-109.5 38.5 -151.5 71.5s-74.333 75.667 -97 128s-34 116.166 -34 191.499v51c0 26.667 3.66699 57 11 91s20.333 67.333 39 100s43.667 62.667 75 90s70.666 47.666 117.999 60.999c-38.667 10.667 -71 27.334 -97 50.001
s-46.833 48.834 -62.5 78.501s-26.834 61.834 -33.501 96.501s-10 69 -10 103v16c0 60.667 10 113.834 30 159.501s49 83.834 87 114.501s84.167 53.5 138.5 68.5s115.5 22.5 183.5 22.5s129 -7.5 183 -22.5s100 -37.833 138 -68.5s67 -68.834 87 -114.501
s30 -98.834 30 -159.501v-16c0 -34 -3.33301 -68.333 -10 -103s-17.667 -66.834 -33 -96.501s-36.166 -55.834 -62.499 -78.501s-58.833 -39.334 -97.5 -50.001c48 -13.333 87.667 -33.666 119 -60.999s56.166 -57.333 74.499 -90s31.333 -66 39 -100s11.5 -64.333 11.5 -91
v-51c0 -75.333 -11.333 -139.166 -34 -191.499s-55 -95 -97 -128s-92.5 -56.833 -151.5 -71.5s-124.5 -22 -196.5 -22zM252.002 1114c0 -29.333 3.83301 -61.166 11.5 -95.499s22.334 -66.333 44.001 -96s51.5 -54.334 89.5 -74.001s87.333 -29.5 148 -29.5h168
c60 0 109.167 9.83301 147.5 29.5s68.166 44.334 89.499 74.001s36 61.667 44 96s12 66.166 12 95.499v16c0 104 -31.167 180.667 -93.5 230s-156.833 74 -283.5 74s-221.167 -24.667 -283.5 -74s-93.5 -126 -93.5 -230v-16zM545.002 758
c-46.667 0 -87.166 -5.66699 -121.499 -17s-64 -26 -89 -44s-45.5 -38.333 -61.5 -61s-28.5 -45.667 -37.5 -69s-15.333 -45.833 -19 -67.5s-5.5 -40.167 -5.5 -55.5v-51c0 -63.333 8.83301 -117.166 26.5 -161.499s44 -80.666 79 -108.999s78.5 -49 130.5 -62
s112.667 -19.5 182 -19.5c68.667 0 129.167 6.5 181.5 19.5s96 33.667 131 62s61.333 64.666 79 108.999s26.5 98.166 26.5 161.499v51c0 15.333 -1.83301 33.833 -5.5 55.5s-10.167 44.167 -19.5 67.5s-22 46.333 -38 69s-36.333 43 -61 61s-54.334 32.667 -89.001 44
s-75 17 -121 17h-168z" />
    <glyph glyph-name="nine" unicode="9" horiz-adv-x="1207" 
d="M483 -20c-48.667 0 -94.668 2.33398 -138.001 7.00098s-82.666 10.334 -117.999 17.001c-8 0.666992 -11 5.33398 -9 14.001l8 33c2 7.33301 7 10.666 15 9.99902c32.667 -5.33301 69.834 -10 111.501 -14s85.167 -6 130.5 -6c86 0 159.667 9.5 221 28.5
s112.166 50.833 152.499 95.5s70.666 104 90.999 178s32.5 165.667 36.5 275c-23.333 -4.66699 -50.666 -9.5 -81.999 -14.5s-64.666 -9.66699 -99.999 -14s-71.833 -7.83301 -109.5 -10.5s-73.834 -4 -108.501 -4c-74 0 -139.833 8 -197.5 24s-106.167 42 -145.5 78
s-69.166 83.333 -89.499 142s-30.5 130.667 -30.5 216c0 68.667 9 131.167 27 187.5s45.667 104.666 83 144.999s84.333 71.666 141 93.999s123.667 33.5 201 33.5c72 0 137 -8.83301 195 -26.5s107.667 -50 149 -97s73.166 -111.5 95.499 -193.5s33.5 -187.333 33.5 -316
v-164c0 -136 -11 -249.833 -33 -341.5s-56 -165.5 -102 -221.5s-104.333 -95.833 -175 -119.5s-155 -35.5 -253 -35.5zM181.999 1035c0 -75.333 8.33398 -138.333 25.001 -189s41.667 -91.5 75 -122.5s75.166 -53.167 125.499 -66.5s109.166 -20 176.499 -20
c35.333 0 71.833 1.16699 109.5 3.5s74.167 5.33301 109.5 9s68.666 7.66699 99.999 12s58.333 8.83301 81 13.5c0 3.33301 0.166992 6.83301 0.5 10.5s0.5 7.16699 0.5 10.5v166c0 119.333 -9.83301 216.166 -29.5 290.499s-47.5 132.333 -83.5 174s-79.333 70 -130 85
s-107 22.5 -169 22.5c-69.333 0 -128.666 -9 -177.999 -27s-89.666 -44.167 -120.999 -78.5s-54.5 -76.166 -69.5 -125.499s-22.5 -105.333 -22.5 -168z" />
    <glyph glyph-name="colon" unicode=":" horiz-adv-x="412" 
d="M181 0c-8 0 -12 4 -12 12v181c0 8 4 13 12 15l49 14c8 2 12 -1 12 -9v-201c0 -8 -4 -12 -12 -12h-49zM181 676c-8 0 -12 4 -12 12v181c0 8 4 13 12 15l49 14c8 2 12 -1 12 -9v-201c0 -8 -4 -12 -12 -12h-49z" />
    <glyph glyph-name="semicolon" unicode=";" horiz-adv-x="490" 
d="M142 -225c-7.33301 0 -10.668 4 -10.001 12l82 406c0.666992 8 5.33398 13 14.001 15l66 14c8 2 11 -1 9 -9l-107 -426c-2 -8 -7 -12 -15 -12h-39zM231.998 676c-8 0 -12 4 -12 12v181c0 8 4 13 12 15l49 14c8 2 12 -1 12 -9v-201c0 -8 -4 -12 -12 -12h-49z" />
    <glyph glyph-name="less" unicode="&#x3c;" horiz-adv-x="848" 
d="M98 741c-6.66699 4 -10 10.333 -10 19v37c0 8.66699 3.33301 15 10 19l551 406c6.66699 4.66699 11 3 13 -5l11 -40c2 -8.66699 -0.333008 -15 -7 -19l-523 -380l523 -380c6.66699 -4 9 -10.333 7 -19l-11 -39c-2 -8 -6.33301 -9.66699 -13 -5z" />
    <glyph glyph-name="equal" unicode="=" horiz-adv-x="1142" 
d="M194 567c-8 0 -12 4 -12 12v38c0 8 4 12 12 12h754c8 0 12 -4 12 -12v-38c0 -8 -4 -12 -12 -12h-754zM194 971c-8 0 -12 4 -12 12v37c0 8 4 12 12 12h754c8 0 12 -4 12 -12v-37c0 -8 -4 -12 -12 -12h-754z" />
    <glyph glyph-name="greater" unicode="&#x3e;" horiz-adv-x="848" 
d="M199 335c-6.66699 -4.66699 -11 -3 -13 5l-11 39c-2 8.66699 0.333008 15 7 19l523 380l-523 380c-6.66699 4 -9 10.333 -7 19l11 40c2 8 6.33301 9.66699 13 5l551 -406c6.66699 -4 10 -10.333 10 -19v-37c0 -8.66699 -3.33301 -15 -10 -19z" />
    <glyph glyph-name="question" unicode="?" horiz-adv-x="826" 
d="M318 385c0 -8 -3.99902 -12.0068 -11.999 -12.0068h-37c-8 0 -12 4 -12 12v111c0 40.667 1.33301 74.834 4 102.501s9.33398 53.5 20.001 77.5s26.5 49 47.5 75s49.5 57.667 85.5 95l56 57c34 34 63.5 65.333 88.5 94s45.5 56 61.5 82s28 51 36 75s12 48.667 12 74v21
c0 34 -7 62.833 -21 86.5s-34.333 42.834 -61 57.501s-59.334 25.167 -98.001 31.5s-83 9.5 -133 9.5c-36 0 -73.167 -1.16699 -111.5 -3.5s-81.166 -6.83301 -128.499 -13.5c-8 -2 -13 1.33301 -15 10l-8 36c-2 8.66699 1 13.334 9 14.001
c18.667 2.66699 39 5.16699 61 7.5s44 4.33301 66 6s43.833 2.83398 65.5 3.50098s42.167 1 61.5 1c55.333 0 106 -3.66699 152 -11s85.5 -20.333 118.5 -39s58.667 -44.167 77 -76.5s27.5 -73.5 27.5 -123.5v-13c0 -27.333 -3.33301 -54.166 -10 -80.499
s-18.334 -53.666 -35.001 -81.999s-38.667 -58.833 -66 -91.5s-61.333 -69.334 -102 -110.001l-62 -63c-34 -35.333 -60.167 -64.666 -78.5 -87.999s-31.833 -45.5 -40.5 -66.5s-13.834 -43.167 -15.501 -66.5s-2.5 -52.666 -2.5 -87.999v-111zM275.001 -0.00683594
c-8 0 -12 4 -12 12v181c0 8 4 13 12 15l49 14c8 2 12 -1 12 -9v-201c0 -8 -4 -12 -12 -12h-49z" />
    <glyph glyph-name="at" unicode="@" horiz-adv-x="1703" 
d="M202 563c-7.33301 -70 -10.501 -138.002 -9.50098 -204.002s8 -127.833 21 -185.5s32.667 -110.667 59 -159s61.166 -89.833 104.499 -124.5s95.833 -62 157.5 -82s134.5 -30.333 218.5 -31c8 0 11.667 -4 11 -12l-4 -42c-0.666992 -8 -5 -12 -13 -12
c-92 0.666992 -172 12 -240 34s-126.167 52.167 -174.5 90.5s-87.333 83.833 -117 136.5s-51.667 110.334 -66 173.001s-22.166 129.167 -23.499 199.5s2.33398 142.5 11.001 216.5l14 125c14.667 128.667 45 238.334 91 329.001s105 164.334 177 221.001
s155.5 98 250.5 124s199.167 39 312.5 39c81.333 0 152.333 -7.16699 213 -21.5s112.834 -34.166 156.501 -59.499s79.5 -55.5 107.5 -90.5s50.333 -72.667 67 -113s28.167 -82.833 34.5 -127.5s9.5 -89.667 9.5 -135c0 -112.667 -10.333 -210.167 -31 -292.5
s-48.667 -152.333 -84 -210s-76.5 -104.5 -123.5 -140.5s-96.5 -63.833 -148.5 -83.5s-105.333 -33.167 -160 -40.5s-107.334 -11 -158.001 -11h-16c-80 0 -145.5 8 -196.5 24s-90.167 42 -117.5 78s-44.333 83.167 -51 141.5s-5.66699 130.166 3 215.499l10 96
c9.33301 84.667 23.833 155.167 43.5 211.5s47.167 101.166 82.5 134.499s80 57 134 71s119.667 21 197 21c35.333 0 72.666 -1.66699 111.999 -5s80.666 -10.333 123.999 -21c8 -2 11.667 -7 11 -15l-62 -855c50 17.333 97.333 42.166 142 74.499s84 75.333 118 129
s60.833 119.667 80.5 198s29.5 172.166 29.5 281.499c0 68 -8.83301 131.333 -26.5 190s-47 109.834 -88 153.501s-95.167 77.834 -162.5 102.501s-150.666 37 -249.999 37c-111.333 0 -211.666 -13.667 -300.999 -41s-166.5 -69 -231.5 -125s-117.667 -126.667 -158 -212
s-66.833 -186 -79.5 -302zM947.999 1008c-71.333 0 -130.335 -6.49902 -177.002 -19.499s-84.5 -35 -113.5 -66s-51.167 -72.333 -66.5 -124s-27 -116.5 -35 -194.5l-6 -67c-8 -77.333 -10.167 -141.833 -6.5 -193.5s16.834 -93 39.501 -124s56 -52.833 100 -65.5
s102 -19 174 -19c24 0 46 0.333008 66 1s38.833 1.66699 56.5 3s34.334 3.16602 50.001 5.49902s31.5 5.5 47.5 9.5l57 835l-90.5 12.5c-31.667 4.33301 -63.5 6.5 -95.5 6.5z" />
    <glyph glyph-name="A" unicode="A" horiz-adv-x="1272" 
d="M51 0c-8.66699 0 -11.332 3.66699 -7.99902 11l545 1453c2.66699 7.33301 8 11 16 11h64c8 0 13.333 -3.66699 16 -11l547 -1453c3.33301 -7.33301 0.666016 -11 -8.00098 -11h-44c-8 0 -13.333 3.66699 -16 11l-172 458h-711l-172 -458
c-2.66699 -7.33301 -8 -11 -16 -11h-41zM635.002 1413l-332 -883h665z" />
    <glyph glyph-name="B" unicode="B" horiz-adv-x="1282" 
d="M570 -20c-25.333 0 -52.4971 0.333008 -81.4971 1s-58.333 1.5 -88 2.5s-59.334 2.5 -89.001 4.5s-58.167 4.33301 -85.5 7c-8 0.666992 -12 5 -12 13v1455c0 8 4 12.333 12 13c41.333 5.33301 89.333 9.16602 144 11.499s110 3.5 166 3.5
c88.667 0 166.667 -4.16699 234 -12.5s123.833 -24.5 169.5 -48.5s80.167 -57.667 103.5 -101s35 -100 35 -170v-12c0 -43.333 -4.5 -82.166 -13.5 -116.499s-21.333 -64.166 -37 -89.499s-34.167 -46.5 -55.5 -63.5s-44.333 -29.833 -69 -38.5
c37.333 -8 70.833 -21.333 100.5 -40s54.667 -43.334 75 -74.001s36 -68 47 -112s16.5 -95.333 16.5 -154v-56c0 -62 -5.33301 -115.5 -16 -160.5s-26.834 -83.167 -48.501 -114.5s-48.5 -56.666 -80.5 -75.999s-69.167 -34.333 -111.5 -45s-89.833 -17.834 -142.5 -21.501
s-110.334 -5.5 -173.001 -5.5zM1080 461c0 63.333 -7.33594 116 -22.0029 158s-35.167 75.5 -61.5 100.5s-57.666 42.667 -93.999 53s-76.166 15.5 -119.499 15.5h-508v-737c48 -3.33301 96.333 -5.83301 145 -7.5s98.667 -2.5 150 -2.5c58.667 0 112 1.16699 160 3.5
s90.833 7.66602 128.5 15.999s70.334 20.5 98.001 36.5s50.667 37.333 69 64s32 59.834 41 99.501s13.5 87.167 13.5 142.5v58zM533 1430c-53.333 0 -101.833 -0.831055 -145.5 -2.49805s-81.167 -4.5 -112.5 -8.5v-569h449c51.333 1.33301 95.5 9.16602 132.5 23.499
s67.333 34.166 91 59.499s41.167 55.333 52.5 90s17 72.667 17 114v16c0 61.333 -10.5 110.333 -31.5 147s-52 64.667 -93 84s-91.5 31.833 -151.5 37.5s-129.333 8.5 -208 8.5z" />
    <glyph glyph-name="C" unicode="C" horiz-adv-x="1159" 
d="M739 -20c-92.667 0 -175.169 11.3301 -247.502 33.9971s-133.5 60.834 -183.5 114.501s-88.167 124.667 -114.5 213s-39.5 198.5 -39.5 330.5v131c0 131.333 13.167 241.333 39.5 330s64.5 159.834 114.5 213.501s111.167 91.834 183.5 114.501s154.833 34 247.5 34
c58.667 0 115 -2.5 169 -7.5s99.667 -11.167 137 -18.5c8 -2 11 -7 9 -15l-7 -33c-2 -7.33301 -7 -10.666 -15 -9.99902c-42.667 8.66699 -90.167 14.667 -142.5 18s-102.5 5 -150.5 5c-82 0 -155.167 -9.83301 -219.5 -29.5s-118.666 -53.167 -162.999 -100.5
s-78.333 -111 -102 -191s-35.5 -180 -35.5 -300v-151c0 -120.667 11.667 -220.834 35 -300.501s57.166 -143.334 101.499 -191.001s98.833 -81.167 163.5 -100.5s138 -29 220 -29c63.333 0 120 2.5 170 7.5s94 11.5 132 19.5
c8.66699 0.666992 13.334 -2.66602 14.001 -9.99902l8 -34c0.666992 -8 -2.66602 -13 -9.99902 -15c-38 -9.33301 -84.667 -16.5 -140 -21.5s-113.333 -7.5 -174 -7.5z" />
    <glyph glyph-name="D" unicode="D" horiz-adv-x="1386" 
d="M584 -16c-54 0 -112.668 1.16895 -176.001 3.50195s-123.666 6.16602 -180.999 11.499c-8 0.666992 -12 5 -12 13v1451c0 8 4 12.333 12 13c30 2 61.5 3.5 94.5 4.5s65.5 1.83301 97.5 2.5s62.167 1.16699 90.5 1.5s52.5 0.5 72.5 0.5c64 0 124.5 -3.16699 181.5 -9.5
s109.5 -18.333 157.5 -36s91.167 -42.334 129.5 -74.001s70.833 -73 97.5 -124s47.167 -113.167 61.5 -186.5s21.5 -160 21.5 -260v-113c0 -100 -7 -186.833 -21 -260.5s-34.333 -136.334 -61 -188.001s-59 -93.667 -97 -126s-81 -57.666 -129 -75.999
s-100.5 -30.833 -157.5 -37.5s-117.5 -10 -181.5 -10zM579.999 1423c-19.333 0 -42.667 -0.166016 -70 -0.499023s-55.166 -0.833008 -83.499 -1.5s-55.833 -1.5 -82.5 -2.5s-49.334 -2.16699 -68.001 -3.5v-1358c23.333 -2 48.166 -3.83301 74.499 -5.5s52.833 -3 79.5 -4
s53 -1.66699 79 -2s50.333 -0.5 73 -0.5c64 0 123 3.33301 177 10s102.833 18.667 146.5 36s81.834 41.166 114.501 71.499s60.167 68.833 82.5 115.5s39 102.834 50 168.501s16.5 142.834 16.5 231.501v119c0 88 -5.66699 164.5 -17 229.5s-28 120.833 -50 167.5
s-49.5 84.667 -82.5 114s-71.333 52.666 -115 69.999s-92.5 29.166 -146.5 35.499s-113.333 9.5 -178 9.5z" />
    <glyph glyph-name="E" unicode="E" horiz-adv-x="1177" 
d="M228 0c-8 0 -12 4 -12 12v1451c0 8 4 12 12 12h801c8 0 12 -4 12 -12v-38c0 -8 -4 -12 -12 -12h-752v-563h668c8 0 12 -4 12 -12v-38c0 -8 -4 -12 -12 -12h-668v-727h752c8 0 12 -4 12 -12v-37c0 -8 -4 -12 -12 -12h-801z" />
    <glyph glyph-name="F" unicode="F" horiz-adv-x="1090" 
d="M228 0c-8 0 -12 4 -12 12v1451c0 8 4 12 12 12h814c8 0 12 -4 12 -12v-38c0 -8 -4 -12 -12 -12h-765v-563h615c8 0 12 -4 12 -12v-38c0 -8 -4 -12 -12 -12h-615v-776c0 -8 -4 -12 -12 -12h-37z" />
    <glyph glyph-name="G" unicode="G" horiz-adv-x="1245" 
d="M669 692c-8 0 -12.001 3.99707 -12.001 11.9971v38c0 8 4 12 12 12h404c8 0 12 -4 12 -12v-707c0 -8 -4 -13 -12 -15c-62.667 -16 -122.5 -26.667 -179.5 -32s-113.833 -8 -170.5 -8c-93.333 0 -175.333 11.333 -246 34s-129.834 60.834 -177.501 114.501
s-83.5 124.667 -107.5 213s-36 198.5 -36 330.5v131c0 131.333 12.833 241.333 38.5 330s63.334 159.834 113.001 213.501s111 91.834 184 114.501s156.833 34 251.5 34c56.667 0 111.167 -2.5 163.5 -7.5s96.5 -11.833 132.5 -20.5c8 -2 11 -7 9 -15l-7 -31
c-2 -7.33301 -7 -10.666 -15 -9.99902c-41.333 8.66699 -87.166 14.667 -137.499 18s-98.833 5 -145.5 5c-85.333 0 -160.5 -9.83301 -225.5 -29.5s-119.5 -53.167 -163.5 -100.5s-77.167 -111 -99.5 -191s-33.5 -180 -33.5 -300v-151
c0 -120.667 10.5 -220.834 31.5 -300.501s52.5 -143.334 94.5 -191.001s94.333 -81.167 157 -100.5s135.667 -29 219 -29c64 0 120.333 2.33301 169 7s92.667 11.334 132 20.001v624h-355z" />
    <glyph glyph-name="H" unicode="H" horiz-adv-x="1380" 
d="M228 0c-8 0 -12 4 -12 12v1451c0 8 4 12 12 12h37c8 0 12 -4 12 -12v-613h826v613c0 8 4 12 12 12h37c8 0 12 -4 12 -12v-1451c0 -8 -4 -12 -12 -12h-37c-8 0 -12 4 -12 12v776h-826v-776c0 -8 -4 -12 -12 -12h-37z" />
    <glyph glyph-name="I" unicode="I" horiz-adv-x="493" 
d="M228 0c-8 0 -12 4 -12 12v1451c0 8 4 12 12 12h37c8 0 12 -4 12 -12v-1451c0 -8 -4 -12 -12 -12h-37z" />
    <glyph glyph-name="J" unicode="J" horiz-adv-x="492" 
d="M76 -236c-15.333 0 -31.999 1.16602 -49.999 3.49902s-34.333 5.83301 -49 10.5c-8 2 -11 6.66699 -9 14l9 34c2 7.33301 6.66699 10 14 8c13.333 -4 27.166 -6.33301 41.499 -7s28.833 -1 43.5 -1c20.667 0 39.667 1.66699 57 5s32 11 44 23s21.333 29.5 28 52.5
s10 54.167 10 93.5v1463c0 8 4 12 12 12h37c8 0 12 -4 12 -12v-1463c0 -53.333 -5 -95.666 -15 -126.999s-24 -55 -42 -71s-39.167 -26.333 -63.5 -31s-50.833 -7 -79.5 -7z" />
    <glyph glyph-name="K" unicode="K" horiz-adv-x="1116" 
d="M1023 0c-8.66699 0 -15 3 -19 9l-629 791l-98 -91v-697c0 -8 -4 -12 -12 -12h-37c-8 0 -12 4 -12 12v1451c0 8 4 12 12 12h37c8 0 12 -4 12 -12v-679l696 683c6 5.33301 13 8 21 8h64c8.66699 0 9.66699 -2.66699 3 -8l-639 -623l662 -835c4.66699 -6 3 -9 -5 -9h-56z
" />
    <glyph glyph-name="L" unicode="L" horiz-adv-x="1029" 
d="M228 0c-8 0 -12 4 -12 12v1451c0 8 4 12 12 12h37c8 0 12 -4 12 -12v-1402h701c8 0 12 -4 12 -12v-37c0 -8 -4 -12 -12 -12h-750z" />
    <glyph glyph-name="M" unicode="M" horiz-adv-x="1608" 
d="M228 0c-8 0 -12.001 4 -12.001 12v1451c0 8 4 12 12 12h42c7.33301 0 13.333 -3.33301 18 -10l450 -795l23.5 -40.5l21 -37l15.5 -27l6 -10.5l6 11l15.5 27.5l21.5 37l24 41.5l449 793c4.66699 6.66699 10.667 10 18 10h42c8 0 12 -4 12 -12v-1451c0 -8 -4 -12 -12 -12
h-38c-8 0 -12 4 -12 12l-2 1334c-1.33301 -0.666992 -6.33301 -8.66699 -15 -24l-30 -52l-440 -775c-4.66699 -6.66699 -10.667 -10 -18 -10h-42c-7.33301 0 -13.333 3.33301 -18 10l-436 769l-33 58c-9.33301 16 -14.666 24 -15.999 24l-3 -1334c0 -8 -4 -12 -12 -12h-37z
" />
    <glyph glyph-name="N" unicode="N" horiz-adv-x="1388" 
d="M228 0c-8 0 -12 3.99902 -12 11.999v1451c0 8 4 12 12 12h54c8 0 14 -3.33301 18 -10l735 -1242c22.667 -39.333 40.667 -69.666 54 -90.999s20.333 -32 21 -32l1 1363c0 8 4 12 12 12h37c8 0 12 -4 12 -12v-1451c0 -8 -4 -12 -12 -12h-53c-8 -0 -14 3.33301 -18 10
l-732 1233l-30 52l-24.5 41.5l-17 27.5l-6.5 10l-2 -1362c0 -8 -4 -12 -12 -12h-37z" />
    <glyph glyph-name="O" unicode="O" horiz-adv-x="1415" 
d="M709 -20c-88 0 -166.333 11.333 -235 34s-126.334 60.834 -173.001 114.501s-82.167 124.667 -106.5 213s-36.5 198.5 -36.5 330.5v131c0 131.333 12.167 241.333 36.5 330s59.833 159.834 106.5 213.501s104.334 91.834 173.001 114.501s147 34 235 34
c88.667 0 167 -11.333 235 -34s125.167 -60.834 171.5 -114.501s81.5 -124.834 105.5 -213.501s36 -198.667 36 -330v-131c0 -132 -12 -242.167 -36 -330.5s-59.167 -159.333 -105.5 -213s-103.5 -91.834 -171.5 -114.501s-146.333 -34 -235 -34zM709 1430
c-77.333 0 -145.997 -9.66504 -205.997 -28.998s-110.833 -52.5 -152.5 -99.5s-73.334 -110.167 -95.001 -189.5s-32.5 -179 -32.5 -299v-151c0 -120.667 10.833 -220.667 32.5 -300s53.167 -142.5 94.5 -189.5s92.166 -80 152.499 -99s129.166 -28.5 206.499 -28.5
s146 9.5 206 28.5s110.5 52.167 151.5 99.5s72.167 110.666 93.5 189.999s32 179.666 32 300.999v149c0 120 -10.667 219.667 -32 299s-52.5 142.5 -93.5 189.5s-91.5 80.167 -151.5 99.5s-128.667 29 -206 29z" />
    <glyph glyph-name="P" unicode="P" horiz-adv-x="1242" 
d="M499 1430c-12 0 -28.166 -0.333008 -48.499 -1l-64 -2c-22.333 -0.666992 -43.5 -1.66699 -63.5 -3l-46 -3v-805c10.667 -1.33301 26 -2.33301 46 -3s41.167 -1.5 63.5 -2.5s43.666 -1.66699 63.999 -2s36.5 -0.5 48.5 -0.5c106.667 0 196.667 5.16699 270 15.5
s132.333 29.5 177 57.5s76.834 67 96.501 117s29.5 115 29.5 195v51c0 80 -9.83301 145.167 -29.5 195.5s-51.834 89.5 -96.501 117.5s-103.667 47.167 -177 57.5s-163.333 15.5 -270 15.5zM228.001 0c-8 0 -12 4 -12 12v1455c0 8 4 12.333 12 13
c20 1.33301 42.667 2.66602 68 3.99902s50.666 2.5 75.999 3.5s49.333 1.83301 72 2.5s41 1 55 1c108.667 0 202.834 -5 282.501 -15s145.667 -30.5 198 -61.5s91.166 -75.333 116.499 -133s38 -134.5 38 -230.5v-64c0 -96 -12.667 -172.833 -38 -230.5
s-64.166 -102 -116.499 -133s-118.333 -51.5 -198 -61.5s-173.834 -15 -282.501 -15c-15.333 0 -34.666 0.333008 -57.999 1s-46.5 1.5 -69.5 2.5s-43.5 1.83301 -61.5 2.5s-29 1.33398 -33 2.00098v-543c0 -8 -4 -12 -12 -12h-37z" />
    <glyph glyph-name="Q" unicode="Q" horiz-adv-x="1416" 
d="M706 -20c-88 0 -166.002 11.499 -234.002 34.499s-125.167 61.167 -171.5 114.5s-81.666 124.333 -105.999 213s-36.5 198.667 -36.5 330v131c0 131.333 12.167 241.333 36.5 330s59.833 159.834 106.5 213.501s104.334 91.834 173.001 114.501s147 34 235 34
c88.667 0 167 -11.333 235 -34s125.167 -60.834 171.5 -114.501s81.5 -124.834 105.5 -213.501s36 -198.667 36 -330v-131c0 -123.333 -10.5 -227.5 -31.5 -312.5s-51.667 -154.667 -92 -209s-90.333 -94.666 -150 -120.999s-128.5 -41.833 -206.5 -46.5l227 -362
c4.66699 -6.66699 2.66699 -10 -6 -10h-48c-8.66699 0 -14.667 3.33301 -18 10zM708.998 1430c-77.333 0 -145.997 -9.66504 -205.997 -28.998s-110.833 -52.5 -152.5 -99.5s-73.334 -110.167 -95.001 -189.5s-32.5 -179 -32.5 -299v-151
c0 -120.667 10.833 -220.667 32.5 -300s53.167 -142.5 94.5 -189.5s92.166 -80 152.499 -99s129.166 -28.5 206.499 -28.5s146 9.5 206 28.5s110.5 52.167 151.5 99.5s72.167 110.666 93.5 189.999s32 179.666 32 300.999v149c0 120 -10.667 219.667 -32 299
s-52.5 142.5 -93.5 189.5s-91.5 80.167 -151.5 99.5s-128.667 29 -206 29z" />
    <glyph glyph-name="R" unicode="R" horiz-adv-x="1314" 
d="M1159 0c-8.66699 0 -15 3.33398 -19 10.001l-385 574c-56 -4 -118.667 -6 -188 -6h-70c-22.667 0 -45.5 0.333008 -68.5 1s-47 1.5 -72 2.5s-51.833 2.5 -80.5 4.5v-574c0 -8 -4 -12 -12 -12h-37c-8 0 -12 4 -12 12v1449c0 8 4 12.333 12 13
c60.667 5.33301 119 8.5 175 9.5s112.333 1.5 169 1.5c67.333 0 128.833 -1.33301 184.5 -4s105.5 -8.5 149.5 -17.5s82.5 -22.5 115.5 -40.5s60.333 -42.333 82 -73s37.834 -68.667 48.501 -114s16 -100.333 16 -165v-82c0 -81.333 -9.5 -147.833 -28.5 -199.5
s-49.5 -92.834 -91.5 -123.501c-28 -20 -60.5 -36 -97.5 -48s-79.5 -21.333 -127.5 -28l20 -27l372 -553c5.33301 -6.66699 3.66602 -10 -5.00098 -10h-50zM569 1423h-81c-28.667 0 -56.5 -0.333008 -83.5 -1s-52 -1.5 -75 -2.5s-40.833 -2.5 -53.5 -4.5v-768
c24 -2 50 -3.5 78 -4.5s55.333 -1.83301 82 -2.5s51.5 -1 74.5 -1h56.5c96.667 0 179.167 3.33301 247.5 10s124 22.5 167 47.5s74.5 62 94.5 111s30 115.833 30 200.5v57c0 86 -10.667 153 -32 201s-54 83.667 -98 107s-99.833 37.5 -167.5 42.5s-147.5 7.5 -239.5 7.5z
" />
    <glyph glyph-name="S" unicode="S" horiz-adv-x="1147" 
d="M492 -20c-29.333 0 -59.3389 0.662109 -90.0059 1.99512s-61 3.16602 -91 5.49902s-58.667 5.33301 -86 9s-52 7.83398 -74 12.501c-8.66699 2 -11 6.66699 -7 14l15 34c4 7.33301 9.66699 10.333 17 9c61.333 -9.33301 117.833 -15.833 169.5 -19.5
s100.5 -5.5 146.5 -5.5c108 0 193.5 7.66699 256.5 23s110.667 37.5 143 66.5s53 64 62 105s13.5 87.5 13.5 139.5c0 32 -1.66699 60.333 -5 85s-9.66602 47 -18.999 67s-22.666 38.167 -39.999 54.5s-39.666 32.5 -66.999 48.5s-60.666 32.333 -99.999 49
s-86 35.334 -140 56.001l-125 47c-58.667 22.667 -109.667 44.334 -153 65.001s-79.166 44.5 -107.499 71.5s-49.333 59.5 -63 97.5s-20.5 85.667 -20.5 143c0 58.667 9.16699 109.167 27.5 151.5s48.166 77.166 89.499 104.499s95.333 47.5 162 60.5
s148.334 19.5 245.001 19.5c28 0 56 -0.5 84 -1.5s55.333 -2.66699 82 -5s51.834 -5 75.501 -8s45.167 -6.5 64.5 -10.5c8 -0.666992 11 -5 9 -13l-11 -34c-2 -7.33301 -7 -10.666 -15 -9.99902c-18 4 -39 7.33301 -63 10s-49 4.83398 -75 6.50098
s-52.333 2.83398 -79 3.50098s-52 1 -76 1c-85.333 0 -157.166 -4.66699 -215.499 -14s-105.5 -24.666 -141.5 -45.999s-62 -49.5 -78 -84.5s-24 -78.5 -24 -130.5c0 -52.667 7.5 -96 22.5 -130s37.333 -63 67 -87s66.5 -45 110.5 -63s95 -37.333 153 -58l147 -53
c68 -24.667 124 -49.334 168 -74.001s78.833 -52 104.5 -82s43.334 -64 53.001 -102s14.5 -83 14.5 -135c0 -40 -2.5 -77.667 -7.5 -113s-14.333 -67.666 -28 -96.999s-32.834 -55.5 -57.501 -78.5s-56.834 -42.333 -96.501 -58s-88 -27.667 -145 -36
s-124.167 -12.5 -201.5 -12.5z" />
    <glyph glyph-name="T" unicode="T" horiz-adv-x="1174" 
d="M568 0c-8 0 -12 4 -12 12v1401h-512c-8 0 -12 4 -12 12v38c0 8 4 12 12 12h1086c8 0 12 -4 12 -12v-38c0 -8 -4 -12 -12 -12h-513v-1401c0 -8 -4 -12 -12 -12h-37z" />
    <glyph glyph-name="U" unicode="U" horiz-adv-x="1411" 
d="M700 -20c-80 0 -151.167 9.33496 -213.5 28.002s-114.833 48.667 -157.5 90s-75 95 -97 161s-33 146.333 -33 241v963c0 8 4 12 12 12h37c8 0 12 -4 12 -12v-945c0 -80 7.16699 -149.833 21.5 -209.5s38.5 -109.334 72.5 -149.001s79.167 -69.334 135.5 -89.001
s126.5 -29.5 210.5 -29.5c86.667 0 159 9.83301 217 29.5s104.5 49.167 139.5 88.5s59.833 89 74.5 149s22 130 22 210v945c0 8 4 12 12 12h35c8 0 12 -4 12 -12v-963c0 -94.667 -11.333 -175 -34 -241s-55.667 -119.667 -99 -161s-96.833 -71.333 -160.5 -90
s-136.5 -28 -218.5 -28z" />
    <glyph glyph-name="V" unicode="V" horiz-adv-x="1270" 
d="M633 61h1.99805l526 1403c2.66699 7.33301 8 11 16 11h44c8.66699 0 11.334 -3.66699 8.00098 -11l-547 -1453c-2.66699 -7.33301 -8 -11 -16 -11h-64c-8 0 -13.333 3.66699 -16 11l-545 1453c-3.33301 7.33301 -0.666016 11 8.00098 11h41c8 0 13.333 -3.66699 16 -11z
" />
    <glyph glyph-name="W" unicode="W" horiz-adv-x="1784" 
d="M424 0c-8 0 -13 4 -15 12l-332 1451c-2 8 1 12 9 12h41c8 0 13 -4 15 -12l262 -1170l52 -236l6.5 22.5l16.5 57l21 75l22 77.5l331 1174c2 8 7 12 15 12h44c8 0 13 -4 15 -12l333 -1166l23 -84.5l22 -77l16.5 -56.5l6.5 -22l54 244l258 1162c2 8 7 12 15 12h43
c8 0 11 -4 9 -12l-332 -1451c-2 -8 -7 -12 -15 -12h-66c-8 0 -13 4 -15 12l-359 1268c-4 13.333 -7.66699 26.333 -11 39l-9 34l-6.5 24l-2.5 9l-2 -9c-1.33301 -6 -3.33301 -14 -6 -24s-5.5 -21.333 -8.5 -34s-6.5 -25.667 -10.5 -39l-361 -1268c-2 -8 -7 -12 -15 -12h-64z
" />
    <glyph glyph-name="X" unicode="X" horiz-adv-x="1203" 
d="M1081 0c-8.66699 0 -15 3.33301 -19 10l-460 681l-460 -681c-4 -6.66699 -10.333 -10 -19 -10h-56c-8.66699 -0 -10.334 3.33301 -5.00098 10l503 726l-503 729c-5.33301 6.66699 -3.66602 10 5.00098 10h56c8.66699 0 15 -3.33301 19 -10l460 -683l460 683
c4 6.66699 10.333 10 19 10h56c8.66699 0 10.334 -3.33301 5.00098 -10l-504 -729l504 -726c5.33301 -6.66699 3.66602 -10 -5.00098 -10h-56z" />
    <glyph glyph-name="Y" unicode="Y" horiz-adv-x="1129" 
d="M547 0c-8 0 -12 4 -12 12v511l-496 941c-4 7.33301 -2 11 6 11h43c7.33301 0 13.333 -3.66699 18 -11l459 -860l459 860c4.66699 7.33301 10.667 11 18 11h42c8 0 10 -3.66699 6 -11l-494 -941v-511c0 -8 -4 -12 -12 -12h-37z" />
    <glyph glyph-name="Z" unicode="Z" horiz-adv-x="1149" 
d="M110 0c-8 0 -12 4 -12 12v37c0 8 2.33301 15.333 7 22l876 1342h-859c-8 0 -12 4 -12 12v38c0 8 4 12 12 12h912c8 0 12 -4 12 -12v-38c0 -8 -2.33301 -15.333 -7 -22l-871 -1342h866c8 0 12 -4 12 -12v-37c0 -8 -4 -12 -12 -12h-924z" />
    <glyph glyph-name="bracketleft" unicode="[" horiz-adv-x="550" 
d="M202 -389c-8 0 -12 4 -12 12v1921c0 8 4 12 12 12h353c8 0 12 -4 12 -12v-37c0 -8 -4 -12 -12 -12h-303v-1823h303c8 0 12 -4 12 -12v-37c0 -8 -4 -12 -12 -12h-353z" />
    <glyph glyph-name="backslash" unicode="\" horiz-adv-x="753" 
d="M608 0c-8 0 -13.333 3.66699 -16 11l-506 1534c-3.33301 7.33301 -0.666016 11 8.00098 11h39c8 0 13.333 -3.66699 16 -11l506 -1534c3.33301 -7.33301 0.666016 -11 -8.00098 -11h-39z" />
    <glyph glyph-name="bracketright" unicode="]" horiz-adv-x="550" 
d="M-5 -389c-8 0 -12 4 -12 12v37c0 8 4 12 12 12h303v1823h-303c-8 0 -12 4 -12 12v37c0 8 4 12 12 12h353c8 0 12 -4 12 -12v-1921c0 -8 -4 -12 -12 -12h-353z" />
    <glyph glyph-name="asciicircum" unicode="^" horiz-adv-x="1188" 
d="M282 1172c-8 0 -9.33398 3 -4.00098 9l273 283c5.33301 6 12 9 20 9h46c8 0 14.667 -3 20 -9l273 -283c4.66699 -6 3.33398 -9 -3.99902 -9h-77c-8 0 -14.667 3 -20 9l-215 235l-215 -235c-5.33301 -6 -12 -9 -20 -9h-77z" />
    <glyph glyph-name="underscore" unicode="_" horiz-adv-x="897" 
d="M71 -184c-8 0 -12 4 -12 12v37c0 8 4 12 12 12h755c8 0 12 -4 12 -12v-37c0 -8 -4 -12 -12 -12h-755z" />
    <glyph glyph-name="grave" unicode="`" 
d="M473 1260c-8 0 -14.667 3 -20 9l-198 238c-5.33301 6 -4 9 4 9h62c8.66699 0 15 -3 19 -9l184 -238c4.66699 -6 3 -9 -5 -9h-46z" />
    <glyph glyph-name="a" unicode="a" horiz-adv-x="1082" 
d="M568 41c50 0 97.999 1.83301 143.999 5.5s91 8.5 135 14.5v510h-184c-104.667 0 -189.167 -3.33301 -253.5 -10s-114.166 -19.5 -149.499 -38.5s-59 -45.667 -71 -80s-18 -78.833 -18 -133.5c0 -59.333 9.33301 -106.666 28 -141.999s45.167 -62.333 79.5 -81
s76 -30.834 125 -36.501s103.833 -8.5 164.5 -8.5zM543.999 1028c-31.333 0 -60.4971 -0.666016 -87.4971 -1.99902s-53.333 -3.33301 -79 -6s-50.834 -6 -75.501 -10s-50 -8.33301 -76 -13c-8 -0.666992 -12 2.66602 -12 9.99902v38c0 8.66699 4 13.334 12 14.001
c26 5.33301 53.333 10 82 14s57 7.16699 85 9.5s55 4.16602 81 5.49902s49.333 2 70 2c82 0 147 -6.83301 195 -20.5s84.5 -36.167 109.5 -67.5s41.167 -72.333 48.5 -123s11 -113 11 -187v-668c0 -8.66699 -4 -13.334 -12 -14.001
c-27.333 -4.66699 -56 -8.83398 -86 -12.501s-59.667 -6.83398 -89 -9.50098s-57.5 -4.66699 -84.5 -6s-50.5 -2 -70.5 -2c-77.333 0 -144.5 4.83301 -201.5 14.5s-104.333 26.834 -142 51.501s-65.834 58.334 -84.501 101.001s-28 97.334 -28 164.001
c0 62 8 113.667 24 155s45 74.333 87 99s99.667 42.167 173 52.5s167 15.5 281 15.5h172v96c0 60.667 -4 110.5 -12 149.5s-23 69.5 -45 91.5s-52.833 37.167 -92.5 45.5s-90.834 12.5 -153.501 12.5z" />
    <glyph glyph-name="b" unicode="b" horiz-adv-x="1133" 
d="M507 1028c-19.333 0 -40.167 -0.500977 -62.5 -1.50098s-45.166 -2.5 -68.499 -4.5s-46.333 -4.5 -69 -7.5s-43.334 -6.5 -62.001 -10.5v-943c42 -6 85 -10.833 129 -14.5s89 -5.5 135 -5.5c84.667 0 154.167 7.16699 208.5 21.5s97 39 128 74s52.333 81.833 64 140.5
s17.5 132.334 17.5 221.001v75c0 58.667 -2.33301 110.5 -7 155.5s-13 84.5 -25 118.5s-28.333 62.5 -49 85.5s-46.5 41.5 -77.5 55.5s-68 24.167 -111 30.5s-93.167 9.5 -150.5 9.5zM508.999 -20.001c-46.667 0 -96.002 2.00195 -148.002 6.00195s-107.333 12 -166 24
c-8 0.666992 -12 5.33398 -12 14.001v1566c0 8 3.66699 13.333 11 16l40 12c7.33301 3.33301 11 0.666016 11 -8.00098v-545l59.5 8.5c21.667 3 43.834 5.83301 66.501 8.5s45.334 4.66699 68.001 6s44.667 2 66 2c94 0 172.167 -8.83301 234.5 -26.5
s111.833 -46.334 148.5 -86.001s62.5 -91.334 77.5 -155.001s22.5 -141.834 22.5 -234.501v-107c0 -96.667 -8 -177.167 -24 -241.5s-42.667 -115.666 -80 -153.999s-86.5 -65.5 -147.5 -81.5s-136.833 -24 -227.5 -24z" />
    <glyph glyph-name="c" unicode="c" horiz-adv-x="964" 
d="M632 -20c-90 0 -166.002 7.33301 -228.002 22s-112.167 41 -150.5 79s-66.166 90.333 -83.499 157s-26 152 -26 256v84c0 94 7.66699 173.5 23 238.5s41.833 117.833 79.5 158.5s87.834 70 150.501 88s141 27 235 27c42 0 82.333 -1.83301 121 -5.5
s74 -8.16699 106 -13.5c8 -0.666992 10.667 -5 8 -13l-12 -35c-2.66699 -6.66699 -8 -9.66699 -16 -9c-31.333 5.33301 -65.5 9 -102.5 11s-71.833 3 -104.5 3c-84 0 -153.5 -7.5 -208.5 -22.5s-98.5 -40.333 -130.5 -76s-54.5 -83.334 -67.5 -143.001
s-19.5 -134.167 -19.5 -223.5v-57c0 -91.333 6.5 -166.833 19.5 -226.5s35.5 -107.167 67.5 -142.5s75.5 -60.166 130.5 -74.499s124.5 -21.5 208.5 -21.5c36.667 0 73.5 1.16699 110.5 3.5s70.5 6.5 100.5 12.5c8 0.666992 13 -2.66602 15 -9.99902l10 -36
c2 -8 -1 -12.333 -9 -13c-16 -3.33301 -33.333 -6 -52 -8s-38 -3.83301 -58 -5.5s-40 -2.83398 -60 -3.50098s-39 -1 -57 -1z" />
    <glyph glyph-name="d" unicode="d" horiz-adv-x="1133" 
d="M625 1028c-84.667 0 -153.997 -7.16406 -207.997 -21.4971s-96.5 -39 -127.5 -74s-52.5 -81.667 -64.5 -140s-18 -131.5 -18 -219.5v-75c0 -88.667 5.83301 -162.334 17.5 -221.001s33 -105.5 64 -140.5s74 -59.667 129 -74s126.167 -21.5 213.5 -21.5
c44 0 88 1.83301 132 5.5s86 8.5 126 14.5v940c-19.333 4 -40.333 7.66699 -63 11s-45.834 6.16602 -69.501 8.49902s-46.834 4.16602 -69.501 5.49902s-43.334 2 -62.001 2zM631.003 -19.9971c-92.667 0 -170.168 8.16895 -232.501 24.502s-112.166 44 -149.499 83
s-64 90.5 -80 154.5s-24 143.667 -24 239v107c0 94 7.66699 173.167 23 237.5s41.5 116 78.5 155s86.333 67 148 84s138.5 25.5 230.5 25.5c44 0 89.5 -2.66699 136.5 -8s89.5 -11.666 127.5 -18.999v527c0 8 3.66699 13.333 11 16l39 12
c7.33301 3.33301 11 0.666016 11 -8.00098v-1586c0 -8.66699 -4 -13.334 -12 -14.001c-56.667 -10.667 -110.5 -18.334 -161.5 -23.001s-99.5 -7 -145.5 -7z" />
    <glyph glyph-name="e" unicode="e" horiz-adv-x="1147" 
d="M603 -20c-83.333 0 -154.166 9.16309 -212.499 27.4961s-105.833 48.166 -142.5 89.499s-63.5 95.833 -80.5 163.5s-25.5 150.834 -25.5 249.501v70c0 85.333 7.83301 160 23.5 224s41.167 117.167 76.5 159.5s81.333 74 138 95s125.667 31.5 207 31.5
c79.333 0 147 -10 203 -30s101.667 -49.5 137 -88.5s61.166 -87.333 77.499 -145s24.5 -124.167 24.5 -199.5c0 -22 -0.666992 -40.667 -2 -56s-2.66602 -27 -3.99902 -35c-0.666992 -8 -5.33398 -12 -14.001 -12h-805v-14c0 -85.333 6.33301 -157.666 19 -216.999
s34.167 -107.666 64.5 -144.999s71 -64.5 122 -81.5s114.833 -25.5 191.5 -25.5c28 0 55.167 0.166992 81.5 0.5s52.666 1.33301 78.999 3s53 4.33398 80 8.00098s55.5 8.5 85.5 14.5c8 0.666992 13 -2.66602 15 -9.99902l11 -35c2 -8 -1 -12.333 -9 -13
c-27.333 -5.33301 -54 -9.83301 -80 -13.5s-52.667 -6.66699 -80 -9s-55.666 -4 -84.999 -5s-61.333 -1.5 -96 -1.5zM970 583.996c0 75.333 -6.16797 140.833 -18.501 196.5s-33.166 101.834 -62.499 138.501s-68.5 64 -117.5 82s-110.5 27 -184.5 27
c-72 0 -132.167 -8.83301 -180.5 -26.5s-87.5 -44.667 -117.5 -81s-51.5 -82.333 -64.5 -138s-19.833 -121.834 -20.5 -198.501h766z" />
    <glyph glyph-name="f" unicode="f" horiz-adv-x="684" 
d="M300 0c-8 0 -11.999 4 -11.999 12v1002l-226 6c-8 0 -12 4 -12 12v27c0 8 4 12 12 12h226v238c0 56 4.66699 103.833 14 143.5s25.333 72 48 97s53.167 43.333 91.5 55s86.166 17.5 143.499 17.5c31.333 0 61.666 -0.833008 90.999 -2.5s56.333 -4.16699 81 -7.5
c8 -0.666992 10.667 -5 8 -13l-13 -36c-2.66699 -6.66699 -8 -9.66699 -16 -9c-11.333 1.33301 -23.666 2.5 -36.999 3.5s-26.833 1.66699 -40.5 2l-39.5 1c-12.667 0.333008 -24 0.5 -34 0.5c-48 0 -87.167 -4.5 -117.5 -13.5s-54.333 -23.5 -72 -43.5
s-29.834 -46 -36.501 -78s-10 -71 -10 -117v-238h291c8.66699 0 11.334 -3.66699 8.00098 -11l-10 -35c-2.66699 -7.33301 -8 -11 -16 -11h-273v-1002c0 -8 -4 -12 -12 -12h-37z" />
    <glyph glyph-name="g" unicode="g" horiz-adv-x="1133" 
d="M625 1028c-86 0 -156.168 -7.33203 -210.501 -21.999s-96.833 -39.667 -127.5 -75s-51.667 -82.166 -63 -140.499s-17 -131.5 -17 -219.5v-77c0 -86.667 5.83301 -159 17.5 -217s33.334 -104.5 65.001 -139.5s75.5 -59.833 131.5 -74.5s128.667 -22 218 -22
c18 0 37.833 0.666992 59.5 2s43.5 3.16602 65.5 5.49902s43.833 5.16602 65.5 8.49902s41.5 7 59.5 11v942c-84 12 -172 18 -264 18zM486.999 -470.999c-16 0 -35.335 0.500977 -58.002 1.50098s-46.334 2.5 -71.001 4.5s-49.167 4.83301 -73.5 8.5
s-46.166 8.16699 -65.499 13.5c-8 2 -11 6.66699 -9 14l8 36c2 8 7 11 15 9c36.667 -10 76.667 -16.833 120 -20.5s88 -5.5 134 -5.5c70 0 130.333 4.66699 181 14s92.334 28.666 125.001 57.999s56.834 71.333 72.501 126s23.5 127.334 23.5 218.001
c-35.333 -7.33301 -75.5 -13.5 -120.5 -18.5s-88.167 -7.5 -129.5 -7.5c-96.667 0 -176.834 8.83301 -240.501 26.5s-114.167 46.167 -151.5 85.5s-63.666 90.833 -78.999 154.5s-23 141.167 -23 232.5v109c0 96 7.83301 176.167 23.5 240.5s42 115.833 79 154.5
s86.167 66.167 147.5 82.5s138 24.5 230 24.5c46 0 95 -1.83301 147 -5.5s107.333 -11.5 166 -23.5c8 -0.666992 12 -5.33398 12 -14.001v-1047c0 -98 -9 -177.5 -27 -238.5s-45.833 -108.833 -83.5 -143.5s-85.667 -58.167 -144 -70.5s-127.833 -18.5 -208.5 -18.5z" />
    <glyph glyph-name="h" unicode="h" horiz-adv-x="1169" 
d="M944 0c-8 0 -12.001 4 -12.001 12v629c0 78 -4 142 -12 192s-23 89.5 -45 118.5s-52.333 49 -91 60s-88.334 16.5 -149.001 16.5c-29.333 0 -60.666 -2.16699 -93.999 -6.5s-67 -10.833 -101 -19.5s-67.5 -19.667 -100.5 -33s-64.167 -29 -93.5 -47v-910
c0 -8 -4 -12 -12 -12h-38c-8 0 -12 4 -12 12v1578c0 8 3.66699 13.333 11 16l40 12c7.33301 3.33301 11 0.666016 11 -8.00098v-625c28 16.667 58.333 31.5 91 44.5s66.167 24 100.5 33s68.5 15.833 102.5 20.5s65.667 7 95 7c74.667 0 135.334 -7 182.001 -21
s83 -38.167 109 -72.5s43.667 -80.166 53 -137.499s14 -129.333 14 -216v-631c0 -8 -4 -12 -12 -12h-37z" />
    <glyph glyph-name="i" unicode="i" horiz-adv-x="444" 
d="M204 0c-8 0 -12 4 -12 12v1047c0 8 4 12 12 12h37c8 0 12 -4 12 -12v-1047c0 -8 -4 -12 -12 -12h-37zM197 1260c-8 0 -12 4 -12 12v252c0 8 4 13 12 15l50 14c8 2 12 -1 12 -9v-272c0 -8 -4 -12 -12 -12h-50z" />
    <glyph glyph-name="j" unicode="j" horiz-adv-x="444" 
d="M-9 -471c-20.667 0 -43.998 1.00098 -69.998 3.00098s-49.667 6 -71 12c-7.33301 2 -10 6.66699 -8 14l9 35c2 7.33301 7 10.666 15 9.99902c19.333 -3.33301 40.166 -6.33301 62.499 -9s43.166 -4 62.499 -4c39.333 0 72 3.33301 98 10s46.667 19 62 37s26 42.667 32 74
s9 71.666 9 120.999v1227c0 8 4 12 12 12h37c8 0 12 -4 12 -12v-1227c0 -65.333 -5 -117.833 -15 -157.5s-25.667 -70.167 -47 -91.5s-48.5 -35.666 -81.5 -42.999s-72.5 -11 -118.5 -11zM197.002 1260c-8 0 -12 4 -12 12v252c0 8 4 13 12 15l50 14c8 2 12 -1 12 -9v-272
c0 -8 -4 -12 -12 -12h-50z" />
    <glyph glyph-name="k" unicode="k" horiz-adv-x="1000" 
d="M898 0c-8.66699 0 -15 3.33398 -19 10.001l-477 654l-156 -121v-531c0 -8 -4 -12 -12 -12h-38c-8 0 -12 4 -12 12v1578c0 8 3.66699 13.333 11 16l40 12c7.33301 3.33301 11 0.666016 11 -8.00098v-992l576 446c6.66699 4.66699 13.667 7 21 7h73c8 0 9 -2.33301 3 -7
l-468 -363l509 -691c4.66699 -6.66699 3 -10 -5 -10h-57z" />
    <glyph glyph-name="l" unicode="l" horiz-adv-x="461" 
d="M212 0c-8 0 -12 4.00098 -12 12.001v1578c0 8 3.66699 13.333 11 16l39 12c7.33301 3.33301 11 0.666016 11 -8.00098v-1598c0 -8 -4 -12 -12 -12h-37z" />
    <glyph glyph-name="m" unicode="m" horiz-adv-x="1703" 
d="M196 0c-8 0 -11.999 3.99805 -11.999 11.998v1066c0 8 4 12 12 12h23c7.33301 0 12 -4 14 -12l12 -92c20.667 15.333 43.334 29.333 68.001 42s50.667 23.667 78 33s55.5 16.5 84.5 21.5s58.167 7.5 87.5 7.5c60.667 0 112.167 -6.83301 154.5 -20.5
s76.833 -37.5 103.5 -71.5c60 30.667 120.667 53.667 182 69s119 23 173 23c65.333 0 120.333 -6.5 165 -19.5s80.667 -34.167 108 -63.5s47 -68.333 59 -117s18 -108.334 18 -179.001v-699c0 -8 -4 -12 -12 -12h-38c-8 0 -12 4 -12 12v666
c0 74 -4.83301 133.833 -14.5 179.5s-25.667 81.167 -48 106.5s-52 42.333 -89 51s-82.5 13 -136.5 13c-52.667 0 -105 -6 -157 -18s-107.667 -32.667 -167 -62c15.333 -33.333 26.666 -73.166 33.999 -119.499s11 -101.166 11 -164.499v-652c0 -8 -4 -12 -12 -12h-37
c-8 0 -12 4 -12 12v650c0 76.667 -5.16699 138.834 -15.5 186.501s-26.5 84.834 -48.5 111.501s-50.5 44.667 -85.5 54s-77.5 14 -127.5 14c-24 0 -48.833 -1.5 -74.5 -4.5s-51.834 -8.5 -78.501 -16.5s-53.5 -18.833 -80.5 -32.5s-53.5 -30.834 -79.5 -51.501v-911
c0 -8 -4 -12 -12 -12h-38z" />
    <glyph glyph-name="n" unicode="n" horiz-adv-x="1169" 
d="M944 0c-8 0 -11.9971 3.99902 -11.9971 11.999v649c0 70 -5 128.333 -15 175s-26.333 84.334 -49 113.001s-52.334 49 -89.001 61s-81.334 18 -134.001 18c-65.333 0 -132.333 -8.66699 -201 -26s-134.667 -44 -198 -80v-910c0 -8 -4 -12 -12 -12h-38c-8 0 -12 4 -12 12
v1066c0 8 4 12 12 12h23c7.33301 0 12 -4 14 -12l12 -94c66 34 132.833 60.167 200.5 78.5s134.167 27.5 199.5 27.5c68.667 0 125.5 -7.83301 170.5 -23.5s80.667 -40.5 107 -74.5s44.666 -78.167 54.999 -132.5s15.5 -119.833 15.5 -196.5v-651c0 -8 -4 -12 -12 -12h-37z
" />
    <glyph glyph-name="o" unicode="o" horiz-adv-x="1173" 
d="M587 1028c-72.667 0 -133.5 -8.99805 -182.5 -26.998s-88.333 -45.833 -118 -83.5s-50.834 -85.5 -63.501 -143.5s-19 -127 -19 -207v-65c0 -80 6.16699 -149 18.5 -207s33.166 -105.833 62.499 -143.5s68.5 -65.5 117.5 -83.5s110.5 -27 184.5 -27
c72.667 0 133.5 9 182.5 27s88.333 45.667 118 83s50.834 85.166 63.501 143.499s19 128.166 19 209.499v63c0 79.333 -6.16699 148 -18.5 206s-33.166 105.833 -62.499 143.5s-68.5 65.667 -117.5 84s-110.5 27.5 -184.5 27.5zM587 -19.998
c-79.333 0 -147.166 9.66699 -203.499 29s-102.333 49.833 -138 91.5s-61.834 94.834 -78.501 159.501s-25 142 -25 232v83c0 90 8.33301 167.5 25 232.5s42.834 118.5 78.501 160.5s81.667 72.833 138 92.5s124.166 29.5 203.499 29.5c80 0 148 -9.83301 204 -29.5
s101.833 -50.5 137.5 -92.5s61.667 -95.5 78 -160.5s24.5 -142.5 24.5 -232.5v-83c0 -90 -8.16699 -167.333 -24.5 -232s-42.333 -117.834 -78 -159.501s-81.5 -72.167 -137.5 -91.5s-124 -29 -204 -29z" />
    <glyph glyph-name="p" unicode="p" horiz-adv-x="1133" 
d="M509 1028c-92 0 -179.999 -6.00293 -263.999 -18.0029v-942c18.667 -4 39.334 -7.66699 62.001 -11s45.667 -6.16602 69 -8.49902s46.166 -4.16602 68.499 -5.49902s43.166 -2 62.499 -2c57.333 0 107.5 3.16699 150.5 9.5s80 16.5 111 30.5s56.833 32.5 77.5 55.5
s37 51.5 49 85.5s20.333 73.5 25 118.5s7 96.833 7 155.5v75c0 88.667 -5.83301 162.334 -17.5 221.001s-33 105.5 -64 140.5s-73.667 59.667 -128 74s-123.833 21.5 -208.5 21.5zM195.001 -451.003c-8 0 -12 3.99902 -12 11.999v1486c0 8.66699 4 13.334 12 14.001
c58.667 11.333 114 19 166 23s101.333 6 148 6c90.667 0 166.5 -7.83301 227.5 -23.5s110.167 -42.834 147.5 -81.501s64 -90.167 80 -154.5s24 -145.166 24 -242.499v-105c0 -93.333 -7.5 -172 -22.5 -236s-40.833 -115.667 -77.5 -155s-85.834 -67.833 -147.501 -85.5
s-139.5 -26.5 -233.5 -26.5c-43.333 0 -88.666 2.5 -135.999 7.5s-89.333 11.167 -126 18.5v-445c0 -8 -4 -12 -12 -12h-38z" />
    <glyph glyph-name="q" unicode="q" horiz-adv-x="1133" 
d="M625 1028c-85.333 0 -154.998 -7.16406 -208.998 -21.4971s-96.5 -39 -127.5 -74s-52.333 -81.833 -64 -140.5s-17.5 -132.334 -17.5 -221.001v-75c0 -88 5.83301 -161.167 17.5 -219.5s33 -105 64 -140s73.833 -59.667 128.5 -74s125.334 -21.5 212.001 -21.5
c18 0 38.167 0.666992 60.5 2s45.166 3.16602 68.499 5.49902s46.166 5.16602 68.499 8.49902s43.166 7 62.499 11v942c-84 12 -172 18 -264 18zM901.002 -450.997c-8 0 -12.001 3.99805 -12.001 11.998v445c-18.667 -3.33301 -38.667 -6.66602 -60 -9.99902
s-43.333 -6.16602 -66 -8.49902s-45.5 -4.16602 -68.5 -5.49902s-44.833 -2 -65.5 -2c-94 0 -172.167 8.83301 -234.5 26.5s-112 46.167 -149 85.5s-63 91 -78 155s-22.5 142.667 -22.5 236v105c0 97.333 8 178.166 24 242.499s42.667 115.833 80 154.5
s86.666 65.834 147.999 81.501s137.333 23.5 228 23.5c46.667 0 95.834 -2 147.501 -6s106.834 -11.667 165.501 -23c8 -0.666992 12 -5.33398 12 -14.001v-1486c0 -8 -4 -12 -12 -12h-37z" />
    <glyph glyph-name="r" unicode="r" horiz-adv-x="669" 
d="M196 0c-8 0 -11.999 4.00098 -11.999 12.001v1066c0 8 4 12 12 12h23c7.33301 0 12 -4 14 -12l9 -74c40 27.333 87 48.5 141 63.5s109.333 22.5 166 22.5c28 0 51.333 -1.66699 70 -5c8.66699 -0.666992 12 -5 10 -13l-6 -36c-0.666992 -8 -5.33398 -11.667 -14.001 -11
c-9.33301 1.33301 -18.666 2.16602 -27.999 2.49902s-20 0.5 -32 0.5c-52 0 -102.333 -5.66699 -151 -17s-99.334 -33.333 -152.001 -66v-933c0 -8 -4 -12 -12 -12h-38z" />
    <glyph glyph-name="s" unicode="s" horiz-adv-x="973" 
d="M435 -20c-18 0 -39.502 0.5 -64.502 1.5s-51 2.66699 -78 5s-54 5.5 -81 9.5s-51.833 9.33301 -74.5 16c-7.33301 2.66699 -9.66602 7.66699 -6.99902 15l10 33c2.66699 8 8 11 16 9c47.333 -11.333 93.166 -18.833 137.499 -22.5s91.5 -5.5 141.5 -5.5
c68 0 125.167 3.16699 171.5 9.5s83.833 17.833 112.5 34.5s49.334 38.834 62.001 66.501s19 63.167 19 106.5c0 34 -3.66699 62.167 -11 84.5s-20.5 42.333 -39.5 60s-45 34.167 -78 49.5s-75.5 32.666 -127.5 51.999l-183 69c-37.333 14.667 -70.666 29 -99.999 43
s-54.166 30.667 -74.499 50s-35.833 43 -46.5 71s-16 63 -16 105c0 46 7.16699 84.833 21.5 116.5s37.5 57.167 69.5 76.5s73.833 33.333 125.5 42s114.5 13 188.5 13c52 0 102.167 -2 150.5 -6s89.166 -8.33301 122.499 -13c8 -0.666992 10.667 -5 8 -13l-12 -35
c-2.66699 -8 -8 -11 -16 -9l-49 6c-16.667 2 -34.834 3.5 -54.501 4.5s-41.5 1.83301 -65.5 2.5s-51.333 1 -82 1c-67.333 0 -123.166 -2.83301 -167.499 -8.5s-79.666 -15.5 -105.999 -29.5s-45 -33 -56 -57s-16.5 -54.333 -16.5 -91c0 -30 2.66699 -55.333 8 -76
s16.166 -39.167 32.499 -55.5s40 -32 71 -47s72.5 -32.167 124.5 -51.5l153 -57c50.667 -19.333 94.167 -37.333 130.5 -54s66 -35.667 89 -57s40 -46.5 51 -75.5s16.5 -65.167 16.5 -108.5c0 -52 -7.66699 -95.833 -23 -131.5s-39.833 -64.5 -73.5 -86.5
s-77.5 -37.833 -131.5 -47.5s-120 -14.5 -198 -14.5z" />
    <glyph glyph-name="t" unicode="t" horiz-adv-x="745" 
d="M480 -20c-35.333 0 -65.998 2.83398 -91.998 8.50098s-47.667 17.5 -65 35.5s-30.333 43.833 -39 77.5s-13 78.5 -13 134.5v778l-223 8c-8 0 -12 4 -12 12v25c0 8 4 12 12 12h223v201c0 8 3.66699 13.333 11 16l40 13c7.33301 3.33301 11 0.666016 11 -8.00098v-222h350
c8 0 11 -4 9 -12l-10 -33c-2 -8 -7 -12 -15 -12h-334v-778c0 -43.333 2.66699 -77.833 8 -103.5s13.666 -45.334 24.999 -59.001s26.333 -22.5 45 -26.5s41.667 -6 69 -6c26 0 52.667 1.5 80 4.5s50.666 7.16699 69.999 12.5c8 2 13 -1 15 -9l8 -34
c2 -7.33301 -1 -12 -9 -14c-20 -5.33301 -44.833 -10.166 -74.5 -14.499s-59.5 -6.5 -89.5 -6.5z" />
    <glyph glyph-name="u" unicode="u" horiz-adv-x="1166" 
d="M601 -20c-85.333 0 -155.499 7.66504 -210.499 22.998s-98.5 40.333 -130.5 75s-54.167 79.834 -66.5 135.501s-18.5 123.834 -18.5 204.501v641c0 8 4 12 12 12h38c8 0 12 -4 12 -12v-641c0 -77.333 5.66699 -140.5 17 -189.5s30.833 -87.333 58.5 -115
s64.834 -46.667 111.501 -57s105 -15.5 175 -15.5c27.333 0 55.666 1 84.999 3s58.166 4.5 86.499 7.5s55.5 6.66699 81.5 11s49.667 8.83301 71 13.5v983c0 8 4 12 12 12h37c8 0 12 -4 12 -12v-1018c0 -8 -4 -13 -12 -15c-46 -11.333 -100.667 -21.833 -164 -31.5
s-132.333 -14.5 -207 -14.5z" />
    <glyph glyph-name="v" unicode="v" horiz-adv-x="983" 
d="M464 0c-8 0 -13.335 3.66699 -16.002 11l-394 1049c-3.33301 7.33301 -0.666016 11 8.00098 11h40c8 0 13.333 -3.66699 16 -11l373 -986l374 986c2.66699 7.33301 8 11 16 11h40c8.66699 0 11.334 -3.66699 8.00098 -11l-394 -1049c-2.66699 -7.33301 -8 -11 -16 -11
h-55z" />
    <glyph glyph-name="w" unicode="w" horiz-adv-x="1614" 
d="M392 0c-8 0 -12.999 4 -14.999 12l-310 1047c-2 8 1 12 9 12h42c8 0 13 -4 15 -12l267 -909l8 -26.5l7 -24.5l5 -18c1.33301 -4.66699 2.33301 -7 3 -7c1.33301 0.666992 4.5 8.83398 9.5 24.501l17.5 53.5l315 908c2.66699 7.33301 8 11 16 11h54
c8 0 13.333 -3.66699 16 -11l311 -910c7.33301 -19.333 13.666 -36.833 18.999 -52.5s8.66602 -23.5 9.99902 -23.5c1.33301 0.666992 4.33301 9.16699 9 25.5l15 50.5l268 909c2 8 7 12 15 12h41c8 0 11 -4 9 -12l-311 -1047c-2 -8 -7 -12 -15 -12h-54
c-8 0 -13.333 3.66699 -16 11l-322 923c-5.33301 15.333 -10 29.666 -14 42.999s-6.66699 20 -8 20c-1.33301 -0.666992 -4.16602 -7.5 -8.49902 -20.5l-14.5 -42.5l-323 -923c-2.66699 -7.33301 -8 -11 -16 -11h-54z" />
    <glyph glyph-name="x" unicode="x" horiz-adv-x="1006" 
d="M877 0c-8.66699 0 -15 3.33301 -19 10l-356 479l-355 -479c-4 -6.66699 -10.333 -10 -19 -10h-49c-8 -0 -9.66699 3.33301 -5 10l392 524l-392 527c-4.66699 6.66699 -3 10 5 10h49c8.66699 0 15 -3.33301 19 -10l355 -483l356 483c4 6.66699 10.333 10 19 10h50
c8 0 9.66699 -3.33301 5 -10l-394 -527l394 -524c4.66699 -6.66699 3 -10 -5 -10h-50z" />
    <glyph glyph-name="y" unicode="y" horiz-adv-x="940" 
d="M153 -471c-15.333 0 -33.1709 1.16309 -53.5039 3.49609s-39.166 5.83301 -56.499 10.5c-7.33301 2.66699 -10 7.66699 -8 15l8 35c2 8 7 11 15 9c15.333 -3.33301 31.666 -6.16602 48.999 -8.49902s32.666 -3.5 45.999 -3.5c26.667 0 50.167 1.33301 70.5 4
s38.833 8.83398 55.5 18.501s32.334 23.5 47.001 41.5s29.167 42.167 43.5 72.5s29.5 67.833 45.5 112.5s34 98.334 54 161.001h-5c-8 0 -13.667 3.66699 -17 11c-5.33301 11.333 -11.333 26 -18 44l-375 1005c-3.33301 7.33301 -0.666016 11 8.00098 11h42
c8 0 13.333 -3.66699 16 -11l330 -878l25 -72c6.66699 -20 11.334 -30 14.001 -30l325 980c2.66699 7.33301 8 11 16 11h42c8.66699 0 11.334 -3.66699 8.00098 -11l-377 -1142c-19.333 -57.333 -37.166 -106.833 -53.499 -148.5s-32.5 -77 -48.5 -106
s-32.333 -52.333 -49 -70s-34.667 -31.167 -54 -40.5s-40.833 -15.666 -64.5 -18.999s-50.5 -5 -80.5 -5z" />
    <glyph glyph-name="z" unicode="z" horiz-adv-x="981" 
d="M117 1010c-8 0 -12 3.99707 -12 11.9971v37c0 8 4 12 12 12h746c8 0 12 -4 12 -12v-37c0 -5.33301 -0.833008 -9.66602 -2.5 -12.999s-3.5 -6.66602 -5.5 -9.99902l-689 -938h685c8 0 12 -4 12 -12v-37c0 -8 -4 -12 -12 -12h-746c-8 0 -12 4 -12 12v33
c0 6.66699 0.5 11.834 1.5 15.501s3.16699 7.5 6.5 11.5l692 938h-688z" />
    <glyph glyph-name="braceleft" unicode="{" horiz-adv-x="585" 
d="M406 -389c-33.333 0 -61.666 2.49805 -84.999 7.49805s-42.333 15.333 -57 31s-25.167 38 -31.5 67s-9.5 67.5 -9.5 115.5v393c0 42.667 -1.33301 78.167 -4 106.5s-8.16699 52.5 -16.5 72.5s-19.833 37.333 -34.5 52s-34 30 -58 46c-6.66699 4 -10 10 -10 18v46
c0 8 3.33301 14 10 18c24 15.333 43.333 30.333 58 45s26.167 32 34.5 52s13.833 44 16.5 72s4 63.667 4 107v393c0 48 3.16699 86.667 9.5 116s16.833 51.833 31.5 67.5s33.667 26 57 31s51.666 7.5 84.999 7.5h141c8 0 12 -4 12 -12v-38c0 -8 -4 -12 -12 -12h-139
c-26 0 -47 -1.66699 -63 -5s-28.5 -10.5 -37.5 -21.5s-15 -27.167 -18 -48.5s-4.5 -49.666 -4.5 -84.999v-393c0 -43.333 -1.66699 -81 -5 -113s-9.5 -60.5 -18.5 -85.5s-21.5 -47 -37.5 -66s-36.667 -36.5 -62 -52.5c25.333 -16.667 46 -34.5 62 -53.5s28.5 -41 37.5 -66
s15.167 -53.667 18.5 -86s5 -69.833 5 -112.5v-393c0 -35.333 1.5 -63.5 4.5 -84.5s9 -37.167 18 -48.5s21.5 -18.666 37.5 -21.999s37 -5 63 -5h139c8 0 12 -4 12 -12v-37c0 -8 -4 -12 -12 -12h-141v0z" />
    <glyph glyph-name="bar" unicode="|" horiz-adv-x="444" 
d="M203 -389c-8 0 -12 4 -12 12v1840c0 8 4 12 12 12h38c8 0 12 -4 12 -12v-1840c0 -8 -4 -12 -12 -12h-38z" />
    <glyph glyph-name="braceright" unicode="}" horiz-adv-x="585" 
d="M179.024 -389c33.3311 0 61.6631 2.49805 84.9951 7.49805s42.3311 15.333 56.9961 31c14.666 15.667 25.166 38 31.499 67s9.49902 67.5 9.49902 115.5v393c0 42.667 1.33301 78.167 4 106.5c2.66602 28.333 8.16602 52.5 16.499 72.5s19.832 37.333 34.4971 52
c14.666 14.667 33.998 30 57.9971 46c6.66602 4 9.99902 10 9.99902 18v46c0 8 -3.33301 14 -9.99902 18c-23.999 15.333 -43.3311 30.333 -57.9971 45c-14.665 14.667 -26.1641 32 -34.4971 52s-13.833 44 -16.499 72c-2.66699 28 -4 63.667 -4 107v393
c0 48 -3.16602 86.667 -9.49902 116s-16.833 51.833 -31.499 67.5c-14.665 15.667 -33.6641 26 -56.9961 31s-51.6641 7.5 -84.9951 7.5h-140.991c-7.99902 0 -11.999 -4 -11.999 -12v-38c0 -8 4 -12 11.999 -12h138.992c25.998 0 46.9971 -1.66699 62.9961 -5
s28.498 -10.5 37.4971 -21.5s14.999 -27.167 17.999 -48.5s4.5 -49.666 4.5 -84.999v-393c0 -43.333 1.66699 -81 5 -113s9.49902 -60.5 18.498 -85.5c9 -25 21.499 -47 37.498 -66s36.6641 -36.5 61.9961 -52.5c-25.332 -16.667 -45.9971 -34.5 -61.9961 -53.5
s-28.498 -41 -37.498 -66c-8.99902 -25 -15.165 -53.667 -18.498 -86s-5 -69.833 -5 -112.5v-393c0 -35.333 -1.5 -63.5 -4.5 -84.5s-9 -37.167 -17.999 -48.5s-21.498 -18.666 -37.4971 -21.999s-36.998 -5 -62.9961 -5h-138.992c-7.99902 0 -11.999 -4 -11.999 -12v-37
c0 -8 4 -12 11.999 -12h140.991v0z" />
    <glyph glyph-name="asciitilde" unicode="~" horiz-adv-x="998" 
d="M173 666c-8 0 -12 4.00293 -12 12.0029v23c0 52 5.33301 93.333 16 124s24 54 40 70s33.5 26.167 52.5 30.5s36.833 6.5 53.5 6.5c32 0 60.833 -7.5 86.5 -22.5s49.167 -32.833 70.5 -53.5l64 -59c23.333 -21.333 46 -39.333 68 -54s46.333 -22 73 -22
c16 0 30.167 2 42.5 6s22.666 12.833 30.999 26.5s14.833 33.167 19.5 58.5s7.33398 59.333 8.00098 102c0 8 4 12 12 12h35c8 0 12 -4 12 -12v-23c0 -52 -5.33301 -93.167 -16 -123.5s-24 -53.333 -40 -69s-33.5 -25.667 -52.5 -30s-36.833 -6.5 -53.5 -6.5
c-32 0 -61 7.16699 -87 21.5s-49.667 31.833 -71 52.5l-63 59c-23.333 21.333 -46 39.666 -68 54.999s-46.333 23 -73 23c-16 0 -30.167 -2.16699 -42.5 -6.5s-22.666 -13.333 -30.999 -27s-14.833 -33.334 -19.5 -59.001s-7.33398 -59.834 -8.00098 -102.501
c0 -8 -4 -12 -12 -12h-35z" />
    <glyph glyph-name="uni007F" horiz-adv-x="0" 
 />
    <glyph glyph-name="uni00A0" unicode="&#xa0;" horiz-adv-x="508" 
 />
    <glyph glyph-name="exclamdown" unicode="&#xa1;" horiz-adv-x="446" 
d="M242 660c8 0 12 -4 12 -12l4 -1041c0 -8 -4 -13 -12 -15l-45 -14c-8 -2 -12 1 -12 9l4 1061c0 8 4 12 12 12h37zM248 1070c8 0 12 -4 12 -12v-181c0 -8 -4 -13 -12 -15l-49 -14c-8 -2 -12 1 -12 9v201c0 8 4 12 12 12h49z" />
    <glyph glyph-name="cent" unicode="&#xa2;" horiz-adv-x="939" 
d="M495 -266c-8 0 -11.999 4.00195 -11.999 12.002v239c-64.667 6 -119.5 18.833 -164.5 38.5s-81.667 49.667 -110 90s-48.833 92.666 -61.5 156.999s-19 143.5 -19 237.5v110c0 86 5.83301 160.333 17.5 223s31.167 115 58.5 157s63.666 74.5 108.999 97.5
s102 38.167 170 45.5v240c0 8 4 12 12 12h37c8 0 12 -4 12 -12v-235c8.66699 0 17.334 0.166992 26.001 0.5s17.667 0.5 27 0.5c40.667 0 79.667 -1.66699 117 -5s71 -8.33301 101 -15c8 -2 10.667 -6.66699 8 -14l-11 -34c-2.66699 -8 -8 -11 -16 -9
c-30 5.33301 -62.667 9.16602 -98 11.499s-69 3.5 -101 3.5c-9.33301 0 -18.333 -0.166992 -27 -0.5s-17.334 -0.833008 -26.001 -1.5v-1041c8.66699 0 17.334 -0.166992 26.001 -0.5s17.667 -0.5 27 -0.5c36 0 71.833 1.33301 107.5 4s67.5 7 95.5 13c8 2 13 -1 15 -9
l9 -36c2 -7.33301 -1 -12 -9 -14c-29.333 -6 -64 -10.667 -104 -14s-78 -5 -114 -5c-9.33301 0 -18.333 0.166992 -27 0.5s-17.334 0.5 -26.001 0.5v-235c0 -8 -4 -12 -12 -12h-37zM190.001 522.002c0 -82 4.5 -151.667 13.5 -209s24.833 -104.666 47.5 -141.999
s52.667 -65.833 90 -85.5s84.666 -32.834 141.999 -39.501v1033c-57.333 -7.33301 -104.666 -21 -141.999 -41s-67.333 -48.833 -90 -86.5s-38.5 -85 -47.5 -142s-13.5 -125.5 -13.5 -205.5v-82z" />
    <glyph glyph-name="sterling" unicode="&#xa3;" horiz-adv-x="1054" 
d="M136 770c-8 0 -12 4.00293 -12 12.0029v37c0 8 4 12 12 12h111v218c0 79.333 6 146.166 18 200.499s35.333 98.166 70 131.499s83.334 57.333 146.001 72s144.334 22 245.001 22h142c8 0 12 -4 12 -12v-38c0 -8 -4 -12 -12 -12h-139
c-88.667 0 -160.5 -5.83301 -215.5 -17.5s-97.667 -31.5 -128 -59.5s-50.666 -65.333 -60.999 -112s-15.5 -105 -15.5 -175v-218h508c8 0 11 -4 9 -12l-8 -37c-2 -8 -7 -12 -15 -12h-494v-418c0 -38 -1.33301 -71.833 -4 -101.5s-7.33398 -56.167 -14.001 -79.5
s-15.834 -43.833 -27.501 -61.5s-26.834 -33.834 -45.501 -48.501h716c8 0 12 -4 12 -12v-37c0 -8 -4 -12 -12 -12h-798c-8 0 -12 4 -12 12v46c0 8 3.33301 14 10 18c24 15.333 43.333 30.333 58 45s26.167 32 34.5 52s13.833 44 16.5 72s4 63.667 4 107v418h-111z" />
    <glyph glyph-name="currency" unicode="&#xa4;" horiz-adv-x="1210" 
d="M173 1144c-5.33301 5.33301 -5.33203 10.668 0.000976562 16.001l27 27c5.33301 5.33301 11 5.33301 17 0l101 -101c30 28.667 68.167 50.667 114.5 66s103.166 23 170.499 23c68 0 125.333 -7.66699 172 -23s85.334 -37.333 116.001 -66l101 101
c5.33301 5.33301 11 5.33301 17 0l27 -27c6 -5.33301 6.33301 -10.666 1 -15.999l-106 -106c24 -36 40.833 -77.333 50.5 -124s14.5 -98.334 14.5 -155.001c0 -57.333 -4.83301 -109.833 -14.5 -157.5s-27.167 -89.834 -52.5 -126.501l107 -107
c6 -5.33301 6 -10.666 0 -15.999l-27 -27c-6 -5.33301 -12 -5.33301 -18 0l-103 103c-30 -28 -68.333 -49.5 -115 -64.5s-103.334 -22.5 -170.001 -22.5s-123.167 7.5 -169.5 22.5s-84.5 36.5 -114.5 64.5l-103 -103c-5.33301 -5.33301 -10.666 -5.33301 -15.999 0l-27 27
c-5.33301 5.33301 -5.33301 10.666 0 15.999l107 107c-24.667 36 -41.834 78 -51.501 126s-14.5 100.667 -14.5 158c0 56.667 4.66699 108.5 14 155.5s26 88.5 50 124.5zM275.001 759.002c0 -53.333 4.16699 -102 12.5 -146s24.5 -81.833 48.5 -113.5
s57.333 -56.334 100 -74.001s98.334 -26.5 167.001 -26.5c69.333 0 125.666 8.83301 168.999 26.5s77 42.334 101 74.001s40.333 69.5 49 113.5s13 92.667 13 146c0 54 -4.33301 103 -13 147s-25 81.667 -49 113s-57.667 55.5 -101 72.5s-99.666 25.5 -168.999 25.5
c-68.667 0 -124.334 -8.5 -167.001 -25.5s-76 -41.167 -100 -72.5s-40.167 -69 -48.5 -113s-12.5 -93 -12.5 -147z" />
    <glyph glyph-name="yen" unicode="&#xa5;" horiz-adv-x="1201" 
d="M636 543l-10 -20v-146h373c8 0 11 -4 9 -12l-8 -38c-2 -8 -7 -12 -15 -12h-359v-303c0 -8 -4 -12 -12 -12h-37c-8 0 -12 4 -12 12v303h-320c-8 0 -11 4 -9 12l8 38c2 8 7 12 15 12h306v146l-11 20h-309c-8 0 -11 4 -9 12l8 37c2 8 7 12 15 12h263l-453 860
c-4 7.33301 -2 11 6 11h43c7.33301 0 13.333 -3.66699 18 -11l459 -860l459 860c4.66699 7.33301 10.667 11 18 11h42c8 0 10 -3.66699 6 -11l-452 -860h329c8 0 11 -4 9 -12l-8 -37c-2 -8 -7 -12 -15 -12h-347z" />
    <glyph glyph-name="brokenbar" unicode="&#xa6;" horiz-adv-x="457" 
d="M215 707c-8 0 -12 4 -12 12l-5 744c0 8 4 12 12 12h37c8 0 12 -4 12 -12l-5 -744c0 -8 -4 -12 -12 -12h-27zM210 -389c-8 0 -12 4 -12 12l5 744c0 8 4 12 12 12h27c8 0 12 -4 12 -12l5 -744c0 -8 -4 -12 -12 -12h-37z" />
    <glyph glyph-name="section" unicode="&#xa7;" horiz-adv-x="1075" 
d="M457 -450c-26 0 -53.002 0.660156 -81.002 1.99316s-55.5 3.33301 -82.5 6s-52.833 5.66699 -77.5 9s-47 7 -67 11c-8 2 -10.667 6.66699 -8 14l14 35c3.33301 6.66699 9 9.66699 17 9c56 -9.33301 107 -15.666 153 -18.999s87 -5 123 -5c90 0 163.167 7.5 219.5 22.5
s100.5 36.333 132.5 64s53.833 61 65.5 100s17.5 82.167 17.5 129.5c0 42.667 -5.66699 78.5 -17 107.5s-29.833 54.833 -55.5 77.5s-59.5 43.834 -101.5 63.501s-93.333 41.5 -154 65.5l-117 46c-41.333 16 -81 33.833 -119 53.5s-71.333 43.834 -100 72.501
s-51.5 62.834 -68.5 102.501s-25.5 87.5 -25.5 143.5c0 58 9.33301 106 28 144s46 71 82 99c-34 30 -60.833 65.833 -80.5 107.5s-29.5 93.167 -29.5 154.5c0 114.667 38.667 198.334 116 251.001s197 79 359 79c52 0 102.667 -2 152 -6s91.666 -9.66699 126.999 -17
c8 -0.666992 11 -5 9 -13l-9 -34c-2 -7.33301 -7 -10.666 -15 -9.99902c-17.333 3.33301 -36.666 6.16602 -57.999 8.49902s-43.833 4.33301 -67.5 6s-47.334 2.83398 -71.001 3.50098s-46.167 1 -67.5 1c-66 0 -124.667 -4.5 -176 -13.5s-94.666 -24 -129.999 -45
s-62.166 -49 -80.499 -84s-27.5 -78.5 -27.5 -130.5c0 -46 7.66699 -85.333 23 -118s37 -61.334 65 -86.001s61.333 -46.167 100 -64.5s81.334 -36.166 128.001 -53.499l133 -50c56.667 -21.333 104.667 -43 144 -65s71.333 -46.667 96 -74s42.334 -58.166 53.001 -92.499
s16 -74.833 16 -121.5c0 -58.667 -7.5 -110.667 -22.5 -156s-38.167 -83 -69.5 -113c32.667 -30 56.167 -63.667 70.5 -101s21.5 -82.666 21.5 -135.999c0 -56 -7 -107.333 -21 -154s-39.333 -86.834 -76 -120.501s-86.334 -59.667 -149.001 -78s-143 -27.5 -241 -27.5z
M437.998 793.993c-27.333 10 -53.668 20.667 -79.001 32s-49.333 24.333 -72 39c-37.333 -24 -63.5 -54.333 -78.5 -91s-22.5 -76 -22.5 -118c0 -46 7.66699 -85.5 23 -118.5s37 -61.667 65 -86s61.333 -45.833 100 -64.5s81.334 -36.667 128.001 -54l133 -50
c34 -13.333 64.833 -26.333 92.5 -39s52.167 -25.667 73.5 -39c28 25.333 48.667 56.166 62 92.499s20 81.833 20 136.5c0 42.667 -5.5 78.834 -16.5 108.501s-29.333 56 -55 79s-59.5 44.333 -101.5 64s-93.667 41.167 -155 64.5z" />
    <glyph glyph-name="dieresis" unicode="&#xa8;" 
d="M235 1260c-8 0 -12 4 -12 12v252c0 8 4 13 12 15l50 14c8 2 12 -1 12 -9v-272c0 -8 -4 -12 -12 -12h-50zM493 1260c-8 0 -12 4 -12 12v252c0 8 4 13 12 15l50 14c8 2 12 -1 12 -9v-272c0 -8 -4 -12 -12 -12h-50z" />
    <glyph glyph-name="copyright" unicode="&#xa9;" horiz-adv-x="1526" 
d="M801 340c-64 0 -118.164 5.99805 -162.497 17.998s-80.166 32.833 -107.499 62.5s-47.166 69.5 -59.499 119.5s-18.5 113 -18.5 189v80c0 76 6.16699 139 18.5 189s32.166 89.833 59.499 119.5s63.166 50.5 107.499 62.5s98.5 18 162.5 18
c61.333 0 115.333 -4.66699 162 -14c8 -0.666992 11 -5 9 -13l-10 -33c-2 -7.33301 -7 -10.666 -15 -9.99902c-22 4 -45.833 6.83301 -71.5 8.5s-49.834 2.5 -72.501 2.5c-57.333 0 -104.666 -5.5 -141.999 -16.5s-66.833 -29.5 -88.5 -55.5s-36.834 -60.833 -45.501 -104.5
s-13 -98.167 -13 -163.5v-60c0 -65.333 4.33301 -119.833 13 -163.5s23.834 -78.5 45.501 -104.5s51.167 -44.5 88.5 -55.5s84.666 -16.5 141.999 -16.5c25.333 0 50.666 0.833008 75.999 2.5s48.666 4.83398 69.999 9.50098c8 2 13 -1 15 -9l8 -35c2 -8 -1 -12.333 -9 -13
c-22 -4.66699 -48 -8.16699 -78 -10.5s-58 -3.5 -84 -3.5zM209.003 769.998c0 -59.333 2.83301 -115.333 8.5 -168s15.834 -101 30.501 -145s35 -83.5 61 -118.5s59.5 -64.667 100.5 -89s90.333 -43 148 -56s125.834 -19.5 204.501 -19.5s146.834 6.5 204.501 19.5
s107 31.667 148 56s74.5 54 100.5 89s46.333 74.5 61 118.5s24.834 92.333 30.501 145s8.5 108.667 8.5 168s-2.83301 115.166 -8.5 167.499s-15.834 100.5 -30.501 144.5s-35 83.5 -61 118.5s-59.5 64.5 -100.5 88.5s-90.333 42.5 -148 55.5s-125.834 19.5 -204.501 19.5
s-146.834 -6.5 -204.501 -19.5s-107 -31.5 -148 -55.5s-74.5 -53.5 -100.5 -88.5s-46.333 -74.5 -61 -118.5s-24.834 -92.167 -30.501 -144.5s-8.5 -108.166 -8.5 -167.499zM1378 769.998c0 -98 -8.50098 -187.335 -25.501 -268.002s-48.167 -149.834 -93.5 -207.501
s-108 -102.334 -188 -134.001s-183 -47.5 -309 -47.5c-84 0 -157.667 7.16699 -221 21.5s-117.666 35 -162.999 62s-82.666 59.833 -111.999 98.5s-52.666 82.334 -69.999 131.001s-29.333 101.834 -36 159.501s-10 119.167 -10 184.5s3.33301 126.833 10 184.5
s18.667 110.667 36 159s40.666 91.833 69.999 130.5s66.666 71.334 111.999 98.001s99.5 47.167 162.5 61.5s136.833 21.5 221.5 21.5c126 0 229 -15.833 309 -47.5s142.667 -76.167 188 -133.5s76.5 -126.166 93.5 -206.499s25.5 -169.5 25.5 -267.5z" />
    <glyph glyph-name="ordfeminine" unicode="&#xaa;" horiz-adv-x="953" 
d="M510 762c33.333 0 65.333 0.832031 96 2.49902s61 5.5 91 11.5v342h-123c-68.667 0 -124.167 -2.16699 -166.5 -6.5s-75.166 -13 -98.499 -26s-39 -31.167 -47 -54.5s-12 -53.666 -12 -90.999c0 -40 6 -71.833 18 -95.5s29.167 -41.5 51.5 -53.5
s49.666 -19.833 81.999 -23.5s68.5 -5.5 108.5 -5.5zM492 1440c-42 0 -79.834 -1.99805 -113.501 -5.99805s-68.167 -9 -103.5 -15c-8 -0.666992 -12 2.66602 -12 9.99902v29c0 8 4 13 12 15c18 4 36.833 7.5 56.5 10.5s39.167 5.33301 58.5 7s38 2.83398 56 3.50098
s34 1 48 1c58.667 0 105.334 -5 140.001 -15s60.834 -26.167 78.501 -48.5s29 -51.666 34 -87.999s7.5 -80.833 7.5 -133.5v-469c0 -8.66699 -4 -13.334 -12 -14.001c-19.333 -3.33301 -39.5 -6.16602 -60.5 -8.49902s-41.833 -4.33301 -62.5 -6s-40.5 -3 -59.5 -4
s-35.5 -1.5 -49.5 -1.5c-54 0 -101 3.33301 -141 10s-73.167 18.667 -99.5 36s-46 41.333 -59 72s-19.5 69.667 -19.5 117c0 44.667 5.66699 81.667 17 111s31.666 52.666 60.999 69.999s69.333 29.666 120 36.999s115.667 11 195 11h113v66
c0 40.667 -2.83301 74.167 -8.5 100.5s-16 47.166 -31 62.499s-35.833 25.833 -62.5 31.5s-61 8.5 -103 8.5zM177.999 545.001c-8 0 -12 4 -12 12v37c0 8 4 12 12 12h607c8 0 12 -4 12 -12v-37c0 -8 -4 -12 -12 -12h-607z" />
    <glyph glyph-name="guillemotleft" unicode="&#xab;" horiz-adv-x="1082" 
d="M470 141c-8 0 -14.667 3 -20 9l-371 372c-5.33301 6 -5.33301 12 0 18l371 371c5.33301 6 12 9 20 9h62c8.66699 0 9.66699 -2.66699 3 -8l-385 -381l385 -382c6.66699 -5.33301 5.66699 -8 -3 -8h-62zM871 141c-8 0 -14.667 3 -20 9l-371 372
c-5.33301 6 -5.33301 12 0 18l371 371c5.33301 6 12 9 20 9h62c8.66699 0 9.66699 -2.66699 3 -8l-385 -381l385 -382c6.66699 -5.33301 5.66699 -8 -3 -8h-62z" />
    <glyph glyph-name="logicalnot" unicode="&#xac;" horiz-adv-x="1150" 
d="M194 765c-8 0 -12 4 -12 12v37c0 8 4 12 12 12h754c8 0 12 -4 12 -12v-437c0 -8 -4 -12 -12 -12h-37c-8 0 -12 4 -12 12v388h-705z" />
    <glyph glyph-name="uni00AD" unicode="&#xad;" horiz-adv-x="817" 
d="M181 586c-8 0 -12 4 -12 12v37c0 8 4 12 12 12h455c8 0 12 -4 12 -12v-37c0 -8 -4 -12 -12 -12h-455z" />
    <glyph glyph-name="registered" unicode="&#xae;" horiz-adv-x="1262" 
d="M1115 1006c0 -77.333 -6.83301 -148 -20.5 -212s-38.5 -118.667 -74.5 -164s-85.5 -80.5 -148.5 -105.5s-143.5 -37.5 -241.5 -37.5s-178.333 12.5 -241 37.5s-111.667 60.167 -147 105.5s-59.666 100 -72.999 164s-20 134.667 -20 212c0 76.667 6.66699 146.667 20 210
s37.666 117.5 72.999 162.5s84.333 79.833 147 104.5s143 37 241 37s178.5 -12.333 241.5 -37s112.5 -59.5 148.5 -104.5s60.833 -99.167 74.5 -162.5s20.5 -133.333 20.5 -210zM210 1006c0 -46 2 -89.333 6 -130s11.5 -78.167 22.5 -112.5s26.333 -65 46 -92
s45 -49.833 76 -68.5s68.667 -33 113 -43s96.5 -15 156.5 -15c90.667 0 163.667 11 219 33s98.166 53.167 128.499 93.5s50.666 88.833 60.999 145.5s15.5 119.667 15.5 189c0 68.667 -5.16699 131.167 -15.5 187.5s-30.666 104.333 -60.999 144
s-73.166 70.334 -128.499 92.001s-128.333 32.5 -219 32.5c-60 0 -112.167 -4.83301 -156.5 -14.5s-82 -23.834 -113 -42.501s-56.333 -41.167 -76 -67.5s-35 -56.5 -46 -90.5s-18.5 -71.167 -22.5 -111.5s-6 -83.5 -6 -129.5zM847 662
c-7.33301 0 -13.3369 3.33203 -18.0039 9.99902l-136 245c-13.333 -1.33301 -27.666 -2.33301 -42.999 -3s-31.666 -1 -48.999 -1c-18.667 0 -37.167 0.166992 -55.5 0.5s-38.166 1.83301 -59.499 4.5v-244c0 -8 -4 -12 -12 -12h-37c-8 0 -12 4 -12 12v645
c0 8 4 12.333 12 13c28.667 2.66699 56.5 4.16699 83.5 4.5s53.833 0.5 80.5 0.5c42.667 0 80.667 -2 114 -6s61.5 -12.667 84.5 -26s40.667 -32.5 53 -57.5s18.5 -58.5 18.5 -100.5v-45c0 -52 -8.83301 -91.5 -26.5 -118.5s-47.5 -45.833 -89.5 -56.5l147 -253
c0.666992 -3.33301 0.333984 -5.66602 -0.999023 -6.99902l-2 -2c-2 -2 -4.66699 -3 -8 -3h-44zM600.996 1278l-30.5 -0.000976562c-11 0 -22 -0.166992 -33 -0.5s-21 -0.833008 -30 -1.5s-16.167 -1.33398 -21.5 -2.00098v-297c18.667 -2 38.834 -3.16699 60.501 -3.5
s39.834 -0.5 54.501 -0.5c38.667 0 71.167 1.33301 97.5 4s47.833 8.83398 64.5 18.501s28.667 23.834 36 42.501s11 44 11 76v27c0 32 -4 57.167 -12 75.5s-20.333 32 -37 41s-38.334 14.667 -65.001 17s-58.334 3.5 -95.001 3.5z" />
    <glyph glyph-name="macron" unicode="&#xaf;" 
d="M162 1352c-8 0 -12 4 -12 12v37c0 8 4 12 12 12h455c8 0 12 -4 12 -12v-37c0 -8 -4 -12 -12 -12h-455z" />
    <glyph glyph-name="degree" unicode="&#xb0;" horiz-adv-x="764" 
d="M382 1440c-64 0 -113.833 -15.499 -149.5 -46.499s-53.5 -79.833 -53.5 -146.5v-26c0 -67.333 17.333 -116.333 52 -147s85 -46 151 -46c63.333 0 113 15.167 149 45.5s54 80.166 54 149.499v24c0 66.667 -17.333 115.5 -52 146.5s-85 46.5 -151 46.5zM382 973.001
c-40 0 -76.167 4.66699 -108.5 14s-59.833 23.833 -82.5 43.5s-40.167 44.5 -52.5 74.5s-18.5 65.667 -18.5 107v41c0 42 6.16699 78.167 18.5 108.5s29.833 55.5 52.5 75.5s50.167 34.667 82.5 44s68.5 14 108.5 14s76.167 -4.66699 108.5 -14s59.833 -24 82.5 -44
s40.167 -45.167 52.5 -75.5s18.5 -66.5 18.5 -108.5v-41c0 -41.333 -6.16699 -77 -18.5 -107s-29.833 -54.833 -52.5 -74.5s-50.167 -34.167 -82.5 -43.5s-68.5 -14 -108.5 -14z" />
    <glyph glyph-name="plusminus" unicode="&#xb1;" horiz-adv-x="1124" 
d="M185 776c-8 0 -12 4 -12 12v38c0 8 4 12 12 12h346v346c0 8 4 12 12 12h38c8 0 12 -4 12 -12v-346h346c8 0 12 -4 12 -12v-38c0 -8 -4 -12 -12 -12h-346v-346c0 -8 -4 -12 -12 -12h-38c-8 0 -12 4 -12 12v346h-346zM185 0c-8 0 -12 4 -12 12v37c0 8 4 12 12 12h754
c8 0 12 -4 12 -12v-37c0 -8 -4 -12 -12 -12h-754z" />
    <glyph glyph-name="twosuperior" unicode="&#xb2;" horiz-adv-x="837" 
d="M156 598c-8 0 -11.998 3.99805 -11.998 11.998v35c0 39.333 3.33301 74.333 10 105s17.667 59.167 33 85.5s35.666 51.833 60.999 76.5s57 51 95 79l148 109l53.5 39.5c16.333 12.333 30.5 25.5 42.5 39.5s21.5 29.333 28.5 46s10.5 35.667 10.5 57
c0 30 -3.83301 55 -11.5 75s-21.167 36 -40.5 48s-45.5 20.5 -78.5 25.5s-74.833 7.5 -125.5 7.5c-26.667 0 -55.667 -1.16699 -87 -3.5s-62.666 -6.5 -93.999 -12.5c-8.66699 -2 -13.334 1 -14.001 9l-6 34c-0.666992 8.66699 2.66602 13.334 9.99902 14.001
c29.333 5.33301 62 9.33301 98 12s67.667 4 95 4c58.667 0 108.167 -3.66699 148.5 -11s73 -19.333 98 -36s43 -38.167 54 -64.5s16.5 -58.833 16.5 -97.5c0 -26 -3.5 -49.167 -10.5 -69.5s-17.167 -39.166 -30.5 -56.499s-29.833 -34.333 -49.5 -51
s-41.834 -34 -66.501 -52l-132 -94c-38 -28 -69.333 -53.5 -94 -76.5s-44.167 -46 -58.5 -69s-24.166 -47.333 -29.499 -73s-8 -55.5 -8 -89.5h461c8 0 12 -4 12 -12v-33c0 -8 -4 -12 -12 -12h-515z" />
    <glyph glyph-name="threesuperior" unicode="&#xb3;" horiz-adv-x="845" 
d="M371 586c-34.667 0 -68.5 1.50293 -101.5 4.50293s-62.833 6.83301 -89.5 11.5c-8 0.666992 -12 5.33398 -12 14.001l2 34c0 7.33301 4 10.666 12 9.99902c29.333 -5.33301 60.333 -9.16602 93 -11.499s64 -3.5 94 -3.5c47.333 0 88.333 3.16699 123 9.5
s63.167 17.166 85.5 32.499s39 35.333 50 60s16.5 55.667 16.5 93v22c0 20.667 -3 42 -9 64s-16.833 42.333 -32.5 61s-36.5 34 -62.5 46s-59 18 -99 18h-226c-8 0 -12 4 -12 12v33c0 8 4 12 12 12h226c40.667 0 74 5.16699 100 15.5s46.667 23.333 62 39
s26 32.334 32 50.001s9 34.167 9 49.5v12c0 32.667 -6.33301 59.667 -19 81s-30.834 38.166 -54.501 50.499s-52.5 20.833 -86.5 25.5s-72.333 7 -115 7c-30.667 0 -62 -1.5 -94 -4.5s-62.333 -6.5 -91 -10.5c-8 -0.666992 -12.333 2.66602 -13 9.99902l-2 34
c-0.666992 7.33301 3 12 11 14c26 3.33301 55.333 6.5 88 9.5s66.334 4.5 101.001 4.5c52 0 98.667 -3.5 140 -10.5s76.333 -18.667 105 -35s50.667 -38.333 66 -66s23 -62.167 23 -103.5v-14c0 -20.667 -3 -40.834 -9 -60.501s-15.667 -37.834 -29 -54.501
s-30.333 -31.334 -51 -44.001s-45.667 -22 -75 -28c32 -8 58.5 -20 79.5 -36s37.667 -34.167 50 -54.5s21.166 -41.666 26.499 -63.999s8 -43.833 8 -64.5v-24c0 -48.667 -7.5 -89.167 -22.5 -121.5s-36.667 -58 -65 -77s-63.166 -32.333 -104.499 -40s-88 -11.5 -140 -11.5
z" />
    <glyph glyph-name="acute" unicode="&#xb4;" 
d="M259 1260c-8 0 -9.66602 3 -4.99902 9l184 238c4 6 10.333 9 19 9h62c7.33301 0 8.66602 -3 3.99902 -9l-198 -238c-5.33301 -6 -12 -9 -20 -9h-46z" />
    <glyph glyph-name="mu" unicode="&#xb5;" horiz-adv-x="1229" 
d="M213 -389c-8 0 -12.0049 4.00195 -12.0049 12.002v1436c0 8 4 12 12 12h38c8 0 12 -4 12 -12v-682c0 -76 9.33301 -136.333 28 -181s44.667 -78.5 78 -101.5s73 -37.667 119 -44s96.333 -9.5 151 -9.5c26.667 0 54.334 1 83.001 3s56.834 4.66699 84.501 8
s54.334 7.16602 80.001 11.499s48.834 9.16602 69.501 14.499v981c0 8 4 12 12 12h39c8 0 12 -4 12 -12v-1016c0 -8 -4 -13 -12 -15c-45.333 -12 -99.166 -23 -161.499 -33s-130.5 -15 -204.5 -15c-104.667 0 -188.5 12.167 -251.5 36.5s-105.167 64.5 -126.5 120.5v-514
c0 -8 -4 -12 -12 -12h-38z" />
    <glyph glyph-name="paragraph" unicode="&#xb6;" horiz-adv-x="984" 
d="M569 -451c-8 0 -12.002 4.00293 -12.002 12.0029v1074c-27.333 -2 -55.333 -3.5 -84 -4.5s-61 -1.5 -97 -1.5c-52 0 -95.667 4.66699 -131 14s-63.666 28.666 -84.999 57.999s-36.666 71.166 -45.999 125.499s-14 126.166 -14 215.499v31c0 60 2.33301 111.5 7 154.5
s12 79.333 22 109s23.167 53.667 39.5 72s36.333 32.333 60 42s51 16.167 82 19.5s66.5 5 106.5 5h189c8 0 12 -4 12 -12v-1902c0 -8 -4 -12 -12 -12h-37zM723.998 -450.997c-8 0 -12 4 -12 12v1902c0 8 4 12 12 12h38c8 0 12 -4 12 -12v-1902c0 -8 -4 -12 -12 -12h-38z" />
    <glyph glyph-name="periodcentered" unicode="&#xb7;" horiz-adv-x="413" 
d="M181 450c-8 0 -12 4 -12 12v181c0 8 4 13 12 15l49 14c8 2 12 -1 12 -9v-201c0 -8 -4 -12 -12 -12h-49z" />
    <glyph glyph-name="cedilla" unicode="&#xb8;" 
d="M288 -389c-8 0 -10 3.66699 -6 11l141 265c4.66699 7.33301 10.667 11 18 11h44c8 0 10.333 -3.66699 7 -11l-133 -265c-4 -7.33301 -9.66699 -11 -17 -11h-54z" />
    <glyph glyph-name="onesuperior" unicode="&#xb9;" horiz-adv-x="509" 
d="M72 1409c-8.66699 -2 -13.332 1.33301 -13.999 10l-6 33c-0.666992 7.33301 2.66602 12 9.99902 14l205 27c3.33301 0.666992 7.33301 1.16699 12 1.5s8.66699 0.5 12 0.5h36c8 0 12 -4 12 -12v-873c0 -8 -4 -12 -12 -12h-36c-8 0 -12 4 -12 12v828z" />
    <glyph glyph-name="ordmasculine" unicode="&#xba;" horiz-adv-x="970" 
d="M484 1440c-48 0 -88.167 -6.16406 -120.5 -18.4971s-58.5 -31.5 -78.5 -57.5s-34.167 -58.833 -42.5 -98.5s-12.5 -86.834 -12.5 -141.501v-47c0 -54.667 4 -101.834 12 -141.501s21.833 -72.334 41.5 -98.001s45.667 -44.667 78 -57s73.166 -18.5 122.499 -18.5
c48 0 88.333 6 121 18s58.834 30.833 78.501 56.5s33.667 58.5 42 98.5s12.5 88 12.5 144v45c0 54 -4 100.833 -12 140.5s-21.667 72.5 -41 98.5s-45.333 45.333 -78 58s-73.667 19 -123 19zM484 707.003c-56 0 -103.833 7 -143.5 21s-72 35.667 -97 65
s-43.333 66.833 -55 112.5s-17.5 100.167 -17.5 163.5v61c0 63.333 5.83301 118 17.5 164s30 83.833 55 113.5s57.333 51.667 97 66s87.5 21.5 143.5 21.5s103.833 -7.16699 143.5 -21.5s72.167 -36.333 97.5 -66s43.833 -67.5 55.5 -113.5s17.5 -100.667 17.5 -164v-61
c0 -63.333 -5.83301 -117.833 -17.5 -163.5s-30.167 -83.167 -55.5 -112.5s-57.833 -51 -97.5 -65s-87.5 -21 -143.5 -21zM181 545.003c-8 0 -12 4 -12 12v37c0 8 4 12 12 12h607c8 0 12 -4 12 -12v-37c0 -8 -4 -12 -12 -12h-607z" />
    <glyph glyph-name="guillemotright" unicode="&#xbb;" horiz-adv-x="1082" 
d="M149 141c-8.66699 0 -9.66699 2.66699 -3 8l385 382l-385 381c-6.66699 5.33301 -5.66699 8 3 8h62c8 0 14.667 -3 20 -9l371 -371c5.33301 -6 5.33301 -12 0 -18l-371 -372c-5.33301 -6 -12 -9 -20 -9h-62zM550 141c-8.66699 0 -9.66699 2.66699 -3 8l385 382l-385 381
c-6.66699 5.33301 -5.66699 8 3 8h62c8 0 14.667 -3 20 -9l371 -371c5.33301 -6 5.33301 -12 0 -18l-371 -372c-5.33301 -6 -12 -9 -20 -9h-62z" />
    <glyph glyph-name="onequarter" unicode="&#xbc;" horiz-adv-x="1531" 
d="M1277 0c-8 0 -12 4 -12 12v236h-451c-8 0 -12 4 -12 12v84c0 8 2.33301 15.333 7 22l375 521c4 6.66699 10.333 10 19 10h111c8 0 12 -4 12 -12v-580h101c8 0 12 -4 12 -12v-33c0 -8 -4 -12 -12 -12h-101v-236c0 -8 -4 -12 -12 -12h-37zM862 305h403v531h-43l-360 -496
v-35zM192 0c-8.66699 0 -10.667 3.33301 -6 10l899 1455c3.33301 6.66699 9.33301 10 18 10h52c8.66699 0 10.667 -3.33301 6 -10l-900 -1455c-3.33301 -6.66699 -9.33301 -10 -18 -10h-51zM89 1409c-8.66699 -2 -13.332 1.33301 -13.999 10l-6 33
c-0.666992 7.33301 2.66602 12 9.99902 14l205 27c3.33301 0.666992 7.33301 1.16699 12 1.5s8.66699 0.5 12 0.5h36c8 0 12 -4 12 -12v-873c0 -8 -4 -12 -12 -12h-36c-8 0 -12 4 -12 12v828z" />
    <glyph glyph-name="onehalf" unicode="&#xbd;" horiz-adv-x="1577" 
d="M192 0c-8.66699 0 -10.667 3.33301 -6 10l899 1455c3.33301 6.66699 9.33301 10 18 10h52c8.66699 0 10.667 -3.33301 6 -10l-900 -1455c-3.33301 -6.66699 -9.33301 -10 -18 -10h-51zM924 0c-8 0 -11.998 3.99805 -11.998 11.998v35c0 39.333 3.33301 74.333 10 105
s17.667 59.167 33 85.5s35.666 51.833 60.999 76.5s57 51 95 79l148 109l53.5 39.5c16.333 12.333 30.5 25.5 42.5 39.5s21.5 29.333 28.5 46s10.5 35.667 10.5 57c0 30 -3.83301 55 -11.5 75s-21.167 36 -40.5 48s-45.5 20.5 -78.5 25.5s-74.833 7.5 -125.5 7.5
c-26.667 0 -55.667 -1.16699 -87 -3.5s-62.666 -6.5 -93.999 -12.5c-8.66699 -2 -13.334 1 -14.001 9l-6 34c-0.666992 8.66699 2.66602 13.334 9.99902 14.001c29.333 5.33301 62 9.33301 98 12s67.667 4 95 4c58.667 0 108.167 -3.66699 148.5 -11s73 -19.333 98 -36
s43 -38.167 54 -64.5s16.5 -58.833 16.5 -97.5c0 -26 -3.5 -49.167 -10.5 -69.5s-17.167 -39.166 -30.5 -56.499s-29.833 -34.333 -49.5 -51s-41.834 -34 -66.501 -52l-132 -94c-38 -28 -69.333 -53.5 -94 -76.5s-44.167 -46 -58.5 -69s-24.166 -47.333 -29.499 -73
s-8 -55.5 -8 -89.5h461c8 0 12 -4 12 -12v-33c0 -8 -4 -12 -12 -12h-515zM89.002 1409c-8.66699 -2 -13.332 1.33301 -13.999 10l-6 33c-0.666992 7.33301 2.66602 12 9.99902 14l205 27c3.33301 0.666992 7.33301 1.16699 12 1.5s8.66699 0.5 12 0.5h36c8 0 12 -4 12 -12
v-873c0 -8 -4 -12 -12 -12h-36c-8 0 -12 4 -12 12v828z" />
    <glyph glyph-name="threequarters" unicode="&#xbe;" horiz-adv-x="1743" 
d="M1029 248c-8 0 -12 4 -12 12v84c0 8 2.33301 15.333 7 22l375 521c4 6.66699 10.333 10 19 10h111c8 0 12 -4 12 -12v-580h100c8 0 12 -4 12 -12v-33c0 -8 -4 -12 -12 -12h-100v-236c0 -8 -4 -12 -12 -12h-38c-8 0 -12 4 -12 12v236h-450zM1076 305h403v531h-43
l-360 -496v-35zM445 0c-8.66699 0 -10.667 3.33301 -6 10l899 1455c3.33301 6.66699 9.33301 10 18 10h52c8.66699 0 10.667 -3.33301 6 -10l-899 -1455c-3.33301 -6.66699 -9.33301 -10 -18 -10h-52zM339 586c-34.667 0 -68.5 1.50293 -101.5 4.50293
s-62.833 6.83301 -89.5 11.5c-8 0.666992 -12 5.33398 -12 14.001l2 34c0 7.33301 4 10.666 12 9.99902c29.333 -5.33301 60.333 -9.16602 93 -11.499s64 -3.5 94 -3.5c47.333 0 88.333 3.16699 123 9.5s63.167 17.166 85.5 32.499s39 35.333 50 60s16.5 55.667 16.5 93v22
c0 20.667 -3 42 -9 64s-16.833 42.333 -32.5 61s-36.5 34 -62.5 46s-59 18 -99 18h-226c-8 0 -12 4 -12 12v33c0 8 4 12 12 12h226c40.667 0 74 5.16699 100 15.5s46.667 23.333 62 39s26 32.334 32 50.001s9 34.167 9 49.5v12c0 32.667 -6.33301 59.667 -19 81
s-30.834 38.166 -54.501 50.499s-52.5 20.833 -86.5 25.5s-72.333 7 -115 7c-30.667 0 -62 -1.5 -94 -4.5s-62.333 -6.5 -91 -10.5c-8 -0.666992 -12.333 2.66602 -13 9.99902l-2 34c-0.666992 7.33301 3 12 11 14c26 3.33301 55.333 6.5 88 9.5s66.334 4.5 101.001 4.5
c52 0 98.667 -3.5 140 -10.5s76.333 -18.667 105 -35s50.667 -38.333 66 -66s23 -62.167 23 -103.5v-14c0 -20.667 -3 -40.834 -9 -60.501s-15.667 -37.834 -29 -54.501s-30.333 -31.334 -51 -44.001s-45.667 -22 -75 -28c32 -8 58.5 -20 79.5 -36s37.667 -34.167 50 -54.5
s21.166 -41.666 26.499 -63.999s8 -43.833 8 -64.5v-24c0 -48.667 -7.5 -89.167 -22.5 -121.5s-36.667 -58 -65 -77s-63.166 -32.333 -104.499 -40s-88 -11.5 -140 -11.5z" />
    <glyph glyph-name="questiondown" unicode="&#xbf;" horiz-adv-x="784" 
d="M494 686c0 8 3.99902 12.0068 11.999 12.0068h37c8 0 12 -4 12 -12v-111c0 -40.667 -1.33301 -74.834 -4 -102.501s-9.33398 -53.5 -20.001 -77.5s-26.5 -49 -47.5 -75s-49.5 -57.667 -85.5 -95l-56 -57c-34 -34 -63.5 -65.333 -88.5 -94s-45.5 -56 -61.5 -82
s-28 -51.167 -36 -75.5s-12 -48.833 -12 -73.5v-21c0 -34 7 -62.833 21 -86.5s34.333 -42.834 61 -57.501s59.334 -25.167 98.001 -31.5s83 -9.5 133 -9.5c36 0 73.167 1.16699 111.5 3.5s81.166 6.83301 128.499 13.5c8 2 13 -1.33301 15 -10l8 -36
c2 -8.66699 -1 -13.334 -9 -14.001c-19.333 -3.33301 -39.833 -6 -61.5 -8s-43.5 -3.83301 -65.5 -5.5s-44 -2.83398 -66 -3.50098s-42.333 -1 -61 -1c-55.333 0 -106 3.66699 -152 11s-85.5 20.333 -118.5 39s-58.667 44.167 -77 76.5s-27.5 73.5 -27.5 123.5v13
c0 27.333 3.33301 54.166 10 80.499s18.334 53.666 35.001 81.999s38.5 58.833 65.5 91.5s61.167 69.334 102.5 110.001l62 63c34 35.333 60.167 64.666 78.5 87.999s31.833 45.5 40.5 66.5s13.834 43.167 15.501 66.5s2.5 52.666 2.5 87.999v111zM536.999 1071.01
c8 0 12 -4 12 -12v-181c0 -8 -4 -13 -12 -15l-49 -14c-8 -2 -12 1 -12 9v201c0 8 4 12 12 12h49z" />
    <glyph glyph-name="Agrave" unicode="&#xc0;" horiz-adv-x="1272" 
d="M51 0c-8.66699 0 -11.332 3.66699 -7.99902 11l545 1453c2.66699 7.33301 8 11 16 11h64c8 0 13.333 -3.66699 16 -11l547 -1453c3.33301 -7.33301 0.666016 -11 -8.00098 -11h-44c-8 0 -13.333 3.66699 -16 11l-172 458h-711l-172 -458
c-2.66699 -7.33301 -8 -11 -16 -11h-41zM635.002 1413l-332 -883h665zM707.002 1608c-8 0 -15.334 2.33301 -22.001 7l-238 180c-7.33301 4.66699 -6.66602 7 2.00098 7h97c8 0 15 -2.66699 21 -8l204 -178c5.33301 -5.33301 4.33301 -8 -3 -8h-61z" />
    <glyph glyph-name="Aacute" unicode="&#xc1;" horiz-adv-x="1272" 
d="M51 0c-8.66699 0 -11.332 3.66699 -7.99902 11l545 1453c2.66699 7.33301 8 11 16 11h64c8 0 13.333 -3.66699 16 -11l547 -1453c3.33301 -7.33301 0.666016 -11 -8.00098 -11h-44c-8 0 -13.333 3.66699 -16 11l-172 458h-711l-172 -458
c-2.66699 -7.33301 -8 -11 -16 -11h-41zM635.002 1413l-332 -883h665zM500.002 1608c-7.33301 0 -8.33301 2.66699 -3 8l204 178c6 5.33301 13 8 21 8h97c8 0 8.66699 -2.33301 2 -7l-238 -180c-6.66699 -4.66699 -14 -7 -22 -7h-61z" />
    <glyph glyph-name="Acircumflex" unicode="&#xc2;" horiz-adv-x="1272" 
d="M51 0c-8.66699 0 -11.332 3.66699 -7.99902 11l545 1453c2.66699 7.33301 8 11 16 11h64c8 0 13.333 -3.66699 16 -11l547 -1453c3.33301 -7.33301 0.666016 -11 -8.00098 -11h-44c-8 0 -13.333 3.66699 -16 11l-172 458h-711l-172 -458
c-2.66699 -7.33301 -8 -11 -16 -11h-41zM635.002 1413l-332 -883h665zM595.002 1794c6 5.33301 13 8 21 8h42c8 0 15 -2.66699 21 -8l213 -178c5.33301 -5.33301 4.33301 -8 -3 -8h-63c-8 0 -15 2.66699 -21 8l-158 131h-20l-158 -131c-6 -5.33301 -13 -8 -21 -8h-63
c-7.33301 0 -8.33301 2.66699 -3 8z" />
    <glyph glyph-name="Atilde" unicode="&#xc3;" horiz-adv-x="1272" 
d="M51 0c-8.66699 0 -11.332 3.66699 -7.99902 11l545 1453c2.66699 7.33301 8 11 16 11h64c8 0 13.333 -3.66699 16 -11l547 -1453c3.33301 -7.33301 0.666016 -11 -8.00098 -11h-44c-8 0 -13.333 3.66699 -16 11l-172 458h-711l-172 -458
c-2.66699 -7.33301 -8 -11 -16 -11h-41zM635.002 1413l-332 -883h665zM342.002 1607c-8 0 -12 4 -12 12v14c0 42.667 4.83301 76.5 14.5 101.5s21.667 44.167 36 57.5s30 22 47 26s32.833 6 47.5 6c29.333 0 55.5 -5.83301 78.5 -17.5s44.167 -25.834 63.5 -42.501l57 -49
c20.667 -17.333 40.834 -31.5 60.501 -42.5s41.167 -16.5 64.5 -16.5c13.333 0 25.333 1.5 36 4.5s19.667 9.66699 27 20s13.166 25.166 17.499 44.499s6.83301 45.333 7.5 78c0 8 4 12 12 12h33c8 0 12 -4 12 -12v-14c0 -42.667 -4.83301 -76.5 -14.5 -101.5
s-21.667 -44.167 -36 -57.5s-30 -22 -47 -26s-32.833 -6 -47.5 -6c-28.667 0 -54.5 5.83301 -77.5 17.5s-44.167 25.834 -63.5 42.501l-58 49c-20.667 16.667 -40.834 30.667 -60.501 42s-41.167 17 -64.5 17c-13.333 0 -25.333 -1.5 -36 -4.5s-19.667 -9.66699 -27 -20
s-13.166 -25.166 -17.499 -44.499s-6.83301 -45.333 -7.5 -78c0 -8 -4 -12 -12 -12h-33z" />
    <glyph glyph-name="Adieresis" unicode="&#xc4;" horiz-adv-x="1272" 
d="M51 0c-8.66699 0 -11.332 3.66699 -7.99902 11l545 1453c2.66699 7.33301 8 11 16 11h64c8 0 13.333 -3.66699 16 -11l547 -1453c3.33301 -7.33301 0.666016 -11 -8.00098 -11h-44c-8 0 -13.333 3.66699 -16 11l-172 458h-711l-172 -458
c-2.66699 -7.33301 -8 -11 -16 -11h-41zM635.002 1413l-332 -883h665zM485.002 1608c-8 0 -12 4 -12 12v191c0 8 4 13 12 15l48 14c8 2 12 -1 12 -9v-211c0 -8 -4 -12 -12 -12h-48zM741.002 1608c-8 0 -12 4 -12 12v191c0 8 4 13 12 15l48 14c8 2 12 -1 12 -9v-211
c0 -8 -4 -12 -12 -12h-48z" />
    <glyph glyph-name="Aring" unicode="&#xc5;" horiz-adv-x="1266" 
d="M47 0c-8.66699 0 -11.332 3.66895 -7.99902 11.002l533 1421c-33.333 9.33301 -58.5 25.166 -75.5 47.499s-25.5 48.166 -25.5 77.499v24c0 18.667 3.5 36 10.5 52s17.5 30 31.5 42s31.167 21.5 51.5 28.5s43.833 10.5 70.5 10.5c26 0 49.167 -3.5 69.5 -10.5
s37.5 -16.5 51.5 -28.5s24.667 -26 32 -42s11 -33.333 11 -52v-24c0 -30 -9.16699 -56.333 -27.5 -79s-44.833 -38.667 -79.5 -48l535 -1419c3.33301 -7.33301 0.666016 -11 -8.00098 -11h-44c-8 0 -13.333 3.66699 -16 11l-172 458h-711l-172 -458
c-2.66699 -7.33301 -8 -11 -16 -11h-41zM631.002 1413l-332 -883h665zM635.002 1659c-17.333 0 -32.499 -2.33301 -45.499 -7s-23.667 -10.834 -32 -18.501s-14.5 -16.167 -18.5 -25.5s-6 -19 -6 -29v-20c0 -20.667 8.16699 -39.167 24.5 -55.5s42.166 -24.5 77.499 -24.5
c34.667 0 60.5 8.5 77.5 25.5s25.5 35.833 25.5 56.5v18c0 10 -2 19.667 -6 29s-10.167 17.833 -18.5 25.5s-19 13.834 -32 18.501s-28.5 7 -46.5 7z" />
    <glyph glyph-name="AE" unicode="&#xc6;" horiz-adv-x="1711" 
d="M883 0c-8 0 -12 4 -12 12v457h-555l-242 -458c-4.66699 -7.33301 -10.667 -11 -18 -11h-44c-8 0 -10 3.66699 -6 11l765 1453c4.66699 7.33301 10.667 11 18 11h797c8 0 12 -4 12 -12v-38c0 -8 -4 -12 -12 -12h-654v-563h472c8 0 12 -4 12 -12v-38c0 -8 -4 -12 -12 -12
h-472v-727h654c8 0 12 -4 12 -12v-37c0 -8 -4 -12 -12 -12h-703zM816 1413l-467 -883h522v883h-55z" />
    <glyph glyph-name="Ccedilla" unicode="&#xc7;" horiz-adv-x="1159" 
d="M739 -20c-92.667 0 -175.169 11.3301 -247.502 33.9971s-133.5 60.834 -183.5 114.501s-88.167 124.667 -114.5 213s-39.5 198.5 -39.5 330.5v131c0 131.333 13.167 241.333 39.5 330s64.5 159.834 114.5 213.501s111.167 91.834 183.5 114.501s154.833 34 247.5 34
c58.667 0 115 -2.5 169 -7.5s99.667 -11.167 137 -18.5c8 -2 11 -7 9 -15l-7 -33c-2 -7.33301 -7 -10.666 -15 -9.99902c-42.667 8.66699 -90.167 14.667 -142.5 18s-102.5 5 -150.5 5c-82 0 -155.167 -9.83301 -219.5 -29.5s-118.666 -53.167 -162.999 -100.5
s-78.333 -111 -102 -191s-35.5 -180 -35.5 -300v-151c0 -120.667 11.667 -220.834 35 -300.501s57.166 -143.334 101.499 -191.001s98.833 -81.167 163.5 -100.5s138 -29 220 -29c63.333 0 120 2.5 170 7.5s94 11.5 132 19.5
c8.66699 0.666992 13.334 -2.66602 14.001 -9.99902l8 -34c0.666992 -8 -2.66602 -13 -9.99902 -15c-38 -9.33301 -84.667 -16.5 -140 -21.5s-113.333 -7.5 -174 -7.5zM547.998 -389.003c-8 0 -10 3.66699 -6 11l141 265c4.66699 7.33301 10.667 11 18 11h44
c8 0 10.333 -3.66699 7 -11l-133 -265c-4 -7.33301 -9.66699 -11 -17 -11h-54z" />
    <glyph glyph-name="Egrave" unicode="&#xc8;" horiz-adv-x="1177" 
d="M228 0c-8 0 -12 4 -12 12v1451c0 8 4 12 12 12h801c8 0 12 -4 12 -12v-38c0 -8 -4 -12 -12 -12h-752v-563h668c8 0 12 -4 12 -12v-38c0 -8 -4 -12 -12 -12h-668v-727h752c8 0 12 -4 12 -12v-37c0 -8 -4 -12 -12 -12h-801zM664 1608c-8 0 -15.334 2.33301 -22.001 7
l-238 180c-7.33301 4.66699 -6.66602 7 2.00098 7h97c8 0 15 -2.66699 21 -8l204 -178c5.33301 -5.33301 4.33301 -8 -3 -8h-61z" />
    <glyph glyph-name="Eacute" unicode="&#xc9;" horiz-adv-x="1177" 
d="M228 0c-8 0 -12 4 -12 12v1451c0 8 4 12 12 12h801c8 0 12 -4 12 -12v-38c0 -8 -4 -12 -12 -12h-752v-563h668c8 0 12 -4 12 -12v-38c0 -8 -4 -12 -12 -12h-668v-727h752c8 0 12 -4 12 -12v-37c0 -8 -4 -12 -12 -12h-801zM512 1608c-7.33301 0 -8.33301 2.66699 -3 8
l204 178c6 5.33301 13 8 21 8h97c8 0 8.66699 -2.33301 2 -7l-238 -180c-6.66699 -4.66699 -14 -7 -22 -7h-61z" />
    <glyph glyph-name="Ecircumflex" unicode="&#xca;" horiz-adv-x="1177" 
d="M228 0c-8 0 -12 4 -12 12v1451c0 8 4 12 12 12h801c8 0 12 -4 12 -12v-38c0 -8 -4 -12 -12 -12h-752v-563h668c8 0 12 -4 12 -12v-38c0 -8 -4 -12 -12 -12h-668v-727h752c8 0 12 -4 12 -12v-37c0 -8 -4 -12 -12 -12h-801zM565 1794c6 5.33301 13 8 21 8h42
c8 0 15 -2.66699 21 -8l213 -178c5.33301 -5.33301 4.33301 -8 -3 -8h-63c-8 0 -15 2.66699 -21 8l-158 131h-20l-158 -131c-6 -5.33301 -13 -8 -21 -8h-63c-7.33301 0 -8.33301 2.66699 -3 8z" />
    <glyph glyph-name="Edieresis" unicode="&#xcb;" horiz-adv-x="1177" 
d="M228 0c-8 0 -12 4 -12 12v1451c0 8 4 12 12 12h801c8 0 12 -4 12 -12v-38c0 -8 -4 -12 -12 -12h-752v-563h668c8 0 12 -4 12 -12v-38c0 -8 -4 -12 -12 -12h-668v-727h752c8 0 12 -4 12 -12v-37c0 -8 -4 -12 -12 -12h-801zM455 1608c-8 0 -12 4 -12 12v191c0 8 4 13 12 15
l48 14c8 2 12 -1 12 -9v-211c0 -8 -4 -12 -12 -12h-48zM711 1608c-8 0 -12 4 -12 12v191c0 8 4 13 12 15l48 14c8 2 12 -1 12 -9v-211c0 -8 -4 -12 -12 -12h-48z" />
    <glyph glyph-name="Igrave" unicode="&#xcc;" horiz-adv-x="493" 
d="M228 0c-8 0 -12 4 -12 12v1451c0 8 4 12 12 12h37c8 0 12 -4 12 -12v-1451c0 -8 -4 -12 -12 -12h-37zM346 1608c-8 0 -15.334 2.33301 -22.001 7l-238 180c-7.33301 4.66699 -6.66602 7 2.00098 7h97c8 0 15 -2.66699 21 -8l204 -178c5.33301 -5.33301 4.33301 -8 -3 -8
h-61z" />
    <glyph glyph-name="Iacute" unicode="&#xcd;" horiz-adv-x="493" 
d="M228 0c-8 0 -12 4 -12 12v1451c0 8 4 12 12 12h37c8 0 12 -4 12 -12v-1451c0 -8 -4 -12 -12 -12h-37zM91 1608c-7.33301 0 -8.33301 2.66699 -3 8l204 178c6 5.33301 13 8 21 8h97c8 0 8.66699 -2.33301 2 -7l-238 -180c-6.66699 -4.66699 -14 -7 -22 -7h-61z" />
    <glyph glyph-name="Icircumflex" unicode="&#xce;" horiz-adv-x="492" 
d="M228 0c-8 0 -12 4 -12 12v1451c0 8 4 12 12 12h37c8 0 12 -4 12 -12v-1451c0 -8 -4 -12 -12 -12h-37zM206 1794c6 5.33301 13 8 21 8h42c8 0 15 -2.66699 21 -8l213 -178c5.33301 -5.33301 4.33301 -8 -3 -8h-63c-8 0 -15 2.66699 -21 8l-158 131h-20l-158 -131
c-6 -5.33301 -13 -8 -21 -8h-63c-7.33301 0 -8.33301 2.66699 -3 8z" />
    <glyph glyph-name="Idieresis" unicode="&#xcf;" horiz-adv-x="493" 
d="M228 0c-8 0 -12 4 -12 12v1451c0 8 4 12 12 12h37c8 0 12 -4 12 -12v-1451c0 -8 -4 -12 -12 -12h-37zM96 1608c-8 0 -12 4 -12 12v191c0 8 4 13 12 15l48 14c8 2 12 -1 12 -9v-211c0 -8 -4 -12 -12 -12h-48zM352 1608c-8 0 -12 4 -12 12v191c0 8 4 13 12 15l48 14
c8 2 12 -1 12 -9v-211c0 -8 -4 -12 -12 -12h-48z" />
    <glyph glyph-name="Eth" unicode="&#xd0;" horiz-adv-x="1388" 
d="M586 -16c-54 0 -112.668 1.16895 -176.001 3.50195s-123.666 6.16602 -180.999 11.499c-8 0.666992 -12 5 -12 13v758h-162c-8 0 -12 4 -12 12v37c0 8 4 12 12 12h162v632c0 8 4 12.333 12 13c30 2 61.5 3.5 94.5 4.5s65.5 1.83301 97.5 2.5s62.167 1.16699 90.5 1.5
s52.5 0.5 72.5 0.5c64 0 124.5 -3.16699 181.5 -9.5s109.5 -18.333 157.5 -36s91.167 -42.334 129.5 -74.001s70.833 -73 97.5 -124s47.167 -113.167 61.5 -186.5s21.5 -160 21.5 -260v-113c0 -100 -7 -186.833 -21 -260.5s-34.333 -136.334 -61 -188.001
s-59 -93.667 -97 -126s-81 -57.666 -129 -75.999s-100.5 -30.833 -157.5 -37.5s-117.5 -10 -181.5 -10zM581.999 1423c-19.333 0 -42.667 -0.166016 -70 -0.499023s-55.166 -0.833008 -83.499 -1.5s-55.833 -1.5 -82.5 -2.5s-49.334 -2.16699 -68.001 -3.5v-584h293
c8 0 12 -4 12 -12v-37c0 -8 -4 -12 -12 -12h-293v-713c23.333 -2 48.166 -3.83301 74.499 -5.5s52.833 -3 79.5 -4s53 -1.66699 79 -2s50.333 -0.5 73 -0.5c64 0 123 3.33301 177 10s102.833 18.667 146.5 36s81.834 41.166 114.501 71.499s60.167 68.833 82.5 115.5
s39 102.834 50 168.501s16.5 142.834 16.5 231.501v119c0 88 -5.66699 164.5 -17 229.5s-28 120.833 -50 167.5s-49.5 84.667 -82.5 114s-71.333 52.666 -115 69.999s-92.5 29.166 -146.5 35.499s-113.333 9.5 -178 9.5z" />
    <glyph glyph-name="Ntilde" unicode="&#xd1;" horiz-adv-x="1388" 
d="M228 0c-8 0 -12 3.99902 -12 11.999v1451c0 8 4 12 12 12h54c8 0 14 -3.33301 18 -10l735 -1242c22.667 -39.333 40.667 -69.666 54 -90.999s20.333 -32 21 -32l1 1363c0 8 4 12 12 12h37c8 0 12 -4 12 -12v-1451c0 -8 -4 -12 -12 -12h-53c-8 -0 -14 3.33301 -18 10
l-732 1233l-30 52l-24.5 41.5l-17 27.5l-6.5 10l-2 -1362c0 -8 -4 -12 -12 -12h-37zM398 1607c-8 0 -12 4 -12 12v14c0 42.667 4.83301 76.5 14.5 101.5s21.667 44.167 36 57.5s30 22 47 26s32.833 6 47.5 6c29.333 0 55.5 -5.83301 78.5 -17.5s44.167 -25.834 63.5 -42.501
l57 -49c20.667 -17.333 40.834 -31.5 60.501 -42.5s41.167 -16.5 64.5 -16.5c13.333 0 25.333 1.5 36 4.5s19.667 9.66699 27 20s13.166 25.166 17.499 44.499s6.83301 45.333 7.5 78c0 8 4 12 12 12h33c8 0 12 -4 12 -12v-14c0 -42.667 -4.83301 -76.5 -14.5 -101.5
s-21.667 -44.167 -36 -57.5s-30 -22 -47 -26s-32.833 -6 -47.5 -6c-28.667 0 -54.5 5.83301 -77.5 17.5s-44.167 25.834 -63.5 42.501l-58 49c-20.667 16.667 -40.834 30.667 -60.501 42s-41.167 17 -64.5 17c-13.333 0 -25.333 -1.5 -36 -4.5s-19.667 -9.66699 -27 -20
s-13.166 -25.166 -17.499 -44.499s-6.83301 -45.333 -7.5 -78c0 -8 -4 -12 -12 -12h-33z" />
    <glyph glyph-name="Ograve" unicode="&#xd2;" horiz-adv-x="1415" 
d="M709 -20c-88 0 -166.333 11.333 -235 34s-126.334 60.834 -173.001 114.501s-82.167 124.667 -106.5 213s-36.5 198.5 -36.5 330.5v131c0 131.333 12.167 241.333 36.5 330s59.833 159.834 106.5 213.501s104.334 91.834 173.001 114.501s147 34 235 34
c88.667 0 167 -11.333 235 -34s125.167 -60.834 171.5 -114.501s81.5 -124.834 105.5 -213.501s36 -198.667 36 -330v-131c0 -132 -12 -242.167 -36 -330.5s-59.167 -159.333 -105.5 -213s-103.5 -91.834 -171.5 -114.501s-146.333 -34 -235 -34zM709 1430
c-77.333 0 -145.997 -9.66504 -205.997 -28.998s-110.833 -52.5 -152.5 -99.5s-73.334 -110.167 -95.001 -189.5s-32.5 -179 -32.5 -299v-151c0 -120.667 10.833 -220.667 32.5 -300s53.167 -142.5 94.5 -189.5s92.166 -80 152.499 -99s129.166 -28.5 206.499 -28.5
s146 9.5 206 28.5s110.5 52.167 151.5 99.5s72.167 110.666 93.5 189.999s32 179.666 32 300.999v149c0 120 -10.667 219.667 -32 299s-52.5 142.5 -93.5 189.5s-91.5 80.167 -151.5 99.5s-128.667 29 -206 29zM743.003 1608c-8 0 -15.334 2.33301 -22.001 7l-238 180
c-7.33301 4.66699 -6.66602 7 2.00098 7h97c8 0 15 -2.66699 21 -8l204 -178c5.33301 -5.33301 4.33301 -8 -3 -8h-61z" />
    <glyph glyph-name="Oacute" unicode="&#xd3;" horiz-adv-x="1415" 
d="M709 -20c-88 0 -166.333 11.333 -235 34s-126.334 60.834 -173.001 114.501s-82.167 124.667 -106.5 213s-36.5 198.5 -36.5 330.5v131c0 131.333 12.167 241.333 36.5 330s59.833 159.834 106.5 213.501s104.334 91.834 173.001 114.501s147 34 235 34
c88.667 0 167 -11.333 235 -34s125.167 -60.834 171.5 -114.501s81.5 -124.834 105.5 -213.501s36 -198.667 36 -330v-131c0 -132 -12 -242.167 -36 -330.5s-59.167 -159.333 -105.5 -213s-103.5 -91.834 -171.5 -114.501s-146.333 -34 -235 -34zM709 1430
c-77.333 0 -145.997 -9.66504 -205.997 -28.998s-110.833 -52.5 -152.5 -99.5s-73.334 -110.167 -95.001 -189.5s-32.5 -179 -32.5 -299v-151c0 -120.667 10.833 -220.667 32.5 -300s53.167 -142.5 94.5 -189.5s92.166 -80 152.499 -99s129.166 -28.5 206.499 -28.5
s146 9.5 206 28.5s110.5 52.167 151.5 99.5s72.167 110.666 93.5 189.999s32 179.666 32 300.999v149c0 120 -10.667 219.667 -32 299s-52.5 142.5 -93.5 189.5s-91.5 80.167 -151.5 99.5s-128.667 29 -206 29zM590.003 1608c-7.33301 0 -8.33301 2.66699 -3 8l204 178
c6 5.33301 13 8 21 8h97c8 0 8.66699 -2.33301 2 -7l-238 -180c-6.66699 -4.66699 -14 -7 -22 -7h-61z" />
    <glyph glyph-name="Ocircumflex" unicode="&#xd4;" horiz-adv-x="1415" 
d="M709 -20c-88 0 -166.333 11.333 -235 34s-126.334 60.834 -173.001 114.501s-82.167 124.667 -106.5 213s-36.5 198.5 -36.5 330.5v131c0 131.333 12.167 241.333 36.5 330s59.833 159.834 106.5 213.501s104.334 91.834 173.001 114.501s147 34 235 34
c88.667 0 167 -11.333 235 -34s125.167 -60.834 171.5 -114.501s81.5 -124.834 105.5 -213.501s36 -198.667 36 -330v-131c0 -132 -12 -242.167 -36 -330.5s-59.167 -159.333 -105.5 -213s-103.5 -91.834 -171.5 -114.501s-146.333 -34 -235 -34zM709 1430
c-77.333 0 -145.997 -9.66504 -205.997 -28.998s-110.833 -52.5 -152.5 -99.5s-73.334 -110.167 -95.001 -189.5s-32.5 -179 -32.5 -299v-151c0 -120.667 10.833 -220.667 32.5 -300s53.167 -142.5 94.5 -189.5s92.166 -80 152.499 -99s129.166 -28.5 206.499 -28.5
s146 9.5 206 28.5s110.5 52.167 151.5 99.5s72.167 110.666 93.5 189.999s32 179.666 32 300.999v149c0 120 -10.667 219.667 -32 299s-52.5 142.5 -93.5 189.5s-91.5 80.167 -151.5 99.5s-128.667 29 -206 29zM664.003 1794c6 5.33301 13 8 21 8h42c8 0 15 -2.66699 21 -8
l213 -178c5.33301 -5.33301 4.33301 -8 -3 -8h-63c-8 0 -15 2.66699 -21 8l-158 131h-20l-158 -131c-6 -5.33301 -13 -8 -21 -8h-63c-7.33301 0 -8.33301 2.66699 -3 8z" />
    <glyph glyph-name="Otilde" unicode="&#xd5;" horiz-adv-x="1415" 
d="M709 -20c-88 0 -166.333 11.333 -235 34s-126.334 60.834 -173.001 114.501s-82.167 124.667 -106.5 213s-36.5 198.5 -36.5 330.5v131c0 131.333 12.167 241.333 36.5 330s59.833 159.834 106.5 213.501s104.334 91.834 173.001 114.501s147 34 235 34
c88.667 0 167 -11.333 235 -34s125.167 -60.834 171.5 -114.501s81.5 -124.834 105.5 -213.501s36 -198.667 36 -330v-131c0 -132 -12 -242.167 -36 -330.5s-59.167 -159.333 -105.5 -213s-103.5 -91.834 -171.5 -114.501s-146.333 -34 -235 -34zM709 1430
c-77.333 0 -145.997 -9.66504 -205.997 -28.998s-110.833 -52.5 -152.5 -99.5s-73.334 -110.167 -95.001 -189.5s-32.5 -179 -32.5 -299v-151c0 -120.667 10.833 -220.667 32.5 -300s53.167 -142.5 94.5 -189.5s92.166 -80 152.499 -99s129.166 -28.5 206.499 -28.5
s146 9.5 206 28.5s110.5 52.167 151.5 99.5s72.167 110.666 93.5 189.999s32 179.666 32 300.999v149c0 120 -10.667 219.667 -32 299s-52.5 142.5 -93.5 189.5s-91.5 80.167 -151.5 99.5s-128.667 29 -206 29zM411.003 1607c-8 0 -12 4 -12 12v14
c0 42.667 4.83301 76.5 14.5 101.5s21.667 44.167 36 57.5s30 22 47 26s32.833 6 47.5 6c29.333 0 55.5 -5.83301 78.5 -17.5s44.167 -25.834 63.5 -42.501l57 -49c20.667 -17.333 40.834 -31.5 60.501 -42.5s41.167 -16.5 64.5 -16.5c13.333 0 25.333 1.5 36 4.5
s19.667 9.66699 27 20s13.166 25.166 17.499 44.499s6.83301 45.333 7.5 78c0 8 4 12 12 12h33c8 0 12 -4 12 -12v-14c0 -42.667 -4.83301 -76.5 -14.5 -101.5s-21.667 -44.167 -36 -57.5s-30 -22 -47 -26s-32.833 -6 -47.5 -6c-28.667 0 -54.5 5.83301 -77.5 17.5
s-44.167 25.834 -63.5 42.501l-58 49c-20.667 16.667 -40.834 30.667 -60.501 42s-41.167 17 -64.5 17c-13.333 0 -25.333 -1.5 -36 -4.5s-19.667 -9.66699 -27 -20s-13.166 -25.166 -17.499 -44.499s-6.83301 -45.333 -7.5 -78c0 -8 -4 -12 -12 -12h-33z" />
    <glyph glyph-name="Odieresis" unicode="&#xd6;" horiz-adv-x="1415" 
d="M709 -20c-88 0 -166.333 11.333 -235 34s-126.334 60.834 -173.001 114.501s-82.167 124.667 -106.5 213s-36.5 198.5 -36.5 330.5v131c0 131.333 12.167 241.333 36.5 330s59.833 159.834 106.5 213.501s104.334 91.834 173.001 114.501s147 34 235 34
c88.667 0 167 -11.333 235 -34s125.167 -60.834 171.5 -114.501s81.5 -124.834 105.5 -213.501s36 -198.667 36 -330v-131c0 -132 -12 -242.167 -36 -330.5s-59.167 -159.333 -105.5 -213s-103.5 -91.834 -171.5 -114.501s-146.333 -34 -235 -34zM709 1430
c-77.333 0 -145.997 -9.66504 -205.997 -28.998s-110.833 -52.5 -152.5 -99.5s-73.334 -110.167 -95.001 -189.5s-32.5 -179 -32.5 -299v-151c0 -120.667 10.833 -220.667 32.5 -300s53.167 -142.5 94.5 -189.5s92.166 -80 152.499 -99s129.166 -28.5 206.499 -28.5
s146 9.5 206 28.5s110.5 52.167 151.5 99.5s72.167 110.666 93.5 189.999s32 179.666 32 300.999v149c0 120 -10.667 219.667 -32 299s-52.5 142.5 -93.5 189.5s-91.5 80.167 -151.5 99.5s-128.667 29 -206 29zM554.003 1608c-8 0 -12 4 -12 12v191c0 8 4 13 12 15l48 14
c8 2 12 -1 12 -9v-211c0 -8 -4 -12 -12 -12h-48zM810.003 1608c-8 0 -12 4 -12 12v191c0 8 4 13 12 15l48 14c8 2 12 -1 12 -9v-211c0 -8 -4 -12 -12 -12h-48z" />
    <glyph glyph-name="multiply" unicode="&#xd7;" horiz-adv-x="940" 
d="M183 1053c-5.33301 5.33301 -5.33203 10.666 0.000976562 15.999l27 27c5.33301 5.33301 10.666 5.33301 15.999 0l245 -245l245 245c5.33301 5.33301 11 5.33301 17 0l27 -27c6 -5.33301 6 -10.666 0 -15.999l-245 -245l245 -245c6 -5.33301 6 -10.666 0 -15.999
l-27 -27c-6 -5.33301 -12 -5.33301 -18 0l-244 244l-244 -244c-6 -5.33301 -11.667 -5.33301 -17 0l-27 27c-5.33301 5.33301 -5.33301 10.666 0 15.999l245 245z" />
    <glyph glyph-name="Oslash" unicode="&#xd8;" horiz-adv-x="1417" 
d="M255 193c-32 54 -56.0039 120.166 -72.0039 198.499s-24 171.833 -24 280.5v131c0 131.333 12.167 241.333 36.5 330s59.833 159.834 106.5 213.501s104.334 91.834 173.001 114.501s147 34 235 34c91.333 0 171.333 -12 240 -36s126.334 -64.333 173.001 -121l97 127
c4 6.66699 10.333 10 19 10h57c8 0 9.66699 -3.33301 5 -10l-139 -183c32 -54 56 -120.167 72 -198.5s24 -171.833 24 -280.5v-131c0 -132 -12 -242.167 -36 -330.5s-59.167 -159.333 -105.5 -213s-103.5 -91.834 -171.5 -114.501s-146.333 -34 -235 -34
c-91.333 0 -171.666 12 -240.999 36s-127.666 64.667 -174.999 122l-97 -128c-4 -6.66699 -10.333 -10 -19 -10h-57c-8 -0 -9.66699 3.33301 -5 10zM1193 812.999c0 92.667 -6.33105 172.503 -18.998 239.503s-31.334 124.5 -56.001 172.5l-783 -1033
c42 -54.667 94.167 -92.834 156.5 -114.501s135.166 -32.5 218.499 -32.5c77.333 0 146 9.5 206 28.5s110.5 52.167 151.5 99.5s72.167 110.666 93.5 189.999s32 179.666 32 300.999v149zM709.998 1430c-77.333 0 -145.999 -9.66699 -205.999 -29
s-110.833 -52.5 -152.5 -99.5s-73.334 -110.167 -95.001 -189.5s-32.5 -179 -32.5 -299v-151c0 -92.667 6.16699 -172.5 18.5 -239.5s30.833 -124.5 55.5 -172.5l784 1034c-41.333 54 -93 91.833 -155 113.5s-134.333 32.5 -217 32.5z" />
    <glyph glyph-name="Ugrave" unicode="&#xd9;" horiz-adv-x="1413" 
d="M701 -20c-80 0 -151.167 9.33496 -213.5 28.002s-114.833 48.667 -157.5 90s-75 95 -97 161s-33 146.333 -33 241v963c0 8 4 12 12 12h37c8 0 12 -4 12 -12v-945c0 -80 7.16699 -149.833 21.5 -209.5s38.5 -109.334 72.5 -149.001s79.167 -69.334 135.5 -89.001
s126.5 -29.5 210.5 -29.5c86.667 0 159 9.83301 217 29.5s104.5 49.167 139.5 88.5s59.833 89 74.5 149s22 130 22 210v945c0 8 4 12 12 12h35c8 0 12 -4 12 -12v-963c0 -94.667 -11.333 -175 -34 -241s-55.667 -119.667 -99 -161s-96.833 -71.333 -160.5 -90
s-136.5 -28 -218.5 -28zM762 1608c-8 0 -15.334 2.33301 -22.001 7l-238 180c-7.33301 4.66699 -6.66602 7 2.00098 7h97c8 0 15 -2.66699 21 -8l204 -178c5.33301 -5.33301 4.33301 -8 -3 -8h-61z" />
    <glyph glyph-name="Uacute" unicode="&#xda;" horiz-adv-x="1413" 
d="M701 -20c-80 0 -151.167 9.33496 -213.5 28.002s-114.833 48.667 -157.5 90s-75 95 -97 161s-33 146.333 -33 241v963c0 8 4 12 12 12h37c8 0 12 -4 12 -12v-945c0 -80 7.16699 -149.833 21.5 -209.5s38.5 -109.334 72.5 -149.001s79.167 -69.334 135.5 -89.001
s126.5 -29.5 210.5 -29.5c86.667 0 159 9.83301 217 29.5s104.5 49.167 139.5 88.5s59.833 89 74.5 149s22 130 22 210v945c0 8 4 12 12 12h35c8 0 12 -4 12 -12v-963c0 -94.667 -11.333 -175 -34 -241s-55.667 -119.667 -99 -161s-96.833 -71.333 -160.5 -90
s-136.5 -28 -218.5 -28zM610 1608c-7.33301 0 -8.33301 2.66699 -3 8l204 178c6 5.33301 13 8 21 8h97c8 0 8.66699 -2.33301 2 -7l-238 -180c-6.66699 -4.66699 -14 -7 -22 -7h-61z" />
    <glyph glyph-name="Ucircumflex" unicode="&#xdb;" horiz-adv-x="1413" 
d="M701 -20c-80 0 -151.167 9.33496 -213.5 28.002s-114.833 48.667 -157.5 90s-75 95 -97 161s-33 146.333 -33 241v963c0 8 4 12 12 12h37c8 0 12 -4 12 -12v-945c0 -80 7.16699 -149.833 21.5 -209.5s38.5 -109.334 72.5 -149.001s79.167 -69.334 135.5 -89.001
s126.5 -29.5 210.5 -29.5c86.667 0 159 9.83301 217 29.5s104.5 49.167 139.5 88.5s59.833 89 74.5 149s22 130 22 210v945c0 8 4 12 12 12h35c8 0 12 -4 12 -12v-963c0 -94.667 -11.333 -175 -34 -241s-55.667 -119.667 -99 -161s-96.833 -71.333 -160.5 -90
s-136.5 -28 -218.5 -28zM663 1794c6 5.33301 13 8 21 8h42c8 0 15 -2.66699 21 -8l213 -178c5.33301 -5.33301 4.33301 -8 -3 -8h-63c-8 0 -15 2.66699 -21 8l-158 131h-20l-158 -131c-6 -5.33301 -13 -8 -21 -8h-63c-7.33301 0 -8.33301 2.66699 -3 8z" />
    <glyph glyph-name="Udieresis" unicode="&#xdc;" horiz-adv-x="1413" 
d="M701 -20c-80 0 -151.167 9.33496 -213.5 28.002s-114.833 48.667 -157.5 90s-75 95 -97 161s-33 146.333 -33 241v963c0 8 4 12 12 12h37c8 0 12 -4 12 -12v-945c0 -80 7.16699 -149.833 21.5 -209.5s38.5 -109.334 72.5 -149.001s79.167 -69.334 135.5 -89.001
s126.5 -29.5 210.5 -29.5c86.667 0 159 9.83301 217 29.5s104.5 49.167 139.5 88.5s59.833 89 74.5 149s22 130 22 210v945c0 8 4 12 12 12h35c8 0 12 -4 12 -12v-963c0 -94.667 -11.333 -175 -34 -241s-55.667 -119.667 -99 -161s-96.833 -71.333 -160.5 -90
s-136.5 -28 -218.5 -28zM553 1608c-8 0 -12 4 -12 12v191c0 8 4 13 12 15l48 14c8 2 12 -1 12 -9v-211c0 -8 -4 -12 -12 -12h-48zM809 1608c-8 0 -12 4 -12 12v191c0 8 4 13 12 15l48 14c8 2 12 -1 12 -9v-211c0 -8 -4 -12 -12 -12h-48z" />
    <glyph glyph-name="Yacute" unicode="&#xdd;" horiz-adv-x="1129" 
d="M547 0c-8 0 -12 4 -12 12v511l-496 941c-4 7.33301 -2 11 6 11h43c7.33301 0 13.333 -3.66699 18 -11l459 -860l459 860c4.66699 7.33301 10.667 11 18 11h42c8 0 10 -3.66699 6 -11l-494 -941v-511c0 -8 -4 -12 -12 -12h-37zM468 1608c-7.33301 0 -8.33301 2.66699 -3 8
l204 178c6 5.33301 13 8 21 8h97c8 0 8.66699 -2.33301 2 -7l-238 -180c-6.66699 -4.66699 -14 -7 -22 -7h-61z" />
    <glyph glyph-name="Thorn" unicode="&#xde;" horiz-adv-x="1248" 
d="M228 0c-8 0 -12 3.99902 -12 11.999v1451c0 8 4 12 12 12h37c8 0 12 -4 12 -12v-206c19.333 0.666992 39.666 1.5 60.999 2.5l62 3c20 1 38.5 1.66699 55.5 2s31.5 0.5 43.5 0.5c108.667 0 202.834 -5 282.501 -15s145.667 -30.5 198 -61.5s91.166 -75.333 116.499 -133
s38 -134.5 38 -230.5v-64c0 -96 -12.667 -172.833 -38 -230.5s-64.166 -102 -116.499 -133s-118.333 -51.5 -198 -61.5s-173.834 -15 -282.501 -15c-15.333 0 -34.666 0.333008 -57.999 1s-46.5 1.5 -69.5 2.5s-43.5 1.83301 -61.5 2.5s-29 1.33398 -33 2.00098v-317
c0 -8 -4 -12 -12 -12h-37zM499 1204c-12 0 -28.166 -0.333008 -48.499 -1l-64 -2c-22.333 -0.666992 -43.5 -1.66699 -63.5 -3l-46 -3v-805c10.667 -1.33301 26 -2.33301 46 -3s41.167 -1.5 63.5 -2.5s43.666 -1.66699 63.999 -2s36.5 -0.5 48.5 -0.5
c106.667 0 196.667 5.16699 270 15.5s132.333 29.5 177 57.5s76.834 67 96.501 117s29.5 115 29.5 195v51c0 80 -9.83301 145.167 -29.5 195.5s-51.834 89.5 -96.501 117.5s-103.667 47.167 -177 57.5s-163.333 15.5 -270 15.5z" />
    <glyph glyph-name="germandbls" unicode="&#xdf;" horiz-adv-x="1175" 
d="M196 0c-8 0 -11.999 3.99512 -11.999 11.9951v1061c0 94.667 9.83301 174.167 29.5 238.5s47.667 116.166 84 155.499s80.333 67.5 132 84.5s109.167 25.5 172.5 25.5c60 0 114 -7.66699 162 -23s88.833 -38.166 122.5 -68.499s59.5 -68 77.5 -113s27 -97.167 27 -156.5
v-16c0 -35.333 -3.33301 -70.333 -10 -105s-17.834 -67.167 -33.501 -97.5s-36.667 -57.166 -63 -80.499s-59.166 -41 -98.499 -53c52 -13.333 94.667 -35.166 128 -65.499s59.5 -64.833 78.5 -103.5s32 -79 39 -121s10.5 -81 10.5 -117v-33
c0 -85.333 -10 -156.333 -30 -213s-48.333 -102.167 -85 -136.5s-80.334 -58.666 -131.001 -72.999s-107 -21.5 -169 -21.5c-36.667 0 -69.834 2 -99.501 6s-57.5 9.66699 -83.5 17c-8 2 -10.667 6.66699 -8 14l9 33c2.66699 7.33301 8 10 16 8
c12 -2.66699 23.833 -5.16699 35.5 -7.5s23.667 -4.33301 36 -6s25.833 -3 40.5 -4s31.334 -1.5 50.001 -1.5c60 0 112.333 6.5 157 19.5s81.834 34.5 111.501 64.5s52 69.333 67 118s22.5 109 22.5 181v43c0 50 -6.5 97.5 -19.5 142.5s-33.333 84.167 -61 117.5
s-63 59.833 -106 79.5s-94.167 29.5 -153.5 29.5h-152c-8 0 -12 4 -12 12v37c0 8 4 12 12 12h154c39.333 0 73.666 4.33301 102.999 13s54.666 20.667 75.999 36s39 33 53 53s25 41.333 33 64s13.667 45.834 17 69.501s5 46.834 5 69.501v16
c0 100 -27.833 175.333 -83.5 226s-137.167 76 -244.5 76c-56 0 -106.167 -7.5 -150.5 -22.5s-81.666 -39.667 -111.999 -74s-53.5 -80 -69.5 -137s-24 -127.5 -24 -211.5v-1061c0 -8 -4 -12 -12 -12h-38z" />
    <glyph glyph-name="agrave" unicode="&#xe0;" horiz-adv-x="1082" 
d="M568 41c50 0 97.999 1.83301 143.999 5.5s91 8.5 135 14.5v510h-184c-104.667 0 -189.167 -3.33301 -253.5 -10s-114.166 -19.5 -149.499 -38.5s-59 -45.667 -71 -80s-18 -78.833 -18 -133.5c0 -59.333 9.33301 -106.666 28 -141.999s45.167 -62.333 79.5 -81
s76 -30.834 125 -36.501s103.833 -8.5 164.5 -8.5zM543.999 1028c-31.333 0 -60.4971 -0.666016 -87.4971 -1.99902s-53.333 -3.33301 -79 -6s-50.834 -6 -75.501 -10s-50 -8.33301 -76 -13c-8 -0.666992 -12 2.66602 -12 9.99902v38c0 8.66699 4 13.334 12 14.001
c26 5.33301 53.333 10 82 14s57 7.16699 85 9.5s55 4.16602 81 5.49902s49.333 2 70 2c82 0 147 -6.83301 195 -20.5s84.5 -36.167 109.5 -67.5s41.167 -72.333 48.5 -123s11 -113 11 -187v-668c0 -8.66699 -4 -13.334 -12 -14.001
c-27.333 -4.66699 -56 -8.83398 -86 -12.501s-59.667 -6.83398 -89 -9.50098s-57.5 -4.66699 -84.5 -6s-50.5 -2 -70.5 -2c-77.333 0 -144.5 4.83301 -201.5 14.5s-104.333 26.834 -142 51.501s-65.834 58.334 -84.501 101.001s-28 97.334 -28 164.001
c0 62 8 113.667 24 155s45 74.333 87 99s99.667 42.167 173 52.5s167 15.5 281 15.5h172v96c0 60.667 -4 110.5 -12 149.5s-23 69.5 -45 91.5s-52.833 37.167 -92.5 45.5s-90.834 12.5 -153.501 12.5zM554.002 1260c-8 0 -14.667 3 -20 9l-198 238c-5.33301 6 -4 9 4 9h62
c8.66699 0 15 -3 19 -9l184 -238c4.66699 -6 3 -9 -5 -9h-46z" />
    <glyph glyph-name="aacute" unicode="&#xe1;" horiz-adv-x="1082" 
d="M568 41c50 0 97.999 1.83301 143.999 5.5s91 8.5 135 14.5v510h-184c-104.667 0 -189.167 -3.33301 -253.5 -10s-114.166 -19.5 -149.499 -38.5s-59 -45.667 -71 -80s-18 -78.833 -18 -133.5c0 -59.333 9.33301 -106.666 28 -141.999s45.167 -62.333 79.5 -81
s76 -30.834 125 -36.501s103.833 -8.5 164.5 -8.5zM543.999 1028c-31.333 0 -60.4971 -0.666016 -87.4971 -1.99902s-53.333 -3.33301 -79 -6s-50.834 -6 -75.501 -10s-50 -8.33301 -76 -13c-8 -0.666992 -12 2.66602 -12 9.99902v38c0 8.66699 4 13.334 12 14.001
c26 5.33301 53.333 10 82 14s57 7.16699 85 9.5s55 4.16602 81 5.49902s49.333 2 70 2c82 0 147 -6.83301 195 -20.5s84.5 -36.167 109.5 -67.5s41.167 -72.333 48.5 -123s11 -113 11 -187v-668c0 -8.66699 -4 -13.334 -12 -14.001
c-27.333 -4.66699 -56 -8.83398 -86 -12.501s-59.667 -6.83398 -89 -9.50098s-57.5 -4.66699 -84.5 -6s-50.5 -2 -70.5 -2c-77.333 0 -144.5 4.83301 -201.5 14.5s-104.333 26.834 -142 51.501s-65.834 58.334 -84.501 101.001s-28 97.334 -28 164.001
c0 62 8 113.667 24 155s45 74.333 87 99s99.667 42.167 173 52.5s167 15.5 281 15.5h172v96c0 60.667 -4 110.5 -12 149.5s-23 69.5 -45 91.5s-52.833 37.167 -92.5 45.5s-90.834 12.5 -153.501 12.5zM463.002 1260c-8 0 -9.66602 3 -4.99902 9l184 238c4 6 10.333 9 19 9
h62c7.33301 0 8.66602 -3 3.99902 -9l-198 -238c-5.33301 -6 -12 -9 -20 -9h-46z" />
    <glyph glyph-name="acircumflex" unicode="&#xe2;" horiz-adv-x="1082" 
d="M568 41c50 0 97.999 1.83301 143.999 5.5s91 8.5 135 14.5v510h-184c-104.667 0 -189.167 -3.33301 -253.5 -10s-114.166 -19.5 -149.499 -38.5s-59 -45.667 -71 -80s-18 -78.833 -18 -133.5c0 -59.333 9.33301 -106.666 28 -141.999s45.167 -62.333 79.5 -81
s76 -30.834 125 -36.501s103.833 -8.5 164.5 -8.5zM543.999 1028c-31.333 0 -60.4971 -0.666016 -87.4971 -1.99902s-53.333 -3.33301 -79 -6s-50.834 -6 -75.501 -10s-50 -8.33301 -76 -13c-8 -0.666992 -12 2.66602 -12 9.99902v38c0 8.66699 4 13.334 12 14.001
c26 5.33301 53.333 10 82 14s57 7.16699 85 9.5s55 4.16602 81 5.49902s49.333 2 70 2c82 0 147 -6.83301 195 -20.5s84.5 -36.167 109.5 -67.5s41.167 -72.333 48.5 -123s11 -113 11 -187v-668c0 -8.66699 -4 -13.334 -12 -14.001
c-27.333 -4.66699 -56 -8.83398 -86 -12.501s-59.667 -6.83398 -89 -9.50098s-57.5 -4.66699 -84.5 -6s-50.5 -2 -70.5 -2c-77.333 0 -144.5 4.83301 -201.5 14.5s-104.333 26.834 -142 51.501s-65.834 58.334 -84.501 101.001s-28 97.334 -28 164.001
c0 62 8 113.667 24 155s45 74.333 87 99s99.667 42.167 173 52.5s167 15.5 281 15.5h172v96c0 60.667 -4 110.5 -12 149.5s-23 69.5 -45 91.5s-52.833 37.167 -92.5 45.5s-90.834 12.5 -153.501 12.5zM494.002 1507c5.33301 6 11.999 9 19.999 9h38c8 0 14.667 -3 20 -9
l199 -228c4.66699 -6 3.33398 -9 -3.99902 -9h-53c-8 0 -14.667 3 -20 9l-151 180h-20l-151 -180c-5.33301 -6 -12 -9 -20 -9h-53c-8 0 -9.33301 3 -4 9z" />
    <glyph glyph-name="atilde" unicode="&#xe3;" horiz-adv-x="1082" 
d="M568 41c50 0 97.999 1.83301 143.999 5.5s91 8.5 135 14.5v510h-184c-104.667 0 -189.167 -3.33301 -253.5 -10s-114.166 -19.5 -149.499 -38.5s-59 -45.667 -71 -80s-18 -78.833 -18 -133.5c0 -59.333 9.33301 -106.666 28 -141.999s45.167 -62.333 79.5 -81
s76 -30.834 125 -36.501s103.833 -8.5 164.5 -8.5zM543.999 1028c-31.333 0 -60.4971 -0.666016 -87.4971 -1.99902s-53.333 -3.33301 -79 -6s-50.834 -6 -75.501 -10s-50 -8.33301 -76 -13c-8 -0.666992 -12 2.66602 -12 9.99902v38c0 8.66699 4 13.334 12 14.001
c26 5.33301 53.333 10 82 14s57 7.16699 85 9.5s55 4.16602 81 5.49902s49.333 2 70 2c82 0 147 -6.83301 195 -20.5s84.5 -36.167 109.5 -67.5s41.167 -72.333 48.5 -123s11 -113 11 -187v-668c0 -8.66699 -4 -13.334 -12 -14.001
c-27.333 -4.66699 -56 -8.83398 -86 -12.501s-59.667 -6.83398 -89 -9.50098s-57.5 -4.66699 -84.5 -6s-50.5 -2 -70.5 -2c-77.333 0 -144.5 4.83301 -201.5 14.5s-104.333 26.834 -142 51.501s-65.834 58.334 -84.501 101.001s-28 97.334 -28 164.001
c0 62 8 113.667 24 155s45 74.333 87 99s99.667 42.167 173 52.5s167 15.5 281 15.5h172v96c0 60.667 -4 110.5 -12 149.5s-23 69.5 -45 91.5s-52.833 37.167 -92.5 45.5s-90.834 12.5 -153.501 12.5zM365.002 1458c-13.333 0 -25.333 -1.83008 -36 -5.49707
s-19.834 -11.334 -27.501 -23.001s-13.5 -28.667 -17.5 -51s-6.33301 -52.5 -7 -90.5c0 -8 -4 -12 -12 -12h-33c-8 0 -12 4 -12 12v21c0 46.667 4.83301 83.667 14.5 111s21.667 48.166 36 62.499s30 23.5 47 27.5s32.833 6 47.5 6c29.333 0 55.5 -6.33301 78.5 -19
s44.167 -28.334 63.5 -47.001l57 -53c20.667 -19.333 40.834 -35.5 60.501 -48.5s41.167 -19.5 64.5 -19.5c13.333 0 25.333 1.83301 36 5.5s19.834 11.5 27.501 23.5s13.5 29.167 17.5 51.5s6.33301 52.166 7 89.499c0 8 4 12 12 12h33c8 0 12 -4 12 -12v-20
c0 -46.667 -4.83301 -83.667 -14.5 -111s-21.667 -48.166 -36 -62.499s-30 -23.5 -47 -27.5s-32.833 -6 -47.5 -6c-28.667 0 -54.5 6.16699 -77.5 18.5s-44.167 27.833 -63.5 46.5l-58 54c-20.667 19.333 -40.834 35.333 -60.501 48s-41.167 19 -64.5 19z" />
    <glyph glyph-name="adieresis" unicode="&#xe4;" horiz-adv-x="1082" 
d="M568 41c50 0 97.999 1.83301 143.999 5.5s91 8.5 135 14.5v510h-184c-104.667 0 -189.167 -3.33301 -253.5 -10s-114.166 -19.5 -149.499 -38.5s-59 -45.667 -71 -80s-18 -78.833 -18 -133.5c0 -59.333 9.33301 -106.666 28 -141.999s45.167 -62.333 79.5 -81
s76 -30.834 125 -36.501s103.833 -8.5 164.5 -8.5zM543.999 1028c-31.333 0 -60.4971 -0.666016 -87.4971 -1.99902s-53.333 -3.33301 -79 -6s-50.834 -6 -75.501 -10s-50 -8.33301 -76 -13c-8 -0.666992 -12 2.66602 -12 9.99902v38c0 8.66699 4 13.334 12 14.001
c26 5.33301 53.333 10 82 14s57 7.16699 85 9.5s55 4.16602 81 5.49902s49.333 2 70 2c82 0 147 -6.83301 195 -20.5s84.5 -36.167 109.5 -67.5s41.167 -72.333 48.5 -123s11 -113 11 -187v-668c0 -8.66699 -4 -13.334 -12 -14.001
c-27.333 -4.66699 -56 -8.83398 -86 -12.501s-59.667 -6.83398 -89 -9.50098s-57.5 -4.66699 -84.5 -6s-50.5 -2 -70.5 -2c-77.333 0 -144.5 4.83301 -201.5 14.5s-104.333 26.834 -142 51.501s-65.834 58.334 -84.501 101.001s-28 97.334 -28 164.001
c0 62 8 113.667 24 155s45 74.333 87 99s99.667 42.167 173 52.5s167 15.5 281 15.5h172v96c0 60.667 -4 110.5 -12 149.5s-23 69.5 -45 91.5s-52.833 37.167 -92.5 45.5s-90.834 12.5 -153.501 12.5zM365.002 1260c-8 0 -12 4 -12 12v252c0 8 4 13 12 15l50 14
c8 2 12 -1 12 -9v-272c0 -8 -4 -12 -12 -12h-50zM623.002 1260c-8 0 -12 4 -12 12v252c0 8 4 13 12 15l50 14c8 2 12 -1 12 -9v-272c0 -8 -4 -12 -12 -12h-50z" />
    <glyph glyph-name="aring" unicode="&#xe5;" horiz-adv-x="1082" 
d="M568 41c50 0 97.999 1.83301 143.999 5.5s91 8.5 135 14.5v510h-184c-104.667 0 -189.167 -3.33301 -253.5 -10s-114.166 -19.5 -149.499 -38.5s-59 -45.667 -71 -80s-18 -78.833 -18 -133.5c0 -59.333 9.33301 -106.666 28 -141.999s45.167 -62.333 79.5 -81
s76 -30.834 125 -36.501s103.833 -8.5 164.5 -8.5zM543.999 1028c-31.333 0 -60.4971 -0.666016 -87.4971 -1.99902s-53.333 -3.33301 -79 -6s-50.834 -6 -75.501 -10s-50 -8.33301 -76 -13c-8 -0.666992 -12 2.66602 -12 9.99902v38c0 8.66699 4 13.334 12 14.001
c26 5.33301 53.333 10 82 14s57 7.16699 85 9.5s55 4.16602 81 5.49902s49.333 2 70 2c82 0 147 -6.83301 195 -20.5s84.5 -36.167 109.5 -67.5s41.167 -72.333 48.5 -123s11 -113 11 -187v-668c0 -8.66699 -4 -13.334 -12 -14.001
c-27.333 -4.66699 -56 -8.83398 -86 -12.501s-59.667 -6.83398 -89 -9.50098s-57.5 -4.66699 -84.5 -6s-50.5 -2 -70.5 -2c-77.333 0 -144.5 4.83301 -201.5 14.5s-104.333 26.834 -142 51.501s-65.834 58.334 -84.501 101.001s-28 97.334 -28 164.001
c0 62 8 113.667 24 155s45 74.333 87 99s99.667 42.167 173 52.5s167 15.5 281 15.5h172v96c0 60.667 -4 110.5 -12 149.5s-23 69.5 -45 91.5s-52.833 37.167 -92.5 45.5s-90.834 12.5 -153.501 12.5zM525.002 1511c-44 0 -76.167 -8.33301 -96.5 -25
s-30.5 -45.667 -30.5 -87c0 -40 10.167 -68.5 30.5 -85.5s52.5 -25.5 96.5 -25.5s75.833 8.5 95.5 25.5s29.5 46.167 29.5 87.5c0 40 -9.5 68.333 -28.5 85s-51.167 25 -96.5 25zM525.002 1235c-60 0 -105.667 13.333 -137 40s-47 68 -47 124c0 56.667 15.667 98.5 47 125.5
s77 40.5 137 40.5c58.667 0 104 -13.5 136 -40.5s48 -68.167 48 -123.5c0 -56.667 -16 -98.5 -48 -125.5s-77.333 -40.5 -136 -40.5z" />
    <glyph glyph-name="ae" unicode="&#xe6;" horiz-adv-x="1854" 
d="M544 1028c-31.333 0 -60.501 -0.667969 -87.501 -2.00098s-53.333 -3.33301 -79 -6s-50.834 -6 -75.501 -10s-50 -8.33301 -76 -13c-8 -0.666992 -12 2.66602 -12 9.99902v38c0 8.66699 4 13.334 12 14.001c26 5.33301 53.333 10 82 14s57 7.16699 85 9.5
s55 4.16602 81 5.49902s49.333 2 70 2c61.333 0 113 -3.83301 155 -11.5s76.5 -20 103.5 -37s47.833 -38.833 62.5 -65.5s25.334 -59.334 32.001 -98.001c30.667 71.333 77.834 124.5 141.501 159.5s148.5 52.5 254.5 52.5c79.333 0 147 -9.33301 203 -28
s101.667 -46.167 137 -82.5s61.166 -81.5 77.499 -135.5s24.5 -116.333 24.5 -187c0 -22 -0.666992 -40.667 -2 -56s-2.66602 -27 -3.99902 -35c-0.666992 -8 -5.33398 -12 -14.001 -12h-805v-44c0 -85.333 6.33301 -157.666 19 -216.999s34.167 -107.666 64.5 -144.999
s71 -64.5 122 -81.5s114.833 -25.5 191.5 -25.5c54.667 0 109.667 1.33301 165 4s112.333 10 171 22c8 2 13 -1 15 -9l11 -35c2 -8 -1 -12.333 -9 -13c-54 -11.333 -109.167 -19.166 -165.5 -23.499s-118.166 -6.5 -185.499 -6.5c-103.333 0 -187.666 14.167 -252.999 42.5
s-114.666 75.833 -147.999 142.5v-141c0 -8.66699 -4 -13.334 -12 -14.001c-27.333 -4.66699 -56 -8.83398 -86 -12.501s-59.667 -6.83398 -89 -9.50098s-57.5 -4.66699 -84.5 -6s-50.5 -2 -70.5 -2c-77.333 0 -144.5 4.83301 -201.5 14.5s-104.333 26.834 -142 51.501
s-65.834 58.334 -84.501 101.001s-28 97.334 -28 164.001c0 58 8 106.5 24 145.5s45 70.333 87 94s99.667 40.5 173 50.5s167 15 281 15h172v113c0 60.667 -4 110.5 -12 149.5s-23 69.5 -45 91.5s-52.833 37.167 -92.5 45.5s-90.834 12.5 -153.501 12.5zM567.999 40.999
c50 0 97.999 1.83301 143.999 5.5s91 8.5 135 14.5v493h-184c-104.667 0 -189.167 -3.16699 -253.5 -9.5s-114.166 -18.5 -149.499 -36.5s-59 -43 -71 -75s-18 -73.333 -18 -124c0 -59.333 9.33301 -106.666 28 -141.999s45.167 -62.333 79.5 -81s76 -30.834 125 -36.501
s103.833 -8.5 164.5 -8.5zM1676 613.999c0 70.667 -6.16797 132 -18.501 184s-33.166 95 -62.499 129s-68.5 59.333 -117.5 76s-110.5 25 -184.5 25c-69.333 0 -127.833 -8.16699 -175.5 -24.5s-86.5 -41.5 -116.5 -75.5s-52 -77 -66 -129s-22.333 -113.667 -25 -185h766z
" />
    <glyph glyph-name="ccedilla" unicode="&#xe7;" horiz-adv-x="964" 
d="M632 -20c-90 0 -166.002 7.33301 -228.002 22s-112.167 41 -150.5 79s-66.166 90.333 -83.499 157s-26 152 -26 256v84c0 94 7.66699 173.5 23 238.5s41.833 117.833 79.5 158.5s87.834 70 150.501 88s141 27 235 27c42 0 82.333 -1.83301 121 -5.5
s74 -8.16699 106 -13.5c8 -0.666992 10.667 -5 8 -13l-12 -35c-2.66699 -6.66699 -8 -9.66699 -16 -9c-31.333 5.33301 -65.5 9 -102.5 11s-71.833 3 -104.5 3c-84 0 -153.5 -7.5 -208.5 -22.5s-98.5 -40.333 -130.5 -76s-54.5 -83.334 -67.5 -143.001
s-19.5 -134.167 -19.5 -223.5v-57c0 -91.333 6.5 -166.833 19.5 -226.5s35.5 -107.167 67.5 -142.5s75.5 -60.166 130.5 -74.499s124.5 -21.5 208.5 -21.5c36.667 0 73.5 1.16699 110.5 3.5s70.5 6.5 100.5 12.5c8 0.666992 13 -2.66602 15 -9.99902l10 -36
c2 -8 -1 -12.333 -9 -13c-16 -3.33301 -33.333 -6 -52 -8s-38 -3.83301 -58 -5.5s-40 -2.83398 -60 -3.50098s-39 -1 -57 -1zM413.998 -389c-8 0 -10 3.66699 -6 11l141 265c4.66699 7.33301 10.667 11 18 11h44c8 0 10.333 -3.66699 7 -11l-133 -265
c-4 -7.33301 -9.66699 -11 -17 -11h-54z" />
    <glyph glyph-name="egrave" unicode="&#xe8;" horiz-adv-x="1147" 
d="M603 -20c-83.333 0 -154.166 9.16309 -212.499 27.4961s-105.833 48.166 -142.5 89.499s-63.5 95.833 -80.5 163.5s-25.5 150.834 -25.5 249.501v70c0 85.333 7.83301 160 23.5 224s41.167 117.167 76.5 159.5s81.333 74 138 95s125.667 31.5 207 31.5
c79.333 0 147 -10 203 -30s101.667 -49.5 137 -88.5s61.166 -87.333 77.499 -145s24.5 -124.167 24.5 -199.5c0 -22 -0.666992 -40.667 -2 -56s-2.66602 -27 -3.99902 -35c-0.666992 -8 -5.33398 -12 -14.001 -12h-805v-14c0 -85.333 6.33301 -157.666 19 -216.999
s34.167 -107.666 64.5 -144.999s71 -64.5 122 -81.5s114.833 -25.5 191.5 -25.5c28 0 55.167 0.166992 81.5 0.5s52.666 1.33301 78.999 3s53 4.33398 80 8.00098s55.5 8.5 85.5 14.5c8 0.666992 13 -2.66602 15 -9.99902l11 -35c2 -8 -1 -12.333 -9 -13
c-27.333 -5.33301 -54 -9.83301 -80 -13.5s-52.667 -6.66699 -80 -9s-55.666 -4 -84.999 -5s-61.333 -1.5 -96 -1.5zM970 583.996c0 75.333 -6.16797 140.833 -18.501 196.5s-33.166 101.834 -62.499 138.501s-68.5 64 -117.5 82s-110.5 27 -184.5 27
c-72 0 -132.167 -8.83301 -180.5 -26.5s-87.5 -44.667 -117.5 -81s-51.5 -82.333 -64.5 -138s-19.833 -121.834 -20.5 -198.501h766zM627.999 1260c-8 0 -14.667 3 -20 9l-198 238c-5.33301 6 -4 9 4 9h62c8.66699 0 15 -3 19 -9l184 -238c4.66699 -6 3 -9 -5 -9h-46z" />
    <glyph glyph-name="eacute" unicode="&#xe9;" horiz-adv-x="1147" 
d="M603 -20c-83.333 0 -154.166 9.16309 -212.499 27.4961s-105.833 48.166 -142.5 89.499s-63.5 95.833 -80.5 163.5s-25.5 150.834 -25.5 249.501v70c0 85.333 7.83301 160 23.5 224s41.167 117.167 76.5 159.5s81.333 74 138 95s125.667 31.5 207 31.5
c79.333 0 147 -10 203 -30s101.667 -49.5 137 -88.5s61.166 -87.333 77.499 -145s24.5 -124.167 24.5 -199.5c0 -22 -0.666992 -40.667 -2 -56s-2.66602 -27 -3.99902 -35c-0.666992 -8 -5.33398 -12 -14.001 -12h-805v-14c0 -85.333 6.33301 -157.666 19 -216.999
s34.167 -107.666 64.5 -144.999s71 -64.5 122 -81.5s114.833 -25.5 191.5 -25.5c28 0 55.167 0.166992 81.5 0.5s52.666 1.33301 78.999 3s53 4.33398 80 8.00098s55.5 8.5 85.5 14.5c8 0.666992 13 -2.66602 15 -9.99902l11 -35c2 -8 -1 -12.333 -9 -13
c-27.333 -5.33301 -54 -9.83301 -80 -13.5s-52.667 -6.66699 -80 -9s-55.666 -4 -84.999 -5s-61.333 -1.5 -96 -1.5zM970 583.996c0 75.333 -6.16797 140.833 -18.501 196.5s-33.166 101.834 -62.499 138.501s-68.5 64 -117.5 82s-110.5 27 -184.5 27
c-72 0 -132.167 -8.83301 -180.5 -26.5s-87.5 -44.667 -117.5 -81s-51.5 -82.333 -64.5 -138s-19.833 -121.834 -20.5 -198.501h766zM524.999 1260c-8 0 -9.66602 3 -4.99902 9l184 238c4 6 10.333 9 19 9h62c7.33301 0 8.66602 -3 3.99902 -9l-198 -238
c-5.33301 -6 -12 -9 -20 -9h-46z" />
    <glyph glyph-name="ecircumflex" unicode="&#xea;" horiz-adv-x="1147" 
d="M603 -20c-83.333 0 -154.166 9.16309 -212.499 27.4961s-105.833 48.166 -142.5 89.499s-63.5 95.833 -80.5 163.5s-25.5 150.834 -25.5 249.501v70c0 85.333 7.83301 160 23.5 224s41.167 117.167 76.5 159.5s81.333 74 138 95s125.667 31.5 207 31.5
c79.333 0 147 -10 203 -30s101.667 -49.5 137 -88.5s61.166 -87.333 77.499 -145s24.5 -124.167 24.5 -199.5c0 -22 -0.666992 -40.667 -2 -56s-2.66602 -27 -3.99902 -35c-0.666992 -8 -5.33398 -12 -14.001 -12h-805v-14c0 -85.333 6.33301 -157.666 19 -216.999
s34.167 -107.666 64.5 -144.999s71 -64.5 122 -81.5s114.833 -25.5 191.5 -25.5c28 0 55.167 0.166992 81.5 0.5s52.666 1.33301 78.999 3s53 4.33398 80 8.00098s55.5 8.5 85.5 14.5c8 0.666992 13 -2.66602 15 -9.99902l11 -35c2 -8 -1 -12.333 -9 -13
c-27.333 -5.33301 -54 -9.83301 -80 -13.5s-52.667 -6.66699 -80 -9s-55.666 -4 -84.999 -5s-61.333 -1.5 -96 -1.5zM970 583.996c0 75.333 -6.16797 140.833 -18.501 196.5s-33.166 101.834 -62.499 138.501s-68.5 64 -117.5 82s-110.5 27 -184.5 27
c-72 0 -132.167 -8.83301 -180.5 -26.5s-87.5 -44.667 -117.5 -81s-51.5 -82.333 -64.5 -138s-19.833 -121.834 -20.5 -198.501h766zM559.999 1507c5.33301 6 11.999 9 19.999 9h38c8 0 14.667 -3 20 -9l199 -228c4.66699 -6 3.33398 -9 -3.99902 -9h-53
c-8 0 -14.667 3 -20 9l-151 180h-20l-151 -180c-5.33301 -6 -12 -9 -20 -9h-53c-8 0 -9.33301 3 -4 9z" />
    <glyph glyph-name="edieresis" unicode="&#xeb;" horiz-adv-x="1147" 
d="M603 -20c-83.333 0 -154.166 9.16309 -212.499 27.4961s-105.833 48.166 -142.5 89.499s-63.5 95.833 -80.5 163.5s-25.5 150.834 -25.5 249.501v70c0 85.333 7.83301 160 23.5 224s41.167 117.167 76.5 159.5s81.333 74 138 95s125.667 31.5 207 31.5
c79.333 0 147 -10 203 -30s101.667 -49.5 137 -88.5s61.166 -87.333 77.499 -145s24.5 -124.167 24.5 -199.5c0 -22 -0.666992 -40.667 -2 -56s-2.66602 -27 -3.99902 -35c-0.666992 -8 -5.33398 -12 -14.001 -12h-805v-14c0 -85.333 6.33301 -157.666 19 -216.999
s34.167 -107.666 64.5 -144.999s71 -64.5 122 -81.5s114.833 -25.5 191.5 -25.5c28 0 55.167 0.166992 81.5 0.5s52.666 1.33301 78.999 3s53 4.33398 80 8.00098s55.5 8.5 85.5 14.5c8 0.666992 13 -2.66602 15 -9.99902l11 -35c2 -8 -1 -12.333 -9 -13
c-27.333 -5.33301 -54 -9.83301 -80 -13.5s-52.667 -6.66699 -80 -9s-55.666 -4 -84.999 -5s-61.333 -1.5 -96 -1.5zM970 583.996c0 75.333 -6.16797 140.833 -18.501 196.5s-33.166 101.834 -62.499 138.501s-68.5 64 -117.5 82s-110.5 27 -184.5 27
c-72 0 -132.167 -8.83301 -180.5 -26.5s-87.5 -44.667 -117.5 -81s-51.5 -82.333 -64.5 -138s-19.833 -121.834 -20.5 -198.501h766zM429.999 1260c-8 0 -12 4 -12 12v252c0 8 4 13 12 15l50 14c8 2 12 -1 12 -9v-272c0 -8 -4 -12 -12 -12h-50zM687.999 1260
c-8 0 -12 4 -12 12v252c0 8 4 13 12 15l50 14c8 2 12 -1 12 -9v-272c0 -8 -4 -12 -12 -12h-50z" />
    <glyph glyph-name="igrave" unicode="&#xec;" horiz-adv-x="444" 
d="M204 0c-8 0 -12 4 -12 12v1047c0 8 4 12 12 12h37c8 0 12 -4 12 -12v-1047c0 -8 -4 -12 -12 -12h-37zM307 1260c-8 0 -14.667 3 -20 9l-198 238c-5.33301 6 -4 9 4 9h62c8.66699 0 15 -3 19 -9l184 -238c4.66699 -6 3 -9 -5 -9h-46z" />
    <glyph glyph-name="iacute" unicode="&#xed;" horiz-adv-x="444" 
d="M204 0c-8 0 -12 4 -12 12v1047c0 8 4 12 12 12h37c8 0 12 -4 12 -12v-1047c0 -8 -4 -12 -12 -12h-37zM93 1260c-8 0 -9.66602 3 -4.99902 9l184 238c4 6 10.333 9 19 9h62c7.33301 0 8.66602 -3 3.99902 -9l-198 -238c-5.33301 -6 -12 -9 -20 -9h-46z" />
    <glyph glyph-name="icircumflex" unicode="&#xee;" horiz-adv-x="444" 
d="M204 0c-8 0 -12 4 -12 12v1047c0 8 4 12 12 12h37c8 0 12 -4 12 -12v-1047c0 -8 -4 -12 -12 -12h-37zM184 1507c5.33301 6 11.999 9 19.999 9h38c8 0 14.667 -3 20 -9l199 -228c4.66699 -6 3.33398 -9 -3.99902 -9h-53c-8 0 -14.667 3 -20 9l-151 180h-20l-151 -180
c-5.33301 -6 -12 -9 -20 -9h-53c-8 0 -9.33301 3 -4 9z" />
    <glyph glyph-name="idieresis" unicode="&#xef;" horiz-adv-x="444" 
d="M204 0c-8 0 -12 4 -12 12v1047c0 8 4 12 12 12h37c8 0 12 -4 12 -12v-1047c0 -8 -4 -12 -12 -12h-37zM69 1260c-8 0 -12 4 -12 12v252c0 8 4 13 12 15l50 14c8 2 12 -1 12 -9v-272c0 -8 -4 -12 -12 -12h-50zM327 1260c-8 0 -12 4 -12 12v252c0 8 4 13 12 15l50 14
c8 2 12 -1 12 -9v-272c0 -8 -4 -12 -12 -12h-50z" />
    <glyph glyph-name="eth" unicode="&#xf0;" horiz-adv-x="1161" 
d="M684 1415c55.333 -38 102.829 -82.834 142.496 -134.501s72.334 -112 98.001 -181s44.5 -147.667 56.5 -236s18 -187.833 18 -298.5v-67c0 -90.667 -7.83301 -168.667 -23.5 -234s-40.667 -119 -75 -161s-78.666 -73 -132.999 -93s-119.833 -30 -196.5 -30
s-142.167 10 -196.5 30s-98.666 51 -132.999 93s-59.5 95.667 -75.5 161s-24 143.333 -24 234v67c0 91.333 8 169.833 24 235.5s41.167 119.5 75.5 161.5s78.666 73 132.999 93s119.833 30 196.5 30c34.667 0 68 -2.33301 100 -7s62 -12.334 90 -23.001s54 -24.667 78 -42
s45.667 -38.666 65 -63.999c-22 100.667 -55.5 185.834 -100.5 255.501s-102.833 127.5 -173.5 173.5l-242 -165c-6.66699 -4.66699 -12.334 -3.66699 -17.001 3l-22 27c-4.66699 6.66699 -3.66699 12.334 3 17.001l222 151c-44.667 24 -93.667 44.5 -147 61.5
s-112 32.167 -176 45.5c-7.33301 0.666992 -10.666 5.33398 -9.99902 14.001l8 35c0.666992 7.33301 5.33398 10.666 14.001 9.99902c73.333 -15.333 140.333 -33.333 201 -54s116 -45 166 -73l178 122c6.66699 4.66699 12.334 3.66699 17.001 -3l21 -29
c4.66699 -6.66699 3.66699 -12.334 -3 -17.001zM570.996 1024c-70 0 -128.332 -9.16797 -174.999 -27.501s-84.334 -46.666 -113.001 -84.999s-49 -87 -61 -146s-18 -129.167 -18 -210.5v-47c0 -81.333 5.83301 -151.5 17.5 -210.5s31.667 -107.5 60 -145.5s66 -66 113 -84
s105.833 -27 176.5 -27c69.333 0 127.5 9 174.5 27s84.667 46.167 113 84.5s48.5 87 60.5 146s18 129.5 18 211.5v45c0 80.667 -5.83301 150.5 -17.5 209.5s-31.5 107.833 -59.5 146.5s-65.5 67.167 -112.5 85.5s-105.833 27.5 -176.5 27.5z" />
    <glyph glyph-name="ntilde" unicode="&#xf1;" horiz-adv-x="1169" 
d="M944 0c-8 0 -11.9971 3.99902 -11.9971 11.999v649c0 70 -5 128.333 -15 175s-26.333 84.334 -49 113.001s-52.334 49 -89.001 61s-81.334 18 -134.001 18c-65.333 0 -132.333 -8.66699 -201 -26s-134.667 -44 -198 -80v-910c0 -8 -4 -12 -12 -12h-38c-8 0 -12 4 -12 12
v1066c0 8 4 12 12 12h23c7.33301 0 12 -4 14 -12l12 -94c66 34 132.833 60.167 200.5 78.5s134.167 27.5 199.5 27.5c68.667 0 125.5 -7.83301 170.5 -23.5s80.667 -40.5 107 -74.5s44.666 -78.167 54.999 -132.5s15.5 -119.833 15.5 -196.5v-651c0 -8 -4 -12 -12 -12h-37z
M407.003 1458c-13.333 0 -25.333 -1.83008 -36 -5.49707s-19.834 -11.334 -27.501 -23.001s-13.5 -28.667 -17.5 -51s-6.33301 -52.5 -7 -90.5c0 -8 -4 -12 -12 -12h-33c-8 0 -12 4 -12 12v21c0 46.667 4.83301 83.667 14.5 111s21.667 48.166 36 62.499s30 23.5 47 27.5
s32.833 6 47.5 6c29.333 0 55.5 -6.33301 78.5 -19s44.167 -28.334 63.5 -47.001l57 -53c20.667 -19.333 40.834 -35.5 60.501 -48.5s41.167 -19.5 64.5 -19.5c13.333 0 25.333 1.83301 36 5.5s19.834 11.5 27.501 23.5s13.5 29.167 17.5 51.5s6.33301 52.166 7 89.499
c0 8 4 12 12 12h33c8 0 12 -4 12 -12v-20c0 -46.667 -4.83301 -83.667 -14.5 -111s-21.667 -48.166 -36 -62.499s-30 -23.5 -47 -27.5s-32.833 -6 -47.5 -6c-28.667 0 -54.5 6.16699 -77.5 18.5s-44.167 27.833 -63.5 46.5l-58 54c-20.667 19.333 -40.834 35.333 -60.501 48
s-41.167 19 -64.5 19z" />
    <glyph glyph-name="ograve" unicode="&#xf2;" horiz-adv-x="1173" 
d="M587 1028c-72.667 0 -133.5 -8.99805 -182.5 -26.998s-88.333 -45.833 -118 -83.5s-50.834 -85.5 -63.501 -143.5s-19 -127 -19 -207v-65c0 -80 6.16699 -149 18.5 -207s33.166 -105.833 62.499 -143.5s68.5 -65.5 117.5 -83.5s110.5 -27 184.5 -27
c72.667 0 133.5 9 182.5 27s88.333 45.667 118 83s50.834 85.166 63.501 143.499s19 128.166 19 209.499v63c0 79.333 -6.16699 148 -18.5 206s-33.166 105.833 -62.499 143.5s-68.5 65.667 -117.5 84s-110.5 27.5 -184.5 27.5zM587 -19.998
c-79.333 0 -147.166 9.66699 -203.499 29s-102.333 49.833 -138 91.5s-61.834 94.834 -78.501 159.501s-25 142 -25 232v83c0 90 8.33301 167.5 25 232.5s42.834 118.5 78.501 160.5s81.667 72.833 138 92.5s124.166 29.5 203.499 29.5c80 0 148 -9.83301 204 -29.5
s101.833 -50.5 137.5 -92.5s61.667 -95.5 78 -160.5s24.5 -142.5 24.5 -232.5v-83c0 -90 -8.16699 -167.333 -24.5 -232s-42.333 -117.834 -78 -159.501s-81.5 -72.167 -137.5 -91.5s-124 -29 -204 -29zM630 1260c-8 0 -14.667 3 -20 9l-198 238c-5.33301 6 -4 9 4 9h62
c8.66699 0 15 -3 19 -9l184 -238c4.66699 -6 3 -9 -5 -9h-46z" />
    <glyph glyph-name="oacute" unicode="&#xf3;" horiz-adv-x="1173" 
d="M587 1028c-72.667 0 -133.5 -8.99805 -182.5 -26.998s-88.333 -45.833 -118 -83.5s-50.834 -85.5 -63.501 -143.5s-19 -127 -19 -207v-65c0 -80 6.16699 -149 18.5 -207s33.166 -105.833 62.499 -143.5s68.5 -65.5 117.5 -83.5s110.5 -27 184.5 -27
c72.667 0 133.5 9 182.5 27s88.333 45.667 118 83s50.834 85.166 63.501 143.499s19 128.166 19 209.499v63c0 79.333 -6.16699 148 -18.5 206s-33.166 105.833 -62.499 143.5s-68.5 65.667 -117.5 84s-110.5 27.5 -184.5 27.5zM587 -19.998
c-79.333 0 -147.166 9.66699 -203.499 29s-102.333 49.833 -138 91.5s-61.834 94.834 -78.501 159.501s-25 142 -25 232v83c0 90 8.33301 167.5 25 232.5s42.834 118.5 78.501 160.5s81.667 72.833 138 92.5s124.166 29.5 203.499 29.5c80 0 148 -9.83301 204 -29.5
s101.833 -50.5 137.5 -92.5s61.667 -95.5 78 -160.5s24.5 -142.5 24.5 -232.5v-83c0 -90 -8.16699 -167.333 -24.5 -232s-42.333 -117.834 -78 -159.501s-81.5 -72.167 -137.5 -91.5s-124 -29 -204 -29zM477 1260c-8 0 -9.66602 3 -4.99902 9l184 238c4 6 10.333 9 19 9h62
c7.33301 0 8.66602 -3 3.99902 -9l-198 -238c-5.33301 -6 -12 -9 -20 -9h-46z" />
    <glyph glyph-name="ocircumflex" unicode="&#xf4;" horiz-adv-x="1173" 
d="M587 1028c-72.667 0 -133.5 -8.99805 -182.5 -26.998s-88.333 -45.833 -118 -83.5s-50.834 -85.5 -63.501 -143.5s-19 -127 -19 -207v-65c0 -80 6.16699 -149 18.5 -207s33.166 -105.833 62.499 -143.5s68.5 -65.5 117.5 -83.5s110.5 -27 184.5 -27
c72.667 0 133.5 9 182.5 27s88.333 45.667 118 83s50.834 85.166 63.501 143.499s19 128.166 19 209.499v63c0 79.333 -6.16699 148 -18.5 206s-33.166 105.833 -62.499 143.5s-68.5 65.667 -117.5 84s-110.5 27.5 -184.5 27.5zM587 -19.998
c-79.333 0 -147.166 9.66699 -203.499 29s-102.333 49.833 -138 91.5s-61.834 94.834 -78.501 159.501s-25 142 -25 232v83c0 90 8.33301 167.5 25 232.5s42.834 118.5 78.501 160.5s81.667 72.833 138 92.5s124.166 29.5 203.499 29.5c80 0 148 -9.83301 204 -29.5
s101.833 -50.5 137.5 -92.5s61.667 -95.5 78 -160.5s24.5 -142.5 24.5 -232.5v-83c0 -90 -8.16699 -167.333 -24.5 -232s-42.333 -117.834 -78 -159.501s-81.5 -72.167 -137.5 -91.5s-124 -29 -204 -29zM548 1507c5.33301 6 11.999 9 19.999 9h38c8 0 14.667 -3 20 -9
l199 -228c4.66699 -6 3.33398 -9 -3.99902 -9h-53c-8 0 -14.667 3 -20 9l-151 180h-20l-151 -180c-5.33301 -6 -12 -9 -20 -9h-53c-8 0 -9.33301 3 -4 9z" />
    <glyph glyph-name="otilde" unicode="&#xf5;" horiz-adv-x="1173" 
d="M587 1028c-72.667 0 -133.5 -8.99805 -182.5 -26.998s-88.333 -45.833 -118 -83.5s-50.834 -85.5 -63.501 -143.5s-19 -127 -19 -207v-65c0 -80 6.16699 -149 18.5 -207s33.166 -105.833 62.499 -143.5s68.5 -65.5 117.5 -83.5s110.5 -27 184.5 -27
c72.667 0 133.5 9 182.5 27s88.333 45.667 118 83s50.834 85.166 63.501 143.499s19 128.166 19 209.499v63c0 79.333 -6.16699 148 -18.5 206s-33.166 105.833 -62.499 143.5s-68.5 65.667 -117.5 84s-110.5 27.5 -184.5 27.5zM587 -19.998
c-79.333 0 -147.166 9.66699 -203.499 29s-102.333 49.833 -138 91.5s-61.834 94.834 -78.501 159.501s-25 142 -25 232v83c0 90 8.33301 167.5 25 232.5s42.834 118.5 78.501 160.5s81.667 72.833 138 92.5s124.166 29.5 203.499 29.5c80 0 148 -9.83301 204 -29.5
s101.833 -50.5 137.5 -92.5s61.667 -95.5 78 -160.5s24.5 -142.5 24.5 -232.5v-83c0 -90 -8.16699 -167.333 -24.5 -232s-42.333 -117.834 -78 -159.501s-81.5 -72.167 -137.5 -91.5s-124 -29 -204 -29zM404 1458c-13.333 0 -25.333 -1.83008 -36 -5.49707
s-19.834 -11.334 -27.501 -23.001s-13.5 -28.667 -17.5 -51s-6.33301 -52.5 -7 -90.5c0 -8 -4 -12 -12 -12h-33c-8 0 -12 4 -12 12v21c0 46.667 4.83301 83.667 14.5 111s21.667 48.166 36 62.499s30 23.5 47 27.5s32.833 6 47.5 6c29.333 0 55.5 -6.33301 78.5 -19
s44.167 -28.334 63.5 -47.001l57 -53c20.667 -19.333 40.834 -35.5 60.501 -48.5s41.167 -19.5 64.5 -19.5c13.333 0 25.333 1.83301 36 5.5s19.834 11.5 27.501 23.5s13.5 29.167 17.5 51.5s6.33301 52.166 7 89.499c0 8 4 12 12 12h33c8 0 12 -4 12 -12v-20
c0 -46.667 -4.83301 -83.667 -14.5 -111s-21.667 -48.166 -36 -62.499s-30 -23.5 -47 -27.5s-32.833 -6 -47.5 -6c-28.667 0 -54.5 6.16699 -77.5 18.5s-44.167 27.833 -63.5 46.5l-58 54c-20.667 19.333 -40.834 35.333 -60.501 48s-41.167 19 -64.5 19z" />
    <glyph glyph-name="odieresis" unicode="&#xf6;" horiz-adv-x="1173" 
d="M587 1028c-72.667 0 -133.5 -8.99805 -182.5 -26.998s-88.333 -45.833 -118 -83.5s-50.834 -85.5 -63.501 -143.5s-19 -127 -19 -207v-65c0 -80 6.16699 -149 18.5 -207s33.166 -105.833 62.499 -143.5s68.5 -65.5 117.5 -83.5s110.5 -27 184.5 -27
c72.667 0 133.5 9 182.5 27s88.333 45.667 118 83s50.834 85.166 63.501 143.499s19 128.166 19 209.499v63c0 79.333 -6.16699 148 -18.5 206s-33.166 105.833 -62.499 143.5s-68.5 65.667 -117.5 84s-110.5 27.5 -184.5 27.5zM587 -19.998
c-79.333 0 -147.166 9.66699 -203.499 29s-102.333 49.833 -138 91.5s-61.834 94.834 -78.501 159.501s-25 142 -25 232v83c0 90 8.33301 167.5 25 232.5s42.834 118.5 78.501 160.5s81.667 72.833 138 92.5s124.166 29.5 203.499 29.5c80 0 148 -9.83301 204 -29.5
s101.833 -50.5 137.5 -92.5s61.667 -95.5 78 -160.5s24.5 -142.5 24.5 -232.5v-83c0 -90 -8.16699 -167.333 -24.5 -232s-42.333 -117.834 -78 -159.501s-81.5 -72.167 -137.5 -91.5s-124 -29 -204 -29zM412 1260c-8 0 -12 4 -12 12v252c0 8 4 13 12 15l50 14
c8 2 12 -1 12 -9v-272c0 -8 -4 -12 -12 -12h-50zM670 1260c-8 0 -12 4 -12 12v252c0 8 4 13 12 15l50 14c8 2 12 -1 12 -9v-272c0 -8 -4 -12 -12 -12h-50z" />
    <glyph glyph-name="divide" unicode="&#xf7;" horiz-adv-x="1136" 
d="M170 776c-8 0 -12 4 -12 12v38c0 8 4 12 12 12h796c8 0 12 -4 12 -12v-38c0 -8 -4 -12 -12 -12h-796zM541 365c-8 0 -12 4 -12 12v180c0 8 4 13 12 15l50 15c8 2 12 -1 12 -9v-201c0 -8 -4 -12 -12 -12h-50zM541 999c-8 0 -12 4 -12 12v181c0 8 4 13 12 15l50 15
c8 2 12 -1 12 -9v-202c0 -8 -4 -12 -12 -12h-50z" />
    <glyph glyph-name="oslash" unicode="&#xf8;" horiz-adv-x="1173" 
d="M219 136c-26.667 42 -46.166 92.333 -58.499 151s-18.5 127.334 -18.5 206.001v81c0 90 8.33301 167.5 25 232.5s42.834 118.5 78.501 160.5s81.667 73 138 93s124.166 30 203.499 30c74.667 0 139 -8.66699 193 -26s99 -44.666 135 -81.999l65 80c5.33301 6 12 9 20 9
h55c8.66699 0 10 -3 4 -9l-105 -129c27.333 -42 47.166 -92.5 59.499 -151.5s18.5 -128.167 18.5 -207.5v-81c0 -90.667 -8.16699 -168.334 -24.5 -233.001s-42.333 -117.834 -78 -159.501s-81.667 -72.167 -138 -91.5s-124.5 -29 -204.5 -29
c-75.333 0 -140 8.66699 -194 26s-99 44.333 -135 81l-63 -78c-5.33301 -6 -12 -9 -20 -9h-56c-8.66699 0 -10 3 -4 9zM970.001 564c0 68.667 -4.50098 129.166 -13.501 181.499s-24.167 97.5 -45.5 135.5l-613 -746c30 -32.667 68.5 -56.667 115.5 -72
s104.833 -23 173.5 -23c72.667 0 133.5 9 182.5 27s88.333 45.833 118 83.5s50.834 85.834 63.501 144.501s19 128.667 19 210v59zM587 1028c-72.667 0 -133.5 -9.16699 -182.5 -27.5s-88.333 -46.5 -118 -84.5s-50.834 -86.167 -63.501 -144.5s-19 -127.5 -19 -207.5v-61
c0 -68.667 4.33301 -129 13 -181s23.334 -97 44.001 -135l613 746c-30 32 -68.167 55.833 -114.5 71.5s-103.833 23.5 -172.5 23.5z" />
    <glyph glyph-name="ugrave" unicode="&#xf9;" horiz-adv-x="1167" 
d="M602 -20c-85.333 0 -155.499 7.66504 -210.499 22.998s-98.5 40.333 -130.5 75s-54.167 79.834 -66.5 135.501s-18.5 123.834 -18.5 204.501v641c0 8 4 12 12 12h38c8 0 12 -4 12 -12v-641c0 -77.333 5.66699 -140.5 17 -189.5s30.833 -87.333 58.5 -115
s64.834 -46.667 111.501 -57s105 -15.5 175 -15.5c27.333 0 55.666 1 84.999 3s58.166 4.5 86.499 7.5s55.5 6.66699 81.5 11s49.667 8.83301 71 13.5v983c0 8 4 12 12 12h37c8 0 12 -4 12 -12v-1018c0 -8 -4 -13 -12 -15c-46 -11.333 -100.667 -21.833 -164 -31.5
s-132.333 -14.5 -207 -14.5zM608.001 1260c-8 0 -14.667 3 -20 9l-198 238c-5.33301 6 -4 9 4 9h62c8.66699 0 15 -3 19 -9l184 -238c4.66699 -6 3 -9 -5 -9h-46z" />
    <glyph glyph-name="uacute" unicode="&#xfa;" horiz-adv-x="1167" 
d="M602 -20c-85.333 0 -155.499 7.66504 -210.499 22.998s-98.5 40.333 -130.5 75s-54.167 79.834 -66.5 135.501s-18.5 123.834 -18.5 204.501v641c0 8 4 12 12 12h38c8 0 12 -4 12 -12v-641c0 -77.333 5.66699 -140.5 17 -189.5s30.833 -87.333 58.5 -115
s64.834 -46.667 111.501 -57s105 -15.5 175 -15.5c27.333 0 55.666 1 84.999 3s58.166 4.5 86.499 7.5s55.5 6.66699 81.5 11s49.667 8.83301 71 13.5v983c0 8 4 12 12 12h37c8 0 12 -4 12 -12v-1018c0 -8 -4 -13 -12 -15c-46 -11.333 -100.667 -21.833 -164 -31.5
s-132.333 -14.5 -207 -14.5zM517.001 1260c-8 0 -9.66602 3 -4.99902 9l184 238c4 6 10.333 9 19 9h62c7.33301 0 8.66602 -3 3.99902 -9l-198 -238c-5.33301 -6 -12 -9 -20 -9h-46z" />
    <glyph glyph-name="ucircumflex" unicode="&#xfb;" horiz-adv-x="1167" 
d="M602 -20c-85.333 0 -155.499 7.66504 -210.499 22.998s-98.5 40.333 -130.5 75s-54.167 79.834 -66.5 135.501s-18.5 123.834 -18.5 204.501v641c0 8 4 12 12 12h38c8 0 12 -4 12 -12v-641c0 -77.333 5.66699 -140.5 17 -189.5s30.833 -87.333 58.5 -115
s64.834 -46.667 111.501 -57s105 -15.5 175 -15.5c27.333 0 55.666 1 84.999 3s58.166 4.5 86.499 7.5s55.5 6.66699 81.5 11s49.667 8.83301 71 13.5v983c0 8 4 12 12 12h37c8 0 12 -4 12 -12v-1018c0 -8 -4 -13 -12 -15c-46 -11.333 -100.667 -21.833 -164 -31.5
s-132.333 -14.5 -207 -14.5zM543.001 1507c5.33301 6 11.999 9 19.999 9h38c8 0 14.667 -3 20 -9l199 -228c4.66699 -6 3.33398 -9 -3.99902 -9h-53c-8 0 -14.667 3 -20 9l-151 180h-20l-151 -180c-5.33301 -6 -12 -9 -20 -9h-53c-8 0 -9.33301 3 -4 9z" />
    <glyph glyph-name="udieresis" unicode="&#xfc;" horiz-adv-x="1167" 
d="M602 -20c-85.333 0 -155.499 7.66504 -210.499 22.998s-98.5 40.333 -130.5 75s-54.167 79.834 -66.5 135.501s-18.5 123.834 -18.5 204.501v641c0 8 4 12 12 12h38c8 0 12 -4 12 -12v-641c0 -77.333 5.66699 -140.5 17 -189.5s30.833 -87.333 58.5 -115
s64.834 -46.667 111.501 -57s105 -15.5 175 -15.5c27.333 0 55.666 1 84.999 3s58.166 4.5 86.499 7.5s55.5 6.66699 81.5 11s49.667 8.83301 71 13.5v983c0 8 4 12 12 12h37c8 0 12 -4 12 -12v-1018c0 -8 -4 -13 -12 -15c-46 -11.333 -100.667 -21.833 -164 -31.5
s-132.333 -14.5 -207 -14.5zM432.001 1260c-8 0 -12 4 -12 12v252c0 8 4 13 12 15l50 14c8 2 12 -1 12 -9v-272c0 -8 -4 -12 -12 -12h-50zM690.001 1260c-8 0 -12 4 -12 12v252c0 8 4 13 12 15l50 14c8 2 12 -1 12 -9v-272c0 -8 -4 -12 -12 -12h-50z" />
    <glyph glyph-name="yacute" unicode="&#xfd;" horiz-adv-x="940" 
d="M153 -471c-15.333 0 -33.1709 1.16309 -53.5039 3.49609s-39.166 5.83301 -56.499 10.5c-7.33301 2.66699 -10 7.66699 -8 15l8 35c2 8 7 11 15 9c15.333 -3.33301 31.666 -6.16602 48.999 -8.49902s32.666 -3.5 45.999 -3.5c26.667 0 50.167 1.33301 70.5 4
s38.833 8.83398 55.5 18.501s32.334 23.5 47.001 41.5s29.167 42.167 43.5 72.5s29.5 67.833 45.5 112.5s34 98.334 54 161.001h-5c-8 0 -13.667 3.66699 -17 11c-5.33301 11.333 -11.333 26 -18 44l-375 1005c-3.33301 7.33301 -0.666016 11 8.00098 11h42
c8 0 13.333 -3.66699 16 -11l330 -878l25 -72c6.66699 -20 11.334 -30 14.001 -30l325 980c2.66699 7.33301 8 11 16 11h42c8.66699 0 11.334 -3.66699 8.00098 -11l-377 -1142c-19.333 -57.333 -37.166 -106.833 -53.499 -148.5s-32.5 -77 -48.5 -106
s-32.333 -52.333 -49 -70s-34.667 -31.167 -54 -40.5s-40.833 -15.666 -64.5 -18.999s-50.5 -5 -80.5 -5zM394.995 1260c-8 0 -9.66602 3 -4.99902 9l184 238c4 6 10.333 9 19 9h62c7.33301 0 8.66602 -3 3.99902 -9l-198 -238c-5.33301 -6 -12 -9 -20 -9h-46z" />
    <glyph glyph-name="thorn" unicode="&#xfe;" horiz-adv-x="1134" 
d="M196 -451c-8 0 -12 4.00098 -12 12.001v1467v4v558c0 8 3.66699 13.333 11 16l39 12c7.33301 3.33301 11 0.666016 11 -8.00098v-541c48 8 94.167 13.5 138.5 16.5s86.5 4.5 126.5 4.5c90.667 0 166.5 -7.83301 227.5 -23.5s110.167 -42.834 147.5 -81.501
s64 -90.167 80 -154.5s24 -145.166 24 -242.499v-105c0 -93.333 -7.5 -172 -22.5 -236s-40.833 -115.667 -77.5 -155s-85.834 -67.833 -147.501 -85.5s-139.5 -26.5 -233.5 -26.5c-43.333 0 -88.666 2.5 -135.999 7.5s-89.333 11.167 -126 18.5v-445c0 -8 -4 -12 -12 -12
h-38zM510 1028c-92 0 -179.999 -6.00293 -263.999 -18.0029v-942c18.667 -4 39.334 -7.66699 62.001 -11s45.667 -6.16602 69 -8.49902s46.166 -4.16602 68.499 -5.49902s43.166 -2 62.499 -2c57.333 0 107.5 3.16699 150.5 9.5s80 16.5 111 30.5s56.833 32.5 77.5 55.5
s37 51.5 49 85.5s20.333 73.5 25 118.5s7 96.833 7 155.5v75c0 88.667 -5.83301 162.334 -17.5 221.001s-33 105.5 -64 140.5s-73.667 59.667 -128 74s-123.833 21.5 -208.5 21.5z" />
    <glyph glyph-name="ydieresis" unicode="&#xff;" horiz-adv-x="940" 
d="M153 -471c-15.333 0 -33.1709 1.16309 -53.5039 3.49609s-39.166 5.83301 -56.499 10.5c-7.33301 2.66699 -10 7.66699 -8 15l8 35c2 8 7 11 15 9c15.333 -3.33301 31.666 -6.16602 48.999 -8.49902s32.666 -3.5 45.999 -3.5c26.667 0 50.167 1.33301 70.5 4
s38.833 8.83398 55.5 18.501s32.334 23.5 47.001 41.5s29.167 42.167 43.5 72.5s29.5 67.833 45.5 112.5s34 98.334 54 161.001h-5c-8 0 -13.667 3.66699 -17 11c-5.33301 11.333 -11.333 26 -18 44l-375 1005c-3.33301 7.33301 -0.666016 11 8.00098 11h42
c8 0 13.333 -3.66699 16 -11l330 -878l25 -72c6.66699 -20 11.334 -30 14.001 -30l325 980c2.66699 7.33301 8 11 16 11h42c8.66699 0 11.334 -3.66699 8.00098 -11l-377 -1142c-19.333 -57.333 -37.166 -106.833 -53.499 -148.5s-32.5 -77 -48.5 -106
s-32.333 -52.333 -49 -70s-34.667 -31.167 -54 -40.5s-40.833 -15.666 -64.5 -18.999s-50.5 -5 -80.5 -5zM325.995 1260c-8 0 -12 4 -12 12v252c0 8 4 13 12 15l50 14c8 2 12 -1 12 -9v-272c0 -8 -4 -12 -12 -12h-50zM583.995 1260c-8 0 -12 4 -12 12v252c0 8 4 13 12 15
l50 14c8 2 12 -1 12 -9v-272c0 -8 -4 -12 -12 -12h-50z" />
    <glyph glyph-name="Amacron" unicode="&#x100;" horiz-adv-x="1272" 
d="M51 0c-8.66699 0 -11.332 3.66699 -7.99902 11l545 1453c2.66699 7.33301 8 11 16 11h64c8 0 13.333 -3.66699 16 -11l547 -1453c3.33301 -7.33301 0.666016 -11 -8.00098 -11h-44c-8 0 -13.333 3.66699 -16 11l-172 458h-711l-172 -458
c-2.66699 -7.33301 -8 -11 -16 -11h-41zM635.002 1413l-332 -883h665zM410.002 1659c-8 0 -12 4 -12 12v37c0 8 4 12 12 12h455c8 0 12 -4 12 -12v-37c0 -8 -4 -12 -12 -12h-455z" />
    <glyph glyph-name="amacron" unicode="&#x101;" horiz-adv-x="1082" 
d="M568 41c50 0 97.999 1.83301 143.999 5.5s91 8.5 135 14.5v510h-184c-104.667 0 -189.167 -3.33301 -253.5 -10s-114.166 -19.5 -149.499 -38.5s-59 -45.667 -71 -80s-18 -78.833 -18 -133.5c0 -59.333 9.33301 -106.666 28 -141.999s45.167 -62.333 79.5 -81
s76 -30.834 125 -36.501s103.833 -8.5 164.5 -8.5zM543.999 1028c-31.333 0 -60.4971 -0.666016 -87.4971 -1.99902s-53.333 -3.33301 -79 -6s-50.834 -6 -75.501 -10s-50 -8.33301 -76 -13c-8 -0.666992 -12 2.66602 -12 9.99902v38c0 8.66699 4 13.334 12 14.001
c26 5.33301 53.333 10 82 14s57 7.16699 85 9.5s55 4.16602 81 5.49902s49.333 2 70 2c82 0 147 -6.83301 195 -20.5s84.5 -36.167 109.5 -67.5s41.167 -72.333 48.5 -123s11 -113 11 -187v-668c0 -8.66699 -4 -13.334 -12 -14.001
c-27.333 -4.66699 -56 -8.83398 -86 -12.501s-59.667 -6.83398 -89 -9.50098s-57.5 -4.66699 -84.5 -6s-50.5 -2 -70.5 -2c-77.333 0 -144.5 4.83301 -201.5 14.5s-104.333 26.834 -142 51.501s-65.834 58.334 -84.501 101.001s-28 97.334 -28 164.001
c0 62 8 113.667 24 155s45 74.333 87 99s99.667 42.167 173 52.5s167 15.5 281 15.5h172v96c0 60.667 -4 110.5 -12 149.5s-23 69.5 -45 91.5s-52.833 37.167 -92.5 45.5s-90.834 12.5 -153.501 12.5zM294.002 1352c-8 0 -12 4 -12 12v37c0 8 4 12 12 12h455
c8 0 12 -4 12 -12v-37c0 -8 -4 -12 -12 -12h-455z" />
    <glyph glyph-name="Abreve" unicode="&#x102;" horiz-adv-x="1272" 
d="M51 0c-8.66699 0 -11.332 3.66699 -7.99902 11l545 1453c2.66699 7.33301 8 11 16 11h64c8 0 13.333 -3.66699 16 -11l547 -1453c3.33301 -7.33301 0.666016 -11 -8.00098 -11h-44c-8 0 -13.333 3.66699 -16 11l-172 458h-711l-172 -458
c-2.66699 -7.33301 -8 -11 -16 -11h-41zM635.002 1413l-332 -883h665zM633.002 1591c-37.333 0 -70.1689 4.83301 -98.502 14.5s-52.5 23.167 -72.5 40.5s-36 38.333 -48 63s-20.333 51.667 -25 81c-2 8 1.33301 12 10 12h37c7.33301 0 12 -4 14 -12
c4.66699 -27.333 13 -50.333 25 -69s26.333 -33.667 43 -45s35 -19.5 55 -24.5s40 -7.5 60 -7.5s40 2.5 60 7.5s38.333 13.167 55 24.5s31 26.333 43 45s20.333 41.667 25 69c2 8 6.66699 12 14 12h37c8.66699 0 12 -4 10 -12c-4 -29.333 -12 -56.333 -24 -81
s-28.167 -45.667 -48.5 -63s-44.666 -30.833 -72.999 -40.5s-61.166 -14.5 -98.499 -14.5z" />
    <glyph glyph-name="abreve" unicode="&#x103;" horiz-adv-x="1082" 
d="M568 41c50 0 97.999 1.83301 143.999 5.5s91 8.5 135 14.5v510h-184c-104.667 0 -189.167 -3.33301 -253.5 -10s-114.166 -19.5 -149.499 -38.5s-59 -45.667 -71 -80s-18 -78.833 -18 -133.5c0 -59.333 9.33301 -106.666 28 -141.999s45.167 -62.333 79.5 -81
s76 -30.834 125 -36.501s103.833 -8.5 164.5 -8.5zM543.999 1028c-31.333 0 -60.4971 -0.666016 -87.4971 -1.99902s-53.333 -3.33301 -79 -6s-50.834 -6 -75.501 -10s-50 -8.33301 -76 -13c-8 -0.666992 -12 2.66602 -12 9.99902v38c0 8.66699 4 13.334 12 14.001
c26 5.33301 53.333 10 82 14s57 7.16699 85 9.5s55 4.16602 81 5.49902s49.333 2 70 2c82 0 147 -6.83301 195 -20.5s84.5 -36.167 109.5 -67.5s41.167 -72.333 48.5 -123s11 -113 11 -187v-668c0 -8.66699 -4 -13.334 -12 -14.001
c-27.333 -4.66699 -56 -8.83398 -86 -12.501s-59.667 -6.83398 -89 -9.50098s-57.5 -4.66699 -84.5 -6s-50.5 -2 -70.5 -2c-77.333 0 -144.5 4.83301 -201.5 14.5s-104.333 26.834 -142 51.501s-65.834 58.334 -84.501 101.001s-28 97.334 -28 164.001
c0 62 8 113.667 24 155s45 74.333 87 99s99.667 42.167 173 52.5s167 15.5 281 15.5h172v96c0 60.667 -4 110.5 -12 149.5s-23 69.5 -45 91.5s-52.833 37.167 -92.5 45.5s-90.834 12.5 -153.501 12.5zM550.002 1272c-40 0 -74.5 5.66699 -103.5 17
s-53.167 27.166 -72.5 47.499s-34.5 44.833 -45.5 73.5s-18.833 60 -23.5 94c-0.666992 8 3 12 11 12h40c8 0 12.333 -4 13 -12c4 -33.333 11.5 -61.333 22.5 -84s24.5 -40.667 40.5 -54s34.167 -22.833 54.5 -28.5s41.5 -8.5 63.5 -8.5s43 2.83301 63 8.5
s38 15.167 54 28.5s29.667 31.333 41 54s19 50.667 23 84c0.666992 8 5 12 13 12h40c8 0 11.667 -4 11 -12c-4 -34 -11.5 -65.333 -22.5 -94s-26.333 -53.167 -46 -73.5s-44 -36.166 -73 -47.499s-63.5 -17 -103.5 -17z" />
    <glyph glyph-name="Aogonek" unicode="&#x104;" horiz-adv-x="1272" 
d="M51 0c-8.66699 0 -11.333 3.66504 -8 10.998l545 1453c2.66699 7.33301 8 11 16 11h64c8 0 13.333 -3.66699 16 -11l547 -1453c1.33301 -3.33301 1.83301 -6.33301 1.5 -9s-2.83301 -5.66699 -7.5 -9c-27.333 -18 -53.5 -38.5 -78.5 -61.5s-47.167 -46.5 -66.5 -70.5
s-34.833 -47.667 -46.5 -71s-17.5 -44.666 -17.5 -63.999c0 -13.333 1 -24.666 3 -33.999s6.66699 -17 14 -23s18.166 -10.333 32.499 -13s33.833 -4 58.5 -4c20 0 37.5 0.5 52.5 1.5s29.5 2.16699 43.5 3.5c8 0.666992 13.333 -3 16 -11l10 -32c2 -7.33301 -1 -12 -9 -14
c-15.333 -3.33301 -33.333 -5.83301 -54 -7.5s-41.667 -2.5 -63 -2.5c-38 0 -68 3.66699 -90 11s-38.833 17.166 -50.5 29.499s-19.167 26.666 -22.5 42.999s-5 33.833 -5 52.5c0 20.667 5.16699 42.834 15.5 66.501s24.833 47.834 43.5 72.501s40.834 49.5 66.501 74.5
s54.167 49.167 85.5 72.5l-172 457h-711l-172 -458c-2.66699 -7.33301 -8 -11 -16 -11h-41zM635.001 1413l-332 -883h665z" />
    <glyph glyph-name="aogonek" unicode="&#x105;" horiz-adv-x="1084" 
d="M544 1028c-31.333 0 -60.498 -0.669922 -87.498 -2.00293s-53.167 -3.16602 -78.5 -5.49902s-50.333 -5.5 -75 -9.5s-50.334 -8.66699 -77.001 -14c-8 -2 -12 1.33301 -12 10v38c0 7.33301 4 12 12 14c26 5.33301 53.333 10 82 14s57 7.16699 85 9.5
s55 4.16602 81 5.49902s49.333 2 70 2c82 0 147 -6.83301 195 -20.5s84.5 -36.167 109.5 -67.5s41.167 -72.333 48.5 -123s11 -113 11 -187v-668c0 -4 -0.5 -6.83301 -1.5 -8.5s-3.16699 -3.5 -6.5 -5.5c-26.667 -15.333 -53 -34.5 -79 -57.5s-49.333 -47.833 -70 -74.5
s-37.5 -53.5 -50.5 -80.5s-19.5 -51.5 -19.5 -73.5c0 -26 7.5 -44.5 22.5 -55.5s42.167 -16.5 81.5 -16.5c14.667 0 30.167 0.166992 46.5 0.5s32.5 2.16602 48.5 5.49902c8 0.666992 12.333 -2.66602 13 -9.99902l2 -33c0.666992 -8 -3 -13 -11 -15
c-13.333 -3.33301 -29 -5.83301 -47 -7.5s-36.667 -2.5 -56 -2.5c-39.333 0 -70 4 -92 12s-38.333 18.5 -49 31.5s-17.167 27.5 -19.5 43.5s-3.5 31.667 -3.5 47c0 23.333 5.83301 48.333 17.5 75s26.5 52.667 44.5 78s37.667 48.5 59 69.5s41.666 37.5 60.999 49.5
c-43.333 -5.33301 -85.666 -9.33301 -126.999 -12s-76.666 -4 -105.999 -4c-77.333 0 -144.5 4.83301 -201.5 14.5s-104.333 26.834 -142 51.501s-65.834 58.334 -84.501 101.001s-28 97.334 -28 164.001c0 62 8 113.667 24 155s45 74.333 87 99s99.667 42.167 173 52.5
s167 15.5 281 15.5h172v96c0 60.667 -4 110.5 -12 149.5s-23 69.5 -45 91.5s-52.833 37.167 -92.5 45.5s-90.834 12.5 -153.501 12.5zM568.002 40.9971c50 0 97.999 1.83301 143.999 5.5s91 8.5 135 14.5v510h-184c-104.667 0 -189.167 -3.33301 -253.5 -10
s-114.166 -19.5 -149.499 -38.5s-59 -45.667 -71 -80s-18 -78.833 -18 -133.5c0 -59.333 9.33301 -106.666 28 -141.999s45.167 -62.333 79.5 -81s76 -30.834 125 -36.501s103.833 -8.5 164.5 -8.5z" />
    <glyph glyph-name="Cacute" unicode="&#x106;" horiz-adv-x="1159" 
d="M739 -20c-92.667 0 -175.169 11.3301 -247.502 33.9971s-133.5 60.834 -183.5 114.501s-88.167 124.667 -114.5 213s-39.5 198.5 -39.5 330.5v131c0 131.333 13.167 241.333 39.5 330s64.5 159.834 114.5 213.501s111.167 91.834 183.5 114.501s154.833 34 247.5 34
c58.667 0 115 -2.5 169 -7.5s99.667 -11.167 137 -18.5c8 -2 11 -7 9 -15l-7 -33c-2 -7.33301 -7 -10.666 -15 -9.99902c-42.667 8.66699 -90.167 14.667 -142.5 18s-102.5 5 -150.5 5c-82 0 -155.167 -9.83301 -219.5 -29.5s-118.666 -53.167 -162.999 -100.5
s-78.333 -111 -102 -191s-35.5 -180 -35.5 -300v-151c0 -120.667 11.667 -220.834 35 -300.501s57.166 -143.334 101.499 -191.001s98.833 -81.167 163.5 -100.5s138 -29 220 -29c63.333 0 120 2.5 170 7.5s94 11.5 132 19.5
c8.66699 0.666992 13.334 -2.66602 14.001 -9.99902l8 -34c0.666992 -8 -2.66602 -13 -9.99902 -15c-38 -9.33301 -84.667 -16.5 -140 -21.5s-113.333 -7.5 -174 -7.5zM606.998 1608c-7.33301 0 -8.33301 2.66699 -3 8l204 178c6 5.33301 13 8 21 8h97
c8 0 8.66699 -2.33301 2 -7l-238 -180c-6.66699 -4.66699 -14 -7 -22 -7h-61z" />
    <glyph glyph-name="cacute" unicode="&#x107;" horiz-adv-x="964" 
d="M632 -20c-90 0 -166.002 7.33301 -228.002 22s-112.167 41 -150.5 79s-66.166 90.333 -83.499 157s-26 152 -26 256v84c0 94 7.66699 173.5 23 238.5s41.833 117.833 79.5 158.5s87.834 70 150.501 88s141 27 235 27c42 0 82.333 -1.83301 121 -5.5
s74 -8.16699 106 -13.5c8 -0.666992 10.667 -5 8 -13l-12 -35c-2.66699 -6.66699 -8 -9.66699 -16 -9c-31.333 5.33301 -65.5 9 -102.5 11s-71.833 3 -104.5 3c-84 0 -153.5 -7.5 -208.5 -22.5s-98.5 -40.333 -130.5 -76s-54.5 -83.334 -67.5 -143.001
s-19.5 -134.167 -19.5 -223.5v-57c0 -91.333 6.5 -166.833 19.5 -226.5s35.5 -107.167 67.5 -142.5s75.5 -60.166 130.5 -74.499s124.5 -21.5 208.5 -21.5c36.667 0 73.5 1.16699 110.5 3.5s70.5 6.5 100.5 12.5c8 0.666992 13 -2.66602 15 -9.99902l10 -36
c2 -8 -1 -12.333 -9 -13c-16 -3.33301 -33.333 -6 -52 -8s-38 -3.83301 -58 -5.5s-40 -2.83398 -60 -3.50098s-39 -1 -57 -1zM486.998 1260c-8 0 -9.66602 3 -4.99902 9l184 238c4 6 10.333 9 19 9h62c7.33301 0 8.66602 -3 3.99902 -9l-198 -238c-5.33301 -6 -12 -9 -20 -9
h-46z" />
    <glyph glyph-name="Ccaron" unicode="&#x10c;" horiz-adv-x="1159" 
d="M739 -20c-92.667 0 -175.169 11.3301 -247.502 33.9971s-133.5 60.834 -183.5 114.501s-88.167 124.667 -114.5 213s-39.5 198.5 -39.5 330.5v131c0 131.333 13.167 241.333 39.5 330s64.5 159.834 114.5 213.501s111.167 91.834 183.5 114.501s154.833 34 247.5 34
c58.667 0 115 -2.5 169 -7.5s99.667 -11.167 137 -18.5c8 -2 11 -7 9 -15l-7 -33c-2 -7.33301 -7 -10.666 -15 -9.99902c-42.667 8.66699 -90.167 14.667 -142.5 18s-102.5 5 -150.5 5c-82 0 -155.167 -9.83301 -219.5 -29.5s-118.666 -53.167 -162.999 -100.5
s-78.333 -111 -102 -191s-35.5 -180 -35.5 -300v-151c0 -120.667 11.667 -220.834 35 -300.501s57.166 -143.334 101.499 -191.001s98.833 -81.167 163.5 -100.5s138 -29 220 -29c63.333 0 120 2.5 170 7.5s94 11.5 132 19.5
c8.66699 0.666992 13.334 -2.66602 14.001 -9.99902l8 -34c0.666992 -8 -2.66602 -13 -9.99902 -15c-38 -9.33301 -84.667 -16.5 -140 -21.5s-113.333 -7.5 -174 -7.5zM435.998 1794c-5.33301 5.33301 -4.33301 8 3 8h63c8 0 15 -2.66699 21 -8l158 -131h20l158 131
c6 5.33301 13 8 21 8h63c7.33301 0 8.33301 -2.66699 3 -8l-213 -178c-6 -5.33301 -13 -8 -21 -8h-42c-8 0 -15 2.66699 -21 8z" />
    <glyph glyph-name="ccaron" unicode="&#x10d;" horiz-adv-x="964" 
d="M632 -20c-90 0 -166.002 7.33301 -228.002 22s-112.167 41 -150.5 79s-66.166 90.333 -83.499 157s-26 152 -26 256v84c0 94 7.66699 173.5 23 238.5s41.833 117.833 79.5 158.5s87.834 70 150.501 88s141 27 235 27c42 0 82.333 -1.83301 121 -5.5
s74 -8.16699 106 -13.5c8 -0.666992 10.667 -5 8 -13l-12 -35c-2.66699 -6.66699 -8 -9.66699 -16 -9c-31.333 5.33301 -65.5 9 -102.5 11s-71.833 3 -104.5 3c-84 0 -153.5 -7.5 -208.5 -22.5s-98.5 -40.333 -130.5 -76s-54.5 -83.334 -67.5 -143.001
s-19.5 -134.167 -19.5 -223.5v-57c0 -91.333 6.5 -166.833 19.5 -226.5s35.5 -107.167 67.5 -142.5s75.5 -60.166 130.5 -74.499s124.5 -21.5 208.5 -21.5c36.667 0 73.5 1.16699 110.5 3.5s70.5 6.5 100.5 12.5c8 0.666992 13 -2.66602 15 -9.99902l10 -36
c2 -8 -1 -12.333 -9 -13c-16 -3.33301 -33.333 -6 -52 -8s-38 -3.83301 -58 -5.5s-40 -2.83398 -60 -3.50098s-39 -1 -57 -1zM321.998 1507c-5.33301 6 -3.99902 9 4.00098 9h53c8 0 14.667 -3 20 -9l151 -180h20l151 180c5.33301 6 12 9 20 9h53
c7.33301 0 8.66602 -3 3.99902 -9l-199 -228c-5.33301 -6 -12 -9 -20 -9h-38c-8 0 -14.667 3 -20 9z" />
    <glyph glyph-name="Dcaron" unicode="&#x10e;" horiz-adv-x="1386" 
d="M584 -16c-54 0 -112.668 1.16895 -176.001 3.50195s-123.666 6.16602 -180.999 11.499c-8 0.666992 -12 5 -12 13v1451c0 8 4 12.333 12 13c30 2 61.5 3.5 94.5 4.5s65.5 1.83301 97.5 2.5s62.167 1.16699 90.5 1.5s52.5 0.5 72.5 0.5c64 0 124.5 -3.16699 181.5 -9.5
s109.5 -18.333 157.5 -36s91.167 -42.334 129.5 -74.001s70.833 -73 97.5 -124s47.167 -113.167 61.5 -186.5s21.5 -160 21.5 -260v-113c0 -100 -7 -186.833 -21 -260.5s-34.333 -136.334 -61 -188.001s-59 -93.667 -97 -126s-81 -57.666 -129 -75.999
s-100.5 -30.833 -157.5 -37.5s-117.5 -10 -181.5 -10zM579.999 1423c-19.333 0 -42.667 -0.166016 -70 -0.499023s-55.166 -0.833008 -83.499 -1.5s-55.833 -1.5 -82.5 -2.5s-49.334 -2.16699 -68.001 -3.5v-1358c23.333 -2 48.166 -3.83301 74.499 -5.5s52.833 -3 79.5 -4
s53 -1.66699 79 -2s50.333 -0.5 73 -0.5c64 0 123 3.33301 177 10s102.833 18.667 146.5 36s81.834 41.166 114.501 71.499s60.167 68.833 82.5 115.5s39 102.834 50 168.501s16.5 142.834 16.5 231.501v119c0 88 -5.66699 164.5 -17 229.5s-28 120.833 -50 167.5
s-49.5 84.667 -82.5 114s-71.333 52.666 -115 69.999s-92.5 29.166 -146.5 35.499s-113.333 9.5 -178 9.5zM362.998 1794c-5.33301 5.33301 -4.33301 8 3 8h63c8 0 15 -2.66699 21 -8l158 -131h20l158 131c6 5.33301 13 8 21 8h63c7.33301 0 8.33301 -2.66699 3 -8
l-213 -178c-6 -5.33301 -13 -8 -21 -8h-42c-8 0 -15 2.66699 -21 8z" />
    <glyph glyph-name="dcaron" unicode="&#x10f;" horiz-adv-x="1133" 
d="M625 1028c-84.667 0 -153.997 -7.16406 -207.997 -21.4971s-96.5 -39 -127.5 -74s-52.5 -81.667 -64.5 -140s-18 -131.5 -18 -219.5v-75c0 -88.667 5.83301 -162.334 17.5 -221.001s33 -105.5 64 -140.5s74 -59.667 129 -74s126.167 -21.5 213.5 -21.5
c44 0 88 1.83301 132 5.5s86 8.5 126 14.5v940c-19.333 4 -40.333 7.66699 -63 11s-45.834 6.16602 -69.501 8.49902s-46.834 4.16602 -69.501 5.49902s-43.334 2 -62.001 2zM631.003 -19.9971c-92.667 0 -170.168 8.16895 -232.501 24.502s-112.166 44 -149.499 83
s-64 90.5 -80 154.5s-24 143.667 -24 239v107c0 94 7.66699 173.167 23 237.5s41.5 116 78.5 155s86.333 67 148 84s138.5 25.5 230.5 25.5c44 0 89.5 -2.66699 136.5 -8s89.5 -11.666 127.5 -18.999v527c0 8 3.66699 13.333 11 16l39 12
c7.33301 3.33301 11 0.666016 11 -8.00098v-1586c0 -8.66699 -4 -13.334 -12 -14.001c-56.667 -10.667 -110.5 -18.334 -161.5 -23.001s-99.5 -7 -145.5 -7zM1068 1231c-8 0 -12 4 -12 12v347c0 8 4 13 12 15l49 14c8 2 12 -1 12 -9l-16 -367c0 -8 -4 -12 -12 -12h-33z" />
    <glyph glyph-name="Dcroat" unicode="&#x110;" horiz-adv-x="1388" 
d="M586 -16c-54 0 -112.668 1.16895 -176.001 3.50195s-123.666 6.16602 -180.999 11.499c-8 0.666992 -12 5 -12 13v758h-162c-8 0 -12 4 -12 12v37c0 8 4 12 12 12h162v632c0 8 4 12.333 12 13c30 2 61.5 3.5 94.5 4.5s65.5 1.83301 97.5 2.5s62.167 1.16699 90.5 1.5
s52.5 0.5 72.5 0.5c64 0 124.5 -3.16699 181.5 -9.5s109.5 -18.333 157.5 -36s91.167 -42.334 129.5 -74.001s70.833 -73 97.5 -124s47.167 -113.167 61.5 -186.5s21.5 -160 21.5 -260v-113c0 -100 -7 -186.833 -21 -260.5s-34.333 -136.334 -61 -188.001
s-59 -93.667 -97 -126s-81 -57.666 -129 -75.999s-100.5 -30.833 -157.5 -37.5s-117.5 -10 -181.5 -10zM581.999 1423c-19.333 0 -42.667 -0.166016 -70 -0.499023s-55.166 -0.833008 -83.499 -1.5s-55.833 -1.5 -82.5 -2.5s-49.334 -2.16699 -68.001 -3.5v-584h293
c8 0 12 -4 12 -12v-37c0 -8 -4 -12 -12 -12h-293v-713c23.333 -2 48.166 -3.83301 74.499 -5.5s52.833 -3 79.5 -4s53 -1.66699 79 -2s50.333 -0.5 73 -0.5c64 0 123 3.33301 177 10s102.833 18.667 146.5 36s81.834 41.166 114.501 71.499s60.167 68.833 82.5 115.5
s39 102.834 50 168.501s16.5 142.834 16.5 231.501v119c0 88 -5.66699 164.5 -17 229.5s-28 120.833 -50 167.5s-49.5 84.667 -82.5 114s-71.333 52.666 -115 69.999s-92.5 29.166 -146.5 35.499s-113.333 9.5 -178 9.5z" />
    <glyph glyph-name="dcroat" unicode="&#x111;" horiz-adv-x="1133" 
d="M631 -20c-92.667 0 -170.168 8.16895 -232.501 24.502s-112.166 44 -149.499 83s-64 90.5 -80 154.5s-24 143.667 -24 239v107c0 94 7.66699 173.167 23 237.5s41.5 116 78.5 155s86.333 67 148 84s138.5 25.5 230.5 25.5c44 0 89.5 -2.66699 136.5 -8
s89.5 -11.666 127.5 -18.999v236h-319c-8 0 -12 4 -12 12v37c0 8 4 12 12 12h319v230c0 8 3.66699 13.333 11 16l39 12c7.33301 3.33301 11 0.666016 11 -8.00098v-250h132c8 0 12 -4 12 -12v-37c0 -8 -4 -12 -12 -12h-132v-1275c0 -8.66699 -4 -13.334 -12 -14.001
c-56.667 -10.667 -110.5 -18.334 -161.5 -23.001s-99.5 -7 -145.5 -7zM624.999 1028c-84.667 0 -153.997 -7.16406 -207.997 -21.4971s-96.5 -39 -127.5 -74s-52.5 -81.667 -64.5 -140s-18 -131.5 -18 -219.5v-75c0 -88.667 5.83301 -162.334 17.5 -221.001
s33 -105.5 64 -140.5s74 -59.667 129 -74s126.167 -21.5 213.5 -21.5c44 0 88 1.83301 132 5.5s86 8.5 126 14.5v940c-19.333 4 -40.333 7.66699 -63 11s-45.834 6.16602 -69.501 8.49902s-46.834 4.16602 -69.501 5.49902s-43.334 2 -62.001 2z" />
    <glyph glyph-name="Emacron" unicode="&#x112;" horiz-adv-x="1177" 
d="M228 0c-8 0 -12 4 -12 12v1451c0 8 4 12 12 12h801c8 0 12 -4 12 -12v-38c0 -8 -4 -12 -12 -12h-752v-563h668c8 0 12 -4 12 -12v-38c0 -8 -4 -12 -12 -12h-668v-727h752c8 0 12 -4 12 -12v-37c0 -8 -4 -12 -12 -12h-801zM380 1659c-8 0 -12 4 -12 12v37c0 8 4 12 12 12
h455c8 0 12 -4 12 -12v-37c0 -8 -4 -12 -12 -12h-455z" />
    <glyph glyph-name="emacron" unicode="&#x113;" horiz-adv-x="1147" 
d="M603 -20c-83.333 0 -154.166 9.16309 -212.499 27.4961s-105.833 48.166 -142.5 89.499s-63.5 95.833 -80.5 163.5s-25.5 150.834 -25.5 249.501v70c0 85.333 7.83301 160 23.5 224s41.167 117.167 76.5 159.5s81.333 74 138 95s125.667 31.5 207 31.5
c79.333 0 147 -10 203 -30s101.667 -49.5 137 -88.5s61.166 -87.333 77.499 -145s24.5 -124.167 24.5 -199.5c0 -22 -0.666992 -40.667 -2 -56s-2.66602 -27 -3.99902 -35c-0.666992 -8 -5.33398 -12 -14.001 -12h-805v-14c0 -85.333 6.33301 -157.666 19 -216.999
s34.167 -107.666 64.5 -144.999s71 -64.5 122 -81.5s114.833 -25.5 191.5 -25.5c28 0 55.167 0.166992 81.5 0.5s52.666 1.33301 78.999 3s53 4.33398 80 8.00098s55.5 8.5 85.5 14.5c8 0.666992 13 -2.66602 15 -9.99902l11 -35c2 -8 -1 -12.333 -9 -13
c-27.333 -5.33301 -54 -9.83301 -80 -13.5s-52.667 -6.66699 -80 -9s-55.666 -4 -84.999 -5s-61.333 -1.5 -96 -1.5zM970 583.996c0 75.333 -6.16797 140.833 -18.501 196.5s-33.166 101.834 -62.499 138.501s-68.5 64 -117.5 82s-110.5 27 -184.5 27
c-72 0 -132.167 -8.83301 -180.5 -26.5s-87.5 -44.667 -117.5 -81s-51.5 -82.333 -64.5 -138s-19.833 -121.834 -20.5 -198.501h766zM336.999 1352c-8 0 -12 4 -12 12v37c0 8 4 12 12 12h455c8 0 12 -4 12 -12v-37c0 -8 -4 -12 -12 -12h-455z" />
    <glyph glyph-name="Edotaccent" unicode="&#x116;" horiz-adv-x="1177" 
d="M228 0c-8 0 -12 4 -12 12v1451c0 8 4 12 12 12h801c8 0 12 -4 12 -12v-38c0 -8 -4 -12 -12 -12h-752v-563h668c8 0 12 -4 12 -12v-38c0 -8 -4 -12 -12 -12h-668v-727h752c8 0 12 -4 12 -12v-37c0 -8 -4 -12 -12 -12h-801zM582 1608c-8 0 -12 4 -12 12v191c0 8 4 13 12 15
l50 14c8 2 12 -1 12 -9v-211c0 -8 -4 -12 -12 -12h-50z" />
    <glyph glyph-name="edotaccent" unicode="&#x117;" horiz-adv-x="1147" 
d="M603 -20c-83.333 0 -154.166 9.16309 -212.499 27.4961s-105.833 48.166 -142.5 89.499s-63.5 95.833 -80.5 163.5s-25.5 150.834 -25.5 249.501v70c0 85.333 7.83301 160 23.5 224s41.167 117.167 76.5 159.5s81.333 74 138 95s125.667 31.5 207 31.5
c79.333 0 147 -10 203 -30s101.667 -49.5 137 -88.5s61.166 -87.333 77.499 -145s24.5 -124.167 24.5 -199.5c0 -22 -0.666992 -40.667 -2 -56s-2.66602 -27 -3.99902 -35c-0.666992 -8 -5.33398 -12 -14.001 -12h-805v-14c0 -85.333 6.33301 -157.666 19 -216.999
s34.167 -107.666 64.5 -144.999s71 -64.5 122 -81.5s114.833 -25.5 191.5 -25.5c28 0 55.167 0.166992 81.5 0.5s52.666 1.33301 78.999 3s53 4.33398 80 8.00098s55.5 8.5 85.5 14.5c8 0.666992 13 -2.66602 15 -9.99902l11 -35c2 -8 -1 -12.333 -9 -13
c-27.333 -5.33301 -54 -9.83301 -80 -13.5s-52.667 -6.66699 -80 -9s-55.666 -4 -84.999 -5s-61.333 -1.5 -96 -1.5zM970 583.996c0 75.333 -6.16797 140.833 -18.501 196.5s-33.166 101.834 -62.499 138.501s-68.5 64 -117.5 82s-110.5 27 -184.5 27
c-72 0 -132.167 -8.83301 -180.5 -26.5s-87.5 -44.667 -117.5 -81s-51.5 -82.333 -64.5 -138s-19.833 -121.834 -20.5 -198.501h766zM559.999 1260c-8 0 -12 4 -12 12v252c0 8 4 13 12 15l50 14c8 2 12 -1 12 -9v-272c0 -8 -4 -12 -12 -12h-50z" />
    <glyph glyph-name="Eogonek" unicode="&#x118;" horiz-adv-x="1177" 
d="M916 -348c20 0 37.499 0.500977 52.499 1.50098s29.5 2.16699 43.5 3.5c8 0.666992 13.333 -3 16 -11l10 -32c2 -7.33301 -1 -12 -9 -14c-15.333 -3.33301 -33.333 -5.83301 -54 -7.5s-41.667 -2.5 -63 -2.5c-38 0 -68.167 3.66699 -90.5 11
s-39.166 17.166 -50.499 29.499s-18.666 26.666 -21.999 42.999s-5 33.833 -5 52.5c0 21.333 5 46 15 74s22.5 55.667 37.5 83s31.5 52.666 49.5 75.999c12.667 16.667 25 30.334 37 41.001h-655c-8 0 -12 4 -12 12v1451c0 8 4 12 12 12h801c8 0 12 -4 12 -12v-38
c0 -8 -4 -12 -12 -12h-752v-563h668c8 0 12 -4 12 -12v-38c0 -8 -4 -12 -12 -12h-668v-727h752c8 0 12 -4 12 -12v-37c0 -8 -4 -12 -12 -12h-75c-14 -12.667 -28 -27.667 -42 -45c-19.333 -24 -36.833 -49.667 -52.5 -77s-28.334 -54.5 -38.001 -81.5
s-14.5 -50.5 -14.5 -70.5c0 -13.333 1 -24.666 3 -33.999s6.83301 -17 14.5 -23s18.667 -10.333 33 -13s33.833 -4 58.5 -4z" />
    <glyph glyph-name="eogonek" unicode="&#x119;" horiz-adv-x="1149" 
d="M871 -348c20 0 37.501 0.496094 52.501 1.49609s29.5 2.16699 43.5 3.5c8 0.666992 13.333 -3 16 -11l10 -32c2 -7.33301 -1 -12 -9 -14c-15.333 -3.33301 -33.333 -5.83301 -54 -7.5s-41.667 -2.5 -63 -2.5c-38 0 -68.167 3.66699 -90.5 11
s-39.166 17.166 -50.499 29.499s-18.666 26.666 -21.999 42.999s-5 33.833 -5 52.5s3.83301 40 11.5 64s17.667 48.333 30 73s26.166 48.167 41.499 70.5s30.666 41.5 45.999 57.5c-34 -4 -69 -6.83301 -105 -8.5s-76 -2.5 -120 -2.5
c-83.333 0 -154.166 9.16699 -212.499 27.5s-105.833 48.166 -142.5 89.499s-63.5 95.833 -80.5 163.5s-25.5 150.834 -25.5 249.501v70c0 85.333 7.83301 160 23.5 224s41.167 117.167 76.5 159.5s81.333 74 138 95s125.667 31.5 207 31.5c79.333 0 147 -10 203 -30
s101.667 -49.5 137 -88.5s61.166 -87.333 77.499 -145s24.5 -124.167 24.5 -199.5c0 -22 -0.666992 -40.667 -2 -56s-2.66602 -27 -3.99902 -35c-0.666992 -8 -5.33398 -12 -14.001 -12h-805v-14c0 -85.333 6.33301 -157.666 19 -216.999s34.167 -107.666 64.5 -144.999
s71 -64.5 122 -81.5s114.833 -25.5 191.5 -25.5c28 0 55.167 0.166992 81.5 0.5s52.666 1.33301 78.999 3s53 4.33398 80 8.00098s55.5 8.5 85.5 14.5c8 0.666992 13 -2.66602 15 -9.99902l11 -35c2 -8 -1 -12.333 -9 -13l-30 -6c-19.333 -16 -38 -35.667 -56 -59
s-34.167 -48 -48.5 -74s-25.833 -51.667 -34.5 -77s-13 -47.666 -13 -66.999c0 -13.333 1 -24.666 3 -33.999s6.83301 -17 14.5 -23s18.667 -10.333 33 -13s33.833 -4 58.5 -4zM970.001 583.996c0 75.333 -6.16797 140.833 -18.501 196.5s-33.166 101.834 -62.499 138.501
s-68.5 64 -117.5 82s-110.5 27 -184.5 27c-72 0 -132.167 -8.83301 -180.5 -26.5s-87.5 -44.667 -117.5 -81s-51.5 -82.333 -64.5 -138s-19.833 -121.834 -20.5 -198.501h766z" />
    <glyph glyph-name="Ecaron" unicode="&#x11a;" horiz-adv-x="1177" 
d="M228 0c-8 0 -12 4 -12 12v1451c0 8 4 12 12 12h801c8 0 12 -4 12 -12v-38c0 -8 -4 -12 -12 -12h-752v-563h668c8 0 12 -4 12 -12v-38c0 -8 -4 -12 -12 -12h-668v-727h752c8 0 12 -4 12 -12v-37c0 -8 -4 -12 -12 -12h-801zM352 1794c-5.33301 5.33301 -4.33301 8 3 8h63
c8 0 15 -2.66699 21 -8l158 -131h20l158 131c6 5.33301 13 8 21 8h63c7.33301 0 8.33301 -2.66699 3 -8l-213 -178c-6 -5.33301 -13 -8 -21 -8h-42c-8 0 -15 2.66699 -21 8z" />
    <glyph glyph-name="ecaron" unicode="&#x11b;" horiz-adv-x="1147" 
d="M603 -20c-83.333 0 -154.166 9.16309 -212.499 27.4961s-105.833 48.166 -142.5 89.499s-63.5 95.833 -80.5 163.5s-25.5 150.834 -25.5 249.501v70c0 85.333 7.83301 160 23.5 224s41.167 117.167 76.5 159.5s81.333 74 138 95s125.667 31.5 207 31.5
c79.333 0 147 -10 203 -30s101.667 -49.5 137 -88.5s61.166 -87.333 77.499 -145s24.5 -124.167 24.5 -199.5c0 -22 -0.666992 -40.667 -2 -56s-2.66602 -27 -3.99902 -35c-0.666992 -8 -5.33398 -12 -14.001 -12h-805v-14c0 -85.333 6.33301 -157.666 19 -216.999
s34.167 -107.666 64.5 -144.999s71 -64.5 122 -81.5s114.833 -25.5 191.5 -25.5c28 0 55.167 0.166992 81.5 0.5s52.666 1.33301 78.999 3s53 4.33398 80 8.00098s55.5 8.5 85.5 14.5c8 0.666992 13 -2.66602 15 -9.99902l11 -35c2 -8 -1 -12.333 -9 -13
c-27.333 -5.33301 -54 -9.83301 -80 -13.5s-52.667 -6.66699 -80 -9s-55.666 -4 -84.999 -5s-61.333 -1.5 -96 -1.5zM970 583.996c0 75.333 -6.16797 140.833 -18.501 196.5s-33.166 101.834 -62.499 138.501s-68.5 64 -117.5 82s-110.5 27 -184.5 27
c-72 0 -132.167 -8.83301 -180.5 -26.5s-87.5 -44.667 -117.5 -81s-51.5 -82.333 -64.5 -138s-19.833 -121.834 -20.5 -198.501h766zM352.999 1507c-5.33301 6 -3.99902 9 4.00098 9h53c8 0 14.667 -3 20 -9l151 -180h20l151 180c5.33301 6 12 9 20 9h53
c7.33301 0 8.66602 -3 3.99902 -9l-199 -228c-5.33301 -6 -12 -9 -20 -9h-38c-8 0 -14.667 3 -20 9z" />
    <glyph glyph-name="Gbreve" unicode="&#x11e;" horiz-adv-x="1245" 
d="M669 692c-8 0 -12.001 3.99707 -12.001 11.9971v38c0 8 4 12 12 12h404c8 0 12 -4 12 -12v-707c0 -8 -4 -13 -12 -15c-62.667 -16 -122.5 -26.667 -179.5 -32s-113.833 -8 -170.5 -8c-93.333 0 -175.333 11.333 -246 34s-129.834 60.834 -177.501 114.501
s-83.5 124.667 -107.5 213s-36 198.5 -36 330.5v131c0 131.333 12.833 241.333 38.5 330s63.334 159.834 113.001 213.501s111 91.834 184 114.501s156.833 34 251.5 34c56.667 0 111.167 -2.5 163.5 -7.5s96.5 -11.833 132.5 -20.5c8 -2 11 -7 9 -15l-7 -31
c-2 -7.33301 -7 -10.666 -15 -9.99902c-41.333 8.66699 -87.166 14.667 -137.499 18s-98.833 5 -145.5 5c-85.333 0 -160.5 -9.83301 -225.5 -29.5s-119.5 -53.167 -163.5 -100.5s-77.167 -111 -99.5 -191s-33.5 -180 -33.5 -300v-151
c0 -120.667 10.5 -220.834 31.5 -300.501s52.5 -143.334 94.5 -191.001s94.333 -81.167 157 -100.5s135.667 -29 219 -29c64 0 120.333 2.33301 169 7s92.667 11.334 132 20.001v624h-355zM666.999 1591c-37.333 0 -70.1689 4.83301 -98.502 14.5s-52.5 23.167 -72.5 40.5
s-36 38.333 -48 63s-20.333 51.667 -25 81c-2 8 1.33301 12 10 12h37c7.33301 0 12 -4 14 -12c4.66699 -27.333 13 -50.333 25 -69s26.333 -33.667 43 -45s35 -19.5 55 -24.5s40 -7.5 60 -7.5s40 2.5 60 7.5s38.333 13.167 55 24.5s31 26.333 43 45s20.333 41.667 25 69
c2 8 6.66699 12 14 12h37c8.66699 0 12 -4 10 -12c-4 -29.333 -12 -56.333 -24 -81s-28.167 -45.667 -48.5 -63s-44.666 -30.833 -72.999 -40.5s-61.166 -14.5 -98.499 -14.5z" />
    <glyph glyph-name="gbreve" unicode="&#x11f;" horiz-adv-x="1133" 
d="M583 1272c-40 0 -74.5 5.66699 -103.5 17s-53.167 27.166 -72.5 47.499s-34.5 44.833 -45.5 73.5s-18.833 60 -23.5 94c-0.666992 8 3 12 11 12h40c8 0 12.333 -4 13 -12c4 -33.333 11.5 -61.333 22.5 -84s24.5 -40.667 40.5 -54s34.167 -22.833 54.5 -28.5
s41.5 -8.5 63.5 -8.5s43 2.83301 63 8.5s38 15.167 54 28.5s29.667 31.333 41 54s19 50.667 23 84c0.666992 8 5 12 13 12h40c8 0 11.667 -4 11 -12c-4 -34 -11.5 -65.333 -22.5 -94s-26.333 -53.167 -46 -73.5s-44 -36.166 -73 -47.499s-63.5 -17 -103.5 -17zM625 1028
c-86 0 -156.168 -7.33203 -210.501 -21.999s-96.833 -39.667 -127.5 -75s-51.667 -82.166 -63 -140.499s-17 -131.5 -17 -219.5v-77c0 -86.667 5.83301 -159 17.5 -217s33.334 -104.5 65.001 -139.5s75.5 -59.833 131.5 -74.5s128.667 -22 218 -22
c18 0 37.833 0.666992 59.5 2s43.5 3.16602 65.5 5.49902s43.833 5.16602 65.5 8.49902s41.5 7 59.5 11v942c-84 12 -172 18 -264 18zM486.999 -470.999c-16 0 -35.335 0.500977 -58.002 1.50098s-46.334 2.5 -71.001 4.5s-49.167 4.83301 -73.5 8.5
s-46.166 8.16699 -65.499 13.5c-8 2 -11 6.66699 -9 14l8 36c2 8 7 11 15 9c36.667 -10 76.667 -16.833 120 -20.5s88 -5.5 134 -5.5c70 0 130.333 4.66699 181 14s92.334 28.666 125.001 57.999s56.834 71.333 72.501 126s23.5 127.334 23.5 218.001
c-35.333 -7.33301 -75.5 -13.5 -120.5 -18.5s-88.167 -7.5 -129.5 -7.5c-96.667 0 -176.834 8.83301 -240.501 26.5s-114.167 46.167 -151.5 85.5s-63.666 90.833 -78.999 154.5s-23 141.167 -23 232.5v109c0 96 7.83301 176.167 23.5 240.5s42 115.833 79 154.5
s86.167 66.167 147.5 82.5s138 24.5 230 24.5c46 0 95 -1.83301 147 -5.5s107.333 -11.5 166 -23.5c8 -0.666992 12 -5.33398 12 -14.001v-1047c0 -98 -9 -177.5 -27 -238.5s-45.833 -108.833 -83.5 -143.5s-85.667 -58.167 -144 -70.5s-127.833 -18.5 -208.5 -18.5z" />
    <glyph glyph-name="Gcommaaccent" unicode="&#x122;" horiz-adv-x="1247" 
d="M669 692c-8 0 -12.001 3.99707 -12.001 11.9971v38c0 8 4 12 12 12h404c8 0 12 -4 12 -12v-707c0 -8 -4 -13 -12 -15c-62.667 -16 -122.5 -26.667 -179.5 -32s-113.833 -8 -170.5 -8c-93.333 0 -175.333 11.333 -246 34s-129.834 60.834 -177.501 114.501
s-83.5 124.667 -107.5 213s-36 198.5 -36 330.5v131c0 131.333 12.833 241.333 38.5 330s63.334 159.834 113.001 213.501s111 91.834 184 114.501s156.833 34 251.5 34c56.667 0 111.167 -2.5 163.5 -7.5s96.5 -11.833 132.5 -20.5c8 -2 11 -7 9 -15l-7 -31
c-2 -7.33301 -7 -10.666 -15 -9.99902c-41.333 8.66699 -87.166 14.667 -137.499 18s-98.833 5 -145.5 5c-85.333 0 -160.5 -9.83301 -225.5 -29.5s-119.5 -53.167 -163.5 -100.5s-77.167 -111 -99.5 -191s-33.5 -180 -33.5 -300v-151
c0 -120.667 10.5 -220.834 31.5 -300.501s52.5 -143.334 94.5 -191.001s94.333 -81.167 157 -100.5s135.667 -29 219 -29c64 0 120.333 2.33301 169 7s92.667 11.334 132 20.001v624h-355zM620.999 -430.003c-8 0 -11.001 4 -9.00098 12l74 271c2 8 7 13 15 15l56 14
c8.66699 2 11.334 -0.666992 8.00098 -8l-94 -293c-2.66699 -7.33301 -8 -11 -16 -11h-34z" />
    <glyph glyph-name="gcommaaccent" unicode="&#x123;" horiz-adv-x="1133" 
d="M536 1267c-8 -2 -11 1 -9 9l80 268c2 8 7 12 15 12h42c8 0 11 -4 9 -12l-66 -250c-2 -8 -7 -13 -15 -15zM625 1028c-86 0 -156.168 -7.33203 -210.501 -21.999s-96.833 -39.667 -127.5 -75s-51.667 -82.166 -63 -140.499s-17 -131.5 -17 -219.5v-77
c0 -86.667 5.83301 -159 17.5 -217s33.334 -104.5 65.001 -139.5s75.5 -59.833 131.5 -74.5s128.667 -22 218 -22c18 0 37.833 0.666992 59.5 2s43.5 3.16602 65.5 5.49902s43.833 5.16602 65.5 8.49902s41.5 7 59.5 11v942c-84 12 -172 18 -264 18zM486.999 -470.999
c-16 0 -35.335 0.500977 -58.002 1.50098s-46.334 2.5 -71.001 4.5s-49.167 4.83301 -73.5 8.5s-46.166 8.16699 -65.499 13.5c-8 2 -11 6.66699 -9 14l8 36c2 8 7 11 15 9c36.667 -10 76.667 -16.833 120 -20.5s88 -5.5 134 -5.5c70 0 130.333 4.66699 181 14
s92.334 28.666 125.001 57.999s56.834 71.333 72.501 126s23.5 127.334 23.5 218.001c-35.333 -7.33301 -75.5 -13.5 -120.5 -18.5s-88.167 -7.5 -129.5 -7.5c-96.667 0 -176.834 8.83301 -240.501 26.5s-114.167 46.167 -151.5 85.5s-63.666 90.833 -78.999 154.5
s-23 141.167 -23 232.5v109c0 96 7.83301 176.167 23.5 240.5s42 115.833 79 154.5s86.167 66.167 147.5 82.5s138 24.5 230 24.5c46 0 95 -1.83301 147 -5.5s107.333 -11.5 166 -23.5c8 -0.666992 12 -5.33398 12 -14.001v-1047c0 -98 -9 -177.5 -27 -238.5
s-45.833 -108.833 -83.5 -143.5s-85.667 -58.167 -144 -70.5s-127.833 -18.5 -208.5 -18.5z" />
    <glyph glyph-name="Imacron" unicode="&#x12a;" horiz-adv-x="493" 
d="M79 1659c-8 0 -12 4 -12 12v37c0 8 4 12 12 12h311c8 0 12 -4 12 -12v-37c0 -8 -4 -12 -12 -12h-311zM228 0c-8 0 -12 4 -12 12v1451c0 8 4 12 12 12h37c8 0 12 -4 12 -12v-1451c0 -8 -4 -12 -12 -12h-37z" />
    <glyph glyph-name="imacron" unicode="&#x12b;" horiz-adv-x="444" 
d="M56 1331c-8 0 -12 4 -12 12v38c0 8 4 12 12 12h332c8 0 12 -4 12 -12v-38c0 -8 -4 -12 -12 -12h-332zM204 0c-8 0 -12 4 -12 12v1047c0 8 4 12 12 12h37c8 0 12 -4 12 -12v-1047c0 -8 -4 -12 -12 -12h-37z" />
    <glyph glyph-name="Ibreve" unicode="&#x12c;" horiz-adv-x="492" 
d="M246 1589c-32 0 -60.1699 4.83301 -84.5029 14.5s-45 23.334 -62 41.001s-30.667 38.834 -41 63.501s-17.5 52 -21.5 82c-2 8 1.33301 12 10 12h40c7.33301 0 12 -4 14 -12c4 -27.333 10.667 -50.166 20 -68.499s20.333 -33 33 -44s26.834 -18.833 42.501 -23.5
s32.167 -7 49.5 -7c16.667 0 33 2.33301 49 7s30.333 12.5 43 23.5s23.667 25.667 33 44s16 41.166 20 68.499c2 8 6.66699 12 14 12h40c8 0 11.667 -4 11 -12c-4 -30 -11.167 -57.333 -21.5 -82s-24.166 -45.834 -41.499 -63.501s-38.166 -31.334 -62.499 -41.001
s-52.5 -14.5 -84.5 -14.5zM226.997 0c-8 0 -12 4 -12 12v1451c0 8 4 12 12 12h37c8 0 12 -4 12 -12v-1451c0 -8 -4 -12 -12 -12h-37z" />
    <glyph glyph-name="ibreve" unicode="&#x12d;" horiz-adv-x="445" 
d="M212 1284c-34.667 0 -63.9971 5.66699 -87.9971 17s-44 27.166 -60 47.499s-28.5 44.833 -37.5 73.5s-15.5 60 -19.5 94c-0.666992 8 3 12 11 12h40c8 0 12.333 -4 13 -12c4 -33.333 10.333 -61.333 19 -84s19.167 -40.667 31.5 -54s26.166 -22.833 41.499 -28.5
s31.666 -8.5 48.999 -8.5c20 0 38.833 2.83301 56.5 8.5s33.5 15.167 47.5 28.5s26 31.333 36 54s17 50.667 21 84c0.666992 8 5 12 13 12h40c8 0 11.667 -4 11 -12c-4 -34 -11 -65.333 -21 -94s-23.833 -53.167 -41.5 -73.5s-39.834 -36.166 -66.501 -47.499
s-58.667 -17 -96 -17zM204.003 0c-8 0 -12 4 -12 12v1047c0 8 4 12 12 12h37c8 0 12 -4 12 -12v-1047c0 -8 -4 -12 -12 -12h-37z" />
    <glyph glyph-name="Iogonek" unicode="&#x12e;" horiz-adv-x="493" 
d="M58 -274c0 21.333 4.33203 45.002 12.999 71.002s20.334 52 35.001 78s31.5 50.833 50.5 74.5s38.833 44.167 59.5 61.5v1452c0 8 4 12 12 12h37c8 0 12 -4 12 -12v-1449c0 -5.33301 -0.666992 -9.5 -2 -12.5s-3.66602 -6.16699 -6.99902 -9.5
c-18.667 -16.667 -36.834 -36.334 -54.501 -59.001s-33.167 -46 -46.5 -70s-24.166 -48 -32.499 -72s-12.5 -45.667 -12.5 -65c0 -13.333 1 -24.666 3 -33.999s6.66699 -17 14 -23s18.166 -10.333 32.499 -13s33.833 -4 58.5 -4c20 0 37.5 0.5 52.5 1.5
s29.5 2.16699 43.5 3.5c8 0.666992 13.333 -3 16 -11l10 -32c2 -7.33301 -1 -12 -9 -14c-15.333 -3.33301 -33.333 -5.83301 -54 -7.5s-41.667 -2.5 -63 -2.5c-38 0 -68 3.66699 -90 11s-38.833 17.166 -50.5 29.499s-19.167 26.666 -22.5 42.999s-5 33.833 -5 52.5z" />
    <glyph glyph-name="iogonek" unicode="&#x12f;" horiz-adv-x="444" 
d="M206 -348c16 0 33.6641 0.5 52.9971 1.5s38 2.5 56 4.5c8 0.666992 12.333 -2.66602 13 -9.99902l2 -33c0.666992 -8 -3 -13 -11 -15c-15.333 -3.33301 -33.333 -5.83301 -54 -7.5s-41.667 -2.5 -63 -2.5c-38 0 -68.167 3.66699 -90.5 11s-39.166 17.166 -50.499 29.499
s-18.666 26.666 -21.999 42.999s-5 33.833 -5 52.5c0 22 4.33301 46.167 13 72.5s20.334 52.666 35.001 78.999s31.5 51.5 50.5 75.5s38.833 44.667 59.5 62v1044c0 8 4 12 12 12h37c8 0 12 -4 12 -12v-1047c0 -4.66699 -1.66699 -8.66699 -5 -12
c-19.333 -17.333 -38 -37.666 -56 -60.999s-34 -47.5 -48 -72.5s-25.333 -49.833 -34 -74.5s-13 -46.667 -13 -66c0 -13.333 1 -24.666 3 -33.999s6.83301 -17 14.5 -23s18.667 -10.333 33 -13s33.833 -4 58.5 -4zM196.997 1260c-8 0 -12 4 -12 12v252c0 8 4 13 12 15l50 14
c8 2 12 -1 12 -9v-272c0 -8 -4 -12 -12 -12h-50z" />
    <glyph glyph-name="Idotaccent" unicode="&#x130;" horiz-adv-x="493" 
d="M228 0c-8 0 -12 4 -12 12v1451c0 8 4 12 12 12h37c8 0 12 -4 12 -12v-1451c0 -8 -4 -12 -12 -12h-37zM223 1608c-8 0 -12 4 -12 12v191c0 8 4 13 12 15l50 14c8 2 12 -1 12 -9v-211c0 -8 -4 -12 -12 -12h-50z" />
    <glyph glyph-name="dotlessi" unicode="&#x131;" horiz-adv-x="444" 
d="M204 0c-8 0 -12 4 -12 12v1047c0 8 4 12 12 12h37c8 0 12 -4 12 -12v-1047c0 -8 -4 -12 -12 -12h-37z" />
    <glyph glyph-name="IJ" unicode="&#x132;" horiz-adv-x="985" 
d="M228 0c-8 0 -12 4 -12 12v1451c0 8 4 12 12 12h37c8 0 12 -4 12 -12v-1451c0 -8 -4 -12 -12 -12h-37zM569 -236c-15.333 0 -31.999 1.16602 -49.999 3.49902s-34.333 5.83301 -49 10.5c-8 2 -11 6.66699 -9 14l9 34c2 7.33301 6.66699 10 14 8
c13.333 -4 27.166 -6.33301 41.499 -7s28.833 -1 43.5 -1c20.667 0 39.667 1.66699 57 5s32 11 44 23s21.333 29.5 28 52.5s10 54.167 10 93.5v1463c0 8 4 12 12 12h37c8 0 12 -4 12 -12v-1463c0 -53.333 -5 -95.666 -15 -126.999s-24 -55 -42 -71
s-39.167 -26.333 -63.5 -31s-50.833 -7 -79.5 -7z" />
    <glyph glyph-name="ij" unicode="&#x133;" horiz-adv-x="888" 
d="M204 0c-8 0 -12 4 -12 12v1047c0 8 4 12 12 12h37c8 0 12 -4 12 -12v-1047c0 -8 -4 -12 -12 -12h-37zM197 1260c-8 0 -12 4 -12 12v252c0 8 4 13 12 15l50 14c8 2 12 -1 12 -9v-272c0 -8 -4 -12 -12 -12h-50zM435 -471c-20.667 0 -43.998 1.00098 -69.998 3.00098
s-49.667 6 -71 12c-7.33301 2 -10 6.66699 -8 14l9 35c2 7.33301 7 10.666 15 9.99902c19.333 -3.33301 40.166 -6.33301 62.499 -9s43.166 -4 62.499 -4c39.333 0 72 3.33301 98 10s46.667 19 62 37s26 42.667 32 74s9 71.666 9 120.999v1227c0 8 4 12 12 12h37
c8 0 12 -4 12 -12v-1227c0 -65.333 -5 -117.833 -15 -157.5s-25.667 -70.167 -47 -91.5s-48.5 -35.666 -81.5 -42.999s-72.5 -11 -118.5 -11zM641.002 1260c-8 0 -12 4 -12 12v252c0 8 4 13 12 15l50 14c8 2 12 -1 12 -9v-272c0 -8 -4 -12 -12 -12h-50z" />
    <glyph glyph-name="Kcommaaccent" unicode="&#x136;" horiz-adv-x="1112" 
d="M1023 0c-8.66699 0 -15 3 -19 9l-629 791l-98 -91v-697c0 -8 -4 -12 -12 -12h-37c-8 0 -12 4 -12 12v1451c0 8 4 12 12 12h37c8 0 12 -4 12 -12v-679l696 683c6 5.33301 13 8 21 8h64c8.66699 0 9.66699 -2.66699 3 -8l-639 -623l662 -835c4.66699 -6 3 -9 -5 -9h-56z
M474 -430c-8 0 -11.001 4 -9.00098 12l74 271c2 8 7 13 15 15l56 14c8.66699 2 11.334 -0.666992 8.00098 -8l-94 -293c-2.66699 -7.33301 -8 -11 -16 -11h-34z" />
    <glyph glyph-name="kcommaaccent" unicode="&#x137;" horiz-adv-x="1000" 
d="M898 0c-8.66699 0 -15 3.33398 -19 10.001l-477 654l-156 -121v-531c0 -8 -4 -12 -12 -12h-38c-8 0 -12 4 -12 12v1578c0 8 3.66699 13.333 11 16l40 12c7.33301 3.33301 11 0.666016 11 -8.00098v-992l576 446c6.66699 4.66699 13.667 7 21 7h73c8 0 9 -2.33301 3 -7
l-468 -363l509 -691c4.66699 -6.66699 3 -10 -5 -10h-57zM409 -429.999c-8 0 -11.001 4 -9.00098 12l74 271c2 8 7 13 15 15l56 14c8.66699 2 11.334 -0.666992 8.00098 -8l-94 -293c-2.66699 -7.33301 -8 -11 -16 -11h-34z" />
    <glyph glyph-name="Lacute" unicode="&#x139;" horiz-adv-x="1029" 
d="M228 0c-8 0 -12 4 -12 12v1451c0 8 4 12 12 12h37c8 0 12 -4 12 -12v-1402h701c8 0 12 -4 12 -12v-37c0 -8 -4 -12 -12 -12h-750zM214 1608c-7.33301 0 -8.33301 2.66699 -3 8l204 178c6 5.33301 13 8 21 8h97c8 0 8.66699 -2.33301 2 -7l-238 -180
c-6.66699 -4.66699 -14 -7 -22 -7h-61z" />
    <glyph glyph-name="lacute" unicode="&#x13a;" horiz-adv-x="460" 
d="M212 0c-8 0 -12 4.00098 -12 12.001v1578c0 8 3.66699 13.333 11 16l39 12c7.33301 3.33301 11 0.666016 11 -8.00098v-1598c0 -8 -4 -12 -12 -12h-37zM88 1690c-7.33301 0 -8.33301 2.66699 -3 8l204 178c6 5.33301 13 8 21 8h97c8 0 8.66699 -2.33301 2 -7l-238 -180
c-6.66699 -4.66699 -14 -7 -22 -7h-61z" />
    <glyph glyph-name="Lcommaaccent" unicode="&#x13b;" horiz-adv-x="1030" 
d="M228 0c-8 0 -12 4 -12 12v1451c0 8 4 12 12 12h37c8 0 12 -4 12 -12v-1402h701c8 0 12 -4 12 -12v-37c0 -8 -4 -12 -12 -12h-750zM486 -430c-8 0 -11.001 4 -9.00098 12l74 271c2 8 7 13 15 15l56 14c8.66699 2 11.334 -0.666992 8.00098 -8l-94 -293
c-2.66699 -7.33301 -8 -11 -16 -11h-34z" />
    <glyph glyph-name="lcommaaccent" unicode="&#x13c;" horiz-adv-x="461" 
d="M212 0c-8 0 -12 4.00098 -12 12.001v1578c0 8 3.66699 13.333 11 16l39 12c7.33301 3.33301 11 0.666016 11 -8.00098v-1598c0 -8 -4 -12 -12 -12h-37zM124 -429.999c-8 0 -11.001 4 -9.00098 12l74 271c2 8 7 13 15 15l56 14c8.66699 2 11.334 -0.666992 8.00098 -8
l-94 -293c-2.66699 -7.33301 -8 -11 -16 -11h-34z" />
    <glyph glyph-name="Lcaron" unicode="&#x13d;" horiz-adv-x="1029" 
d="M437 1188c-8 0 -12.001 4 -12.001 12v347c0 8 4 13 12 15l50 14c8.66699 2 12.334 -1 11.001 -9l-15 -367c-0.666992 -8 -5 -12 -13 -12h-33zM227.999 0c-8 0 -12 4 -12 12v1451c0 8 4 12 12 12h37c8 0 12 -4 12 -12v-1402h701c8 0 12 -4 12 -12v-37c0 -8 -4 -12 -12 -12
h-750z" />
    <glyph glyph-name="lcaron" unicode="&#x13e;" horiz-adv-x="460" 
d="M212 0c-8 0 -12 4.00098 -12 12.001v1578c0 8 3.66699 13.333 11 16l39 12c7.33301 3.33301 11 0.666016 11 -8.00098v-1598c0 -8 -4 -12 -12 -12h-37zM377 1231c-8 0 -12 4 -12 12v347c0 8 4 13 12 15l49 14c8 2 12 -1 12 -9l-16 -367c0 -8 -4 -12 -12 -12h-33z" />
    <glyph glyph-name="Lslash" unicode="&#x141;" horiz-adv-x="1031" 
d="M230 0c-8 0 -12 4 -12 12v614l-162 -107c-6.66699 -5.33301 -10 -3.66602 -10 5.00098v48c0 8.66699 3.33301 15 10 19l162 107v765c0 8 4 12 12 12h37c8 0 12 -4 12 -12v-724l404 268c6.66699 5.33301 10 3.66602 10 -5.00098v-48c0 -8.66699 -3.33301 -15 -10 -19
l-404 -268v-606h701c8 0 12 -4 12 -12v-37c0 -8 -4 -12 -12 -12h-750z" />
    <glyph glyph-name="lslash" unicode="&#x142;" horiz-adv-x="473" 
d="M218 0c-8 0 -12 4.00098 -12 12.001v747l-171 -179c-5.33301 -5.33301 -8 -4.33301 -8 3v61c0 8 2.66699 15 8 21l171 177v748c0 8 3.66699 13.333 11 16l39 12c7.33301 3.33301 11 0.666016 11 -8.00098v-705l170 177c5.33301 6.66699 8 5.66699 8 -3v-56
c0 -8 -2.66699 -15 -8 -21l-170 -179v-811c0 -8 -4 -12 -12 -12h-37z" />
    <glyph glyph-name="Nacute" unicode="&#x143;" horiz-adv-x="1388" 
d="M228 0c-8 0 -12 3.99902 -12 11.999v1451c0 8 4 12 12 12h54c8 0 14 -3.33301 18 -10l735 -1242c22.667 -39.333 40.667 -69.666 54 -90.999s20.333 -32 21 -32l1 1363c0 8 4 12 12 12h37c8 0 12 -4 12 -12v-1451c0 -8 -4 -12 -12 -12h-53c-8 -0 -14 3.33301 -18 10
l-732 1233l-30 52l-24.5 41.5l-17 27.5l-6.5 10l-2 -1362c0 -8 -4 -12 -12 -12h-37zM618 1608c-7.33301 0 -8.33301 2.66699 -3 8l204 178c6 5.33301 13 8 21 8h97c8 0 8.66699 -2.33301 2 -7l-238 -180c-6.66699 -4.66699 -14 -7 -22 -7h-61z" />
    <glyph glyph-name="nacute" unicode="&#x144;" horiz-adv-x="1169" 
d="M944 0c-8 0 -11.9971 3.99902 -11.9971 11.999v649c0 70 -5 128.333 -15 175s-26.333 84.334 -49 113.001s-52.334 49 -89.001 61s-81.334 18 -134.001 18c-65.333 0 -132.333 -8.66699 -201 -26s-134.667 -44 -198 -80v-910c0 -8 -4 -12 -12 -12h-38c-8 0 -12 4 -12 12
v1066c0 8 4 12 12 12h23c7.33301 0 12 -4 14 -12l12 -94c66 34 132.833 60.167 200.5 78.5s134.167 27.5 199.5 27.5c68.667 0 125.5 -7.83301 170.5 -23.5s80.667 -40.5 107 -74.5s44.666 -78.167 54.999 -132.5s15.5 -119.833 15.5 -196.5v-651c0 -8 -4 -12 -12 -12h-37z
M521.003 1260c-8 0 -9.66602 3 -4.99902 9l184 238c4 6 10.333 9 19 9h62c7.33301 0 8.66602 -3 3.99902 -9l-198 -238c-5.33301 -6 -12 -9 -20 -9h-46z" />
    <glyph glyph-name="Ncommaaccent" unicode="&#x145;" horiz-adv-x="1388" 
d="M228 0c-8 0 -12 3.99902 -12 11.999v1451c0 8 4 12 12 12h54c8 0 14 -3.33301 18 -10l735 -1242c22.667 -39.333 40.667 -69.666 54 -90.999s20.333 -32 21 -32l1 1363c0 8 4 12 12 12h37c8 0 12 -4 12 -12v-1451c0 -8 -4 -12 -12 -12h-53c-8 -0 -14 3.33301 -18 10
l-732 1233l-30 52l-24.5 41.5l-17 27.5l-6.5 10l-2 -1362c0 -8 -4 -12 -12 -12h-37zM605 -430.001c-8 0 -11.001 4 -9.00098 12l74 271c2 8 7 13 15 15l56 14c8.66699 2 11.334 -0.666992 8.00098 -8l-94 -293c-2.66699 -7.33301 -8 -11 -16 -11h-34z" />
    <glyph glyph-name="ncommaaccent" unicode="&#x146;" horiz-adv-x="1170" 
d="M944 0c-8 0 -11.9971 3.99902 -11.9971 11.999v649c0 70 -5 128.333 -15 175s-26.333 84.334 -49 113.001s-52.334 49 -89.001 61s-81.334 18 -134.001 18c-65.333 0 -132.333 -8.66699 -201 -26s-134.667 -44 -198 -80v-910c0 -8 -4 -12 -12 -12h-38c-8 0 -12 4 -12 12
v1066c0 8 4 12 12 12h23c7.33301 0 12 -4 14 -12l12 -94c66 34 132.833 60.167 200.5 78.5s134.167 27.5 199.5 27.5c68.667 0 125.5 -7.83301 170.5 -23.5s80.667 -40.5 107 -74.5s44.666 -78.167 54.999 -132.5s15.5 -119.833 15.5 -196.5v-651c0 -8 -4 -12 -12 -12h-37z
M493.003 -430.001c-8 0 -11.001 4 -9.00098 12l74 271c2 8 7 13 15 15l56 14c8.66699 2 11.334 -0.666992 8.00098 -8l-94 -293c-2.66699 -7.33301 -8 -11 -16 -11h-34z" />
    <glyph glyph-name="Ncaron" unicode="&#x147;" horiz-adv-x="1388" 
d="M228 0c-8 0 -12 3.99902 -12 11.999v1451c0 8 4 12 12 12h54c8 0 14 -3.33301 18 -10l735 -1242c22.667 -39.333 40.667 -69.666 54 -90.999s20.333 -32 21 -32l1 1363c0 8 4 12 12 12h37c8 0 12 -4 12 -12v-1451c0 -8 -4 -12 -12 -12h-53c-8 -0 -14 3.33301 -18 10
l-732 1233l-30 52l-24.5 41.5l-17 27.5l-6.5 10l-2 -1362c0 -8 -4 -12 -12 -12h-37zM438 1794c-5.33301 5.33301 -4.33301 8 3 8h63c8 0 15 -2.66699 21 -8l158 -131h20l158 131c6 5.33301 13 8 21 8h63c7.33301 0 8.33301 -2.66699 3 -8l-213 -178
c-6 -5.33301 -13 -8 -21 -8h-42c-8 0 -15 2.66699 -21 8z" />
    <glyph glyph-name="ncaron" unicode="&#x148;" horiz-adv-x="1169" 
d="M944 0c-8 0 -11.9971 3.99902 -11.9971 11.999v649c0 70 -5 128.333 -15 175s-26.333 84.334 -49 113.001s-52.334 49 -89.001 61s-81.334 18 -134.001 18c-65.333 0 -132.333 -8.66699 -201 -26s-134.667 -44 -198 -80v-910c0 -8 -4 -12 -12 -12h-38c-8 0 -12 4 -12 12
v1066c0 8 4 12 12 12h23c7.33301 0 12 -4 14 -12l12 -94c66 34 132.833 60.167 200.5 78.5s134.167 27.5 199.5 27.5c68.667 0 125.5 -7.83301 170.5 -23.5s80.667 -40.5 107 -74.5s44.666 -78.167 54.999 -132.5s15.5 -119.833 15.5 -196.5v-651c0 -8 -4 -12 -12 -12h-37z
M344.003 1507c-5.33301 6 -3.99902 9 4.00098 9h53c8 0 14.667 -3 20 -9l151 -180h20l151 180c5.33301 6 12 9 20 9h53c7.33301 0 8.66602 -3 3.99902 -9l-199 -228c-5.33301 -6 -12 -9 -20 -9h-38c-8 0 -14.667 3 -20 9z" />
    <glyph glyph-name="Omacron" unicode="&#x14c;" horiz-adv-x="1415" 
d="M709 -20c-88 0 -166.333 11.333 -235 34s-126.334 60.834 -173.001 114.501s-82.167 124.667 -106.5 213s-36.5 198.5 -36.5 330.5v131c0 131.333 12.167 241.333 36.5 330s59.833 159.834 106.5 213.501s104.334 91.834 173.001 114.501s147 34 235 34
c88.667 0 167 -11.333 235 -34s125.167 -60.834 171.5 -114.501s81.5 -124.834 105.5 -213.501s36 -198.667 36 -330v-131c0 -132 -12 -242.167 -36 -330.5s-59.167 -159.333 -105.5 -213s-103.5 -91.834 -171.5 -114.501s-146.333 -34 -235 -34zM709 1430
c-77.333 0 -145.997 -9.66504 -205.997 -28.998s-110.833 -52.5 -152.5 -99.5s-73.334 -110.167 -95.001 -189.5s-32.5 -179 -32.5 -299v-151c0 -120.667 10.833 -220.667 32.5 -300s53.167 -142.5 94.5 -189.5s92.166 -80 152.499 -99s129.166 -28.5 206.499 -28.5
s146 9.5 206 28.5s110.5 52.167 151.5 99.5s72.167 110.666 93.5 189.999s32 179.666 32 300.999v149c0 120 -10.667 219.667 -32 299s-52.5 142.5 -93.5 189.5s-91.5 80.167 -151.5 99.5s-128.667 29 -206 29zM479.003 1659c-8 0 -12 4 -12 12v37c0 8 4 12 12 12h455
c8 0 12 -4 12 -12v-37c0 -8 -4 -12 -12 -12h-455z" />
    <glyph glyph-name="omacron" unicode="&#x14d;" horiz-adv-x="1173" 
d="M587 1028c-72.667 0 -133.5 -8.99805 -182.5 -26.998s-88.333 -45.833 -118 -83.5s-50.834 -85.5 -63.501 -143.5s-19 -127 -19 -207v-65c0 -80 6.16699 -149 18.5 -207s33.166 -105.833 62.499 -143.5s68.5 -65.5 117.5 -83.5s110.5 -27 184.5 -27
c72.667 0 133.5 9 182.5 27s88.333 45.667 118 83s50.834 85.166 63.501 143.499s19 128.166 19 209.499v63c0 79.333 -6.16699 148 -18.5 206s-33.166 105.833 -62.499 143.5s-68.5 65.667 -117.5 84s-110.5 27.5 -184.5 27.5zM587 -19.998
c-79.333 0 -147.166 9.66699 -203.499 29s-102.333 49.833 -138 91.5s-61.834 94.834 -78.501 159.501s-25 142 -25 232v83c0 90 8.33301 167.5 25 232.5s42.834 118.5 78.501 160.5s81.667 72.833 138 92.5s124.166 29.5 203.499 29.5c80 0 148 -9.83301 204 -29.5
s101.833 -50.5 137.5 -92.5s61.667 -95.5 78 -160.5s24.5 -142.5 24.5 -232.5v-83c0 -90 -8.16699 -167.333 -24.5 -232s-42.333 -117.834 -78 -159.501s-81.5 -72.167 -137.5 -91.5s-124 -29 -204 -29zM339 1352c-8 0 -12 4 -12 12v37c0 8 4 12 12 12h455c8 0 12 -4 12 -12
v-37c0 -8 -4 -12 -12 -12h-455z" />
    <glyph glyph-name="Ohungarumlaut" unicode="&#x150;" horiz-adv-x="1415" 
d="M709 -20c-88 0 -166.333 11.333 -235 34s-126.334 60.834 -173.001 114.501s-82.167 124.667 -106.5 213s-36.5 198.5 -36.5 330.5v131c0 131.333 12.167 241.333 36.5 330s59.833 159.834 106.5 213.501s104.334 91.834 173.001 114.501s147 34 235 34
c88.667 0 167 -11.333 235 -34s125.167 -60.834 171.5 -114.501s81.5 -124.834 105.5 -213.501s36 -198.667 36 -330v-131c0 -132 -12 -242.167 -36 -330.5s-59.167 -159.333 -105.5 -213s-103.5 -91.834 -171.5 -114.501s-146.333 -34 -235 -34zM709 1430
c-77.333 0 -145.997 -9.66504 -205.997 -28.998s-110.833 -52.5 -152.5 -99.5s-73.334 -110.167 -95.001 -189.5s-32.5 -179 -32.5 -299v-151c0 -120.667 10.833 -220.667 32.5 -300s53.167 -142.5 94.5 -189.5s92.166 -80 152.499 -99s129.166 -28.5 206.499 -28.5
s146 9.5 206 28.5s110.5 52.167 151.5 99.5s72.167 110.666 93.5 189.999s32 179.666 32 300.999v149c0 120 -10.667 219.667 -32 299s-52.5 142.5 -93.5 189.5s-91.5 80.167 -151.5 99.5s-128.667 29 -206 29zM473.003 1608c-7.33301 0 -8.33301 2.66699 -3 8l186 178
c6 5.33301 13 8 21 8h71c7.33301 0 8.33301 -2.66699 3 -8l-205 -178c-6 -5.33301 -13 -8 -21 -8h-52zM754.003 1608c-7.33301 0 -8.33301 2.66699 -3 8l196 178c6 5.33301 13 8 21 8h66c7.33301 0 8.33301 -2.66699 3 -8l-204 -178c-6 -5.33301 -13 -8 -21 -8h-58z" />
    <glyph glyph-name="ohungarumlaut" unicode="&#x151;" horiz-adv-x="1173" 
d="M587 1028c-72.667 0 -133.5 -8.99805 -182.5 -26.998s-88.333 -45.833 -118 -83.5s-50.834 -85.5 -63.501 -143.5s-19 -127 -19 -207v-65c0 -80 6.16699 -149 18.5 -207s33.166 -105.833 62.499 -143.5s68.5 -65.5 117.5 -83.5s110.5 -27 184.5 -27
c72.667 0 133.5 9 182.5 27s88.333 45.667 118 83s50.834 85.166 63.501 143.499s19 128.166 19 209.499v63c0 79.333 -6.16699 148 -18.5 206s-33.166 105.833 -62.499 143.5s-68.5 65.667 -117.5 84s-110.5 27.5 -184.5 27.5zM587 -19.998
c-79.333 0 -147.166 9.66699 -203.499 29s-102.333 49.833 -138 91.5s-61.834 94.834 -78.501 159.501s-25 142 -25 232v83c0 90 8.33301 167.5 25 232.5s42.834 118.5 78.501 160.5s81.667 72.833 138 92.5s124.166 29.5 203.499 29.5c80 0 148 -9.83301 204 -29.5
s101.833 -50.5 137.5 -92.5s61.667 -95.5 78 -160.5s24.5 -142.5 24.5 -232.5v-83c0 -90 -8.16699 -167.333 -24.5 -232s-42.333 -117.834 -78 -159.501s-81.5 -72.167 -137.5 -91.5s-124 -29 -204 -29zM348 1260c-8 0 -9.33203 3 -3.99902 9l202 238c5.33301 6 12 9 20 9
h60c7.33301 0 8.66602 -3 3.99902 -9l-217 -238c-5.33301 -6 -12 -9 -20 -9h-45zM635.001 1260c-8 0 -9.33203 3 -3.99902 9l202 238c5.33301 6 12 9 20 9h60c7.33301 0 8.66602 -3 3.99902 -9l-217 -238c-5.33301 -6 -12 -9 -20 -9h-45z" />
    </font>
</defs>
</svg>
