<?xml version="1.0" standalone="no"?>
<!DOCTYPE svg PUBLIC "-//W3C//DTD SVG 1.1//EN" "http://www.w3.org/Graphics/SVG/1.1/DTD/svg11.dtd" >
<svg>
<metadata>
Created by FontForge 20090914 at Wed Apr  8 22:56:24 2015
 By www-data
</metadata>
<defs>
<font id="SkodaPro-ExtraBoldItalic" horiz-adv-x="1243" >
  <font-face 
    font-family="Skoda Pro ExtraBold"
    font-weight="800"
    font-style="italic"
    font-stretch="normal"
    units-per-em="2048"
    panose-1="2 0 0 0 0 0 0 0 0 0"
    ascent="1638"
    descent="-410"
    x-height="1071"
    cap-height="1475"
    bbox="-898.033 -481 2869.78 1950"
    underline-thickness="102"
    underline-position="-103"
    slope="-10"
    unicode-range="U+0020-U+FB02"
  />
<missing-glyph horiz-adv-x="0" 
 />
    <glyph glyph-name=".notdef" horiz-adv-x="0" 
 />
    <glyph glyph-name="space" unicode=" " horiz-adv-x="508" 
 />
    <glyph glyph-name="exclam" unicode="!" horiz-adv-x="632" 
d="M181 614c-13.333 0 -18.999 6.66699 -16.999 20l131 821c2 14 9.66699 21.333 23 22l320 37c13.333 0.666992 18.666 -5.33301 15.999 -18l-178 -862c-2.66699 -13.333 -10.667 -20 -24 -20h-271zM48.001 0c-13.333 0 -18.666 6.66699 -15.999 20l55 300
c2.66699 14 10.667 21.333 24 22l298 35c13.333 0.666992 18.666 -5.33301 15.999 -18l-62 -339c-2.66699 -13.333 -10.667 -20 -24 -20h-291z" />
    <glyph glyph-name="quotedbl" unicode="&#x22;" horiz-adv-x="1002" 
d="M175 889c-13.333 0 -18.666 6.66699 -15.999 20l100 546c1.33301 7.33301 3.83301 12.5 7.5 15.5s9.16699 5.16699 16.5 6.5l280 26c13.333 0.666992 18.666 -5.33301 15.999 -18l-107 -576c-2.66699 -13.333 -10.667 -20 -24 -20h-273zM639 889
c-13.333 0 -18.666 6.66699 -15.999 20l101 546c1.33301 7.33301 3.83301 12.5 7.5 15.5s9.16699 5.16699 16.5 6.5l279 26c13.333 0.666992 18.666 -5.33301 15.999 -18l-106 -576c-2.66699 -13.333 -10.667 -20 -24 -20h-274z" />
    <glyph glyph-name="numbersign" unicode="#" horiz-adv-x="1485" 
d="M624 0c-13.333 0 -18 6.33301 -14 19l86 257h-176l-86 -257c-3.33301 -12.667 -12 -19 -26 -19h-294c-13.333 -0 -18 6.33301 -14 19l86 257h-166c-14 0 -19 6.33301 -15 19l72 284c3.33301 12.667 11.666 19 24.999 19h192l94 281h-186c-14 0 -19 6.33301 -15 19l70 281
c3.33301 12.667 11.666 19 24.999 19h213l87 258c3.33301 12.667 12 19 26 19h292c13.333 0 18 -6.33301 14 -19l-87 -258h176l87 258c3.33301 12.667 12 19 26 19h294c13.333 0 18 -6.33301 14 -19l-87 -258h167c14 0 19 -6.33301 15 -19l-70 -281
c-3.33301 -12.667 -11.666 -19 -24.999 -19h-194l-94 -281h187c14 0 19 -6.33301 15 -19l-71 -284c-3.33301 -12.667 -11.666 -19 -24.999 -19h-214l-86 -257c-3.33301 -12.667 -12 -19 -26 -19h-292zM721 879l-94 -281h176l94 281h-176z" />
    <glyph glyph-name="dollar" unicode="$" horiz-adv-x="1111" 
d="M262 -215c-13.333 0 -18.6641 6.66406 -15.9971 19.9971l35 196c-43.333 2 -85.333 5.16699 -126 9.5s-79.667 10.5 -117 18.5c-13.333 2.66699 -17.666 10.334 -12.999 23.001l87 251c4.66699 12.667 13.667 17.667 27 15c34 -6 70 -10.5 108 -13.5
s79 -5.16699 123 -6.5l83 318l-88 25c-46 12.667 -83.833 28.834 -113.5 48.501s-53.334 42 -71.001 67s-30 52.333 -37 82s-10.5 60.834 -10.5 93.501c0 87.333 9.16699 162.833 27.5 226.5s47 117 86 160s88.667 76.5 149 100.5s132.5 40 216.5 48l37 203
c2.66699 13.333 10.667 20 24 20h218c13.333 0 18.666 -6.66699 15.999 -20l-36 -197c43.333 -2 84.666 -5 123.999 -9s76.333 -9.33301 111 -16c13.333 -2.66699 17.666 -10.334 12.999 -23.001l-86 -243c-4.66699 -12.667 -13.667 -18.667 -27 -18
c-40.667 2.66699 -78.334 5 -113.001 7s-72 3.66699 -112 5l-81 -317l88 -25c46 -13.333 83.833 -29.833 113.5 -49.5s53.334 -42 71.001 -67s30 -52 37 -81s10.5 -59.5 10.5 -91.5c0 -88 -9.16699 -163.833 -27.5 -227.5s-47 -117.167 -86 -160.5
s-88.667 -77.166 -149 -101.499s-132.833 -40.5 -217.5 -48.5l-36 -202c-2.66699 -13.333 -10.667 -20 -24 -20h-218zM574.002 299.997c26 2 47.666 5.99805 64.999 11.998s31.333 15.167 42 27.5s18.334 28.5 23.001 48.5s7 45 7 75c0 20.667 -6.16699 38.834 -18.5 54.501
s-35.833 30.834 -70.5 45.501zM579.001 1175c-26 -2.66699 -47.832 -7.16895 -65.499 -13.502s-31.834 -15.666 -42.501 -27.999s-18.167 -28.333 -22.5 -48s-6.5 -44.167 -6.5 -73.5c0 -21.333 6 -39.666 18 -54.999s35.333 -30.333 70 -45z" />
    <glyph glyph-name="percent" unicode="%" horiz-adv-x="2135" 
d="M429 590c-55.333 0 -104.832 6.83301 -148.499 20.5s-79.5 36.334 -107.5 68.001s-46.667 73.334 -56 125.001s-7 115.5 7 191.5l20 107c14.667 76.667 36.167 140.834 64.5 192.501s62.166 93 101.499 124s83.333 53.167 132 66.5s101 20 157 20
c55.333 0 104.833 -6.66699 148.5 -20s79.167 -35.5 106.5 -66.5s45.333 -72.333 54 -124s6 -115.834 -8 -192.501l-18 -107c-14.667 -76 -36 -139.833 -64 -191.5s-61.5 -93.334 -100.5 -125.001s-82.833 -54.334 -131.5 -68.001s-101 -20.5 -157 -20.5zM550.001 1243
c-33.333 0 -59.5 -9.66699 -78.5 -29s-33.167 -52 -42.5 -98l-24 -135c-8.66699 -42 -7.16699 -74 4.5 -96s34.5 -33 68.5 -33c31.333 0 56.833 11 76.5 33s33.167 54 40.5 96l27 135c8 46 5.5 78.667 -7.5 98s-34.5 29 -64.5 29zM1578 -31c-55.333 0 -104.83 7 -148.497 21
s-79.334 36.833 -107.001 68.5s-46 73.334 -55 125.001s-6.5 115.5 7.5 191.5l18 106c14.667 76.667 36.167 140.834 64.5 192.501s62.166 93.167 101.499 124.5s83.333 53.666 132 66.999s101 20 157 20c55.333 0 104.833 -6.66699 148.5 -20s79.167 -35.666 106.5 -66.999
s45.666 -72.833 54.999 -124.5s7 -115.834 -7 -192.501l-20 -106c-14.667 -76 -36 -139.833 -64 -191.5s-61.5 -93.334 -100.5 -125.001s-82.833 -54.5 -131.5 -68.5s-101 -21 -157 -21zM1699 623c-33.333 0 -59.499 -9.66699 -78.499 -29s-32.5 -52 -40.5 -98l-27 -136
c-7.33301 -42 -5.33301 -74 6 -96s34 -33 68 -33c31.333 0 57 11 77 33s34 54 42 96l25 136c8 46 5.66699 78.667 -7 98s-34.334 29 -65.001 29zM375.005 0c-14 0 -16.667 5.33301 -8 16l1033 1443c8 10.667 18.667 16 32 16h355c14 0 16.667 -5.33301 8 -16l-1032 -1443
c-8 -10.667 -18.667 -16 -32 -16h-356z" />
    <glyph glyph-name="ampersand" unicode="&#x26;" horiz-adv-x="1422" 
d="M949 0c-7.33301 0 -13.332 1.16895 -17.999 3.50195s-9 6.83301 -13 13.5l-51 80c-70.667 -40 -145.834 -71.333 -225.501 -94s-164.834 -34 -255.501 -34c-130.667 0 -228.5 27.167 -293.5 81.5s-97.5 132.5 -97.5 234.5c0 58 6.33301 109.5 19 154.5
s34.667 87.5 66 127.5s74 80 128 120s122 84 204 132c-30.667 55.333 -53.334 105.666 -68.001 150.999s-22 91 -22 137c0 63.333 10.667 119.666 32 168.999s53 91 95 125s93.667 59.833 155 77.5s132 26.5 212 26.5c58.667 0 110.334 -6.16699 155.001 -18.5
s82 -29.666 112 -51.999s52.5 -49.5 67.5 -81.5s22.5 -67.667 22.5 -107c0 -52 -6.83301 -99.5 -20.5 -142.5s-34.5 -83.5 -62.5 -121.5s-63.5 -74.667 -106.5 -110s-93.833 -71.333 -152.5 -108l139 -221c48 57.333 88.333 123 121 197c3.33301 7.33301 7 12.166 11 14.499
s9.66699 3.5 17 3.5h248c13.333 0 18 -6.33301 14 -19c-27.333 -78.667 -62.666 -155.167 -105.999 -229.5s-94.333 -143.5 -153 -207.5l179 -285c7.33301 -11.333 4.33301 -17 -9 -17h-343zM347.001 365.002c0 -20 3.66895 -36.333 11.002 -49
s17.166 -22.334 29.499 -29.001s26.666 -11.167 42.999 -13.5s33.5 -3.5 51.5 -3.5c32 0 67.833 5.5 107.5 16.5s81.5 27.833 125.5 50.5l-166 261c-40 -25.333 -73.167 -48.166 -99.5 -68.499s-47 -39.5 -62 -57.5s-25.5 -35.667 -31.5 -53s-9 -35.333 -9 -54z
M767.003 1239c-47.333 0 -81 -8.83398 -101 -26.501s-30 -44.5 -30 -80.5c0 -24.667 5.33301 -49.667 16 -75s24 -51 40 -77c28.667 18 53.167 34.5 73.5 49.5s37 30.333 50 46s22.333 31.834 28 48.501s8.5 35.667 8.5 57c0 38.667 -28.333 58 -85 58z" />
    <glyph glyph-name="quotesingle" unicode="'" horiz-adv-x="537" 
d="M175 889c-13.333 0 -18.666 6.66699 -15.999 20l100 546c1.33301 7.33301 3.83301 12.5 7.5 15.5s9.16699 5.16699 16.5 6.5l280 26c13.333 0.666992 18.666 -5.33301 15.999 -18l-107 -576c-2.66699 -13.333 -10.667 -20 -24 -20h-273z" />
    <glyph glyph-name="parenleft" unicode="(" horiz-adv-x="708" 
d="M428 522c-15.333 -78.667 -25.834 -157.5 -31.501 -236.5s-6.66699 -156.333 -3 -232s11.667 -149.167 24 -220.5s29.5 -139 51.5 -203c4.66699 -12.667 0.333984 -19 -12.999 -19h-317c-13.333 0 -22.333 6.33301 -27 19c-20 56.667 -36.5 117.5 -49.5 182.5
s-22 133.5 -27 205.5s-5.16699 147.5 -0.5 226.5s15 161.5 31 247.5l18 102c16 86 36.333 168.667 61 248s52.834 155.166 84.501 227.499s66.167 141 103.5 206s76.666 126.167 117.999 183.5c8 10.667 18.667 16 32 16h317c14 0 16.667 -5.33301 8 -16
c-45.333 -64 -87.5 -131.833 -126.5 -203.5s-74.167 -145.5 -105.5 -221.5s-59 -153.667 -83 -233s-43.333 -158.666 -58 -237.999l-7 -41v0z" />
    <glyph glyph-name="parenright" unicode=")" horiz-adv-x="713" 
d="M255 563c14.667 78.667 25.001 157.5 31.001 236.5s7.16699 156.333 3.5 232s-11.667 149.167 -24 220.5s-29.5 139 -51.5 203c-4.66699 12.667 -0.333984 19 12.999 19h317c13.333 0 22.333 -6.33301 27 -19c20 -57.333 36.5 -118.333 49.5 -183s22 -133 27 -205
s5.16699 -147.5 0.5 -226.5s-15 -161.5 -31 -247.5l-18 -102c-16 -86 -36.333 -168.667 -61 -248s-52.834 -155.166 -84.501 -227.499s-66.167 -141 -103.5 -206s-76.666 -126.167 -117.999 -183.5c-8 -10.667 -18.667 -16 -32 -16h-317c-14 0 -16.667 5.33301 -8 16
c45.333 64 87.5 131.833 126.5 203.5s74.167 145.5 105.5 221.5s58.833 153.667 82.5 233s43.167 158.666 58.5 237.999l7 41v0z" />
    <glyph glyph-name="asterisk" unicode="*" horiz-adv-x="1015" 
d="M188 1253c-11.333 7.33301 -13 16.333 -5 27l142 185c8 10.667 17.667 12.334 29 5.00098l160 -106l40 213c2.66699 13.333 10.667 20 24 20h208c13.333 0 18.666 -6.66699 15.999 -20l-39 -213l203 108c6.66699 3.33301 11.834 4.33301 15.501 3
s6.83398 -5.66602 9.50098 -12.999l70 -179c2.66699 -7.33301 3.33398 -13 2.00098 -17s-5.66602 -7.66699 -12.999 -11l-204 -108l162 -106c11.333 -7.33301 13 -16.333 5 -27l-140 -185c-8 -10.667 -17.667 -12.334 -29 -5.00098l-161 105l-39 -213
c-2.66699 -13.333 -10.667 -20 -24 -20h-210c-13.333 0 -18.666 6.66699 -15.999 20l39 213l-203 -107c-6.66699 -3.33301 -11.834 -4.33301 -15.501 -3s-6.83398 5.66602 -9.50098 12.999l-70 179c-2.66699 7.33301 -3.33398 13 -2.00098 17s5.66602 7.66699 12.999 11
l204 108z" />
    <glyph glyph-name="plus" unicode="+" horiz-adv-x="1107" 
d="M80 604c-13.333 0 -18.666 6.66699 -15.999 20l52 280c2.66699 13.333 10.667 20 24 20h308l59 320c2.66699 13.333 10.667 20 24 20h279c13.333 0 18.666 -6.66699 15.999 -20l-59 -320h310c13.333 0 18.666 -6.66699 15.999 -20l-52 -280
c-2.66699 -13.333 -10.667 -20 -24 -20h-310l-57 -312c-2.66699 -13.333 -10.667 -20 -24 -20h-279c-13.333 0 -18.666 6.66699 -15.999 20l57 312h-308z" />
    <glyph glyph-name="comma" unicode="," horiz-adv-x="595" 
d="M-83 -266c-13.333 0 -18.001 6.33105 -14.001 18.998l176 568c2.66699 7.33301 5.83398 12.333 9.50098 15s9.16699 4.66699 16.5 6l339 35c12.667 0.666992 16.667 -4.66602 12 -15.999l-265 -609c-3.33301 -7.33301 -7 -12.166 -11 -14.499s-9.66699 -3.5 -17 -3.5
h-246z" />
    <glyph glyph-name="hyphen" unicode="-" horiz-adv-x="762" 
d="M105 403c-13.333 0 -18.666 6.66699 -15.999 20l52 280c2.66699 13.333 10.667 20 24 20h470c13.333 0 18.666 -6.66699 15.999 -20l-52 -280c-2.66699 -13.333 -10.667 -20 -24 -20h-470z" />
    <glyph glyph-name="period" unicode="." horiz-adv-x="561" 
d="M22 0c-13.333 0 -18.666 6.66699 -15.999 20l55 300c2.66699 14 10.667 21.333 24 22l298 35c13.333 0.666992 18.666 -5.33301 15.999 -18l-61 -339c-2.66699 -13.333 -10.667 -20 -24 -20h-292z" />
    <glyph glyph-name="slash" unicode="/" horiz-adv-x="890" 
d="M-37 0c-13.333 0 -17.333 6 -12 18l676 1520c3.33301 7.33301 7 12.166 11 14.499s9.66699 3.5 17 3.5h335c12.667 0 16.667 -6 12 -18l-677 -1520c-3.33301 -7.33301 -7 -12.166 -11 -14.499s-9.66699 -3.5 -17 -3.5h-334z" />
    <glyph glyph-name="zero" unicode="0" horiz-adv-x="1297" 
d="M527 -31c-56.667 0 -108.83 3 -156.497 9s-90.167 17.167 -127.5 33.5s-68.833 39.333 -94.5 69s-44.834 68 -57.501 115s-18.5 104 -17.5 171s10.167 146.167 27.5 237.5l50 268c16.667 91.333 36.667 170.333 60 237s50 123.5 80 170.5s63.167 85.167 99.5 114.5
s76.166 52.166 119.499 68.499s90 27.5 140 33.5s103.333 9 160 9c57.333 0 109.833 -3 157.5 -9s90 -17.167 127 -33.5s68.333 -39.166 94 -68.499s44.667 -67.5 57 -114.5s17.666 -103.833 15.999 -170.5s-10.834 -145.667 -27.501 -237l-49 -268
c-17.333 -91.333 -37.666 -170.5 -60.999 -237.5s-49.833 -124 -79.5 -171s-62.667 -85.333 -99 -115s-76 -52.667 -119 -69s-89.5 -27.5 -139.5 -33.5s-103.333 -9 -160 -9zM747.004 1167c-34 0 -64 -4.33301 -90 -13s-48.833 -24.5 -68.5 -47.5
s-36.834 -54.833 -51.501 -95.5s-28 -93 -40 -157l-43 -231c-12 -64 -18 -116.5 -18 -157.5s5.66699 -73.167 17 -96.5s28.333 -39.5 51 -48.5s51 -13.5 85 -13.5c32.667 0 61.834 4.5 87.501 13.5s48.334 25.167 68.001 48.5s37 55.5 52 96.5s28.5 93.5 40.5 157.5l43 231
c12 64 18 116.333 18 157s-5.66699 72.5 -17 95.5s-28.333 38.833 -51 47.5s-50.334 13 -83.001 13z" />
    <glyph glyph-name="one" unicode="1" horiz-adv-x="852" 
d="M155 1074c-12.667 -4 -19 1.00098 -19 15.001l8 280c0 13.333 6.33301 21.666 19 24.999l327 76c13.333 3.33301 26.333 5 39 5h310c13.333 0 18.666 -6.66699 15.999 -20l-266 -1435c-2.66699 -13.333 -10.667 -20 -24 -20h-311c-13.333 0 -18.666 6.66699 -15.999 20
l209 1122z" />
    <glyph glyph-name="two" unicode="2" horiz-adv-x="1152" 
d="M-8 0c-13.333 0 -18.6631 6.66992 -15.9961 20.0029l29 162c9.33301 49.333 20 93.833 32 133.5s26.167 75.834 42.5 108.501s35.166 63 56.499 91s45.666 55 72.999 81s58 51.5 92 76.5s72 51.5 114 79.5l221 145c26 16.667 47.167 32.167 63.5 46.5
s29.333 28.166 39 41.499s16.167 26.666 19.5 39.999s5 28 5 44c0 34 -14.833 58.5 -44.5 73.5s-78.5 22.5 -146.5 22.5c-16 0 -35.833 -0.333008 -59.5 -1s-49.5 -1.83398 -77.5 -3.50098s-57 -4 -87 -7s-59.667 -6.83301 -89 -11.5c-13.333 -2 -20 3.66699 -20 17l6 275
c0 13.333 6.33301 21.666 19 24.999c36 9.33301 72.5 17 109.5 23s73.167 10.667 108.5 14s69 5.66602 101 6.99902s61.333 2 88 2c93.333 0 171.166 -8.16699 233.499 -24.5s112.166 -39 149.499 -68s63.666 -63.167 78.999 -102.5s23 -82 23 -128
c0 -51.333 -4.33301 -98.666 -13 -141.999s-24.5 -85.166 -47.5 -125.499s-54.667 -80.333 -95 -120s-92.166 -81.834 -155.499 -126.501l-158 -111l-123.5 -88c-30.333 -22.667 -53.666 -42 -69.999 -58s-27.5 -30 -33.5 -42s-10.333 -25.667 -13 -41h521
c13.333 0 18.666 -6.66699 15.999 -20l-53 -288c-2.66699 -13.333 -10.667 -20 -24 -20h-915z" />
    <glyph glyph-name="three" unicode="3" horiz-adv-x="1130" 
d="M368 -31c-73.333 0 -142.833 2.83496 -208.5 8.50195s-123.5 12.834 -173.5 21.501c-14 2 -19 9.33301 -15 22l70 287c2 7.33301 4.83301 12.333 8.5 15s9.16699 3.66699 16.5 3c62 -6.66699 120.5 -10.5 175.5 -11.5s106.5 -1.5 154.5 -1.5
c73.333 0 129.333 9.66699 168 29s62.667 54 72 104l4 27c3.33301 20 4 38.167 2 54.5s-8.5 30.333 -19.5 42s-27.5 20.667 -49.5 27s-51 9.5 -87 9.5h-209c-13.333 0 -18.666 6.66699 -15.999 20l49 278c2.66699 13.333 10.667 20 24 20h202c38 0 69.5 2.66699 94.5 8
s45.5 13 61.5 23s27.833 22.167 35.5 36.5s13.167 30.5 16.5 48.5l5 19c12 68 -53 102 -195 102c-28 0 -55.167 -0.333008 -81.5 -1s-52.833 -1.5 -79.5 -2.5s-53.667 -2.33301 -81 -4l-86 -5.5c-12.667 -0.666992 -18.667 5.66602 -18 18.999l35 286
c0.666992 13.333 8 21 22 23c51.333 7.33301 109 14 173 20s132 9 204 9c86.667 0 162.667 -7 228 -21s118.333 -36.333 159 -67s68.667 -70.334 84 -119.001s16.666 -107.334 3.99902 -176.001l-6 -28c-15.333 -82.667 -48 -150.834 -98 -204.501
s-116.333 -92.167 -199 -115.5c66.667 -28 116.5 -70.167 149.5 -126.5s41.833 -124.833 26.5 -205.5l-6 -36c-16 -86 -41 -157 -75 -213s-76.833 -100.667 -128.5 -134s-112 -56.666 -181 -69.999s-146.167 -20 -231.5 -20z" />
    <glyph glyph-name="four" unicode="4" horiz-adv-x="1260" 
d="M1 258c-13.333 0 -18.667 6.66699 -16 20l53 292c2.66699 12.667 8.33398 24.334 17.001 35.001l756 855c5.33301 5.33301 10.333 9.16602 15 11.499s10.667 3.5 18 3.5h337c13.333 0 18.666 -6.66699 15.999 -20l-170 -910h130c13.333 0 18.666 -6.66699 15.999 -20
l-46 -247c-2.66699 -13.333 -10.667 -20 -24 -20h-129l-43 -238c-2.66699 -13.333 -10.667 -20 -24 -20h-311c-13.333 0 -18.666 6.66699 -15.999 20l44 238h-623zM387.999 545h289l84 446h-17l-354 -432z" />
    <glyph glyph-name="five" unicode="5" horiz-adv-x="1130" 
d="M342 -31c-132.667 0 -251.998 15.0029 -357.998 45.0029c-12.667 3.33301 -17 11.666 -13 24.999l97 284c3.33301 12.667 12 17.667 26 15c25.333 -4.66699 52.333 -8.83398 81 -12.501s56.5 -6.83398 83.5 -9.50098s52.167 -4.83398 75.5 -6.50098s42.333 -2.5 57 -2.5
c49.333 0 90 3.83301 122 11.5s57.833 18.5 77.5 32.5s34.334 31.167 44.001 51.5s17.167 43.166 22.5 68.499l2 14c6 32.667 7.16699 60.667 3.5 84s-14 42.333 -31 57s-41.5 25.334 -73.5 32.001s-73.333 10 -124 10c-20 0 -43.333 -0.833008 -70 -2.5
s-53.334 -3.66699 -80.001 -6s-51.667 -4.66602 -75 -6.99902l-55 -5.5c-12.667 -0.666992 -17.667 5 -15 17l39 217c1.33301 5.33301 2.83301 11.833 4.5 19.5s3.16699 14.167 4.5 19.5l154 536c3.33301 12.667 11.666 19 24.999 19h804
c13.333 0 17.666 -6.33301 12.999 -19l-103 -290c-4.66699 -12.667 -13.667 -19 -27 -19h-476l-53 -191h39c80 0 151.5 -7.33301 214.5 -22s114.667 -40 155 -76s67.833 -84.167 82.5 -144.5s13.667 -136.5 -3 -228.5l-2 -14c-17.333 -91.333 -44.333 -168.833 -81 -232.5
s-83 -115.5 -139 -155.5s-121.333 -69 -196 -87s-158.667 -27 -252 -27z" />
    <glyph glyph-name="six" unicode="6" horiz-adv-x="1239" 
d="M513 -31c-80 0 -150.667 11.332 -212 33.999s-110.833 59.334 -148.5 110.001s-62 116.167 -73 196.5s-5.83301 178.5 15.5 294.5l35 193c24 129.333 58.167 239 102.5 329s99 163 164 219s139.833 96.667 224.5 122s179.667 38 285 38c48 0 99.5 -3.16699 154.5 -9.5
s111.833 -18.166 170.5 -35.499c12.667 -3.33301 16.667 -11.666 12 -24.999l-96 -273c-4.66699 -12.667 -13.667 -17.667 -27 -15c-23.333 4 -47.333 7.16699 -72 9.5s-49 4.33301 -73 6s-47 2.83398 -69 3.50098s-41.667 1 -59 1c-45.333 0 -85.833 -3 -121.5 -9
s-67 -17.333 -94 -34s-50.333 -40.167 -70 -70.5s-36.167 -69.5 -49.5 -117.5c32.667 5.33301 65.334 10 98.001 14s70 6 112 6c68 0 131.5 -7.16699 190.5 -21.5s108.667 -38.5 149 -72.5s69.166 -79.167 86.499 -135.5s18 -126.5 2 -210.5l-4 -24
c-15.333 -82.667 -40.5 -156.334 -75.5 -221.001s-79.167 -119.334 -132.5 -164.001s-115.5 -78.834 -186.5 -102.501s-150.5 -35.5 -238.5 -35.5zM796 505.999c5.33301 29.333 4.5 53.5029 -2.5 72.5029s-18.5 34 -34.5 45s-35.833 18.667 -59.5 23
s-48.834 6.5 -75.501 6.5c-21.333 0 -47.166 -1.83301 -77.499 -5.5s-61.5 -7.83398 -93.5 -12.501l-6 -31c-12 -62.667 -17.333 -113.334 -16 -152.001s8.16602 -68.834 20.499 -90.501s29.833 -36.167 52.5 -43.5s49.667 -11 81 -11c26.667 0 51.167 2.66699 73.5 8
s42.333 14.5 60 27.5s32.834 30.833 45.501 53.5s22 51 28 85z" />
    <glyph glyph-name="seven" unicode="7" horiz-adv-x="1094" 
d="M8 0c-13.333 0 -16.332 5.33301 -8.99902 16l775 1131h-594c-14 0 -20 6.66699 -18 20l26 288c1.33301 7.33301 3.5 12.5 6.5 15.5s8.16699 4.5 15.5 4.5h972c13.333 0 18.666 -6.66699 15.999 -20l-51 -286c-1.33301 -7.33301 -3.33301 -13.833 -6 -19.5
s-5.66699 -11.5 -9 -17.5l-726 -1115c-4 -6.66699 -8.33301 -11.167 -13 -13.5s-10.667 -3.5 -18 -3.5h-367z" />
    <glyph glyph-name="eight" unicode="8" horiz-adv-x="1276" 
d="M518 -31c-83.333 0 -157.836 6.33301 -223.503 19s-119.667 35 -162 67s-71.5 75.833 -87.5 131.5s-16 126.5 0 212.5l8 41c4.66699 26.667 14.5 55.167 29.5 85.5s34.833 59.833 59.5 88.5s54 55.5 88 80.5s72.667 45.5 116 61.5c-30 14 -54.333 32.667 -73 56
s-32.667 49 -42 77s-14.666 57.5 -15.999 88.5s0.666992 61.5 6 91.5l8 35c14 74.667 36.5 137.5 67.5 188.5s70.5 92.333 118.5 124s104.333 54.334 169 68.001s137.667 20.5 219 20.5c80 0 149.667 -6.83301 209 -20.5s107.333 -36.334 144 -68.001s61.167 -73 73.5 -124
s11.5 -113.833 -2.5 -188.5l-6 -35c-6 -30 -15.167 -60.5 -27.5 -91.5s-28.333 -60.5 -48 -88.5s-43.167 -53.667 -70.5 -77s-58.666 -42 -93.999 -56c36.667 -16 67.334 -36.5 92.001 -61.5s44 -51.833 58 -80.5s23 -58.167 27 -88.5s3.66699 -58.833 -1 -85.5l-8 -41
c-16 -86 -42.333 -156.833 -79 -212.5s-82 -99.5 -136 -131.5s-116.167 -54.333 -186.5 -67s-146.833 -19 -229.5 -19zM538.997 1049c-2.66699 -15.333 -3.66895 -31 -3.00195 -47s5.33398 -30.5 14.001 -43.5s22.334 -23.5 41.001 -31.5s45 -12 79 -12h45
c32 0 58.5 3.5 79.5 10.5s38.333 16.333 52 28s24 24.667 31 39s12.167 28.833 15.5 43.5l4.5 18.5l4.5 18.5l-3 -10c4.66699 25.333 5.83398 46.5 3.50098 63.5s-9.33301 30.5 -21 40.5s-28.667 17 -51 21s-50.833 6 -85.5 6c-34 0 -62.5 -1.83301 -85.5 -5.5
s-42.167 -10 -57.5 -19s-27.333 -21.167 -36 -36.5s-15.334 -34.333 -20.001 -57l-4.5 -16.5l-4.5 -16.5zM609.995 592c-41.333 0 -75.333 -5.5 -102 -16.5s-48 -24 -64 -39s-27.5 -30.5 -34.5 -46.5s-11.167 -29 -12.5 -39l-4 -21
c-5.33301 -28 -6.16602 -51.5 -2.49902 -70.5s12.667 -34.333 27 -46s34.333 -20 60 -25s58.167 -7.5 97.5 -7.5s73 2.5 101 7.5s51.333 13.333 70 25s33.167 27 43.5 46s18.166 42.5 23.499 70.5l4 21c1.33301 10 1.33301 23 0 39s-7.16602 31.5 -17.499 46.5
s-26.833 28 -49.5 39s-54.334 16.5 -95.001 16.5h-45z" />
    <glyph glyph-name="nine" unicode="9" horiz-adv-x="1248" 
d="M383 -31c-50 0 -104.5 3.66406 -163.5 10.9971s-119.833 19.666 -182.5 36.999c-12.667 3.33301 -16.667 11.666 -12 24.999l97 281c4.66699 12.667 13.334 17.334 26.001 14.001c24.667 -5.33301 50.334 -9.83301 77.001 -13.5s53 -6.83398 79 -9.50098s51 -4.5 75 -5.5
s45 -1.5 63 -1.5c44.667 0 84.5 2.83301 119.5 8.5s66 16.5 93 32.5s50.333 38.5 70 67.5s36.5 66.5 50.5 112.5c-32 -5.33301 -64.5 -10 -97.5 -14s-70.5 -6 -112.5 -6c-74 0 -140.833 7.33301 -200.5 22s-108.834 39.334 -147.501 74.001s-65.334 80.834 -80.001 138.501
s-14 129.5 2 215.5l4 25c15.333 82.667 39.5 156.334 72.5 221.001s75.5 119.334 127.5 164.001s113.833 78.667 185.5 102s154.167 35 247.5 35c80 0 150.833 -11.5 212.5 -34.5s111.167 -60.167 148.5 -111.5s61.333 -117.833 72 -199.5s5 -181.5 -17 -299.5l-33 -182
c-24 -129.333 -58.167 -239 -102.5 -329s-99 -163.167 -164 -219.5s-140 -97.166 -225 -122.499s-179.833 -38 -284.5 -38zM494 968.997c-6 -31.333 -6.83008 -57.168 -2.49707 -77.501s13.666 -36.5 27.999 -48.5s33.666 -20.333 57.999 -25s53.166 -7 86.499 -7
c21.333 0 46.833 0.833008 76.5 2.5s60.5 3.83398 92.5 6.50098l9 50c12 63.333 17.333 114.5 16 153.5s-8.16602 69.167 -20.499 90.5s-29.833 35.5 -52.5 42.5s-49.667 10.5 -81 10.5c-30.667 0 -57.5 -2.66699 -80.5 -8s-42.833 -14.5 -59.5 -27.5
s-30.334 -30.833 -41.001 -53.5s-19 -51 -25 -85z" />
    <glyph glyph-name="colon" unicode=":" horiz-adv-x="622" 
d="M46 0c-13.333 0 -18.666 6.66699 -15.999 20l55 300c2.66699 14 10.667 21.333 24 22l298 35c13.333 0.666992 18.666 -5.33301 15.999 -18l-61 -339c-2.66699 -13.333 -10.667 -20 -24 -20h-292zM171 676c-13.333 0 -18.666 6.66699 -15.999 20l55 300
c2.66699 14 10.667 21.333 24 22l298 35c13.333 0.666992 18.666 -5.33301 15.999 -18l-61 -339c-2.66699 -13.333 -10.667 -20 -24 -20h-292z" />
    <glyph glyph-name="semicolon" unicode=";" horiz-adv-x="628" 
d="M-54 -266c-13.333 0 -18.001 6.33105 -14.001 18.998l176 568c2.66699 7.33301 5.83398 12.333 9.50098 15s9.16699 4.66699 16.5 6l339 35c12.667 0.666992 16.667 -4.66602 12 -15.999l-265 -609c-3.33301 -7.33301 -7 -12.166 -11 -14.499s-9.66699 -3.5 -17 -3.5
h-246zM194.999 675.998c-13.333 0 -18.666 6.66699 -15.999 20l55 300c2.66699 14 10.667 21.333 24 22l298 35c13.333 0.666992 18.666 -5.33301 15.999 -18l-61 -339c-2.66699 -13.333 -10.667 -20 -24 -20h-292z" />
    <glyph glyph-name="less" unicode="&#x3c;" horiz-adv-x="1017" 
d="M70 571c-11.333 7.33301 -15.6699 17.6689 -13.0029 31.002l54 293c1.33301 7.33301 3.5 13.166 6.5 17.499s8.16699 8.16602 15.5 11.499l824 415c12 6 18.333 2.33301 19 -11l20 -286c0.666992 -7.33301 -0.166016 -13 -2.49902 -17s-7.16602 -7.66699 -14.499 -11
l-600 -266l498 -266c12 -6.66699 15.333 -15.667 10 -27l-125 -290c-5.33301 -12 -13.666 -14.333 -24.999 -7z" />
    <glyph glyph-name="equal" unicode="=" horiz-adv-x="1214" 
d="M108 356c-13.333 0 -18.666 6.66699 -15.999 20l52 280c2.66699 13.333 10.667 20 24 20h896c13.333 0 18.666 -6.66699 15.999 -20l-52 -280c-2.66699 -13.333 -10.667 -20 -24 -20h-896zM213 924c-13.333 0 -18.666 6.66699 -15.999 20l51 279
c2.66699 13.333 10.667 20 24 20h896c13.333 0 18.666 -6.66699 15.999 -20l-51 -279c-2.66699 -13.333 -10.667 -20 -24 -20h-896z" />
    <glyph glyph-name="greater" unicode="&#x3e;" horiz-adv-x="1016" 
d="M991 924c11.333 -7.33301 15.6699 -17.6689 13.0029 -31.002l-54 -293c-1.33301 -7.33301 -3.5 -13.166 -6.5 -17.499s-8.16699 -8.16602 -15.5 -11.499l-824 -415c-12 -6 -18.333 -2.33301 -19 11l-20 286c-0.666992 7.33301 0.166016 13 2.49902 17
s7.16602 7.66699 14.499 11l600 266l-498 266c-12 6.66699 -15.333 15.667 -10 27l125 290c5.33301 12 13.666 14.333 24.999 7z" />
    <glyph glyph-name="question" unicode="?" horiz-adv-x="943" 
d="M529 517c-2 -7.33301 -6.33301 -10.9961 -13 -10.9961h-290c-14 0 -21.333 6.66699 -22 20c-0.666992 4.66699 -1.16699 9.66699 -1.5 15s-0.5 10.666 -0.5 15.999c0 35.333 3.33301 67.666 10 96.999s17 56.833 31 82.5s31.667 50.167 53 73.5s46.666 47 75.999 71
l96 75c18.667 14.667 34.5 27.667 47.5 39s24 22 33 32s16.167 20.167 21.5 30.5s9 21.833 11 34.5c4 23.333 -3.5 41.333 -22.5 54s-55.167 19 -108.5 19c-38 0 -75.5 -2 -112.5 -6s-77.5 -9.66699 -121.5 -17c-13.333 -2 -20 3.66699 -20 17l6 275
c0 14 6.33301 22.667 19 26c48.667 14.667 103.334 25.834 164.001 33.501s124.334 11.5 191.001 11.5c74.667 0 139.667 -6.16699 195 -18.5s100.5 -31.5 135.5 -57.5s59.333 -59.333 73 -100s15.834 -89 6.50098 -145c-6 -38 -14.667 -71.833 -26 -101.5
s-25.833 -57.334 -43.5 -83.001s-38.834 -50.834 -63.501 -75.501s-53.334 -51.334 -86.001 -80.001l-111 -99c-22.667 -20 -40.834 -36.833 -54.501 -50.5s-24.667 -27.667 -33 -42s-15.166 -30.833 -20.499 -49.5s-11 -43 -17 -73zM121 0.00390625
c-13.333 0 -18.666 6.66699 -15.999 20l56 300c2.66699 14 10.667 21.333 24 22l298 35c13.333 0.666992 18.666 -5.33301 15.999 -18l-62 -339c-2.66699 -13.333 -10.667 -20 -24 -20h-292z" />
    <glyph glyph-name="at" unicode="@" horiz-adv-x="1920" 
d="M375 528c-20.667 -64.667 -36.6641 -125.83 -47.9971 -183.497s-15.5 -110.667 -12.5 -159s14.167 -91.666 33.5 -129.999s48.833 -71 88.5 -98s91 -48 154 -63s139.5 -22.833 229.5 -23.5c13.333 0 18 -6.33301 14 -19l-70 -243
c-2.66699 -7.33301 -5.83398 -12.333 -9.50098 -15s-9.16699 -4 -16.5 -4c-174.667 1.33301 -316.167 21.5 -424.5 60.5s-188.166 97.333 -239.499 175s-76.5 175.167 -75.5 292.5s23.833 255.333 68.5 414l41 150c38 135.333 91.5 254.166 160.5 356.499
s151.167 188 246.5 257s202.666 120.833 321.999 155.5s248 52 386 52c222 0 387.333 -48.167 496 -144.5s163 -235.166 163 -416.499c0 -170.667 -22.5 -313.834 -67.5 -429.501s-114 -208.834 -207 -279.501s-210.833 -121.334 -353.5 -152.001s-311.334 -46 -506.001 -46
c-63.333 0 -115.5 7 -156.5 21s-71.167 37.833 -90.5 71.5s-27.833 78.5 -25.5 134.5s15.166 125.667 38.499 209l41 143c22.667 80 47.667 147.333 75 202s60.333 99 99 133s84.834 58.333 138.501 73s118.167 22 193.5 22c59.333 0 118.666 -3.66699 177.999 -11
s115.333 -15.333 168 -24c13.333 -2 18.666 -9.33301 15.999 -22l-144 -631c46.667 14 87.334 33.833 122.001 59.5s63.667 60 87 103s40.833 95.833 52.5 158.5s17.5 138 17.5 226c0 54 -7.66699 101 -23 141s-40 73.167 -74 99.5s-78 46.166 -132 59.499
s-119.667 20 -197 20c-43.333 0 -87.333 -2.5 -132 -7.5s-89.167 -14.5 -133.5 -28.5s-87.5 -33.5 -129.5 -58.5s-82 -57.667 -120 -98s-73.333 -89.333 -106 -147s-61.667 -126.167 -87 -205.5zM973.003 764.004c-14 0 -25.833 -3.16602 -35.5 -9.49902
s-18.5 -17 -26.5 -32s-16 -34.833 -24 -59.5s-17 -55.334 -27 -92.001l-18 -65c-12 -42 -20.333 -75.167 -25 -99.5s-5.16699 -42.5 -1.5 -54.5s12.167 -19.667 25.5 -23s32 -5 56 -5c7.33301 0 17.166 0.333008 29.499 1s23.5 1.66699 33.5 3l95 430
c-29.333 4 -56.666 6 -81.999 6z" />
    <glyph glyph-name="A" unicode="A" horiz-adv-x="1353" 
d="M-92 0c-13.333 0 -16.998 6 -10.998 18l693 1439c3.33301 7.33301 7.16602 12.166 11.499 14.499s10.166 3.5 17.499 3.5h441c14 0 21.333 -6.66699 22 -20l162 -1435c0.666992 -13.333 -5.33301 -20 -18 -20h-345c-13.333 0 -20.333 6.66699 -21 20l-16 220h-466
l-99 -222c-3.33301 -7.33301 -7 -12.166 -11 -14.499s-9.66699 -3.5 -17 -3.5h-343zM780.002 1135l-264 -588h307z" />
    <glyph glyph-name="B" unicode="B" horiz-adv-x="1353" 
d="M437 -18c-22.667 0 -49.1719 0.333008 -79.5049 1s-62.5 1.66699 -96.5 3s-68.833 2.83301 -104.5 4.5s-70.5 3.83398 -104.5 6.50098c-13.333 0.666992 -18.666 7.66699 -15.999 21l266 1437c2.66699 13.333 10.667 20.333 24 21c28.667 2 60.334 3.83301 95.001 5.5
l107 5c36.667 1.66699 73 2.83398 109 3.50098s69.667 1 101 1c118 0 216 -6.83301 294 -20.5s139 -35.667 183 -66s72.167 -69.666 84.5 -117.999s11.5 -107.166 -2.5 -176.499l-2 -10c-13.333 -66.667 -34.833 -121.334 -64.5 -164.001s-66.5 -78 -110.5 -106
c25.333 -16.667 48 -36.334 68 -59.001s36 -48.834 48 -78.501s19.833 -62.334 23.5 -98.001s1.83398 -74.834 -5.49902 -117.501l-6 -35c-12 -70.667 -29.667 -131.167 -53 -181.5s-52.166 -92.666 -86.499 -126.999s-74.166 -61.5 -119.499 -81.5s-96 -35.167 -152 -45.5
s-117.333 -17 -184 -20s-138.667 -4.5 -216 -4.5zM895.995 451c6 29.333 6.5 53.1699 1.5 71.5029s-14.333 32.666 -28 42.999s-31.5 17.333 -53.5 21s-47.333 5.5 -76 5.5h-248l-55 -295c8.66699 -0.666992 19 -1.33398 31 -2.00098h37
c12.667 -0.666992 24.5 -1.16699 35.5 -1.5s19.5 -0.5 25.5 -0.5c58 0 106.667 1.5 146 4.5s71.5 9.16699 96.5 18.5s43.833 23.166 56.5 41.499s21.667 42.5 27 72.5zM756.995 1180c-27.333 0 -52.332 -0.166992 -74.999 -0.5s-49.667 -1.5 -81 -3.5l-53 -283h226
c17.333 0.666992 34 3 50 7s30.667 10.667 44 20s25 21.833 35 37.5s17.667 35.5 23 59.5l7 29c5.33301 29.333 5.33301 53 0 71s-15.5 31.667 -30.5 41s-34.833 15.333 -59.5 18s-53.334 4 -86.001 4z" />
    <glyph glyph-name="C" unicode="C" horiz-adv-x="1197" 
d="M616 -31c-101.333 0 -189.826 11.3301 -265.493 33.9971s-136.167 60.834 -181.5 114.501s-74.333 124.834 -87 213.501s-6.66699 199 18 331l29 153c24 130.667 58.667 240.167 104 328.5s100.666 159.333 165.999 213s140 91.834 224 114.501s176.667 34 278 34
c36 0 71.167 -1.16699 105.5 -3.5s67.166 -5.83301 98.499 -10.5s60.666 -10.167 87.999 -16.5s51.666 -13.833 72.999 -22.5c6.66699 -3.33301 10.834 -6.66602 12.501 -9.99902s1.5 -8.66602 -0.5 -15.999l-95 -274c-4.66699 -12.667 -13.334 -17.334 -26.001 -14.001
c-50 11.333 -100.167 19 -150.5 23s-101.166 6 -152.499 6c-50.667 0 -96.334 -5.66699 -137.001 -17s-76.5 -30.333 -107.5 -57s-57.167 -61.834 -78.5 -105.501s-38 -97.834 -50 -162.501l-30 -174c-12.667 -65.333 -16.5 -119.833 -11.5 -163.5s17.833 -79 38.5 -106
s49.167 -46.167 85.5 -57.5s79.833 -17 130.5 -17c54 0 108.333 1.66699 163 5s109 8.33301 163 15c13.333 2 19.666 -3.66699 18.999 -17l-12 -278c-0.666992 -13.333 -7.33398 -21.666 -20.001 -24.999c-24 -6 -51 -11.333 -81 -16s-61.667 -8.66699 -95 -12
s-68.333 -5.83301 -105 -7.5s-73.334 -2.5 -110.001 -2.5z" />
    <glyph glyph-name="D" unicode="D" horiz-adv-x="1419" 
d="M405 -16c-21.333 0 -45.833 0.329102 -73.5 0.996094s-57.167 1.5 -88.5 2.5s-63.166 2.33301 -95.499 4s-63.5 3.83398 -93.5 6.50098c-13.333 0.666992 -18.666 8 -15.999 22l264 1435c1.33301 7.33301 3.83301 12.5 7.5 15.5s9.16699 5.16699 16.5 6.5
c25.333 2 53.333 3.83301 84 5.5s61.167 3.16699 91.5 4.5s59.333 2.33301 87 3s51.167 1 70.5 1c79.333 0 154.166 -3.66699 224.499 -11s134.5 -20.666 192.5 -39.999s108.833 -45.666 152.5 -78.999s78.167 -75.666 103.5 -126.999s40.666 -113.166 45.999 -185.499
s-1 -156.833 -19 -253.5l-21 -113c-20 -108 -45.167 -200.333 -75.5 -277s-66 -140.834 -107 -192.501s-87.167 -92.667 -138.5 -123s-108.166 -53.333 -170.499 -69s-130.333 -25.667 -204 -30s-152.834 -6.5 -237.501 -6.5zM691 1180
c-13.333 0 -28.002 -0.500977 -44.002 -1.50098s-31.333 -2.5 -46 -4.5l-162 -873c6 -1.33301 14 -2.33301 24 -3s20.5 -1.16699 31.5 -1.5s21.333 -0.666016 31 -0.999023s17.167 -0.5 22.5 -0.5c62.667 0 117.834 5 165.501 15s89.334 29 125.001 57s65.5 67 89.5 117
s43.333 114.667 58 194l23 119c14 78.667 17.667 142.834 11 192.501s-23.5 88.667 -50.5 117s-63.833 47.666 -110.5 57.999s-102.667 15.5 -168 15.5z" />
    <glyph glyph-name="E" unicode="E" horiz-adv-x="1200" 
d="M54 0c-13.333 0 -18.6641 6.66699 -15.9971 20l264 1435c2.66699 13.333 10.667 20 24 20h919c13.333 0 18.666 -6.66699 15.999 -20l-54 -288c-2.66699 -13.333 -10.667 -20 -24 -20h-586l-45 -242h443c13.333 0 18.666 -6.66699 15.999 -20l-54 -287
c-2.66699 -13.333 -10.667 -20 -24 -20h-442l-46 -250h587c13.333 0 18.666 -6.66699 15.999 -20l-54 -288c-2.66699 -13.333 -10.667 -20 -24 -20h-916z" />
    <glyph glyph-name="F" unicode="F" horiz-adv-x="1158" 
d="M54 0c-13.333 0 -18.665 6.66699 -15.998 20l264 1435c2.66699 13.333 10.667 20 24 20h919c13.333 0 18.666 -6.66699 15.999 -20l-54 -288c-2.66699 -13.333 -10.667 -20 -24 -20h-586l-47 -252h451c13.333 0 18.666 -6.66699 15.999 -20l-53 -288
c-2.66699 -13.333 -10.667 -20 -24 -20h-452l-100 -547c-2.66699 -13.333 -10.667 -20 -24 -20h-310z" />
    <glyph glyph-name="G" unicode="G" horiz-adv-x="1338" 
d="M1256 827c13.333 0 18.666 -6.67285 15.999 -20.0059l-137 -741c-1.33301 -7.33301 -3.66602 -12.833 -6.99902 -16.5s-8.66602 -6.83398 -15.999 -9.50098c-40.667 -14 -82.167 -25.667 -124.5 -35s-84 -16.666 -125 -21.999s-81 -9 -120 -11s-75.833 -3 -110.5 -3
c-106.667 0 -199 11.333 -277 34s-140 60.834 -186 114.501s-75.167 124.834 -87.5 213.501s-5.83301 199 19.5 331l29 153c24 130.667 58.333 240.167 103 328.5s99.667 159.333 165 213s141 91.834 227 114.501s182.333 34 289 34c33.333 0 68 -1.16699 104 -3.5
s71 -5.83301 105 -10.5s66.167 -10.167 96.5 -16.5s56.833 -13.833 79.5 -22.5c6.66699 -3.33301 10.834 -6.66602 12.501 -9.99902s1.5 -8.66602 -0.5 -15.999l-95 -274c-4.66699 -12.667 -13.667 -18 -27 -16c-106 18 -213.333 27 -322 27
c-56 0 -105.167 -5.5 -147.5 -16.5s-79 -29.5 -110 -55.5s-57 -60.667 -78 -104s-37.5 -97.333 -49.5 -162l-30 -174c-12.667 -65.333 -17.334 -119.666 -14.001 -162.999s14.666 -78 33.999 -104s47 -44.333 83 -55s80.667 -16 134 -16h70
c23.333 0 47.666 0.666992 72.999 2l40 220l-157 9c-13.333 0.666992 -18.666 7.66699 -15.999 21l45 242c2.66699 13.333 10.667 20 24 20h488z" />
    <glyph glyph-name="H" unicode="H" horiz-adv-x="1512" 
d="M54 0c-13.333 0 -18.666 6.66699 -15.999 20l264 1435c2.66699 13.333 10.667 20 24 20h310c13.333 0 18.666 -6.66699 15.999 -20l-100 -550h510l102 550c2.66699 13.333 10.667 20 24 20h311c13.333 0 18.666 -6.66699 15.999 -20l-267 -1435
c-2.66699 -13.333 -10.667 -20 -24 -20h-310c-13.333 0 -18.666 6.66699 -15.999 20l104 557h-512l-102 -557c-2.66699 -13.333 -10.667 -20 -24 -20h-310z" />
    <glyph glyph-name="I" unicode="I" horiz-adv-x="651" 
d="M54 0c-13.333 0 -18.666 6.66699 -15.999 20l264 1435c2.66699 13.333 10.667 20 24 20h310c13.333 0 18.666 -6.66699 15.999 -20l-264 -1435c-2.66699 -13.333 -10.667 -20 -24 -20h-310z" />
    <glyph glyph-name="J" unicode="J" horiz-adv-x="652" 
d="M-109 -410c-28 0 -57.833 1.50098 -89.5 4.50098s-60.167 7.16699 -85.5 12.5c-7.33301 1.33301 -11.833 3.66602 -13.5 6.99902s-1.5 8.66602 0.5 15.999l90 275c2 7.33301 5 12.166 9 14.499s9.66699 3.16602 17 2.49902c16 -2 30.333 -3.16699 43 -3.5
s24.667 -0.5 36 -0.5c20.667 0 39 1.83301 55 5.5s29.833 9.83398 41.5 18.501s21.334 20.334 29.001 35.001s13.5 33.334 17.5 56.001l262 1422c2.66699 13.333 10.667 20 24 20h310c13.333 0 18.666 -6.66699 15.999 -20l-268 -1455
c-11.333 -59.333 -27.333 -114 -48 -164s-50 -93.333 -88 -130s-86 -65.167 -144 -85.5s-129.333 -30.5 -214 -30.5z" />
    <glyph glyph-name="K" unicode="K" horiz-adv-x="1396" 
d="M839 0c-7.33301 0 -12.999 1.16797 -16.999 3.50098s-7.66699 7.16602 -11 14.499l-224 513l-126 -119l-72 -392c-2.66699 -13.333 -10.667 -20 -24 -20h-311c-13.333 0 -18.666 6.66699 -15.999 20l264 1435c2.66699 13.333 10.667 20 24 20h311
c13.333 0 18.666 -6.66699 15.999 -20l-96 -519l541 525c9.33301 9.33301 20.666 14 33.999 14h439c6 0 9.5 -1.33301 10.5 -4s-0.833008 -6 -5.5 -10l-700 -658l380 -785c6 -12 2.33301 -18 -11 -18h-406z" />
    <glyph glyph-name="L" unicode="L" horiz-adv-x="1044" 
d="M54 0c-13.333 0 -18.665 6.66699 -15.998 20l264 1435c2.66699 13.333 10.667 20 24 20h310c13.333 0 18.666 -6.66699 15.999 -20l-207 -1127h499c13.333 0 18.666 -6.66699 15.999 -20l-52 -288c-2.66699 -13.333 -10.667 -20 -24 -20h-830z" />
    <glyph glyph-name="M" unicode="M" horiz-adv-x="1716" 
d="M54 0c-13.333 0 -18.6602 6.66895 -15.9932 20.002l264 1435c2.66699 13.333 10.667 20 24 20h361c13.333 0 22.333 -6.33301 27 -19l163 -457c3.33301 -9.33301 6.16602 -19 8.49902 -29s4.16602 -19.333 5.49902 -28s2.33301 -15.834 3 -21.501s1 -8.83398 1 -9.50098
c0 0.666992 1.5 3.83398 4.5 9.50098l11 21c4.33301 8.33301 9.66602 17.5 15.999 27.5s13.166 20 20.499 30l332 460c8 10.667 18.667 16 32 16h392c13.333 0 18.666 -6.66699 15.999 -20l-266 -1435c-2.66699 -13.333 -10.667 -20 -24 -20h-312
c-13.333 0 -18.666 6.66699 -15.999 20l164 883l10 72c-1.33301 -0.666992 -5.83301 -8.83398 -13.5 -24.501s-16.834 -32.167 -27.501 -49.5l-270 -401c-4 -6.66699 -8.33301 -11.167 -13 -13.5s-10.667 -3.5 -18 -3.5h-205c-7.33301 0 -12.833 1.33301 -16.5 4
s-6.83398 7.66699 -9.50098 15l-119 389c-3.33301 10 -6 20 -8 30s-3.5 19 -4.5 27l-2.5 19.5c-0.666992 5 -1.33398 7.5 -2.00098 7.5l-16 -84l-162 -871c-2.66699 -13.333 -10.667 -20 -24 -20h-310z" />
    <glyph glyph-name="N" unicode="N" horiz-adv-x="1512" 
d="M54 0c-13.333 0 -18.668 6.66699 -16.001 20l264 1435c2.66699 13.333 10.667 20 24 20h343c13.333 0 22.333 -6.33301 27 -19l284 -749c4.66699 -12.667 8.5 -24.667 11.5 -36l8 -30c2.33301 -8.66699 4 -15.667 5 -21s1.83301 -8 2.5 -8l157 843
c2.66699 13.333 10.667 20 24 20h311c13.333 0 18.666 -6.66699 15.999 -20l-267 -1435c-2.66699 -13.333 -10.667 -20 -24 -20h-343c-13.333 -0 -22.333 6.33301 -27 19l-282 745c-11.333 30 -18.166 54.167 -20.499 72.5s-4.16602 27.5 -5.49902 27.5l-158 -844
c-2.66699 -13.333 -10.667 -20 -24 -20h-310z" />
    <glyph glyph-name="O" unicode="O" horiz-adv-x="1436" 
d="M595 -31c-98.667 0 -184 13.833 -256 41.5s-129.333 69.834 -172 126.501s-69.667 128.5 -81 215.5s-5.66602 190.167 17.001 309.5l29 153c17.333 92 38.333 173 63 243s53.167 130.5 85.5 181.5s68.666 93.5 108.999 127.5s85.333 61.167 135 81.5s104 34.833 163 43.5
s123.167 13 192.5 13c98.667 0 184 -13.833 256 -41.5s129.333 -69.834 172 -126.501s69.667 -128.5 81 -215.5s6 -189.833 -16 -308.5l-29 -154c-26 -138.667 -60.167 -252.5 -102.5 -341.5s-94 -159.333 -155 -211s-132.167 -87.5 -213.5 -107.5s-174 -30 -278 -30z
M814 1157c-44.667 0 -84.8271 -5.49902 -120.494 -16.499s-67.167 -29.333 -94.5 -55s-50.666 -59.834 -69.999 -102.501s-35 -95.334 -47 -158.001l-30 -174c-12 -63.333 -17.333 -116.333 -16 -159s10.166 -77 26.499 -103s40.666 -44.5 72.999 -55.5
s73.166 -16.5 122.499 -16.5c45.333 0 86.166 5.5 122.499 16.5s68.166 29.5 95.499 55.5s50.666 60.333 69.999 103s34.666 95.667 45.999 159l33 172c12 62.667 17.167 115.334 15.5 158.001s-11 77 -28 103s-41.833 44.667 -74.5 56s-74 17 -124 17z" />
    <glyph glyph-name="P" unicode="P" horiz-adv-x="1361" 
d="M755 1180c-22.667 0 -48.332 -0.500977 -76.999 -1.50098s-54.334 -2.5 -77.001 -4.5l-65 -357c10.667 -1.33301 22.5 -2.33301 35.5 -3s26.167 -1.16699 39.5 -1.5l39.5 -1c13 -0.333008 25.167 -0.5 36.5 -0.5c60.667 0 110.167 1.66699 148.5 5
s69.166 10.5 92.499 21.5s40.833 26.333 52.5 46s20.5 46.167 26.5 79.5l12 65c5.33301 32.667 6 59 2 79s-15.667 35.333 -35 46s-47.666 17.834 -84.999 21.501s-86 5.5 -146 5.5zM54.002 -0.000976562c-13.333 0 -18.668 6.66602 -16.001 19.999l266 1437
c2.66699 13.333 10.667 20.333 24 21c40 2 81.833 3.83301 125.5 5.5s86.667 3 129 4s82.833 1.83301 121.5 2.5s73.334 1 104.001 1c124.667 0 227.167 -7.33301 307.5 -22s142.333 -39 186 -73s70.667 -78.833 81 -134.5s7.83301 -124.5 -7.5 -206.5l-22 -119
c-12 -62 -25.667 -115.833 -41 -161.5s-35.166 -84.667 -59.499 -117s-53.833 -58.666 -88.5 -78.999s-77.167 -36.333 -127.5 -48s-109.333 -19.667 -177 -24s-146.167 -6.5 -235.5 -6.5h-36.5h-40.5c-13.333 0 -26.333 0.166992 -39 0.5s-23.334 0.833008 -32.001 1.5
l-88 -482c-2.66699 -13.333 -10.667 -20 -24 -20h-310z" />
    <glyph glyph-name="Q" unicode="Q" horiz-adv-x="1436" 
d="M598 -31c-99.333 0 -185.331 13.833 -257.998 41.5s-130.167 69.834 -172.5 126.501s-69.333 128.5 -81 215.5s-6.16699 190.167 16.5 309.5l29 153c17.333 92 38.333 173 63 243s53.167 130.5 85.5 181.5s68.666 93.5 108.999 127.5s85.333 61.167 135 81.5
s104 34.833 163 43.5s123.167 13 192.5 13c98.667 0 184 -13.833 256 -41.5s129.333 -69.834 172 -126.501s69.667 -128.5 81 -215.5s6 -189.833 -16 -308.5l-29 -154c-17.333 -92.667 -38.333 -174.167 -63 -244.5s-53.334 -131 -86.001 -182s-69.5 -93.5 -110.5 -127.5
s-86.5 -61 -136.5 -81l184 -395c4.66699 -12 0.666992 -18 -12 -18h-384c-14 0 -22.667 6.33301 -26 19zM814.002 1157c-44.667 0 -84.8271 -5.49902 -120.494 -16.499s-67.167 -29.333 -94.5 -55s-50.666 -59.834 -69.999 -102.501s-35 -95.334 -47 -158.001l-30 -174
c-12 -63.333 -17.333 -116.333 -16 -159s10.166 -77 26.499 -103s40.666 -44.5 72.999 -55.5s73.166 -16.5 122.499 -16.5c45.333 0 86.166 5.5 122.499 16.5s68.166 29.5 95.499 55.5s50.666 60.333 69.999 103s34.666 95.667 45.999 159l33 172
c12 62.667 17.167 115.334 15.5 158.001s-11 77 -28 103s-41.833 44.667 -74.5 56s-74 17 -124 17z" />
    <glyph glyph-name="R" unicode="R" horiz-adv-x="1389" 
d="M819 0c-13.333 0 -21.667 6.33496 -25 19.002l-131 491h-24c-24.667 0 -49.334 0.5 -74.001 1.5s-52.667 2.5 -84 4.5l-92 -496c-2.66699 -13.333 -10.667 -20 -24 -20h-310c-13.333 0 -18.666 6.66699 -15.999 20l264 1435c2.66699 13.333 10.667 20.333 24 21
c81.333 5.33301 159.833 9.16602 235.5 11.499s149.5 3.5 221.5 3.5c92 0 172 -3.16699 240 -9.5s125.667 -16.5 173 -30.5s85.333 -32 114 -54s49.667 -48.833 63 -80.5s20 -68.334 20 -110.001s-4.66699 -88.834 -14 -141.501l-24 -133
c-12 -64 -27.833 -118.667 -47.5 -164s-43.667 -83.666 -72 -114.999s-61 -56.333 -98 -75s-79.167 -33 -126.5 -43l22.5 -55.5l24.5 -65.5l131 -395c4 -12.667 -0.666992 -19 -14 -19h-357zM749.999 1180c-21.333 0 -46.002 -0.498047 -74.002 -1.49805
s-52.667 -2.5 -74 -4.5l-63 -347c19.333 -2 42 -3.5 68 -4.5s54.333 -1.5 85 -1.5c60 0 109.167 1.5 147.5 4.5s69 9.66699 92 20s40.333 25.166 52 44.499s20.5 45 26.5 77l12 67c5.33301 32 6 57.667 2 77s-15.667 34.166 -35 44.499s-48.166 17 -86.499 20
s-89.166 4.5 -152.499 4.5z" />
    <glyph glyph-name="S" unicode="S" horiz-adv-x="1248" 
d="M434 -31c-84 0 -161.669 4.33008 -233.002 12.9971s-133 20.334 -185 35.001c-12.667 3.33301 -16.667 11.666 -12 24.999l95 271c4.66699 12.667 13.667 18 27 16c36 -6 68.667 -11 98 -15s57.5 -7.16699 84.5 -9.5s53.833 -4.16602 80.5 -5.49902s55.667 -2 87 -2
c60.667 0 110.334 1.83301 149.001 5.5s69.167 10.167 91.5 19.5s37.666 22 45.999 38s12.5 36.333 12.5 61c0 11.333 -3.16699 22.166 -9.5 32.499s-17.166 21.333 -32.499 33s-36 25 -62 40s-58.667 32.833 -98 53.5l-157 82c-50.667 26.667 -92.667 54.834 -126 84.501
s-59.833 60 -79.5 91s-33.5 62.333 -41.5 94s-12 63.167 -12 94.5c0 86.667 12 160.334 36 221.001s63.833 110.167 119.5 148.5s128.5 66.166 218.5 83.499s201 26 333 26c70 0 136.667 -3.33301 200 -10s120.333 -18.334 171 -35.001
c12.667 -3.33301 16.667 -11.333 12 -24l-95 -262c-4.66699 -12.667 -13.667 -18 -27 -16c-26 3.33301 -52.333 6.33301 -79 9s-52.5 4.83398 -77.5 6.50098s-48.333 2.83398 -70 3.50098s-39.834 1 -54.501 1c-58 0 -107.167 -1 -147.5 -3s-73 -6.5 -98 -13.5
s-43.167 -17.333 -54.5 -31s-17 -32.167 -17 -55.5c0 -12.667 3 -24.334 9 -35.001s16.5 -21.667 31.5 -33s34.833 -23.833 59.5 -37.5s56 -29.5 94 -47.5l180 -88c46 -22.667 84.833 -46.5 116.5 -71.5s57.334 -51.5 77.001 -79.5s33.834 -57.333 42.501 -88s13 -63 13 -97
c0 -99.333 -13.167 -182.666 -39.5 -249.999s-68.166 -121.666 -125.499 -162.999s-131.333 -71 -222 -89s-200.334 -27 -329.001 -27z" />
    <glyph glyph-name="T" unicode="T" horiz-adv-x="1202" 
d="M324 0c-13.333 0 -18.667 6.66699 -16 20l209 1127h-373c-13.333 0 -18.666 6.66699 -15.999 20l53 288c2.66699 13.333 10.667 20 24 20h1095c13.333 0 18.666 -6.66699 15.999 -20l-53 -288c-2.66699 -13.333 -10.667 -20 -24 -20h-372l-209 -1127
c-2.66699 -13.333 -10.667 -20 -24 -20h-310z" />
    <glyph glyph-name="U" unicode="U" horiz-adv-x="1489" 
d="M626 -31c-90.667 0 -171.496 9.33301 -242.496 28s-129.333 48.667 -175 90s-76.834 95 -93.501 161s-16.334 146.333 0.999023 241l178 966c2.66699 13.333 10.667 20 24 20h310c13.333 0 18.666 -6.66699 15.999 -20l-162 -886
c-9.33301 -47.333 -12.666 -87.666 -9.99902 -120.999s12 -60.5 28 -81.5s39.333 -36.167 70 -45.5s69.667 -14 117 -14c45.333 0 85.166 4.66699 119.499 14s63.666 24.5 87.999 45.5s44.5 48.167 60.5 81.5s28.333 73.666 37 120.999l164 886
c2.66699 13.333 10.667 20 24 20h308c13.333 0 18.666 -6.66699 15.999 -20l-178 -966c-18.667 -101.333 -48.167 -185.5 -88.5 -252.5s-90.166 -120.333 -149.499 -160s-127.833 -67.5 -205.5 -83.5s-163.167 -24 -256.5 -24z" />
    <glyph glyph-name="V" unicode="V" horiz-adv-x="1334" 
d="M600 319h1.99805l496 1138c3.33301 7.33301 7 12.166 11 14.499s9.66699 3.5 17 3.5h341c13.333 0 17 -6 11 -18l-685 -1439c-3.33301 -7.33301 -7.16602 -12.166 -11.499 -14.499s-10.166 -3.5 -17.499 -3.5h-441c-14 0 -21.333 6.66699 -22 20l-149 1435
c-0.666992 7.33301 0.333008 12.5 3 15.5s7.66699 4.5 15 4.5h334c13.333 0 20.333 -6.66699 21 -20z" />
    <glyph glyph-name="W" unicode="W" horiz-adv-x="1939" 
d="M208 0c-13.333 0 -19.9961 6.66699 -19.9961 20l29 1435c0 13.333 6.66699 20 20 20h350c7.33301 0 12.333 -1.5 15 -4.5s3.66699 -8.16699 3 -15.5l-92 -935l-21 -221l6.5 20l17.5 51.5l25 70.5l29 77l372 938c2.66699 7.33301 6 12.333 10 15s9.66699 4 17 4h304
c13.333 0 20.333 -6.66699 21 -20l30 -931c0.666992 -20.667 0.833984 -44 0.500977 -70s-0.833008 -50.5 -1.5 -73.5s-1.33398 -42.333 -2.00098 -58l-1 -23.5l61 227l251 930c3.33301 12.667 11.666 19 24.999 19h359c13.333 0 17.666 -6.33301 12.999 -19l-504 -1437
c-4.66699 -12.667 -13.667 -19 -27 -19h-419c-13.333 0 -20.333 6.66699 -21 20l-40 750c-0.666992 12.667 -0.833984 26.667 -0.500977 42l1 44c0.333008 14 0.666016 25.667 0.999023 35s0.5 14.333 0.5 15c-0.666992 -1.33301 -2.5 -6.83301 -5.5 -16.5
s-6.83301 -21.334 -11.5 -35.001l-15 -43.5c-5.33301 -15.333 -10.333 -29 -15 -41l-318 -752c-3.33301 -7.33301 -7 -12.166 -11 -14.499s-9.66699 -3.5 -17 -3.5h-419z" />
    <glyph glyph-name="X" unicode="X" horiz-adv-x="1361" 
d="M864 0c-13.333 0 -22.333 6.33301 -27 19l-163 464l-338 -467c-8 -10.667 -18.667 -16 -32 -16h-398c-13.333 -0 -15.666 5.33301 -6.99902 16l578 722l-310 719c-5.33301 12 -1.33301 18 12 18h358c13.333 0 22.333 -6.33301 27 -19l166 -450l335 453
c8 10.667 18.667 16 32 16h398c13.333 0 15.666 -5.33301 6.99902 -16l-577 -719l309 -722c4.66699 -12 0.666992 -18 -12 -18h-358z" />
    <glyph glyph-name="Y" unicode="Y" horiz-adv-x="1246" 
d="M347 0c-13.333 0 -18.666 6.66699 -15.999 20l84 463l-281 973c-4 12.667 0.666992 19 14 19h344c13.333 0 21.333 -6.33301 24 -19l135 -588l353 590c4 6.66699 8.16699 11.167 12.5 13.5s10.166 3.5 17.499 3.5h364c13.333 0 16.333 -5.66699 9 -17l-641 -973l-85 -465
c-2.66699 -13.333 -10.667 -20 -24 -20h-310z" />
    <glyph glyph-name="Z" unicode="Z" horiz-adv-x="1252" 
d="M-14 0c-13.333 0 -18.666 6.66699 -15.999 20l50 267c2.66699 13.333 8.66699 25 18 35l786 847h-590c-13.333 0 -18.666 6.66699 -15.999 20l47 266c2.66699 13.333 10.667 20 24 20h999c13.333 0 18.666 -6.66699 15.999 -20l-48 -266
c-2.66699 -13.333 -8.66699 -25 -18 -35l-786 -847h631c13.333 0 18.666 -6.66699 15.999 -20l-50 -267c-2.66699 -13.333 -10.667 -20 -24 -20h-1039z" />
    <glyph glyph-name="bracketleft" unicode="[" horiz-adv-x="759" 
d="M-30 -389c-13.333 0 -18.665 6.66699 -15.998 20l352 1905c2.66699 13.333 10.667 20 24 20h532c13.333 0 18.666 -6.66699 15.999 -20l-54 -287c-2.66699 -13.333 -10.667 -20 -24 -20h-201l-239 -1290h201c13.333 0 18.666 -6.66699 15.999 -20l-52 -288
c-2.66699 -13.333 -10.667 -20 -24 -20h-531z" />
    <glyph glyph-name="backslash" unicode="\" horiz-adv-x="1137" 
d="M628 0c-7.33301 0 -12.999 1.16797 -16.999 3.50098s-7 7.16602 -9 14.499l-403 1520c-2.66699 12 2.33301 18 15 18h334c7.33301 0 12.833 -1.16699 16.5 -3.5s6.5 -7.16602 8.5 -14.499l404 -1520c1.33301 -6.66699 1.16602 -11.334 -0.500977 -14.001
s-6.16699 -4 -13.5 -4h-335z" />
    <glyph glyph-name="bracketright" unicode="]" horiz-adv-x="760" 
d="M775 1556c13.333 0 18.665 -6.66699 15.998 -20l-352 -1905c-2.66699 -13.333 -10.667 -20 -24 -20h-532c-13.333 0 -18.666 6.66699 -15.999 20l54 287c2.66699 13.333 10.667 20 24 20h201l239 1290h-201c-13.333 0 -18.666 6.66699 -15.999 20l52 288
c2.66699 13.333 10.667 20 24 20h531z" />
    <glyph glyph-name="asciicircum" unicode="^" horiz-adv-x="1321" 
d="M469 1117c-6 0 -9.66797 1.33203 -11.001 3.99902s0.333984 6 5.00098 10l314 328c5.33301 5.33301 10.5 9 15.5 11s11.167 3 18.5 3h247c7.33301 0 13.166 -1.16699 17.499 -3.5s8.5 -6.83301 12.5 -13.5l190 -322c7.33301 -11.333 4 -17 -10 -17h-212
c-7.33301 0 -13.166 1.16699 -17.499 3.5s-8.5 6.83301 -12.5 13.5l-107 193l-185 -195c-5.33301 -5.33301 -10.5 -9.16602 -15.5 -11.499s-11.167 -3.5 -18.5 -3.5h-231z" />
    <glyph glyph-name="underscore" unicode="_" horiz-adv-x="999" 
d="M-140 -389c-13.333 0 -18.666 6.66699 -15.999 20l52 279c2.66699 13.333 10.667 20 24 20h918c13.333 0 18.666 -6.66699 15.999 -20l-51 -279c-2.66699 -13.333 -10.667 -20 -24 -20h-919z" />
    <glyph glyph-name="grave" unicode="`" horiz-adv-x="762" 
d="M614 1270c-13.333 0 -24 5.33203 -32 15.999l-179 244c-8.66699 10.667 -6 16 8 16h304c7.33301 0 13 -1.16699 17 -3.5s7.66699 -7.16602 11 -14.499l113 -240c4.66699 -12 0.666992 -18 -12 -18h-230z" />
    <glyph glyph-name="a" unicode="a" horiz-adv-x="1223" 
d="M804 806c-19.333 3.33301 -44.833 5.66797 -76.5 7.00098s-63.5 2 -95.5 2c-40 0 -73 -3.83301 -99 -11.5s-47.5 -20.667 -64.5 -39s-30.667 -42.5 -41 -72.5s-19.5 -67.333 -27.5 -112l-14 -72c-8.66699 -48 -13.5 -88.333 -14.5 -121s3.5 -58.834 13.5 -78.501
s26.833 -33.667 50.5 -42s55.5 -12.5 95.5 -12.5c14 0 28.667 0.166992 44 0.5l45.5 1c15 0.333008 29.5 0.833008 43.5 1.5s26.333 1.66699 37 3zM484 -30.998c-99.333 0 -180.496 9.50098 -243.496 28.501s-110.667 48.5 -143 88.5s-51 91 -56 153s0.5 136 16.5 222
l29 153c18 95.333 40.833 174.166 68.5 236.499s64.167 112 109.5 149s101.166 63 167.499 78s147.166 22.5 242.499 22.5c92 0 179.333 -2.5 262 -7.5s159 -11.5 229 -19.5c13.333 -0.666992 18.666 -8 15.999 -22l-192 -1031c-2.66699 -14 -10.667 -21.333 -24 -22
c-81.333 -9.33301 -162.333 -16.5 -243 -21.5s-160.334 -7.5 -239.001 -7.5z" />
    <glyph glyph-name="b" unicode="b" horiz-adv-x="1223" 
d="M663 815c-14.667 0 -30 -0.168945 -46 -0.501953s-31.833 -0.833008 -47.5 -1.5s-30.667 -1.66699 -45 -3s-26.5 -3 -36.5 -5l-102 -545c10.667 -1.33301 23 -2.33301 37 -3s28.5 -1.16699 43.5 -1.5l45.5 -1c15.333 -0.333008 30 -0.5 44 -0.5
c40 0 73.333 4.16699 100 12.5s48.667 22.333 66 42s31.5 45.334 42.5 77.001s20.833 70.5 29.5 116.5l14 80c8 44.667 12.5 81.834 13.5 111.501s-3.66699 53.5 -14 71.5s-27 30.833 -50 38.5s-54.5 11.5 -94.5 11.5zM497 -31.002c-78 0 -156.504 2.83398 -235.504 8.50098
s-157.167 13.167 -234.5 22.5c-13.333 0.666992 -18.666 8 -15.999 22l289 1560c2.66699 14 10.667 21.333 24 22l298 36c13.333 0.666992 18.666 -5.33301 15.999 -18l-98 -541c16.667 2.66699 33.334 5.16699 50.001 7.5s34.167 4.33301 52.5 6s37.833 3 58.5 4
s43.334 1.5 68.001 1.5c82.667 0 151.334 -8.33301 206.001 -25s96.5 -44.167 125.5 -82.5s46 -88.5 51 -150.5s-0.833008 -138 -17.5 -228l-29 -159c-17.333 -89.333 -40 -164.833 -68 -226.5s-65.5 -111.834 -112.5 -150.501s-105.167 -66.5 -174.5 -83.5
s-153.666 -25.5 -252.999 -25.5z" />
    <glyph glyph-name="c" unicode="c" horiz-adv-x="953" 
d="M483 -31c-100 0 -181.504 10.002 -244.504 30.002s-110.5 50.5 -142.5 91.5s-50.167 93.167 -54.5 156.5s1.5 138.666 17.5 225.999l23 125c16 86.667 37.833 161.5 65.5 224.5s65.334 115 113.001 156s106.667 71.5 177 91.5s155.833 30 256.5 30
c48.667 0 94.167 -2.33301 136.5 -7s80.5 -10.667 114.5 -18c13.333 -2.66699 18.333 -10.334 15 -23.001l-58 -237c-2 -7.33301 -4.83301 -12.333 -8.5 -15s-9.16699 -3.66699 -16.5 -3c-36 3.33301 -72.5 5.83301 -109.5 7.5s-76.5 2.5 -118.5 2.5
c-43.333 0 -78.666 -3.83301 -105.999 -11.5s-49.333 -20.667 -66 -39s-29.667 -42.5 -39 -72.5s-18 -67 -26 -111l-15 -77c-8 -44 -13 -81 -15 -111s2 -54.167 12 -72.5s27.167 -31.333 51.5 -39s58.833 -11.5 103.5 -11.5c42 0 82 1.16699 120 3.5
s75.333 5.16602 112 8.49902c13.333 0.666992 19 -5.33301 17 -18l-30 -236c-0.666992 -13.333 -8 -21.333 -22 -24c-35.333 -7.33301 -76.666 -13.666 -123.999 -18.999s-93.666 -8 -138.999 -8z" />
    <glyph glyph-name="d" unicode="d" horiz-adv-x="1222" 
d="M632 815c-40 0 -73 -3.83203 -99 -11.499s-47.5 -20.667 -64.5 -39s-30.667 -42.5 -41 -72.5s-19.5 -67.333 -27.5 -112l-14 -72c-8.66699 -48 -13.5 -88.333 -14.5 -121s3.5 -58.834 13.5 -78.501s26.833 -33.667 50.5 -42s55.5 -12.5 95.5 -12.5
c14 0 28.667 0.166992 44 0.5l45.5 1c15 0.333008 29.5 0.833008 43.5 1.5s26.333 1.66699 37 3l103 545c-10 2 -22.167 3.66699 -36.5 5s-29.333 2.33301 -45 3s-31.5 1.16699 -47.5 1.5s-30.333 0.5 -43 0.5zM484 -30.999c-99.333 0 -180.502 8.49902 -243.502 25.499
s-110.833 44.833 -143.5 83.5s-51.5 89.334 -56.5 152.001s0.833008 139.667 17.5 231l29 153c16.667 90 38.834 166 66.501 228s64.334 112.167 110.001 150.5s101.834 65.833 168.501 82.5s147.667 25 243 25c32 0 63.833 -1.83301 95.5 -5.5
s59.834 -8.16699 84.501 -13.5l92 501c2.66699 14 10.667 21.333 24 22l300 36c13.333 0.666992 18.666 -5.33301 15.999 -18l-297 -1600c-2.66699 -14 -10.667 -21.333 -24 -22c-81.333 -9.33301 -162.333 -16.833 -243 -22.5s-160.334 -8.5 -239.001 -8.5z" />
    <glyph glyph-name="e" unicode="e" horiz-adv-x="1160" 
d="M470 -31c-92 0 -168.161 9.83008 -228.494 29.4971s-106.833 50 -139.5 91s-52.167 93.333 -58.5 157s-1.5 139.834 14.5 228.501l21 115c16.667 88.667 40.167 165 70.5 229s69.166 116.833 116.499 158.5s104.666 72.5 171.999 92.5s146.333 30 237 30
c149.333 0 258 -30.167 326 -90.5s102 -153.833 102 -280.5c0 -40.667 -2.83301 -78.667 -8.5 -114s-12.5 -67.166 -20.5 -95.499s-16.333 -52.833 -25 -73.5s-15.667 -36.334 -21 -47.001c-3.33301 -7.33301 -7 -12.166 -11 -14.499s-9.66699 -3.5 -17 -3.5l-627 -2
c-0.666992 -28 2.16602 -50.333 8.49902 -67s16.666 -29.5 30.999 -38.5s32.666 -14.833 54.999 -17.5s49.166 -4 80.499 -4c58.667 0 118.5 1 179.5 3s125.5 5.33301 193.5 10c13.333 0.666992 19 -5.66602 17 -18.999l-29 -226c-2 -13.333 -9.66699 -21 -23 -23
c-66.667 -8 -134.167 -14.667 -202.5 -20s-139.5 -8 -213.5 -8zM794.006 630.997c0 38 -2.50195 69 -7.50195 93s-14 42.833 -27 56.5s-30.333 23.167 -52 28.5s-49.5 8 -83.5 8s-63 -3.33301 -87 -10s-44.167 -18 -60.5 -34s-29.666 -37 -39.999 -63
s-19.166 -58.333 -26.499 -97z" />
    <glyph glyph-name="f" unicode="f" horiz-adv-x="795" 
d="M97 796c-12.667 3.33301 -17.668 11.668 -15.001 25.001l41 230c2.66699 13.333 10.667 20 24 20h132l30 160c14 74 32.167 137 54.5 189s53.166 94.5 92.499 127.5s89 57 149 72s134 22.5 222 22.5c18 0 36.167 -0.666992 54.5 -2s36.166 -3 53.499 -5
s33.5 -4.33301 48.5 -7l39.5 -7c13.333 -2.66699 18 -10.667 14 -24l-57 -238c-3.33301 -13.333 -11.666 -19.666 -24.999 -18.999c-18.667 1.33301 -40 2.16602 -64 2.49902s-46.667 0.5 -68 0.5c-37.333 0 -67 -2 -89 -6s-39.333 -10.667 -52 -20s-21.667 -21.5 -27 -36.5
s-10 -33.5 -14 -55.5l-29 -154h210c14 0 19 -6.33301 15 -19l-66 -267c-3.33301 -12.667 -11.666 -19 -24.999 -19h-190l-158 -852c-12.667 -69.333 -30 -128.833 -52 -178.5s-52 -90.5 -90 -122.5s-85.5 -55.667 -142.5 -71s-126.833 -23 -209.5 -23
c-30 0 -61 1.33301 -93 4s-60.333 6 -85 10c-7.33301 1.33301 -12 3.66602 -14 6.99902s-2 8.66602 0 15.999l78 235c3.33301 12.667 12 18 26 16c15.333 -1.33301 31.666 -2.66602 48.999 -3.99902s34.333 -2 51 -2c28 0 50.833 1.83301 68.5 5.5s31.834 9.66699 42.501 18
s18.834 19.833 24.501 34.5s10.5 33 14.5 55l157 852z" />
    <glyph glyph-name="g" unicode="g" horiz-adv-x="1224" 
d="M295 -481c-50.667 0 -99.4971 2.16797 -146.497 6.50098s-91.167 10.166 -132.5 17.499c-13.333 2.66699 -18.333 10.334 -15 23.001l55 226c3.33301 13.333 11.666 19 24.999 17c17.333 -2.66699 36.333 -5 57 -7s41.167 -3.5 61.5 -4.5s39.5 -1.66699 57.5 -2
s33.333 -0.5 46 -0.5c67.333 0 122.333 3.33301 165 10s76.667 18 102 34s44 37 56 63s21.667 58.667 29 98c-23.333 -6 -50.166 -10.833 -80.499 -14.5s-67.5 -5.5 -111.5 -5.5c-92 0 -167.833 8.33301 -227.5 25s-105.5 43.834 -137.5 81.501s-50.833 87.167 -56.5 148.5
s0.166016 136.666 17.499 225.999l29 153c18 95.333 40.833 174.166 68.5 236.499s64.167 112 109.5 149s101.166 63 167.499 78s147.166 22.5 242.499 22.5c92 0 179.333 -2.5 262 -7.5s159 -11.5 229 -19.5c13.333 -0.666992 18.666 -8 15.999 -22l-194 -1037
c-18.667 -99.333 -47 -181 -85 -245s-86 -114.5 -144 -151.5s-125.667 -62.667 -203 -77s-164.666 -21.5 -261.999 -21.5zM633.003 815.001c-40 0 -73 -3.83105 -99 -11.498s-47.333 -20.667 -64 -39s-30.167 -42.5 -40.5 -72.5s-19.833 -67.333 -28.5 -112l-14 -72
c-8.66699 -48 -13.5 -88.333 -14.5 -121s3.5 -58.834 13.5 -78.501s26.833 -33.667 50.5 -42s55.5 -12.5 95.5 -12.5c14 0 28.667 0.166992 44 0.5l45.5 1c15 0.333008 29.5 0.833008 43.5 1.5s26.333 1.66699 37 3l103 546c-19.333 3.33301 -44.833 5.66602 -76.5 6.99902
s-63.5 2 -95.5 2z" />
    <glyph glyph-name="h" unicode="h" horiz-adv-x="1245" 
d="M703 0c-13.333 0 -18.666 6.66895 -15.999 20.002l101 543c6 36.667 9.5 68.667 10.5 96s-3 50 -12 68s-24 31.333 -45 40s-49.833 13 -86.5 13c-30 0 -60.667 -2.33301 -92 -7s-59 -11.334 -83 -20.001l-136 -733c-2.66699 -13.333 -10.667 -20 -24 -20h-292
c-13.333 0 -18.666 6.66699 -15.999 20l289 1562c2.66699 14 10.667 21.333 24 22l300 36c13.333 0.666992 18.666 -5.33301 15.999 -18l-111 -596c50 24 101.833 42.333 155.5 55s107.167 19 160.5 19c60 0 111.5 -8.33301 154.5 -25s76.667 -43.834 101 -81.501
s39.166 -87 44.499 -148s0 -135.833 -16 -224.5l-111 -601c-2.66699 -13.333 -10.667 -20 -24 -20h-292z" />
    <glyph glyph-name="i" unicode="i" horiz-adv-x="590" 
d="M34 0c-13.333 0 -18.666 6.66699 -15.999 20l191 1031c2.66699 13.333 10.667 20 24 20h292c13.333 0 18.666 -6.66699 15.999 -20l-191 -1031c-2.66699 -13.333 -10.667 -20 -24 -20h-292zM260 1219c-13.333 0 -18.666 6.66699 -15.999 20l53 287
c2.66699 14 10.667 21.333 24 22l300 37c13.333 0.666992 18.666 -5.33301 15.999 -18l-62 -328c-2.66699 -13.333 -10.667 -20 -24 -20h-291z" />
    <glyph glyph-name="j" unicode="j" horiz-adv-x="590" 
d="M-163 -481c-30 0 -61 1.33398 -93 4.00098s-60.333 6 -85 10c-7.33301 1.33301 -12 3.66602 -14 6.99902s-2 8.66602 0 15.999l78 235c3.33301 12.667 12 18 26 16c15.333 -1.33301 31.666 -2.66602 48.999 -3.99902s34.333 -2 51 -2c28 0 50.833 1.83301 68.5 5.5
s31.834 9.66699 42.501 18s18.834 19.833 24.501 34.5s10.5 33 14.5 55l209 1137c2.66699 13.333 10.667 20 24 20h292c13.333 0 18.666 -6.66699 15.999 -20l-209 -1137c-12.667 -69.333 -30 -128.833 -52 -178.5s-51.833 -90.5 -89.5 -122.5s-85.167 -55.667 -142.5 -71
s-127.333 -23 -210 -23zM261 1219c-13.333 0 -18.666 6.66699 -15.999 20l51 287c2.66699 14 10.667 21.333 24 22l300 37c13.333 0.666992 18.666 -5.33301 15.999 -18l-60 -328c-2.66699 -13.333 -10.667 -20 -24 -20h-291z" />
    <glyph glyph-name="k" unicode="k" horiz-adv-x="1232" 
d="M708 0c-13.333 0 -22.333 6.33301 -27 19l-156 431l-118 -91l-63 -339c-2.66699 -13.333 -10.667 -20 -24 -20h-292c-13.333 0 -18.666 6.66699 -15.999 20l289 1562c2.66699 14 10.667 21.333 24 22l300 36c13.333 0.666992 18.666 -5.33301 15.999 -18l-155 -834
l350 271c10.667 8 22.667 12 36 12h447c12.667 0 14 -4 4 -12l-529 -404l307 -637c6 -12 2.33301 -18 -11 -18h-382z" />
    <glyph glyph-name="l" unicode="l" horiz-adv-x="604" 
d="M41 0c-13.333 0 -18.666 6.66699 -15.999 20l289 1562c2.66699 14 10.667 21.333 24 22l300 36c13.333 0.666992 18.666 -5.33301 15.999 -18l-297 -1602c-2.66699 -13.333 -10.667 -20 -24 -20h-292z" />
    <glyph glyph-name="m" unicode="m" horiz-adv-x="1777" 
d="M26 0c-13.333 0 -18.6689 6.66699 -16.002 20l195 1050c2.66699 13.333 10.667 20 24 20h230c7.33301 0 12.833 -1.33301 16.5 -4s6.83398 -7.66699 9.50098 -15l17 -52c41.333 25.333 87.166 45.166 137.499 59.499s100.833 21.5 151.5 21.5
c57.333 0 105.666 -6.83301 144.999 -20.5s70.666 -36.167 93.999 -67.5c46 28 95.167 49.667 147.5 65s107.5 23 165.5 23c74 0 135.167 -10 183.5 -30s85 -50.667 110 -92s39 -94 42 -158s-3.5 -140 -19.5 -228l-107 -572c-2.66699 -13.333 -10.667 -20 -24 -20h-287
c-13.333 0 -18.666 6.66699 -15.999 20l98 531c9.33301 48 14.333 87.167 15 117.5s-3.66602 54.333 -12.999 72s-24.166 29.667 -44.499 36s-47.166 9.5 -80.499 9.5c-18 0 -38.333 -2.33301 -61 -7s-44 -11.667 -64 -21c-1.33301 -18 -3.5 -36.667 -6.5 -56l-9.5 -61
l-115 -621c-2.66699 -13.333 -10.667 -20 -24 -20h-284c-13.333 0 -18.666 6.66699 -15.999 20l105 574c6 32 9.66699 59.833 11 83.5s-1.5 43.334 -8.5 59.001s-18.667 27.5 -35 35.5s-38.833 12 -67.5 12c-25.333 0 -51.833 -3 -79.5 -9s-51.834 -14.333 -72.501 -25
l-135 -730c-2.66699 -13.333 -10.667 -20 -24 -20h-288z" />
    <glyph glyph-name="n" unicode="n" 
d="M26 0c-13.333 0 -18.667 6.66895 -16 20.002l195 1050c2.66699 13.333 10.667 20 24 20h230c13.333 0 22.333 -6.33301 27 -19l20 -56c52 27.333 107 48.333 165 63s115.667 22 173 22c60 0 111.5 -8.33301 154.5 -25s76.667 -43.834 101 -81.501s39.166 -87 44.499 -148
s0 -135.833 -16 -224.5l-111 -601c-2.66699 -13.333 -10.667 -20 -24 -20h-292c-13.333 0 -18.666 6.66699 -15.999 20l101 543c6 36.667 9.5 68.667 10.5 96s-3 50 -12 68s-24 31.333 -45 40s-49.833 13 -86.5 13c-30 0 -60.667 -2.33301 -92 -7s-59 -11.334 -83 -20.001
l-136 -733c-2.66699 -13.333 -10.667 -20 -24 -20h-292z" />
    <glyph glyph-name="o" unicode="o" horiz-adv-x="1174" 
d="M624 817c-37.333 0 -68.1689 -3.66797 -92.502 -11.001s-44.666 -20.166 -60.999 -38.499s-29.666 -42.833 -39.999 -73.5s-19.833 -69.334 -28.5 -116.001l-16 -86c-8 -46 -12.333 -84.5 -13 -115.5s3.83301 -55.667 13.5 -74s25 -31.333 46 -39
s49.167 -11.5 84.5 -11.5c36.667 0 67.334 3.83301 92.001 11.5s45.167 20.834 61.5 39.501s29.833 43.5 40.5 74.5s20.334 69.833 29.001 116.5l17 84c8.66699 46.667 13.5 85.334 14.5 116.001s-3.33301 55.167 -13 73.5s-25.334 31.166 -47.001 38.499
s-50.834 11 -87.501 11zM465.997 -31.001c-90.667 0 -165.999 9.83301 -225.999 29.5s-106.167 50.334 -138.5 92.001s-51.666 94.834 -57.999 159.501s-1.5 141.667 14.5 231l21 105c16 89.333 39.167 166.333 69.5 231s69.333 118 117 160s105.167 73 172.5 93
s146.333 30 237 30s166.167 -10 226.5 -30s106.666 -51 138.999 -93s51.833 -95.333 58.5 -160s1.66699 -141.667 -15 -231l-20 -105c-16.667 -89.333 -40 -166.333 -70 -231s-69 -117.834 -117 -159.501s-105.833 -72.334 -173.5 -92.001s-146.834 -29.5 -237.501 -29.5z
" />
    <glyph glyph-name="p" unicode="p" horiz-adv-x="1223" 
d="M651 815c-10.667 0 -23.667 -0.166016 -39 -0.499023s-30.666 -0.833008 -45.999 -1.5s-30.166 -1.66699 -44.499 -3s-25.833 -3 -34.5 -5l-102 -545c21.333 -2 45.666 -3.5 72.999 -4.5s59.666 -1.5 96.999 -1.5c40 0 73.333 4.16699 100 12.5s48.667 22.166 66 41.499
s31.5 45 42.5 77s20.833 71.667 29.5 119l14 71c8 46 12.333 84.5 13 115.5s-4.5 55.667 -15.5 74s-28.833 31.333 -53.5 39s-58 11.5 -100 11.5zM-58 -452.999c-13.333 0 -18.667 6.66797 -16 20.001l275 1482c2.66699 14 10.667 21.333 24 22
c80.667 8.66699 161.5 15.667 242.5 21s160.833 8 239.5 8c98.667 0 179.5 -8.33301 242.5 -25s111 -43.834 144 -81.501s52.167 -87.167 57.5 -148.5s0 -137 -16 -227l-29 -151c-17.333 -92.667 -40.333 -170.834 -69 -234.501s-66.167 -115 -112.5 -154
s-103.333 -67 -171 -84s-149.5 -25.5 -245.5 -25.5c-32 0 -62.5 1.83301 -91.5 5.5s-55.833 8.83398 -80.5 15.501l-78 -423c-2.66699 -13.333 -10.667 -20 -24 -20h-292z" />
    <glyph glyph-name="q" unicode="q" horiz-adv-x="1223" 
d="M644 815c-42.667 0 -77.8291 -3.83398 -105.496 -11.501s-50.334 -20.667 -68.001 -39s-31.834 -43 -42.501 -74s-20 -69.5 -28 -115.5l-14 -71c-8.66699 -47.333 -13.5 -87 -14.5 -119s3.66699 -57.667 14 -77s27.166 -33.166 50.499 -41.499s55 -12.5 95 -12.5
c37.333 0 69.666 0.5 96.999 1.5s52.333 2.5 75 4.5l101 545c-8.66699 2 -19.5 3.66699 -32.5 5s-26.833 2.33301 -41.5 3s-29.5 1.16699 -44.5 1.5s-28.833 0.5 -41.5 0.5zM590.005 -453.001c-13.333 0 -18.667 6.66895 -16 20.002l78 423
c-26.667 -6.66699 -55.334 -11.834 -86.001 -15.501s-62 -5.5 -94 -5.5c-95.333 0 -173.666 8.33301 -234.999 25s-108 44.167 -140 82.5s-50.667 88.666 -56 150.999s0.333984 138.833 17.001 229.5l29 161c16.667 90 39.167 165.667 67.5 227s66 110.833 113 148.5
s105.5 64.834 175.5 81.501s155.333 25 256 25c38 0 77.333 -0.833008 118 -2.5s81.334 -3.83398 122.001 -6.50098s80.167 -5.66699 118.5 -9s74.166 -7 107.499 -11c13.333 -0.666992 18.666 -8 15.999 -22l-275 -1482c-2.66699 -13.333 -10.667 -20 -24 -20h-292z" />
    <glyph glyph-name="r" unicode="r" horiz-adv-x="827" 
d="M26 0c-13.333 0 -18.666 6.66797 -15.999 20.001l195 1050c2.66699 13.333 10.667 20 24 20h230c13.333 0 22.333 -6.33301 27 -19l21 -57c22.667 18.667 47.667 33.667 75 45s54.666 20 81.999 26s53.833 10 79.5 12s48.167 3 67.5 3c20 0 35.667 -1.33301 47 -4
c12.667 -2 17.667 -9.33301 15 -22l-71 -299c-2 -7.33301 -4.83301 -12.333 -8.5 -15s-9.16699 -3.33398 -16.5 -2.00098c-8 0.666992 -16 1.16699 -24 1.5s-16.667 0.5 -26 0.5c-50 0 -95.667 -2.33301 -137 -7s-80.333 -12.667 -117 -24l-131 -709
c-2.66699 -13.333 -10.667 -20 -24 -20h-292z" />
    <glyph glyph-name="s" unicode="s" horiz-adv-x="1024" 
d="M348 -31c-18.667 0 -41.832 0.667969 -69.499 2.00098s-57 3.16602 -88 5.49902s-62.167 5.33301 -93.5 9s-60.333 7.83398 -87 12.501c-13.333 2.66699 -18.333 10.334 -15 23.001l55 238c2 7.33301 4.83301 12.333 8.5 15s9.16699 3.66699 16.5 3
c32 -4 61.667 -7.33301 89 -10s53.166 -4.83398 77.499 -6.50098s47.5 -2.83398 69.5 -3.50098s44 -1 66 -1c41.333 0 74.5 0.833008 99.5 2.5s44 4.83398 57 9.50098s21.5 10.667 25.5 18s6 17 6 29c0 4.66699 -1.16699 9.33398 -3.5 14.001s-7 9.66699 -14 15
s-17 11 -30 17s-29.833 12.667 -50.5 20l-172 59c-37.333 12.667 -68.5 27.334 -93.5 44.001s-45.167 35.167 -60.5 55.5s-26.333 42.666 -33 66.999s-10 50.833 -10 79.5c0 85.333 12.333 155 37 209s60.5 96.167 107.5 126.5s104.5 51 172.5 62s145.333 16.5 232 16.5
c57.333 0 111.5 -2.66699 162.5 -8s98.167 -11.333 141.5 -18c14 -2 19 -9.33301 15 -22l-58 -237c-2 -7.33301 -4.83301 -12.333 -8.5 -15s-9.16699 -3.66699 -16.5 -3c-21.333 2 -44.166 4 -68.499 6s-47.833 3.83301 -70.5 5.5s-43.834 2.83398 -63.501 3.50098
s-35.5 1 -47.5 1c-38 0 -69.5 -0.666992 -94.5 -2s-45 -4 -60 -8s-25.5 -9.83301 -31.5 -17.5s-9 -17.5 -9 -29.5c0 -5.33301 1.33301 -10.333 4 -15s8 -9.66699 16 -15s19 -10.833 33 -16.5s32.667 -12.167 56 -19.5l151 -49c38.667 -12.667 71.5 -26.334 98.5 -41.001
s48.833 -31.5 65.5 -50.5s28.667 -40.5 36 -64.5s11 -52 11 -84c0 -94 -13 -169.333 -39 -226s-63.333 -100.334 -112 -131.001s-107.5 -50.834 -176.5 -60.501s-146.833 -14.5 -233.5 -14.5z" />
    <glyph glyph-name="t" unicode="t" horiz-adv-x="855" 
d="M398 -31c-52.667 0 -97.668 4.99512 -135.001 14.9951s-66.333 28.167 -87 54.5s-33 62.833 -37 109.5s0.666992 106.667 14 180l83 448l-147 29c-13.333 2.66699 -18.666 10.667 -15.999 24l41 222c2.66699 13.333 10.667 20 24 20h152l35 191
c2.66699 14 10.667 21.333 24 22l300 37c13.333 0.666992 18.666 -5.33301 15.999 -18l-44 -232h263c13.333 0 18 -6.33301 14 -19l-84 -257c-3.33301 -12.667 -12 -19 -26 -19h-220l-80 -430c-3.33301 -18.667 -4.33301 -33.667 -3 -45s5.33301 -20 12 -26
s16.167 -10 28.5 -12s27.833 -3 46.5 -3c13.333 0 29.666 0.5 48.999 1.5s36.666 2.16699 51.999 3.5c12.667 0.666992 18.667 -5.66602 18 -18.999l-29 -227c-0.666992 -7.33301 -2.5 -12.666 -5.5 -15.999s-8.16699 -6 -15.5 -8
c-15.333 -3.33301 -32.666 -6.66602 -51.999 -9.99902s-39.666 -6.16602 -60.999 -8.49902s-43.166 -4.16602 -65.499 -5.49902s-43.833 -2 -64.5 -2z" />
    <glyph glyph-name="u" unicode="u" 
d="M517 -31c-103.333 0 -186.67 8.66504 -250.003 25.998s-110.5 45.5 -141.5 84.5s-48 90.333 -51 154s3.83301 141.5 20.5 233.5l109 584c2.66699 13.333 10.667 20 24 20h291c13.333 0 18.666 -6.66699 15.999 -20l-104 -562
c-7.33301 -42 -11.166 -77.167 -11.499 -105.5s4.5 -51.166 14.5 -68.499s26 -29.833 48 -37.5s52 -11.5 90 -11.5c22 0 46.333 0.833008 73 2.5s50.334 5.16699 71.001 10.5l143 772c2.66699 13.333 10.667 20 24 20h292c13.333 0 18.666 -6.66699 15.999 -20l-184 -997
c-1.33301 -7.33301 -3.66602 -12.666 -6.99902 -15.999s-8.66602 -6 -15.999 -8c-29.333 -8 -63.166 -15.667 -101.499 -23s-78.5 -13.833 -120.5 -19.5s-84.167 -10.167 -126.5 -13.5s-81.833 -5 -118.5 -5z" />
    <glyph glyph-name="v" unicode="v" horiz-adv-x="1127" 
d="M226 0c-14 0 -21.335 6.66699 -22.002 20l-121 1031c-0.666992 13.333 5.33301 20 18 20h320c13.333 0 20.333 -6.66699 21 -20l40 -772l330 774c3.33301 7.33301 7 12.166 11 14.499s9.66699 3.5 17 3.5h337c13.333 0 17 -6 11 -18l-506 -1035
c-3.33301 -7.33301 -7.16602 -12.166 -11.499 -14.499s-10.166 -3.5 -17.499 -3.5h-427z" />
    <glyph glyph-name="w" unicode="w" horiz-adv-x="1718" 
d="M177 0c-13.333 0 -20.333 6.66504 -21 19.998l-29 1031c-0.666992 13.333 5.66602 20 18.999 20h316c13.333 0 19.666 -6.66699 18.999 -20l-25 -662c0 -0.666992 -0.333008 -8.66699 -1 -24s-1.5 -32.166 -2.5 -50.499s-1.83301 -35 -2.5 -50s-0.666992 -22.5 0 -22.5
s2.33398 4.16699 5.00098 12.5s6.5 19 11.5 32l17 45.5c6.33301 17.333 13.5 35 21.5 53l289 668c3.33301 7.33301 7 12.166 11 14.499s9.66699 3.5 17 3.5h242c13.333 0 20.333 -6.66699 21 -20l38 -670l2 -49.5c0.666992 -16.333 1 -31.166 1 -44.499v-32.5
c0 -8.33301 0.333008 -12.5 1 -12.5s2.16699 3.5 4.5 10.5l8.5 26.5l11 34.5l11.5 34.5l9 26.5l3.5 10.5l223 667c3.33301 12.667 12 19 26 19h316c13.333 0 17.666 -6.33301 12.999 -19l-416 -1033c-2.66699 -7.33301 -6 -12.333 -10 -15s-9.66699 -4 -17 -4h-394
c-14 0 -21.333 6.66699 -22 20l-45 396c-1.33301 12 -2 25.833 -2 41.5v44.5c0 14 0.166992 25.667 0.5 35s0.166016 14 -0.500977 14s-2.66699 -4.83301 -6 -14.5s-7.66602 -21.5 -12.999 -35.5l-17.5 -44c-6.33301 -15.333 -12.5 -29 -18.5 -41l-192 -398
c-3.33301 -7.33301 -7.16602 -12.166 -11.499 -14.499s-10.166 -3.5 -17.499 -3.5h-394z" />
    <glyph glyph-name="x" unicode="x" horiz-adv-x="1178" 
d="M682 0c-13.333 0 -22.333 6.33301 -27 19l-111 310l-227 -313c-8 -10.667 -18.667 -16 -32 -16h-369c-13.333 0 -15.666 5 -6.99902 15l448 535l-237 503c-6 12 -2.33301 18 11 18h336c13.333 0 22.333 -6.33301 27 -19l111 -307l227 310c8 10.667 18.667 16 32 16h369
c13.333 0 15.666 -5 6.99902 -15l-448 -529l238 -509c4.66699 -12 0.666992 -18 -12 -18h-336z" />
    <glyph glyph-name="y" unicode="y" horiz-adv-x="1112" 
d="M-33 -481c-10.667 0 -22.3301 0.334961 -34.9971 1.00195s-25.5 1.66699 -38.5 3s-25.667 2.83301 -38 4.5s-23.5 3.5 -33.5 5.5c-12.667 2 -17 9.66699 -13 23l76 239c2 7.33301 5 12.166 9 14.499s9.66699 3.16602 17 2.49902c14 -2 29.167 -3.66699 45.5 -5
s32.166 -2 47.499 -2c50 0 92.167 3.16699 126.5 9.5s64 17 89 32s47.167 35 66.5 60s39.333 56.5 60 94.5c-2.66699 0.666992 -8.66699 4 -18 10s-20.333 17.833 -33 35.5s-25.667 43.167 -39 76.5s-25 78 -35 134l-151 794c-2.66699 13.333 2.66602 20 15.999 20h332
c14 0 21.333 -6.66699 22 -20l58 -486c5.33301 -40 9.83301 -77.333 13.5 -112l8.5 -81l272 680c2.66699 7.33301 6 12.333 10 15s9.66699 4 17 4h341c13.333 0 17 -6 11 -18l-550 -1135c-35.333 -74 -71.5 -136.333 -108.5 -187s-80.167 -91.667 -129.5 -123
s-107.333 -54 -174 -68s-147.334 -21 -242.001 -21z" />
    <glyph glyph-name="z" unicode="z" horiz-adv-x="1105" 
d="M152 776c-16.667 0 -23.334 8 -20.001 24l48 255c1.33301 5.33301 3.16602 9.33301 5.49902 12s7.16602 4 14.499 4h864c16.667 0 23.334 -8 20.001 -24l-41 -214c-4 -21.333 -12.667 -38.333 -26 -51l-533 -485h447c16.667 0 23.334 -8 20.001 -24l-49 -257
c-1.33301 -5.33301 -3.16602 -9.33301 -5.49902 -12s-7.16602 -4 -14.499 -4h-885c-16.667 0 -23.334 8 -20.001 24l41 208c6 28 18.333 50.333 37 67l517 477h-420z" />
    <glyph glyph-name="braceleft" unicode="{" horiz-adv-x="816" 
d="M439 -389c-52.667 0 -99.667 0.999023 -141 2.99902s-77.166 7.33301 -107.499 16s-55.333 21.834 -75 39.501s-33.834 42 -42.501 73s-12 70 -10 117s9.33301 104.167 22 171.5l31 174c5.33301 26.667 8.33301 49.834 9 69.501s-1.66602 36.667 -6.99902 51
s-14.5 26.333 -27.5 36s-30.5 17.834 -52.5 24.501c-12.667 3.33301 -17.667 11.666 -15 24.999l50 263c2.66699 13.333 10.334 21.666 23.001 24.999c24 6.66699 44.167 15 60.5 25s30 22 41 36s19.667 30.833 26 50.5s12.166 43.167 17.499 70.5l32 174
c12.667 67.333 26.834 124.333 42.501 171s33.667 85.667 54 117s43.5 55.833 69.5 73.5s55.833 30.834 89.5 39.501s71.5 14 113.5 16s89 3 141 3h120c13.333 0 18.666 -6.66699 15.999 -20l-52 -288c-2.66699 -13.333 -10.667 -20 -24 -20h-121
c-19.333 0 -34.666 -1.66699 -45.999 -5s-20.333 -8.33301 -27 -15s-11.5 -15.167 -14.5 -25.5s-5.83301 -22.5 -8.5 -36.5l-35 -184c-9.33301 -50 -19.833 -91.333 -31.5 -124s-26 -60.667 -43 -84s-37.5 -43.833 -61.5 -61.5s-53 -35.834 -87 -54.501l-5 -29
c27.333 -18.667 49.833 -36.667 67.5 -54s30.667 -37.666 39 -60.999s12.166 -51.333 11.499 -84s-5.66699 -73.334 -15 -122.001l-33 -187c-3.33301 -14 -5.16602 -26.167 -5.49902 -36.5s1.5 -18.833 5.5 -25.5s11.167 -11.5 21.5 -14.5s25.166 -4.5 44.499 -4.5h119
c13.333 0 18.666 -6.66699 15.999 -20l-51 -288c-2.66699 -13.333 -10.667 -20 -24 -20h-120v0z" />
    <glyph glyph-name="bar" unicode="|" horiz-adv-x="746" 
d="M197 -389c-13.333 0 -20 6.66699 -20 20v1824c0 13.333 6.66699 20 20 20h310c13.333 0 20 -6.66699 20 -20v-1824c0 -13.333 -6.66699 -20 -20 -20h-310z" />
    <glyph glyph-name="braceright" unicode="}" horiz-adv-x="810" 
d="M343 1474c52.667 0 99.667 -0.993164 141 -2.99316s77.166 -7.33301 107.499 -16s55.333 -21.834 75 -39.501s33.834 -42 42.501 -73s12 -70 10 -117s-9.33301 -104.167 -22 -171.5l-31 -174c-5.33301 -26.667 -8.33301 -49.834 -9 -69.501s1.66602 -36.667 6.99902 -51
s14.5 -26.333 27.5 -36s30.5 -17.834 52.5 -24.501c12.667 -3.33301 17.667 -11.666 15 -24.999l-50 -263c-2.66699 -13.333 -10.334 -21.666 -23.001 -24.999c-24 -7.33301 -44.167 -15.833 -60.5 -25.5s-30 -21.5 -41 -35.5s-19.833 -31 -26.5 -51
s-12.334 -43.333 -17.001 -70l-32 -174c-12.667 -67.333 -26.834 -124.333 -42.501 -171s-33.667 -85.667 -54 -117s-43.5 -55.833 -69.5 -73.5s-55.833 -30.834 -89.5 -39.501s-71.5 -14 -113.5 -16s-89 -3 -141 -3h-120c-13.333 0 -18.666 6.66699 -15.999 20l52 288
c2.66699 13.333 10.667 20 24 20h121c18.667 0 33.834 1.66699 45.501 5s20.834 8.33301 27.501 15s11.5 15.167 14.5 25.5s5.83301 22.5 8.5 36.5l35 184c9.33301 50 19.666 91.333 30.999 124s25.5 60.667 42.5 84s37.667 43.666 62 60.999s53.5 35.666 87.5 54.999l5 29
c-27.333 18.667 -49.833 36.667 -67.5 54s-30.667 37.666 -39 60.999s-12.166 51.166 -11.499 83.499s5.66699 73.166 15 122.499l33 187c2.66699 14 4.33398 26.167 5.00098 36.5s-1 18.833 -5 25.5s-11.333 11.5 -22 14.5s-25.334 4.5 -44.001 4.5h-119
c-13.333 0 -18.666 6.66699 -15.999 20l51 288c2.66699 13.333 10.667 20 24 20h120v0z" />
    <glyph glyph-name="asciitilde" unicode="~" horiz-adv-x="1159" 
d="M111 512c-13.333 0 -18.668 6.66992 -16.001 20.0029l14 76c12 67.333 29.167 120.666 51.5 159.999s47.5 69.166 75.5 89.499s57.5 33.333 88.5 39s61.167 8.5 90.5 8.5c37.333 0 70 -4.5 98 -13.5s54.667 -22.833 80 -41.5l57 -41c29.333 -20.667 53.333 -36 72 -46
s36 -15 52 -15c10 0 19 1.33301 27 4s15.333 8.66699 22 18s12.834 22.833 18.501 40.5s11.5 41.834 17.5 72.501c2.66699 13.333 10.667 20 24 20h200c13.333 0 19 -6.66699 17 -20l-14 -76c-12 -67.333 -29.167 -120.833 -51.5 -160.5s-47.5 -69.834 -75.5 -90.501
s-57.5 -33.834 -88.5 -39.501s-61.5 -8.5 -91.5 -8.5c-36.667 0 -68.667 4.16699 -96 12.5s-54.333 22.5 -81 42.5l-57 43c-29.333 22 -53.166 37.833 -71.499 47.5s-35.5 14.5 -51.5 14.5c-10.667 0 -20 -1.33301 -28 -4s-15.333 -8.66699 -22 -18s-12.834 -23 -18.501 -41
s-11.5 -42.333 -17.5 -73c-2.66699 -13.333 -10.667 -20 -24 -20h-201z" />
    <glyph glyph-name="uni007F" horiz-adv-x="0" 
 />
    <glyph glyph-name="uni00A0" unicode="&#xa0;" horiz-adv-x="508" 
 />
    <glyph glyph-name="exclamdown" unicode="&#xa1;" horiz-adv-x="621" 
d="M417 457c13.333 0 18.999 -6.66699 16.999 -20l-131 -821c-2 -14 -9.66699 -21.333 -23 -22l-320 -37c-13.333 -0.666992 -18.666 5.33301 -15.999 18l178 862c2.66699 13.333 10.667 20 24 20h271zM549.999 1071c13.333 0 18.666 -6.66699 15.999 -20l-55 -300
c-2.66699 -14 -10.667 -21.333 -24 -22l-298 -35c-13.333 -0.666992 -18.666 5.33301 -15.999 18l62 339c2.66699 13.333 10.667 20 24 20h291z" />
    <glyph glyph-name="cent" unicode="&#xa2;" horiz-adv-x="941" 
d="M361 -246c-13.333 0 -18.6689 6.66406 -16.002 19.9971l36 198c-83.333 4.66699 -150.5 17.834 -201.5 39.501s-88.833 53.5 -113.5 95.5s-37.667 95.167 -39 159.5s6.33398 141.5 23.001 231.5l25 131c16.667 90 37.5 167 62.5 231s57.667 117 98 159
s90 73.833 149 95.5s130.5 34.834 214.5 39.501l37 198c2.66699 13.333 10.667 20 24 20h136c13.333 0 18.666 -6.66699 15.999 -20l-36 -197c32.667 -1.33301 63.334 -3.33301 92.001 -6s54.667 -6 78 -10c7.33301 -1.33301 12 -3.66602 14 -6.99902s2 -8.66602 0 -15.999
l-81 -257c-2.66699 -7.33301 -5.83398 -12.333 -9.50098 -15s-9.16699 -3.33398 -16.5 -2.00098l-134 9l-111 -599c22.667 0.666992 44.834 1.5 66.501 2.5s43.834 3.16699 66.501 6.5c13.333 2 20 -3.66699 20 -17l-6 -232c0 -13.333 -6.66699 -21.333 -20 -24
c-24.667 -4 -52.5 -7.33301 -83.5 -10s-63.167 -5 -96.5 -7l-36 -197c-2.66699 -13.333 -10.667 -20 -24 -20h-134zM375.997 501.997c-7.33301 -37.333 -12.5 -69.832 -15.5 -97.499s-2.83301 -51.167 0.5 -70.5s10.833 -35 22.5 -47s28.5 -20.667 50.5 -26l108 582
c-24 -6.66699 -44 -16.5 -60 -29.5s-29.5 -29.333 -40.5 -49s-20 -42.834 -27 -69.501s-13.833 -57 -20.5 -91z" />
    <glyph glyph-name="sterling" unicode="&#xa3;" horiz-adv-x="1169" 
d="M98 578c-13.333 0 -18.666 6.66797 -15.999 20.001l53 287c2.66699 13.333 10.667 20 24 20h111l15 78c10 53.333 21 102.666 33 147.999s27.333 86.166 46 122.499s42 68.333 70 96s62.5 50.834 103.5 69.501s89.667 32.667 146 42s122.833 14 199.5 14h305
c13.333 0 18.666 -6.66699 15.999 -20l-53 -288c-2.66699 -13.333 -10.667 -20 -24 -20h-306c-38 0 -68 -3.33301 -90 -10s-39.333 -16.5 -52 -29.5s-21.667 -29 -27 -48s-10.333 -41.167 -15 -66.5l-17 -88h370c13.333 0 17.666 -6.33301 12.999 -19l-99 -289
c-4.66699 -12.667 -13.667 -19 -27 -19h-318l-12 -66c-8 -42 -16.5 -77.833 -25.5 -107.5s-20.167 -55.167 -33.5 -76.5h536c13.333 0 18.666 -6.66699 15.999 -20l-53 -288c-2.66699 -13.333 -10.667 -20 -24 -20h-972c-13.333 0 -18.666 6.66699 -15.999 20l52 286
c2.66699 13.333 10.334 21.666 23.001 24.999c24.667 6.66699 45.334 14.834 62.001 24.501s30.5 21.5 41.5 35.5s19.667 30.833 26 50.5s12.166 43.167 17.499 70.5l12 66h-111z" />
    <glyph glyph-name="currency" unicode="&#xa4;" horiz-adv-x="1300" 
d="M167 1034c-5.33301 6 -7.66504 11.002 -6.99805 15.002s3.66699 8.66699 9 14l239 200c5.33301 5.33301 10 7.66602 14 6.99902s8.66699 -4 14 -10l98 -122c64.667 22 138 33 220 33c77.333 0 143.666 -12 198.999 -36l152 128c5.33301 5.33301 10 7.66602 14 6.99902
s8.66699 -4 14 -10l155 -194c5.33301 -6 7.66602 -11 6.99902 -15s-3.66699 -8.66699 -9 -14l-170 -144c1.33301 -12.667 2.5 -25.667 3.5 -39s1.5 -27 1.5 -41c0 -128.667 -20.333 -236.667 -61 -324l99 -122c5.33301 -5.33301 7.66602 -10 6.99902 -14
s-3.66699 -8.66699 -9 -14l-235 -199c-5.33301 -5.33301 -10 -7.66602 -14 -6.99902s-8.66699 3.66699 -14 9l-98 117c-63.333 -20 -135.333 -30 -216 -30c-39.333 0 -75.833 3.16699 -109.5 9.5s-64.5 16.166 -92.5 29.499l-153 -128c-10 -8.66699 -19.333 -7.66699 -28 3
l-157 195c-5.33301 6 -7.66602 11 -6.99902 15s3.66699 8.66699 9 14l171 144c-2 13.333 -3.33301 27 -4 41s-1 28.667 -1 44c0 62.667 5.33301 119.667 16 171s25.667 98 45 140zM502.001 657.002c0 -25.333 3.66699 -46.333 11 -63s17 -29.667 29 -39
s26.167 -15.833 42.5 -19.5s33.5 -5.5 51.5 -5.5c24.667 0 48.5 3.16699 71.5 9.5s43.167 17.666 60.5 33.999s31.333 38.5 42 66.5s16 64 16 108c0 24.667 -3.33301 45.167 -10 61.5s-15.834 29.333 -27.501 39s-25.167 16.334 -40.5 20.001s-31.666 5.5 -48.999 5.5
c-25.333 0 -49.833 -3.16699 -73.5 -9.5s-44.667 -17.833 -63 -34.5s-33 -39 -44 -67s-16.5 -63.333 -16.5 -106z" />
    <glyph glyph-name="yen" unicode="&#xa5;" horiz-adv-x="1393" 
d="M160 510c-13.333 0 -17.666 6.33301 -12.999 19l47 138c4.66699 12.667 13.667 19 27 19h217l-233 770c-4 12.667 0.666992 19 14 19h355c13.333 0 21.666 -6.33301 24.999 -19l139 -560l347 562c4 6.66699 8.33301 11.167 13 13.5s10.667 3.5 18 3.5h353
c13.333 0 16.333 -5.66699 9 -17l-519 -772h268c13.333 0 17.666 -6.33301 12.999 -19l-47 -138c-4.66699 -12.667 -13.667 -19 -27 -19h-324l-24 -129h353c13.333 0 17.666 -6.33301 12.999 -19l-48 -138c-4.66699 -12.667 -13.667 -19 -27 -19h-324l-33 -185
c-2.66699 -13.333 -10.667 -20 -24 -20h-310c-13.333 0 -18.666 6.66699 -15.999 20l33 185h-332c-13.333 0 -17.666 6.33301 -12.999 19l48 138c4.66699 12.667 13.667 19 27 19h302l24 129h-331z" />
    <glyph glyph-name="brokenbar" unicode="&#xa6;" horiz-adv-x="748" 
d="M220 707c-13.333 0 -20.3311 6.66699 -20.998 20l-18 728c-0.666992 13.333 5.66602 20 18.999 20h310c13.333 0 19.666 -6.66699 18.999 -20l-18 -728c-0.666992 -13.333 -7.66699 -20 -21 -20h-270zM200.002 -389c-13.333 0 -19.668 6.66699 -19.001 20l18 728
c0.666992 13.333 7.66699 20 21 20h270c13.333 0 20.333 -6.66699 21 -20l18 -728c0.666992 -13.333 -5.66602 -20 -18.999 -20h-310z" />
    <glyph glyph-name="section" unicode="&#xa7;" horiz-adv-x="1138" 
d="M299 -453c-30 0 -61.168 1.00293 -93.501 3.00293s-64.333 5 -96 9s-62 8.66699 -91 14s-55.167 11.666 -78.5 18.999c-12.667 3.33301 -17 11.666 -13 24.999l98 283c3.33301 12.667 12 18 26 16c28 -4.66699 54.5 -8.83398 79.5 -12.501s49.5 -6.83398 73.5 -9.50098
s48.167 -4.83398 72.5 -6.50098s49.833 -2.5 76.5 -2.5c42.667 0 77.334 1.5 104.001 4.5s47.667 7.5 63 13.5s25.833 13.833 31.5 23.5s8.5 21.167 8.5 34.5c0 7.33301 -1.83301 14.5 -5.5 21.5s-10.5 14.833 -20.5 23.5s-23.833 18.667 -41.5 30s-40.5 25 -68.5 41
l-147 83c-37.333 21.333 -69.166 43.333 -95.499 66s-47.833 46.667 -64.5 72s-28.667 52.166 -36 80.499s-11 59.166 -11 92.499c0 76.667 11.667 146 35 208s61.333 115 114 159c-32 50.667 -48 110.667 -48 180c0 88 11.833 163 35.5 225s61.334 112.333 113.001 151
s118.5 66.834 200.5 84.501s181.667 26.5 299 26.5c22 0 46.333 -0.666992 73 -2s54 -3.66602 82 -6.99902s55.667 -7.66602 83 -12.999s52.666 -12.333 75.999 -21c7.33301 -3.33301 11.833 -6.66602 13.5 -9.99902s1.5 -8.66602 -0.5 -15.999l-95 -272
c-4.66699 -12.667 -13.667 -18 -27 -16c-44 7.33301 -88.5 12.333 -133.5 15s-84.833 4 -119.5 4c-46.667 0 -84.167 -2.16699 -112.5 -6.5s-50.333 -10.333 -66 -18s-26.167 -16.834 -31.5 -27.501s-8 -22 -8 -34c0 -7.33301 1.83301 -14.166 5.5 -20.499
s10.5 -13.666 20.5 -21.999s23.833 -17.833 41.5 -28.5l68.5 -40l161 -91c71.333 -40.667 121.5 -85.334 150.5 -134.001s43.5 -103.334 43.5 -164.001c0 -90 -13.167 -164.5 -39.5 -223.5s-62.5 -107.5 -108.5 -145.5c31.333 -52 47 -111.333 47 -178
c0 -84.667 -12.833 -157.667 -38.5 -219s-64.834 -111.833 -117.501 -151.5s-119.5 -69 -200.5 -88s-176.833 -28.5 -287.5 -28.5zM675.999 486.003c0 13.333 -2.16699 25.6699 -6.5 37.0029s-12.166 22.5 -23.499 33.5s-26.666 22.5 -45.999 34.5s-44 25.333 -74 40l-60 29
c-9.33301 -16 -16.5 -33 -21.5 -51s-7.5 -33.667 -7.5 -47c0 -14 2.16699 -26.667 6.5 -38s12.166 -22.333 23.499 -33s26.666 -21.834 45.999 -33.501s44 -24.834 74 -39.501l63 -31c9.33301 17.333 16 35.166 20 53.499s6 33.5 6 45.5z" />
    <glyph glyph-name="dieresis" unicode="&#xa8;" horiz-adv-x="764" 
d="M241 1219c-13.333 0 -18.666 6.66699 -15.999 20l54 287c2.66699 14 10.667 21.333 24 22l287 37c13.333 0.666992 18.666 -5.33301 15.999 -18l-59 -328c-2.66699 -13.333 -10.667 -20 -24 -20h-282zM694 1219c-13.333 0 -18.666 6.66699 -15.999 20l53 287
c2.66699 14 10.667 21.333 24 22l288 37c13.333 0.666992 18.666 -5.33301 15.999 -18l-60 -328c-2.66699 -13.333 -10.667 -20 -24 -20h-281z" />
    <glyph glyph-name="copyright" unicode="&#xa9;" horiz-adv-x="1557" 
d="M767 338c-66 0 -120.833 8.83203 -164.5 26.499s-77 43.167 -100 76.5s-36.5 73.833 -40.5 121.5s0 101.834 12 162.501l12 59c11.333 60.667 27.666 113 48.999 157s49 80.333 83 109s75.333 50 124 64s106 21 172 21c34 0 67.5 -2 100.5 -6s62.167 -8.66699 87.5 -14
c13.333 -2.66699 18 -10.667 14 -24l-70 -245c-2 -7.33301 -4.83301 -12.333 -8.5 -15s-9.16699 -3.66699 -16.5 -3c-25.333 2 -48.666 3.5 -69.999 4.5s-44.666 1.5 -69.999 1.5c-14 0 -26 -2.33301 -36 -7s-18.5 -10.834 -25.5 -18.501s-12.667 -16.167 -17 -25.5
s-7.5 -19 -9.5 -29l-6 -33c-2 -10 -2.66699 -20 -2 -30s3 -18.833 7 -26.5s10.167 -13.834 18.5 -18.501s19.5 -7 33.5 -7c28 0 52.833 0.5 74.5 1.5s44.167 2.16699 67.5 3.5c14 0.666992 20 -5.66602 18 -18.999l-18 -244c-1.33301 -7.33301 -3.33301 -12.666 -6 -15.999
s-7.66699 -6 -15 -8c-26.667 -5.33301 -57.834 -9.83301 -93.501 -13.5s-70.5 -5.5 -104.5 -5.5zM336 585.999c0 -56.667 6.66699 -106.668 20 -150.001s34.833 -79.666 64.5 -108.999s68.167 -51.5 115.5 -66.5s105 -22.5 173 -22.5c84.667 0 161 11.333 229 34
s125.667 59.667 173 111s83.666 118.166 108.999 200.499s38 183.5 38 303.5c0 56 -6.5 105.667 -19.5 149s-33.833 79.833 -62.5 109.5s-66 52 -112 67s-102 22.5 -168 22.5c-86 0 -163.667 -11.333 -233 -34s-128.166 -59.667 -176.499 -111
s-85.5 -118.166 -111.5 -200.499s-39 -183.5 -39 -303.5zM1510 886.998c0 -130 -14.666 -249.499 -43.999 -358.499s-77.166 -202.667 -143.499 -281s-153.333 -139.5 -261 -183.5s-239.5 -66 -395.5 -66c-97.333 0 -182.333 13.333 -255 40s-133.167 64.834 -181.5 114.501
s-84.5 110.167 -108.5 181.5s-36 151.666 -36 240.999c0 132 15 253 45 363s78.5 204.833 145.5 284.5s154.5 141.667 262.5 186s240 66.5 396 66.5c98 0 183.167 -13.5 255.5 -40.5s132.166 -66 179.499 -117s82.666 -112.833 105.999 -185.5s35 -154.334 35 -245.001z" />
    <glyph glyph-name="ordfeminine" unicode="&#xaa;" horiz-adv-x="1006" 
d="M530 897c14 0 28.333 0.332031 43 0.999023s28.667 1.66699 42 3l18 98h-27c-25.333 0 -46.833 -0.833008 -64.5 -2.5s-32 -5 -43 -10s-18.833 -11.667 -23.5 -20s-7 -19.166 -7 -32.499c0 -17.333 6.16699 -27.833 18.5 -31.5s26.833 -5.5 43.5 -5.5zM554 1268
c-14 0 -29.835 -0.162109 -47.502 -0.495117s-36.167 -0.833008 -55.5 -1.5s-38.833 -1.5 -58.5 -2.5s-38.5 -1.83301 -56.5 -2.5c-13.333 -0.666992 -18.666 5.66602 -15.999 18.999l33 182c1.33301 7.33301 3.83301 12.666 7.5 15.999s9.16699 5.66602 16.5 6.99902
c20 3.33301 41.5 6.16602 64.5 8.49902s46 4.33301 69 6s45 3 66 4s39.833 1.5 56.5 1.5c84.667 0 150.834 -6.83301 198.501 -20.5s82 -34.5 103 -62.5s31.5 -62.833 31.5 -104.5s-5 -90.5 -15 -146.5l-81 -436c-2.66699 -14 -10.667 -21.333 -24 -22
c-30 -3.33301 -61.167 -6.33301 -93.5 -9l-95 -8c-31 -2.66699 -60.167 -4.66699 -87.5 -6s-51 -2 -71 -2c-55.333 0 -103.333 3.16699 -144 9.5s-74.5 16.833 -101.5 31.5s-47 34.167 -60 58.5s-19.5 54.166 -19.5 89.499c0 62.667 8.5 114.167 25.5 154.5s44.333 72 82 95
s86 39 145 48s130.5 13.5 214.5 13.5h27l2 14c2 10 2 19.167 0 27.5s-7.16699 15.333 -15.5 21s-20.5 10 -36.5 13s-37.333 4.5 -64 4.5zM83.998 342.004c-13.333 0 -18.666 6.66699 -15.999 20l36 198c2.66699 13.333 10.667 20 24 20h738
c13.333 0 18.666 -6.66699 15.999 -20l-36 -198c-2.66699 -13.333 -10.667 -20 -24 -20h-738z" />
    <glyph glyph-name="guillemotleft" unicode="&#xab;" horiz-adv-x="1432" 
d="M288 164c-7.33301 0 -13.3311 1.16797 -17.998 3.50098s-9 6.83301 -13 13.5l-231 365c-4 6.66699 -5.83301 12.167 -5.5 16.5s3.16602 9.16602 8.49902 14.499l366 372c9.33301 9.33301 20.666 14 33.999 14h359c13.333 0 15.333 -4.66699 6 -14l-388 -391l239 -377
c7.33301 -11.333 4.33301 -17 -9 -17h-348zM898.002 164.001c-7.33301 0 -13.3311 1.16797 -17.998 3.50098s-9 6.83301 -13 13.5l-231 365c-4 6.66699 -5.83301 12.167 -5.5 16.5s3.16602 9.16602 8.49902 14.499l366 372c9.33301 9.33301 20.666 14 33.999 14h359
c13.333 0 15.333 -4.66699 6 -14l-388 -391l239 -377c7.33301 -11.333 4.33301 -17 -9 -17h-348z" />
    <glyph glyph-name="logicalnot" unicode="&#xac;" horiz-adv-x="1195" 
d="M121 805c-13.333 0 -18.667 6.66699 -16 20l51 279c2.66699 13.333 10.667 20 24 20h927c13.333 0 18.666 -6.66699 15.999 -20l-55 -299l-79 -429c-2.66699 -13.333 -10.667 -20 -24 -20h-279c-13.333 0 -18.666 6.66699 -15.999 20l79 429h-628z" />
    <glyph glyph-name="uni00AD" unicode="&#xad;" horiz-adv-x="771" 
d="M105 403c-13.333 0 -18.666 6.66699 -15.999 20l51 280c2.66699 13.333 10.667 20 24 20h480c13.333 0 18.666 -6.66699 15.999 -20l-51 -280c-2.66699 -13.333 -10.667 -20 -24 -20h-480z" />
    <glyph glyph-name="registered" unicode="&#xae;" horiz-adv-x="1333" 
d="M1315 1110c0 -98 -7.83301 -184.168 -23.5 -258.501s-38.334 -138.833 -68.001 -193.5s-65.334 -100.334 -107.001 -137.001s-88.334 -66.167 -140.001 -88.5s-108 -38.166 -169 -47.499s-125.167 -14 -192.5 -14c-87.333 0 -161.333 12.333 -222 37
s-109.834 58.334 -147.501 101.001s-65 92.834 -82 150.501s-25.5 119.167 -25.5 184.5c0 97.333 7.83301 183.333 23.5 258s38.334 139.334 68.001 194.001s65.334 100.334 107.001 137.001s88.334 66.167 140.001 88.5s108 38.166 169 47.499s125.167 14 192.5 14
c87.333 0 161.333 -12.333 222 -37s109.834 -58.334 147.501 -101.001s65 -92.834 82 -150.501s25.5 -119.167 25.5 -184.5zM361 863.999c0 -46 4.83301 -86.332 14.5 -120.999s25.834 -63.667 48.501 -87s52.667 -40.833 90 -52.5s84 -17.5 140 -17.5
c64.667 0 120.5 6.5 167.5 19.5s86.667 31 119 54s58.5 50.333 78.5 82s35.333 66.334 46 104.001s17.834 77.5 21.501 119.5s5.5 85 5.5 129c0 45.333 -4.83301 85.166 -14.5 119.499s-25.834 63 -48.501 86s-52.667 40.167 -90 51.5s-84 17 -140 17
c-64.667 0 -120.5 -6.5 -167.5 -19.5s-86.667 -31 -119 -54s-58.5 -50.333 -78.5 -82s-35.333 -66.167 -46 -103.5s-17.834 -76.833 -21.501 -118.5s-5.5 -83.834 -5.5 -126.501zM766 684c-13.333 0 -21.002 6.66406 -23.002 19.9971l-24 191h-32
c-4.66699 0 -10 0.166992 -16 0.5s-11.667 0.833008 -17 1.5l-37 -193c-2.66699 -13.333 -10.667 -20 -24 -20h-114c-13.333 0 -18.666 6.66699 -15.999 20l101 552c2.66699 13.333 10.667 20.333 24 21c30 1.33301 59.5 2.5 88.5 3.5s56.167 1.5 81.5 1.5
c61.333 0 108.5 -4 141.5 -12s56.333 -19.667 70 -35s20.167 -34.333 19.5 -57s-4 -48.667 -10 -78l-6 -31c-2.66699 -15.333 -6.16699 -30.166 -10.5 -44.499s-10.333 -28 -18 -41s-17.834 -25 -30.501 -36s-28.667 -20.5 -48 -28.5l51 -185
c2 -7.33301 2.16699 -13.166 0.5 -17.499s-5.16699 -9.16602 -10.5 -14.499l-7 -5c-5.33301 -5.33301 -10.666 -8.83301 -15.999 -10.5s-11.666 -2.5 -18.999 -2.5h-99zM759.998 1133c-6 0 -15.1689 -0.167969 -27.502 -0.500977s-24.166 -1.16602 -35.499 -2.49902
l-19 -102c4 -0.666992 9.33301 -1.16699 16 -1.5s13.334 -0.5 20.001 -0.5h34c23.333 0 40.333 3 51 9s17.667 16.667 21 32l4 25c2 14 -1.16699 24.333 -9.5 31s-26.5 10 -54.5 10z" />
    <glyph glyph-name="macron" unicode="&#xaf;" horiz-adv-x="762" 
d="M337 1267c-13.333 0 -18.666 6.66699 -15.999 20l35 198c2.66699 13.333 10.667 20 24 20h546c13.333 0 18.666 -6.66699 15.999 -20l-35 -198c-2.66699 -13.333 -10.667 -20 -24 -20h-546z" />
    <glyph glyph-name="degree" unicode="&#xb0;" horiz-adv-x="875" 
d="M549 1255c-9.33301 0 -19.6709 -1.16797 -31.0039 -3.50098s-22.5 -6.66602 -33.5 -12.999s-20.833 -15.5 -29.5 -27.5s-15 -27.333 -19 -46l-6 -26c-3.33301 -19.333 -2.5 -34.833 2.5 -46.5s11.667 -20.667 20 -27s17.833 -10.666 28.5 -12.999
s20.334 -3.5 29.001 -3.5s18.667 1 30 3s22.333 6.16699 33 12.5s20.334 15.5 29.001 27.5s15 27.667 19 47l4 26c3.33301 18.667 2.83301 34 -1.5 46s-10.666 21.167 -18.999 27.5s-17.666 10.666 -27.999 12.999s-19.5 3.5 -27.5 3.5zM464.995 800.999
c-114 0 -197.831 30.4961 -251.498 91.4961s-70.834 149.167 -51.501 264.5l6 29c10 52 27.167 98 51.5 138s54.666 73.333 90.999 100s78.5 46.834 126.5 60.501s100.333 20.5 157 20.5c114 0 197.5 -30.667 250.5 -92s69.833 -150.666 50.5 -267.999l-6 -29
c-10 -51.333 -27.167 -96.666 -51.5 -135.999s-54.833 -72.166 -91.5 -98.499s-78.667 -46.333 -126 -60s-99 -20.5 -155 -20.5z" />
    <glyph glyph-name="plusminus" unicode="&#xb1;" horiz-adv-x="1195" 
d="M159 813c-13.333 0 -18.666 6.66699 -15.999 20l51 280c2.66699 13.333 10.667 20 24 20h316l59 320c2.66699 13.333 10.667 20 24 20h279c13.333 0 18.666 -6.66699 15.999 -20l-59 -320h316c13.333 0 18.666 -6.66699 15.999 -20l-51 -280
c-2.66699 -13.333 -10.667 -20 -24 -20h-317l-57 -312c-2.66699 -13.333 -10.667 -20 -24 -20h-279c-13.333 0 -18.666 6.66699 -15.999 20l57 312h-315zM28 0c-13.333 0 -18.666 6.66699 -15.999 20l51 279c2.66699 13.333 10.667 20 24 20h911
c13.333 0 18.666 -6.66699 15.999 -20l-51 -279c-2.66699 -13.333 -10.667 -20 -24 -20h-911z" />
    <glyph glyph-name="twosuperior" unicode="&#xb2;" horiz-adv-x="875" 
d="M111 600c-13.333 0 -18.666 6.66797 -15.999 20.001l17 95c8.66699 47.333 19.334 87 32.001 119s29 60.5 49 85.5s44.833 48.667 74.5 71s66.167 47.166 109.5 74.499l139 88l29 18c7.33301 4.66699 13 9 17 13s6.66699 7.83301 8 11.5s2 8.16699 2 13.5
c0 9.33301 -8.5 17 -25.5 23s-42.5 9 -76.5 9c-9.33301 0 -20.833 -0.166992 -34.5 -0.5s-28.834 -0.833008 -45.501 -1.5s-34 -1.83398 -52 -3.50098s-36 -3.5 -54 -5.5c-13.333 -2 -20 3.66699 -20 17l4 203c0 14 6.33301 22.333 19 25
c47.333 12.667 94 20.834 140 24.501s86 5.5 120 5.5c67.333 0 123 -5.83301 167 -17.5s78.833 -27.334 104.5 -47.001s43.5 -42.334 53.5 -68.001s15 -52.5 15 -80.5c0 -26 -1.66699 -52.167 -5 -78.5s-11.5 -52.666 -24.5 -78.999s-32.833 -52.666 -59.5 -78.999
s-63 -52.5 -109 -78.5l-98 -55l-89.5 -48.5c-25.667 -13.667 -42.5 -23.5 -50.5 -29.5h326c13.333 0 18.666 -6.66699 15.999 -20l-37 -204c-2.66699 -13.333 -10.667 -20 -24 -20h-621z" />
    <glyph glyph-name="threesuperior" unicode="&#xb3;" horiz-adv-x="841" 
d="M374 580c-52 0 -100.83 1.50293 -146.497 4.50293s-85.834 7.16699 -120.501 12.5c-14 2 -19 9.33301 -15 22l53 214c2 7.33301 4.83301 12.333 8.5 15s9.16699 3.66699 16.5 3c44.667 -2.66699 85.334 -4.16699 122.001 -4.5s71 -0.5 103 -0.5c34 0 60 3.16699 78 9.5
s28.667 18.833 32 37.5l4 18c3.33301 17.333 -0.666992 29.5 -12 36.5s-36 10.5 -74 10.5h-107c-13.333 0 -18.666 6.66699 -15.999 20l27 145c2.66699 13.333 10.667 20 24 20h99c20.667 0 37.667 0.666992 51 2s24 3.66602 32 6.99902s14 7.83301 18 13.5s7 13.167 9 22.5
l2 10c3.33301 16.667 -2.83398 27.334 -18.501 32.001s-41.167 7 -76.5 7c-38.667 0 -76.5 -0.166992 -113.5 -0.5s-72.833 -1.16602 -107.5 -2.49902c-12.667 -0.666992 -18.667 5.66602 -18 18.999l27 212c0.666992 13.333 8 21 22 23
c35.333 4.66699 75.166 8.66699 119.499 12s91.5 5 141.5 5c118.667 0 206.167 -18.333 262.5 -55s77.166 -96 62.499 -178l-4 -19c-9.33301 -52 -30.333 -93.833 -63 -125.5s-75.334 -54.5 -128.001 -68.5c20 -9.33301 38.167 -19.833 54.5 -31.5s30 -25.834 41 -42.501
s18.5 -36.334 22.5 -59.001s3.33301 -49.334 -2 -80.001l-3 -15c-9.33301 -50 -25 -91.167 -47 -123.5s-50 -58 -84 -77s-74 -32.167 -120 -39.5s-98 -11 -156 -11z" />
    <glyph glyph-name="acute" unicode="&#xb4;" horiz-adv-x="764" 
d="M350 1270c-13.333 0 -15.6689 5.33301 -7.00195 16l197 244c5.33301 6 10.333 10.167 15 12.5s10.667 3.5 18 3.5h335c13.333 0 15 -4.33301 5 -13l-275 -250c-5.33301 -5.33301 -10.666 -8.83301 -15.999 -10.5s-11.666 -2.5 -18.999 -2.5h-253z" />
    <glyph glyph-name="mu" unicode="&#xb5;" horiz-adv-x="1332" 
d="M-26 -389c-13.333 0 -18.6689 6.66797 -16.002 20.001l263 1420c2.66699 13.333 10.667 20 24 20h292c13.333 0 18.666 -6.66699 15.999 -20l-95 -514c-10 -52.667 -13.833 -95.834 -11.5 -129.501s10.5 -60 24.5 -79s33.833 -32 59.5 -39s56.5 -10.5 92.5 -10.5h41.5
c15 0 30.167 0.5 45.5 1.5s30.333 2.16699 45 3.5s28 3.66602 40 6.99902l141 760c2.66699 13.333 10.667 20 24 20h291c13.333 0 18.666 -6.66699 15.999 -20l-184 -995c-1.33301 -7.33301 -3.66602 -12.666 -6.99902 -15.999s-8.66602 -6 -15.999 -8
c-31.333 -8 -67.666 -15.833 -108.999 -23.5s-84.5 -14.5 -129.5 -20.5s-90.5 -10.667 -136.5 -14s-89.333 -5 -130 -5c-41.333 0 -80.166 3.5 -116.499 10.5s-62.833 15.167 -79.5 24.5l-69 -373c-2.66699 -13.333 -10.667 -20 -24 -20h-292z" />
    <glyph glyph-name="paragraph" unicode="&#xb6;" horiz-adv-x="1465" 
d="M350 -453c-13.333 0 -18.667 6.66699 -16 20l186 1006c-8 -1.33301 -15.667 -2 -23 -2h-22c-88 0 -158.833 6.83301 -212.5 20.5s-93.5 36.667 -119.5 69s-40 75.166 -42 128.499s4.66699 119.333 20 198l14 82c14.667 76 32.834 140 54.501 192
s51.334 93.833 89.001 125.5s85.667 54.334 144 68.001s131.166 20.5 218.499 20.5h357c13.333 0 18.666 -6.66699 15.999 -20l-348 -1888c-2.66699 -13.333 -10.667 -20 -24 -20h-292zM801.999 -453c-13.333 0 -18.666 6.66699 -15.999 20l348 1888
c2.66699 13.333 10.667 20 24 20h292c13.333 0 18.666 -6.66699 15.999 -20l-348 -1888c-2.66699 -13.333 -10.667 -20 -24 -20h-292z" />
    <glyph glyph-name="periodcentered" unicode="&#xb7;" horiz-adv-x="585" 
d="M99 370c-13.333 0 -18.666 6.66699 -15.999 20l55 300c2.66699 14 10.667 21.333 24 22l298 35c13.333 0.666992 18.666 -5.33301 15.999 -18l-61 -339c-2.66699 -13.333 -10.667 -20 -24 -20h-292z" />
    <glyph glyph-name="cedilla" unicode="&#xb8;" horiz-adv-x="762" 
d="M112 -389c-12.667 0 -15.333 5.33301 -8 16l203 255c8 10.667 18.667 16 32 16h221c14 0 16.667 -5.33301 8 -16l-181 -255c-8 -10.667 -18.667 -16 -32 -16h-243z" />
    <glyph glyph-name="onesuperior" unicode="&#xb9;" horiz-adv-x="590" 
d="M204 1202c-13.333 -2.66699 -20 2.66699 -20 16l3 198c0 13.333 6.66699 21.333 20 24l141 31c6 1.33301 12.667 2.33301 20 3s14 1 20 1h212c13.333 0 18.666 -6.66699 15.999 -20l-154 -835c-2.66699 -13.333 -10.667 -20 -24 -20h-243
c-13.333 0 -18.666 6.66699 -15.999 20l111 600z" />
    <glyph glyph-name="ordmasculine" unicode="&#xba;" horiz-adv-x="1028" 
d="M634 1270c-20.667 0 -37.998 -2.16602 -51.998 -6.49902s-25.833 -11.666 -35.5 -21.999s-17.667 -24.5 -24 -42.5s-12.166 -41 -17.499 -69l-12 -65c-5.33301 -28 -8 -50.833 -8 -68.5s3.16699 -31.834 9.5 -42.501s15.833 -18 28.5 -22s29 -6 49 -6s37 2 51 6
s25.833 11.333 35.5 22s17.667 25.167 24 43.5s12.166 41.5 17.499 69.5l12 63c5.33301 28 8.16602 51 8.49902 69s-2.33398 32.167 -8.00098 42.5s-15 17.666 -28 21.999s-29.833 6.5 -50.5 6.5zM526.002 688.001c-72 0 -131.001 7.16699 -177.001 21.5s-81 36.5 -105 66.5
s-38 68.167 -42 114.5s0 101.833 12 166.5l14 78c12 64.667 29.333 120.334 52 167.001s52.334 85 89.001 115s81.334 52.167 134.001 66.5s115 21.5 187 21.5c67.333 0 123.166 -7.16699 167.499 -21.5s78.5 -36.5 102.5 -66.5s38.333 -68.333 43 -115
s1 -102.334 -11 -167.001l-14 -78c-12 -64.667 -29.667 -120.167 -53 -166.5s-53.333 -84.5 -90 -114.5s-80.5 -52.167 -131.5 -66.5s-110.167 -21.5 -177.5 -21.5zM91.001 342.001c-13.333 0 -18.666 6.66699 -15.999 20l36 198c2.66699 13.333 10.667 20 24 20h738
c13.333 0 18.666 -6.66699 15.999 -20l-36 -198c-2.66699 -13.333 -10.667 -20 -24 -20h-738z" />
    <glyph glyph-name="guillemotright" unicode="&#xbb;" horiz-adv-x="1434" 
d="M515 963c7.33301 0 13.3311 -1.16797 17.998 -3.50098s9 -6.83301 13 -13.5l231 -365c4 -6.66699 5.83301 -12.167 5.5 -16.5s-3.16602 -9.16602 -8.49902 -14.499l-366 -372c-9.33301 -9.33301 -20.666 -14 -33.999 -14h-359c-6 0 -9.5 1.33301 -10.5 4s0.5 6 4.5 10
l388 391l-239 377c-7.33301 11.333 -4.33301 17 9 17h348zM1125 962.999c7.33301 0 13.3311 -1.16797 17.998 -3.50098s9 -6.83301 13 -13.5l231 -365c4 -6.66699 5.83301 -12.167 5.5 -16.5s-3.16602 -9.16602 -8.49902 -14.499l-366 -372
c-9.33301 -9.33301 -20.666 -14 -33.999 -14h-359c-6 0 -9.5 1.33301 -10.5 4s0.5 6 4.5 10l388 391l-239 377c-7.33301 11.333 -4.33301 17 9 17h348z" />
    <glyph glyph-name="onequarter" unicode="&#xbc;" horiz-adv-x="2009" 
d="M171 0c-14 0 -16.667 5.33301 -8 16l1049 1443c8 10.667 18.667 16 32 16h356c14 0 16.667 -5.33301 8 -16l-1050 -1443c-8 -10.667 -18.667 -16 -32 -16h-355zM1043 168c-13.333 0 -18.667 6.66699 -16 20l43 234c2.66699 12.667 8.33398 24.334 17.001 35.001l380 433
c5.33301 5.33301 10.333 9.16602 15 11.499s10.667 3.5 18 3.5h382c13.333 0 18.666 -6.66699 15.999 -20l-86 -463h74c13.333 0 18.666 -6.66699 15.999 -20l-39 -214c-2.66699 -13.333 -10.667 -20 -24 -20h-74l-27 -148c-2.66699 -13.333 -10.667 -20 -24 -20h-243
c-13.333 0 -18.666 6.66699 -15.999 20l27 148h-439zM211.999 1202c-13.333 -2.66699 -20 2.66699 -20 16l3 198c0 13.333 6.66699 21.333 20 24l142 31c6 1.33301 12.667 2.33301 20 3s14 1 20 1h211c13.333 0 18.666 -6.66699 15.999 -20l-154 -835
c-2.66699 -13.333 -10.667 -20 -24 -20h-242c-13.333 0 -18.666 6.66699 -15.999 20l111 601zM1363 422.001h166l38 229l-202 -219z" />
    <glyph glyph-name="onehalf" unicode="&#xbd;" horiz-adv-x="1990" 
d="M171 0c-14 0 -16.667 5.33301 -8 16l1049 1443c8 10.667 18.667 16 32 16h356c14 0 16.667 -5.33301 8 -16l-1050 -1443c-8 -10.667 -18.667 -16 -32 -16h-355zM1145 0c-13.333 0 -18.668 6.67578 -16.001 20.0088l21 115c8.66699 46 19.5 85.167 32.5 117.5
s29.833 61.166 50.5 86.499s45.667 48.5 75 69.5s64.666 43.167 105.999 66.5l137 78c13.333 7.33301 23.833 13.833 31.5 19.5s13.334 10.667 17.001 15s5.83398 8.16602 6.50098 11.499s1 6.66602 1 9.99902c0 9.33301 -8.5 17 -25.5 23s-42.5 9 -76.5 9
c-10 0 -22.667 -0.166992 -38 -0.5s-32.333 -0.833008 -51 -1.5s-38 -1.83398 -58 -3.50098s-40 -3.5 -60 -5.5c-13.333 -2 -20 3.66699 -20 17l4 203c0 13.333 6.33301 21.666 19 24.999c52 12.667 102.667 20.834 152 24.501s92.333 5.5 129 5.5
c67.333 0 123 -5.83301 167 -17.5s78.833 -27.334 104.5 -47.001s43.5 -42.334 53.5 -68.001s15 -52.5 15 -80.5c0 -26 -1.83301 -51.833 -5.5 -77.5s-12.334 -51.334 -26.001 -77.001s-33.667 -51.834 -60 -78.501s-61.833 -54 -106.5 -82l-88 -55
c-37.333 -23.333 -64.666 -39.833 -81.999 -49.5s-29.666 -15.834 -36.999 -18.501h297c13.333 0 18.666 -6.66699 15.999 -20l-39 -214c-2.66699 -13.333 -10.667 -20 -24 -20h-622zM211.998 1202.01c-13.333 -2.66699 -20 2.66699 -20 16l3 198
c0 13.333 6.66699 21.333 20 24l142 31c6 1.33301 12.667 2.33301 20 3s14 1 20 1h211c13.333 0 18.666 -6.66699 15.999 -20l-154 -835c-2.66699 -13.333 -10.667 -20 -24 -20h-242c-13.333 0 -18.666 6.66699 -15.999 20l111 601z" />
    <glyph glyph-name="threequarters" unicode="&#xbe;" horiz-adv-x="2156" 
d="M1199 168c-13.333 0 -18.668 6.66699 -16.001 20l43 234c2.66699 12.667 8.33398 24.334 17.001 35.001l380 433c5.33301 5.33301 10.333 9.16602 15 11.499s10.667 3.5 18 3.5h382c13.333 0 18.666 -6.66699 16 -20l-86 -463h74c13.333 0 18.666 -6.66699 15.999 -20
l-39 -214c-2.66699 -13.333 -10.667 -20 -24 -20h-74l-27 -148c-2.66699 -13.333 -10.667 -20 -24 -20h-243c-13.333 0 -18.666 6.66699 -15.999 20l27 148h-439zM1519 422h166l37 229l-201 -219zM324.998 0c-14 0 -16.667 5.33301 -8 16l1049 1443
c8 10.667 18.667 16 32 16h356c14 0 16.667 -5.33301 8 -16l-1050 -1443c-8 -10.667 -18.667 -16 -32 -16h-355zM351.998 580c-51.333 0 -100.003 1.50488 -146.003 4.50488s-86.333 7.16699 -121 12.5c-14 2 -19 9.33301 -15 22l54 214c2 7.33301 4.83301 12.333 8.5 15
s9.16699 3.66699 16.5 3c44 -2.66699 84.5 -4.16699 121.5 -4.5s71.5 -0.5 103.5 -0.5c34 0 60 3.16699 78 9.5s28.667 18.833 32 37.5l4 18c3.33301 17.333 -0.666992 29.5 -12 36.5s-36 10.5 -74 10.5h-107c-13.333 0 -18.666 6.66699 -15.999 20l27 145
c2.66699 13.333 10.667 20 24 20h99c20.667 0 37.667 0.666992 51 2s24 3.66602 32 6.99902s14 7.83301 18 13.5s7 13.167 9 22.5l2 10c3.33301 16.667 -3 27.334 -19 32.001s-41.333 7 -76 7c-38.667 0 -76.5 -0.166992 -113.5 -0.5s-72.833 -1.16602 -107.5 -2.49902
c-12.667 -0.666992 -18.667 5.66602 -18 18.999l27 212c0.666992 13.333 8 21 22 23c34.667 4.66699 74.334 8.66699 119.001 12s91.667 5 141 5c59.333 0 111.166 -4.5 155.499 -13.5s80.333 -22.833 108 -41.5s46.834 -42.834 57.501 -72.501
s12.334 -64.834 5.00098 -105.501l-4 -19c-9.33301 -52 -30.5 -93.833 -63.5 -125.5s-75.833 -54.5 -128.5 -68.5c20 -9.33301 38.333 -19.833 55 -31.5s30.5 -25.834 41.5 -42.501s18.5 -36.334 22.5 -59.001s3.33301 -49.334 -2 -80.001l-3 -15
c-9.33301 -50 -25 -91.167 -47 -123.5s-50 -58 -84 -77s-74.167 -32.167 -120.5 -39.5s-98.5 -11 -156.5 -11z" />
    <glyph glyph-name="questiondown" unicode="&#xbf;" horiz-adv-x="916" 
d="M377 554c2 7.33301 6.33301 10.9961 13 10.9961h290c14 0 21.333 -6.66699 22 -20c0.666992 -4.66699 1.16699 -9.66699 1.5 -15s0.5 -10.666 0.5 -15.999c0 -35.333 -3.33301 -67.666 -10 -96.999s-17 -56.833 -31 -82.5s-31.667 -50.167 -53 -73.5
s-46.666 -47 -75.999 -71l-96 -75l-47.5 -39.5c-13 -11 -24 -21.5 -33 -31.5s-16.167 -20.167 -21.5 -30.5s-9 -21.833 -11 -34.5c-4 -23.333 3.5 -41.333 22.5 -54s55.167 -19 108.5 -19c38 0 75.5 2 112.5 6s77.5 9.66699 121.5 17c13.333 2 20 -3.66699 20 -17l-6 -275
c0 -14 -6.33301 -22.667 -19 -26c-48.667 -14.667 -103.334 -25.834 -164.001 -33.501s-124.334 -11.5 -191.001 -11.5c-74.667 0 -139.667 6.16699 -195 18.5s-100.5 31.5 -135.5 57.5s-59.333 59.333 -73 100s-15.834 89 -6.50098 145c6 38 14.667 71.833 26 101.5
s25.833 57.334 43.5 83.001s38.834 50.834 63.501 75.501s53.334 51.334 86.001 80.001l111 99c22.667 20 40.834 36.833 54.501 50.5s24.667 27.667 33 42s15.166 30.833 20.499 49.5s11 43 17 73zM785 1071c13.333 0 18.666 -6.66699 15.999 -20l-56 -300
c-2.66699 -14 -10.667 -21.333 -24 -22l-298 -35c-13.333 -0.666992 -18.666 5.33301 -15.999 18l62 339c2.66699 13.333 10.667 20 24 20h292z" />
    <glyph glyph-name="Agrave" unicode="&#xc0;" horiz-adv-x="1353" 
d="M-92 0c-13.333 0 -16.998 6 -10.998 18l693 1439c3.33301 7.33301 7.16602 12.166 11.499 14.499s10.166 3.5 17.499 3.5h441c14 0 21.333 -6.66699 22 -20l162 -1435c0.666992 -13.333 -5.33301 -20 -18 -20h-345c-13.333 0 -20.333 6.66699 -21 20l-16 220h-466
l-99 -222c-3.33301 -7.33301 -7 -12.166 -11 -14.499s-9.66699 -3.5 -17 -3.5h-343zM780.002 1135l-264 -588h307zM844.002 1597c-13.333 0 -25.332 4 -35.999 12l-209 218c-4 4.66699 -5.33301 8.5 -4 11.5s4.66602 4.5 9.99902 4.5h317c16.667 0 27.667 -4.66699 33 -14
l143 -218c6 -9.33301 2.66699 -14 -10 -14h-244z" />
    <glyph glyph-name="Aacute" unicode="&#xc1;" horiz-adv-x="1353" 
d="M-92 0c-13.333 0 -16.998 6 -10.998 18l693 1439c3.33301 7.33301 7.16602 12.166 11.499 14.499s10.166 3.5 17.499 3.5h441c14 0 21.333 -6.66699 22 -20l162 -1435c0.666992 -13.333 -5.33301 -20 -18 -20h-345c-13.333 0 -20.333 6.66699 -21 20l-16 220h-466
l-99 -222c-3.33301 -7.33301 -7 -12.166 -11 -14.499s-9.66699 -3.5 -17 -3.5h-343zM780.002 1135l-264 -588h307zM675.002 1597c-6 0 -9.49902 1.33301 -10.499 4s0.5 6 4.5 10l220 218c9.33301 9.33301 20.666 14 33.999 14h343c12.667 0 14 -4 4 -12l-299 -222
c-10.667 -8 -22.667 -12 -36 -12h-260z" />
    <glyph glyph-name="Acircumflex" unicode="&#xc2;" horiz-adv-x="1353" 
d="M-92 0c-13.333 0 -16.998 6 -10.998 18l693 1439c3.33301 7.33301 7.16602 12.166 11.499 14.499s10.166 3.5 17.499 3.5h441c14 0 21.333 -6.66699 22 -20l162 -1435c0.666992 -13.333 -5.33301 -20 -18 -20h-345c-13.333 0 -20.333 6.66699 -21 20l-16 220h-466
l-99 -222c-3.33301 -7.33301 -7 -12.166 -11 -14.499s-9.66699 -3.5 -17 -3.5h-343zM780.002 1135l-264 -588h307zM1242 1613c8.66699 -10.667 5.99902 -16 -8.00098 -16h-225c-13.333 0 -23.666 5.33301 -30.999 16l-67 95h-21l-110 -98
c-5.33301 -5.33301 -10.666 -8.83301 -15.999 -10.5s-11.666 -2.5 -18.999 -2.5h-258c-13.333 0 -15 4.33301 -5 13l257 220c5.33301 5.33301 10.666 8.83301 15.999 10.5s11.666 2.5 18.999 2.5h276c13.333 0 24 -5.33301 32 -16z" />
    <glyph glyph-name="Atilde" unicode="&#xc3;" horiz-adv-x="1353" 
d="M-92 0c-13.333 0 -16.998 6 -10.998 18l693 1439c3.33301 7.33301 7.16602 12.166 11.499 14.499s10.166 3.5 17.499 3.5h441c14 0 21.333 -6.66699 22 -20l162 -1435c0.666992 -13.333 -5.33301 -20 -18 -20h-345c-13.333 0 -20.333 6.66699 -21 20l-16 220h-466
l-99 -222c-3.33301 -7.33301 -7 -12.166 -11 -14.499s-9.66699 -3.5 -17 -3.5h-343zM780.002 1135l-264 -588h307zM500.002 1587c-7.33301 0 -12.3311 1.50098 -14.998 4.50098s-3.66699 8.16699 -3 15.5c9.33301 66.667 23.666 119.334 42.999 158.001s41.166 68 65.499 88
s50 32.667 77 38s53.167 8 78.5 8c10.667 0 21 -1 31 -3s21 -5 33 -9s25.167 -9.33301 39.5 -16l51.5 -24l48.5 -23c13 -6 24 -10.833 33 -14.5s16.333 -6.33398 22 -8.00098s10.5 -2.5 14.5 -2.5c6 0 11.167 0.666992 15.5 2s8.33301 4.33301 12 9s7 11.5 10 20.5
s6.5 21.167 10.5 36.5c2.66699 13.333 10.667 20 24 20h191c7.33301 0 12.333 -1.5 15 -4.5s3.66699 -8.16699 3 -15.5c-9.33301 -67.333 -24 -120.333 -44 -159s-42.5 -67.834 -67.5 -87.501s-51.333 -32.167 -79 -37.5s-54.167 -8 -79.5 -8
c-11.333 0 -22.333 0.666992 -33 2s-21.667 3.83301 -33 7.5s-23.833 9 -37.5 16s-29.167 16.167 -46.5 27.5c-18 11.333 -33.333 20.333 -46 27s-23.5 11.5 -32.5 14.5s-16.5 4.83301 -22.5 5.5s-11.333 1 -16 1c-6 0 -11.333 -0.666992 -16 -2s-8.66699 -4.5 -12 -9.5
s-6.5 -12 -9.5 -21s-6.5 -21.5 -10.5 -37.5c-2.66699 -12.667 -10.667 -19 -24 -19h-191z" />
    <glyph glyph-name="Adieresis" unicode="&#xc4;" horiz-adv-x="1353" 
d="M-92 0c-13.333 0 -16.998 6 -10.998 18l693 1439c3.33301 7.33301 7.16602 12.166 11.499 14.499s10.166 3.5 17.499 3.5h441c14 0 21.333 -6.66699 22 -20l162 -1435c0.666992 -13.333 -5.33301 -20 -18 -20h-345c-13.333 0 -20.333 6.66699 -21 20l-16 220h-466
l-99 -222c-3.33301 -7.33301 -7 -12.166 -11 -14.499s-9.66699 -3.5 -17 -3.5h-343zM780.002 1135l-264 -588h307zM496.002 1597c-13.333 0 -18.666 6.66699 -15.999 20l39 216c2.66699 14 10.667 21.333 24 22l290 37c13.333 0.666992 18.666 -5.33301 15.999 -18l-48 -257
c-2.66699 -13.333 -10.667 -20 -24 -20h-281zM948.002 1597c-13.333 0 -18.666 6.66699 -15.999 20l40 216c2.66699 14 10.667 21.333 24 22l289 37c13.333 0.666992 18.666 -5.33301 15.999 -18l-47 -257c-2.66699 -13.333 -10.667 -20 -24 -20h-282z" />
    <glyph glyph-name="Aring" unicode="&#xc5;" horiz-adv-x="1346" 
d="M-96 0c-13.333 0 -17 5.99707 -11 17.9971l693 1439c4 8.66699 9.33301 14 16 16c-9.33301 32.667 -10 69.667 -2 111l2 10c6 31.333 16.5 61 31.5 89s34.833 52.5 59.5 73.5s54 37.667 88 50s73.667 18.5 119 18.5c44 0 81 -6.33301 111 -19s53.5 -29.667 70.5 -51
s27.667 -46.166 32 -74.499s3.5 -58.166 -2.5 -89.499l-2 -10c-8 -40 -22.333 -75.667 -43 -107c7.33301 -2.66699 11.333 -9 12 -19l162 -1435c0.666992 -13.333 -5.33301 -20 -18 -20h-345c-13.333 0 -20.333 6.66699 -21 20l-16 220h-466l-99 -222
c-3.33301 -7.33301 -7 -12.166 -11 -14.499s-9.66699 -3.5 -17 -3.5h-343zM776 1135l-264 -588h307zM867 1653c-19.333 0 -36.667 -5.49902 -52 -16.499s-24.666 -26.5 -27.999 -46.5l-1 -6c-3.33301 -18 0.333984 -32.833 11.001 -44.5s26.334 -17.5 47.001 -17.5
c19.333 0 36.666 5.5 51.999 16.5s25 27.167 29 48.5c3.33301 19.333 -0.333984 35.166 -11.001 47.499s-26.334 18.5 -47.001 18.5z" />
    <glyph glyph-name="AE" unicode="&#xc6;" horiz-adv-x="1888" 
d="M766 0c-13.333 0 -18.665 6.66602 -15.998 19.999l40 220h-419l-120 -222c-3.33301 -7.33301 -7.16602 -12.166 -11.499 -14.499s-10.166 -3.5 -17.499 -3.5h-343c-14 0 -17.333 5.66699 -10 17l818 1441c4 6.66699 8.16699 11.167 12.5 13.5s10.166 3.5 17.499 3.5h1216
c13.333 0 18.666 -6.66699 15.999 -20l-52 -288c-2.66699 -13.333 -10.667 -20 -24 -20h-564l-45 -242h420c13.333 0 18.666 -6.66699 15.999 -20l-53 -287c-2.66699 -13.333 -10.667 -20 -24 -20h-420l-46 -250h564c13.333 0 18.666 -6.66699 15.999 -20l-53 -288
c-2.66699 -13.333 -10.667 -20 -24 -20h-894zM862.001 1147l-325 -600h310l111 600h-96z" />
    <glyph glyph-name="Ccedilla" unicode="&#xc7;" horiz-adv-x="1199" 
d="M616 -31c-101.333 0 -189.826 11.3301 -265.493 33.9971s-136.167 60.834 -181.5 114.501s-74.333 124.834 -87 213.501s-6.66699 199 18 331l29 153c24 130.667 58.667 240.167 104 328.5s100.666 159.333 165.999 213s140 91.834 224 114.501s176.667 34 278 34
c36 0 71.167 -1.16699 105.5 -3.5s67.166 -5.83301 98.499 -10.5s60.666 -10.167 87.999 -16.5s51.666 -13.833 72.999 -22.5c6.66699 -3.33301 10.834 -6.66602 12.501 -9.99902s1.5 -8.66602 -0.5 -15.999l-95 -274c-4.66699 -12.667 -13.334 -17.334 -26.001 -14.001
c-50 11.333 -100.167 19 -150.5 23s-101.166 6 -152.499 6c-50.667 0 -96.334 -5.66699 -137.001 -17s-76.5 -30.333 -107.5 -57s-57.167 -61.834 -78.5 -105.501s-38 -97.834 -50 -162.501l-30 -174c-12.667 -65.333 -16.5 -119.833 -11.5 -163.5s17.833 -79 38.5 -106
s49.167 -46.167 85.5 -57.5s79.833 -17 130.5 -17c54 0 108.333 1.66699 163 5s109 8.33301 163 15c13.333 2 19.666 -3.66699 18.999 -17l-12 -278c-0.666992 -13.333 -7.33398 -21.666 -20.001 -24.999c-24 -6 -51 -11.333 -81 -16s-61.667 -8.66699 -95 -12
s-68.333 -5.83301 -105 -7.5s-73.334 -2.5 -110.001 -2.5zM296.007 -389.003c-12.667 0 -15.333 5.33301 -8 16l203 255c8 10.667 18.667 16 32 16h221c14 0 16.667 -5.33301 8 -16l-181 -255c-8 -10.667 -18.667 -16 -32 -16h-243z" />
    <glyph glyph-name="Egrave" unicode="&#xc8;" horiz-adv-x="1200" 
d="M54 0c-13.333 0 -18.6641 6.66699 -15.9971 20l264 1435c2.66699 13.333 10.667 20 24 20h919c13.333 0 18.666 -6.66699 15.999 -20l-54 -288c-2.66699 -13.333 -10.667 -20 -24 -20h-586l-45 -242h443c13.333 0 18.666 -6.66699 15.999 -20l-54 -287
c-2.66699 -13.333 -10.667 -20 -24 -20h-442l-46 -250h587c13.333 0 18.666 -6.66699 15.999 -20l-54 -288c-2.66699 -13.333 -10.667 -20 -24 -20h-916zM766.002 1597c-13.333 0 -25.332 4 -35.999 12l-209 218c-4 4.66699 -5.33301 8.5 -4 11.5s4.66602 4.5 9.99902 4.5
h317c16.667 0 27.667 -4.66699 33 -14l143 -218c6 -9.33301 2.66699 -14 -10 -14h-244z" />
    <glyph glyph-name="Eacute" unicode="&#xc9;" horiz-adv-x="1200" 
d="M54 0c-13.333 0 -18.6641 6.66699 -15.9971 20l264 1435c2.66699 13.333 10.667 20 24 20h919c13.333 0 18.666 -6.66699 15.999 -20l-54 -288c-2.66699 -13.333 -10.667 -20 -24 -20h-586l-45 -242h443c13.333 0 18.666 -6.66699 15.999 -20l-54 -287
c-2.66699 -13.333 -10.667 -20 -24 -20h-442l-46 -250h587c13.333 0 18.666 -6.66699 15.999 -20l-54 -288c-2.66699 -13.333 -10.667 -20 -24 -20h-916zM626.002 1597c-6 0 -9.49902 1.33301 -10.499 4s0.5 6 4.5 10l220 218c9.33301 9.33301 20.666 14 33.999 14h343
c12.667 0 14 -4 4 -12l-299 -222c-10.667 -8 -22.667 -12 -36 -12h-260z" />
    <glyph glyph-name="Ecircumflex" unicode="&#xca;" horiz-adv-x="1200" 
d="M54 0c-13.333 0 -18.6641 6.66699 -15.9971 20l264 1435c2.66699 13.333 10.667 20 24 20h919c13.333 0 18.666 -6.66699 15.999 -20l-54 -288c-2.66699 -13.333 -10.667 -20 -24 -20h-586l-45 -242h443c13.333 0 18.666 -6.66699 15.999 -20l-54 -287
c-2.66699 -13.333 -10.667 -20 -24 -20h-442l-46 -250h587c13.333 0 18.666 -6.66699 15.999 -20l-54 -288c-2.66699 -13.333 -10.667 -20 -24 -20h-916zM1173 1613c8.66699 -10.667 5.99902 -16 -8.00098 -16h-225c-13.333 0 -23.666 5.33301 -30.999 16l-67 95h-21
l-110 -98c-5.33301 -5.33301 -10.666 -8.83301 -15.999 -10.5s-11.666 -2.5 -18.999 -2.5h-258c-13.333 0 -15 4.33301 -5 13l257 220c5.33301 5.33301 10.666 8.83301 15.999 10.5s11.666 2.5 18.999 2.5h276c13.333 0 24 -5.33301 32 -16z" />
    <glyph glyph-name="Edieresis" unicode="&#xcb;" horiz-adv-x="1200" 
d="M54 0c-13.333 0 -18.6641 6.66699 -15.9971 20l264 1435c2.66699 13.333 10.667 20 24 20h919c13.333 0 18.666 -6.66699 15.999 -20l-54 -288c-2.66699 -13.333 -10.667 -20 -24 -20h-586l-45 -242h443c13.333 0 18.666 -6.66699 15.999 -20l-54 -287
c-2.66699 -13.333 -10.667 -20 -24 -20h-442l-46 -250h587c13.333 0 18.666 -6.66699 15.999 -20l-54 -288c-2.66699 -13.333 -10.667 -20 -24 -20h-916zM425.002 1597c-13.333 0 -18.666 6.66699 -15.999 20l39 216c2.66699 14 10.667 21.333 24 22l290 37
c13.333 0.666992 18.666 -5.33301 15.999 -18l-48 -257c-2.66699 -13.333 -10.667 -20 -24 -20h-281zM877.002 1597c-13.333 0 -18.666 6.66699 -15.999 20l40 216c2.66699 14 10.667 21.333 24 22l289 37c13.333 0.666992 18.666 -5.33301 15.999 -18l-47 -257
c-2.66699 -13.333 -10.667 -20 -24 -20h-282z" />
    <glyph glyph-name="Igrave" unicode="&#xcc;" horiz-adv-x="652" 
d="M55 0c-13.333 0 -18.666 6.66699 -15.999 20l264 1435c2.66699 13.333 10.667 20 24 20h310c13.333 0 18.666 -6.66699 15.999 -20l-264 -1435c-2.66699 -13.333 -10.667 -20 -24 -20h-310zM459 1597c-13.333 0 -25.332 4 -35.999 12l-209 218
c-4 4.66699 -5.33301 8.5 -4 11.5s4.66602 4.5 9.99902 4.5h317c16.667 0 27.667 -4.66699 33 -14l143 -218c6 -9.33301 2.66699 -14 -10 -14h-244z" />
    <glyph glyph-name="Iacute" unicode="&#xcd;" horiz-adv-x="651" 
d="M54 0c-13.333 0 -18.666 6.66699 -15.999 20l264 1435c2.66699 13.333 10.667 20 24 20h310c13.333 0 18.666 -6.66699 15.999 -20l-264 -1435c-2.66699 -13.333 -10.667 -20 -24 -20h-310zM238 1597c-6 0 -9.49902 1.33301 -10.499 4s0.5 6 4.5 10l220 218
c9.33301 9.33301 20.666 14 33.999 14h343c12.667 0 14 -4 4 -12l-299 -222c-10.667 -8 -22.667 -12 -36 -12h-260z" />
    <glyph glyph-name="Icircumflex" unicode="&#xce;" horiz-adv-x="652" 
d="M55 0c-13.333 0 -18.666 6.66699 -15.999 20l264 1435c2.66699 13.333 10.667 20 24 20h310c13.333 0 18.666 -6.66699 15.999 -20l-264 -1435c-2.66699 -13.333 -10.667 -20 -24 -20h-310zM890 1613c8.66699 -10.667 5.99902 -16 -8.00098 -16h-225
c-13.333 0 -23.666 5.33301 -30.999 16l-67 95h-21l-110 -98c-5.33301 -5.33301 -10.666 -8.83301 -15.999 -10.5s-11.666 -2.5 -18.999 -2.5h-258c-13.333 0 -15 4.33301 -5 13l257 220c5.33301 5.33301 10.666 8.83301 15.999 10.5s11.666 2.5 18.999 2.5h276
c13.333 0 24 -5.33301 32 -16z" />
    <glyph glyph-name="Idieresis" unicode="&#xcf;" horiz-adv-x="652" 
d="M55 0c-13.333 0 -18.666 6.66699 -15.999 20l264 1435c2.66699 13.333 10.667 20 24 20h310c13.333 0 18.666 -6.66699 15.999 -20l-264 -1435c-2.66699 -13.333 -10.667 -20 -24 -20h-310zM140 1597c-13.333 0 -18.666 6.66699 -15.999 20l39 216
c2.66699 14 10.667 21.333 24 22l290 37c13.333 0.666992 18.666 -5.33301 15.999 -18l-48 -257c-2.66699 -13.333 -10.667 -20 -24 -20h-281zM592 1597c-13.333 0 -18.666 6.66699 -15.999 20l40 216c2.66699 14 10.667 21.333 24 22l289 37
c13.333 0.666992 18.666 -5.33301 15.999 -18l-47 -257c-2.66699 -13.333 -10.667 -20 -24 -20h-282z" />
    <glyph glyph-name="Eth" unicode="&#xd0;" horiz-adv-x="1442" 
d="M428 -16c-21.333 0 -45.834 0.329102 -73.501 0.996094s-57.167 1.5 -88.5 2.5s-63.166 2.33301 -95.499 4s-63.5 3.83398 -93.5 6.50098c-13.333 0.666992 -18.666 8 -15.999 22l105 574h-139c-13.333 0 -18.666 6.66699 -15.999 20l49 279
c2.66699 13.333 10.667 20 24 20h141l100 542c1.33301 7.33301 3.83301 12.5 7.5 15.5s9.16699 5.16699 16.5 6.5c25.333 2 53.333 3.83301 84 5.5s61.167 3.16699 91.5 4.5s59.333 2.33301 87 3s51.167 1 70.5 1c79.333 0 154.166 -3.66699 224.499 -11
s134.5 -20.666 192.5 -39.999s108.833 -45.666 152.5 -78.999s78.167 -75.666 103.5 -126.999s40.666 -113.166 45.999 -185.499s-1 -156.833 -19 -253.5l-21 -113c-20 -108 -45.167 -200.333 -75.5 -277s-66 -140.834 -107 -192.501s-87.167 -92.667 -138.5 -123
s-108.166 -53.333 -170.499 -69s-130.333 -25.667 -204 -30s-152.834 -6.5 -237.501 -6.5zM713.999 1180c-13.333 0 -28.001 -0.500977 -44.001 -1.50098s-31.333 -2.5 -46 -4.5l-49 -261h205c13.333 0 18.666 -6.66699 15.999 -20l-49 -279
c-2.66699 -13.333 -10.667 -20 -24 -20h-207l-54 -293c6 -1.33301 14 -2.33301 24 -3s20.5 -1.16699 31.5 -1.5s21.333 -0.666016 31 -0.999023s17.167 -0.5 22.5 -0.5c62.667 0 117.834 5 165.501 15s89.334 29 125.001 57s65.5 67 89.5 117s43.333 114.667 58 194l23 119
c14 78.667 17.667 142.834 11 192.501s-23.5 88.667 -50.5 117s-63.833 47.666 -110.5 57.999s-102.667 15.5 -168 15.5z" />
    <glyph glyph-name="Ntilde" unicode="&#xd1;" horiz-adv-x="1512" 
d="M54 0c-13.333 0 -18.668 6.66699 -16.001 20l264 1435c2.66699 13.333 10.667 20 24 20h343c13.333 0 22.333 -6.33301 27 -19l284 -749c4.66699 -12.667 8.5 -24.667 11.5 -36l8 -30c2.33301 -8.66699 4 -15.667 5 -21s1.83301 -8 2.5 -8l157 843
c2.66699 13.333 10.667 20 24 20h311c13.333 0 18.666 -6.66699 15.999 -20l-267 -1435c-2.66699 -13.333 -10.667 -20 -24 -20h-343c-13.333 -0 -22.333 6.33301 -27 19l-282 745c-11.333 30 -18.166 54.167 -20.499 72.5s-4.16602 27.5 -5.49902 27.5l-158 -844
c-2.66699 -13.333 -10.667 -20 -24 -20h-310zM571.998 1587c-7.33301 0 -12.3311 1.50098 -14.998 4.50098s-3.66699 8.16699 -3 15.5c9.33301 66.667 23.666 119.334 42.999 158.001s41.166 68 65.499 88s50 32.667 77 38s53.167 8 78.5 8c10.667 0 21 -1 31 -3
s21 -5 33 -9s25.167 -9.33301 39.5 -16l51.5 -24l48.5 -23c13 -6 24 -10.833 33 -14.5s16.333 -6.33398 22 -8.00098s10.5 -2.5 14.5 -2.5c6 0 11.167 0.666992 15.5 2s8.33301 4.33301 12 9s7 11.5 10 20.5s6.5 21.167 10.5 36.5c2.66699 13.333 10.667 20 24 20h191
c7.33301 0 12.333 -1.5 15 -4.5s3.66699 -8.16699 3 -15.5c-9.33301 -67.333 -24 -120.333 -44 -159s-42.5 -67.834 -67.5 -87.501s-51.333 -32.167 -79 -37.5s-54.167 -8 -79.5 -8c-11.333 0 -22.333 0.666992 -33 2s-21.667 3.83301 -33 7.5s-23.833 9 -37.5 16
s-29.167 16.167 -46.5 27.5c-18 11.333 -33.333 20.333 -46 27s-23.5 11.5 -32.5 14.5s-16.5 4.83301 -22.5 5.5s-11.333 1 -16 1c-6 0 -11.333 -0.666992 -16 -2s-8.66699 -4.5 -12 -9.5s-6.5 -12 -9.5 -21s-6.5 -21.5 -10.5 -37.5c-2.66699 -12.667 -10.667 -19 -24 -19
h-191z" />
    <glyph glyph-name="Ograve" unicode="&#xd2;" horiz-adv-x="1436" 
d="M595 -31c-98.667 0 -184 13.833 -256 41.5s-129.333 69.834 -172 126.501s-69.667 128.5 -81 215.5s-5.66602 190.167 17.001 309.5l29 153c17.333 92 38.333 173 63 243s53.167 130.5 85.5 181.5s68.666 93.5 108.999 127.5s85.333 61.167 135 81.5s104 34.833 163 43.5
s123.167 13 192.5 13c98.667 0 184 -13.833 256 -41.5s129.333 -69.834 172 -126.501s69.667 -128.5 81 -215.5s6 -189.833 -16 -308.5l-29 -154c-26 -138.667 -60.167 -252.5 -102.5 -341.5s-94 -159.333 -155 -211s-132.167 -87.5 -213.5 -107.5s-174 -30 -278 -30z
M814 1157c-44.667 0 -84.8271 -5.49902 -120.494 -16.499s-67.167 -29.333 -94.5 -55s-50.666 -59.834 -69.999 -102.501s-35 -95.334 -47 -158.001l-30 -174c-12 -63.333 -17.333 -116.333 -16 -159s10.166 -77 26.499 -103s40.666 -44.5 72.999 -55.5
s73.166 -16.5 122.499 -16.5c45.333 0 86.166 5.5 122.499 16.5s68.166 29.5 95.499 55.5s50.666 60.333 69.999 103s34.666 95.667 45.999 159l33 172c12 62.667 17.167 115.334 15.5 158.001s-11 77 -28 103s-41.833 44.667 -74.5 56s-74 17 -124 17zM850.007 1597
c-13.333 0 -25.332 4 -35.999 12l-209 218c-4 4.66699 -5.33301 8.5 -4 11.5s4.66602 4.5 9.99902 4.5h317c16.667 0 27.667 -4.66699 33 -14l143 -218c6 -9.33301 2.66699 -14 -10 -14h-244z" />
    <glyph glyph-name="Oacute" unicode="&#xd3;" horiz-adv-x="1436" 
d="M595 -31c-98.667 0 -184 13.833 -256 41.5s-129.333 69.834 -172 126.501s-69.667 128.5 -81 215.5s-5.66602 190.167 17.001 309.5l29 153c17.333 92 38.333 173 63 243s53.167 130.5 85.5 181.5s68.666 93.5 108.999 127.5s85.333 61.167 135 81.5s104 34.833 163 43.5
s123.167 13 192.5 13c98.667 0 184 -13.833 256 -41.5s129.333 -69.834 172 -126.501s69.667 -128.5 81 -215.5s6 -189.833 -16 -308.5l-29 -154c-26 -138.667 -60.167 -252.5 -102.5 -341.5s-94 -159.333 -155 -211s-132.167 -87.5 -213.5 -107.5s-174 -30 -278 -30z
M814 1157c-44.667 0 -84.8271 -5.49902 -120.494 -16.499s-67.167 -29.333 -94.5 -55s-50.666 -59.834 -69.999 -102.501s-35 -95.334 -47 -158.001l-30 -174c-12 -63.333 -17.333 -116.333 -16 -159s10.166 -77 26.499 -103s40.666 -44.5 72.999 -55.5
s73.166 -16.5 122.499 -16.5c45.333 0 86.166 5.5 122.499 16.5s68.166 29.5 95.499 55.5s50.666 60.333 69.999 103s34.666 95.667 45.999 159l33 172c12 62.667 17.167 115.334 15.5 158.001s-11 77 -28 103s-41.833 44.667 -74.5 56s-74 17 -124 17zM669.007 1597
c-6 0 -9.49902 1.33301 -10.499 4s0.5 6 4.5 10l220 218c9.33301 9.33301 20.666 14 33.999 14h343c12.667 0 14 -4 4 -12l-299 -222c-10.667 -8 -22.667 -12 -36 -12h-260z" />
    <glyph glyph-name="Ocircumflex" unicode="&#xd4;" horiz-adv-x="1436" 
d="M595 -31c-98.667 0 -184 13.833 -256 41.5s-129.333 69.834 -172 126.501s-69.667 128.5 -81 215.5s-5.66602 190.167 17.001 309.5l29 153c17.333 92 38.333 173 63 243s53.167 130.5 85.5 181.5s68.666 93.5 108.999 127.5s85.333 61.167 135 81.5s104 34.833 163 43.5
s123.167 13 192.5 13c98.667 0 184 -13.833 256 -41.5s129.333 -69.834 172 -126.501s69.667 -128.5 81 -215.5s6 -189.833 -16 -308.5l-29 -154c-26 -138.667 -60.167 -252.5 -102.5 -341.5s-94 -159.333 -155 -211s-132.167 -87.5 -213.5 -107.5s-174 -30 -278 -30z
M814 1157c-44.667 0 -84.8271 -5.49902 -120.494 -16.499s-67.167 -29.333 -94.5 -55s-50.666 -59.834 -69.999 -102.501s-35 -95.334 -47 -158.001l-30 -174c-12 -63.333 -17.333 -116.333 -16 -159s10.166 -77 26.499 -103s40.666 -44.5 72.999 -55.5
s73.166 -16.5 122.499 -16.5c45.333 0 86.166 5.5 122.499 16.5s68.166 29.5 95.499 55.5s50.666 60.333 69.999 103s34.666 95.667 45.999 159l33 172c12 62.667 17.167 115.334 15.5 158.001s-11 77 -28 103s-41.833 44.667 -74.5 56s-74 17 -124 17zM1277.01 1613
c8.66699 -10.667 5.99902 -16 -8.00098 -16h-225c-13.333 0 -23.666 5.33301 -30.999 16l-67 95h-21l-110 -98c-5.33301 -5.33301 -10.666 -8.83301 -15.999 -10.5s-11.666 -2.5 -18.999 -2.5h-258c-13.333 0 -15 4.33301 -5 13l257 220
c5.33301 5.33301 10.666 8.83301 15.999 10.5s11.666 2.5 18.999 2.5h276c13.333 0 24 -5.33301 32 -16z" />
    <glyph glyph-name="Otilde" unicode="&#xd5;" horiz-adv-x="1436" 
d="M595 -31c-98.667 0 -184 13.833 -256 41.5s-129.333 69.834 -172 126.501s-69.667 128.5 -81 215.5s-5.66602 190.167 17.001 309.5l29 153c17.333 92 38.333 173 63 243s53.167 130.5 85.5 181.5s68.666 93.5 108.999 127.5s85.333 61.167 135 81.5s104 34.833 163 43.5
s123.167 13 192.5 13c98.667 0 184 -13.833 256 -41.5s129.333 -69.834 172 -126.501s69.667 -128.5 81 -215.5s6 -189.833 -16 -308.5l-29 -154c-26 -138.667 -60.167 -252.5 -102.5 -341.5s-94 -159.333 -155 -211s-132.167 -87.5 -213.5 -107.5s-174 -30 -278 -30z
M814 1157c-44.667 0 -84.8271 -5.49902 -120.494 -16.499s-67.167 -29.333 -94.5 -55s-50.666 -59.834 -69.999 -102.501s-35 -95.334 -47 -158.001l-30 -174c-12 -63.333 -17.333 -116.333 -16 -159s10.166 -77 26.499 -103s40.666 -44.5 72.999 -55.5
s73.166 -16.5 122.499 -16.5c45.333 0 86.166 5.5 122.499 16.5s68.166 29.5 95.499 55.5s50.666 60.333 69.999 103s34.666 95.667 45.999 159l33 172c12 62.667 17.167 115.334 15.5 158.001s-11 77 -28 103s-41.833 44.667 -74.5 56s-74 17 -124 17zM535.007 1587
c-7.33301 0 -12.3311 1.50098 -14.998 4.50098s-3.66699 8.16699 -3 15.5c9.33301 66.667 23.666 119.334 42.999 158.001s41.166 68 65.499 88s50 32.667 77 38s53.167 8 78.5 8c10.667 0 21 -1 31 -3s21 -5 33 -9s25.167 -9.33301 39.5 -16l51.5 -24l48.5 -23
c13 -6 24 -10.833 33 -14.5s16.333 -6.33398 22 -8.00098s10.5 -2.5 14.5 -2.5c6 0 11.167 0.666992 15.5 2s8.33301 4.33301 12 9s7 11.5 10 20.5s6.5 21.167 10.5 36.5c2.66699 13.333 10.667 20 24 20h191c7.33301 0 12.333 -1.5 15 -4.5s3.66699 -8.16699 3 -15.5
c-9.33301 -67.333 -24 -120.333 -44 -159s-42.5 -67.834 -67.5 -87.501s-51.333 -32.167 -79 -37.5s-54.167 -8 -79.5 -8c-11.333 0 -22.333 0.666992 -33 2s-21.667 3.83301 -33 7.5s-23.833 9 -37.5 16s-29.167 16.167 -46.5 27.5c-18 11.333 -33.333 20.333 -46 27
s-23.5 11.5 -32.5 14.5s-16.5 4.83301 -22.5 5.5s-11.333 1 -16 1c-6 0 -11.333 -0.666992 -16 -2s-8.66699 -4.5 -12 -9.5s-6.5 -12 -9.5 -21s-6.5 -21.5 -10.5 -37.5c-2.66699 -12.667 -10.667 -19 -24 -19h-191z" />
    <glyph glyph-name="Odieresis" unicode="&#xd6;" horiz-adv-x="1436" 
d="M595 -31c-98.667 0 -184 13.833 -256 41.5s-129.333 69.834 -172 126.501s-69.667 128.5 -81 215.5s-5.66602 190.167 17.001 309.5l29 153c17.333 92 38.333 173 63 243s53.167 130.5 85.5 181.5s68.666 93.5 108.999 127.5s85.333 61.167 135 81.5s104 34.833 163 43.5
s123.167 13 192.5 13c98.667 0 184 -13.833 256 -41.5s129.333 -69.834 172 -126.501s69.667 -128.5 81 -215.5s6 -189.833 -16 -308.5l-29 -154c-26 -138.667 -60.167 -252.5 -102.5 -341.5s-94 -159.333 -155 -211s-132.167 -87.5 -213.5 -107.5s-174 -30 -278 -30z
M814 1157c-44.667 0 -84.8271 -5.49902 -120.494 -16.499s-67.167 -29.333 -94.5 -55s-50.666 -59.834 -69.999 -102.501s-35 -95.334 -47 -158.001l-30 -174c-12 -63.333 -17.333 -116.333 -16 -159s10.166 -77 26.499 -103s40.666 -44.5 72.999 -55.5
s73.166 -16.5 122.499 -16.5c45.333 0 86.166 5.5 122.499 16.5s68.166 29.5 95.499 55.5s50.666 60.333 69.999 103s34.666 95.667 45.999 159l33 172c12 62.667 17.167 115.334 15.5 158.001s-11 77 -28 103s-41.833 44.667 -74.5 56s-74 17 -124 17zM529.007 1597
c-13.333 0 -18.666 6.66699 -15.999 20l39 216c2.66699 14 10.667 21.333 24 22l290 37c13.333 0.666992 18.666 -5.33301 15.999 -18l-48 -257c-2.66699 -13.333 -10.667 -20 -24 -20h-281zM981.007 1597c-13.333 0 -18.666 6.66699 -15.999 20l40 216
c2.66699 14 10.667 21.333 24 22l289 37c13.333 0.666992 18.666 -5.33301 15.999 -18l-47 -257c-2.66699 -13.333 -10.667 -20 -24 -20h-282z" />
    <glyph glyph-name="multiply" unicode="&#xd7;" horiz-adv-x="1077" 
d="M155 990c-5.33301 6 -7.66602 11.001 -6.99902 15.001s3.66699 8.66699 9 14l240 199c5.33301 5.33301 10 7.66602 14 6.99902s8.66699 -4 14 -10l179 -221l271 228c5.33301 5.33301 10 7.66602 14 6.99902s8.66699 -4 14 -10l157 -193
c5.33301 -6 7.66602 -11 6.99902 -15s-3.66699 -8.66699 -9 -14l-270 -229l181 -222c5.33301 -6 7.66602 -11 6.99902 -15s-3.66699 -8.66699 -9 -14l-237 -199c-5.33301 -5.33301 -10 -7.66602 -14 -6.99902s-8.66699 3.66699 -14 9l-181 222l-263 -222
c-10 -8.66699 -19.333 -7.66699 -28 3l-157 196c-5.33301 6 -7.66602 11 -6.99902 15s3.66699 8.66699 9 14l261 220z" />
    <glyph glyph-name="Oslash" unicode="&#xd8;" horiz-adv-x="1422" 
d="M122 254c-18 57.333 -27.167 123.668 -27.5 199.001s8.5 161.666 26.5 258.999l18 103c24 130.667 57.5 240 100.5 328s95.167 158.833 156.5 212.5s131.5 92 210.5 115s166.167 34.5 261.5 34.5c75.333 0 142.5 -8.16699 201.5 -24.5s109.5 -41.833 151.5 -76.5l54 57
c5.33301 5.33301 10.5 9 15.5 11s11.167 3 18.5 3h253c6 0 9.66699 -1.33301 11 -4s-0.333984 -6 -5.00098 -10l-229 -240c18 -57.333 27.333 -123.666 28 -198.999s-8 -161.666 -26 -258.999l-19 -104c-24 -131.333 -57.5 -241 -100.5 -329s-95 -158.833 -156 -212.5
s-131 -91.834 -210 -114.501s-166.5 -34 -262.5 -34c-75.333 0 -142.5 8.16699 -201.5 24.5s-109.5 42.166 -151.5 77.499l-54 -57c-5.33301 -5.33301 -10.5 -9 -15.5 -11s-11.167 -3 -18.5 -3h-253c-6 -0 -9.66699 1.33301 -11 4s0.333984 6 5.00098 10zM1003 823.002
l9.00098 56l-507 -531c17.333 -11.333 38.166 -19.333 62.499 -24s52.833 -7 85.5 -7c42.667 0 81 5.5 115 16.5s64 29.5 90 55.5s48.333 60.333 67 103s34 95.667 46 159zM808.001 1157c-43.333 0 -81.833 -5.49805 -115.5 -16.498s-63.5 -29.333 -89.5 -55
s-48.167 -59.834 -66.5 -102.501s-33.5 -95.334 -45.5 -158.001l-32 -174c-4 -19.333 -7 -37.333 -9 -54l506 530c-32.667 20 -82 30 -148 30z" />
    <glyph glyph-name="Ugrave" unicode="&#xd9;" horiz-adv-x="1489" 
d="M626 -31c-90.667 0 -171.496 9.33301 -242.496 28s-129.333 48.667 -175 90s-76.834 95 -93.501 161s-16.334 146.333 0.999023 241l178 966c2.66699 13.333 10.667 20 24 20h310c13.333 0 18.666 -6.66699 15.999 -20l-162 -886
c-9.33301 -47.333 -12.666 -87.666 -9.99902 -120.999s12 -60.5 28 -81.5s39.333 -36.167 70 -45.5s69.667 -14 117 -14c45.333 0 85.166 4.66699 119.499 14s63.666 24.5 87.999 45.5s44.5 48.167 60.5 81.5s28.333 73.666 37 120.999l164 886
c2.66699 13.333 10.667 20 24 20h308c13.333 0 18.666 -6.66699 15.999 -20l-178 -966c-18.667 -101.333 -48.167 -185.5 -88.5 -252.5s-90.166 -120.333 -149.499 -160s-127.833 -67.5 -205.5 -83.5s-163.167 -24 -256.5 -24zM856.004 1597c-13.333 0 -25.332 4 -35.999 12
l-209 218c-4 4.66699 -5.33301 8.5 -4 11.5s4.66602 4.5 9.99902 4.5h317c16.667 0 27.667 -4.66699 33 -14l143 -218c6 -9.33301 2.66699 -14 -10 -14h-244z" />
    <glyph glyph-name="Uacute" unicode="&#xda;" horiz-adv-x="1489" 
d="M626 -31c-90.667 0 -171.496 9.33301 -242.496 28s-129.333 48.667 -175 90s-76.834 95 -93.501 161s-16.334 146.333 0.999023 241l178 966c2.66699 13.333 10.667 20 24 20h310c13.333 0 18.666 -6.66699 15.999 -20l-162 -886
c-9.33301 -47.333 -12.666 -87.666 -9.99902 -120.999s12 -60.5 28 -81.5s39.333 -36.167 70 -45.5s69.667 -14 117 -14c45.333 0 85.166 4.66699 119.499 14s63.666 24.5 87.999 45.5s44.5 48.167 60.5 81.5s28.333 73.666 37 120.999l164 886
c2.66699 13.333 10.667 20 24 20h308c13.333 0 18.666 -6.66699 15.999 -20l-178 -966c-18.667 -101.333 -48.167 -185.5 -88.5 -252.5s-90.166 -120.333 -149.499 -160s-127.833 -67.5 -205.5 -83.5s-163.167 -24 -256.5 -24zM766.004 1597
c-6 0 -9.49902 1.33301 -10.499 4s0.5 6 4.5 10l220 218c9.33301 9.33301 20.666 14 33.999 14h343c12.667 0 14 -4 4 -12l-299 -222c-10.667 -8 -22.667 -12 -36 -12h-260z" />
    <glyph glyph-name="Ucircumflex" unicode="&#xdb;" horiz-adv-x="1489" 
d="M626 -31c-90.667 0 -171.496 9.33301 -242.496 28s-129.333 48.667 -175 90s-76.834 95 -93.501 161s-16.334 146.333 0.999023 241l178 966c2.66699 13.333 10.667 20 24 20h310c13.333 0 18.666 -6.66699 15.999 -20l-162 -886
c-9.33301 -47.333 -12.666 -87.666 -9.99902 -120.999s12 -60.5 28 -81.5s39.333 -36.167 70 -45.5s69.667 -14 117 -14c45.333 0 85.166 4.66699 119.499 14s63.666 24.5 87.999 45.5s44.5 48.167 60.5 81.5s28.333 73.666 37 120.999l164 886
c2.66699 13.333 10.667 20 24 20h308c13.333 0 18.666 -6.66699 15.999 -20l-178 -966c-18.667 -101.333 -48.167 -185.5 -88.5 -252.5s-90.166 -120.333 -149.499 -160s-127.833 -67.5 -205.5 -83.5s-163.167 -24 -256.5 -24zM1308 1613
c8.66699 -10.667 5.99902 -16 -8.00098 -16h-225c-13.333 0 -23.666 5.33301 -30.999 16l-67 95h-21l-110 -98c-5.33301 -5.33301 -10.666 -8.83301 -15.999 -10.5s-11.666 -2.5 -18.999 -2.5h-258c-13.333 0 -15 4.33301 -5 13l257 220
c5.33301 5.33301 10.666 8.83301 15.999 10.5s11.666 2.5 18.999 2.5h276c13.333 0 24 -5.33301 32 -16z" />
    <glyph glyph-name="Udieresis" unicode="&#xdc;" horiz-adv-x="1489" 
d="M626 -31c-90.667 0 -171.496 9.33301 -242.496 28s-129.333 48.667 -175 90s-76.834 95 -93.501 161s-16.334 146.333 0.999023 241l178 966c2.66699 13.333 10.667 20 24 20h310c13.333 0 18.666 -6.66699 15.999 -20l-162 -886
c-9.33301 -47.333 -12.666 -87.666 -9.99902 -120.999s12 -60.5 28 -81.5s39.333 -36.167 70 -45.5s69.667 -14 117 -14c45.333 0 85.166 4.66699 119.499 14s63.666 24.5 87.999 45.5s44.5 48.167 60.5 81.5s28.333 73.666 37 120.999l164 886
c2.66699 13.333 10.667 20 24 20h308c13.333 0 18.666 -6.66699 15.999 -20l-178 -966c-18.667 -101.333 -48.167 -185.5 -88.5 -252.5s-90.166 -120.333 -149.499 -160s-127.833 -67.5 -205.5 -83.5s-163.167 -24 -256.5 -24zM558.004 1597
c-13.333 0 -18.666 6.66699 -15.999 20l39 216c2.66699 14 10.667 21.333 24 22l290 37c13.333 0.666992 18.666 -5.33301 15.999 -18l-48 -257c-2.66699 -13.333 -10.667 -20 -24 -20h-281zM1010 1597c-13.333 0 -18.666 6.66699 -15.999 20l40 216
c2.66699 14 10.667 21.333 24 22l289 37c13.333 0.666992 18.666 -5.33301 15.999 -18l-47 -257c-2.66699 -13.333 -10.667 -20 -24 -20h-282z" />
    <glyph glyph-name="Yacute" unicode="&#xdd;" horiz-adv-x="1246" 
d="M347 0c-13.333 0 -18.666 6.66699 -15.999 20l84 463l-281 973c-4 12.667 0.666992 19 14 19h344c13.333 0 21.333 -6.33301 24 -19l135 -588l353 590c4 6.66699 8.16699 11.167 12.5 13.5s10.166 3.5 17.499 3.5h364c13.333 0 16.333 -5.66699 9 -17l-641 -973l-85 -465
c-2.66699 -13.333 -10.667 -20 -24 -20h-310zM608 1597c-6 0 -9.49902 1.33301 -10.499 4s0.5 6 4.5 10l220 218c9.33301 9.33301 20.666 14 33.999 14h343c12.667 0 14 -4 4 -12l-299 -222c-10.667 -8 -22.667 -12 -36 -12h-260z" />
    <glyph glyph-name="Thorn" unicode="&#xde;" horiz-adv-x="1360" 
d="M54 0c-13.333 0 -18.6641 6.66602 -15.9971 19.999l201 1087l30 163l34 185c2.66699 13.333 10.667 20 24 20h311c13.333 0 18.666 -6.66699 15.999 -20l-32 -173c28 0.666992 54.167 1.16699 78.5 1.5s47.166 0.5 68.499 0.5c124.667 0 227.167 -7.33301 307.5 -22
s142.333 -39 186 -73s70.667 -78.833 81 -134.5s7.83301 -124.5 -7.5 -206.5l-22 -119c-11.333 -62 -24.833 -115.833 -40.5 -161.5s-35.667 -84.667 -60 -117s-53.833 -58.666 -88.5 -78.999s-77.167 -36.333 -127.5 -48s-109.333 -19.667 -177 -24
s-146.167 -6.5 -235.5 -6.5h-36.5h-40.5c-13.333 0 -26.333 0.166992 -39 0.5s-23.334 0.833008 -32.001 1.5l-49 -275c-2.66699 -13.333 -10.667 -20 -24 -20h-310zM716.002 972.999c-22.667 0 -48.332 -0.500977 -76.999 -1.50098s-54.334 -2.5 -77.001 -4.5l-65 -357
c10.667 -1.33301 22.5 -2.33301 35.5 -3s26.167 -1.16699 39.5 -1.5l39.5 -1c13 -0.333008 25.167 -0.5 36.5 -0.5c60.667 0 110.167 1.66699 148.5 5s69.166 10.5 92.499 21.5s40.833 26.333 52.5 46s20.5 46.167 26.5 79.5l12 65c5.33301 32.667 6 59 2 79
s-15.667 35.333 -35 46s-47.666 17.834 -84.999 21.501s-86 5.5 -146 5.5z" />
    <glyph glyph-name="germandbls" unicode="&#xdf;" horiz-adv-x="1295" 
d="M27 0c-13.333 0 -18.666 6.66992 -15.999 20.0029l187 1008c18 101.333 41 187.5 69 258.5s65.333 128.667 112 173s104.834 76.666 174.501 96.999s155.5 30.5 257.5 30.5c92.667 0 171 -12.333 235 -37s114.333 -58.5 151 -101.5s60.167 -93.667 70.5 -152
s8.83301 -120.833 -4.5 -187.5l-6 -29c-6 -30.667 -15 -60.334 -27 -89.001s-28.5 -55 -49.5 -79s-47.5 -45.167 -79.5 -63.5s-71 -32.833 -117 -43.5c41.333 -14.667 76.666 -32.834 105.999 -54.501s52.166 -47.667 68.499 -78s26 -65.333 29 -105
s-0.833008 -84.834 -11.5 -135.501l-4 -26c-0.666992 -5.33301 -1.5 -11.666 -2.5 -18.999s-2.16699 -13.666 -3.5 -18.999c-12.667 -56 -26 -104.667 -40 -146s-30.5 -76.833 -49.5 -106.5s-41.333 -54 -67 -73s-56 -34 -91 -45s-75.833 -18.5 -122.5 -22.5
s-100.667 -6 -162 -6c-23.333 0 -49.5 1 -78.5 3s-54.833 5.66699 -77.5 11c-12.667 2.66699 -17.667 10.667 -15 24l53 241c2.66699 13.333 10.667 19 24 17c17.333 -2 35.5 -3.33301 54.5 -4s37.167 -1 54.5 -1c24 0 45.333 2.83301 64 8.5s34.667 14.667 48 27
s24.5 28.666 33.5 48.999s16.167 45.5 21.5 75.5l12 69c4.66699 22.667 6.33398 43.667 5.00098 63s-7.33301 36 -18 50s-27 25 -49 33s-51 12 -87 12h-29c-13.333 0 -18.666 6.66699 -15.999 20l51 279c2.66699 12.667 10.667 19 24 19h21c34 0 62.5 3.33301 85.5 10
s41.833 16 56.5 28s25.834 26.333 33.501 43s13.5 34.667 17.5 54l4 20c10 56.667 3.66699 96.5 -19 119.5s-62.334 34.5 -119.001 34.5c-51.333 0 -92.333 -5 -123 -15s-54.834 -25 -72.501 -45s-30.834 -45.167 -39.501 -75.5s-17 -65.833 -25 -106.5l-186 -1012
c-2.66699 -13.333 -10.667 -20 -24 -20h-292z" />
    <glyph glyph-name="agrave" unicode="&#xe0;" horiz-adv-x="1223" 
d="M804 806c-19.333 3.33301 -44.833 5.66797 -76.5 7.00098s-63.5 2 -95.5 2c-40 0 -73 -3.83301 -99 -11.5s-47.5 -20.667 -64.5 -39s-30.667 -42.5 -41 -72.5s-19.5 -67.333 -27.5 -112l-14 -72c-8.66699 -48 -13.5 -88.333 -14.5 -121s3.5 -58.834 13.5 -78.501
s26.833 -33.667 50.5 -42s55.5 -12.5 95.5 -12.5c14 0 28.667 0.166992 44 0.5l45.5 1c15 0.333008 29.5 0.833008 43.5 1.5s26.333 1.66699 37 3zM484 -30.998c-99.333 0 -180.496 9.50098 -243.496 28.501s-110.667 48.5 -143 88.5s-51 91 -56 153s0.5 136 16.5 222
l29 153c18 95.333 40.833 174.166 68.5 236.499s64.167 112 109.5 149s101.166 63 167.499 78s147.166 22.5 242.499 22.5c92 0 179.333 -2.5 262 -7.5s159 -11.5 229 -19.5c13.333 -0.666992 18.666 -8 15.999 -22l-192 -1031c-2.66699 -14 -10.667 -21.333 -24 -22
c-81.333 -9.33301 -162.333 -16.5 -243 -21.5s-160.334 -7.5 -239.001 -7.5zM655.004 1270c-13.333 0 -24 5.33203 -32 15.999l-179 244c-8.66699 10.667 -6 16 8 16h304c7.33301 0 13 -1.16699 17 -3.5s7.66699 -7.16602 11 -14.499l113 -240
c4.66699 -12 0.666992 -18 -12 -18h-230z" />
    <glyph glyph-name="aacute" unicode="&#xe1;" horiz-adv-x="1223" 
d="M804 806c-19.333 3.33301 -44.833 5.66797 -76.5 7.00098s-63.5 2 -95.5 2c-40 0 -73 -3.83301 -99 -11.5s-47.5 -20.667 -64.5 -39s-30.667 -42.5 -41 -72.5s-19.5 -67.333 -27.5 -112l-14 -72c-8.66699 -48 -13.5 -88.333 -14.5 -121s3.5 -58.834 13.5 -78.501
s26.833 -33.667 50.5 -42s55.5 -12.5 95.5 -12.5c14 0 28.667 0.166992 44 0.5l45.5 1c15 0.333008 29.5 0.833008 43.5 1.5s26.333 1.66699 37 3zM484 -30.998c-99.333 0 -180.496 9.50098 -243.496 28.501s-110.667 48.5 -143 88.5s-51 91 -56 153s0.5 136 16.5 222
l29 153c18 95.333 40.833 174.166 68.5 236.499s64.167 112 109.5 149s101.166 63 167.499 78s147.166 22.5 242.499 22.5c92 0 179.333 -2.5 262 -7.5s159 -11.5 229 -19.5c13.333 -0.666992 18.666 -8 15.999 -22l-192 -1031c-2.66699 -14 -10.667 -21.333 -24 -22
c-81.333 -9.33301 -162.333 -16.5 -243 -21.5s-160.334 -7.5 -239.001 -7.5zM532.004 1270c-13.333 0 -15.6689 5.33301 -7.00195 16l197 244c5.33301 6 10.333 10.167 15 12.5s10.667 3.5 18 3.5h335c13.333 0 15 -4.33301 5 -13l-275 -250
c-5.33301 -5.33301 -10.666 -8.83301 -15.999 -10.5s-11.666 -2.5 -18.999 -2.5h-253z" />
    <glyph glyph-name="acircumflex" unicode="&#xe2;" horiz-adv-x="1223" 
d="M804 806c-19.333 3.33301 -44.833 5.66797 -76.5 7.00098s-63.5 2 -95.5 2c-40 0 -73 -3.83301 -99 -11.5s-47.5 -20.667 -64.5 -39s-30.667 -42.5 -41 -72.5s-19.5 -67.333 -27.5 -112l-14 -72c-8.66699 -48 -13.5 -88.333 -14.5 -121s3.5 -58.834 13.5 -78.501
s26.833 -33.667 50.5 -42s55.5 -12.5 95.5 -12.5c14 0 28.667 0.166992 44 0.5l45.5 1c15 0.333008 29.5 0.833008 43.5 1.5s26.333 1.66699 37 3zM484 -30.998c-99.333 0 -180.496 9.50098 -243.496 28.501s-110.667 48.5 -143 88.5s-51 91 -56 153s0.5 136 16.5 222
l29 153c18 95.333 40.833 174.166 68.5 236.499s64.167 112 109.5 149s101.166 63 167.499 78s147.166 22.5 242.499 22.5c92 0 179.333 -2.5 262 -7.5s159 -11.5 229 -19.5c13.333 -0.666992 18.666 -8 15.999 -22l-192 -1031c-2.66699 -14 -10.667 -21.333 -24 -22
c-81.333 -9.33301 -162.333 -16.5 -243 -21.5s-160.334 -7.5 -239.001 -7.5zM1107 1266c7.33301 -11.333 4 -17 -10 -17h-237c-7.33301 0 -13 1.16699 -17 3.5s-7.66699 7.16602 -11 14.499l-57 125h-21l-106 -128c-5.33301 -5.33301 -10.333 -9.16602 -15 -11.499
s-10.667 -3.5 -18 -3.5h-249c-6 0 -9.66699 1.33301 -11 4s0.333984 6 5.00098 10l255 269c5.33301 5.33301 10.5 9 15.5 11s11.167 3 18.5 3h275c7.33301 0 13.166 -1.16699 17.499 -3.5s8.5 -6.83301 12.5 -13.5z" />
    <glyph glyph-name="atilde" unicode="&#xe3;" horiz-adv-x="1223" 
d="M804 806c-19.333 3.33301 -44.833 5.66797 -76.5 7.00098s-63.5 2 -95.5 2c-40 0 -73 -3.83301 -99 -11.5s-47.5 -20.667 -64.5 -39s-30.667 -42.5 -41 -72.5s-19.5 -67.333 -27.5 -112l-14 -72c-8.66699 -48 -13.5 -88.333 -14.5 -121s3.5 -58.834 13.5 -78.501
s26.833 -33.667 50.5 -42s55.5 -12.5 95.5 -12.5c14 0 28.667 0.166992 44 0.5l45.5 1c15 0.333008 29.5 0.833008 43.5 1.5s26.333 1.66699 37 3zM484 -30.998c-99.333 0 -180.496 9.50098 -243.496 28.501s-110.667 48.5 -143 88.5s-51 91 -56 153s0.5 136 16.5 222
l29 153c18 95.333 40.833 174.166 68.5 236.499s64.167 112 109.5 149s101.166 63 167.499 78s147.166 22.5 242.499 22.5c92 0 179.333 -2.5 262 -7.5s159 -11.5 229 -19.5c13.333 -0.666992 18.666 -8 15.999 -22l-192 -1031c-2.66699 -14 -10.667 -21.333 -24 -22
c-81.333 -9.33301 -162.333 -16.5 -243 -21.5s-160.334 -7.5 -239.001 -7.5zM620.004 1344c-6 0 -11.333 -0.666016 -16 -1.99902s-8.83398 -4.66602 -12.501 -9.99902s-7.16699 -13.166 -10.5 -23.499s-6.66602 -24.5 -9.99902 -42.5c-2.66699 -13.333 -10.667 -20 -24 -20
h-186c-14 0 -20 6.66699 -18 20c5.33301 64.667 16.166 117.167 32.499 157.5s36.5 72 60.5 95s51.167 38.667 81.5 47s62.166 12.5 95.499 12.5c13.333 0 25.5 -0.666992 36.5 -2s22.5 -3.66602 34.5 -6.99902s24.833 -8.33301 38.5 -15s29.834 -15.334 48.501 -26.001
c16.667 -10 30.834 -18.167 42.501 -24.5l29.5 -15.5c8 -4 14.5 -6.83301 19.5 -8.5s9.16699 -2.5 12.5 -2.5c6 0 11.333 0.666992 16 2s8.83398 4.66602 12.501 9.99902s7.16699 13.166 10.5 23.499s6.66602 24.5 9.99902 42.5c2.66699 13.333 10.667 20 24 20h186
c14 0 20 -6.66699 18 -20c-5.33301 -64.667 -16.166 -117.167 -32.499 -157.5s-36.5 -72 -60.5 -95s-51.167 -38.667 -81.5 -47s-62.166 -12.5 -95.499 -12.5c-13.333 0 -25.5 0.666992 -36.5 2s-22.5 3.66602 -34.5 6.99902s-24.833 8.33301 -38.5 15
s-29.834 15.334 -48.501 26.001c-33.333 19.333 -57.333 32.666 -72 39.999s-25.334 11 -32.001 11z" />
    <glyph glyph-name="adieresis" unicode="&#xe4;" horiz-adv-x="1223" 
d="M804 806c-19.333 3.33301 -44.833 5.66797 -76.5 7.00098s-63.5 2 -95.5 2c-40 0 -73 -3.83301 -99 -11.5s-47.5 -20.667 -64.5 -39s-30.667 -42.5 -41 -72.5s-19.5 -67.333 -27.5 -112l-14 -72c-8.66699 -48 -13.5 -88.333 -14.5 -121s3.5 -58.834 13.5 -78.501
s26.833 -33.667 50.5 -42s55.5 -12.5 95.5 -12.5c14 0 28.667 0.166992 44 0.5l45.5 1c15 0.333008 29.5 0.833008 43.5 1.5s26.333 1.66699 37 3zM484 -30.998c-99.333 0 -180.496 9.50098 -243.496 28.501s-110.667 48.5 -143 88.5s-51 91 -56 153s0.5 136 16.5 222
l29 153c18 95.333 40.833 174.166 68.5 236.499s64.167 112 109.5 149s101.166 63 167.499 78s147.166 22.5 242.499 22.5c92 0 179.333 -2.5 262 -7.5s159 -11.5 229 -19.5c13.333 -0.666992 18.666 -8 15.999 -22l-192 -1031c-2.66699 -14 -10.667 -21.333 -24 -22
c-81.333 -9.33301 -162.333 -16.5 -243 -21.5s-160.334 -7.5 -239.001 -7.5zM342.004 1219c-13.333 0 -18.666 6.66699 -15.999 20l54 287c2.66699 14 10.667 21.333 24 22l287 37c13.333 0.666992 18.666 -5.33301 15.999 -18l-59 -328
c-2.66699 -13.333 -10.667 -20 -24 -20h-282zM795.004 1219c-13.333 0 -18.666 6.66699 -15.999 20l53 287c2.66699 14 10.667 21.333 24 22l288 37c13.333 0.666992 18.666 -5.33301 15.999 -18l-60 -328c-2.66699 -13.333 -10.667 -20 -24 -20h-281z" />
    <glyph glyph-name="aring" unicode="&#xe5;" horiz-adv-x="1223" 
d="M804 806c-19.333 3.33301 -44.833 5.66797 -76.5 7.00098s-63.5 2 -95.5 2c-40 0 -73 -3.83301 -99 -11.5s-47.5 -20.667 -64.5 -39s-30.667 -42.5 -41 -72.5s-19.5 -67.333 -27.5 -112l-14 -72c-8.66699 -48 -13.5 -88.333 -14.5 -121s3.5 -58.834 13.5 -78.501
s26.833 -33.667 50.5 -42s55.5 -12.5 95.5 -12.5c14 0 28.667 0.166992 44 0.5l45.5 1c15 0.333008 29.5 0.833008 43.5 1.5s26.333 1.66699 37 3zM484 -30.998c-99.333 0 -180.496 9.50098 -243.496 28.501s-110.667 48.5 -143 88.5s-51 91 -56 153s0.5 136 16.5 222
l29 153c18 95.333 40.833 174.166 68.5 236.499s64.167 112 109.5 149s101.166 63 167.499 78s147.166 22.5 242.499 22.5c92 0 179.333 -2.5 262 -7.5s159 -11.5 229 -19.5c13.333 -0.666992 18.666 -8 15.999 -22l-192 -1031c-2.66699 -14 -10.667 -21.333 -24 -22
c-81.333 -9.33301 -162.333 -16.5 -243 -21.5s-160.334 -7.5 -239.001 -7.5zM745.004 1458c-12 0 -22.833 -0.666992 -32.5 -2s-18 -4.5 -25 -9.5s-12.5 -12 -16.5 -21s-6 -21.167 -6 -36.5c0 -18.667 5.5 -30.167 16.5 -34.5s25.167 -6.5 42.5 -6.5c12 0 23 0.666992 33 2
s18.667 4.5 26 9.5s13 12 17 21s6 21.167 6 36.5c0 18.667 -5.83301 30.167 -17.5 34.5s-26.167 6.5 -43.5 6.5zM683.004 1176c-80.667 0 -138.998 16.501 -174.998 49.501s-54 77.167 -54 132.5c0 38 5.83301 73.667 17.5 107s30 62.166 55 86.499s57.333 43.5 97 57.5
s87.5 21 143.5 21c79.333 0 137.166 -16.5 173.499 -49.5s54.5 -77.833 54.5 -134.5c0 -38.667 -6.33301 -74.5 -19 -107.5s-31.834 -61.5 -57.501 -85.5s-58 -42.833 -97 -56.5s-85.167 -20.5 -138.5 -20.5z" />
    <glyph glyph-name="ae" unicode="&#xe6;" horiz-adv-x="1849" 
d="M1159 -31c-85.333 0 -157.994 8.66602 -217.994 25.999c-77.333 -8.66699 -154.166 -15.167 -230.499 -19.5s-151.833 -6.5 -226.5 -6.5c-99.333 0 -180.5 9.5 -243.5 28.5s-110.667 48.5 -143 88.5s-51 91 -56 153s0.5 136 16.5 222l29 153
c18 95.333 40.833 174.166 68.5 236.499s64.167 112 109.5 149s101.166 63 167.499 78s147.166 22.5 242.499 22.5c87.333 0 170.666 -2.33301 249.999 -7s153 -10.667 221 -18c62 16.667 134.667 25 218 25c149.333 0 258 -30.167 326 -90.5s102 -153.833 102 -280.5
c0 -40.667 -2.83301 -78.667 -8.5 -114s-12.5 -67.166 -20.5 -95.499s-16.333 -52.833 -25 -73.5s-15.667 -36.334 -21 -47.001c-3.33301 -7.33301 -7 -12.166 -11 -14.499s-9.66699 -3.5 -17 -3.5l-627 -2c-0.666992 -28 2.16602 -50.333 8.49902 -67
s16.666 -29.5 30.999 -38.5s32.666 -14.833 54.999 -17.5s49.166 -4 80.499 -4c58.667 0 118.5 1 179.5 3s125.5 5.33301 193.5 10c13.333 0.666992 19 -5.66602 17 -18.999l-29 -226c-2 -13.333 -9.66699 -21 -23 -23c-66.667 -8 -134.167 -14.667 -202.5 -20
s-139.5 -8 -213.5 -8zM804.006 805.999c-19.333 3.33301 -44.833 5.66797 -76.5 7.00098s-63.5 2 -95.5 2c-40 0 -73 -3.83301 -99 -11.5s-47.5 -20.667 -64.5 -39s-30.667 -42.5 -41 -72.5s-19.5 -67.333 -27.5 -112l-14 -72c-8.66699 -48 -13.5 -88.333 -14.5 -121
s3.5 -58.834 13.5 -78.501s26.833 -33.667 50.5 -42s55.5 -12.5 95.5 -12.5c14 0 28.667 0.166992 44 0.5l45.5 1c15 0.333008 29.5 0.833008 43.5 1.5s26.333 1.66699 37 3zM1483.01 631.001c0 38 -2.49902 69 -7.49902 93s-14 42.833 -27 56.5s-30.333 23.167 -52 28.5
s-49.5 8 -83.5 8c-30.667 0 -57.167 -2.66699 -79.5 -8s-41.333 -14.333 -57 -27s-28.834 -29 -39.501 -49s-20 -45 -28 -75l-9 -45z" />
    <glyph glyph-name="ccedilla" unicode="&#xe7;" horiz-adv-x="953" 
d="M483 -31c-100 0 -181.504 10.002 -244.504 30.002s-110.5 50.5 -142.5 91.5s-50.167 93.167 -54.5 156.5s1.5 138.666 17.5 225.999l23 125c16 86.667 37.833 161.5 65.5 224.5s65.334 115 113.001 156s106.667 71.5 177 91.5s155.833 30 256.5 30
c48.667 0 94.167 -2.33301 136.5 -7s80.5 -10.667 114.5 -18c13.333 -2.66699 18.333 -10.334 15 -23.001l-58 -237c-2 -7.33301 -4.83301 -12.333 -8.5 -15s-9.16699 -3.66699 -16.5 -3c-36 3.33301 -72.5 5.83301 -109.5 7.5s-76.5 2.5 -118.5 2.5
c-43.333 0 -78.666 -3.83301 -105.999 -11.5s-49.333 -20.667 -66 -39s-29.667 -42.5 -39 -72.5s-18 -67 -26 -111l-15 -77c-8 -44 -13 -81 -15 -111s2 -54.167 12 -72.5s27.167 -31.333 51.5 -39s58.833 -11.5 103.5 -11.5c42 0 82 1.16699 120 3.5
s75.333 5.16602 112 8.49902c13.333 0.666992 19 -5.33301 17 -18l-30 -236c-0.666992 -13.333 -8 -21.333 -22 -24c-35.333 -7.33301 -76.666 -13.666 -123.999 -18.999s-93.666 -8 -138.999 -8zM85.9961 -388.998c-12.667 0 -15.333 5.33301 -8 16l203 255
c8 10.667 18.667 16 32 16h221c14 0 16.667 -5.33301 8 -16l-181 -255c-8 -10.667 -18.667 -16 -32 -16h-243z" />
    <glyph glyph-name="egrave" unicode="&#xe8;" horiz-adv-x="1160" 
d="M470 -31c-92 0 -168.161 9.83008 -228.494 29.4971s-106.833 50 -139.5 91s-52.167 93.333 -58.5 157s-1.5 139.834 14.5 228.501l21 115c16.667 88.667 40.167 165 70.5 229s69.166 116.833 116.499 158.5s104.666 72.5 171.999 92.5s146.333 30 237 30
c149.333 0 258 -30.167 326 -90.5s102 -153.833 102 -280.5c0 -40.667 -2.83301 -78.667 -8.5 -114s-12.5 -67.166 -20.5 -95.499s-16.333 -52.833 -25 -73.5s-15.667 -36.334 -21 -47.001c-3.33301 -7.33301 -7 -12.166 -11 -14.499s-9.66699 -3.5 -17 -3.5l-627 -2
c-0.666992 -28 2.16602 -50.333 8.49902 -67s16.666 -29.5 30.999 -38.5s32.666 -14.833 54.999 -17.5s49.166 -4 80.499 -4c58.667 0 118.5 1 179.5 3s125.5 5.33301 193.5 10c13.333 0.666992 19 -5.66602 17 -18.999l-29 -226c-2 -13.333 -9.66699 -21 -23 -23
c-66.667 -8 -134.167 -14.667 -202.5 -20s-139.5 -8 -213.5 -8zM794.006 630.997c0 38 -2.50195 69 -7.50195 93s-14 42.833 -27 56.5s-30.333 23.167 -52 28.5s-49.5 8 -83.5 8s-63 -3.33301 -87 -10s-44.167 -18 -60.5 -34s-29.666 -37 -39.999 -63
s-19.166 -58.333 -26.499 -97zM654.004 1270c-13.333 0 -24 5.33203 -32 15.999l-179 244c-8.66699 10.667 -6 16 8 16h304c7.33301 0 13 -1.16699 17 -3.5s7.66699 -7.16602 11 -14.499l113 -240c4.66699 -12 0.666992 -18 -12 -18h-230z" />
    <glyph glyph-name="eacute" unicode="&#xe9;" horiz-adv-x="1160" 
d="M470 -31c-92 0 -168.161 9.83008 -228.494 29.4971s-106.833 50 -139.5 91s-52.167 93.333 -58.5 157s-1.5 139.834 14.5 228.501l21 115c16.667 88.667 40.167 165 70.5 229s69.166 116.833 116.499 158.5s104.666 72.5 171.999 92.5s146.333 30 237 30
c149.333 0 258 -30.167 326 -90.5s102 -153.833 102 -280.5c0 -40.667 -2.83301 -78.667 -8.5 -114s-12.5 -67.166 -20.5 -95.499s-16.333 -52.833 -25 -73.5s-15.667 -36.334 -21 -47.001c-3.33301 -7.33301 -7 -12.166 -11 -14.499s-9.66699 -3.5 -17 -3.5l-627 -2
c-0.666992 -28 2.16602 -50.333 8.49902 -67s16.666 -29.5 30.999 -38.5s32.666 -14.833 54.999 -17.5s49.166 -4 80.499 -4c58.667 0 118.5 1 179.5 3s125.5 5.33301 193.5 10c13.333 0.666992 19 -5.66602 17 -18.999l-29 -226c-2 -13.333 -9.66699 -21 -23 -23
c-66.667 -8 -134.167 -14.667 -202.5 -20s-139.5 -8 -213.5 -8zM794.006 630.997c0 38 -2.50195 69 -7.50195 93s-14 42.833 -27 56.5s-30.333 23.167 -52 28.5s-49.5 8 -83.5 8s-63 -3.33301 -87 -10s-44.167 -18 -60.5 -34s-29.666 -37 -39.999 -63
s-19.166 -58.333 -26.499 -97zM521.004 1270c-13.333 0 -15.6689 5.33301 -7.00195 16l197 244c5.33301 6 10.333 10.167 15 12.5s10.667 3.5 18 3.5h335c13.333 0 15 -4.33301 5 -13l-275 -250c-5.33301 -5.33301 -10.666 -8.83301 -15.999 -10.5
s-11.666 -2.5 -18.999 -2.5h-253z" />
    <glyph glyph-name="ecircumflex" unicode="&#xea;" horiz-adv-x="1160" 
d="M470 -31c-92 0 -168.161 9.83008 -228.494 29.4971s-106.833 50 -139.5 91s-52.167 93.333 -58.5 157s-1.5 139.834 14.5 228.501l21 115c16.667 88.667 40.167 165 70.5 229s69.166 116.833 116.499 158.5s104.666 72.5 171.999 92.5s146.333 30 237 30
c149.333 0 258 -30.167 326 -90.5s102 -153.833 102 -280.5c0 -40.667 -2.83301 -78.667 -8.5 -114s-12.5 -67.166 -20.5 -95.499s-16.333 -52.833 -25 -73.5s-15.667 -36.334 -21 -47.001c-3.33301 -7.33301 -7 -12.166 -11 -14.499s-9.66699 -3.5 -17 -3.5l-627 -2
c-0.666992 -28 2.16602 -50.333 8.49902 -67s16.666 -29.5 30.999 -38.5s32.666 -14.833 54.999 -17.5s49.166 -4 80.499 -4c58.667 0 118.5 1 179.5 3s125.5 5.33301 193.5 10c13.333 0.666992 19 -5.66602 17 -18.999l-29 -226c-2 -13.333 -9.66699 -21 -23 -23
c-66.667 -8 -134.167 -14.667 -202.5 -20s-139.5 -8 -213.5 -8zM794.006 630.997c0 38 -2.50195 69 -7.50195 93s-14 42.833 -27 56.5s-30.333 23.167 -52 28.5s-49.5 8 -83.5 8s-63 -3.33301 -87 -10s-44.167 -18 -60.5 -34s-29.666 -37 -39.999 -63
s-19.166 -58.333 -26.499 -97zM1053 1266c7.33301 -11.333 4 -17 -10 -17h-237c-7.33301 0 -13 1.16699 -17 3.5s-7.66699 7.16602 -11 14.499l-57 125h-21l-106 -128c-5.33301 -5.33301 -10.333 -9.16602 -15 -11.499s-10.667 -3.5 -18 -3.5h-249
c-6 0 -9.66699 1.33301 -11 4s0.333984 6 5.00098 10l255 269c5.33301 5.33301 10.5 9 15.5 11s11.167 3 18.5 3h275c7.33301 0 13.166 -1.16699 17.499 -3.5s8.5 -6.83301 12.5 -13.5z" />
    <glyph glyph-name="edieresis" unicode="&#xeb;" horiz-adv-x="1160" 
d="M470 -31c-92 0 -168.161 9.83008 -228.494 29.4971s-106.833 50 -139.5 91s-52.167 93.333 -58.5 157s-1.5 139.834 14.5 228.501l21 115c16.667 88.667 40.167 165 70.5 229s69.166 116.833 116.499 158.5s104.666 72.5 171.999 92.5s146.333 30 237 30
c149.333 0 258 -30.167 326 -90.5s102 -153.833 102 -280.5c0 -40.667 -2.83301 -78.667 -8.5 -114s-12.5 -67.166 -20.5 -95.499s-16.333 -52.833 -25 -73.5s-15.667 -36.334 -21 -47.001c-3.33301 -7.33301 -7 -12.166 -11 -14.499s-9.66699 -3.5 -17 -3.5l-627 -2
c-0.666992 -28 2.16602 -50.333 8.49902 -67s16.666 -29.5 30.999 -38.5s32.666 -14.833 54.999 -17.5s49.166 -4 80.499 -4c58.667 0 118.5 1 179.5 3s125.5 5.33301 193.5 10c13.333 0.666992 19 -5.66602 17 -18.999l-29 -226c-2 -13.333 -9.66699 -21 -23 -23
c-66.667 -8 -134.167 -14.667 -202.5 -20s-139.5 -8 -213.5 -8zM794.006 630.997c0 38 -2.50195 69 -7.50195 93s-14 42.833 -27 56.5s-30.333 23.167 -52 28.5s-49.5 8 -83.5 8s-63 -3.33301 -87 -10s-44.167 -18 -60.5 -34s-29.666 -37 -39.999 -63
s-19.166 -58.333 -26.499 -97zM300.004 1219c-13.333 0 -18.666 6.66699 -15.999 20l54 287c2.66699 14 10.667 21.333 24 22l287 37c13.333 0.666992 18.666 -5.33301 15.999 -18l-59 -328c-2.66699 -13.333 -10.667 -20 -24 -20h-282zM753.004 1219
c-13.333 0 -18.666 6.66699 -15.999 20l53 287c2.66699 14 10.667 21.333 24 22l288 37c13.333 0.666992 18.666 -5.33301 15.999 -18l-60 -328c-2.66699 -13.333 -10.667 -20 -24 -20h-281z" />
    <glyph glyph-name="igrave" unicode="&#xec;" horiz-adv-x="590" 
d="M34 0c-13.333 0 -18.666 6.66699 -15.999 20l191 1031c2.66699 13.333 10.667 20 24 20h292c13.333 0 18.666 -6.66699 15.999 -20l-191 -1031c-2.66699 -13.333 -10.667 -20 -24 -20h-292zM333 1270c-13.333 0 -24 5.33203 -32 15.999l-179 244
c-8.66699 10.667 -6 16 8 16h304c7.33301 0 13 -1.16699 17 -3.5s7.66699 -7.16602 11 -14.499l113 -240c4.66699 -12 0.666992 -18 -12 -18h-230z" />
    <glyph glyph-name="iacute" unicode="&#xed;" horiz-adv-x="590" 
d="M34 0c-13.333 0 -18.666 6.66699 -15.999 20l191 1031c2.66699 13.333 10.667 20 24 20h292c13.333 0 18.666 -6.66699 15.999 -20l-191 -1031c-2.66699 -13.333 -10.667 -20 -24 -20h-292zM180 1270c-13.333 0 -15.6689 5.33301 -7.00195 16l197 244
c5.33301 6 10.333 10.167 15 12.5s10.667 3.5 18 3.5h335c13.333 0 15 -4.33301 5 -13l-275 -250c-5.33301 -5.33301 -10.666 -8.83301 -15.999 -10.5s-11.666 -2.5 -18.999 -2.5h-253z" />
    <glyph glyph-name="icircumflex" unicode="&#xee;" horiz-adv-x="590" 
d="M34 0c-13.333 0 -18.666 6.66699 -15.999 20l191 1031c2.66699 13.333 10.667 20 24 20h292c13.333 0 18.666 -6.66699 15.999 -20l-191 -1031c-2.66699 -13.333 -10.667 -20 -24 -20h-292zM784 1266c7.33301 -11.333 4 -17 -10 -17h-237c-7.33301 0 -13 1.16699 -17 3.5
s-7.66699 7.16602 -11 14.499l-57 125h-21l-106 -128c-5.33301 -5.33301 -10.333 -9.16602 -15 -11.499s-10.667 -3.5 -18 -3.5h-249c-6 0 -9.66699 1.33301 -11 4s0.333984 6 5.00098 10l255 269c5.33301 5.33301 10.5 9 15.5 11s11.167 3 18.5 3h275
c7.33301 0 13.166 -1.16699 17.499 -3.5s8.5 -6.83301 12.5 -13.5z" />
    <glyph glyph-name="idieresis" unicode="&#xef;" horiz-adv-x="590" 
d="M34 0c-13.333 0 -18.666 6.66699 -15.999 20l191 1031c2.66699 13.333 10.667 20 24 20h292c13.333 0 18.666 -6.66699 15.999 -20l-191 -1031c-2.66699 -13.333 -10.667 -20 -24 -20h-292zM41 1219c-13.333 0 -18.666 6.66699 -15.999 20l54 287
c2.66699 14 10.667 21.333 24 22l287 37c13.333 0.666992 18.666 -5.33301 15.999 -18l-59 -328c-2.66699 -13.333 -10.667 -20 -24 -20h-282zM494 1219c-13.333 0 -18.666 6.66699 -15.999 20l53 287c2.66699 14 10.667 21.333 24 22l288 37
c13.333 0.666992 18.666 -5.33301 15.999 -18l-60 -328c-2.66699 -13.333 -10.667 -20 -24 -20h-281z" />
    <glyph glyph-name="eth" unicode="&#xf0;" horiz-adv-x="1195" 
d="M891 1408c60 -45.333 107.167 -97.167 141.5 -155.5s58.166 -122.5 71.499 -192.5s17.833 -145.667 13.5 -227s-15.166 -167.333 -32.499 -258l-16 -88c-17.333 -96.667 -40.5 -178 -69.5 -244s-65.667 -119.333 -110 -160s-98 -69.834 -161 -87.501
s-137.167 -26.5 -222.5 -26.5c-99.333 0 -181.333 10.667 -246 32s-114.334 53.5 -149.001 96.5s-55.667 96.833 -63 161.5s-3 140.667 13 228l16 88c14 91.333 34.5 169.833 61.5 235.5s62.5 119.667 106.5 162s97.333 73.5 160 93.5s136 30 220 30
c33.333 0 64.166 -2.33301 92.499 -7s54.833 -11 79.5 -19c-39.333 72 -95 131.667 -167 179l-204 -125c-12 -6.66699 -20.667 -4 -26 8l-38 70c-6.66699 12 -4 21.333 8 28l133 82c-45.333 17.333 -93.666 31.333 -144.999 42
c-13.333 2.66699 -17.666 10.334 -12.999 23.001l75 191c4.66699 12.667 13.667 17.667 27 15c66.667 -12.667 127 -27.667 181 -45s103.333 -37 148 -59l223 137c11.333 6.66699 20 4 26 -8l38 -72c6.66699 -12 4 -21.333 -8 -28zM638 814.999
c-36 0 -66.8291 -4.16602 -92.4961 -12.499s-47.334 -22.166 -65.001 -41.499s-32.334 -45 -44.001 -77s-21.834 -71.667 -30.501 -119l-13 -67c-9.33301 -48 -14.333 -88 -15 -120s3.83301 -57.5 13.5 -76.5s24.834 -32.333 45.501 -40s47.667 -11.5 81 -11.5
c38.667 0 71.667 4.16699 99 12.5s50.666 22.166 69.999 41.499s35.5 45 48.5 77s24.167 71.667 33.5 119l12 65c8.66699 47.333 13.167 87 13.5 119s-4.83398 57.667 -15.501 77s-27.5 33.166 -50.5 41.499s-53.167 12.5 -90.5 12.5z" />
    <glyph glyph-name="ntilde" unicode="&#xf1;" 
d="M26 0c-13.333 0 -18.667 6.66895 -16 20.002l195 1050c2.66699 13.333 10.667 20 24 20h230c13.333 0 22.333 -6.33301 27 -19l20 -56c52 27.333 107 48.333 165 63s115.667 22 173 22c60 0 111.5 -8.33301 154.5 -25s76.667 -43.834 101 -81.501s39.166 -87 44.499 -148
s0 -135.833 -16 -224.5l-111 -601c-2.66699 -13.333 -10.667 -20 -24 -20h-292c-13.333 0 -18.666 6.66699 -15.999 20l101 543c6 36.667 9.5 68.667 10.5 96s-3 50 -12 68s-24 31.333 -45 40s-49.833 13 -86.5 13c-30 0 -60.667 -2.33301 -92 -7s-59 -11.334 -83 -20.001
l-136 -733c-2.66699 -13.333 -10.667 -20 -24 -20h-292zM626.999 1344c-6 0 -11.333 -0.666016 -16 -1.99902s-8.83398 -4.66602 -12.501 -9.99902s-7.16699 -13.166 -10.5 -23.499s-6.66602 -24.5 -9.99902 -42.5c-2.66699 -13.333 -10.667 -20 -24 -20h-186
c-14 0 -20 6.66699 -18 20c5.33301 64.667 16.166 117.167 32.499 157.5s36.5 72 60.5 95s51.167 38.667 81.5 47s62.166 12.5 95.499 12.5c13.333 0 25.5 -0.666992 36.5 -2s22.5 -3.66602 34.5 -6.99902s24.833 -8.33301 38.5 -15s29.834 -15.334 48.501 -26.001
c16.667 -10 30.834 -18.167 42.501 -24.5l29.5 -15.5c8 -4 14.5 -6.83301 19.5 -8.5s9.16699 -2.5 12.5 -2.5c6 0 11.333 0.666992 16 2s8.83398 4.66602 12.501 9.99902s7.16699 13.166 10.5 23.499s6.66602 24.5 9.99902 42.5c2.66699 13.333 10.667 20 24 20h186
c14 0 20 -6.66699 18 -20c-5.33301 -64.667 -16.166 -117.167 -32.499 -157.5s-36.5 -72 -60.5 -95s-51.167 -38.667 -81.5 -47s-62.166 -12.5 -95.499 -12.5c-13.333 0 -25.5 0.666992 -36.5 2s-22.5 3.66602 -34.5 6.99902s-24.833 8.33301 -38.5 15
s-29.834 15.334 -48.501 26.001c-33.333 19.333 -57.333 32.666 -72 39.999s-25.334 11 -32.001 11z" />
    <glyph glyph-name="ograve" unicode="&#xf2;" horiz-adv-x="1174" 
d="M624 817c-37.333 0 -68.1689 -3.66797 -92.502 -11.001s-44.666 -20.166 -60.999 -38.499s-29.666 -42.833 -39.999 -73.5s-19.833 -69.334 -28.5 -116.001l-16 -86c-8 -46 -12.333 -84.5 -13 -115.5s3.83301 -55.667 13.5 -74s25 -31.333 46 -39
s49.167 -11.5 84.5 -11.5c36.667 0 67.334 3.83301 92.001 11.5s45.167 20.834 61.5 39.501s29.833 43.5 40.5 74.5s20.334 69.833 29.001 116.5l17 84c8.66699 46.667 13.5 85.334 14.5 116.001s-3.33301 55.167 -13 73.5s-25.334 31.166 -47.001 38.499
s-50.834 11 -87.501 11zM465.997 -31.001c-90.667 0 -165.999 9.83301 -225.999 29.5s-106.167 50.334 -138.5 92.001s-51.666 94.834 -57.999 159.501s-1.5 141.667 14.5 231l21 105c16 89.333 39.167 166.333 69.5 231s69.333 118 117 160s105.167 73 172.5 93
s146.333 30 237 30s166.167 -10 226.5 -30s106.666 -51 138.999 -93s51.833 -95.333 58.5 -160s1.66699 -141.667 -15 -231l-20 -105c-16.667 -89.333 -40 -166.333 -70 -231s-69 -117.834 -117 -159.501s-105.833 -72.334 -173.5 -92.001s-146.834 -29.5 -237.501 -29.5z
M632.998 1270c-13.333 0 -24 5.33203 -32 15.999l-179 244c-8.66699 10.667 -6 16 8 16h304c7.33301 0 13 -1.16699 17 -3.5s7.66699 -7.16602 11 -14.499l113 -240c4.66699 -12 0.666992 -18 -12 -18h-230z" />
    <glyph glyph-name="oacute" unicode="&#xf3;" horiz-adv-x="1174" 
d="M624 817c-37.333 0 -68.1689 -3.66797 -92.502 -11.001s-44.666 -20.166 -60.999 -38.499s-29.666 -42.833 -39.999 -73.5s-19.833 -69.334 -28.5 -116.001l-16 -86c-8 -46 -12.333 -84.5 -13 -115.5s3.83301 -55.667 13.5 -74s25 -31.333 46 -39
s49.167 -11.5 84.5 -11.5c36.667 0 67.334 3.83301 92.001 11.5s45.167 20.834 61.5 39.501s29.833 43.5 40.5 74.5s20.334 69.833 29.001 116.5l17 84c8.66699 46.667 13.5 85.334 14.5 116.001s-3.33301 55.167 -13 73.5s-25.334 31.166 -47.001 38.499
s-50.834 11 -87.501 11zM465.997 -31.001c-90.667 0 -165.999 9.83301 -225.999 29.5s-106.167 50.334 -138.5 92.001s-51.666 94.834 -57.999 159.501s-1.5 141.667 14.5 231l21 105c16 89.333 39.167 166.333 69.5 231s69.333 118 117 160s105.167 73 172.5 93
s146.333 30 237 30s166.167 -10 226.5 -30s106.666 -51 138.999 -93s51.833 -95.333 58.5 -160s1.66699 -141.667 -15 -231l-20 -105c-16.667 -89.333 -40 -166.333 -70 -231s-69 -117.834 -117 -159.501s-105.833 -72.334 -173.5 -92.001s-146.834 -29.5 -237.501 -29.5z
M509.998 1270c-13.333 0 -15.6689 5.33301 -7.00195 16l197 244c5.33301 6 10.333 10.167 15 12.5s10.667 3.5 18 3.5h335c13.333 0 15 -4.33301 5 -13l-275 -250c-5.33301 -5.33301 -10.666 -8.83301 -15.999 -10.5s-11.666 -2.5 -18.999 -2.5h-253z" />
    <glyph glyph-name="ocircumflex" unicode="&#xf4;" horiz-adv-x="1174" 
d="M624 817c-37.333 0 -68.1689 -3.66797 -92.502 -11.001s-44.666 -20.166 -60.999 -38.499s-29.666 -42.833 -39.999 -73.5s-19.833 -69.334 -28.5 -116.001l-16 -86c-8 -46 -12.333 -84.5 -13 -115.5s3.83301 -55.667 13.5 -74s25 -31.333 46 -39
s49.167 -11.5 84.5 -11.5c36.667 0 67.334 3.83301 92.001 11.5s45.167 20.834 61.5 39.501s29.833 43.5 40.5 74.5s20.334 69.833 29.001 116.5l17 84c8.66699 46.667 13.5 85.334 14.5 116.001s-3.33301 55.167 -13 73.5s-25.334 31.166 -47.001 38.499
s-50.834 11 -87.501 11zM465.997 -31.001c-90.667 0 -165.999 9.83301 -225.999 29.5s-106.167 50.334 -138.5 92.001s-51.666 94.834 -57.999 159.501s-1.5 141.667 14.5 231l21 105c16 89.333 39.167 166.333 69.5 231s69.333 118 117 160s105.167 73 172.5 93
s146.333 30 237 30s166.167 -10 226.5 -30s106.666 -51 138.999 -93s51.833 -95.333 58.5 -160s1.66699 -141.667 -15 -231l-20 -105c-16.667 -89.333 -40 -166.333 -70 -231s-69 -117.834 -117 -159.501s-105.833 -72.334 -173.5 -92.001s-146.834 -29.5 -237.501 -29.5z
M1063 1266c7.33301 -11.333 4 -17 -10 -17h-237c-7.33301 0 -13 1.16699 -17 3.5s-7.66699 7.16602 -11 14.499l-57 125h-21l-106 -128c-5.33301 -5.33301 -10.333 -9.16602 -15 -11.499s-10.667 -3.5 -18 -3.5h-249c-6 0 -9.66699 1.33301 -11 4s0.333984 6 5.00098 10
l255 269c5.33301 5.33301 10.5 9 15.5 11s11.167 3 18.5 3h275c7.33301 0 13.166 -1.16699 17.499 -3.5s8.5 -6.83301 12.5 -13.5z" />
    <glyph glyph-name="otilde" unicode="&#xf5;" horiz-adv-x="1174" 
d="M624 817c-37.333 0 -68.1689 -3.66797 -92.502 -11.001s-44.666 -20.166 -60.999 -38.499s-29.666 -42.833 -39.999 -73.5s-19.833 -69.334 -28.5 -116.001l-16 -86c-8 -46 -12.333 -84.5 -13 -115.5s3.83301 -55.667 13.5 -74s25 -31.333 46 -39
s49.167 -11.5 84.5 -11.5c36.667 0 67.334 3.83301 92.001 11.5s45.167 20.834 61.5 39.501s29.833 43.5 40.5 74.5s20.334 69.833 29.001 116.5l17 84c8.66699 46.667 13.5 85.334 14.5 116.001s-3.33301 55.167 -13 73.5s-25.334 31.166 -47.001 38.499
s-50.834 11 -87.501 11zM465.997 -31.001c-90.667 0 -165.999 9.83301 -225.999 29.5s-106.167 50.334 -138.5 92.001s-51.666 94.834 -57.999 159.501s-1.5 141.667 14.5 231l21 105c16 89.333 39.167 166.333 69.5 231s69.333 118 117 160s105.167 73 172.5 93
s146.333 30 237 30s166.167 -10 226.5 -30s106.666 -51 138.999 -93s51.833 -95.333 58.5 -160s1.66699 -141.667 -15 -231l-20 -105c-16.667 -89.333 -40 -166.333 -70 -231s-69 -117.834 -117 -159.501s-105.833 -72.334 -173.5 -92.001s-146.834 -29.5 -237.501 -29.5z
M590.998 1344c-6 0 -11.333 -0.666016 -16 -1.99902s-8.83398 -4.66602 -12.501 -9.99902s-7.16699 -13.166 -10.5 -23.499s-6.66602 -24.5 -9.99902 -42.5c-2.66699 -13.333 -10.667 -20 -24 -20h-186c-14 0 -20 6.66699 -18 20
c5.33301 64.667 16.166 117.167 32.499 157.5s36.5 72 60.5 95s51.167 38.667 81.5 47s62.166 12.5 95.499 12.5c13.333 0 25.5 -0.666992 36.5 -2s22.5 -3.66602 34.5 -6.99902s24.833 -8.33301 38.5 -15s29.834 -15.334 48.501 -26.001
c16.667 -10 30.834 -18.167 42.501 -24.5l29.5 -15.5c8 -4 14.5 -6.83301 19.5 -8.5s9.16699 -2.5 12.5 -2.5c6 0 11.333 0.666992 16 2s8.83398 4.66602 12.501 9.99902s7.16699 13.166 10.5 23.499s6.66602 24.5 9.99902 42.5c2.66699 13.333 10.667 20 24 20h186
c14 0 20 -6.66699 18 -20c-5.33301 -64.667 -16.166 -117.167 -32.499 -157.5s-36.5 -72 -60.5 -95s-51.167 -38.667 -81.5 -47s-62.166 -12.5 -95.499 -12.5c-13.333 0 -25.5 0.666992 -36.5 2s-22.5 3.66602 -34.5 6.99902s-24.833 8.33301 -38.5 15
s-29.834 15.334 -48.501 26.001c-33.333 19.333 -57.333 32.666 -72 39.999s-25.334 11 -32.001 11z" />
    <glyph glyph-name="odieresis" unicode="&#xf6;" horiz-adv-x="1174" 
d="M624 817c-37.333 0 -68.1689 -3.66797 -92.502 -11.001s-44.666 -20.166 -60.999 -38.499s-29.666 -42.833 -39.999 -73.5s-19.833 -69.334 -28.5 -116.001l-16 -86c-8 -46 -12.333 -84.5 -13 -115.5s3.83301 -55.667 13.5 -74s25 -31.333 46 -39
s49.167 -11.5 84.5 -11.5c36.667 0 67.334 3.83301 92.001 11.5s45.167 20.834 61.5 39.501s29.833 43.5 40.5 74.5s20.334 69.833 29.001 116.5l17 84c8.66699 46.667 13.5 85.334 14.5 116.001s-3.33301 55.167 -13 73.5s-25.334 31.166 -47.001 38.499
s-50.834 11 -87.501 11zM465.997 -31.001c-90.667 0 -165.999 9.83301 -225.999 29.5s-106.167 50.334 -138.5 92.001s-51.666 94.834 -57.999 159.501s-1.5 141.667 14.5 231l21 105c16 89.333 39.167 166.333 69.5 231s69.333 118 117 160s105.167 73 172.5 93
s146.333 30 237 30s166.167 -10 226.5 -30s106.666 -51 138.999 -93s51.833 -95.333 58.5 -160s1.66699 -141.667 -15 -231l-20 -105c-16.667 -89.333 -40 -166.333 -70 -231s-69 -117.834 -117 -159.501s-105.833 -72.334 -173.5 -92.001s-146.834 -29.5 -237.501 -29.5z
M319.998 1219c-13.333 0 -18.666 6.66699 -15.999 20l54 287c2.66699 14 10.667 21.333 24 22l287 37c13.333 0.666992 18.666 -5.33301 15.999 -18l-59 -328c-2.66699 -13.333 -10.667 -20 -24 -20h-282zM772.998 1219c-13.333 0 -18.666 6.66699 -15.999 20l53 287
c2.66699 14 10.667 21.333 24 22l288 37c13.333 0.666992 18.666 -5.33301 15.999 -18l-60 -328c-2.66699 -13.333 -10.667 -20 -24 -20h-281z" />
    <glyph glyph-name="divide" unicode="&#xf7;" horiz-adv-x="1117" 
d="M78 602c-13.333 0 -18.666 6.66699 -15.999 20l51 280c2.66699 13.333 10.667 20 24 20h951c13.333 0 18.666 -6.66699 15.999 -20l-51 -280c-2.66699 -13.333 -10.667 -20 -24 -20h-951zM321 123c-13.333 0 -18.666 6.66699 -15.999 20l55 300
c2.66699 14 10.667 21.333 24 22l298 35c13.333 0.666992 18.666 -5.33301 15.999 -18l-62 -339c-2.66699 -13.333 -10.667 -20 -24 -20h-291zM492 1044c-13.333 0 -18.666 6.66699 -15.999 20l55 300c2.66699 14 10.667 21.333 24 22l298 35
c13.333 0.666992 18.666 -5.33301 15.999 -18l-62 -339c-2.66699 -13.333 -10.667 -20 -24 -20h-291z" />
    <glyph glyph-name="oslash" unicode="&#xf8;" horiz-adv-x="1192" 
d="M81 143c-41.333 82.667 -47.9971 196.001 -19.9971 340.001l18 103c16.667 89.333 40.334 166.333 71.001 231s70.334 118 119.001 160s107.167 73 175.5 93s148.5 30 240.5 30c140.667 0 246.667 -27 318 -81l39 37c9.33301 9.33301 20.666 14 33.999 14h136
c13.333 0 15.333 -4.66699 6 -14l-137 -130c21.333 -42 33.666 -91.333 36.999 -148s-1.66699 -120.667 -15 -192l-20 -104c-16.667 -90 -40.334 -167.333 -71.001 -232s-70.334 -117.834 -119.001 -159.501s-107.334 -72.334 -176.001 -92.001
s-149.334 -29.5 -242.001 -29.5c-71.333 0 -133 6.83301 -185 20.5s-96 33.834 -132 60.501l-38 -36c-9.33301 -9.33301 -20.666 -14 -33.999 -14h-136c-6 -0 -9.5 1.33301 -10.5 4s0.833008 6 5.5 10zM769.003 551.001l15 94l-386 -368
c11.333 -9.33301 27.833 -15.833 49.5 -19.5s49.5 -5.5 83.5 -5.5c38 0 69.667 3.83301 95 11.5s46.5 20.667 63.5 39s30.667 43 41 74s19.833 69.833 28.5 116.5zM632.003 817.001c-38 0 -69.667 -3.83301 -95 -11.5s-46.5 -20.667 -63.5 -39s-30.667 -43 -41 -74
s-19.833 -69.833 -28.5 -116.5l-10 -58l-15 -92l385 366c-12 9.33301 -28.5 15.833 -49.5 19.5s-48.5 5.5 -82.5 5.5z" />
    <glyph glyph-name="ugrave" unicode="&#xf9;" 
d="M517 -31c-103.333 0 -186.67 8.66504 -250.003 25.998s-110.5 45.5 -141.5 84.5s-48 90.333 -51 154s3.83301 141.5 20.5 233.5l109 584c2.66699 13.333 10.667 20 24 20h291c13.333 0 18.666 -6.66699 15.999 -20l-104 -562
c-7.33301 -42 -11.166 -77.167 -11.499 -105.5s4.5 -51.166 14.5 -68.499s26 -29.833 48 -37.5s52 -11.5 90 -11.5c22 0 46.333 0.833008 73 2.5s50.334 5.16699 71.001 10.5l143 772c2.66699 13.333 10.667 20 24 20h292c13.333 0 18.666 -6.66699 15.999 -20l-184 -997
c-1.33301 -7.33301 -3.66602 -12.666 -6.99902 -15.999s-8.66602 -6 -15.999 -8c-29.333 -8 -63.166 -15.667 -101.499 -23s-78.5 -13.833 -120.5 -19.5s-84.167 -10.167 -126.5 -13.5s-81.833 -5 -118.5 -5zM684.996 1270c-13.333 0 -24 5.33203 -32 15.999l-179 244
c-8.66699 10.667 -6 16 8 16h304c7.33301 0 13 -1.16699 17 -3.5s7.66699 -7.16602 11 -14.499l113 -240c4.66699 -12 0.666992 -18 -12 -18h-230z" />
    <glyph glyph-name="uacute" unicode="&#xfa;" 
d="M517 -31c-103.333 0 -186.67 8.66504 -250.003 25.998s-110.5 45.5 -141.5 84.5s-48 90.333 -51 154s3.83301 141.5 20.5 233.5l109 584c2.66699 13.333 10.667 20 24 20h291c13.333 0 18.666 -6.66699 15.999 -20l-104 -562
c-7.33301 -42 -11.166 -77.167 -11.499 -105.5s4.5 -51.166 14.5 -68.499s26 -29.833 48 -37.5s52 -11.5 90 -11.5c22 0 46.333 0.833008 73 2.5s50.334 5.16699 71.001 10.5l143 772c2.66699 13.333 10.667 20 24 20h292c13.333 0 18.666 -6.66699 15.999 -20l-184 -997
c-1.33301 -7.33301 -3.66602 -12.666 -6.99902 -15.999s-8.66602 -6 -15.999 -8c-29.333 -8 -63.166 -15.667 -101.499 -23s-78.5 -13.833 -120.5 -19.5s-84.167 -10.167 -126.5 -13.5s-81.833 -5 -118.5 -5zM571.996 1270c-13.333 0 -15.6689 5.33301 -7.00195 16l197 244
c5.33301 6 10.333 10.167 15 12.5s10.667 3.5 18 3.5h335c13.333 0 15 -4.33301 5 -13l-275 -250c-5.33301 -5.33301 -10.666 -8.83301 -15.999 -10.5s-11.666 -2.5 -18.999 -2.5h-253z" />
    <glyph glyph-name="ucircumflex" unicode="&#xfb;" 
d="M517 -31c-103.333 0 -186.67 8.66504 -250.003 25.998s-110.5 45.5 -141.5 84.5s-48 90.333 -51 154s3.83301 141.5 20.5 233.5l109 584c2.66699 13.333 10.667 20 24 20h291c13.333 0 18.666 -6.66699 15.999 -20l-104 -562
c-7.33301 -42 -11.166 -77.167 -11.499 -105.5s4.5 -51.166 14.5 -68.499s26 -29.833 48 -37.5s52 -11.5 90 -11.5c22 0 46.333 0.833008 73 2.5s50.334 5.16699 71.001 10.5l143 772c2.66699 13.333 10.667 20 24 20h292c13.333 0 18.666 -6.66699 15.999 -20l-184 -997
c-1.33301 -7.33301 -3.66602 -12.666 -6.99902 -15.999s-8.66602 -6 -15.999 -8c-29.333 -8 -63.166 -15.667 -101.499 -23s-78.5 -13.833 -120.5 -19.5s-84.167 -10.167 -126.5 -13.5s-81.833 -5 -118.5 -5zM1096 1266c7.33301 -11.333 4 -17 -10 -17h-237
c-7.33301 0 -13 1.16699 -17 3.5s-7.66699 7.16602 -11 14.499l-57 125h-21l-106 -128c-5.33301 -5.33301 -10.333 -9.16602 -15 -11.499s-10.667 -3.5 -18 -3.5h-249c-6 0 -9.66699 1.33301 -11 4s0.333984 6 5.00098 10l255 269c5.33301 5.33301 10.5 9 15.5 11
s11.167 3 18.5 3h275c7.33301 0 13.166 -1.16699 17.499 -3.5s8.5 -6.83301 12.5 -13.5z" />
    <glyph glyph-name="udieresis" unicode="&#xfc;" 
d="M517 -31c-103.333 0 -186.67 8.66504 -250.003 25.998s-110.5 45.5 -141.5 84.5s-48 90.333 -51 154s3.83301 141.5 20.5 233.5l109 584c2.66699 13.333 10.667 20 24 20h291c13.333 0 18.666 -6.66699 15.999 -20l-104 -562
c-7.33301 -42 -11.166 -77.167 -11.499 -105.5s4.5 -51.166 14.5 -68.499s26 -29.833 48 -37.5s52 -11.5 90 -11.5c22 0 46.333 0.833008 73 2.5s50.334 5.16699 71.001 10.5l143 772c2.66699 13.333 10.667 20 24 20h292c13.333 0 18.666 -6.66699 15.999 -20l-184 -997
c-1.33301 -7.33301 -3.66602 -12.666 -6.99902 -15.999s-8.66602 -6 -15.999 -8c-29.333 -8 -63.166 -15.667 -101.499 -23s-78.5 -13.833 -120.5 -19.5s-84.167 -10.167 -126.5 -13.5s-81.833 -5 -118.5 -5zM350.996 1219c-13.333 0 -18.666 6.66699 -15.999 20l54 287
c2.66699 14 10.667 21.333 24 22l287 37c13.333 0.666992 18.666 -5.33301 15.999 -18l-59 -328c-2.66699 -13.333 -10.667 -20 -24 -20h-282zM803.996 1219c-13.333 0 -18.666 6.66699 -15.999 20l53 287c2.66699 14 10.667 21.333 24 22l288 37
c13.333 0.666992 18.666 -5.33301 15.999 -18l-60 -328c-2.66699 -13.333 -10.667 -20 -24 -20h-281z" />
    <glyph glyph-name="yacute" unicode="&#xfd;" horiz-adv-x="1112" 
d="M-33 -481c-10.667 0 -22.3301 0.334961 -34.9971 1.00195s-25.5 1.66699 -38.5 3s-25.667 2.83301 -38 4.5s-23.5 3.5 -33.5 5.5c-12.667 2 -17 9.66699 -13 23l76 239c2 7.33301 5 12.166 9 14.499s9.66699 3.16602 17 2.49902c14 -2 29.167 -3.66699 45.5 -5
s32.166 -2 47.499 -2c50 0 92.167 3.16699 126.5 9.5s64 17 89 32s47.167 35 66.5 60s39.333 56.5 60 94.5c-2.66699 0.666992 -8.66699 4 -18 10s-20.333 17.833 -33 35.5s-25.667 43.167 -39 76.5s-25 78 -35 134l-151 794c-2.66699 13.333 2.66602 20 15.999 20h332
c14 0 21.333 -6.66699 22 -20l58 -486c5.33301 -40 9.83301 -77.333 13.5 -112l8.5 -81l272 680c2.66699 7.33301 6 12.333 10 15s9.66699 4 17 4h341c13.333 0 17 -6 11 -18l-550 -1135c-35.333 -74 -71.5 -136.333 -108.5 -187s-80.167 -91.667 -129.5 -123
s-107.333 -54 -174 -68s-147.334 -21 -242.001 -21zM481.004 1270c-13.333 0 -15.6689 5.33301 -7.00195 16l197 244c5.33301 6 10.333 10.167 15 12.5s10.667 3.5 18 3.5h335c13.333 0 15 -4.33301 5 -13l-275 -250c-5.33301 -5.33301 -10.666 -8.83301 -15.999 -10.5
s-11.666 -2.5 -18.999 -2.5h-253z" />
    <glyph glyph-name="thorn" unicode="&#xfe;" horiz-adv-x="1224" 
d="M-57 -453c-13.333 0 -18.665 6.66797 -15.998 20.001l279 1502l95 513c2.66699 14 10.667 21.333 24 22l300 36c13.333 0.666992 18.666 -5.33301 15.999 -18l-98 -526c28 1.33301 55.667 2.33301 83 3s54.666 1 81.999 1c98.667 0 179.5 -8.33301 242.5 -25
s111 -43.834 144 -81.501s52.167 -87.167 57.5 -148.5s0 -137 -16 -227l-29 -151c-17.333 -92.667 -40.333 -170.834 -69 -234.501s-66.167 -115 -112.5 -154s-103.333 -67 -171 -84s-149.5 -25.5 -245.5 -25.5c-32 0 -62.5 1.83301 -91.5 5.5s-55.833 8.83398 -80.5 15.501
l-78 -423c-2.66699 -13.333 -10.667 -20 -24 -20h-292zM652.001 815.001c-10.667 0 -23.667 -0.166016 -39 -0.499023s-30.666 -0.833008 -45.999 -1.5s-30.166 -1.66699 -44.499 -3s-25.833 -3 -34.5 -5l-102 -545c21.333 -2 45.666 -3.5 72.999 -4.5
s59.666 -1.5 96.999 -1.5c40 0 73.333 4.16699 100 12.5s48.667 22.166 66 41.499s31.5 45 42.5 77s20.833 71.667 29.5 119l14 71c8 46 12.333 84.5 13 115.5s-4.5 55.667 -15.5 74s-28.833 31.333 -53.5 39s-58 11.5 -100 11.5z" />
    <glyph glyph-name="ydieresis" unicode="&#xff;" horiz-adv-x="1112" 
d="M-33 -481c-10.667 0 -22.3301 0.334961 -34.9971 1.00195s-25.5 1.66699 -38.5 3s-25.667 2.83301 -38 4.5s-23.5 3.5 -33.5 5.5c-12.667 2 -17 9.66699 -13 23l76 239c2 7.33301 5 12.166 9 14.499s9.66699 3.16602 17 2.49902c14 -2 29.167 -3.66699 45.5 -5
s32.166 -2 47.499 -2c50 0 92.167 3.16699 126.5 9.5s64 17 89 32s47.167 35 66.5 60s39.333 56.5 60 94.5c-2.66699 0.666992 -8.66699 4 -18 10s-20.333 17.833 -33 35.5s-25.667 43.167 -39 76.5s-25 78 -35 134l-151 794c-2.66699 13.333 2.66602 20 15.999 20h332
c14 0 21.333 -6.66699 22 -20l58 -486c5.33301 -40 9.83301 -77.333 13.5 -112l8.5 -81l272 680c2.66699 7.33301 6 12.333 10 15s9.66699 4 17 4h341c13.333 0 17 -6 11 -18l-550 -1135c-35.333 -74 -71.5 -136.333 -108.5 -187s-80.167 -91.667 -129.5 -123
s-107.333 -54 -174 -68s-147.334 -21 -242.001 -21zM274.004 1219c-13.333 0 -18.666 6.66699 -15.999 20l54 287c2.66699 14 10.667 21.333 24 22l287 37c13.333 0.666992 18.666 -5.33301 15.999 -18l-59 -328c-2.66699 -13.333 -10.667 -20 -24 -20h-282zM727.004 1219
c-13.333 0 -18.666 6.66699 -15.999 20l53 287c2.66699 14 10.667 21.333 24 22l288 37c13.333 0.666992 18.666 -5.33301 15.999 -18l-60 -328c-2.66699 -13.333 -10.667 -20 -24 -20h-281z" />
    <glyph glyph-name="Amacron" unicode="&#x100;" horiz-adv-x="1353" 
d="M-92 0c-13.333 0 -16.998 6 -10.998 18l693 1439c3.33301 7.33301 7.16602 12.166 11.499 14.499s10.166 3.5 17.499 3.5h441c14 0 21.333 -6.66699 22 -20l162 -1435c0.666992 -13.333 -5.33301 -20 -18 -20h-345c-13.333 0 -20.333 6.66699 -21 20l-16 220h-466
l-99 -222c-3.33301 -7.33301 -7 -12.166 -11 -14.499s-9.66699 -3.5 -17 -3.5h-343zM780.002 1135l-264 -588h307zM594.002 1596c-13.333 0 -18.666 6.66699 -15.999 20l35 198c2.66699 13.333 10.667 20 24 20h546c13.333 0 18.666 -6.66699 15.999 -20l-35 -198
c-2.66699 -13.333 -10.667 -20 -24 -20h-546z" />
    <glyph glyph-name="amacron" unicode="&#x101;" horiz-adv-x="1223" 
d="M804 806c-19.333 3.33301 -44.833 5.66797 -76.5 7.00098s-63.5 2 -95.5 2c-40 0 -73 -3.83301 -99 -11.5s-47.5 -20.667 -64.5 -39s-30.667 -42.5 -41 -72.5s-19.5 -67.333 -27.5 -112l-14 -72c-8.66699 -48 -13.5 -88.333 -14.5 -121s3.5 -58.834 13.5 -78.501
s26.833 -33.667 50.5 -42s55.5 -12.5 95.5 -12.5c14 0 28.667 0.166992 44 0.5l45.5 1c15 0.333008 29.5 0.833008 43.5 1.5s26.333 1.66699 37 3zM484 -30.998c-99.333 0 -180.496 9.50098 -243.496 28.501s-110.667 48.5 -143 88.5s-51 91 -56 153s0.5 136 16.5 222
l29 153c18 95.333 40.833 174.166 68.5 236.499s64.167 112 109.5 149s101.166 63 167.499 78s147.166 22.5 242.499 22.5c92 0 179.333 -2.5 262 -7.5s159 -11.5 229 -19.5c13.333 -0.666992 18.666 -8 15.999 -22l-192 -1031c-2.66699 -14 -10.667 -21.333 -24 -22
c-81.333 -9.33301 -162.333 -16.5 -243 -21.5s-160.334 -7.5 -239.001 -7.5zM440.004 1267c-13.333 0 -18.666 6.66699 -15.999 20l35 198c2.66699 13.333 10.667 20 24 20h546c13.333 0 18.666 -6.66699 15.999 -20l-35 -198c-2.66699 -13.333 -10.667 -20 -24 -20h-546z
" />
    <glyph glyph-name="Abreve" unicode="&#x102;" horiz-adv-x="1353" 
d="M-92 0c-13.333 0 -16.998 6 -10.998 18l693 1439c3.33301 7.33301 7.16602 12.166 11.499 14.499s10.166 3.5 17.499 3.5h441c14 0 21.333 -6.66699 22 -20l162 -1435c0.666992 -13.333 -5.33301 -20 -18 -20h-345c-13.333 0 -20.333 6.66699 -21 20l-16 220h-466
l-99 -222c-3.33301 -7.33301 -7 -12.166 -11 -14.499s-9.66699 -3.5 -17 -3.5h-343zM780.002 1135l-264 -588h307zM854.002 1577c-57.333 0 -104.827 5.16406 -142.494 15.4971s-67 26.333 -88 48s-34.333 49.334 -40 83.001s-4.83398 73.834 2.49902 120.501
c2 13.333 9.66699 20 23 20h174c7.33301 0 12.333 -1.5 15 -4.5s3.66699 -8.16699 3 -15.5c-2 -18 -0.833008 -33 3.5 -45s10.333 -21.5 18 -28.5s16.667 -12 27 -15s21.166 -4.5 32.499 -4.5c21.333 0 41.333 6.5 60 19.5s32.667 37.5 42 73.5
c3.33301 13.333 11.666 20 24.999 20h186c13.333 0 18.666 -6.66699 15.999 -20c-10 -51.333 -21.667 -94.166 -35 -128.499s-32.833 -61.833 -58.5 -82.5s-59.334 -35.167 -101.001 -43.5s-95.834 -12.5 -162.501 -12.5z" />
    <glyph glyph-name="abreve" unicode="&#x103;" horiz-adv-x="1223" 
d="M804 806c-19.333 3.33301 -44.833 5.66797 -76.5 7.00098s-63.5 2 -95.5 2c-40 0 -73 -3.83301 -99 -11.5s-47.5 -20.667 -64.5 -39s-30.667 -42.5 -41 -72.5s-19.5 -67.333 -27.5 -112l-14 -72c-8.66699 -48 -13.5 -88.333 -14.5 -121s3.5 -58.834 13.5 -78.501
s26.833 -33.667 50.5 -42s55.5 -12.5 95.5 -12.5c14 0 28.667 0.166992 44 0.5l45.5 1c15 0.333008 29.5 0.833008 43.5 1.5s26.333 1.66699 37 3zM484 -30.998c-99.333 0 -180.496 9.50098 -243.496 28.501s-110.667 48.5 -143 88.5s-51 91 -56 153s0.5 136 16.5 222
l29 153c18 95.333 40.833 174.166 68.5 236.499s64.167 112 109.5 149s101.166 63 167.499 78s147.166 22.5 242.499 22.5c92 0 179.333 -2.5 262 -7.5s159 -11.5 229 -19.5c13.333 -0.666992 18.666 -8 15.999 -22l-192 -1031c-2.66699 -14 -10.667 -21.333 -24 -22
c-81.333 -9.33301 -162.333 -16.5 -243 -21.5s-160.334 -7.5 -239.001 -7.5zM729.004 1239c-62.667 0 -112.668 7.00098 -150.001 21.001s-65.333 33.5 -84 58.5s-29.667 55.167 -33 90.5s-2.33301 74.333 3 117c2 13.333 9.66699 20 23 20h200c13.333 0 19 -6.66699 17 -20
c-6.66699 -44 -5.5 -73.833 3.5 -89.5s24.5 -23.5 46.5 -23.5s40.5 7.83301 55.5 23.5s27.167 45.5 36.5 89.5c2.66699 13.333 10.667 20 24 20h202c13.333 0 19 -6.66699 17 -20c-9.33301 -48.667 -21.333 -91 -36 -127s-35.5 -65.833 -62.5 -89.5
s-61.667 -41.334 -104 -53.001s-95.166 -17.5 -158.499 -17.5z" />
    <glyph glyph-name="Aogonek" unicode="&#x104;" horiz-adv-x="1353" 
d="M-92 0c-13.333 0 -16.9971 5.99707 -10.9971 17.9971l693 1439c3.33301 7.33301 7.16602 12.166 11.499 14.499s10.166 3.5 17.499 3.5h441c7.33301 0 12.5 -1.5 15.5 -4.5s5.16699 -8.16699 6.5 -15.5l162 -1435c1.33301 -7.33301 0.333008 -12.166 -3 -14.499
s-9 -4.16602 -17 -5.49902c-54 -6 -97.333 -16.833 -130 -32.5s-58 -33.334 -76 -53.001s-29.833 -39.667 -35.5 -60s-8.5 -38.166 -8.5 -53.499c0 -18.667 6.16699 -31.167 18.5 -37.5s33.5 -9.5 63.5 -9.5c12 0 25.5 0.333008 40.5 1s30.167 2 45.5 4
c14 2 20 -3.66699 18 -17l-9 -122c-0.666992 -13.333 -7.33398 -21.666 -20.001 -24.999c-15.333 -3.33301 -36.333 -6.66602 -63 -9.99902s-60 -5 -100 -5c-83.333 0 -145.166 11.333 -185.499 34s-60.5 62.667 -60.5 120c0 32 3.66699 61.167 11 87.5
s17.166 50.666 29.499 72.999s27 43 44 62s35.167 37.167 54.5 54.5l-17 229h-466l-99 -222c-3.33301 -7.33301 -7 -12.166 -11 -14.499s-9.66699 -3.5 -17 -3.5h-343zM780.003 1135l-264 -588h307z" />
    <glyph glyph-name="aogonek" unicode="&#x105;" horiz-adv-x="1223" 
d="M484 -31c-99.333 0 -180.494 9.49707 -243.494 28.4971s-110.667 48.5 -143 88.5s-51 91 -56 153s0.5 136 16.5 222l29 153c18 95.333 40.833 174.166 68.5 236.499s64.167 112 109.5 149s101.166 63 167.499 78s147.166 22.5 242.499 22.5c92 0 179.667 -2.66699 263 -8
s159.333 -11.666 228 -18.999c7.33301 -1.33301 12.166 -3.5 14.499 -6.5s2.83301 -8.16699 1.5 -15.5l-192 -1033c-2 -7.33301 -4.5 -12.166 -7.5 -14.499s-8.16699 -5.16602 -15.5 -8.49902c-31.333 -13.333 -60 -28.333 -86 -45s-48.333 -33.834 -67 -51.501
s-33.334 -35.667 -44.001 -54s-16 -35.5 -16 -51.5c0 -15.333 4.83301 -25.666 14.5 -30.999s26.834 -8 51.501 -8c9.33301 0 19.333 0.333008 30 1s21.334 1.66699 32.001 3c12.667 2 18.667 -3.33301 18 -16l-10 -123c-0.666992 -12.667 -7.33398 -20.667 -20.001 -24
c-16.667 -3.33301 -38.834 -6.66602 -66.501 -9.99902s-57.834 -5 -90.501 -5c-70.667 0 -124.334 10.5 -161.001 31.5s-55 57.5 -55 109.5c0 47.333 12 93 36 137s58.667 82 104 114c-52 -2 -103 -3 -153 -3zM804.006 805.997
c-19.333 3.33301 -44.833 5.66797 -76.5 7.00098s-63.5 2 -95.5 2c-40 0 -73 -3.83301 -99 -11.5s-47.5 -20.667 -64.5 -39s-30.667 -42.5 -41 -72.5s-19.5 -67.333 -27.5 -112l-14 -72c-8.66699 -48 -13.5 -88.333 -14.5 -121s3.5 -58.834 13.5 -78.501
s26.833 -33.667 50.5 -42s55.5 -12.5 95.5 -12.5c14 0 28.667 0.166992 44 0.5l45.5 1c15 0.333008 29.5 0.833008 43.5 1.5s26.333 1.66699 37 3z" />
    <glyph glyph-name="Cacute" unicode="&#x106;" horiz-adv-x="1197" 
d="M616 -31c-101.333 0 -189.826 11.3301 -265.493 33.9971s-136.167 60.834 -181.5 114.501s-74.333 124.834 -87 213.501s-6.66699 199 18 331l29 153c24 130.667 58.667 240.167 104 328.5s100.666 159.333 165.999 213s140 91.834 224 114.501s176.667 34 278 34
c36 0 71.167 -1.16699 105.5 -3.5s67.166 -5.83301 98.499 -10.5s60.666 -10.167 87.999 -16.5s51.666 -13.833 72.999 -22.5c6.66699 -3.33301 10.834 -6.66602 12.501 -9.99902s1.5 -8.66602 -0.5 -15.999l-95 -274c-4.66699 -12.667 -13.334 -17.334 -26.001 -14.001
c-50 11.333 -100.167 19 -150.5 23s-101.166 6 -152.499 6c-50.667 0 -96.334 -5.66699 -137.001 -17s-76.5 -30.333 -107.5 -57s-57.167 -61.834 -78.5 -105.501s-38 -97.834 -50 -162.501l-30 -174c-12.667 -65.333 -16.5 -119.833 -11.5 -163.5s17.833 -79 38.5 -106
s49.167 -46.167 85.5 -57.5s79.833 -17 130.5 -17c54 0 108.333 1.66699 163 5s109 8.33301 163 15c13.333 2 19.666 -3.66699 18.999 -17l-12 -278c-0.666992 -13.333 -7.33398 -21.666 -20.001 -24.999c-24 -6 -51 -11.333 -81 -16s-61.667 -8.66699 -95 -12
s-68.333 -5.83301 -105 -7.5s-73.334 -2.5 -110.001 -2.5zM736.007 1597c-6 0 -9.49902 1.33301 -10.499 4s0.5 6 4.5 10l220 218c9.33301 9.33301 20.666 14 33.999 14h343c12.667 0 14 -4 4 -12l-299 -222c-10.667 -8 -22.667 -12 -36 -12h-260z" />
    <glyph glyph-name="cacute" unicode="&#x107;" horiz-adv-x="953" 
d="M483 -31c-100 0 -181.504 10.002 -244.504 30.002s-110.5 50.5 -142.5 91.5s-50.167 93.167 -54.5 156.5s1.5 138.666 17.5 225.999l23 125c16 86.667 37.833 161.5 65.5 224.5s65.334 115 113.001 156s106.667 71.5 177 91.5s155.833 30 256.5 30
c48.667 0 94.167 -2.33301 136.5 -7s80.5 -10.667 114.5 -18c13.333 -2.66699 18.333 -10.334 15 -23.001l-58 -237c-2 -7.33301 -4.83301 -12.333 -8.5 -15s-9.16699 -3.66699 -16.5 -3c-36 3.33301 -72.5 5.83301 -109.5 7.5s-76.5 2.5 -118.5 2.5
c-43.333 0 -78.666 -3.83301 -105.999 -11.5s-49.333 -20.667 -66 -39s-29.667 -42.5 -39 -72.5s-18 -67 -26 -111l-15 -77c-8 -44 -13 -81 -15 -111s2 -54.167 12 -72.5s27.167 -31.333 51.5 -39s58.833 -11.5 103.5 -11.5c42 0 82 1.16699 120 3.5
s75.333 5.16602 112 8.49902c13.333 0.666992 19 -5.33301 17 -18l-30 -236c-0.666992 -13.333 -8 -21.333 -22 -24c-35.333 -7.33301 -76.666 -13.666 -123.999 -18.999s-93.666 -8 -138.999 -8zM464.996 1270c-13.333 0 -15.6689 5.33301 -7.00195 16l197 244
c5.33301 6 10.333 10.167 15 12.5s10.667 3.5 18 3.5h335c13.333 0 15 -4.33301 5 -13l-275 -250c-5.33301 -5.33301 -10.666 -8.83301 -15.999 -10.5s-11.666 -2.5 -18.999 -2.5h-253z" />
    <glyph glyph-name="Ccaron" unicode="&#x10c;" horiz-adv-x="1197" 
d="M616 -31c-101.333 0 -189.826 11.3301 -265.493 33.9971s-136.167 60.834 -181.5 114.501s-74.333 124.834 -87 213.501s-6.66699 199 18 331l29 153c24 130.667 58.667 240.167 104 328.5s100.666 159.333 165.999 213s140 91.834 224 114.501s176.667 34 278 34
c36 0 71.167 -1.16699 105.5 -3.5s67.166 -5.83301 98.499 -10.5s60.666 -10.167 87.999 -16.5s51.666 -13.833 72.999 -22.5c6.66699 -3.33301 10.834 -6.66602 12.501 -9.99902s1.5 -8.66602 -0.5 -15.999l-95 -274c-4.66699 -12.667 -13.334 -17.334 -26.001 -14.001
c-50 11.333 -100.167 19 -150.5 23s-101.166 6 -152.499 6c-50.667 0 -96.334 -5.66699 -137.001 -17s-76.5 -30.333 -107.5 -57s-57.167 -61.834 -78.5 -105.501s-38 -97.834 -50 -162.501l-30 -174c-12.667 -65.333 -16.5 -119.833 -11.5 -163.5s17.833 -79 38.5 -106
s49.167 -46.167 85.5 -57.5s79.833 -17 130.5 -17c54 0 108.333 1.66699 163 5s109 8.33301 163 15c13.333 2 19.666 -3.66699 18.999 -17l-12 -278c-0.666992 -13.333 -7.33398 -21.666 -20.001 -24.999c-24 -6 -51 -11.333 -81 -16s-61.667 -8.66699 -95 -12
s-68.333 -5.83301 -105 -7.5s-73.334 -2.5 -110.001 -2.5zM553.007 1827c-8.66699 10.667 -5.99902 16 8.00098 16h225c13.333 0 23.666 -5.33301 30.999 -16l67 -95h21l110 98c5.33301 5.33301 10.666 8.83301 15.999 10.5s11.666 2.5 18.999 2.5h258
c13.333 0 15 -4.33301 5 -13l-257 -220c-5.33301 -5.33301 -10.666 -8.83301 -15.999 -10.5s-11.666 -2.5 -18.999 -2.5h-276c-13.333 0 -24 5.33301 -32 16z" />
    <glyph glyph-name="ccaron" unicode="&#x10d;" horiz-adv-x="953" 
d="M483 -31c-100 0 -181.504 10.002 -244.504 30.002s-110.5 50.5 -142.5 91.5s-50.167 93.167 -54.5 156.5s1.5 138.666 17.5 225.999l23 125c16 86.667 37.833 161.5 65.5 224.5s65.334 115 113.001 156s106.667 71.5 177 91.5s155.833 30 256.5 30
c48.667 0 94.167 -2.33301 136.5 -7s80.5 -10.667 114.5 -18c13.333 -2.66699 18.333 -10.334 15 -23.001l-58 -237c-2 -7.33301 -4.83301 -12.333 -8.5 -15s-9.16699 -3.66699 -16.5 -3c-36 3.33301 -72.5 5.83301 -109.5 7.5s-76.5 2.5 -118.5 2.5
c-43.333 0 -78.666 -3.83301 -105.999 -11.5s-49.333 -20.667 -66 -39s-29.667 -42.5 -39 -72.5s-18 -67 -26 -111l-15 -77c-8 -44 -13 -81 -15 -111s2 -54.167 12 -72.5s27.167 -31.333 51.5 -39s58.833 -11.5 103.5 -11.5c42 0 82 1.16699 120 3.5
s75.333 5.16602 112 8.49902c13.333 0.666992 19 -5.33301 17 -18l-30 -236c-0.666992 -13.333 -8 -21.333 -22 -24c-35.333 -7.33301 -76.666 -13.666 -123.999 -18.999s-93.666 -8 -138.999 -8zM332.996 1529c-7.33301 11.333 -4 17 10 17h237
c7.33301 0 13 -1.16699 17 -3.5s7.66699 -7.16602 11 -14.499l57 -125h21l106 128c5.33301 5.33301 10.333 9.16602 15 11.499s10.667 3.5 18 3.5h249c6 0 9.66699 -1.33301 11 -4s-0.333984 -6 -5.00098 -10l-255 -269c-5.33301 -5.33301 -10.5 -9 -15.5 -11
s-11.167 -3 -18.5 -3h-275c-7.33301 0 -13.166 1.16699 -17.499 3.5s-8.5 6.83301 -12.5 13.5z" />
    <glyph glyph-name="Dcaron" unicode="&#x10e;" horiz-adv-x="1419" 
d="M405 -16c-21.333 0 -45.833 0.329102 -73.5 0.996094s-57.167 1.5 -88.5 2.5s-63.166 2.33301 -95.499 4s-63.5 3.83398 -93.5 6.50098c-13.333 0.666992 -18.666 8 -15.999 22l264 1435c1.33301 7.33301 3.83301 12.5 7.5 15.5s9.16699 5.16699 16.5 6.5
c25.333 2 53.333 3.83301 84 5.5s61.167 3.16699 91.5 4.5s59.333 2.33301 87 3s51.167 1 70.5 1c79.333 0 154.166 -3.66699 224.499 -11s134.5 -20.666 192.5 -39.999s108.833 -45.666 152.5 -78.999s78.167 -75.666 103.5 -126.999s40.666 -113.166 45.999 -185.499
s-1 -156.833 -19 -253.5l-21 -113c-20 -108 -45.167 -200.333 -75.5 -277s-66 -140.834 -107 -192.501s-87.167 -92.667 -138.5 -123s-108.166 -53.333 -170.499 -69s-130.333 -25.667 -204 -30s-152.834 -6.5 -237.501 -6.5zM691 1180
c-13.333 0 -28.002 -0.500977 -44.002 -1.50098s-31.333 -2.5 -46 -4.5l-162 -873c6 -1.33301 14 -2.33301 24 -3s20.5 -1.16699 31.5 -1.5s21.333 -0.666016 31 -0.999023s17.167 -0.5 22.5 -0.5c62.667 0 117.834 5 165.501 15s89.334 29 125.001 57s65.5 67 89.5 117
s43.333 114.667 58 194l23 119c14 78.667 17.667 142.834 11 192.501s-23.5 88.667 -50.5 117s-63.833 47.666 -110.5 57.999s-102.667 15.5 -168 15.5zM502.998 1827c-8.66699 10.667 -5.99902 16 8.00098 16h225c13.333 0 23.666 -5.33301 30.999 -16l67 -95h21l110 98
c5.33301 5.33301 10.666 8.83301 15.999 10.5s11.666 2.5 18.999 2.5h258c13.333 0 15 -4.33301 5 -13l-257 -220c-5.33301 -5.33301 -10.666 -8.83301 -15.999 -10.5s-11.666 -2.5 -18.999 -2.5h-276c-13.333 0 -24 5.33301 -32 16z" />
    <glyph glyph-name="dcaron" unicode="&#x10f;" horiz-adv-x="1223" 
d="M632 815c-40 0 -73 -3.83203 -99 -11.499s-47.5 -20.667 -64.5 -39s-30.667 -42.5 -41 -72.5s-19.5 -67.333 -27.5 -112l-14 -72c-8.66699 -48 -13.5 -88.333 -14.5 -121s3.5 -58.834 13.5 -78.501s26.833 -33.667 50.5 -42s55.5 -12.5 95.5 -12.5
c14 0 28.667 0.166992 44 0.5l45.5 1c15 0.333008 29.5 0.833008 43.5 1.5s26.333 1.66699 37 3l103 545c-10 2 -22.167 3.66699 -36.5 5s-29.333 2.33301 -45 3s-31.5 1.16699 -47.5 1.5s-30.333 0.5 -43 0.5zM484 -30.999c-99.333 0 -180.502 8.49902 -243.502 25.499
s-110.833 44.833 -143.5 83.5s-51.5 89.334 -56.5 152.001s0.833008 139.667 17.5 231l29 153c16.667 90 38.834 166 66.501 228s64.334 112.167 110.001 150.5s101.834 65.833 168.501 82.5s147.667 25 243 25c32 0 63.833 -1.83301 95.5 -5.5
s59.834 -8.16699 84.501 -13.5l92 501c2.66699 14 10.667 21.333 24 22l300 36c13.333 0.666992 18.666 -5.33301 15.999 -18l-297 -1600c-2.66699 -14 -10.667 -21.333 -24 -22c-81.333 -9.33301 -162.333 -16.833 -243 -22.5s-160.334 -8.5 -239.001 -8.5zM1330 1141
c-13.333 0 -18.666 6.66699 -15.999 20l77 421c2.66699 14 10.667 21.333 24 22l279 34c13.333 0.666992 18 -5 14 -17l-136 -461c-2.66699 -7.33301 -5.83398 -12.333 -9.50098 -15s-9.16699 -4 -16.5 -4h-216z" />
    <glyph glyph-name="Dcroat" unicode="&#x110;" horiz-adv-x="1442" 
d="M428 -16c-21.333 0 -45.834 0.329102 -73.501 0.996094s-57.167 1.5 -88.5 2.5s-63.166 2.33301 -95.499 4s-63.5 3.83398 -93.5 6.50098c-13.333 0.666992 -18.666 8 -15.999 22l105 574h-139c-13.333 0 -18.666 6.66699 -15.999 20l49 279
c2.66699 13.333 10.667 20 24 20h141l100 542c1.33301 7.33301 3.83301 12.5 7.5 15.5s9.16699 5.16699 16.5 6.5c25.333 2 53.333 3.83301 84 5.5s61.167 3.16699 91.5 4.5s59.333 2.33301 87 3s51.167 1 70.5 1c79.333 0 154.166 -3.66699 224.499 -11
s134.5 -20.666 192.5 -39.999s108.833 -45.666 152.5 -78.999s78.167 -75.666 103.5 -126.999s40.666 -113.166 45.999 -185.499s-1 -156.833 -19 -253.5l-21 -113c-20 -108 -45.167 -200.333 -75.5 -277s-66 -140.834 -107 -192.501s-87.167 -92.667 -138.5 -123
s-108.166 -53.333 -170.499 -69s-130.333 -25.667 -204 -30s-152.834 -6.5 -237.501 -6.5zM713.999 1180c-13.333 0 -28.001 -0.500977 -44.001 -1.50098s-31.333 -2.5 -46 -4.5l-49 -261h205c13.333 0 18.666 -6.66699 15.999 -20l-49 -279
c-2.66699 -13.333 -10.667 -20 -24 -20h-207l-54 -293c6 -1.33301 14 -2.33301 24 -3s20.5 -1.16699 31.5 -1.5s21.333 -0.666016 31 -0.999023s17.167 -0.5 22.5 -0.5c62.667 0 117.834 5 165.501 15s89.334 29 125.001 57s65.5 67 89.5 117s43.333 114.667 58 194l23 119
c14 78.667 17.667 142.834 11 192.501s-23.5 88.667 -50.5 117s-63.833 47.666 -110.5 57.999s-102.667 15.5 -168 15.5z" />
    <glyph glyph-name="dcroat" unicode="&#x111;" horiz-adv-x="1222" 
d="M484 -31c-99.333 0 -180.502 8.49902 -243.502 25.499s-110.833 44.833 -143.5 83.5s-51.5 89.334 -56.5 152.001s0.833008 139.667 17.5 231l29 153c16.667 90 38.834 166 66.501 228s64.334 112.167 110.001 150.5s101.834 65.833 168.501 82.5s147.667 25 243 25
c32 0 63.833 -1.83301 95.5 -5.5s59.834 -8.16699 84.501 -13.5l20 112h-274c-13.333 0 -18.666 6.66699 -15.999 20l34 185c2.66699 13.333 10.667 20 24 20h274l30 164c2.66699 14 10.667 21.333 24 22l300 36c13.333 0.666992 18.666 -5.33301 15.999 -18l-38 -204h110
c13.333 0 18.666 -6.66699 15.999 -20l-34 -185c-2.66699 -13.333 -10.667 -20 -24 -20h-110l-217 -1171c-2.66699 -14 -10.667 -21.333 -24 -22c-81.333 -9.33301 -162.333 -16.833 -243 -22.5s-160.334 -8.5 -239.001 -8.5zM631.998 814.999
c-40 0 -73 -3.83203 -99 -11.499s-47.5 -20.667 -64.5 -39s-30.667 -42.5 -41 -72.5s-19.5 -67.333 -27.5 -112l-14 -72c-8.66699 -48 -13.5 -88.333 -14.5 -121s3.5 -58.834 13.5 -78.501s26.833 -33.667 50.5 -42s55.5 -12.5 95.5 -12.5c14 0 28.667 0.166992 44 0.5
l45.5 1c15 0.333008 29.5 0.833008 43.5 1.5s26.333 1.66699 37 3l103 545c-10 2 -22.167 3.66699 -36.5 5s-29.333 2.33301 -45 3s-31.5 1.16699 -47.5 1.5s-30.333 0.5 -43 0.5z" />
    <glyph glyph-name="Emacron" unicode="&#x112;" horiz-adv-x="1200" 
d="M54 0c-13.333 0 -18.6641 6.66699 -15.9971 20l264 1435c2.66699 13.333 10.667 20 24 20h919c13.333 0 18.666 -6.66699 15.999 -20l-54 -288c-2.66699 -13.333 -10.667 -20 -24 -20h-586l-45 -242h443c13.333 0 18.666 -6.66699 15.999 -20l-54 -287
c-2.66699 -13.333 -10.667 -20 -24 -20h-442l-46 -250h587c13.333 0 18.666 -6.66699 15.999 -20l-54 -288c-2.66699 -13.333 -10.667 -20 -24 -20h-916zM525.002 1596c-13.333 0 -18.666 6.66699 -15.999 20l35 198c2.66699 13.333 10.667 20 24 20h546
c13.333 0 18.666 -6.66699 15.999 -20l-35 -198c-2.66699 -13.333 -10.667 -20 -24 -20h-546z" />
    <glyph glyph-name="emacron" unicode="&#x113;" horiz-adv-x="1160" 
d="M470 -31c-92 0 -168.161 9.83008 -228.494 29.4971s-106.833 50 -139.5 91s-52.167 93.333 -58.5 157s-1.5 139.834 14.5 228.501l21 115c16.667 88.667 40.167 165 70.5 229s69.166 116.833 116.499 158.5s104.666 72.5 171.999 92.5s146.333 30 237 30
c149.333 0 258 -30.167 326 -90.5s102 -153.833 102 -280.5c0 -40.667 -2.83301 -78.667 -8.5 -114s-12.5 -67.166 -20.5 -95.499s-16.333 -52.833 -25 -73.5s-15.667 -36.334 -21 -47.001c-3.33301 -7.33301 -7 -12.166 -11 -14.499s-9.66699 -3.5 -17 -3.5l-627 -2
c-0.666992 -28 2.16602 -50.333 8.49902 -67s16.666 -29.5 30.999 -38.5s32.666 -14.833 54.999 -17.5s49.166 -4 80.499 -4c58.667 0 118.5 1 179.5 3s125.5 5.33301 193.5 10c13.333 0.666992 19 -5.66602 17 -18.999l-29 -226c-2 -13.333 -9.66699 -21 -23 -23
c-66.667 -8 -134.167 -14.667 -202.5 -20s-139.5 -8 -213.5 -8zM794.006 630.997c0 38 -2.50195 69 -7.50195 93s-14 42.833 -27 56.5s-30.333 23.167 -52 28.5s-49.5 8 -83.5 8s-63 -3.33301 -87 -10s-44.167 -18 -60.5 -34s-29.666 -37 -39.999 -63
s-19.166 -58.333 -26.499 -97zM418.004 1267c-13.333 0 -18.666 6.66699 -15.999 20l35 198c2.66699 13.333 10.667 20 24 20h546c13.333 0 18.666 -6.66699 15.999 -20l-35 -198c-2.66699 -13.333 -10.667 -20 -24 -20h-546z" />
    <glyph glyph-name="Edotaccent" unicode="&#x116;" horiz-adv-x="1200" 
d="M54 0c-13.333 0 -18.6641 6.66699 -15.9971 20l264 1435c2.66699 13.333 10.667 20 24 20h919c13.333 0 18.666 -6.66699 15.999 -20l-54 -288c-2.66699 -13.333 -10.667 -20 -24 -20h-586l-45 -242h443c13.333 0 18.666 -6.66699 15.999 -20l-54 -287
c-2.66699 -13.333 -10.667 -20 -24 -20h-442l-46 -250h587c13.333 0 18.666 -6.66699 15.999 -20l-54 -288c-2.66699 -13.333 -10.667 -20 -24 -20h-916zM646.002 1597c-13.333 0 -18.666 6.66699 -15.999 20l39 216c2.66699 14 10.667 21.333 24 22l300 37
c13.333 0.666992 18.666 -5.33301 15.999 -18l-47 -257c-2.66699 -13.333 -10.667 -20 -24 -20h-292z" />
    <glyph glyph-name="edotaccent" unicode="&#x117;" horiz-adv-x="1160" 
d="M470 -31c-92 0 -168.161 9.83008 -228.494 29.4971s-106.833 50 -139.5 91s-52.167 93.333 -58.5 157s-1.5 139.834 14.5 228.501l21 115c16.667 88.667 40.167 165 70.5 229s69.166 116.833 116.499 158.5s104.666 72.5 171.999 92.5s146.333 30 237 30
c149.333 0 258 -30.167 326 -90.5s102 -153.833 102 -280.5c0 -40.667 -2.83301 -78.667 -8.5 -114s-12.5 -67.166 -20.5 -95.499s-16.333 -52.833 -25 -73.5s-15.667 -36.334 -21 -47.001c-3.33301 -7.33301 -7 -12.166 -11 -14.499s-9.66699 -3.5 -17 -3.5l-627 -2
c-0.666992 -28 2.16602 -50.333 8.49902 -67s16.666 -29.5 30.999 -38.5s32.666 -14.833 54.999 -17.5s49.166 -4 80.499 -4c58.667 0 118.5 1 179.5 3s125.5 5.33301 193.5 10c13.333 0.666992 19 -5.66602 17 -18.999l-29 -226c-2 -13.333 -9.66699 -21 -23 -23
c-66.667 -8 -134.167 -14.667 -202.5 -20s-139.5 -8 -213.5 -8zM794.006 630.997c0 38 -2.50195 69 -7.50195 93s-14 42.833 -27 56.5s-30.333 23.167 -52 28.5s-49.5 8 -83.5 8s-63 -3.33301 -87 -10s-44.167 -18 -60.5 -34s-29.666 -37 -39.999 -63
s-19.166 -58.333 -26.499 -97zM537.004 1219c-13.333 0 -18.666 6.66699 -15.999 20l54 287c2.66699 14 10.667 21.333 24 22l298 37c13.333 0.666992 18.666 -5.33301 15.999 -18l-60 -328c-2.66699 -13.333 -10.667 -20 -24 -20h-292z" />
    <glyph glyph-name="Eogonek" unicode="&#x118;" horiz-adv-x="1200" 
d="M845 -246c12 0 25.3389 0.330078 40.0059 0.99707s29.667 2 45 4c14 2 20 -3.66699 18 -17l-10 -122c-0.666992 -13.333 -7.33398 -21.666 -20.001 -24.999c-15.333 -3.33301 -36.5 -6.66602 -63.5 -9.99902s-62.833 -5 -107.5 -5c-79.333 0 -138.833 11.333 -178.5 34
s-59.5 62.667 -59.5 120c0 66 16.167 120.167 48.5 162.5s81.166 76.833 146.499 103.5h-650c-13.333 0 -18.666 6.66699 -15.999 20l264 1435c2.66699 13.333 10.667 20 24 20h919c13.333 0 18.666 -6.66699 15.999 -20l-54 -288c-2.66699 -13.333 -10.667 -20 -24 -20
h-586l-45 -242h443c13.333 0 18.666 -6.66699 15.999 -20l-54 -287c-2.66699 -13.333 -10.667 -20 -24 -20h-442l-46 -250h587c13.333 0 18.666 -6.66699 15.999 -20l-54 -288c-2.66699 -13.333 -10.667 -20 -24 -20h-43c-26 -13.333 -49.333 -28.166 -70 -44.499
s-38.334 -33.5 -53.001 -51.5s-25.834 -36.333 -33.501 -55s-11.5 -36.667 -11.5 -54c0 -16.667 6.16699 -27.667 18.5 -33s34.833 -8 67.5 -8z" />
    <glyph glyph-name="eogonek" unicode="&#x119;" horiz-adv-x="1162" 
d="M773 -246c12 0 25.3408 0.328125 40.0078 0.995117s29.667 2 45 4c14 2 20 -3.66699 18 -17l-10 -122c-0.666992 -13.333 -7.33398 -21.666 -20.001 -24.999c-15.333 -3.33301 -36.5 -6.66602 -63.5 -9.99902s-62.833 -5 -107.5 -5c-79.333 0 -138.833 11.333 -178.5 34
s-59.5 62.667 -59.5 120c0 54.667 11.167 101.167 33.5 139.5s56.166 70.833 101.499 97.5c-17.333 -0.666992 -34.333 -1.16699 -51 -1.5s-33.667 -0.5 -51 -0.5c-92 0 -168.167 9.83301 -228.5 29.5s-106.833 50 -139.5 91s-52.167 93.333 -58.5 157
s-1.5 139.834 14.5 228.501l21 115c16.667 88.667 40.167 165 70.5 229s69.166 116.833 116.499 158.5s104.666 72.5 171.999 92.5s146.333 30 237 30c149.333 0 258 -30.167 326 -90.5s102 -153.833 102 -280.5c0 -40.667 -2.83301 -78.667 -8.5 -114
s-12.5 -67.166 -20.5 -95.499s-16.333 -52.833 -25 -73.5s-15.667 -36.334 -21 -47.001c-3.33301 -7.33301 -7 -12.166 -11 -14.499s-9.66699 -3.5 -17 -3.5l-627 -2c-0.666992 -28 2.16602 -50.333 8.49902 -67s16.666 -29.5 30.999 -38.5s32.666 -14.833 54.999 -17.5
s49.166 -4 80.499 -4c58.667 0 118.5 1 179.5 3s125.5 5.33301 193.5 10c13.333 0.666992 19 -5.66602 17 -18.999l-29 -226c-2 -13.333 -9.66699 -21 -23 -23l-47 -5c-48 -26.667 -85.333 -57.667 -112 -93s-40 -70 -40 -104c0 -16.667 6.16699 -27.667 18.5 -33
s34.833 -8 67.5 -8zM794.008 630.995c0 38 -2.50195 69 -7.50195 93s-14 42.833 -27 56.5s-30.333 23.167 -52 28.5s-49.5 8 -83.5 8s-63 -3.33301 -87 -10s-44.167 -18 -60.5 -34s-29.666 -37 -39.999 -63s-19.166 -58.333 -26.499 -97z" />
    <glyph glyph-name="Ecaron" unicode="&#x11a;" horiz-adv-x="1200" 
d="M54 0c-13.333 0 -18.6641 6.66699 -15.9971 20l264 1435c2.66699 13.333 10.667 20 24 20h919c13.333 0 18.666 -6.66699 15.999 -20l-54 -288c-2.66699 -13.333 -10.667 -20 -24 -20h-586l-45 -242h443c13.333 0 18.666 -6.66699 15.999 -20l-54 -287
c-2.66699 -13.333 -10.667 -20 -24 -20h-442l-46 -250h587c13.333 0 18.666 -6.66699 15.999 -20l-54 -288c-2.66699 -13.333 -10.667 -20 -24 -20h-916zM464.002 1827c-8.66699 10.667 -5.99902 16 8.00098 16h225c13.333 0 23.666 -5.33301 30.999 -16l67 -95h21l110 98
c5.33301 5.33301 10.666 8.83301 15.999 10.5s11.666 2.5 18.999 2.5h258c13.333 0 15 -4.33301 5 -13l-257 -220c-5.33301 -5.33301 -10.666 -8.83301 -15.999 -10.5s-11.666 -2.5 -18.999 -2.5h-276c-13.333 0 -24 5.33301 -32 16z" />
    <glyph glyph-name="ecaron" unicode="&#x11b;" horiz-adv-x="1160" 
d="M470 -31c-92 0 -168.161 9.83008 -228.494 29.4971s-106.833 50 -139.5 91s-52.167 93.333 -58.5 157s-1.5 139.834 14.5 228.501l21 115c16.667 88.667 40.167 165 70.5 229s69.166 116.833 116.499 158.5s104.666 72.5 171.999 92.5s146.333 30 237 30
c149.333 0 258 -30.167 326 -90.5s102 -153.833 102 -280.5c0 -40.667 -2.83301 -78.667 -8.5 -114s-12.5 -67.166 -20.5 -95.499s-16.333 -52.833 -25 -73.5s-15.667 -36.334 -21 -47.001c-3.33301 -7.33301 -7 -12.166 -11 -14.499s-9.66699 -3.5 -17 -3.5l-627 -2
c-0.666992 -28 2.16602 -50.333 8.49902 -67s16.666 -29.5 30.999 -38.5s32.666 -14.833 54.999 -17.5s49.166 -4 80.499 -4c58.667 0 118.5 1 179.5 3s125.5 5.33301 193.5 10c13.333 0.666992 19 -5.66602 17 -18.999l-29 -226c-2 -13.333 -9.66699 -21 -23 -23
c-66.667 -8 -134.167 -14.667 -202.5 -20s-139.5 -8 -213.5 -8zM794.006 630.997c0 38 -2.50195 69 -7.50195 93s-14 42.833 -27 56.5s-30.333 23.167 -52 28.5s-49.5 8 -83.5 8s-63 -3.33301 -87 -10s-44.167 -18 -60.5 -34s-29.666 -37 -39.999 -63
s-19.166 -58.333 -26.499 -97zM361.004 1529c-7.33301 11.333 -4 17 10 17h237c7.33301 0 13 -1.16699 17 -3.5s7.66699 -7.16602 11 -14.499l57 -125h21l106 128c5.33301 5.33301 10.333 9.16602 15 11.499s10.667 3.5 18 3.5h249c6 0 9.66699 -1.33301 11 -4
s-0.333984 -6 -5.00098 -10l-255 -269c-5.33301 -5.33301 -10.5 -9 -15.5 -11s-11.167 -3 -18.5 -3h-275c-7.33301 0 -13.166 1.16699 -17.499 3.5s-8.5 6.83301 -12.5 13.5z" />
    <glyph glyph-name="Gbreve" unicode="&#x11e;" horiz-adv-x="1338" 
d="M1256 827c13.333 0 18.666 -6.67285 15.999 -20.0059l-137 -741c-1.33301 -7.33301 -3.66602 -12.833 -6.99902 -16.5s-8.66602 -6.83398 -15.999 -9.50098c-40.667 -14 -82.167 -25.667 -124.5 -35s-84 -16.666 -125 -21.999s-81 -9 -120 -11s-75.833 -3 -110.5 -3
c-106.667 0 -199 11.333 -277 34s-140 60.834 -186 114.501s-75.167 124.834 -87.5 213.501s-5.83301 199 19.5 331l29 153c24 130.667 58.333 240.167 103 328.5s99.667 159.333 165 213s141 91.834 227 114.501s182.333 34 289 34c33.333 0 68 -1.16699 104 -3.5
s71 -5.83301 105 -10.5s66.167 -10.167 96.5 -16.5s56.833 -13.833 79.5 -22.5c6.66699 -3.33301 10.834 -6.66602 12.501 -9.99902s1.5 -8.66602 -0.5 -15.999l-95 -274c-4.66699 -12.667 -13.667 -18 -27 -16c-106 18 -213.333 27 -322 27
c-56 0 -105.167 -5.5 -147.5 -16.5s-79 -29.5 -110 -55.5s-57 -60.667 -78 -104s-37.5 -97.333 -49.5 -162l-30 -174c-12.667 -65.333 -17.334 -119.666 -14.001 -162.999s14.666 -78 33.999 -104s47 -44.333 83 -55s80.667 -16 134 -16h70
c23.333 0 47.666 0.666992 72.999 2l40 220l-157 9c-13.333 0.666992 -18.666 7.66699 -15.999 21l45 242c2.66699 13.333 10.667 20 24 20h488zM860 1576.99c-57.333 0 -104.827 5.16406 -142.494 15.4971s-67 26.333 -88 48s-34.333 49.334 -40 83.001
s-4.83398 73.834 2.49902 120.501c2 13.333 9.66699 20 23 20h174c7.33301 0 12.333 -1.5 15 -4.5s3.66699 -8.16699 3 -15.5c-2 -18 -0.833008 -33 3.5 -45s10.333 -21.5 18 -28.5s16.667 -12 27 -15s21.166 -4.5 32.499 -4.5c21.333 0 41.333 6.5 60 19.5
s32.667 37.5 42 73.5c3.33301 13.333 11.666 20 24.999 20h186c13.333 0 18.666 -6.66699 15.999 -20c-10 -51.333 -21.667 -94.166 -35 -128.499s-32.833 -61.833 -58.5 -82.5s-59.334 -35.167 -101.001 -43.5s-95.834 -12.5 -162.501 -12.5z" />
    <glyph glyph-name="gbreve" unicode="&#x11f;" horiz-adv-x="1224" 
d="M726 1239c-62.667 0 -112.668 7.00098 -150.001 21.001s-65.333 33.5 -84 58.5s-29.667 55.167 -33 90.5s-2.33301 74.333 3 117c2 13.333 9.66699 20 23 20h200c13.333 0 19 -6.66699 17 -20c-6.66699 -44 -5.5 -73.833 3.5 -89.5s24.5 -23.5 46.5 -23.5
s40.5 7.83301 55.5 23.5s27.167 45.5 36.5 89.5c2.66699 13.333 10.667 20 24 20h202c13.333 0 19 -6.66699 17 -20c-9.33301 -48.667 -21.333 -91 -36 -127s-35.5 -65.833 -62.5 -89.5s-61.667 -41.334 -104 -53.001s-95.166 -17.5 -158.499 -17.5zM294.999 -480.999
c-50.667 0 -99.4971 2.16797 -146.497 6.50098s-91.167 10.166 -132.5 17.499c-13.333 2.66699 -18.333 10.334 -15 23.001l55 226c3.33301 13.333 11.666 19 24.999 17c17.333 -2.66699 36.333 -5 57 -7s41.167 -3.5 61.5 -4.5s39.5 -1.66699 57.5 -2s33.333 -0.5 46 -0.5
c67.333 0 122.333 3.33301 165 10s76.667 18 102 34s44 37 56 63s21.667 58.667 29 98c-23.333 -6 -50.166 -10.833 -80.499 -14.5s-67.5 -5.5 -111.5 -5.5c-92 0 -167.833 8.33301 -227.5 25s-105.5 43.834 -137.5 81.501s-50.833 87.167 -56.5 148.5
s0.166016 136.666 17.499 225.999l29 153c18 95.333 40.833 174.166 68.5 236.499s64.167 112 109.5 149s101.166 63 167.499 78s147.166 22.5 242.499 22.5c92 0 179.333 -2.5 262 -7.5s159 -11.5 229 -19.5c13.333 -0.666992 18.666 -8 15.999 -22l-194 -1037
c-18.667 -99.333 -47 -181 -85 -245s-86 -114.5 -144 -151.5s-125.667 -62.667 -203 -77s-164.666 -21.5 -261.999 -21.5zM633.002 815.002c-40 0 -73 -3.83105 -99 -11.498s-47.333 -20.667 -64 -39s-30.167 -42.5 -40.5 -72.5s-19.833 -67.333 -28.5 -112l-14 -72
c-8.66699 -48 -13.5 -88.333 -14.5 -121s3.5 -58.834 13.5 -78.501s26.833 -33.667 50.5 -42s55.5 -12.5 95.5 -12.5c14 0 28.667 0.166992 44 0.5l45.5 1c15 0.333008 29.5 0.833008 43.5 1.5s26.333 1.66699 37 3l103 546c-19.333 3.33301 -44.833 5.66602 -76.5 6.99902
s-63.5 2 -95.5 2z" />
    </font>
</defs>
</svg>
