<?xml version="1.0" standalone="no"?>
<!DOCTYPE svg PUBLIC "-//W3C//DTD SVG 1.1//EN" "http://www.w3.org/Graphics/SVG/1.1/DTD/svg11.dtd" >
<svg>
<metadata>
Created by FontForge 20090914 at Wed Apr  8 22:56:10 2015
 By www-data
</metadata>
<defs>
<font id="SkodaPro-ExtraBold" horiz-adv-x="778" >
  <font-face 
    font-family="Skoda Pro ExtraBold"
    font-weight="800"
    font-stretch="normal"
    units-per-em="2048"
    panose-1="2 0 0 0 0 0 0 0 0 0"
    ascent="1638"
    descent="-410"
    x-height="1071"
    cap-height="1475"
    bbox="-993 -481.001 2906 1948"
    underline-thickness="102"
    underline-position="-103"
    unicode-range="U+0020-U+FB02"
  />
<missing-glyph horiz-adv-x="1022" 
 />
    <glyph glyph-name=".notdef" horiz-adv-x="1022" 
 />
    <glyph glyph-name="space" unicode=" " horiz-adv-x="508" 
 />
    <glyph glyph-name="exclam" unicode="!" horiz-adv-x="627" 
d="M179 614c-13.333 0 -20 6.66699 -20 20l-21 821c0 14 6.66699 21.333 20 22l313 37c13.333 0.666992 20 -5.33301 20 -18l-21 -862c0 -13.333 -6.66699 -20 -20 -20h-271zM160 0c-13.333 0 -20 6.66699 -20 20v300c0 14 6.66699 21.333 20 22l292 35
c13.333 0.666992 20 -5.33301 20 -18v-339c0 -13.333 -6.66699 -20 -20 -20h-292z" />
    <glyph glyph-name="quotedbl" unicode="&#x22;" horiz-adv-x="1003" 
d="M130 889c-13.333 0 -20 6.66699 -20 20v546c0 7.33301 1.5 12.5 4.5 15.5s8.16699 5.16699 15.5 6.5l274 26c7.33301 0.666992 12.5 -0.333008 15.5 -3s4.5 -7.66699 4.5 -15v-576c0 -13.333 -6.66699 -20 -20 -20h-274zM599 889c-13.333 0 -20 6.66699 -20 20v546
c0 7.33301 1.5 12.5 4.5 15.5s8.16699 5.16699 15.5 6.5l274 26c7.33301 0.666992 12.5 -0.333008 15.5 -3s4.5 -7.66699 4.5 -15v-576c0 -13.333 -6.66699 -20 -20 -20h-274z" />
    <glyph glyph-name="numbersign" unicode="#" horiz-adv-x="1501" 
d="M751 0c-13.333 0 -19 6.66699 -17 20l39 256h-186l-39 -256c-2 -13.333 -9.66699 -20 -23 -20h-294c-13.333 0 -19 6.66699 -17 20l39 256h-172c-13.333 0 -19.666 6.66699 -18.999 20l21 282c0.666992 13.333 7.66699 20 21 20h198l43 281h-190
c-13.333 0 -19.666 6.66699 -18.999 20l19 279c0.666992 13.333 7.66699 20 21 20h217l40 257c2 13.333 9.66699 20 23 20h294c13.333 0 19 -6.66699 17 -20l-40 -257h186l40 257c2 13.333 9.66699 20 23 20h294c13.333 0 19 -6.66699 17 -20l-40 -257h173
c13.333 0 19.666 -6.66699 18.999 -20l-19 -279c-0.666992 -13.333 -7.66699 -20 -21 -20h-200l-43 -281h192c13.333 0 19.666 -6.66699 18.999 -20l-20 -282c-0.666992 -13.333 -7.66699 -20 -21 -20h-219l-39 -256c-2 -13.333 -9.66699 -20 -23 -20h-294zM679 879
l-43 -281h186l43 281h-186z" />
    <glyph glyph-name="dollar" unicode="$" horiz-adv-x="1207" 
d="M496 -215c-13.333 0 -19.998 6.66797 -19.998 20.001v195c-60.667 1.33301 -119.334 4.16602 -176.001 8.49902s-110.667 11.166 -162 20.499c-13.333 2.66699 -19 10.667 -17 24l44 249c2.66699 13.333 10.667 19 24 17c44 -7.33301 89.667 -12.5 137 -15.5
s97.666 -5.16699 150.999 -6.5l6 324l-74 20c-78.667 21.333 -141 46 -187 74s-81 59.5 -105 94.5s-39.5 74 -46.5 117s-10.5 90.5 -10.5 142.5c0 62 8.33301 116 25 162s42 85 76 117s77.167 57.5 129.5 76.5s114.166 32.5 185.499 40.5v205c0 13.333 6.66699 20 20 20h218
c13.333 0 20 -6.66699 20 -20v-196c58.667 -1.33301 114.834 -4.33301 168.501 -9s103.5 -10.667 149.5 -18c13.333 -2 19 -9.66699 17 -23l-41 -241c-2 -13.333 -9.66699 -19.666 -23 -18.999c-48 3.33301 -93.167 6 -135.5 8s-87.833 3.66699 -136.5 5l-6 -317l73 -16
c77.333 -17.333 139 -40.166 185 -68.499s81 -60.833 105 -97.5s39.667 -77.167 47 -121.5s11 -91.166 11 -140.499c0 -64.667 -8 -120.834 -24 -168.501s-40.833 -87.834 -74.5 -120.501s-76.667 -58.5 -129 -77.5s-114.5 -32.5 -186.5 -40.5v-204
c0 -13.333 -6.66699 -20 -20 -20h-218zM493.002 1174c-30 -2.66699 -54.3311 -6.5 -72.998 -11.5s-33.334 -12 -44.001 -21s-17.834 -20 -21.501 -33s-5.5 -28.833 -5.5 -47.5c0 -18 1.5 -34 4.5 -48s9.5 -26.667 19.5 -38s24.5 -22 43.5 -32s44.5 -19.667 76.5 -29v260z
M720.004 301.001c29.333 2 52.834 5.5 70.501 10.5s31.334 12 41.001 21s16 20.333 19 34s4.5 30.167 4.5 49.5c0 17.333 -1.33301 32.5 -4 45.5s-8.83398 24.833 -18.501 35.5s-23.334 20.667 -41.001 30s-41.5 19 -71.5 29v-255z" />
    <glyph glyph-name="percent" unicode="%" horiz-adv-x="2124" 
d="M443 590c-56 0 -107.669 6.83301 -155.002 20.5s-88 36.334 -122 68.001s-60.5 73.334 -79.5 125.001s-28.5 115.5 -28.5 191.5v107c0 76.667 9.33301 140.834 28 192.501s45 93 79 124s74.667 53.167 122 66.5s99.333 20 156 20s108.5 -6.66699 155.5 -20
s87.333 -35.5 121 -66.5s59.834 -72.333 78.501 -124s28 -115.834 28 -192.501v-107c0 -76 -9.33301 -139.833 -28 -191.5s-44.667 -93.334 -78 -125.001s-73.666 -54.334 -120.999 -68.001s-99.333 -20.5 -156 -20.5zM442.998 1233c-34.667 0 -60.334 -9.66699 -77.001 -29
s-25 -52 -25 -98v-115c0 -42 8.33301 -74 25 -96s42.334 -33 77.001 -33c33.333 0 58.5 11 75.5 33s25.5 54 25.5 96v115c0 46 -8.83301 78.667 -26.5 98s-42.5 29 -74.5 29zM1682 -31c-56 0 -107.669 7 -155.002 21s-88 36.833 -122 68.5s-60.5 73.334 -79.5 125.001
s-28.5 115.5 -28.5 191.5v106c0 76.667 9.33301 140.834 28 192.501s45 93.167 79 124.5s74.667 53.666 122 66.999s99.333 20 156 20s108.5 -6.66699 155.5 -20s87.333 -35.666 121 -66.999s59.834 -72.833 78.501 -124.5s28 -115.834 28 -192.501v-106
c0 -76 -9.33301 -139.833 -28 -191.5s-44.667 -93.334 -78 -125.001s-73.666 -54.5 -120.999 -68.5s-99.333 -21 -156 -21zM1682 612c-34.667 0 -60.334 -9.5 -77.001 -28.5s-25 -51.833 -25 -98.5v-114c0 -42 8.33301 -74 25 -96s42.334 -33 77.001 -33
c33.333 0 58.5 11 75.5 33s25.5 54 25.5 96v114c0 46.667 -8.83301 79.5 -26.5 98.5s-42.5 28.5 -74.5 28.5zM497.996 0c-14 0 -17.332 6 -9.99902 18l781 1439c4 7.33301 8.16699 12.166 12.5 14.499s10.166 3.5 17.499 3.5h324c13.333 0 16.666 -6 9.99902 -18l-780 -1439
c-4 -7.33301 -8.16699 -12.166 -12.5 -14.499s-10.166 -3.5 -17.499 -3.5h-325z" />
    <glyph glyph-name="ampersand" unicode="&#x26;" horiz-adv-x="1520" 
d="M1089 0c-7.33301 0 -13.333 1.16699 -18 3.5s-9.66699 6.16602 -15 11.499l-74 89c-74.667 -44 -154.167 -77.5 -238.5 -100.5s-172.5 -34.5 -264.5 -34.5c-69.333 0 -130.166 4.83301 -182.499 14.5s-96.333 29.5 -132 59.5s-62.5 72.667 -80.5 128
s-27 128.666 -27 219.999c0 45.333 1.66699 85.5 5 120.5s9.16602 66.667 17.499 95s19.666 53.833 33.999 76.5s32.5 43.834 54.5 63.501s48.333 39 79 58s66.667 38.833 108 59.5c-19.333 28 -36 54.5 -50 79.5s-25.5 49.833 -34.5 74.5s-15.667 49.834 -20 75.501
s-6.5 52.5 -6.5 80.5c0 62.667 10.833 115.167 32.5 157.5s51.5 76.333 89.5 102s83 44 135 55s108.333 16.5 169 16.5c60 0 116.5 -5.5 169.5 -16.5s99 -29.333 138 -55s69.833 -59.667 92.5 -102s34 -94.833 34 -157.5c0 -49.333 -3.83301 -92.5 -11.5 -129.5
s-21.5 -70.833 -41.5 -101.5s-47.5 -59.667 -82.5 -87s-79.833 -56 -134.5 -86l178 -212c29.333 34.667 55.333 72.167 78 112.5s41 83.5 55 129.5c2.66699 7.33301 5.83398 12.333 9.50098 15s9.16699 4 16.5 4h292c14 0 19 -6.33301 15 -19
c-25.333 -98 -59.333 -188 -102 -270s-93.334 -156.333 -152.001 -223l246 -292c8.66699 -10 6.33398 -15 -6.99902 -15h-374zM418 422c0 -23.333 2.16602 -42.3311 6.49902 -56.998s10.666 -26.334 18.999 -35.001s19 -14.667 32 -18s28.5 -5 46.5 -5
c80.667 0 161.334 19.333 242.001 58l-214 256c-28.667 -16.667 -51.667 -31.834 -69 -45.501s-30.666 -28 -39.999 -43s-15.5 -31.167 -18.5 -48.5s-4.5 -38 -4.5 -62zM673.999 1239c-72.667 0 -109.001 -27.3311 -109.001 -81.998c0 -26.667 7 -52.834 21 -78.501
s31.667 -51.834 53 -78.501c32 16 57.333 30 76 42s33 23.833 43 35.5s16.5 23.667 19.5 36s4.5 26.833 4.5 43.5c0 28 -8.66699 48.667 -26 62s-44.666 20 -81.999 20z" />
    <glyph glyph-name="quotesingle" unicode="'" horiz-adv-x="534" 
d="M130 889c-13.333 0 -20 6.66699 -20 20v546c0 7.33301 1.5 12.5 4.5 15.5s8.16699 5.16699 15.5 6.5l274 26c7.33301 0.666992 12.5 -0.333008 15.5 -3s4.5 -7.66699 4.5 -15v-576c0 -13.333 -6.66699 -20 -20 -20h-274z" />
    <glyph glyph-name="parenleft" unicode="(" horiz-adv-x="709" 
d="M445 522c0 -79.333 4.66699 -158.333 14 -237s22.833 -156 40.5 -232s39.667 -149.667 66 -221s56.5 -139 90.5 -203c6.66699 -12 3.33398 -18 -9.99902 -18h-316c-7.33301 0 -13.166 1.16699 -17.499 3.5s-8.5 6.83301 -12.5 13.5c-31.333 57.333 -60 118.5 -86 183.5
s-48.333 133.5 -67 205.5s-33.167 147.667 -43.5 227s-15.5 162 -15.5 248v102c0 86 5.16699 168.5 15.5 247.5s24.833 154.667 43.5 227s41 141 67 206s54.667 126.167 86 183.5c4 6.66699 8.16699 11.167 12.5 13.5s10.166 3.5 17.499 3.5h316
c13.333 0 16.666 -6 9.99902 -18c-34 -64 -64.167 -131.667 -90.5 -203s-48.333 -145 -66 -221s-31.167 -153.5 -40.5 -232.5s-14 -158.167 -14 -237.5v-41v0z" />
    <glyph glyph-name="parenright" unicode=")" horiz-adv-x="709" 
d="M264 563c0 79.333 -4.66699 158.5 -14 237.5s-22.833 156.5 -40.5 232.5s-39.667 149.667 -66 221s-56.5 139 -90.5 203c-7.33301 12 -4 18 10 18h316c7.33301 0 13.166 -1.16699 17.499 -3.5s8.5 -6.83301 12.5 -13.5c31.333 -57.333 60 -118.5 86 -183.5
s48.333 -133.667 67 -206s33.167 -148 43.5 -227s15.5 -161.5 15.5 -247.5v-102c0 -86 -5.16699 -168.667 -15.5 -248s-24.833 -155 -43.5 -227s-41 -140.5 -67 -205.5s-54.667 -126.167 -86 -183.5c-4 -6.66699 -8.16699 -11.167 -12.5 -13.5s-10.166 -3.5 -17.499 -3.5
h-316c-14 0 -17.333 6 -10 18c34 64 64.167 131.667 90.5 203s48.333 145 66 221s31.167 153.333 40.5 232s14 157.667 14 237v41z" />
    <glyph glyph-name="asterisk" unicode="*" horiz-adv-x="1024" 
d="M74 1254c-11.333 6.66699 -13.666 15.667 -6.99902 27l105 183c6.66699 11.333 15.667 13.666 27 6.99902l188 -108v214c0 13.333 6.66699 20 20 20h210c13.333 0 20 -6.66699 20 -20v-214l188 108c11.333 6.66699 20.333 4.33398 27 -6.99902l105 -183
c6.66699 -11.333 4.33398 -20.333 -6.99902 -27l-187 -107l187 -107c11.333 -6.66699 13.666 -15.667 6.99902 -27l-105 -183c-6.66699 -11.333 -15.667 -13.666 -27 -6.99902l-188 107v-214c0 -13.333 -6.66699 -20 -20 -20h-210c-13.333 0 -20 6.66699 -20 20v214
l-188 -107c-11.333 -6.66699 -20.333 -4.33398 -27 6.99902l-105 183c-6.66699 11.333 -4.33398 20.333 6.99902 27l186 107z" />
    <glyph glyph-name="plus" unicode="+" horiz-adv-x="1122" 
d="M85 604c-13.333 0 -20 6.66699 -20 20v280c0 13.333 6.66699 20 20 20h316v320c0 13.333 6.66699 20 20 20h280c13.333 0 20 -6.66699 20 -20v-320h316c13.333 0 20 -6.66699 20 -20v-280c0 -13.333 -6.66699 -20 -20 -20h-316v-312c0 -13.333 -6.66699 -20 -20 -20h-280
c-13.333 0 -20 6.66699 -20 20v312h-316z" />
    <glyph glyph-name="comma" unicode="," horiz-adv-x="588" 
d="M71 -266c-13.333 0 -19.001 6.66699 -17.001 20l72 566c2 14 9.66699 21.333 23 22l333 35c12.667 0.666992 17.667 -5 15 -17l-154 -607c-3.33301 -12.667 -11.666 -19 -24.999 -19h-247z" />
    <glyph glyph-name="hyphen" unicode="-" horiz-adv-x="764" 
d="M142 403c-13.333 0 -20 6.66699 -20 20v280c0 13.333 6.66699 20 20 20h480c13.333 0 20 -6.66699 20 -20v-280c0 -13.333 -6.66699 -20 -20 -20h-480z" />
    <glyph glyph-name="period" unicode="." horiz-adv-x="559" 
d="M130 0c-13.333 0 -20 6.66699 -20 20v300c0 14 6.66699 21.333 20 22l292 35c13.333 0.666992 20 -5.33301 20 -18v-339c0 -13.333 -6.66699 -20 -20 -20h-292z" />
    <glyph glyph-name="slash" unicode="/" horiz-adv-x="879" 
d="M69 0c-12.667 0 -17.667 6.33301 -15 19l404 1518c3.33301 12.667 11.666 19 24.999 19h335c12.667 0 17.667 -6.33301 15 -19l-404 -1518c-3.33301 -12.667 -11.666 -19 -24.999 -19h-335z" />
    <glyph glyph-name="zero" unicode="0" horiz-adv-x="1312" 
d="M658 -31c-58 0 -111.832 3 -161.499 9s-95 17.167 -136 33.5s-77.333 39.333 -109 69s-58.334 68 -80.001 115s-38.167 104 -49.5 171s-17 146.167 -17 237.5v268c0 91.333 5.66699 170.333 17 237s27.666 123.5 48.999 170.5s47.833 85.167 79.5 114.5
s68 52.166 109 68.499s86.167 27.5 135.5 33.5s103 9 161 9s112 -3 162 -9s95.333 -17.167 136 -33.5s76.834 -39.166 108.501 -68.499s58.167 -67.5 79.5 -114.5s37.5 -103.833 48.5 -170.5s16.5 -145.667 16.5 -237v-268c0 -91.333 -5.5 -170.5 -16.5 -237.5
s-27.167 -124 -48.5 -171s-47.666 -85.333 -78.999 -115s-67.333 -52.667 -108 -69s-85.834 -27.5 -135.501 -33.5s-103.5 -9 -161.5 -9zM656.001 1167c-35.333 0 -65.667 -4.33301 -91 -13s-46 -24.5 -62 -47.5s-27.833 -54.833 -35.5 -95.5s-11.5 -93 -11.5 -157v-231
c0 -64 3.83301 -116.5 11.5 -157.5s19.834 -73.167 36.501 -96.5s37.667 -39.5 63 -48.5s55.666 -13.5 90.999 -13.5c34.667 0 64.5 4.5 89.5 13.5s45.667 25.167 62 48.5s28.333 55.5 36 96.5s11.5 93.5 11.5 157.5v231c0 64 -4 116.333 -12 157s-20.333 72.5 -37 95.5
s-37.5 38.833 -62.5 47.5s-54.833 13 -89.5 13z" />
    <glyph glyph-name="one" unicode="1" horiz-adv-x="865" 
d="M80 1074c-12.667 -4 -20 1.00098 -22 15.001l-45 280c-2 13.333 3.33301 21.666 16 24.999l319 76c13.333 3.33301 26.333 5 39 5h310c13.333 0 20 -6.66699 20 -20v-1435c0 -13.333 -6.66699 -20 -20 -20h-310c-13.333 0 -20 6.66699 -20 20v1122z" />
    <glyph glyph-name="two" unicode="2" horiz-adv-x="1163" 
d="M106 0c-13.333 0 -20.001 6.66992 -20.001 20.0029v162c0 74 5.5 137.5 16.5 190.5s28.667 100.667 53 143s56.166 82 95.499 119s87.333 76.167 144 117.5l199 145c36.667 26.667 62.834 51.167 78.501 73.5s23.5 48.5 23.5 78.5c0 40.667 -16.833 70.167 -50.5 88.5
s-89.834 27.5 -168.501 27.5c-16.667 0 -37 -0.333008 -61 -1s-50 -1.83398 -78 -3.50098s-57.167 -4 -87.5 -7s-60.166 -6.83301 -89.499 -11.5c-13.333 -2 -21 3.66699 -23 17l-45 275c-2 14 3.33301 22.333 16 25c34.667 9.33301 70.167 17 106.5 23s72 10.667 107 14
s68.5 5.66602 100.5 6.99902s61.667 2 89 2c114 0 207.167 -10.667 279.5 -32s129.166 -50.5 170.499 -87.5s69.833 -80.667 85.5 -131s23.5 -104.5 23.5 -162.5c0 -46 -4.16699 -88.167 -12.5 -126.5s-21.666 -74.333 -39.999 -108s-41.666 -65.834 -69.999 -96.501
s-62.5 -61.667 -102.5 -93l-141 -111l-111 -88c-27.333 -22.667 -48 -42 -62 -58s-22.833 -30 -26.5 -42s-5.5 -25.667 -5.5 -41h537c13.333 0 20 -6.66699 20 -20v-288c0 -13.333 -6.66699 -20 -20 -20h-931z" />
    <glyph glyph-name="three" unicode="3" horiz-adv-x="1141" 
d="M494 -31c-74.667 0 -145.997 2.83496 -213.997 8.50195s-128 12.834 -180 21.501c-13.333 2 -19.666 9.66699 -18.999 23l18 286c0.666992 7.33301 2.5 12.333 5.5 15s8.16699 3.66699 15.5 3c64.667 -6.66699 125 -10.5 181 -11.5s108.667 -1.5 158 -1.5
c76 0 132.167 9.66699 168.5 29s54.5 54 54.5 104v27c0 20 -2.66699 38.167 -8 54.5s-15 30.333 -29 42s-33 20.667 -57 27s-54.667 9.5 -92 9.5h-218c-13.333 0 -20 6.66699 -20 20v278c0 13.333 6.66699 20 20 20h209c39.333 0 71.666 2.66699 96.999 8
s45.166 13 59.499 23s24.333 22.167 30 36.5s8.5 30.5 8.5 48.5v19c0 68 -74.333 102 -223 102c-57.333 0 -112 -1 -164 -3s-108.333 -5.33301 -169 -10c-13.333 -0.666992 -20.333 5.66602 -21 18.999l-18 286c-0.666992 13.333 5.66602 21 18.999 23
c50 7.33301 107.333 14 172 20s133 9 205 9c88.667 0 167.5 -7 236.5 -21s127 -36.333 174 -67s82.833 -70.334 107.5 -119.001s37 -107.334 37 -176.001v-28c0 -82.667 -20.5 -150.834 -61.5 -204.501s-101.5 -92.167 -181.5 -115.5c36.667 -14 70 -31.667 100 -53
s55.5 -46 76.5 -74s37.333 -59.167 49 -93.5s17.5 -71.5 17.5 -111.5v-36c0 -86 -12 -157 -36 -213s-59.167 -100.667 -105.5 -134s-103.333 -56.666 -171 -69.999s-144.834 -20 -231.501 -20z" />
    <glyph glyph-name="four" unicode="4" horiz-adv-x="1267" 
d="M63 258c-13.333 0 -20 6.66699 -20 20v292c0 13.333 4 25.333 12 36l609 853c8 10.667 18.667 16 32 16h337c13.333 0 20 -6.66699 20 -20v-910h133c13.333 0 20 -6.66699 20 -20v-247c0 -13.333 -6.66699 -20 -20 -20h-133v-238c0 -13.333 -6.66699 -20 -20 -20h-311
c-13.333 0 -20 6.66699 -20 20v238h-639zM397 545h305v446h-16l-289 -432v-14z" />
    <glyph glyph-name="five" unicode="5" horiz-adv-x="1135" 
d="M463 -31c-137.333 0 -261.997 15.3369 -373.997 46.0039c-12.667 3.33301 -18 11.666 -16 24.999l43 282c2 13.333 9.66699 18.666 23 15.999c26.667 -4.66699 54.834 -8.83398 84.501 -12.501s58.667 -6.83398 87 -9.50098s54.666 -4.83398 78.999 -6.50098
s44.166 -2.5 59.499 -2.5c50.667 0 91.834 3.83301 123.501 11.5s56.5 18.5 74.5 32.5s30.333 31.167 37 51.5s10 43.166 10 68.499v14c0 32.667 -4.16699 60.667 -12.5 84s-22.833 42.333 -43.5 57s-48.334 25.334 -83.001 32.001s-78.334 10 -131.001 10
c-20.667 0 -44.334 -0.833008 -71.001 -2.5s-53.167 -3.66699 -79.5 -6s-51 -4.66602 -74 -6.99902l-54.5 -5.5c-13.333 -0.666992 -20 5.33301 -20 18v216c0 5.33301 0.166992 12 0.5 20s0.833008 14.667 1.5 20l55 534c0.666992 13.333 8 20 22 20h816
c13.333 0 19 -6.66699 17 -20l-49 -288c-2 -13.333 -9.66699 -20 -23 -20h-490l-18 -191h43c82 0 156.5 -7.33301 223.5 -22s124.5 -40 172.5 -76s85.167 -84.167 111.5 -144.5s39.5 -136.5 39.5 -228.5v-14c0 -91.333 -12.667 -168.833 -38 -232.5
s-62.666 -115.5 -111.999 -155.5s-110.333 -69 -183 -87s-156.334 -27 -251.001 -27z" />
    <glyph glyph-name="six" unicode="6" horiz-adv-x="1252" 
d="M640 -31c-81.333 0 -155.502 11.332 -222.502 33.999s-124.333 59.334 -172 110.001s-84.667 116.167 -111 196.5s-39.5 178.5 -39.5 294.5v193c0 129.333 14.167 239 42.5 329s70 163 125 219s123.333 96.667 205 122s176.167 38 283.5 38
c48.667 0 101.667 -3.16699 159 -9.5s117.333 -18.166 180 -35.499c12.667 -3.33301 18 -12 16 -26l-47 -271c-2 -13.333 -9.66699 -19 -23 -17c-24 4 -49 7.33301 -75 10s-51.5 4.83398 -76.5 6.50098s-48.833 2.83398 -71.5 3.50098s-42.667 1 -60 1
c-46.667 0 -87.834 -3 -123.501 -9s-66 -17.333 -91 -34s-44.667 -40.167 -59 -70.5s-23.833 -69.5 -28.5 -117.5c32.667 5.33301 65.834 10 99.501 14s72.5 6 116.5 6c68.667 0 134.334 -7.16699 197.001 -21.5s117.834 -38.5 165.501 -72.5s85.5 -79.167 113.5 -135.5
s42 -126.5 42 -210.5v-24c0 -82.667 -11.667 -156.334 -35 -221.001s-57.833 -119.334 -103.5 -164.001s-102.5 -78.834 -170.5 -102.501s-146.667 -35.5 -236 -35.5zM832.998 505.999c0 29.333 -5.5 53.502 -16.5 72.502s-26 34 -45 45s-41.167 18.667 -66.5 23
s-52.333 6.5 -81 6.5c-23.333 0 -50.5 -2 -81.5 -6l-94.5 -12v-31c0 -62.667 4.33301 -113.334 13 -152.001s21.5 -68.834 38.5 -90.501s38 -36.167 63 -43.5s53.5 -11 85.5 -11c28 0 53.5 2.66699 76.5 8s42.5 14.5 58.5 27.5s28.333 30.833 37 53.5s13 51 13 85v25z" />
    <glyph glyph-name="seven" unicode="7" horiz-adv-x="1100" 
d="M127 0c-13.333 0 -17.002 5.99902 -11.002 17.999l580 1129h-612c-7.33301 0 -12.5 1.5 -15.5 4.5s-5.16699 8.16699 -6.5 15.5l-27 288c-0.666992 7.33301 0.333008 12.5 3 15.5s7.66699 4.5 15 4.5h990c13.333 0 20 -6.66699 20 -20v-286c0 -13.333 -3 -26 -9 -38
l-531 -1113c-3.33301 -7.33301 -7.16602 -12.166 -11.499 -14.499s-10.166 -3.5 -17.499 -3.5h-367z" />
    <glyph glyph-name="eight" unicode="8" horiz-adv-x="1290" 
d="M645 -31c-84.667 0 -161.502 6.33301 -230.502 19s-128 35 -177 67s-86.833 75.833 -113.5 131.5s-40 126.5 -40 212.5v41c0 26.667 4.83301 55.167 14.5 85.5s24.334 59.833 44.001 88.5s44.5 55.5 74.5 80.5s65.667 45.5 107 61.5c-34 14 -62.833 32.667 -86.5 56
s-43 49 -58 77s-25.833 57.5 -32.5 88.5s-10 61.5 -10 91.5v35c0 74.667 11 137.5 33 188.5s54.5 92.333 97.5 124s96.167 54.334 159.5 68.001s136 20.5 218 20.5s154.5 -6.83301 217.5 -20.5s116 -36.334 159 -68.001s75.667 -73 98 -124s33.5 -113.833 33.5 -188.5v-35
c0 -30 -3.33301 -60.5 -10 -91.5s-17.5 -60.5 -32.5 -88.5s-34.167 -53.667 -57.5 -77s-52 -42 -86 -56c40.667 -16 76 -36.5 106 -61.5s54.833 -51.833 74.5 -80.5s34.334 -58.167 44.001 -88.5s14.5 -58.833 14.5 -85.5v-41c0 -86 -13.333 -156.833 -40 -212.5
s-64.5 -99.5 -113.5 -131.5s-108 -54.333 -177 -67s-145.833 -19 -230.5 -19zM458.998 1049c0 -15.333 1.83496 -31 5.50195 -47s11.167 -30.5 22.5 -43.5s27.666 -23.5 48.999 -31.5s49.666 -12 84.999 -12h49c35.333 0 63.5 4 84.5 12s37.167 18.5 48.5 31.5
s18.833 27.5 22.5 43.5s5.5 31.667 5.5 47v14c0 25.333 -2.83301 46.5 -8.5 63.5s-15.5 30.5 -29.5 40.5s-33 17 -57 21s-54.333 6 -91 6c-36 0 -66 -2 -90 -6s-43.167 -11 -57.5 -21s-24.333 -23.5 -30 -40.5s-8.5 -38.167 -8.5 -63.5v-14zM621 592
c-42.667 0 -76.8301 -5.5 -102.497 -16.5s-45.334 -24 -59.001 -39s-22.667 -30.5 -27 -46.5s-6.5 -29 -6.5 -39v-21c0 -28 3.66699 -51.5 11 -70.5s19.666 -34.333 36.999 -46s39.833 -20 67.5 -25s62.167 -7.5 103.5 -7.5c40.667 0 75 2.5 103 7.5s50.667 13.333 68 25
s29.666 27 36.999 46s11 42.5 11 70.5v21c0 10 -2.16699 23 -6.5 39s-13.333 31.5 -27 46.5s-33.167 28 -58.5 39s-59.333 16.5 -102 16.5h-49z" />
    <glyph glyph-name="nine" unicode="9" horiz-adv-x="1258" 
d="M508 -31c-51.333 0 -107.499 3.83008 -168.499 11.4971s-124.833 20.167 -191.5 37.5c-12.667 3.33301 -18 11.666 -16 24.999l45 279c2 13.333 9.66699 18.666 23 15.999c26 -5.33301 53 -10 81 -14s55.5 -7.33301 82.5 -10s52.833 -4.5 77.5 -5.5
s46.334 -1.5 65.001 -1.5c46 0 86.5 2.83301 121.5 8.5s65 16.5 90 32.5s44.833 38.5 59.5 67.5s24.667 66.5 30 112.5c-32.667 -5.33301 -66 -10 -100 -14s-72.333 -6 -115 -6c-75.333 0 -144.666 7.33301 -207.999 22s-118 39.334 -164 74.001
s-81.833 80.834 -107.5 138.501s-38.5 129.5 -38.5 215.5v25c0 82.667 10.667 156.334 32 221.001s54.166 119.334 98.499 164.001s100.666 78.667 168.999 102s149.833 35 244.5 35c81.333 0 155.5 -11.5 222.5 -34.5s124.333 -60.167 172 -111.5
s84.667 -117.833 111 -199.5s39.5 -181.5 39.5 -299.5v-182c0 -129.333 -14 -239 -42 -329s-69.667 -163.167 -125 -219.5s-123.833 -97.166 -205.5 -122.499s-175.834 -38 -282.501 -38zM426.001 968.997c0 -31.333 4.33203 -57.168 12.999 -77.501
s21.834 -36.5 39.501 -48.5s39.5 -20.333 65.5 -25s56.333 -7 91 -7c22.667 0 49.5 0.833008 80.5 2.5s62.833 3.83398 95.5 6.50098v50c0 63.333 -4.5 114.5 -13.5 153.5s-22 69.167 -39 90.5s-38 35.5 -63 42.5s-53.5 10.5 -85.5 10.5s-59.667 -2.66699 -83 -8
s-42.5 -14.5 -57.5 -27.5s-26 -30.833 -33 -53.5s-10.5 -51 -10.5 -85v-24z" />
    <glyph glyph-name="colon" unicode=":" horiz-adv-x="618" 
d="M158 0c-13.333 0 -20 6.66699 -20 20v300c0 14 6.66699 21.333 20 22l292 35c13.333 0.666992 20 -5.33301 20 -18v-339c0 -13.333 -6.66699 -20 -20 -20h-292zM158 676c-13.333 0 -20 6.66699 -20 20v300c0 14 6.66699 21.333 20 22l292 35
c13.333 0.666992 20 -5.33301 20 -18v-339c0 -13.333 -6.66699 -20 -20 -20h-292z" />
    <glyph glyph-name="semicolon" unicode=";" horiz-adv-x="624" 
d="M105 -266c-13.333 0 -19.001 6.66699 -17.001 20l72 566c2 14 9.66699 21.333 23 22l333 35c12.667 0.666992 17.667 -5 15 -17l-154 -607c-3.33301 -12.667 -11.666 -19 -24.999 -19h-247zM181.999 676c-13.333 0 -20 6.66699 -20 20v300c0 14 6.66699 21.333 20 22
l292 35c13.333 0.666992 20 -5.33301 20 -18v-339c0 -13.333 -6.66699 -20 -20 -20h-292z" />
    <glyph glyph-name="less" unicode="&#x3c;" horiz-adv-x="1022" 
d="M77 572c-7.33301 4 -12.166 8.16895 -14.499 12.502s-3.5 10.166 -3.5 17.499v293c0 7.33301 1.16699 13.166 3.5 17.499s7.16602 8.5 14.499 12.5l755 413c6.66699 3.33301 11.667 4.33301 15 3s6 -5.33301 8 -12l72 -288c2 -7.33301 2.16699 -13 0.5 -17
s-6.16699 -7.66699 -13.5 -11l-560 -265l560 -266c7.33301 -3.33301 11.833 -7 13.5 -11s1.5 -9.66699 -0.5 -17l-72 -288c-2 -6.66699 -4.66699 -10.667 -8 -12s-8.33301 -0.333008 -15 3z" />
    <glyph glyph-name="equal" unicode="=" horiz-adv-x="1214" 
d="M152 356c-13.333 0 -20 6.66699 -20 20v280c0 13.333 6.66699 20 20 20h910c13.333 0 20 -6.66699 20 -20v-280c0 -13.333 -6.66699 -20 -20 -20h-910zM152 924c-13.333 0 -20 6.66699 -20 20v279c0 13.333 6.66699 20 20 20h910c13.333 0 20 -6.66699 20 -20v-279
c0 -13.333 -6.66699 -20 -20 -20h-910z" />
    <glyph glyph-name="greater" unicode="&#x3e;" horiz-adv-x="1022" 
d="M190 157c-6.66699 -3.33301 -11.667 -4.33496 -15 -3.00195s-6 5.33301 -8 12l-72 288c-2 7.33301 -2.16699 13 -0.5 17s6.16699 7.66699 13.5 11l560 266l-560 265c-7.33301 3.33301 -11.833 7 -13.5 11s-1.5 9.66699 0.5 17l72 288c2 6.66699 4.66699 10.667 8 12
s8.33301 0.333008 15 -3l755 -413c7.33301 -4 12.166 -8.16699 14.499 -12.5s3.5 -10.166 3.5 -17.499v-293c0 -7.33301 -1.16699 -13.166 -3.5 -17.499s-7.16602 -8.5 -14.499 -12.5z" />
    <glyph glyph-name="question" unicode="?" horiz-adv-x="953" 
d="M557 517c0 -7.33301 -3.66504 -11.0029 -10.998 -11.0029h-292c-12.667 0 -20.667 6.33301 -24 19c-2.66699 9.33301 -5.16699 22.166 -7.5 38.499s-3.5 36.166 -3.5 59.499c0 18.667 1.33301 38.167 4 58.5s8.16699 41.333 16.5 63s20.166 43.834 35.499 66.501
s35.666 46 60.999 70l82 75l41.5 40c11.667 11.333 21.334 21.833 29.001 31.5s13.167 19.334 16.5 29.001s5 20.834 5 33.501c0 24.667 -11.167 43.334 -33.5 56.001s-61.833 19 -118.5 19c-38 0 -75.333 -2 -112 -6s-77.334 -9.66699 -122.001 -17
c-13.333 -2 -21 3.66699 -23 17l-45 276c-2 13.333 3.33301 21.666 16 24.999c47.333 14.667 101.333 25.834 162 33.501s124.667 11.5 192 11.5c72.667 0 138.167 -6 196.5 -18s108 -30.833 149 -56.5s72.5 -58.834 94.5 -99.501s33 -89.667 33 -147v-19
c0 -34 -3.16699 -64.5 -9.5 -91.5s-16 -52.667 -29 -77s-29.5 -48.666 -49.5 -72.999s-44 -50.833 -72 -79.5l-94 -99c-19.333 -20 -34.833 -37 -46.5 -51s-20.5 -28.167 -26.5 -42.5s-10 -30.666 -12 -48.999s-3 -42.5 -3 -72.5v-13zM245.002 -0.00292969
c-13.333 0 -20 6.66699 -20 20v300c0 14 6.66699 21.333 20 22l292 35c13.333 0.666992 20 -5.33301 20 -18v-339c0 -13.333 -6.66699 -20 -20 -20h-292z" />
    <glyph glyph-name="at" unicode="@" horiz-adv-x="1925" 
d="M389 528c-8.66699 -64.667 -13.1689 -125.832 -13.502 -183.499s5.66699 -110.667 18 -159s31.833 -91.666 58.5 -129.999s62.834 -71 108.501 -98s101.834 -48 168.501 -63s146 -22.833 238 -23.5c7.33301 0 12.333 -1.5 15 -4.5s3.66699 -8.16699 3 -15.5l-27 -241
c-0.666992 -13.333 -8 -20 -22 -20c-177.333 1.33301 -324.333 21.333 -441 60s-208.167 96.834 -274.5 174.501s-109.833 175.167 -130.5 292.5s-24 255.666 -10 414.999l14 150c14 135.333 46.333 254.166 97 356.499s118 188 202 257s183.167 120.833 297.5 155.5
s241.833 52 382.5 52c264.667 0 461.5 -61.333 590.5 -184s193.5 -301.667 193.5 -537c0 -144 -21 -263.833 -63 -359.5s-104 -172.167 -186 -229.5s-183.833 -97.833 -305.5 -121.5s-262.167 -35.834 -421.5 -36.501h-15c-64.667 0 -119.167 7 -163.5 21
s-79.5 37.833 -105.5 71.5s-43.167 78.5 -51.5 134.5s-8.5 125.667 -0.5 209l14 143c8 80 20.833 147.333 38.5 202s43.167 99 76.5 133s76 58.333 128 73s116.333 22 193 22c59.333 0 119.833 -3.66699 181.5 -11s120.834 -15.333 177.501 -24
c13.333 -2 19.666 -9.66699 18.999 -23l-28 -629c34.667 12.667 64.167 29.667 88.5 51s44.166 48.833 59.499 82.5s26.333 74.5 33 122.5s10 105 10 171c0 75.333 -8.16699 140.5 -24.5 195.5s-44 100.5 -83 136.5s-90.5 62.833 -154.5 80.5s-144 26.5 -240 26.5
c-44.667 0 -89.667 -2.5 -135 -7.5s-89.333 -14.5 -132 -28.5s-83.167 -33.5 -121.5 -58.5s-73.166 -57.667 -104.499 -98s-58.333 -89.333 -81 -147s-39.667 -126.167 -51 -205.5zM957.998 764.002c-15.333 0 -27.668 -3.16602 -37.001 -9.49902s-17 -17 -23 -32
s-10.833 -34.833 -14.5 -59.5s-7.5 -55.334 -11.5 -92.001l-6 -65c-4 -42 -6 -75.167 -6 -99.5s3.33301 -42.5 10 -54.5s17.334 -19.667 32.001 -23s34.667 -5 60 -5c8.66699 0 19.667 0.333008 33 1s25 1.66699 35 3l16 430c-30 4 -59.333 6 -88 6z" />
    <glyph glyph-name="A" unicode="A" horiz-adv-x="1372" 
d="M16 0c-13.333 0 -18.0039 6.33301 -14.0039 19l436 1437c2.66699 7.33301 5.83398 12.333 9.50098 15s9.16699 4 16.5 4h442c7.33301 0 12.833 -1.33301 16.5 -4s6.83398 -7.66699 9.50098 -15l438 -1437c4 -12.667 -0.666992 -19 -14 -19h-345
c-13.333 -0 -21.666 6.33301 -24.999 19l-60 221h-483l-59 -221c-3.33301 -12.667 -11.666 -19 -24.999 -19h-343zM683.996 1135l-158 -588h318z" />
    <glyph glyph-name="B" unicode="B" horiz-adv-x="1367" 
d="M562 -18c-23.333 0 -50.501 0.332031 -81.501 0.999023s-64 1.66699 -99 3s-71 2.83301 -108 4.5s-72.833 3.83398 -107.5 6.50098c-13.333 0.666992 -20 7.66699 -20 21v1437c0 13.333 6.66699 20.333 20 21c28.667 2 60.5 3.83301 95.5 5.5l108 5
c37 1.66699 73.833 2.83398 110.5 3.50098s71 1 103 1c119.333 0 219.666 -6 300.999 -18s147 -32.667 197 -62s86 -68.833 108 -118.5s33 -112.167 33 -187.5c0 -60.667 -11.333 -113.667 -34 -159s-54 -83 -94 -113c29.333 -16 56.333 -35.167 81 -57.5s46 -48.333 64 -78
s32.167 -62.834 42.5 -99.501s15.5 -77 15.5 -121v-35c0 -101.333 -16.333 -182.333 -49 -243s-80.167 -107 -142.5 -139s-139.166 -53 -230.499 -63s-195.666 -15 -312.999 -15zM944.999 450.999c0 29.333 -4.33398 53.168 -13.001 71.501s-21 32.666 -37 42.999
s-35.667 17.333 -59 21s-49.666 5.5 -78.999 5.5h-260v-295c8.66699 -0.666992 19.5 -1.16699 32.5 -1.5l39 -1c13 -0.333008 25.333 -0.666016 37 -0.999023s21.167 -0.5 28.5 -0.5c59.333 0 108.833 1.5 148.5 4.5s71.5 9.16699 95.5 18.5s41.167 23.166 51.5 41.499
s15.5 42.5 15.5 72.5v21zM657.998 1180c-28 0 -53.834 -0.165039 -77.501 -0.498047s-51.5 -1.5 -83.5 -3.5v-283h237c18.667 0.666992 36.334 3.16699 53.001 7.5s31 11.666 43 21.999s21.5 24.166 28.5 41.499s10.5 39.333 10.5 66v14c0 30.667 -4.5 55 -13.5 73
s-22.333 31.667 -40 41s-39.667 15.333 -66 18s-56.833 4 -91.5 4z" />
    <glyph glyph-name="C" unicode="C" horiz-adv-x="1212" 
d="M749 -31c-103.333 0 -195.835 11.335 -277.502 34.002s-150.667 60.834 -207 114.501s-99.333 124.834 -129 213.501s-44.5 199 -44.5 331v153c0 130.667 14.833 240.167 44.5 328.5s72.667 159.333 129 213s125.333 91.834 207 114.501s174.167 34 277.5 34
c36 0 71.833 -1.16699 107.5 -3.5s69.834 -5.83301 102.501 -10.5s63.5 -10.334 92.5 -17.001s54.833 -14.334 77.5 -23.001c7.33301 -2.66699 12.166 -5.83398 14.499 -9.50098s2.83301 -9.16699 1.5 -16.5l-45 -272c-2 -13.333 -9.66699 -18.666 -23 -15.999
c-52 11.333 -104.333 19.166 -157 23.499s-105 6.5 -157 6.5s-98 -5.66699 -138 -17s-73.5 -30.333 -100.5 -57s-47.333 -61.834 -61 -105.501s-20.5 -97.834 -20.5 -162.501v-174c0 -65.333 6.83301 -119.833 20.5 -163.5s33.834 -79 60.501 -106s60 -46.167 100 -57.5
s86.333 -17 139 -17c55.333 0 110.333 1.66699 165 5s109 8.33301 163 15c13.333 2 21 -3.66699 23 -17l39 -279c2 -13.333 -3.33301 -21.333 -16 -24c-23.333 -6 -49.833 -11.333 -79.5 -16s-61.167 -8.66699 -94.5 -12s-68.166 -5.83301 -104.499 -7.5
s-72.833 -2.5 -109.5 -2.5z" />
    <glyph glyph-name="D" unicode="D" horiz-adv-x="1428" 
d="M513 -16c-20.667 0 -44.833 0.330078 -72.5 0.99707s-57 1.5 -88 2.5s-62.5 2.33301 -94.5 4s-62.667 3.83398 -92 6.50098c-13.333 0.666992 -20 8 -20 22v1435c0 13.333 6.66699 20.333 20 21c26 2 54.833 3.83301 86.5 5.5l95.5 5
c32 1.66699 62.5 2.83398 91.5 3.50098s53.5 1 73.5 1c82.667 0 160.667 -3.33301 234 -10s140.666 -19 201.999 -37s116.5 -43.167 165.5 -75.5s90.5 -74.166 124.5 -125.499s60 -113.833 78 -187.5s27 -160.5 27 -260.5v-113c0 -100 -9 -186.833 -27 -260.5
s-44 -136.334 -78 -188.001s-75.5 -93.667 -124.5 -126s-104.167 -57.666 -165.5 -75.999s-128.666 -30.833 -201.999 -37.5s-151.333 -10 -234 -10zM593.001 1180c-14.667 0 -30.832 -0.5 -48.499 -1.5s-33.5 -2.5 -47.5 -4.5v-873c6 -1.33301 14.333 -2.33301 25 -3
s21.834 -1.16699 33.501 -1.5l33.5 -1c10.667 -0.333008 18.667 -0.5 24 -0.5c64.667 0 120.667 5 168 15s86.666 29 117.999 57s54.666 67 69.999 117s23 114.667 23 194v119c0 78.667 -8.16699 142.834 -24.5 192.501s-41 88.667 -74 117s-74.5 47.666 -124.5 57.999
s-108.667 15.5 -176 15.5z" />
    <glyph glyph-name="E" unicode="E" horiz-adv-x="1212" 
d="M168 0c-13.333 0 -20 6.66699 -20 20v1435c0 13.333 6.66699 20 20 20h933c13.333 0 20 -6.66699 20 -20v-288c0 -13.333 -6.66699 -20 -20 -20h-602v-242h457c13.333 0 20 -6.66699 20 -20v-287c0 -13.333 -6.66699 -20 -20 -20h-457v-250h602
c13.333 0 20 -6.66699 20 -20v-288c0 -13.333 -6.66699 -20 -20 -20h-933z" />
    <glyph glyph-name="F" unicode="F" horiz-adv-x="1162" 
d="M168 0c-13.333 0 -20 6.66699 -20 20v1435c0 13.333 6.66699 20 20 20h933c13.333 0 20 -6.66699 20 -20v-288c0 -13.333 -6.66699 -20 -20 -20h-602v-252h463c13.333 0 20 -6.66699 20 -20v-288c0 -13.333 -6.66699 -20 -20 -20h-463v-547
c0 -13.333 -6.66699 -20 -20 -20h-311z" />
    <glyph glyph-name="G" unicode="G" horiz-adv-x="1334" 
d="M717 544c-13.333 0.666992 -19.998 7.66504 -19.998 20.998v242c0 13.333 6.66699 20 20 20h497c13.333 0 20 -6.66699 20 -20v-740c0 -7.33301 -1.33301 -13 -4 -17s-7.66699 -7.33301 -15 -10c-37.333 -14 -75.5 -25.667 -114.5 -35s-78 -16.666 -117 -21.999
s-77.333 -9 -115 -11s-73.5 -3 -107.5 -3c-108.667 0 -204.667 11.333 -288 34s-153.333 60.834 -210 114.501s-99.5 124.834 -128.5 213.501s-43.5 199 -43.5 331v153c0 130.667 14.5 240.167 43.5 328.5s71.833 159.333 128.5 213s126.667 91.834 210 114.501
s179.333 34 288 34c32.667 0 67 -1.16699 103 -3.5s71.333 -5.83301 106 -10.5s67.5 -10.334 98.5 -17.001s58.5 -14.334 82.5 -23.001c7.33301 -2.66699 12.166 -5.83398 14.499 -9.50098s2.83301 -9.16699 1.5 -16.5l-45 -272c-2 -13.333 -9.66699 -19 -23 -17
c-108 18 -216 27 -324 27c-57.333 0 -106.833 -5.5 -148.5 -16.5s-76.167 -29.5 -103.5 -55.5s-47.5 -60.667 -60.5 -104s-19.5 -97.333 -19.5 -162v-174c0 -65.333 6 -119.666 18 -162.999s30.667 -78 56 -104s57.666 -44.333 96.999 -55s86.333 -16 141 -16h64.5
c21.667 0 43.167 0.666992 64.5 2v220z" />
    <glyph glyph-name="H" unicode="H" horiz-adv-x="1524" 
d="M168 0c-13.333 0 -20 6.66699 -20 20v1435c0 13.333 6.66699 20 20 20h311c13.333 0 20 -6.66699 20 -20v-550h528v550c0 13.333 6.66699 20 20 20h310c13.333 0 20 -6.66699 20 -20v-1435c0 -13.333 -6.66699 -20 -20 -20h-310c-13.333 0 -20 6.66699 -20 20v557h-528
v-557c0 -13.333 -6.66699 -20 -20 -20h-311z" />
    <glyph glyph-name="I" unicode="I" horiz-adv-x="647" 
d="M168 0c-13.333 0 -20 6.66699 -20 20v1435c0 13.333 6.66699 20 20 20h311c13.333 0 20 -6.66699 20 -20v-1435c0 -13.333 -6.66699 -20 -20 -20h-311z" />
    <glyph glyph-name="J" unicode="J" horiz-adv-x="646" 
d="M78 -410c-14.667 0 -29.8311 0.329102 -45.498 0.996094s-31.5 1.83398 -47.5 3.50098s-31.5 3.5 -46.5 5.5s-28.833 4.33301 -41.5 7c-13.333 2.66699 -19 10.334 -17 23.001l39 274c1.33301 7.33301 3.66602 12.333 6.99902 15s8.66602 3.66699 15.999 3
c17.333 -2 32.333 -3.16699 45 -3.5s24.667 -0.5 36 -0.5c20.667 0 38.834 1.83301 54.501 5.5s28.667 9.83398 39 18.501s18 20.334 23 35.001s7.5 33.334 7.5 56.001v1422c0 13.333 6.66699 20 20 20h311c13.333 0 20 -6.66699 20 -20v-1455c0 -54 -6 -105.833 -18 -155.5
s-33.5 -93.334 -64.5 -131.001s-73.833 -67.667 -128.5 -90s-124.334 -33.5 -209.001 -33.5z" />
    <glyph glyph-name="K" unicode="K" horiz-adv-x="1376" 
d="M960 0c-7.33301 0 -13.332 1.16699 -17.999 3.5s-9 6.83301 -13 13.5l-348 539l-82 -85v-451c0 -13.333 -6.66699 -20 -20 -20h-311c-13.333 0 -20 6.66699 -20 20v1435c0 13.333 6.66699 20 20 20h311c13.333 0 20 -6.66699 20 -20v-511l396 515
c8 10.667 18.667 16 32 16h429c13.333 0 15.666 -5 6.99902 -15l-529 -625l561 -819c7.33301 -10.667 4.33301 -16 -9 -16h-426z" />
    <glyph glyph-name="L" unicode="L" horiz-adv-x="1064" 
d="M168 0c-13.333 0 -20 6.66699 -20 20v1435c0 13.333 6.66699 20 20 20h311c13.333 0 20 -6.66699 20 -20v-1127h514c13.333 0 20 -6.66699 20 -20v-288c0 -13.333 -6.66699 -20 -20 -20h-845z" />
    <glyph glyph-name="M" unicode="M" horiz-adv-x="1733" 
d="M168 0c-13.333 0 -20.002 6.66699 -20.002 20v1435c0 13.333 6.66699 20 20 20h374c7.33301 0 13.166 -1.16699 17.499 -3.5s8.5 -6.83301 12.5 -13.5l258 -464c12 -22 21.167 -42 27.5 -60s9.5 -27.333 9.5 -28c0 0.666992 3.16699 10 9.5 28s15.5 38 27.5 60l256 464
c4 6.66699 8.16699 11.167 12.5 13.5s10.166 3.5 17.499 3.5h376c13.333 0 20 -6.66699 20 -20v-1435c0 -13.333 -6.66699 -20 -20 -20h-312c-13.333 0 -20 6.66699 -20 20l1 984c-4 -14.667 -9.16699 -30.667 -15.5 -48s-15.833 -39 -28.5 -65l-192 -390
c-3.33301 -7.33301 -7.16602 -12.166 -11.499 -14.499s-10.166 -3.5 -17.499 -3.5h-206c-7.33301 0 -13.166 1.16699 -17.499 3.5s-8.16602 7.16602 -11.499 14.499l-192 390c-12.667 25.333 -22.167 46.833 -28.5 64.5s-11.5 34.167 -15.5 49.5v-985
c0 -13.333 -6.66699 -20 -20 -20h-311z" />
    <glyph glyph-name="N" unicode="N" horiz-adv-x="1520" 
d="M168 0c-13.333 0 -19.999 6.66699 -19.999 20v1435c0 13.333 6.66699 20 20 20h338c7.33301 0 13.166 -1.16699 17.499 -3.5s8.5 -6.83301 12.5 -13.5l439 -751c7.33301 -12.667 13.666 -24.667 18.999 -36l14 -30c4 -8.66699 7 -15.667 9 -21s3.33301 -8 4 -8l1 843
c0 13.333 6.66699 20 20 20h310c13.333 0 20 -6.66699 20 -20v-1435c0 -13.333 -6.66699 -20 -20 -20h-338c-7.33301 0 -13.166 1.16699 -17.499 3.5s-8.5 6.83301 -12.5 13.5l-436 747c-17.333 30 -29.5 54.167 -36.5 72.5s-11.167 27.5 -12.5 27.5v-844
c0 -13.333 -6.66699 -20 -20 -20h-311z" />
    <glyph glyph-name="O" unicode="O" horiz-adv-x="1452" 
d="M725 -31c-100 0 -189.167 11.334 -267.5 34.001s-144.5 60.834 -198.5 114.501s-95 124.834 -123 213.501s-42 199 -42 331v153c0 130.667 14 240 42 328s69 158.833 123 212.5s120.167 92 198.5 115s167.5 34.5 267.5 34.5c100.667 0 190.334 -11.333 269.001 -34
s145 -60.834 199 -114.501s95 -124.834 123 -213.501s42 -198.667 42 -330v-154c0 -131.333 -14 -241 -42 -329s-69 -158.833 -123 -212.5s-120.333 -91.834 -199 -114.501s-168.334 -34 -269.001 -34zM725 1157c-46.667 0 -87.5 -5.49902 -122.5 -16.499
s-64.333 -29.333 -88 -55s-41.334 -59.834 -53.001 -102.501s-17.5 -95.334 -17.5 -158.001v-174c0 -63.333 5.83301 -116.333 17.5 -159s29.334 -77 53.001 -103s53 -44.5 88 -55.5s75.833 -16.5 122.5 -16.5s87.667 5.5 123 16.5s64.833 29.5 88.5 55.5
s41.5 60.333 53.5 103s18 95.667 18 159v172c0 62.667 -6 115.334 -18 158.001s-29.833 77 -53.5 103s-53.167 44.667 -88.5 56s-76.333 17 -123 17z" />
    <glyph glyph-name="P" unicode="P" horiz-adv-x="1370" 
d="M655 1180c-12 0 -24.667 -0.167969 -38 -0.500977l-41 -1c-14 -0.333008 -27.667 -1 -41 -2s-25.666 -1.83301 -36.999 -2.5v-357c11.333 -1.33301 23.666 -2.33301 36.999 -3s27 -1.16699 41 -1.5l41 -1c13.333 -0.333008 26 -0.5 38 -0.5
c62.667 0 113.667 1.66699 153 5s70.166 10.5 92.499 21.5s37.5 26.333 45.5 46s12 46.167 12 79.5v65c0 32.667 -4 59 -12 79s-23.167 35.333 -45.5 46s-53.166 17.834 -92.499 21.501s-90.333 5.5 -153 5.5zM167 -0.000976562c-13.333 0 -20 6.66504 -20 19.998v1437
c0 13.333 6.66699 20.333 20 21c40 2 82 3.83301 126 5.5s87.167 3 129.5 4s83 1.83301 122 2.5s73.833 1 104.5 1c91.333 0 171 -3.16699 239 -9.5s126.5 -16.5 175.5 -30.5s89.5 -32.167 121.5 -54.5s57.333 -49.666 76 -81.999s31.667 -70 39 -113s11 -91.833 11 -146.5
v-119c0 -55.333 -3.66699 -104.5 -11 -147.5s-20.333 -80.667 -39 -113s-44 -59.666 -76 -81.999s-72.5 -40.5 -121.5 -54.5s-107.5 -24 -175.5 -30s-147.667 -9 -239 -9h-38h-42c-14 0 -27.167 0.166992 -39.5 0.5s-22.833 0.833008 -31.5 1.5v-482
c0 -13.333 -6.66699 -20 -20 -20h-311z" />
    <glyph glyph-name="Q" unicode="Q" horiz-adv-x="1452" 
d="M731 -31c-101.333 0 -191.504 11.334 -270.504 34.001s-145.667 60.834 -200 114.501s-95.666 124.834 -123.999 213.501s-42.5 199 -42.5 331v153c0 130.667 14 240 42 328s69 158.833 123 212.5s120.167 92 198.5 115s167.5 34.5 267.5 34.5
c100.667 0 190.334 -11.333 269.001 -34s145 -60.834 199 -114.501s95 -124.834 123 -213.501s42 -198.667 42 -330v-154c0 -87.333 -6.16699 -165 -18.5 -233s-30.5 -127.5 -54.5 -178.5s-53.667 -94 -89 -129s-76 -63.167 -122 -84.5l246 -406
c7.33301 -11.333 4.33301 -17 -9 -17h-373c-7.33301 0 -13.166 1.16699 -17.499 3.5s-8.16602 7.16602 -11.499 14.499zM724.996 1157c-46.667 0 -87.5 -5.49902 -122.5 -16.499s-64.333 -29.333 -88 -55s-41.334 -59.834 -53.001 -102.501s-17.5 -95.334 -17.5 -158.001
v-174c0 -63.333 5.83301 -116.333 17.5 -159s29.334 -77 53.001 -103s53 -44.5 88 -55.5s75.833 -16.5 122.5 -16.5s87.667 5.5 123 16.5s64.833 29.5 88.5 55.5s41.5 60.333 53.5 103s18 95.667 18 159v172c0 62.667 -6 115.334 -18 158.001s-29.833 77 -53.5 103
s-53.167 44.667 -88.5 56s-76.333 17 -123 17z" />
    <glyph glyph-name="R" unicode="R" horiz-adv-x="1401" 
d="M950 0c-7.33301 0 -12.9971 1.16699 -16.9971 3.5s-7.66699 7.16602 -11 14.499l-229 492h-29c-26 0 -52 0.5 -78 1.5s-55.333 2.5 -88 4.5v-496c0 -13.333 -6.66699 -20 -20 -20h-311c-13.333 0 -20 6.66699 -20 20v1435c0 13.333 6.66699 20.333 20 21
c81.333 5.33301 160 9.16602 236 11.499s150.667 3.5 224 3.5c93.333 0 175.166 -3 245.499 -9s130.833 -15.667 181.5 -29s92.667 -30.666 126 -51.999s59.833 -47.833 79.5 -79.5s33.5 -68.667 41.5 -111s12 -90.833 12 -145.5v-133c0 -75.333 -7.5 -138.833 -22.5 -190.5
s-42.5 -94.167 -82.5 -127.5c-38.667 -32 -97.334 -56.667 -176.001 -74l35.5 -57.5c12.333 -20.333 25.166 -43.166 38.499 -68.499l212 -396c6 -12 2.33301 -18 -11 -18h-357zM649.003 1180c-11.333 0 -23.5 -0.165039 -36.5 -0.498047l-39.5 -1
c-13.333 -0.333008 -26.5 -1 -39.5 -2s-24.833 -1.83301 -35.5 -2.5v-347c42.667 -4 96.334 -6 161.001 -6c62 0 112.667 1.5 152 4.5s70 9.66699 92 20s37.167 25.166 45.5 44.499s12.5 45 12.5 77v67c0 32 -4 57.667 -12 77s-23.333 34.166 -46 44.499
s-54.334 17 -95.001 20s-93.667 4.5 -159 4.5z" />
    <glyph glyph-name="S" unicode="S" horiz-adv-x="1231" 
d="M547 -31c-84.667 0 -163.666 4.32812 -236.999 12.9951s-137 20.334 -191 35.001c-12.667 3.33301 -18 11.666 -16 24.999l46 270c2 13.333 9.66699 19 23 17c36.667 -6 70 -11 100 -15s58.667 -7.16699 86 -9.5s54.666 -4.16602 81.999 -5.49902s56.666 -2 87.999 -2
c60.667 0 109.167 1.66699 145.5 5s64.166 9.33301 83.499 18s32.166 20.167 38.499 34.5s9.5 32.166 9.5 53.499c0 14 -3 26.333 -9 37s-17.5 22.167 -34.5 34.5s-40.667 26.333 -71 42l-117.5 58.5l-172 82c-68.667 32.667 -124.334 66.167 -167.001 100.5
s-76 69.333 -100 105s-40.333 71.667 -49 108s-13 72.833 -13 109.5c0 78.667 12.167 144.834 36.5 198.501s61.833 97 112.5 130s115 56.5 193 70.5s170.667 21 278 21c70.667 0 138.334 -3.33301 203.001 -10s124 -18.334 178 -35.001
c12.667 -3.33301 18 -11.666 16 -24.999l-47 -260c-2.66699 -13.333 -10.667 -19 -24 -17c-26 3.33301 -52.667 6.33301 -80 9s-53.666 4.83398 -78.999 6.50098s-49 2.83398 -71 3.50098s-40.333 1 -55 1c-52.667 0 -97.834 -0.833008 -135.501 -2.5
s-68.667 -5.5 -93 -11.5s-42.166 -14.667 -53.499 -26s-17 -26.666 -17 -45.999c0 -15.333 2.83301 -29 8.5 -41s16.667 -24.167 33 -36.5s39 -25.666 68 -39.999s66.833 -31.833 113.5 -52.5l197 -88c62 -28 113.333 -56.167 154 -84.5s72.834 -59 96.501 -92
s40.334 -69.333 50.001 -109s14.5 -84.5 14.5 -134.5c0 -72.667 -9.16699 -136.667 -27.5 -192s-51 -101.833 -98 -139.5s-110.5 -66 -190.5 -85s-182 -28.5 -306 -28.5z" />
    <glyph glyph-name="T" unicode="T" horiz-adv-x="1221" 
d="M455 0c-13.333 0 -20 6.66699 -20 20v1127h-383c-13.333 0 -20 6.66699 -20 20v288c0 13.333 6.66699 20 20 20h1117c13.333 0 20 -6.66699 20 -20v-288c0 -13.333 -6.66699 -20 -20 -20h-384v-1127c0 -13.333 -6.66699 -20 -20 -20h-310z" />
    <glyph glyph-name="U" unicode="U" horiz-adv-x="1500" 
d="M751 -31c-97.333 0 -184.167 9.33301 -260.5 28s-140.833 48.667 -193.5 90s-92.667 95 -120 161s-41 146.333 -41 241v966c0 13.333 6.66699 20 20 20h310c13.333 0 20 -6.66699 20 -20v-886c0 -47.333 4.5 -87.666 13.5 -120.999s24 -60.5 45 -81.5
s48.333 -36.167 82 -45.5s75.167 -14 124.5 -14c47.333 0 87.833 4.66699 121.5 14s61.167 24.5 82.5 45.5s37 48.167 47 81.5s15 73.666 15 120.999v886c0 13.333 6.66699 20 20 20h308c13.333 0 20 -6.66699 20 -20v-966c0 -94.667 -14 -175 -42 -241
s-68.5 -119.667 -121.5 -161s-117.333 -71.333 -193 -90s-161.5 -28 -257.5 -28z" />
    <glyph glyph-name="V" unicode="V" horiz-adv-x="1352" 
d="M675 319h2.00391l296 1137c3.33301 12.667 11.666 19 24.999 19h339c13.333 0 18 -6.33301 14 -19l-429 -1437c-2.66699 -7.33301 -5.83398 -12.333 -9.50098 -15s-9.16699 -4 -16.5 -4h-441c-7.33301 -0 -12.833 1.33301 -16.5 4s-6.83398 7.66699 -9.50098 15
l-426 1437c-4 12.667 0.666992 19 14 19h337c13.333 0 21.666 -6.33301 24.999 -19z" />
    <glyph glyph-name="W" unicode="W" horiz-adv-x="1966" 
d="M329 0c-13.333 0 -21.001 6.66797 -23.001 20.001l-246 1435c-2 13.333 3.66699 20 17 20h354c7.33301 0 12.5 -1.5 15.5 -4.5s5.16699 -8.16699 6.5 -15.5l86 -935l21 -221l3.5 20c2.33301 13.333 5.16602 30.5 8.49902 51.5s7.5 44.5 12.5 70.5l15.5 77l205 937
c2.66699 13.333 10.667 20 24 20h304c13.333 0 21.333 -6.66699 24 -20l209 -931l14.5 -74c5 -26 9.33301 -50.333 13 -73l9 -56l3.5 -22l21 227l84 929c1.33301 7.33301 3.5 12.5 6.5 15.5s8.16699 4.5 15.5 4.5h356c13.333 0 19 -6.66699 17 -20l-246 -1435
c-2 -13.333 -9.66699 -20 -23 -20h-421c-13.333 0 -21.666 6.33301 -24.999 19l-185 751c-3.33301 12 -6.33301 25.167 -9 39.5l-7.5 41.5l-6 35c-1.66699 10 -2.5 16.333 -2.5 19c0 -2 -0.666992 -7.83301 -2 -17.5l-5 -35c-2 -13.667 -4.5 -27.834 -7.5 -42.501l-8.5 -40
l-185 -751c-3.33301 -12.667 -11.666 -19 -24.999 -19h-419z" />
    <glyph glyph-name="X" unicode="X" horiz-adv-x="1372" 
d="M976 0c-7.33301 0 -13.166 1.16699 -17.499 3.5s-8.5 6.83301 -12.5 13.5l-259 467l-261 -467c-4 -6.66699 -8.16699 -11.167 -12.5 -13.5s-10.166 -3.5 -17.499 -3.5h-378c-13.333 0 -16.333 5.66699 -9 17l451 722l-451 719c-7.33301 11.333 -4.33301 17 9 17h378
c7.33301 0 13.166 -1.16699 17.499 -3.5s8.5 -6.83301 12.5 -13.5l260 -453l260 453c4 6.66699 8.16699 11.167 12.5 13.5s10.166 3.5 17.499 3.5h378c13.333 0 16.333 -5.66699 9 -17l-452 -719l452 -722c7.33301 -11.333 4.33301 -17 -9 -17h-378z" />
    <glyph glyph-name="Y" unicode="Y" horiz-adv-x="1268" 
d="M480 0c-13.333 0 -20 6.66699 -20 20v463l-472 974c-6 12 -2.33301 18 11 18h355c7.33301 0 13 -1.16699 17 -3.5s7.66699 -7.16602 11 -14.499l253 -589l253 589c3.33301 7.33301 7 12.166 11 14.499s9.66699 3.5 17 3.5h353c13.333 0 17 -6 11 -18l-470 -974v-463
c0 -13.333 -6.66699 -20 -20 -20h-310z" />
    <glyph glyph-name="Z" unicode="Z" horiz-adv-x="1264" 
d="M98 0c-13.333 0 -20 6.66699 -20 20v267c0 13.333 4 25.333 12 36l660 846h-621c-13.333 0 -20 6.66699 -20 20v266c0 13.333 6.66699 20 20 20h1016c13.333 0 20 -6.66699 20 -20v-266c0 -13.333 -4 -25.333 -12 -36l-659 -846h662c13.333 0 20 -6.66699 20 -20v-267
c0 -13.333 -6.66699 -20 -20 -20h-1058z" />
    <glyph glyph-name="bracketleft" unicode="[" horiz-adv-x="757" 
d="M155 -389c-13.333 0 -20 6.66699 -20 20v1905c0 13.333 6.66699 20 20 20h538c13.333 0 20 -6.66699 20 -20v-287c0 -13.333 -6.66699 -20 -20 -20h-208v-1290h208c13.333 0 20 -6.66699 20 -20v-288c0 -13.333 -6.66699 -20 -20 -20h-538z" />
    <glyph glyph-name="backslash" unicode="\" horiz-adv-x="879" 
d="M475 0c-13.333 0 -21.666 6.33301 -24.999 19l-404 1518c-2.66699 12.667 2.33301 19 15 19h335c13.333 0 21.666 -6.33301 24.999 -19l404 -1518c2.66699 -12.667 -2.33301 -19 -15 -19h-335z" />
    <glyph glyph-name="bracketright" unicode="]" horiz-adv-x="757" 
d="M64 -389c-13.333 0 -20 6.66699 -20 20v288c0 13.333 6.66699 20 20 20h208v1290h-208c-13.333 0 -20 6.66699 -20 20v287c0 13.333 6.66699 20 20 20h538c13.333 0 20 -6.66699 20 -20v-1905c0 -13.333 -6.66699 -20 -20 -20h-538z" />
    <glyph glyph-name="asciicircum" unicode="^" horiz-adv-x="1321" 
d="M262 1117c-14 0 -16.667 5.33301 -8 16l252 324c8 10.667 18.667 16 32 16h247c13.333 0 24 -5.33301 32 -16l252 -324c8.66699 -10.667 6 -16 -8 -16h-224c-13.333 0 -24 5.33301 -32 16l-143 189l-144 -189c-8 -10.667 -18.667 -16 -32 -16h-224z" />
    <glyph glyph-name="underscore" unicode="_" horiz-adv-x="1011" 
d="M39 -389c-13.333 0 -20 6.66699 -20 20v279c0 13.333 6.66699 20 20 20h933c13.333 0 20 -6.66699 20 -20v-279c0 -13.333 -6.66699 -20 -20 -20h-933z" />
    <glyph glyph-name="grave" unicode="`" 
d="M387 1270c-7.33301 0 -13.499 1.16699 -18.499 3.5s-10.167 6.16602 -15.5 11.499l-230 246c-4.66699 4.66699 -6.33398 8.33398 -5.00098 11.001s5 4 11 4h324c7.33301 0 13.333 -1.16699 18 -3.5s9 -6.83301 13 -13.5l164 -242c7.33301 -11.333 4.33301 -17 -9 -17
h-252z" />
    <glyph glyph-name="a" unicode="a" horiz-adv-x="1142" 
d="M553 229c12.667 0 26 0.168945 40 0.501953l41 1c13.333 0.333008 26 1 38 2s22.667 2.16699 32 3.5v182h-79c-54 0 -98.333 -1.33301 -133 -4s-62 -7.83398 -82 -15.501s-33.667 -17.834 -41 -30.501s-11 -29 -11 -49c0 -20.667 5.16699 -37 15.5 -49s24.5 -21 42.5 -27
s38.833 -9.83301 62.5 -11.5s48.5 -2.5 74.5 -2.5zM487 821.002c-21.333 0 -44.502 -0.333008 -69.502 -1s-51 -1.5 -78 -2.5s-54.167 -2.16699 -81.5 -3.5s-53.333 -3 -78 -5c-13.333 -2 -20 4 -20 18v228c0 13.333 6.66699 21 20 23c27.333 4 56.5 7.5 87.5 10.5
s61.833 5.66699 92.5 8s60.334 4.16602 89.001 5.49902s54.334 2 77.001 2c74.667 0 139 -3.66699 193 -11s99.5 -18.5 136.5 -33.5s66.833 -34.167 89.5 -57.5s40.167 -51 52.5 -83s20.5 -68.333 24.5 -109s6 -86 6 -136v-652c0 -13.333 -6.66699 -21 -20 -23
c-38 -4.66699 -77.667 -8.83398 -119 -12.501s-82 -6.83398 -122 -9.50098s-77.833 -4.66699 -113.5 -6s-66.5 -2 -92.5 -2c-87.333 0 -162.833 5.33301 -226.5 16s-116 29 -157 55s-71.333 60.5 -91 103.5s-29.5 96.833 -29.5 161.5c0 46.667 3.16699 87.834 9.5 123.501
s17.5 66.5 33.5 92.5s37.833 47.667 65.5 65s62.667 31.333 105 42s93 18.167 152 22.5s127.833 6.5 206.5 6.5h75v33c0 22.667 -2.83301 42.334 -8.5 59.001s-16.334 30.334 -32.001 41.001s-37.667 18.5 -66 23.5s-65.166 7.5 -110.499 7.5z" />
    <glyph glyph-name="b" unicode="b" horiz-adv-x="1235" 
d="M630 815c-15.333 0 -31.168 -0.168945 -47.501 -0.501953s-32.5 -0.833008 -48.5 -1.5s-31.167 -1.66699 -45.5 -3s-26.5 -3 -36.5 -5v-545c22.667 -2 50.334 -3.5 83.001 -4.5s63.667 -1.5 93 -1.5c42 0 76 4.16699 102 12.5s46.333 22.333 61 42
s24.5 45.334 29.5 77.001s7.5 70.5 7.5 116.5v80c0 44.667 -2.5 81.834 -7.5 111.501s-14.5 53.5 -28.5 71.5s-34 30.833 -60 38.5s-60 11.5 -102 11.5zM621.998 -31.002c-78.667 0 -158.499 2.83398 -239.499 8.50098s-161.833 13.167 -242.5 22.5
c-13.333 0.666992 -20 8 -20 22v1560c0 14 6.66699 21.333 20 22l292 36c13.333 0.666992 20 -5.33301 20 -18v-541c33.333 5.33301 67.666 9.83301 102.999 13.5s78 5.5 128 5.5c84.667 0 156.5 -8.33301 215.5 -25s107 -44.167 144 -82.5s63.833 -88.5 80.5 -150.5
s25 -138 25 -228v-159c0 -89.333 -8.5 -164.833 -25.5 -226.5s-45.833 -111.834 -86.5 -150.501s-94.667 -66.5 -162 -83.5s-151.333 -25.5 -252 -25.5z" />
    <glyph glyph-name="c" unicode="c" horiz-adv-x="962" 
d="M612 -31c-102 0 -186.997 10.002 -254.997 30.002s-122.167 50.5 -162.5 91.5s-68.833 93.167 -85.5 156.5s-25 138.666 -25 225.999v125c0 86.667 8.33301 161.5 25 224.5s45.167 115 85.5 156s94.5 71.5 162.5 91.5s153 30 255 30c50 0 97 -2.33301 141 -7
s84 -10.667 120 -18c13.333 -2.66699 19.666 -10.667 18.999 -24l-14 -236c-0.666992 -7.33301 -2.5 -12.333 -5.5 -15s-8.16699 -3.66699 -15.5 -3c-36.667 3.33301 -74 5.83301 -112 7.5s-78.667 2.5 -122 2.5c-46 0 -82.5 -3.83301 -109.5 -11.5s-47.5 -20.667 -61.5 -39
s-23.167 -42.5 -27.5 -72.5s-6.5 -67 -6.5 -111v-77c0 -44 2 -81 6 -111s13 -54.167 27 -72.5s34.667 -31.333 62 -39s64 -11.5 110 -11.5c43.333 0 84 1.16699 122 3.5s75.333 5.16602 112 8.49902c7.33301 0.666992 12.5 -0.333008 15.5 -3s4.83301 -7.66699 5.5 -15
l14 -236c0.666992 -13.333 -5.66602 -21.333 -18.999 -24c-17.333 -4 -36.333 -7.5 -57 -10.5s-42.334 -5.83301 -65.001 -8.5s-45.834 -4.66699 -69.501 -6s-46.834 -2 -69.501 -2z" />
    <glyph glyph-name="d" unicode="d" horiz-adv-x="1234" 
d="M604 815c-42 0 -76.0029 -3.83203 -102.003 -11.499s-46 -20.667 -60 -39s-23.5 -42.5 -28.5 -72.5s-7.5 -67.333 -7.5 -112v-72c0 -48 2.5 -88.333 7.5 -121s14.833 -58.834 29.5 -78.501s35 -33.667 61 -42s60 -12.5 102 -12.5c29.333 0 60.333 0.5 93 1.5
s60.334 2.5 83.001 4.5v545c-10 2 -22.667 3.66699 -38 5s-31.166 2.33301 -47.499 3s-32.666 1.16699 -48.999 1.5s-30.833 0.5 -43.5 0.5zM611.997 -30.999c-100.667 0 -184.666 8.49902 -251.999 25.499s-121.333 44.833 -162 83.5s-69.5 89.334 -86.5 152.001
s-25.5 139.667 -25.5 231v153c0 90 8.16699 166 24.5 228s44.166 112.167 83.499 150.5s91.5 65.833 156.5 82.5s146.167 25 243.5 25c32.667 0 65.5 -1.83301 98.5 -5.5s62.833 -8.16699 89.5 -13.5v501c0 14 6.66699 21.333 20 22l292 36
c13.333 0.666992 20 -5.33301 20 -18v-1600c0 -14 -6.66699 -21.333 -20 -22c-80.667 -9.33301 -161.5 -16.833 -242.5 -22.5s-160.833 -8.5 -239.5 -8.5z" />
    <glyph glyph-name="e" unicode="e" horiz-adv-x="1172" 
d="M597 -31c-93.333 0 -172.502 9.83203 -237.502 29.499s-118 50 -159 91s-70.833 93.333 -89.5 157s-28 139.834 -28 228.501v115c0 88.667 9.33301 165 28 229s48.334 116.833 89.001 158.5s93.334 72.5 158.001 92.5s143 30 235 30c92.667 0 171.5 -10 236.5 -30
s117.833 -51 158.5 -93s70.334 -95.5 89.001 -160.5s28 -142.5 28 -232.5c0 -40 -2.83301 -76.833 -8.5 -110.5s-10.5 -58.834 -14.5 -75.501c-2.66699 -11.333 -9.66699 -17 -21 -17l-645 -2c4.66699 -28 12 -50.333 22 -67s23.167 -29.5 39.5 -38.5
s36.5 -14.833 60.5 -17.5s52 -4 84 -4c60.667 0 121.5 1 182.5 3s125.833 5.33301 194.5 10c13.333 0.666992 20.333 -5.66602 21 -18.999l14 -226c0.666992 -13.333 -5.66602 -21 -18.999 -23c-66.667 -8 -134.334 -14.667 -203.001 -20s-140.334 -8 -215.001 -8z
M805.998 630.999c-6.66699 38 -15 69 -25 93s-23 42.833 -39 56.5s-36 23.167 -60 28.5s-53.667 8 -89 8c-36 0 -65.667 -3.33301 -89 -10s-41.833 -18 -55.5 -34s-23.5 -37 -29.5 -63s-9.33301 -58.333 -10 -97z" />
    <glyph glyph-name="f" unicode="f" horiz-adv-x="800" 
d="M223 0c-13.333 0 -19.998 6.66602 -19.998 19.999v746l-138 31c-13.333 2.66699 -20 10.667 -20 24v230c0 13.333 6.66699 20 20 20h138v160c0 74 6.5 137.167 19.5 189.5s36.333 94.833 70 127.5s79.167 56.5 136.5 71.5s130.666 22.5 219.999 22.5
c18.667 0 37.5 -0.666992 56.5 -2s37.5 -3 55.5 -5s34.833 -4.33301 50.5 -7l41.5 -7c7.33301 -2 12.333 -4.66699 15 -8s3.66699 -8.66602 3 -15.999l-14 -238c-0.666992 -13.333 -7.66699 -19.666 -21 -18.999c-19.333 1.33301 -41.333 2.16602 -66 2.49902
s-48 0.5 -70 0.5c-38 0 -68 -2 -90 -6s-38.5 -10.667 -49.5 -20s-18 -21.5 -21 -36.5s-4.5 -33.5 -4.5 -55.5v-154h215c13.333 0 19.666 -6.66699 18.999 -20l-16 -265c-0.666992 -13.333 -7.66699 -20 -21 -20h-197v-746c0 -13.333 -6.66699 -20 -20 -20h-292z" />
    <glyph glyph-name="g" unicode="g" horiz-adv-x="1233" 
d="M606 819c-42.667 0 -76.999 -4.16797 -102.999 -12.501s-46.167 -22.166 -60.5 -41.499s-24 -44.5 -29 -75.5s-7.5 -69.167 -7.5 -114.5v-71c0 -43.333 2.16699 -80 6.5 -110s13.5 -54.167 27.5 -72.5s34 -31.5 60 -39.5s60.667 -12 104 -12c14 0 29.167 0.333008 45.5 1
s32.666 1.5 48.999 2.5s31.833 2.33301 46.5 4s27 3.5 37 5.5v532c-22.667 1.33301 -50.167 2.33301 -82.5 3s-63.5 1 -93.5 1zM502.001 -481.001c-50.667 0 -100.671 2.16895 -150.004 6.50195s-95.666 10.166 -138.999 17.499c-13.333 2.66699 -19.666 10.667 -18.999 24
l14 225c0.666992 13.333 7.66699 19 21 17c18.667 -2.66699 38.667 -5 60 -7s42.333 -3.5 63 -4.5s40.334 -1.66699 59.001 -2s34.667 -0.5 48 -0.5c68.667 0 124.167 3.33301 166.5 10s75.166 18 98.499 34s38.833 37 46.5 63s11.5 58.667 11.5 98
c-23.333 -6 -50.166 -10.833 -80.499 -14.5s-68.166 -5.5 -113.499 -5.5c-94 0 -173 8.5 -237 25.5s-115.667 44.667 -155 83s-67.5 88.5 -84.5 150.5s-25.5 138 -25.5 228v151c0 88.667 8.33301 163.667 25 225s45.334 111 86.001 149s94.667 65.5 162 82.5
s151.666 25.5 252.999 25.5c38.667 0 79.167 -0.833008 121.5 -2.5s84.333 -3.83398 126 -6.50098s82.5 -5.66699 122.5 -9s77.333 -7 112 -11c13.333 -0.666992 20 -8 20 -22v-1035c0 -99.333 -13.333 -181 -40 -245s-66 -114.5 -118 -151.5s-116 -62.667 -192 -77
s-163.333 -21.5 -262 -21.5z" />
    <glyph glyph-name="h" unicode="h" horiz-adv-x="1256" 
d="M830 0c-13.333 0 -20 6.66895 -20 20.002v543c0 36.667 -2.16699 68.667 -6.5 96s-13.166 50 -26.499 68s-32.333 31.333 -57 40s-57.334 13 -98.001 13c-30 0 -60.167 -2.33301 -90.5 -7s-56.833 -11.334 -79.5 -20.001v-733c0 -13.333 -6.66699 -20 -20 -20h-292
c-13.333 0 -20 6.66699 -20 20v1562c0 14 6.66699 21.333 20 22l292 36c13.333 0.666992 20 -5.33301 20 -18v-599c38 23.333 82.167 42 132.5 56s105.833 21 166.5 21c63.333 0 119.333 -8.33301 168 -25s89.5 -43.834 122.5 -81.501s58 -87 75 -148
s25.5 -135.833 25.5 -224.5v-601c0 -13.333 -6.66699 -20 -20 -20h-292z" />
    <glyph glyph-name="i" unicode="i" horiz-adv-x="584" 
d="M146 0c-13.333 0 -20 6.66699 -20 20v1031c0 13.333 6.66699 20 20 20h292c13.333 0 20 -6.66699 20 -20v-1031c0 -13.333 -6.66699 -20 -20 -20h-292zM146 1219c-13.333 0 -20 6.66699 -20 20v287c0 14 6.66699 21.333 20 22l292 37c13.333 0.666992 20 -5.33301 20 -18
v-328c0 -13.333 -6.66699 -20 -20 -20h-292z" />
    <glyph glyph-name="j" unicode="j" horiz-adv-x="584" 
d="M34 -481c-30 0 -62 1.33105 -96 3.99805s-63.667 6.33398 -89 11.001c-13.333 2 -19 9.66699 -17 23l33 233c2 13.333 9.66699 19 23 17c16 -1.33301 33.5 -2.66602 52.5 -3.99902s37.167 -2 54.5 -2c28.667 0 51.667 1.83301 69 5.5s30.5 9.66699 39.5 18
s15 19.833 18 34.5s4.5 33 4.5 55v1137c0 13.333 6.66699 20 20 20h292c13.333 0 20 -6.66699 20 -20v-1137c0 -69.333 -6.5 -128.833 -19.5 -178.5s-35.5 -90.5 -67.5 -122.5s-75.333 -55.667 -130 -71s-123.667 -23 -207 -23zM146 1219c-13.333 0 -20 6.66699 -20 20v287
c0 14 6.66699 21.333 20 22l292 37c13.333 0.666992 20 -5.33301 20 -18v-328c0 -13.333 -6.66699 -20 -20 -20h-292z" />
    <glyph glyph-name="k" unicode="k" horiz-adv-x="1239" 
d="M829 0c-7.33301 0 -13.165 1.16797 -17.498 3.50098s-8.16602 7.16602 -11.499 14.499l-233 444l-115 -102v-340c0 -13.333 -6.66699 -20 -20 -20h-292c-13.333 0 -20 6.66699 -20 20v1562c0 14 6.66699 21.333 20 22l292 36c13.333 0.666992 20 -5.33301 20 -18v-879
l330 314c9.33301 9.33301 20.666 14 33.999 14h408c13.333 0 15 -4.33301 5 -13l-414 -372l414 -667c3.33301 -5.33301 4.16602 -9.83301 2.49902 -13.5s-5.83398 -5.5 -12.501 -5.5h-390z" />
    <glyph glyph-name="l" unicode="l" horiz-adv-x="598" 
d="M153 0c-13.333 0 -20 6.66699 -20 20v1562c0 14 6.66699 21.333 20 22l292 36c13.333 0.666992 20 -5.33301 20 -18v-1602c0 -13.333 -6.66699 -20 -20 -20h-292z" />
    <glyph glyph-name="m" unicode="m" horiz-adv-x="1802" 
d="M140 0c-13.333 0 -19.9971 6.66602 -19.9971 19.999v1050c0 13.333 6.66699 20 20 20h230c7.33301 0 13.166 -1.16699 17.499 -3.5s8.16602 -7.16602 11.499 -14.499l28 -53c36.667 25.333 79.5 45.166 128.5 59.499s99.833 21.5 152.5 21.5
c58.667 0 109.167 -7 151.5 -21s78.5 -36.667 108.5 -68c42 28.667 88.667 50.667 140 66s106.333 23 165 23c75.333 0 139.333 -10 192 -30s95.667 -50.667 129 -92s57.5 -94 72.5 -158s22.5 -140 22.5 -228v-572c0 -13.333 -6.66699 -20 -20 -20h-288
c-13.333 0 -20 6.66699 -20 20v531c0 48 -2.5 87.167 -7.5 117.5s-14 54.333 -27 72s-30.833 29.667 -53.5 36s-51.334 9.5 -86.001 9.5c-19.333 0 -40.333 -2.5 -63 -7.5s-43.667 -12.167 -63 -21.5c1.33301 -18 2.5 -36.5 3.5 -55.5s1.5 -39.167 1.5 -60.5v-621
c0 -13.333 -6.66699 -20 -20 -20h-284c-13.333 0 -20 6.66699 -20 20v574c0 32 -1.83301 59.833 -5.5 83.5s-10.667 43.334 -21 59.001s-24.833 27.5 -43.5 35.5s-43 12 -73 12c-26 0 -52.833 -3 -80.5 -9s-51.167 -14.333 -70.5 -25v-730c0 -13.333 -6.66699 -20 -20 -20
h-288z" />
    <glyph glyph-name="n" unicode="n" horiz-adv-x="1256" 
d="M830 0c-13.333 0 -20.001 6.66602 -20.001 19.999v543c0 36.667 -2.16699 68.667 -6.5 96s-13.166 50 -26.499 68s-32.333 31.333 -57 40s-57.334 13 -98.001 13c-13.333 0 -27.5 -0.666992 -42.5 -2s-30 -3.16602 -45 -5.49902s-29.5 -5.16602 -43.5 -8.49902
s-27 -7 -39 -11v-733c0 -13.333 -6.66699 -20 -20 -20h-292c-13.333 0 -20 6.66699 -20 20v1050c0 13.333 6.66699 20 20 20h230c7.33301 0 13.166 -1.16699 17.499 -3.5s8.5 -6.83301 12.5 -13.5l31 -57c40 25.333 87.333 45.666 142 60.999s115.334 23 182.001 23
c62.667 0 118.167 -8.33301 166.5 -25s88.833 -43.5 121.5 -80.5s57.334 -85.333 74.001 -145s25 -132.5 25 -218.5v-611c0 -13.333 -6.66699 -20 -20 -20h-292z" />
    <glyph glyph-name="o" unicode="o" horiz-adv-x="1188" 
d="M593 817c-38.667 0 -69.999 -3.66797 -93.999 -11.001s-42.667 -20.166 -56 -38.499s-22.333 -42.833 -27 -73.5s-7 -69.334 -7 -116.001v-86c0 -46 2.5 -84.5 7.5 -115.5s14.333 -55.667 28 -74s32.5 -31.333 56.5 -39s54.667 -11.5 92 -11.5c38 0 69 3.83301 93 11.5
s42.833 20.834 56.5 39.501s23.167 43.5 28.5 74.5s8 69.833 8 116.5v84c0 46.667 -2.33301 85.334 -7 116.001s-13.834 55.167 -27.501 73.5s-32.667 31.166 -57 38.499s-55.833 11 -94.5 11zM593.001 -31.001c-92 0 -170.333 9.83301 -235 29.5
s-117.334 50.334 -158.001 92.001s-70.334 94.834 -89.001 159.501s-28 141.667 -28 231v105c0 89.333 9.33301 166.333 28 231s48.334 118 89.001 160s93.334 73 158.001 93s143 30 235 30c92.667 0 171.5 -10 236.5 -30s117.833 -51 158.5 -93s70.334 -95.333 89.001 -160
s28 -141.667 28 -231v-105c0 -89.333 -9.33301 -166.333 -28 -231s-48.334 -117.834 -89.001 -159.501s-93.5 -72.334 -158.5 -92.001s-143.833 -29.5 -236.5 -29.5z" />
    <glyph glyph-name="p" unicode="p" horiz-adv-x="1234" 
d="M619 815c-11.333 0 -24.833 -0.166016 -40.5 -0.499023s-31.5 -0.833008 -47.5 -1.5s-31 -1.66699 -45 -3s-25.333 -3 -34 -5v-545c22.667 -2 48.167 -3.5 76.5 -4.5s61.5 -1.5 99.5 -1.5c42 0 76 4.16699 102 12.5s46.333 22.166 61 41.499s24.5 45 29.5 77
s7.5 71.667 7.5 119v71c0 46 -2.66699 84.5 -8 115.5s-15.5 55.667 -30.5 74s-36.167 31.333 -63.5 39s-63 11.5 -107 11.5zM140 -452.999c-13.333 0 -19.999 6.66797 -19.999 20.001v1482c0 14 6.66699 21.333 20 22c80.667 8.66699 161.5 15.667 242.5 21
s160.833 8 239.5 8c100.667 0 184.667 -8.33301 252 -25s121.333 -43.834 162 -81.501s69.5 -87.167 86.5 -148.5s25.5 -137 25.5 -227v-151c0 -92.667 -8.5 -170.834 -25.5 -234.501s-45.5 -115 -85.5 -154s-92.833 -67 -158.5 -84s-147.167 -25.5 -244.5 -25.5
c-33.333 0 -65.333 1.83301 -96 5.5s-59.334 8.83398 -86.001 15.501v-423c0 -13.333 -6.66699 -20 -20 -20h-292z" />
    <glyph glyph-name="q" unicode="q" horiz-adv-x="1234" 
d="M615 815c-44 0 -79.667 -3.83398 -107 -11.501s-48.5 -20.667 -63.5 -39s-25 -43 -30 -74s-7.5 -69.5 -7.5 -115.5v-71c0 -47.333 2.5 -87 7.5 -119s14.833 -57.667 29.5 -77s35 -33.166 61 -41.499s60 -12.5 102 -12.5c38 0 71.167 0.5 99.5 1.5s53.833 2.5 76.5 4.5
v545c-10 2 -21.833 3.66699 -35.5 5s-28 2.33301 -43 3s-30.333 1.16699 -46 1.5s-30.167 0.5 -43.5 0.5zM803 -453.001c-13.333 0 -19.999 6.66895 -19.999 20.002v423c-26.667 -6.66699 -55.334 -11.834 -86.001 -15.501s-62.667 -5.5 -96 -5.5
c-97.333 0 -178.833 8.33301 -244.5 25s-118.5 44.167 -158.5 82.5s-68.5 88.666 -85.5 150.999s-25.5 138.833 -25.5 229.5v161c0 90 8.5 165.667 25.5 227s45.833 110.833 86.5 148.5s95.167 64.834 163.5 81.501s153.833 25 256.5 25c38 0 77.833 -0.833008 119.5 -2.5
s83.167 -3.83398 124.5 -6.50098s81.833 -5.66699 121.5 -9s76.5 -7 110.5 -11c13.333 -0.666992 20 -8 20 -22v-1482c0 -13.333 -6.66699 -20 -20 -20h-292z" />
    <glyph glyph-name="r" unicode="r" horiz-adv-x="824" 
d="M140 0c-13.333 0 -19.998 6.66699 -19.998 20v1050c0 13.333 6.66699 20 20 20h230c7.33301 0 13.166 -1.16699 17.499 -3.5s8.5 -7.16602 12.5 -14.499l32 -59c20 18.667 42.667 33.667 68 45s51.5 20.166 78.5 26.499s53.333 10.5 79 12.5s48.5 3 68.5 3
c10 0 19.167 -0.333008 27.5 -1s15.833 -1.66699 22.5 -3c13.333 -2 19.666 -9.66699 18.999 -23l-17 -297c-0.666992 -14 -7.66699 -20 -21 -18c-8 0.666992 -16 1.16699 -24 1.5s-17 0.5 -27 0.5c-52 0 -98.333 -2.33301 -139 -7s-79 -12.667 -115 -24v-709
c0 -13.333 -6.66699 -20 -20 -20h-292z" />
    <glyph glyph-name="s" unicode="s" horiz-adv-x="1024" 
d="M469 -31c-19.333 0 -43.168 0.664062 -71.501 1.99707s-58.5 3.16602 -90.5 5.49902s-64.5 5.33301 -97.5 9s-63.5 7.83398 -91.5 12.501c-13.333 2.66699 -19.666 10.667 -18.999 24l13 237c0.666992 7.33301 2.5 12.333 5.5 15s8.16699 3.66699 15.5 3
c33.333 -4 64.166 -7.33301 92.499 -10s54.833 -4.83398 79.5 -6.50098s48.334 -2.83398 71.001 -3.50098s45.334 -1 68.001 -1c37.333 0 68.166 0.666992 92.499 2s43.5 3.83301 57.5 7.5s23.667 8.66699 29 15s8 14.5 8 24.5c0 6 -0.833008 11.667 -2.5 17
s-6.16699 10.833 -13.5 16.5s-19 11.834 -35 18.501s-38 14.667 -66 24l-186 59c-52 16.667 -94.5 35.5 -127.5 56.5s-58.667 45 -77 72s-30.833 57.5 -37.5 91.5s-10 72.667 -10 116c0 66.667 11 121.167 33 163.5s53.833 75.333 95.5 99s92.334 39.834 152.001 48.501
s127.167 13 202.5 13c58.667 0 114.667 -2.66699 168 -8s102.666 -11.333 147.999 -18c13.333 -2 19.666 -9.66699 18.999 -23l-14 -236c-0.666992 -7.33301 -2.5 -12.333 -5.5 -15s-8.16699 -3.66699 -15.5 -3c-22.667 2 -46.5 4 -71.5 6s-49.333 3.83301 -73 5.5
s-45.667 2.83398 -66 3.50098s-37.166 1 -50.499 1c-39.333 0 -71.333 -0.666992 -96 -2s-44 -3.66602 -58 -6.99902s-23.5 -8 -28.5 -14s-7.5 -14 -7.5 -24c0 -6.66699 0.833008 -12.667 2.5 -18s6.5 -10.833 14.5 -16.5s20.333 -11.667 37 -18s40 -14.166 70 -23.499
l164 -49c54 -16 98.167 -33 132.5 -51s61.5 -39.667 81.5 -65s33.833 -55.333 41.5 -90s11.5 -76 11.5 -124c0 -74.667 -11.667 -134.5 -35 -179.5s-56.5 -79.5 -99.5 -103.5s-95 -39.833 -156 -47.5s-128.833 -11.5 -203.5 -11.5z" />
    <glyph glyph-name="t" unicode="t" horiz-adv-x="868" 
d="M530 -31c-53.333 0 -99.667 4.99512 -139 14.9951s-72 28.167 -98 54.5s-45.5 62.833 -58.5 109.5s-19.5 106.667 -19.5 180v448l-158 29c-13.333 2.66699 -20 10.667 -20 24v222c0 13.333 6.66699 20 20 20h158v191c0 14 6.66699 21.333 20 22l292 37
c13.333 0.666992 20 -5.33301 20 -18v-232h269c13.333 0 19 -6.66699 17 -20l-35 -255c-2 -13.333 -9.66699 -20 -23 -20h-228v-430c0 -18.667 1.83301 -33.667 5.5 -45s9.5 -20 17.5 -26s18.667 -10 32 -12s29.666 -3 48.999 -3c6.66699 0 14.334 0.166992 23.001 0.5l27 1
c9.33301 0.333008 18.5 0.833008 27.5 1.5s17.5 1.33398 25.5 2.00098c13.333 0.666992 20.333 -5.66602 21 -18.999l14 -226c0.666992 -14 -5.33301 -22.333 -18 -25c-15.333 -3.33301 -32.333 -6.66602 -51 -9.99902s-38.5 -6.16602 -59.5 -8.49902
s-42.5 -4.16602 -64.5 -5.49902s-44 -2 -66 -2z" />
    <glyph glyph-name="u" unicode="u" horiz-adv-x="1237" 
d="M634 -31c-106 0 -192.833 8.66602 -260.5 25.999s-120.667 45.5 -159 84.5s-64.833 90.333 -79.5 154s-22 141.5 -22 233.5v584c0 13.333 6.66699 20 20 20h291c13.333 0 20 -6.66699 20 -20v-562c0 -42 2.33301 -77.167 7 -105.5s14 -51.166 28 -68.499
s33.333 -29.833 58 -37.5s57 -11.5 97 -11.5c23.333 0 49.333 0.833008 78 2.5s53.667 5.16699 75 10.5v772c0 13.333 6.66699 20 20 20h292c13.333 0 20 -6.66699 20 -20v-996c0 -14 -6.33301 -22.333 -19 -25c-28.667 -8 -62 -15.667 -100 -23
s-77.833 -13.833 -119.5 -19.5s-83.667 -10.167 -126 -13.5s-82.5 -5 -120.5 -5z" />
    <glyph glyph-name="v" unicode="v" horiz-adv-x="1137" 
d="M354 0c-7.33301 0 -12.8291 1.33301 -16.4961 4s-6.83398 7.66699 -9.50098 15l-320 1033c-4 12.667 0.666992 19 14 19h329c13.333 0 21.666 -6.33301 24.999 -19l191 -773l194 773c3.33301 12.667 11.666 19 24.999 19h329c13.333 0 18 -6.33301 14 -19l-322 -1033
c-2.66699 -7.33301 -5.83398 -12.333 -9.50098 -15s-9.16699 -4 -16.5 -4h-427z" />
    <glyph glyph-name="w" unicode="w" horiz-adv-x="1738" 
d="M293 0c-13.333 0 -21.3271 6.66602 -23.9941 19.999l-227 1031c-2.66699 13.333 2.66602 20 15.999 20h316c13.333 0 21 -6.66699 23 -20l100 -637c1.33301 -5.33301 2.5 -12.833 3.5 -22.5s1.83301 -17.167 2.5 -22.5c1.33301 -10 2.83301 -22.167 4.5 -36.5
s3.5 -28.333 5.5 -42l5 -34.5c1.33301 -9.33301 2.33301 -14 3 -14s1.83398 4.16699 3.50098 12.5s3.66699 19 6 32s5.33301 28.167 9 45.5s7.83398 35 12.501 53l171 667c3.33301 12.667 11.666 19 24.999 19h243c13.333 0 21.666 -6.33301 24.999 -19l169 -671
c4 -16.667 7.66699 -33.167 11 -49.5l9 -44.5c2.66699 -13.333 5 -24.166 7 -32.499s3.33301 -12.5 4 -12.5s1.66699 4.66699 3 14l5 33.5c2 13 3.83301 26.333 5.5 40l4.5 35.5l6 44l102 642c2 13.333 9.66699 20 23 20h316c13.333 0 18.666 -6.66699 15.999 -20
l-230 -1031c-2.66699 -13.333 -10.667 -20 -24 -20h-394c-7.33301 -0 -12.833 1.33301 -16.5 4s-6.83398 7.66699 -9.50098 15l-125 397c-4 12 -7.66699 25.833 -11 41.5s-6.33301 30.5 -9 44.5s-4.66699 25.667 -6 35s-2.33301 14 -3 14s-1.83398 -4.83301 -3.50098 -14.5
s-3.83398 -21.5 -6.50098 -35.5s-5.66699 -28.667 -9 -44s-7 -29 -11 -41l-125 -397c-2.66699 -7.33301 -5.83398 -12.333 -9.50098 -15s-9.16699 -4 -16.5 -4h-395z" />
    <glyph glyph-name="x" unicode="x" horiz-adv-x="1186" 
d="M799 0c-7.33301 0 -13.166 1.16699 -17.499 3.5s-8.5 6.83301 -12.5 13.5l-176 314l-176 -314c-4 -6.66699 -8.16699 -11.167 -12.5 -13.5s-10.166 -3.5 -17.499 -3.5h-354c-13.333 0 -16.333 5.66699 -9 17l347 521l-347 516c-7.33301 11.333 -4.33301 17 9 17h354
c7.33301 0 13.166 -1.16699 17.499 -3.5s8.5 -6.83301 12.5 -13.5l176 -312l176 312c4 6.66699 8.16699 11.167 12.5 13.5s10.166 3.5 17.499 3.5h354c13.333 0 16.333 -5.66699 9 -17l-348 -516l348 -521c7.33301 -11.333 4.33301 -17 -9 -17h-354z" />
    <glyph glyph-name="y" unicode="y" horiz-adv-x="1123" 
d="M181 -481c-22.667 0 -48.0029 1.33398 -76.0029 4.00098s-52.667 6 -74 10c-13.333 2.66699 -19 10.334 -17 23.001l31 238c1.33301 7.33301 3.66602 12.333 6.99902 15s8.66602 3.66699 15.999 3c15.333 -2 31.5 -3.66699 48.5 -5s33.167 -2 48.5 -2
c50 0 92 3.16699 126 9.5s62.667 17 86 32s42.833 35 58.5 60s30.5 56.167 44.5 93.5l-14.5 6.5c-9.66699 4.33301 -22.667 15.333 -39 33s-35.166 44 -56.499 79s-44 83.5 -68 145.5l-306 788c-4.66699 12.667 -0.333984 19 12.999 19h337
c7.33301 0 12.833 -1.33301 16.5 -4s6.83398 -7.66699 9.50098 -15l155 -487l61 -189l150 675c2.66699 13.333 10.667 20 24 20h337c13.333 0 18 -6.33301 14 -19l-346 -1134c-15.333 -49.333 -31.666 -93.333 -48.999 -132s-37.166 -72.834 -59.499 -102.501
s-47.833 -54.834 -76.5 -75.501s-62.167 -37.667 -100.5 -51s-82.166 -23 -131.499 -29s-105.666 -9 -168.999 -9z" />
    <glyph glyph-name="z" unicode="z" horiz-adv-x="1096" 
d="M118 776c-13.333 0 -20 6.66602 -20 19.999v255c0 13.333 6.66699 20 20 20h859c13.333 0 20 -6.66699 20 -20v-224c0 -11.333 -1.66699 -20.166 -5 -26.499s-9 -13.833 -17 -22.5l-473 -481h486c13.333 0 20 -6.66699 20 -20v-257c0 -13.333 -6.66699 -20 -20 -20h-880
c-13.333 0 -20 6.66699 -20 20v219c0 22.667 7.66699 41.667 23 57l466 480h-459z" />
    <glyph glyph-name="braceleft" unicode="{" horiz-adv-x="815" 
d="M629 -389c-52.667 0 -100.168 0.99707 -142.501 2.99707s-79.666 7.33301 -111.999 16s-60 21.834 -83 39.501s-41.833 42 -56.5 73s-25.334 70 -32.001 117s-10 104.167 -10 171.5v174c0 26.667 -1.5 49.834 -4.5 69.501s-8.83301 36.667 -17.5 51
s-20.334 26.333 -35.001 36s-34 17.834 -58 24.501c-7.33301 2 -12.333 4.83301 -15 8.5s-4 9.5 -4 17.5v261c0 8 1.33301 13.833 4 17.5s7.66699 6.5 15 8.5c24 6.66699 43.333 15 58 25s26.334 22 35.001 36s14.5 30.833 17.5 50.5s4.5 43.167 4.5 70.5v174
c0 67.333 3.33301 124.333 10 171s17.334 85.667 32.001 117s33.5 55.833 56.5 73.5s50.5 30.834 82.5 39.501s69 14 111 16s89.333 3 142 3h123c13.333 0 20 -6.66699 20 -20v-288c0 -13.333 -6.66699 -20 -20 -20h-123c-19.333 0 -34.666 -1.66699 -45.999 -5
s-19.833 -8.33301 -25.5 -15s-9.16699 -15.167 -10.5 -25.5s-2 -22.5 -2 -36.5v-184c0 -50 -2.83301 -91.333 -8.5 -124s-15 -60.667 -28 -84s-30 -43.833 -51 -61.5s-47.167 -35.834 -78.5 -54.501v-29c31.333 -18.667 57.5 -36.667 78.5 -54s38 -37.666 51 -60.999
s22.333 -51.333 28 -84s8.5 -73.334 8.5 -122.001v-187c0 -14 0.666992 -26.167 2 -36.5s4.83301 -18.833 10.5 -25.5s14.167 -11.5 25.5 -14.5s26.666 -4.5 45.999 -4.5h123c13.333 0 20 -6.66699 20 -20v-288c0 -13.333 -6.66699 -20 -20 -20h-121v0z" />
    <glyph glyph-name="bar" unicode="|" horiz-adv-x="622" 
d="M156 -389c-13.333 0 -20 6.66699 -20 20v1824c0 13.333 6.66699 20 20 20h310c13.333 0 20 -6.66699 20 -20v-1824c0 -13.333 -6.66699 -20 -20 -20h-310z" />
    <glyph glyph-name="braceright" unicode="}" horiz-adv-x="817" 
d="M67 -389c-13.333 0 -20.001 6.66992 -20.001 20.0029v288c0 13.333 6.66699 20 20 20h123c19.333 0 34.666 1.5 45.999 4.5s19.833 7.83301 25.5 14.5s9.16699 15.167 10.5 25.5s2 22.5 2 36.5v187c0 48.667 2.83301 89.334 8.5 122.001s15 60.667 28 84
s30 43.666 51 60.999s47.167 35.333 78.5 54v29c-31.333 18.667 -57.5 36.834 -78.5 54.501s-38 38.167 -51 61.5s-22.333 51.333 -28 84s-8.5 74 -8.5 124v184c0 14 -0.666992 26.167 -2 36.5s-4.83301 18.833 -10.5 25.5s-14.167 11.667 -25.5 15s-26.666 5 -45.999 5
h-123c-13.333 0 -20 6.66699 -20 20v288c0 13.333 6.66699 20 20 20h123c52.667 0 100 -1 142 -3s79 -7.33301 111 -16s59.5 -21.834 82.5 -39.501s41.833 -42.167 56.5 -73.5s25.334 -70.333 32.001 -117s10 -103.667 10 -171v-174c0 -27.333 1.5 -50.833 4.5 -70.5
s8.83301 -36.5 17.5 -50.5s20.334 -26 35.001 -36s34 -18.333 58 -25c7.33301 -2 12.333 -4.83301 15 -8.5s4 -9.5 4 -17.5v-261c0 -8 -1.33301 -13.833 -4 -17.5s-7.66699 -6.5 -15 -8.5c-24 -6.66699 -43.333 -14.834 -58 -24.501s-26.334 -21.667 -35.001 -36
s-14.5 -31.333 -17.5 -51s-4.5 -42.834 -4.5 -69.501v-174c0 -67.333 -3.33301 -124.5 -10 -171.5s-17.334 -86 -32.001 -117s-33.5 -55.333 -56.5 -73s-50.667 -30.834 -83 -39.501s-69.666 -14 -111.999 -16s-89.833 -3 -142.5 -3h-121z" />
    <glyph glyph-name="asciitilde" unicode="~" horiz-adv-x="1147" 
d="M128 512c-13.333 0 -20.001 6.66699 -20.001 20v76c0 65.333 7.66699 117.5 23 156.5s35.333 69 60 90s52.167 34.667 82.5 41s60.5 9.5 90.5 9.5c18 0 34.667 -1 50 -3s30.333 -5.33301 45 -10s29.167 -10.334 43.5 -17.001s29.166 -15 44.499 -25l65 -41
c33.333 -20.667 60.166 -36 80.499 -46s38.5 -15 54.5 -15c10.667 0 20 1.33301 28 4s14.833 8.66699 20.5 18s9.83398 22.833 12.501 40.5s4.33398 41.834 5.00098 72.501c0 13.333 6.66699 20 20 20h195c13.333 0 20 -6.66699 20 -20v-76
c0 -64.667 -7.66699 -116.5 -23 -155.5s-35.166 -69.167 -59.499 -90.5s-51.833 -35.5 -82.5 -42.5s-61 -10.5 -91 -10.5c-18 0 -34.5 1 -49.5 3s-29.667 5.33301 -44 10s-28.666 10.5 -42.999 17.5s-29.5 15.167 -45.5 24.5l-65 43c-34 20.667 -61 36.167 -81 46.5
s-38 15.5 -54 15.5c-11.333 0 -21 -1.33301 -29 -4s-14.667 -8.66699 -20 -18s-9.33301 -23 -12 -41s-4.33398 -42.333 -5.00098 -73c0 -13.333 -6.66699 -20 -20 -20h-196z" />
    <glyph glyph-name="uni007F" horiz-adv-x="0" 
 />
    <glyph glyph-name="uni00A0" unicode="&#xa0;" horiz-adv-x="508" 
 />
    <glyph glyph-name="exclamdown" unicode="&#xa1;" horiz-adv-x="616" 
d="M444 460c13.333 0 20 -6.66699 20 -20l21 -821c0 -14 -6.66699 -21.333 -20 -22l-313 -37c-13.333 -0.666992 -20 5.33301 -20 18l21 862c0 13.333 6.66699 20 20 20h271zM463 1074c13.333 0 20 -6.66699 20 -20v-300c0 -14 -6.66699 -21.333 -20 -22l-292 -35
c-13.333 -0.666992 -20 5.33301 -20 18v339c0 13.333 6.66699 20 20 20h292z" />
    <glyph glyph-name="cent" unicode="&#xa2;" horiz-adv-x="962" 
d="M515 -246c-13.333 0 -20.0029 6.66992 -20.0029 20.0029v198c-82.667 5.33301 -151.167 19 -205.5 41s-97.666 54 -129.999 96s-55 95 -68 159s-19.5 140.667 -19.5 230v131c0 88.667 6.5 165 19.5 229s35.667 117 68 159s75.666 74 129.999 96s122.833 35.667 205.5 41
v198c0 13.333 6.66699 20 20 20h137c13.333 0 20 -6.66699 20 -20v-197c36 -1.33301 70.167 -3.33301 102.5 -6s61.833 -6.33398 88.5 -11.001c13.333 -2 19 -9.66699 17 -23l-33 -255c-2 -13.333 -9.66699 -19.666 -23 -18.999l-76 6c-25.333 2 -50.666 3.66699 -75.999 5
v-600c25.333 0 50 0.666992 74 2s47.667 3.66602 71 6.99902c13.333 2 21 -3.66699 23 -17l40 -233c2 -12.667 -3.66699 -20.334 -17 -23.001c-25.333 -4.66699 -54.666 -8.33398 -87.999 -11.001s-67.666 -4.66699 -102.999 -6v-197c0 -13.333 -6.66699 -20 -20 -20h-137z
M394.997 502.003c0 -36 1 -67.667 3 -95s6.5 -50.5 13.5 -69.5s17.167 -34.667 30.5 -47s31 -21.5 53 -27.5v577c-22 -7.33301 -39.5 -17.5 -52.5 -30.5s-23 -29.333 -30 -49s-11.667 -42.5 -14 -68.5s-3.5 -55.333 -3.5 -88v-102z" />
    <glyph glyph-name="sterling" unicode="&#xa3;" horiz-adv-x="1178" 
d="M102 578c-13.333 0 -20 6.66699 -20 20v287c0 13.333 6.66699 20 20 20h113v78c0 53.333 2 102.666 6 147.999s12.167 86.166 24.5 122.499s30 68.333 53 96s53.667 50.834 92 69.501s85.333 32.667 141 42s122.167 14 199.5 14h308c13.333 0 20 -6.66699 20 -20v-288
c0 -13.333 -6.66699 -20 -20 -20h-308c-40 0 -71.167 -3.33301 -93.5 -10s-38.833 -16.5 -49.5 -29.5s-17.167 -29 -19.5 -48s-3.5 -41.167 -3.5 -66.5v-88h382c13.333 0 19 -6.66699 17 -20l-48 -287c-2 -13.333 -9.66699 -20 -23 -20h-328v-66c0 -42 -2 -77.833 -6 -107.5
s-10.333 -55.167 -19 -76.5h550c13.333 0 20 -6.66699 20 -20v-288c0 -13.333 -6.66699 -20 -20 -20h-988c-13.333 0 -20 6.66699 -20 20v285c0 8 1.33301 13.833 4 17.5s7.66699 6.5 15 8.5c24 6.66699 43.333 14.834 58 24.501s26.167 21.5 34.5 35.5s14 30.833 17 50.5
s4.5 43.167 4.5 70.5v66h-113z" />
    <glyph glyph-name="currency" unicode="&#xa4;" horiz-adv-x="1285" 
d="M82 1036c-9.33301 9.33301 -9.33301 18.665 0 27.998l199 198c9.33301 9.33301 18.666 9.33301 27.999 0l126 -127c60.667 24 131 36 211 36s149 -11.333 207 -34l125 125c9.33301 9.33301 18.666 9.33301 27.999 0l195 -198c9.33301 -9.33301 9.33301 -18.666 0 -27.999
l-140 -141c15.333 -56 23 -120.333 23 -193c0 -73.333 -7.66699 -138.666 -23 -195.999l140 -140c9.33301 -9.33301 9.33301 -18.666 0 -27.999l-195 -197c-9.33301 -9.33301 -18.666 -9.33301 -27.999 0l-125 122c-58 -22.667 -127 -34 -207 -34
c-81.333 0 -152 12.333 -212 37l-125 -125c-9.33301 -9.33301 -18.666 -9.33301 -27.999 0l-197 199c-9.33301 9.33301 -9.33301 18.666 0 27.999l141 141c-16 54.667 -24 119 -24 193c0 70.667 7.66699 134 23 190zM486 701.999c0 -35.333 4.33301 -64.166 13 -86.499
s20.5 -39.833 35.5 -52.5s32 -21.334 51 -26.001s39.167 -7 60.5 -7c20 0 39.333 2.33301 58 7s35 13.334 49 26.001s25.167 30.167 33.5 52.5s12.5 51.166 12.5 86.499c0 34.667 -4.16699 63.167 -12.5 85.5s-19.5 39.833 -33.5 52.5s-30.333 21.5 -49 26.5
s-38 7.5 -58 7.5c-21.333 0 -41.5 -2.5 -60.5 -7.5s-36 -13.833 -51 -26.5s-26.833 -30.167 -35.5 -52.5s-13 -50.833 -13 -85.5z" />
    <glyph glyph-name="yen" unicode="&#xa5;" horiz-adv-x="1406" 
d="M893 510l-13 -27v-102h341c13.333 0 19 -6.66699 17 -20l-23 -136c-2 -13.333 -9.66699 -20 -23 -20h-312v-185c0 -13.333 -6.66699 -20 -20 -20h-310c-13.333 0 -20 6.66699 -20 20v185h-344c-13.333 0 -19 6.66699 -17 20l23 136c2 13.333 9.66699 20 23 20h315v102
l-13 27h-331c-13.333 0 -19 6.66699 -17 20l23 136c2 13.333 9.66699 20 23 20h216l-373 771c-6 12 -2.33301 18 11 18h355c7.33301 0 13 -1.16699 17 -3.5s7.66699 -7.16602 11 -14.499l253 -589l253 589c3.33301 7.33301 7 12.166 11 14.499s9.66699 3.5 17 3.5h353
c13.333 0 17 -6 11 -18l-372 -771h243c13.333 0 19 -6.66699 17 -20l-23 -136c-2 -13.333 -9.66699 -20 -23 -20h-299z" />
    <glyph glyph-name="brokenbar" unicode="&#xa6;" horiz-adv-x="634" 
d="M182 707c-13.333 0 -20.3311 6.66699 -20.998 20l-18 728c-0.666992 13.333 5.66602 20 18.999 20h310c13.333 0 19.666 -6.66699 18.999 -20l-18 -728c-0.666992 -13.333 -7.66699 -20 -21 -20h-270zM162.002 -389c-13.333 0 -19.668 6.66699 -19.001 20l18 728
c0.666992 13.333 7.66699 20 21 20h270c13.333 0 20.333 -6.66699 21 -20l18 -728c0.666992 -13.333 -5.66602 -20 -18.999 -20h-310z" />
    <glyph glyph-name="section" unicode="&#xa7;" horiz-adv-x="1125" 
d="M490 -453c-30 0 -61.3311 1.00781 -93.998 3.00781s-65.334 5 -98.001 9s-64 8.66699 -94 14s-57.333 11.666 -82 18.999c-12.667 3.33301 -18 11.666 -16 24.999l45 282c2 13.333 9.66699 19 23 17c28.667 -4.66699 55.834 -8.83398 81.501 -12.501
s50.834 -6.83398 75.501 -9.50098s49.334 -4.83398 74.001 -6.50098s50.334 -2.5 77.001 -2.5c42.667 0 76.667 1.33301 102 4s44.666 6.66699 57.999 12s22.166 11.833 26.499 19.5s6.5 16.5 6.5 26.5s-1.33301 18.833 -4 26.5s-9.33398 16 -20.001 25
s-26.5 19.667 -47.5 32s-49.833 27.833 -86.5 46.5l-162 83c-52 26.667 -95.333 53.667 -130 81s-62.334 56.666 -83.001 87.999s-35.334 65.333 -44.001 102s-13 78 -13 124c0 62.667 7 116.667 21 162s35.333 84 64 116c-30 36 -51.667 75.5 -65 118.5s-20 91.5 -20 145.5
c0 77.333 11.333 142.166 34 194.499s57.167 94.333 103.5 126s104.833 54.167 175.5 67.5s154 20 250 20c22 0 46.5 -0.666992 73.5 -2s54.833 -3.66602 83.5 -6.99902s57.334 -7.83301 86.001 -13.5s55.334 -12.834 80.001 -21.501
c7.33301 -2.66699 12.166 -5.83398 14.499 -9.50098s2.83301 -9.16699 1.5 -16.5l-45 -270c-2 -13.333 -9.66699 -19 -23 -17c-45.333 7.33301 -90.833 12.333 -136.5 15s-85.834 4 -120.501 4c-40.667 0 -74.167 -1.83301 -100.5 -5.5s-47 -8.83398 -62 -15.501
s-25.333 -14.667 -31 -24s-8.5 -19.666 -8.5 -30.999c0 -8.66699 1.5 -16.5 4.5 -23.5s9.83301 -14.667 20.5 -23s26.5 -18.333 47.5 -30s49.167 -26.5 84.5 -44.5l178 -91c50 -25.333 91.333 -51.5 124 -78.5s58.667 -55.833 78 -86.5s32.833 -63.334 40.5 -98.001
s11.5 -72.667 11.5 -114c0 -60 -6.33301 -113.667 -19 -161s-35 -88.666 -67 -123.999c30 -36 51.833 -75.167 65.5 -117.5s20.5 -88.5 20.5 -138.5c0 -66.667 -8.33301 -125.667 -25 -177s-46.167 -94.5 -88.5 -129.5s-99.5 -61.667 -171.5 -80s-163.333 -27.5 -274 -27.5z
M695.002 448.008c0 20.667 -1.5 38.333 -4.5 53s-10.333 28.5 -22 41.5s-29.334 26.333 -53.001 40s-56.5 29.834 -98.5 48.501l-65 29c-5.33301 -11.333 -8.83301 -22.333 -10.5 -33s-2.5 -18.667 -2.5 -24c0 -22 1.33301 -40.333 4 -55s9.83398 -28.5 21.501 -41.5
s29.5 -26.333 53.5 -40s57 -29.834 99 -48.501l67 -31c4.66699 12 7.66699 23.667 9 35s2 20 2 26z" />
    <glyph glyph-name="dieresis" unicode="&#xa8;" 
d="M20 1219c-13.333 0 -20 6.66699 -20 20v287c0 13.333 6.66699 21 20 23l282 35c13.333 2 20 -3.66699 20 -17v-328c0 -13.333 -6.66699 -20 -20 -20h-282zM477 1219c-13.333 0 -20 6.66699 -20 20v287c0 13.333 6.66699 21 20 23l281 35c13.333 2 20 -3.66699 20 -17
v-328c0 -13.333 -6.66699 -20 -20 -20h-281z" />
    <glyph glyph-name="copyright" unicode="&#xa9;" horiz-adv-x="1532" 
d="M805 338c-68 0 -125.501 6.83008 -172.501 20.4971s-85.167 34.834 -114.5 63.501s-50.666 64.834 -63.999 108.501s-20 95.5 -20 155.5v98c0 60.667 6.66699 113 20 157s34.666 80.333 63.999 109s67.5 50 114.5 64s104.5 21 172.5 21c34 0 68.167 -2 102.5 -6
s65.166 -8.66699 92.499 -14c14 -3.33301 20 -11.666 18 -24.999l-25 -243c-0.666992 -13.333 -8 -19.666 -22 -18.999c-26 2 -50.167 3.5 -72.5 4.5s-46.166 1.5 -71.499 1.5c-15.333 0 -28.166 -2.33301 -38.499 -7s-18.5 -10.834 -24.5 -18.501
s-10.333 -16.167 -13 -25.5s-4 -19 -4 -29v-33c0 -10 1.33301 -20 4 -30s7 -18.833 13 -26.5s14.167 -13.834 24.5 -18.501s23.166 -7 38.499 -7c28 0 53 0.5 75 1.5s45 2.16699 69 3.5c14 0.666992 21.333 -5.66602 22 -18.999l25 -244c2 -13.333 -3.66699 -21.333 -17 -24
c-25.333 -5.33301 -55.666 -9.83301 -90.999 -13.5s-70.333 -5.5 -105 -5.5zM306.999 736.997c0 -82 7.33301 -154.167 22 -216.5s39.667 -114.5 75 -156.5s82.333 -73.5 141 -94.5s132.334 -31.5 221.001 -31.5s162.334 10.5 221.001 31.5s105.667 52.5 141 94.5
s60.333 94.167 75 156.5s22 134.5 22 216.5s-7.33301 154 -22 216s-39.667 114 -75 156s-82.333 73.5 -141 94.5s-132.334 31.5 -221.001 31.5s-162.334 -10.5 -221.001 -31.5s-105.667 -52.5 -141 -94.5s-60.333 -94 -75 -156s-22 -134 -22 -216zM1460 736.997
c0 -116.667 -13 -220.834 -39 -312.501s-66.833 -169 -122.5 -232s-127.334 -111.167 -215.001 -144.5s-193.5 -50 -317.5 -50s-229.833 16.667 -317.5 50s-159.5 81.5 -215.5 144.5s-96.833 140.333 -122.5 232s-38.5 195.834 -38.5 312.501
c0 116 12.833 219.833 38.5 311.5s66.5 169 122.5 232s127.833 111.167 215.5 144.5s193.5 50 317.5 50s229.833 -16.667 317.5 -50s159.334 -81.5 215.001 -144.5s96.5 -140.333 122.5 -232s39 -195.5 39 -311.5z" />
    <glyph glyph-name="ordfeminine" unicode="&#xaa;" horiz-adv-x="1001" 
d="M476 897c14 0 28.332 0.332031 42.999 0.999023s28.334 1.66699 41.001 3v98h-27c-25.333 0 -46.333 -0.833008 -63 -2.5s-29.667 -4.5 -39 -8.5s-15.833 -9.5 -19.5 -16.5s-5.5 -15.5 -5.5 -25.5c0 -12 1.83301 -21.167 5.5 -27.5s8.83398 -11.166 15.501 -14.499
s14.167 -5.33301 22.5 -6s17.166 -1 26.499 -1zM430.999 1268c-14 0 -29.8311 -0.165039 -47.498 -0.498047s-36 -0.833008 -55 -1.5s-38.333 -1.5 -58 -2.5s-38.167 -1.83301 -55.5 -2.5c-13.333 -0.666992 -20 5.66602 -20 18.999v181c0 13.333 6.66699 21.333 20 24
c20 3.33301 41.167 6.16602 63.5 8.49902s44.666 4.33301 66.999 6s43.833 3 64.5 4s39.334 1.5 56.001 1.5c84.667 0 152.167 -6.83301 202.5 -20.5s88.666 -34.5 114.999 -62.5s43.333 -62.833 51 -104.5s11.5 -90.5 11.5 -146.5v-436c0 -14 -6.66699 -21.333 -20 -22
c-29.333 -3.33301 -60 -6.33301 -92 -9l-93.5 -8c-30.333 -2.66699 -59 -4.66699 -86 -6s-50.5 -2 -70.5 -2c-63.333 0 -118 4 -164 12s-83.667 21.333 -113 40s-51 43.5 -65 74.5s-21 69.5 -21 115.5c0 49.333 5.66699 90.5 17 123.5s32.333 59.5 63 79.5
s72.667 34.167 126 42.5s122 12.5 206 12.5h27v14c0 10 -1.83301 19.167 -5.5 27.5s-10.167 15.333 -19.5 21s-22.333 10 -39 13s-38.334 4.5 -65.001 4.5zM133.001 342.001c-13.333 0 -20 6.66699 -20 20v198c0 13.333 6.66699 20 20 20h738c13.333 0 20 -6.66699 20 -20
v-198c0 -13.333 -6.66699 -20 -20 -20h-738z" />
    <glyph glyph-name="guillemotleft" unicode="&#xab;" horiz-adv-x="1449" 
d="M361 136c-13.333 0 -24 5.33203 -32 15.999l-290 367c-8 10.667 -8 21.334 0 32.001l290 368c8 10.667 18.667 16 32 16h365c13.333 0 15.666 -5 6.99902 -15l-320 -385l320 -384c8.66699 -10 6.33398 -15 -6.99902 -15h-365zM986 135.999
c-13.333 0 -24 5.33203 -32 15.999l-290 367c-8 10.667 -8 21.334 0 32.001l290 368c8 10.667 18.667 16 32 16h365c13.333 0 15.666 -5 6.99902 -15l-320 -385l320 -384c8.66699 -10 6.33398 -15 -6.99902 -15h-365z" />
    <glyph glyph-name="logicalnot" unicode="&#xac;" horiz-adv-x="1203" 
d="M94 705c-13.333 0 -20 6.66699 -20 20v279c0 13.333 6.66699 20 20 20h927c13.333 0 20 -6.66699 20 -20v-728c0 -13.333 -6.66699 -20 -20 -20h-279c-13.333 0 -20 6.66699 -20 20v429h-628z" />
    <glyph glyph-name="uni00AD" unicode="&#xad;" horiz-adv-x="764" 
d="M142 403c-13.333 0 -20 6.66699 -20 20v280c0 13.333 6.66699 20 20 20h480c13.333 0 20 -6.66699 20 -20v-280c0 -13.333 -6.66699 -20 -20 -20h-480z" />
    <glyph glyph-name="registered" unicode="&#xae;" horiz-adv-x="1298" 
d="M1218 979c0 -97.333 -11.167 -183.666 -33.5 -258.999s-56.833 -138.833 -103.5 -190.5s-105.834 -91 -177.501 -118s-156.5 -40.5 -254.5 -40.5s-182.667 13.5 -254 40.5s-130.333 66.333 -177 118s-81.334 115.167 -104.001 190.5s-34 161.666 -34 258.999
c0 96.667 11.333 182.5 34 257.5s57.334 138.167 104.001 189.5s105.667 90.333 177 117s156 40 254 40s182.833 -13.333 254.5 -40s130.834 -65.667 177.501 -117s81.167 -114.5 103.5 -189.5s33.5 -160.833 33.5 -257.5zM289 979c0 -66.667 6.33301 -124.5 19 -173.5
s33.167 -89.667 61.5 -122s65.333 -56.333 111 -72s101.834 -23.5 168.501 -23.5s123 7.83301 169 23.5s83.167 39.667 111.5 72s48.666 73 60.999 122s18.5 106.833 18.5 173.5c0 66 -6.16699 123.333 -18.5 172s-32.666 89.167 -60.999 121.5s-65.5 56.333 -111.5 72
s-102.333 23.5 -169 23.5s-122.834 -7.83301 -168.501 -23.5s-82.667 -39.667 -111 -72s-48.833 -72.833 -61.5 -121.5s-19 -106 -19 -172zM747 684c-7.33301 0 -12.832 1.33008 -16.499 3.99707s-6.83398 7.66699 -9.50098 15l-62 192h-18h-18.5
c-11.667 0 -23.167 0.666992 -34.5 2v-193c0 -13.333 -6.66699 -20 -20 -20h-116c-13.333 0 -20 6.66699 -20 20v552c0 13.333 6.66699 20.333 20 21c30 1.33301 59.833 2.5 89.5 3.5s57.167 1.5 82.5 1.5c62 0 110.333 -4 145 -12s60.5 -19.667 77.5 -35
s27.5 -34.333 31.5 -57s6 -48.667 6 -78v-31c0 -15.333 -0.833008 -30.166 -2.5 -44.499s-5.16699 -28 -10.5 -41s-13.5 -25 -24.5 -36s-25.5 -20.5 -43.5 -28.5l87 -186c3.33301 -7.33301 4.66602 -13.166 3.99902 -17.499s-3.66699 -9.16602 -9 -14.499l-3 -3
c-9.33301 -9.33301 -20.666 -14 -33.999 -14h-101zM653.001 1133c-6 0 -15.5 -0.167969 -28.5 -0.500977s-25.167 -1.16602 -36.5 -2.49902v-102c4 -0.666992 9.5 -1.16699 16.5 -1.5s14.167 -0.5 21.5 -0.5h20.5h14.5c25.333 0 43 3 53 9s15 16.667 15 32v25
c0 14 -5.16699 24.333 -15.5 31s-30.5 10 -60.5 10z" />
    <glyph glyph-name="macron" unicode="&#xaf;" 
d="M112 1268c-13.333 0 -20 6.66699 -20 20v197c0 13.333 6.66699 20 20 20h554c13.333 0 20 -6.66699 20 -20v-197c0 -13.333 -6.66699 -20 -20 -20h-554z" />
    <glyph glyph-name="degree" unicode="&#xb0;" horiz-adv-x="887" 
d="M444 1255c-9.33301 0 -19.833 -1.16797 -31.5 -3.50098s-22.5 -6.66602 -32.5 -12.999s-18.5 -15.5 -25.5 -27.5s-10.5 -27.333 -10.5 -46v-26c0 -19.333 3.5 -34.833 10.5 -46.5s15.5 -20.667 25.5 -27s20.833 -10.666 32.5 -12.999s22.167 -3.5 31.5 -3.5
s19.666 1 30.999 3s22 6.16699 32 12.5s18.5 15.5 25.5 27.5s10.5 27.667 10.5 47v26c0 18.667 -3.5 34 -10.5 46s-15.5 21.167 -25.5 27.5s-20.667 10.666 -32 12.999s-21.666 3.5 -30.999 3.5zM444 800.999c-57.333 0 -109 6.83301 -155 20.5s-85 33.667 -117 60
s-56.667 59.166 -74 98.499s-26 84.666 -26 135.999v70c0 52 8.5 98 25.5 138s41.5 73.333 73.5 100s71 46.834 117 60.501s98 20.5 156 20.5c57.333 0 109 -6.83301 155 -20.5s85 -33.834 117 -60.501s56.5 -60 73.5 -100s25.5 -86 25.5 -138v-70
c0 -51.333 -8.66699 -96.666 -26 -135.999s-42 -72.166 -74 -98.499s-71 -46.333 -117 -60s-97.333 -20.5 -154 -20.5z" />
    <glyph glyph-name="plusminus" unicode="&#xb1;" horiz-adv-x="1191" 
d="M120 813c-13.333 0 -20 6.66699 -20 20v280c0 13.333 6.66699 20 20 20h316v320c0 13.333 6.66699 20 20 20h279c13.333 0 20 -6.66699 20 -20v-320h316c13.333 0 20 -6.66699 20 -20v-280c0 -13.333 -6.66699 -20 -20 -20h-316v-312c0 -13.333 -6.66699 -20 -20 -20
h-279c-13.333 0 -20 6.66699 -20 20v312h-316zM140 0c-13.333 0 -20 6.66699 -20 20v279c0 13.333 6.66699 20 20 20h911c13.333 0 20 -6.66699 20 -20v-279c0 -13.333 -6.66699 -20 -20 -20h-911z" />
    <glyph glyph-name="twosuperior" unicode="&#xb2;" horiz-adv-x="865" 
d="M114 600c-13.333 0 -20.001 6.66797 -20.001 20.001v95c0 47.333 3.16699 87 9.5 119s17.166 60.5 32.499 85.5s35.833 48.667 61.5 71s57.834 47.166 96.501 74.499l123 88l24 18c6 4.66699 10.5 8.83398 13.5 12.501s5 7.16699 6 10.5s1.5 7.33301 1.5 12
c0 10.667 -9 19.167 -27 25.5s-45 9.5 -81 9.5c-9.33301 0 -20.833 -0.166992 -34.5 -0.5s-28.667 -0.833008 -45 -1.5s-33.333 -1.83398 -51 -3.50098s-35.167 -3.5 -52.5 -5.5c-13.333 -2 -21 3.66699 -23 17l-35 204c-2 13.333 3.33301 21.666 16 24.999
c44.667 12 89.5 19.833 134.5 23.5s84.5 5.5 118.5 5.5c80 0 145 -7.5 195 -22.5s88.833 -34.667 116.5 -59s46.5 -52.333 56.5 -84s15 -64.5 15 -98.5c0 -32 -3 -60.5 -9 -85.5s-15.667 -48.333 -29 -70s-30.833 -42.5 -52.5 -62.5s-48.5 -40.333 -80.5 -61l-59 -39
c-17.333 -11.333 -31.5 -21.333 -42.5 -30s-19.667 -16.167 -26 -22.5s-11.166 -11.666 -14.499 -15.999l-8 -10.5h291c13.333 0 20 -6.66699 20 -20v-204c0 -13.333 -6.66699 -20 -20 -20h-621z" />
    <glyph glyph-name="threesuperior" unicode="&#xb3;" horiz-adv-x="837" 
d="M385 580c-52 0 -101.168 1.50391 -147.501 4.50391s-87.5 7.16699 -123.5 12.5c-13.333 2 -19.666 9.66699 -18.999 23l14 212c0.666992 13.333 7.66699 19.666 21 18.999c45.333 -2.66699 86.333 -4.16699 123 -4.5s71 -0.5 103 -0.5c34 0 59.5 3.16699 76.5 9.5
s25.5 18.833 25.5 37.5v18c0 17.333 -6.16699 29.5 -18.5 36.5s-37.5 10.5 -75.5 10.5h-107c-13.333 0 -20 6.66699 -20 20v145c0 13.333 6.66699 20 20 20h99c20.667 0 37.5 0.666992 50.5 2s23.333 3.83301 31 7.5s13 8.66699 16 15s4.5 14.833 4.5 25.5
c0 19.333 -8.16699 31.5 -24.5 36.5s-42.166 7.5 -77.499 7.5c-38 0 -75.5 -0.166992 -112.5 -0.5s-72.833 -1.16602 -107.5 -2.49902c-13.333 -0.666992 -20.333 5.66602 -21 18.999l-14 212c-0.666992 13.333 5.66602 21 18.999 23c34 4.66699 72.833 8.66699 116.5 12
s90.5 5 140.5 5c118.667 0 209.667 -18.333 273 -55s95 -96 95 -178v-19c0 -52 -13.333 -93.833 -40 -125.5s-65 -54.5 -115 -68.5c21.333 -9.33301 41.5 -19.833 60.5 -31.5s35.5 -25.834 49.5 -42.501s25 -36.334 33 -59.001s12 -49.334 12 -80.001v-15
c0 -50 -8 -91.167 -24 -123.5s-39.167 -58 -69.5 -77s-67.833 -32.167 -112.5 -39.5s-96 -11 -154 -11z" />
    <glyph glyph-name="acute" unicode="&#xb4;" 
d="M139 1270c-13.333 0 -16.332 5.66699 -8.99902 17l164 242c4 6.66699 8.33301 11.167 13 13.5s10.667 3.5 18 3.5h325c6 0 9.66699 -1.33301 11 -4s-0.333984 -6.33398 -5.00098 -11.001l-230 -246c-5.33301 -5.33301 -10.5 -9.16602 -15.5 -11.499
s-11.167 -3.5 -18.5 -3.5h-253z" />
    <glyph glyph-name="mu" unicode="&#xb5;" horiz-adv-x="1332" 
d="M158 -389c-13.333 0 -19.9971 6.66895 -19.9971 20.002v1420c0 13.333 6.66699 20 20 20h292c13.333 0 20 -6.66699 20 -20v-514c0 -52.667 4.33301 -95.834 13 -129.501s21.667 -60 39 -79s39.5 -32 66.5 -39s58.5 -10.5 94.5 -10.5h39c14 0 28.167 0.5 42.5 1.5
s28.166 2.16699 41.499 3.5s25.666 3.66602 36.999 6.99902v760c0 13.333 6.66699 20 20 20h291c13.333 0 20 -6.66699 20 -20v-994c0 -14 -6.33301 -22.667 -19 -26c-29.333 -8 -63.5 -15.667 -102.5 -23s-80 -14 -123 -20s-86.5 -10.667 -130.5 -14s-86 -5 -126 -5
c-20.667 0 -41.167 1 -61.5 3s-39.5 4.66699 -57.5 8s-34.333 7 -49 11s-26.334 8.33301 -35.001 13v-373c0 -13.333 -6.66699 -20 -20 -20h-292z" />
    <glyph glyph-name="paragraph" unicode="&#xb6;" horiz-adv-x="1453" 
d="M562 -453c-13.333 0 -20 6.66699 -20 20v1006c-8.66699 -1.33301 -17 -2 -25 -2h-24c-88.667 0 -161.334 6.83301 -218.001 20.5s-101.167 36.667 -133.5 69s-54.666 75.166 -66.999 128.499s-18.5 119.333 -18.5 198v82c0 76 6.16699 140 18.5 192
s34.666 93.833 66.999 125.5s76.833 54.334 133.5 68.001s129.334 20.5 218.001 20.5h348c13.333 0 20 -6.66699 20 -20v-1888c0 -13.333 -6.66699 -20 -20 -20h-279zM1004 -453c-13.333 0 -20 6.66699 -20 20v1888c0 13.333 6.66699 20 20 20h280
c13.333 0 20 -6.66699 20 -20v-1888c0 -13.333 -6.66699 -20 -20 -20h-280z" />
    <glyph glyph-name="periodcentered" unicode="&#xb7;" horiz-adv-x="578" 
d="M142 370c-13.333 0 -20 6.66699 -20 20v300c0 14 6.66699 21.333 20 22l292 35c13.333 0.666992 20 -5.33301 20 -18v-339c0 -13.333 -6.66699 -20 -20 -20h-292z" />
    <glyph glyph-name="cedilla" unicode="&#xb8;" 
d="M180 -389c-12.667 0 -16 5.66602 -10 16.999l156 253c3.33301 6.66699 7.33301 11.167 12 13.5s10.667 3.5 18 3.5h242c13.333 0 16.666 -6 9.99902 -18l-135 -251c-4 -7.33301 -8.16699 -12.166 -12.5 -14.499s-10.166 -3.5 -17.499 -3.5h-263z" />
    <glyph glyph-name="onesuperior" unicode="&#xb9;" horiz-adv-x="588" 
d="M102 1232c-13.333 -2.66699 -21 2.66699 -23 16l-35 198c-2 13.333 3.66699 21.333 17 24l134 31c6 1.33301 12.667 2.33301 20 3s14 1 20 1h212c13.333 0 20 -6.66699 20 -20v-865c0 -13.333 -6.66699 -20 -20 -20h-243c-13.333 0 -20 6.66699 -20 20v630z" />
    <glyph glyph-name="ordmasculine" unicode="&#xba;" horiz-adv-x="1024" 
d="M513 1270c-20.667 0 -37.6631 -2.16602 -50.9961 -6.49902s-23.833 -11.666 -31.5 -21.999s-13 -24.5 -16 -42.5s-4.5 -41 -4.5 -69v-65c0 -28 1.66699 -50.833 5 -68.5s9.16602 -31.834 17.499 -42.501s19.166 -18 32.499 -22s30 -6 50 -6s36.5 2 49.5 6
s23.5 11.333 31.5 22s13.5 25.167 16.5 43.5s4.5 41.5 4.5 69.5v63c0 28 -1.5 51 -4.5 69s-8.33301 32.167 -16 42.5s-18.334 17.666 -32.001 21.999s-30.834 6.5 -51.501 6.5zM513.004 688.001c-72 0 -132.501 7.16699 -181.501 21.5s-88.167 36.5 -117.5 66.5
s-50.333 68.167 -63 114.5s-19 101.833 -19 166.5v78c0 64.667 7 120.334 21 167.001s36.5 85 67.5 115s71.5 52.167 121.5 66.5s111 21.5 183 21.5c67.333 0 124.5 -7.16699 171.5 -21.5s85.333 -36.5 115 -66.5s51.167 -68.333 64.5 -115s20 -102.334 20 -167.001v-78
c0 -64.667 -7.33301 -120.167 -22 -166.5s-37.5 -84.5 -68.5 -114.5s-70.667 -52.167 -119 -66.5s-106.166 -21.5 -173.499 -21.5zM142.003 342.001c-13.333 0 -20 6.66699 -20 20v198c0 13.333 6.66699 20 20 20h738c13.333 0 20 -6.66699 20 -20v-198
c0 -13.333 -6.66699 -20 -20 -20h-738z" />
    <glyph glyph-name="guillemotright" unicode="&#xbb;" horiz-adv-x="1450" 
d="M99 136c-13.333 0 -15.666 5.00098 -6.99902 15.001l320 384l-320 385c-8.66699 10 -6.33398 15 6.99902 15h365c13.333 0 24 -5.33301 32 -16l290 -368c8 -10.667 8 -21.334 0 -32.001l-290 -367c-8 -10.667 -18.667 -16 -32 -16h-365zM724 136.001
c-13.333 0 -15.666 5.00098 -6.99902 15.001l320 384l-320 385c-8.66699 10 -6.33398 15 6.99902 15h365c13.333 0 24 -5.33301 32 -16l290 -368c8 -10.667 8 -21.334 0 -32.001l-290 -367c-8 -10.667 -18.667 -16 -32 -16h-365z" />
    <glyph glyph-name="onequarter" unicode="&#xbc;" horiz-adv-x="2017" 
d="M292 0c-14 0 -17.332 6 -9.99902 18l780 1439c4 7.33301 8.16699 12.166 12.5 14.499s10.166 3.5 17.499 3.5h356c13.333 0 16.666 -6 9.99902 -18l-781 -1439c-4 -7.33301 -8.16699 -12.166 -12.5 -14.499s-10.166 -3.5 -17.499 -3.5h-355zM1133 168
c-13.333 0 -19.999 6.66699 -19.999 20v234c0 14 3.66699 26 11 36l298 431c7.33301 10.667 17.666 16 30.999 16h382c13.333 0 20 -6.66699 20 -20v-463h74c13.333 0 20 -6.66699 20 -20v-214c0 -13.333 -6.66699 -20 -20 -20h-74v-148c0 -13.333 -6.66699 -20 -20 -20
h-243c-13.333 0 -20 6.66699 -20 20v148h-439zM1406 422h166l-5 229zM111.002 1232c-13.333 -2.66699 -21 2.66699 -23 16l-35 198c-2 13.333 3.66699 21.333 17 24l134 31c6 1.33301 12.667 2.33301 20 3s14 1 20 1h212c13.333 0 20 -6.66699 20 -20v-865
c0 -13.333 -6.66699 -20 -20 -20h-243c-13.333 0 -20 6.66699 -20 20v630z" />
    <glyph glyph-name="onehalf" unicode="&#xbd;" horiz-adv-x="1987" 
d="M292 0c-14 0 -17.332 6 -9.99902 18l780 1439c4 7.33301 8.16699 12.166 12.5 14.499s10.166 3.5 17.499 3.5h356c13.333 0 16.666 -6 9.99902 -18l-781 -1439c-4 -7.33301 -8.16699 -12.166 -12.5 -14.499s-10.166 -3.5 -17.499 -3.5h-355zM1257 0
c-13.333 0 -20.001 6.66797 -20.001 20.001v95c0 47.333 3.16699 87 9.5 119s17.166 60.5 32.499 85.5s35.833 48.667 61.5 71s57.834 47.166 96.501 74.499l123 88l24 18c6 4.66699 10.5 8.83398 13.5 12.501s5 7.16699 6 10.5s1.5 7.33301 1.5 12
c0 10.667 -9 19.167 -27 25.5s-45 9.5 -81 9.5c-9.33301 0 -20.833 -0.166992 -34.5 -0.5s-28.667 -0.833008 -45 -1.5s-33.333 -1.83398 -51 -3.50098s-35.167 -3.5 -52.5 -5.5c-13.333 -2 -21 3.66699 -23 17l-35 204c-2 13.333 3.33301 21.666 16 24.999
c44.667 12 89.5 19.833 134.5 23.5s84.5 5.5 118.5 5.5c80 0 145 -7.5 195 -22.5s88.833 -34.667 116.5 -59s46.5 -52.333 56.5 -84s15 -64.5 15 -98.5c0 -32 -3 -60.5 -9 -85.5s-15.667 -48.333 -29 -70s-30.833 -42.5 -52.5 -62.5s-48.5 -40.333 -80.5 -61l-59 -39
c-17.333 -11.333 -31.5 -21.333 -42.5 -30s-19.667 -16.167 -26 -22.5s-11.166 -11.666 -14.499 -15.999l-8 -10.5h291c13.333 0 20 -6.66699 20 -20v-204c0 -13.333 -6.66699 -20 -20 -20h-621zM111 1232c-13.333 -2.66699 -21 2.66699 -23 16l-35 198
c-2 13.333 3.66699 21.333 17 24l134 31c6 1.33301 12.667 2.33301 20 3s14 1 20 1h212c13.333 0 20 -6.66699 20 -20v-865c0 -13.333 -6.66699 -20 -20 -20h-243c-13.333 0 -20 6.66699 -20 20v630z" />
    <glyph glyph-name="threequarters" unicode="&#xbe;" horiz-adv-x="2158" 
d="M1285 168c-13.333 0 -19.999 6.66699 -19.999 20v234c0 14 3.66699 26 11 36l298 431c7.33301 10.667 17.666 16 30.999 16h382c13.333 0 20 -6.66699 20 -20v-463h74c13.333 0 20 -6.66699 20 -20v-214c0 -13.333 -6.66699 -20 -20 -20h-74v-148
c0 -13.333 -6.66699 -20 -20 -20h-243c-13.333 0 -20 6.66699 -20 20v148h-439zM1558 422h166l-5 229zM442.001 0c-14 0 -17.332 6 -9.99902 18l780 1439c4 7.33301 8.16699 12.166 12.5 14.499s10.166 3.5 17.499 3.5h356c13.333 0 16.666 -6 9.99902 -18l-781 -1439
c-4 -7.33301 -8.16699 -12.166 -12.5 -14.499s-10.166 -3.5 -17.499 -3.5h-355zM363.002 580c-52 0 -101.168 1.50391 -147.501 4.50391s-87.5 7.16699 -123.5 12.5c-13.333 2 -19.666 9.66699 -18.999 23l14 212c0.666992 13.333 7.66699 19.666 21 18.999
c45.333 -2.66699 86.333 -4.16699 123 -4.5s71 -0.5 103 -0.5c34 0 59.5 3.16699 76.5 9.5s25.5 18.833 25.5 37.5v18c0 17.333 -6.16699 29.5 -18.5 36.5s-37.5 10.5 -75.5 10.5h-107c-13.333 0 -20 6.66699 -20 20v145c0 13.333 6.66699 20 20 20h99
c20.667 0 37.5 0.666992 50.5 2s23.333 3.83301 31 7.5s13 8.66699 16 15s4.5 14.833 4.5 25.5c0 19.333 -8.16699 31.5 -24.5 36.5s-42.166 7.5 -77.499 7.5c-38 0 -75.5 -0.166992 -112.5 -0.5s-72.833 -1.16602 -107.5 -2.49902
c-13.333 -0.666992 -20.333 5.66602 -21 18.999l-14 212c-0.666992 13.333 5.66602 21 18.999 23c34 4.66699 72.833 8.66699 116.5 12s90.5 5 140.5 5c118.667 0 209.667 -18.333 273 -55s95 -96 95 -178v-19c0 -52 -13.333 -93.833 -40 -125.5s-65 -54.5 -115 -68.5
c21.333 -9.33301 41.5 -19.833 60.5 -31.5s35.5 -25.834 49.5 -42.501s25 -36.334 33 -59.001s12 -49.334 12 -80.001v-15c0 -50 -8 -91.167 -24 -123.5s-39.167 -58 -69.5 -77s-67.833 -32.167 -112.5 -39.5s-96 -11 -154 -11z" />
    <glyph glyph-name="questiondown" unicode="&#xbf;" horiz-adv-x="926" 
d="M390 554c0 7.33301 3.66504 11.0029 10.998 11.0029h292c12.667 0 20.667 -6.33301 24 -19c2.66699 -9.33301 5.16699 -22.166 7.5 -38.499s3.5 -36.166 3.5 -59.499c0 -18.667 -1.33301 -38.167 -4 -58.5s-8.16699 -41.333 -16.5 -63s-20.166 -43.834 -35.499 -66.501
s-35.666 -46 -60.999 -70l-82 -75l-41.5 -40c-11.667 -11.333 -21.334 -21.833 -29.001 -31.5s-13.167 -19.334 -16.5 -29.001s-5 -20.834 -5 -33.501c0 -24.667 11.167 -43.334 33.5 -56.001s61.833 -19 118.5 -19c38 0 75.333 2 112 6s77.334 9.66699 122.001 17
c13.333 2 21 -3.66699 23 -17l45 -276c2 -13.333 -3.33301 -21.666 -16 -24.999c-47.333 -14.667 -101.333 -25.834 -162 -33.501s-124.667 -11.5 -192 -11.5c-72.667 0 -138.167 6 -196.5 18s-108 30.833 -149 56.5s-72.5 58.834 -94.5 99.501s-33 89.667 -33 147v19
c0 34 3.16699 64.5 9.5 91.5s16 52.667 29 77s29.5 48.666 49.5 72.999s44 50.833 72 79.5l94 99c19.333 20 34.833 37 46.5 51s20.5 28.167 26.5 42.5s10 30.666 12 48.999s3 42.5 3 72.5v13zM701.998 1071c13.333 0 20 -6.66699 20 -20v-300
c0 -14 -6.66699 -21.333 -20 -22l-292 -35c-13.333 -0.666992 -20 5.33301 -20 18v339c0 13.333 6.66699 20 20 20h292z" />
    <glyph glyph-name="Agrave" unicode="&#xc0;" horiz-adv-x="1372" 
d="M16 0c-13.333 0 -18.0039 6.33301 -14.0039 19l436 1437c2.66699 7.33301 5.83398 12.333 9.50098 15s9.16699 4 16.5 4h442c7.33301 0 12.833 -1.33301 16.5 -4s6.83398 -7.66699 9.50098 -15l438 -1437c4 -12.667 -0.666992 -19 -14 -19h-345
c-13.333 -0 -21.666 6.33301 -24.999 19l-60 221h-483l-59 -221c-3.33301 -12.667 -11.666 -19 -24.999 -19h-343zM683.996 1135l-158 -588h318zM619.996 1597c-7.33301 0 -13.6689 0.832031 -19.002 2.49902s-10.666 5.16699 -15.999 10.5l-257 220
c-10 8.66699 -8.33301 13 5 13h335c7.33301 0 13.333 -1.16699 18 -3.5s9.66699 -6.16602 15 -11.499l191 -216c8.66699 -10 6.33398 -15 -6.99902 -15h-265z" />
    <glyph glyph-name="Aacute" unicode="&#xc1;" horiz-adv-x="1372" 
d="M16 0c-13.333 0 -18.0039 6.33301 -14.0039 19l436 1437c2.66699 7.33301 5.83398 12.333 9.50098 15s9.16699 4 16.5 4h442c7.33301 0 12.833 -1.33301 16.5 -4s6.83398 -7.66699 9.50098 -15l438 -1437c4 -12.667 -0.666992 -19 -14 -19h-345
c-13.333 -0 -21.666 6.33301 -24.999 19l-60 221h-483l-59 -221c-3.33301 -12.667 -11.666 -19 -24.999 -19h-343zM683.996 1135l-158 -588h318zM510.996 1597c-13.333 0 -15.6689 5.00098 -7.00195 15.001l191 216c5.33301 5.33301 10.333 9.16602 15 11.499
s10.667 3.5 18 3.5h335c13.333 0 15 -4.33301 5 -13l-257 -220c-5.33301 -5.33301 -10.666 -8.83301 -15.999 -10.5s-11.666 -2.5 -18.999 -2.5h-265z" />
    <glyph glyph-name="Acircumflex" unicode="&#xc2;" horiz-adv-x="1372" 
d="M16 0c-13.333 0 -18.0039 6.33301 -14.0039 19l436 1437c2.66699 7.33301 5.83398 12.333 9.50098 15s9.16699 4 16.5 4h442c7.33301 0 12.833 -1.33301 16.5 -4s6.83398 -7.66699 9.50098 -15l438 -1437c4 -12.667 -0.666992 -19 -14 -19h-345
c-13.333 -0 -21.666 6.33301 -24.999 19l-60 221h-483l-59 -221c-3.33301 -12.667 -11.666 -19 -24.999 -19h-343zM683.996 1135l-158 -588h318zM513.996 1828c5.33301 5.33301 10.498 9.16602 15.498 11.499s11.167 3.5 18.5 3.5h276c7.33301 0 13.5 -1.16699 18.5 -3.5
s10.167 -6.16602 15.5 -11.499l203 -216c4.66699 -4.66699 6.33398 -8.33398 5.00098 -11.001s-5 -4 -11 -4h-242c-7.33301 0 -13.5 1.16699 -18.5 3.5s-10.167 6.16602 -15.5 11.499l-83 88h-20l-82 -88c-5.33301 -5.33301 -10.5 -9.16602 -15.5 -11.499
s-11.167 -3.5 -18.5 -3.5h-243c-6 0 -9.66699 1.33301 -11 4s0.333984 6.33398 5.00098 11.001z" />
    <glyph glyph-name="Atilde" unicode="&#xc3;" horiz-adv-x="1372" 
d="M16 0c-13.333 0 -18.0039 6.33301 -14.0039 19l436 1437c2.66699 7.33301 5.83398 12.333 9.50098 15s9.16699 4 16.5 4h442c7.33301 0 12.833 -1.33301 16.5 -4s6.83398 -7.66699 9.50098 -15l438 -1437c4 -12.667 -0.666992 -19 -14 -19h-345
c-13.333 -0 -21.666 6.33301 -24.999 19l-60 221h-483l-59 -221c-3.33301 -12.667 -11.666 -19 -24.999 -19h-343zM683.996 1135l-158 -588h318zM316.996 1587c-13.333 0 -19.998 6.66797 -19.998 20.001v70c0 52 6.5 94 19.5 126s29.833 56.5 50.5 73.5s44 28.333 70 34
s52.333 8.5 79 8.5c27.333 0 51.5 -3 72.5 -9s45.167 -15.333 72.5 -28l48 -22l64 -30.5c14 -7 26.333 -10.5 37 -10.5c4.66699 0 9 0.666992 13 2s7.33301 4.66602 10 9.99902s4.66699 13.166 6 23.499s2.33301 24.5 3 42.5c0 13.333 6.66699 20 20 20h191
c13.333 0 20 -6.66699 20 -20v-70c0 -52 -6.33301 -93.833 -19 -125.5s-29.334 -56.167 -50.001 -73.5s-44.167 -28.833 -70.5 -34.5s-52.833 -8.5 -79.5 -8.5c-27.333 0 -51.333 2.83301 -72 8.5s-45 15.167 -73 28.5l-47 23l-64 31.5c-13.333 6.33301 -24.333 9.5 -33 9.5
c-6 0 -11.167 -0.833008 -15.5 -2.5s-8 -5.16699 -11 -10.5s-5.33301 -13.166 -7 -23.499s-2.83398 -24.5 -3.50098 -42.5c0 -13.333 -6.66699 -20 -20 -20h-191z" />
    <glyph glyph-name="Adieresis" unicode="&#xc4;" horiz-adv-x="1372" 
d="M16 0c-13.333 0 -18.0039 6.33301 -14.0039 19l436 1437c2.66699 7.33301 5.83398 12.333 9.50098 15s9.16699 4 16.5 4h442c7.33301 0 12.833 -1.33301 16.5 -4s6.83398 -7.66699 9.50098 -15l438 -1437c4 -12.667 -0.666992 -19 -14 -19h-345
c-13.333 -0 -21.666 6.33301 -24.999 19l-60 221h-483l-59 -221c-3.33301 -12.667 -11.666 -19 -24.999 -19h-343zM683.996 1135l-158 -588h318zM316.996 1597c-13.333 0 -20 6.66699 -20 20v216c0 13.333 6.66699 21 20 23l282 35c13.333 2 20 -3.66699 20 -17v-257
c0 -13.333 -6.66699 -20 -20 -20h-282zM773.996 1597c-13.333 0 -20 6.66699 -20 20v216c0 13.333 6.66699 21 20 23l281 35c13.333 2 20 -3.66699 20 -17v-257c0 -13.333 -6.66699 -20 -20 -20h-281z" />
    <glyph glyph-name="Aring" unicode="&#xc5;" horiz-adv-x="1362" 
d="M12 0c-13.333 0 -18.001 6.33594 -14.001 19.0029l436 1437c2.66699 8.66699 7 14.334 13 17.001c-8 16 -13.833 33.167 -17.5 51.5s-5.5 37.166 -5.5 56.499v10c0 31.333 4.83301 61.166 14.5 89.499s25 53.166 46 74.499s47.833 38.333 80.5 51s71.667 19 117 19
c44.667 0 83.167 -6.33301 115.5 -19s59 -29.834 80 -51.501s36.667 -47 47 -76s15.5 -59.833 15.5 -92.5c0 -42.667 -8.33301 -80.667 -25 -114c5.33301 -2 9.66602 -7.33301 12.999 -16l438 -1437c4 -12.667 -0.666992 -19 -14 -19h-345
c-13.333 -0 -21.666 6.33301 -24.999 19l-60 221h-483l-59 -221c-3.33301 -12.667 -11.666 -19 -24.999 -19h-343zM679.999 1135l-158 -588h318zM691.999 1653c-20.667 0 -37.667 -5.5 -51 -16.5s-20 -24.833 -20 -41.5v-16c0 -16.667 6.66699 -30.334 20 -41.001
s30.333 -16 51 -16s37.834 5.33301 51.501 16s20.5 24.334 20.5 41.001v16c0 16.667 -6.83301 30.5 -20.5 41.5s-30.834 16.5 -51.501 16.5z" />
    <glyph glyph-name="AE" unicode="&#xc6;" horiz-adv-x="1797" 
d="M872 0c-13.333 0 -20.001 6.66699 -20.001 20v220h-419l-78 -221c-4.66699 -12.667 -13.667 -19 -27 -19h-343c-13.333 -0 -17.666 6.33301 -12.999 19l551 1437c4.66699 12.667 13.667 19 27 19h1136c13.333 0 20 -6.66699 20 -20v-288c0 -13.333 -6.66699 -20 -20 -20
h-484v-242h340c13.333 0 20 -6.66699 20 -20v-287c0 -13.333 -6.66699 -20 -20 -20h-340v-250h484c13.333 0 20 -6.66699 20 -20v-288c0 -13.333 -6.66699 -20 -20 -20h-814zM754.999 1147l-213 -600h310v600h-97z" />
    <glyph glyph-name="Ccedilla" unicode="&#xc7;" horiz-adv-x="1212" 
d="M749 -31c-103.333 0 -195.835 11.335 -277.502 34.002s-150.667 60.834 -207 114.501s-99.333 124.834 -129 213.501s-44.5 199 -44.5 331v153c0 130.667 14.833 240.167 44.5 328.5s72.667 159.333 129 213s125.333 91.834 207 114.501s174.167 34 277.5 34
c36 0 71.833 -1.16699 107.5 -3.5s69.834 -5.83301 102.501 -10.5s63.5 -10.334 92.5 -17.001s54.833 -14.334 77.5 -23.001c7.33301 -2.66699 12.166 -5.83398 14.499 -9.50098s2.83301 -9.16699 1.5 -16.5l-45 -272c-2 -13.333 -9.66699 -18.666 -23 -15.999
c-52 11.333 -104.333 19.166 -157 23.499s-105 6.5 -157 6.5s-98 -5.66699 -138 -17s-73.5 -30.333 -100.5 -57s-47.333 -61.834 -61 -105.501s-20.5 -97.834 -20.5 -162.501v-174c0 -65.333 6.83301 -119.833 20.5 -163.5s33.834 -79 60.501 -106s60 -46.167 100 -57.5
s86.333 -17 139 -17c55.333 0 110.333 1.66699 165 5s109 8.33301 163 15c13.333 2 21 -3.66699 23 -17l39 -279c2 -13.333 -3.33301 -21.333 -16 -24c-23.333 -6 -49.833 -11.333 -79.5 -16s-61.167 -8.66699 -94.5 -12s-68.166 -5.83301 -104.499 -7.5
s-72.833 -2.5 -109.5 -2.5zM479.998 -388.998c-12.667 0 -16 5.66602 -10 16.999l156 253c3.33301 6.66699 7.33301 11.167 12 13.5s10.667 3.5 18 3.5h242c13.333 0 16.666 -6 9.99902 -18l-135 -251c-4 -7.33301 -8.16699 -12.166 -12.5 -14.499
s-10.166 -3.5 -17.499 -3.5h-263z" />
    <glyph glyph-name="Egrave" unicode="&#xc8;" horiz-adv-x="1212" 
d="M168 0c-13.333 0 -20 6.66699 -20 20v1435c0 13.333 6.66699 20 20 20h933c13.333 0 20 -6.66699 20 -20v-288c0 -13.333 -6.66699 -20 -20 -20h-602v-242h457c13.333 0 20 -6.66699 20 -20v-287c0 -13.333 -6.66699 -20 -20 -20h-457v-250h602
c13.333 0 20 -6.66699 20 -20v-288c0 -13.333 -6.66699 -20 -20 -20h-933zM587 1597c-7.33301 0 -13.6689 0.832031 -19.002 2.49902s-10.666 5.16699 -15.999 10.5l-257 220c-10 8.66699 -8.33301 13 5 13h335c7.33301 0 13.333 -1.16699 18 -3.5
s9.66699 -6.16602 15 -11.499l191 -216c8.66699 -10 6.33398 -15 -6.99902 -15h-265z" />
    <glyph glyph-name="Eacute" unicode="&#xc9;" horiz-adv-x="1212" 
d="M168 0c-13.333 0 -20 6.66699 -20 20v1435c0 13.333 6.66699 20 20 20h933c13.333 0 20 -6.66699 20 -20v-288c0 -13.333 -6.66699 -20 -20 -20h-602v-242h457c13.333 0 20 -6.66699 20 -20v-287c0 -13.333 -6.66699 -20 -20 -20h-457v-250h602
c13.333 0 20 -6.66699 20 -20v-288c0 -13.333 -6.66699 -20 -20 -20h-933zM445 1597c-13.333 0 -15.6689 5.00098 -7.00195 15.001l191 216c5.33301 5.33301 10.333 9.16602 15 11.499s10.667 3.5 18 3.5h335c13.333 0 15 -4.33301 5 -13l-257 -220
c-5.33301 -5.33301 -10.666 -8.83301 -15.999 -10.5s-11.666 -2.5 -18.999 -2.5h-265z" />
    <glyph glyph-name="Ecircumflex" unicode="&#xca;" horiz-adv-x="1212" 
d="M168 0c-13.333 0 -20 6.66699 -20 20v1435c0 13.333 6.66699 20 20 20h933c13.333 0 20 -6.66699 20 -20v-288c0 -13.333 -6.66699 -20 -20 -20h-602v-242h457c13.333 0 20 -6.66699 20 -20v-287c0 -13.333 -6.66699 -20 -20 -20h-457v-250h602
c13.333 0 20 -6.66699 20 -20v-288c0 -13.333 -6.66699 -20 -20 -20h-933zM465 1828c5.33301 5.33301 10.498 9.16602 15.498 11.499s11.167 3.5 18.5 3.5h276c7.33301 0 13.5 -1.16699 18.5 -3.5s10.167 -6.16602 15.5 -11.499l203 -216
c4.66699 -4.66699 6.33398 -8.33398 5.00098 -11.001s-5 -4 -11 -4h-242c-7.33301 0 -13.5 1.16699 -18.5 3.5s-10.167 6.16602 -15.5 11.499l-83 88h-20l-82 -88c-5.33301 -5.33301 -10.5 -9.16602 -15.5 -11.499s-11.167 -3.5 -18.5 -3.5h-243
c-6 0 -9.66699 1.33301 -11 4s0.333984 6.33398 5.00098 11.001z" />
    <glyph glyph-name="Edieresis" unicode="&#xcb;" horiz-adv-x="1212" 
d="M168 0c-13.333 0 -20 6.66699 -20 20v1435c0 13.333 6.66699 20 20 20h933c13.333 0 20 -6.66699 20 -20v-288c0 -13.333 -6.66699 -20 -20 -20h-602v-242h457c13.333 0 20 -6.66699 20 -20v-287c0 -13.333 -6.66699 -20 -20 -20h-457v-250h602
c13.333 0 20 -6.66699 20 -20v-288c0 -13.333 -6.66699 -20 -20 -20h-933zM248 1597c-13.333 0 -20 6.66699 -20 20v216c0 13.333 6.66699 21 20 23l282 35c13.333 2 20 -3.66699 20 -17v-257c0 -13.333 -6.66699 -20 -20 -20h-282zM705 1597c-13.333 0 -20 6.66699 -20 20
v216c0 13.333 6.66699 21 20 23l281 35c13.333 2 20 -3.66699 20 -17v-257c0 -13.333 -6.66699 -20 -20 -20h-281z" />
    <glyph glyph-name="Igrave" unicode="&#xcc;" horiz-adv-x="646" 
d="M168 0c-13.333 0 -20 6.66699 -20 20v1435c0 13.333 6.66699 20 20 20h311c13.333 0 20 -6.66699 20 -20v-1435c0 -13.333 -6.66699 -20 -20 -20h-311zM272 1597c-7.33301 0 -13.6689 0.832031 -19.002 2.49902s-10.666 5.16699 -15.999 10.5l-257 220
c-10 8.66699 -8.33301 13 5 13h335c7.33301 0 13.333 -1.16699 18 -3.5s9.66699 -6.16602 15 -11.499l191 -216c8.66699 -10 6.33398 -15 -6.99902 -15h-265z" />
    <glyph glyph-name="Iacute" unicode="&#xcd;" horiz-adv-x="647" 
d="M168 0c-13.333 0 -20 6.66699 -20 20v1435c0 13.333 6.66699 20 20 20h311c13.333 0 20 -6.66699 20 -20v-1435c0 -13.333 -6.66699 -20 -20 -20h-311zM48 1597c-13.333 0 -15.6689 5.00098 -7.00195 15.001l191 216c5.33301 5.33301 10.333 9.16602 15 11.499
s10.667 3.5 18 3.5h335c13.333 0 15 -4.33301 5 -13l-257 -220c-5.33301 -5.33301 -10.666 -8.83301 -15.999 -10.5s-11.666 -2.5 -18.999 -2.5h-265z" />
    <glyph glyph-name="Icircumflex" unicode="&#xce;" horiz-adv-x="646" 
d="M168 0c-13.333 0 -20 6.66699 -20 20v1435c0 13.333 6.66699 20 20 20h311c13.333 0 20 -6.66699 20 -20v-1435c0 -13.333 -6.66699 -20 -20 -20h-311zM152 1828c5.33301 5.33301 10.498 9.16602 15.498 11.499s11.167 3.5 18.5 3.5h276
c7.33301 0 13.5 -1.16699 18.5 -3.5s10.167 -6.16602 15.5 -11.499l203 -216c4.66699 -4.66699 6.33398 -8.33398 5.00098 -11.001s-5 -4 -11 -4h-242c-7.33301 0 -13.5 1.16699 -18.5 3.5s-10.167 6.16602 -15.5 11.499l-83 88h-20l-82 -88
c-5.33301 -5.33301 -10.5 -9.16602 -15.5 -11.499s-11.167 -3.5 -18.5 -3.5h-243c-6 0 -9.66699 1.33301 -11 4s0.333984 6.33398 5.00098 11.001z" />
    <glyph glyph-name="Idieresis" unicode="&#xcf;" horiz-adv-x="646" 
d="M168 0c-13.333 0 -20 6.66699 -20 20v1435c0 13.333 6.66699 20 20 20h311c13.333 0 20 -6.66699 20 -20v-1435c0 -13.333 -6.66699 -20 -20 -20h-311zM-44 1597c-13.333 0 -20 6.66699 -20 20v216c0 13.333 6.66699 21 20 23l282 35c13.333 2 20 -3.66699 20 -17v-257
c0 -13.333 -6.66699 -20 -20 -20h-282zM413 1597c-13.333 0 -20 6.66699 -20 20v216c0 13.333 6.66699 21 20 23l281 35c13.333 2 20 -3.66699 20 -17v-257c0 -13.333 -6.66699 -20 -20 -20h-281z" />
    <glyph glyph-name="Eth" unicode="&#xd0;" horiz-adv-x="1448" 
d="M533 -16c-20.667 0 -44.833 0.330078 -72.5 0.99707s-57 1.5 -88 2.5s-62.5 2.33301 -94.5 4s-62.667 3.83398 -92 6.50098c-13.333 0.666992 -20 8 -20 22v574h-103c-13.333 0 -20 6.66699 -20 20v279c0 13.333 6.66699 20 20 20h103v542c0 13.333 6.66699 20.333 20 21
c26 2 54.833 3.83301 86.5 5.5l95.5 5c32 1.66699 62.5 2.83398 91.5 3.50098s53.5 1 73.5 1c82.667 0 160.667 -3.33301 234 -10s140.666 -19 201.999 -37s116.5 -43.167 165.5 -75.5s90.5 -74.166 124.5 -125.499s60 -113.833 78 -187.5s27 -160.5 27 -260.5v-113
c0 -100 -9 -186.833 -27 -260.5s-44 -136.334 -78 -188.001s-75.5 -93.667 -124.5 -126s-104.167 -57.666 -165.5 -75.999s-128.666 -30.833 -201.999 -37.5s-151.333 -10 -234 -10zM613.001 1180c-14.667 0 -30.832 -0.5 -48.499 -1.5s-33.5 -2.5 -47.5 -4.5v-261h211
c13.333 0 20 -6.66699 20 -20v-279c0 -13.333 -6.66699 -20 -20 -20h-211v-293c6 -1.33301 14.333 -2.33301 25 -3s21.834 -1.16699 33.501 -1.5l33.5 -1c10.667 -0.333008 18.667 -0.5 24 -0.5c64.667 0 120.667 5 168 15s86.666 29 117.999 57s54.666 67 69.999 117
s23 114.667 23 194v119c0 78.667 -8.16699 142.834 -24.5 192.501s-41 88.667 -74 117s-74.5 47.666 -124.5 57.999s-108.667 15.5 -176 15.5z" />
    <glyph glyph-name="Ntilde" unicode="&#xd1;" horiz-adv-x="1520" 
d="M168 0c-13.333 0 -19.999 6.66699 -19.999 20v1435c0 13.333 6.66699 20 20 20h338c7.33301 0 13.166 -1.16699 17.499 -3.5s8.5 -6.83301 12.5 -13.5l439 -751c7.33301 -12.667 13.666 -24.667 18.999 -36l14 -30c4 -8.66699 7 -15.667 9 -21s3.33301 -8 4 -8l1 843
c0 13.333 6.66699 20 20 20h310c13.333 0 20 -6.66699 20 -20v-1435c0 -13.333 -6.66699 -20 -20 -20h-338c-7.33301 0 -13.166 1.16699 -17.499 3.5s-8.5 6.83301 -12.5 13.5l-436 747c-17.333 30 -29.5 54.167 -36.5 72.5s-11.167 27.5 -12.5 27.5v-844
c0 -13.333 -6.66699 -20 -20 -20h-311zM394.001 1587c-13.333 0 -19.998 6.66797 -19.998 20.001v70c0 52 6.5 94 19.5 126s29.833 56.5 50.5 73.5s44 28.333 70 34s52.333 8.5 79 8.5c27.333 0 51.5 -3 72.5 -9s45.167 -15.333 72.5 -28l48 -22l64 -30.5
c14 -7 26.333 -10.5 37 -10.5c4.66699 0 9 0.666992 13 2s7.33301 4.66602 10 9.99902s4.66699 13.166 6 23.499s2.33301 24.5 3 42.5c0 13.333 6.66699 20 20 20h191c13.333 0 20 -6.66699 20 -20v-70c0 -52 -6.33301 -93.833 -19 -125.5s-29.334 -56.167 -50.001 -73.5
s-44.167 -28.833 -70.5 -34.5s-52.833 -8.5 -79.5 -8.5c-27.333 0 -51.333 2.83301 -72 8.5s-45 15.167 -73 28.5l-47 23l-64 31.5c-13.333 6.33301 -24.333 9.5 -33 9.5c-6 0 -11.167 -0.833008 -15.5 -2.5s-8 -5.16699 -11 -10.5s-5.33301 -13.166 -7 -23.499
s-2.83398 -24.5 -3.50098 -42.5c0 -13.333 -6.66699 -20 -20 -20h-191z" />
    <glyph glyph-name="Ograve" unicode="&#xd2;" horiz-adv-x="1452" 
d="M725 -31c-100 0 -189.167 11.334 -267.5 34.001s-144.5 60.834 -198.5 114.501s-95 124.834 -123 213.501s-42 199 -42 331v153c0 130.667 14 240 42 328s69 158.833 123 212.5s120.167 92 198.5 115s167.5 34.5 267.5 34.5c100.667 0 190.334 -11.333 269.001 -34
s145 -60.834 199 -114.501s95 -124.834 123 -213.501s42 -198.667 42 -330v-154c0 -131.333 -14 -241 -42 -329s-69 -158.833 -123 -212.5s-120.333 -91.834 -199 -114.501s-168.334 -34 -269.001 -34zM725 1157c-46.667 0 -87.5 -5.49902 -122.5 -16.499
s-64.333 -29.333 -88 -55s-41.334 -59.834 -53.001 -102.501s-17.5 -95.334 -17.5 -158.001v-174c0 -63.333 5.83301 -116.333 17.5 -159s29.334 -77 53.001 -103s53 -44.5 88 -55.5s75.833 -16.5 122.5 -16.5s87.667 5.5 123 16.5s64.833 29.5 88.5 55.5
s41.5 60.333 53.5 103s18 95.667 18 159v172c0 62.667 -6 115.334 -18 158.001s-29.833 77 -53.5 103s-53.167 44.667 -88.5 56s-76.333 17 -123 17zM674 1597c-7.33301 0 -13.6689 0.832031 -19.002 2.49902s-10.666 5.16699 -15.999 10.5l-257 220
c-10 8.66699 -8.33301 13 5 13h335c7.33301 0 13.333 -1.16699 18 -3.5s9.66699 -6.16602 15 -11.499l191 -216c8.66699 -10 6.33398 -15 -6.99902 -15h-265z" />
    <glyph glyph-name="Oacute" unicode="&#xd3;" horiz-adv-x="1452" 
d="M725 -31c-100 0 -189.167 11.334 -267.5 34.001s-144.5 60.834 -198.5 114.501s-95 124.834 -123 213.501s-42 199 -42 331v153c0 130.667 14 240 42 328s69 158.833 123 212.5s120.167 92 198.5 115s167.5 34.5 267.5 34.5c100.667 0 190.334 -11.333 269.001 -34
s145 -60.834 199 -114.501s95 -124.834 123 -213.501s42 -198.667 42 -330v-154c0 -131.333 -14 -241 -42 -329s-69 -158.833 -123 -212.5s-120.333 -91.834 -199 -114.501s-168.334 -34 -269.001 -34zM725 1157c-46.667 0 -87.5 -5.49902 -122.5 -16.499
s-64.333 -29.333 -88 -55s-41.334 -59.834 -53.001 -102.501s-17.5 -95.334 -17.5 -158.001v-174c0 -63.333 5.83301 -116.333 17.5 -159s29.334 -77 53.001 -103s53 -44.5 88 -55.5s75.833 -16.5 122.5 -16.5s87.667 5.5 123 16.5s64.833 29.5 88.5 55.5
s41.5 60.333 53.5 103s18 95.667 18 159v172c0 62.667 -6 115.334 -18 158.001s-29.833 77 -53.5 103s-53.167 44.667 -88.5 56s-76.333 17 -123 17zM491 1597c-13.333 0 -15.6689 5.00098 -7.00195 15.001l191 216c5.33301 5.33301 10.333 9.16602 15 11.499
s10.667 3.5 18 3.5h335c13.333 0 15 -4.33301 5 -13l-257 -220c-5.33301 -5.33301 -10.666 -8.83301 -15.999 -10.5s-11.666 -2.5 -18.999 -2.5h-265z" />
    <glyph glyph-name="Ocircumflex" unicode="&#xd4;" horiz-adv-x="1452" 
d="M725 -31c-100 0 -189.167 11.334 -267.5 34.001s-144.5 60.834 -198.5 114.501s-95 124.834 -123 213.501s-42 199 -42 331v153c0 130.667 14 240 42 328s69 158.833 123 212.5s120.167 92 198.5 115s167.5 34.5 267.5 34.5c100.667 0 190.334 -11.333 269.001 -34
s145 -60.834 199 -114.501s95 -124.834 123 -213.501s42 -198.667 42 -330v-154c0 -131.333 -14 -241 -42 -329s-69 -158.833 -123 -212.5s-120.333 -91.834 -199 -114.501s-168.334 -34 -269.001 -34zM725 1157c-46.667 0 -87.5 -5.49902 -122.5 -16.499
s-64.333 -29.333 -88 -55s-41.334 -59.834 -53.001 -102.501s-17.5 -95.334 -17.5 -158.001v-174c0 -63.333 5.83301 -116.333 17.5 -159s29.334 -77 53.001 -103s53 -44.5 88 -55.5s75.833 -16.5 122.5 -16.5s87.667 5.5 123 16.5s64.833 29.5 88.5 55.5
s41.5 60.333 53.5 103s18 95.667 18 159v172c0 62.667 -6 115.334 -18 158.001s-29.833 77 -53.5 103s-53.167 44.667 -88.5 56s-76.333 17 -123 17zM553 1828c5.33301 5.33301 10.498 9.16602 15.498 11.499s11.167 3.5 18.5 3.5h276c7.33301 0 13.5 -1.16699 18.5 -3.5
s10.167 -6.16602 15.5 -11.499l203 -216c4.66699 -4.66699 6.33398 -8.33398 5.00098 -11.001s-5 -4 -11 -4h-242c-7.33301 0 -13.5 1.16699 -18.5 3.5s-10.167 6.16602 -15.5 11.499l-83 88h-20l-82 -88c-5.33301 -5.33301 -10.5 -9.16602 -15.5 -11.499
s-11.167 -3.5 -18.5 -3.5h-243c-6 0 -9.66699 1.33301 -11 4s0.333984 6.33398 5.00098 11.001z" />
    <glyph glyph-name="Otilde" unicode="&#xd5;" horiz-adv-x="1452" 
d="M725 -31c-100 0 -189.167 11.334 -267.5 34.001s-144.5 60.834 -198.5 114.501s-95 124.834 -123 213.501s-42 199 -42 331v153c0 130.667 14 240 42 328s69 158.833 123 212.5s120.167 92 198.5 115s167.5 34.5 267.5 34.5c100.667 0 190.334 -11.333 269.001 -34
s145 -60.834 199 -114.501s95 -124.834 123 -213.501s42 -198.667 42 -330v-154c0 -131.333 -14 -241 -42 -329s-69 -158.833 -123 -212.5s-120.333 -91.834 -199 -114.501s-168.334 -34 -269.001 -34zM725 1157c-46.667 0 -87.5 -5.49902 -122.5 -16.499
s-64.333 -29.333 -88 -55s-41.334 -59.834 -53.001 -102.501s-17.5 -95.334 -17.5 -158.001v-174c0 -63.333 5.83301 -116.333 17.5 -159s29.334 -77 53.001 -103s53 -44.5 88 -55.5s75.833 -16.5 122.5 -16.5s87.667 5.5 123 16.5s64.833 29.5 88.5 55.5
s41.5 60.333 53.5 103s18 95.667 18 159v172c0 62.667 -6 115.334 -18 158.001s-29.833 77 -53.5 103s-53.167 44.667 -88.5 56s-76.333 17 -123 17zM358 1587c-13.333 0 -19.998 6.66797 -19.998 20.001v70c0 52 6.5 94 19.5 126s29.833 56.5 50.5 73.5s44 28.333 70 34
s52.333 8.5 79 8.5c27.333 0 51.5 -3 72.5 -9s45.167 -15.333 72.5 -28l48 -22l64 -30.5c14 -7 26.333 -10.5 37 -10.5c4.66699 0 9 0.666992 13 2s7.33301 4.66602 10 9.99902s4.66699 13.166 6 23.499s2.33301 24.5 3 42.5c0 13.333 6.66699 20 20 20h191
c13.333 0 20 -6.66699 20 -20v-70c0 -52 -6.33301 -93.833 -19 -125.5s-29.334 -56.167 -50.001 -73.5s-44.167 -28.833 -70.5 -34.5s-52.833 -8.5 -79.5 -8.5c-27.333 0 -51.333 2.83301 -72 8.5s-45 15.167 -73 28.5l-47 23l-64 31.5c-13.333 6.33301 -24.333 9.5 -33 9.5
c-6 0 -11.167 -0.833008 -15.5 -2.5s-8 -5.16699 -11 -10.5s-5.33301 -13.166 -7 -23.499s-2.83398 -24.5 -3.50098 -42.5c0 -13.333 -6.66699 -20 -20 -20h-191z" />
    <glyph glyph-name="Odieresis" unicode="&#xd6;" horiz-adv-x="1452" 
d="M725 -31c-100 0 -189.167 11.334 -267.5 34.001s-144.5 60.834 -198.5 114.501s-95 124.834 -123 213.501s-42 199 -42 331v153c0 130.667 14 240 42 328s69 158.833 123 212.5s120.167 92 198.5 115s167.5 34.5 267.5 34.5c100.667 0 190.334 -11.333 269.001 -34
s145 -60.834 199 -114.501s95 -124.834 123 -213.501s42 -198.667 42 -330v-154c0 -131.333 -14 -241 -42 -329s-69 -158.833 -123 -212.5s-120.333 -91.834 -199 -114.501s-168.334 -34 -269.001 -34zM725 1157c-46.667 0 -87.5 -5.49902 -122.5 -16.499
s-64.333 -29.333 -88 -55s-41.334 -59.834 -53.001 -102.501s-17.5 -95.334 -17.5 -158.001v-174c0 -63.333 5.83301 -116.333 17.5 -159s29.334 -77 53.001 -103s53 -44.5 88 -55.5s75.833 -16.5 122.5 -16.5s87.667 5.5 123 16.5s64.833 29.5 88.5 55.5
s41.5 60.333 53.5 103s18 95.667 18 159v172c0 62.667 -6 115.334 -18 158.001s-29.833 77 -53.5 103s-53.167 44.667 -88.5 56s-76.333 17 -123 17zM356 1597c-13.333 0 -20 6.66699 -20 20v216c0 13.333 6.66699 21 20 23l282 35c13.333 2 20 -3.66699 20 -17v-257
c0 -13.333 -6.66699 -20 -20 -20h-282zM813 1597c-13.333 0 -20 6.66699 -20 20v216c0 13.333 6.66699 21 20 23l281 35c13.333 2 20 -3.66699 20 -17v-257c0 -13.333 -6.66699 -20 -20 -20h-281z" />
    <glyph glyph-name="multiply" unicode="&#xd7;" horiz-adv-x="1075" 
d="M86 992c-9.33301 9.33301 -9.33301 18.666 0 27.999l200 197c9.33301 9.33301 18.666 9.33301 27.999 0l222 -223l227 227c9.33301 9.33301 18.666 9.33301 27.999 0l197 -197c9.33301 -9.33301 9.33301 -18.666 0 -27.999l-227 -228l225 -224
c9.33301 -9.33301 9.33301 -18.666 0 -27.999l-197 -197c-9.33301 -9.33301 -18.666 -9.33301 -27.999 0l-225 224l-220 -222c-9.33301 -9.33301 -18.666 -9.33301 -27.999 0l-197 200c-9.33301 9.33301 -9.33301 18.666 0 27.999l219 219z" />
    <glyph glyph-name="Oslash" unicode="&#xd8;" horiz-adv-x="1466" 
d="M184 238c-28 52.667 -48.999 113.834 -62.999 183.501s-21 149.834 -21 240.501v153c0 130.667 14 240 42 328s69 158.833 123 212.5s120.167 92 198.5 115s167.5 34.5 267.5 34.5c80.667 0 153.834 -7.66699 219.501 -23s124.167 -40 175.5 -74l41 51
c5.33301 6 10.333 10.167 15 12.5s10.667 3.5 18 3.5h253c13.333 0 15.666 -5.33301 6.99902 -16l-180 -224c28 -52.667 49 -113.667 63 -183s21 -149 21 -239v-154c0 -131.333 -14 -241 -42 -329s-69 -158.833 -123 -212.5s-120.333 -91.834 -199 -114.501
s-168.334 -34 -269.001 -34c-80 0 -152.833 7.66699 -218.5 23s-123.834 39.666 -174.501 72.999l-40 -49c-8.66699 -10.667 -19.667 -16 -33 -16h-253c-13.333 -0 -15.666 5.33301 -6.99902 16zM731.001 1167c-46.667 0 -87.499 -5.66895 -122.499 -17.002
s-64.333 -30.166 -88 -56.499s-41.334 -61.5 -53.001 -105.5s-17.5 -98.333 -17.5 -163v-184c0 -12.667 0.166992 -24.667 0.5 -36s0.833008 -22.666 1.5 -33.999l452 561c-42 23.333 -99.667 35 -173 35zM1014 832.998c0 24 -1 47 -3 69l-451 -561
c21.333 -12 46 -20.667 74 -26s60.333 -8 97 -8c46.667 0 87.667 5.66699 123 17s64.833 30.5 88.5 57.5s41.5 62.333 53.5 106s18 98.167 18 163.5v182z" />
    <glyph glyph-name="Ugrave" unicode="&#xd9;" horiz-adv-x="1501" 
d="M751 -31c-97.333 0 -184.167 9.33301 -260.5 28s-140.833 48.667 -193.5 90s-92.667 95 -120 161s-41 146.333 -41 241v966c0 13.333 6.66699 20 20 20h310c13.333 0 20 -6.66699 20 -20v-886c0 -47.333 4.5 -87.666 13.5 -120.999s24 -60.5 45 -81.5
s48.333 -36.167 82 -45.5s75.167 -14 124.5 -14c47.333 0 87.833 4.66699 121.5 14s61.167 24.5 82.5 45.5s37 48.167 47 81.5s15 73.666 15 120.999v886c0 13.333 6.66699 20 20 20h308c13.333 0 20 -6.66699 20 -20v-966c0 -94.667 -14 -175 -42 -241
s-68.5 -119.667 -121.5 -161s-117.333 -71.333 -193 -90s-161.5 -28 -257.5 -28zM677.999 1597c-7.33301 0 -13.6689 0.832031 -19.002 2.49902s-10.666 5.16699 -15.999 10.5l-257 220c-10 8.66699 -8.33301 13 5 13h335c7.33301 0 13.333 -1.16699 18 -3.5
s9.66699 -6.16602 15 -11.499l191 -216c8.66699 -10 6.33398 -15 -6.99902 -15h-265z" />
    <glyph glyph-name="Uacute" unicode="&#xda;" horiz-adv-x="1501" 
d="M751 -31c-97.333 0 -184.167 9.33301 -260.5 28s-140.833 48.667 -193.5 90s-92.667 95 -120 161s-41 146.333 -41 241v966c0 13.333 6.66699 20 20 20h310c13.333 0 20 -6.66699 20 -20v-886c0 -47.333 4.5 -87.666 13.5 -120.999s24 -60.5 45 -81.5
s48.333 -36.167 82 -45.5s75.167 -14 124.5 -14c47.333 0 87.833 4.66699 121.5 14s61.167 24.5 82.5 45.5s37 48.167 47 81.5s15 73.666 15 120.999v886c0 13.333 6.66699 20 20 20h308c13.333 0 20 -6.66699 20 -20v-966c0 -94.667 -14 -175 -42 -241
s-68.5 -119.667 -121.5 -161s-117.333 -71.333 -193 -90s-161.5 -28 -257.5 -28zM513.999 1597c-13.333 0 -15.6689 5.00098 -7.00195 15.001l191 216c5.33301 5.33301 10.333 9.16602 15 11.499s10.667 3.5 18 3.5h335c13.333 0 15 -4.33301 5 -13l-257 -220
c-5.33301 -5.33301 -10.666 -8.83301 -15.999 -10.5s-11.666 -2.5 -18.999 -2.5h-265z" />
    <glyph glyph-name="Ucircumflex" unicode="&#xdb;" horiz-adv-x="1501" 
d="M751 -31c-97.333 0 -184.167 9.33301 -260.5 28s-140.833 48.667 -193.5 90s-92.667 95 -120 161s-41 146.333 -41 241v966c0 13.333 6.66699 20 20 20h310c13.333 0 20 -6.66699 20 -20v-886c0 -47.333 4.5 -87.666 13.5 -120.999s24 -60.5 45 -81.5
s48.333 -36.167 82 -45.5s75.167 -14 124.5 -14c47.333 0 87.833 4.66699 121.5 14s61.167 24.5 82.5 45.5s37 48.167 47 81.5s15 73.666 15 120.999v886c0 13.333 6.66699 20 20 20h308c13.333 0 20 -6.66699 20 -20v-966c0 -94.667 -14 -175 -42 -241
s-68.5 -119.667 -121.5 -161s-117.333 -71.333 -193 -90s-161.5 -28 -257.5 -28zM577.999 1828c5.33301 5.33301 10.498 9.16602 15.498 11.499s11.167 3.5 18.5 3.5h276c7.33301 0 13.5 -1.16699 18.5 -3.5s10.167 -6.16602 15.5 -11.499l203 -216
c4.66699 -4.66699 6.33398 -8.33398 5.00098 -11.001s-5 -4 -11 -4h-242c-7.33301 0 -13.5 1.16699 -18.5 3.5s-10.167 6.16602 -15.5 11.499l-83 88h-20l-82 -88c-5.33301 -5.33301 -10.5 -9.16602 -15.5 -11.499s-11.167 -3.5 -18.5 -3.5h-243
c-6 0 -9.66699 1.33301 -11 4s0.333984 6.33398 5.00098 11.001z" />
    <glyph glyph-name="Udieresis" unicode="&#xdc;" horiz-adv-x="1501" 
d="M751 -31c-97.333 0 -184.167 9.33301 -260.5 28s-140.833 48.667 -193.5 90s-92.667 95 -120 161s-41 146.333 -41 241v966c0 13.333 6.66699 20 20 20h310c13.333 0 20 -6.66699 20 -20v-886c0 -47.333 4.5 -87.666 13.5 -120.999s24 -60.5 45 -81.5
s48.333 -36.167 82 -45.5s75.167 -14 124.5 -14c47.333 0 87.833 4.66699 121.5 14s61.167 24.5 82.5 45.5s37 48.167 47 81.5s15 73.666 15 120.999v886c0 13.333 6.66699 20 20 20h308c13.333 0 20 -6.66699 20 -20v-966c0 -94.667 -14 -175 -42 -241
s-68.5 -119.667 -121.5 -161s-117.333 -71.333 -193 -90s-161.5 -28 -257.5 -28zM380.999 1597c-13.333 0 -20 6.66699 -20 20v216c0 13.333 6.66699 21 20 23l282 35c13.333 2 20 -3.66699 20 -17v-257c0 -13.333 -6.66699 -20 -20 -20h-282zM837.999 1597
c-13.333 0 -20 6.66699 -20 20v216c0 13.333 6.66699 21 20 23l281 35c13.333 2 20 -3.66699 20 -17v-257c0 -13.333 -6.66699 -20 -20 -20h-281z" />
    <glyph glyph-name="Yacute" unicode="&#xdd;" horiz-adv-x="1268" 
d="M480 0c-13.333 0 -20 6.66699 -20 20v463l-472 974c-6 12 -2.33301 18 11 18h355c7.33301 0 13 -1.16699 17 -3.5s7.66699 -7.16602 11 -14.499l253 -589l253 589c3.33301 7.33301 7 12.166 11 14.499s9.66699 3.5 17 3.5h353c13.333 0 17 -6 11 -18l-470 -974v-463
c0 -13.333 -6.66699 -20 -20 -20h-310zM439 1597c-13.333 0 -15.6689 5.00098 -7.00195 15.001l191 216c5.33301 5.33301 10.333 9.16602 15 11.499s10.667 3.5 18 3.5h335c13.333 0 15 -4.33301 5 -13l-257 -220c-5.33301 -5.33301 -10.666 -8.83301 -15.999 -10.5
s-11.666 -2.5 -18.999 -2.5h-265z" />
    <glyph glyph-name="Thorn" unicode="&#xde;" horiz-adv-x="1375" 
d="M168 0c-13.333 0 -20 6.66504 -20 19.998v1435c0 13.333 6.66699 20 20 20h311c13.333 0 20 -6.66699 20 -20v-173c28 0.666992 54.833 1.16699 80.5 1.5s49.167 0.5 70.5 0.5c91.333 0 171 -3.16699 239 -9.5s126.5 -16.5 175.5 -30.5s89.5 -32.167 121.5 -54.5
s57.333 -49.666 76 -81.999s31.667 -70 39 -113s11 -91.833 11 -146.5v-119c0 -55.333 -3.66699 -104.5 -11 -147.5s-20.333 -80.667 -39 -113s-44 -59.666 -76 -81.999s-72.5 -40.5 -121.5 -54.5s-107.5 -24 -175.5 -30s-147.667 -9 -239 -9h-38h-42
c-14 0 -27.167 0.166992 -39.5 0.5s-22.833 0.833008 -31.5 1.5v-275c0 -13.333 -6.66699 -20 -20 -20h-311zM656 972.998c-12 0 -24.667 -0.167969 -38 -0.500977l-41 -1c-14 -0.333008 -27.667 -1 -41 -2s-25.666 -1.83301 -36.999 -2.5v-357
c11.333 -1.33301 23.666 -2.33301 36.999 -3s27 -1.16699 41 -1.5l41 -1c13.333 -0.333008 26 -0.5 38 -0.5c62.667 0 113.667 1.66699 153 5s70.166 10.5 92.499 21.5s37.5 26.333 45.5 46s12 46.167 12 79.5v65c0 32.667 -4 59 -12 79s-23.167 35.333 -45.5 46
s-53.166 17.834 -92.499 21.501s-90.333 5.5 -153 5.5z" />
    <glyph glyph-name="germandbls" unicode="&#xdf;" horiz-adv-x="1304" 
d="M140 0c-13.333 0 -19.999 6.66211 -19.999 19.9951v1070c0 101.333 13.333 184.166 40 248.499s63.667 115 111 152s104 62.333 170 76s138.333 20.5 217 20.5c94 0 175 -9.66699 243 -29s123.667 -47.166 167 -83.499s75.333 -81 96 -134s31 -113.5 31 -181.5v-18
c0 -39.333 -4.66699 -77 -14 -113s-23.5 -68.667 -42.5 -98s-43.333 -54.833 -73 -76.5s-64.834 -37.834 -105.501 -48.501c85.333 -20.667 150.666 -61.667 195.999 -123s68 -144 68 -248v-28c0 -77.333 -7.16699 -143.5 -21.5 -198.5s-38.666 -100.167 -72.999 -135.5
s-79.833 -61.333 -136.5 -78s-127.334 -25 -212.001 -25c-32.667 0 -65.834 2 -99.501 6s-63.834 9.66699 -90.501 17c-7.33301 2 -12.333 4.83301 -15 8.5s-3.66699 9.16699 -3 16.5l18 231c1.33301 7.33301 3.5 12.333 6.5 15s8.16699 3.33398 15.5 2.00098
c16.667 -2 34.167 -3.33301 52.5 -4s35.166 -1 50.499 -1c26.667 0 49.5 2.5 68.5 7.5s34.667 14.333 47 28s21.333 32.167 27 55.5s8.5 53 8.5 89v29c0 30.667 -2.16699 56.834 -6.5 78.501s-13.166 39.834 -26.499 54.501s-32.166 26.334 -56.499 35.001
s-56.5 15.334 -96.5 20.001l-33 4c-13.333 2 -20 9.66699 -20 23v238c0 13.333 6.66699 21 20 23l25 3c36.667 5.33301 66.334 12.833 89.001 22.5s40.334 21.5 53.001 35.5s21.167 30.167 25.5 48.5s6.5 38.5 6.5 60.5c0 58.667 -15.167 99.834 -45.5 123.501
s-76.5 35.5 -138.5 35.5c-50 0 -89.167 -5 -117.5 -15s-49.5 -25 -63.5 -45s-22.5 -45.167 -25.5 -75.5s-4.5 -65.833 -4.5 -106.5v-1012c0 -13.333 -6.66699 -20 -20 -20h-292z" />
    <glyph glyph-name="agrave" unicode="&#xe0;" horiz-adv-x="1142" 
d="M553 229c12.667 0 26 0.168945 40 0.501953l41 1c13.333 0.333008 26 1 38 2s22.667 2.16699 32 3.5v182h-79c-54 0 -98.333 -1.33301 -133 -4s-62 -7.83398 -82 -15.501s-33.667 -17.834 -41 -30.501s-11 -29 -11 -49c0 -20.667 5.16699 -37 15.5 -49s24.5 -21 42.5 -27
s38.833 -9.83301 62.5 -11.5s48.5 -2.5 74.5 -2.5zM487 821.002c-21.333 0 -44.502 -0.333008 -69.502 -1s-51 -1.5 -78 -2.5s-54.167 -2.16699 -81.5 -3.5s-53.333 -3 -78 -5c-13.333 -2 -20 4 -20 18v228c0 13.333 6.66699 21 20 23c27.333 4 56.5 7.5 87.5 10.5
s61.833 5.66699 92.5 8s60.334 4.16602 89.001 5.49902s54.334 2 77.001 2c74.667 0 139 -3.66699 193 -11s99.5 -18.5 136.5 -33.5s66.833 -34.167 89.5 -57.5s40.167 -51 52.5 -83s20.5 -68.333 24.5 -109s6 -86 6 -136v-652c0 -13.333 -6.66699 -21 -20 -23
c-38 -4.66699 -77.667 -8.83398 -119 -12.501s-82 -6.83398 -122 -9.50098s-77.833 -4.66699 -113.5 -6s-66.5 -2 -92.5 -2c-87.333 0 -162.833 5.33301 -226.5 16s-116 29 -157 55s-71.333 60.5 -91 103.5s-29.5 96.833 -29.5 161.5c0 46.667 3.16699 87.834 9.5 123.501
s17.5 66.5 33.5 92.5s37.833 47.667 65.5 65s62.667 31.333 105 42s93 18.167 152 22.5s127.833 6.5 206.5 6.5h75v33c0 22.667 -2.83301 42.334 -8.5 59.001s-16.334 30.334 -32.001 41.001s-37.667 18.5 -66 23.5s-65.166 7.5 -110.499 7.5zM497.998 1270
c-7.33301 0 -13.499 1.16699 -18.499 3.5s-10.167 6.16602 -15.5 11.499l-230 246c-4.66699 4.66699 -6.33398 8.33398 -5.00098 11.001s5 4 11 4h324c7.33301 0 13.333 -1.16699 18 -3.5s9 -6.83301 13 -13.5l164 -242c7.33301 -11.333 4.33301 -17 -9 -17h-252z" />
    <glyph glyph-name="aacute" unicode="&#xe1;" horiz-adv-x="1142" 
d="M553 229c12.667 0 26 0.168945 40 0.501953l41 1c13.333 0.333008 26 1 38 2s22.667 2.16699 32 3.5v182h-79c-54 0 -98.333 -1.33301 -133 -4s-62 -7.83398 -82 -15.501s-33.667 -17.834 -41 -30.501s-11 -29 -11 -49c0 -20.667 5.16699 -37 15.5 -49s24.5 -21 42.5 -27
s38.833 -9.83301 62.5 -11.5s48.5 -2.5 74.5 -2.5zM487 821.002c-21.333 0 -44.502 -0.333008 -69.502 -1s-51 -1.5 -78 -2.5s-54.167 -2.16699 -81.5 -3.5s-53.333 -3 -78 -5c-13.333 -2 -20 4 -20 18v228c0 13.333 6.66699 21 20 23c27.333 4 56.5 7.5 87.5 10.5
s61.833 5.66699 92.5 8s60.334 4.16602 89.001 5.49902s54.334 2 77.001 2c74.667 0 139 -3.66699 193 -11s99.5 -18.5 136.5 -33.5s66.833 -34.167 89.5 -57.5s40.167 -51 52.5 -83s20.5 -68.333 24.5 -109s6 -86 6 -136v-652c0 -13.333 -6.66699 -21 -20 -23
c-38 -4.66699 -77.667 -8.83398 -119 -12.501s-82 -6.83398 -122 -9.50098s-77.833 -4.66699 -113.5 -6s-66.5 -2 -92.5 -2c-87.333 0 -162.833 5.33301 -226.5 16s-116 29 -157 55s-71.333 60.5 -91 103.5s-29.5 96.833 -29.5 161.5c0 46.667 3.16699 87.834 9.5 123.501
s17.5 66.5 33.5 92.5s37.833 47.667 65.5 65s62.667 31.333 105 42s93 18.167 152 22.5s127.833 6.5 206.5 6.5h75v33c0 22.667 -2.83301 42.334 -8.5 59.001s-16.334 30.334 -32.001 41.001s-37.667 18.5 -66 23.5s-65.166 7.5 -110.499 7.5zM371.998 1270
c-13.333 0 -16.332 5.66699 -8.99902 17l164 242c4 6.66699 8.33301 11.167 13 13.5s10.667 3.5 18 3.5h325c6 0 9.66699 -1.33301 11 -4s-0.333984 -6.33398 -5.00098 -11.001l-230 -246c-5.33301 -5.33301 -10.5 -9.16602 -15.5 -11.499s-11.167 -3.5 -18.5 -3.5h-253z
" />
    <glyph glyph-name="acircumflex" unicode="&#xe2;" horiz-adv-x="1142" 
d="M553 229c12.667 0 26 0.168945 40 0.501953l41 1c13.333 0.333008 26 1 38 2s22.667 2.16699 32 3.5v182h-79c-54 0 -98.333 -1.33301 -133 -4s-62 -7.83398 -82 -15.501s-33.667 -17.834 -41 -30.501s-11 -29 -11 -49c0 -20.667 5.16699 -37 15.5 -49s24.5 -21 42.5 -27
s38.833 -9.83301 62.5 -11.5s48.5 -2.5 74.5 -2.5zM487 821.002c-21.333 0 -44.502 -0.333008 -69.502 -1s-51 -1.5 -78 -2.5s-54.167 -2.16699 -81.5 -3.5s-53.333 -3 -78 -5c-13.333 -2 -20 4 -20 18v228c0 13.333 6.66699 21 20 23c27.333 4 56.5 7.5 87.5 10.5
s61.833 5.66699 92.5 8s60.334 4.16602 89.001 5.49902s54.334 2 77.001 2c74.667 0 139 -3.66699 193 -11s99.5 -18.5 136.5 -33.5s66.833 -34.167 89.5 -57.5s40.167 -51 52.5 -83s20.5 -68.333 24.5 -109s6 -86 6 -136v-652c0 -13.333 -6.66699 -21 -20 -23
c-38 -4.66699 -77.667 -8.83398 -119 -12.501s-82 -6.83398 -122 -9.50098s-77.833 -4.66699 -113.5 -6s-66.5 -2 -92.5 -2c-87.333 0 -162.833 5.33301 -226.5 16s-116 29 -157 55s-71.333 60.5 -91 103.5s-29.5 96.833 -29.5 161.5c0 46.667 3.16699 87.834 9.5 123.501
s17.5 66.5 33.5 92.5s37.833 47.667 65.5 65s62.667 31.333 105 42s93 18.167 152 22.5s127.833 6.5 206.5 6.5h75v33c0 22.667 -2.83301 42.334 -8.5 59.001s-16.334 30.334 -32.001 41.001s-37.667 18.5 -66 23.5s-65.166 7.5 -110.499 7.5zM380.998 1530
c8 10.667 18.665 16 31.998 16h296c13.333 0 24 -5.33301 32 -16l197 -265c8.66699 -10.667 6 -16 -8 -16h-263c-7.33301 0 -13.166 1.16699 -17.499 3.5s-8.5 6.83301 -12.5 13.5l-66 106h-20l-66 -106c-4 -6.66699 -8.16699 -11.167 -12.5 -13.5
s-10.166 -3.5 -17.499 -3.5h-263c-14 0 -16.667 5.33301 -8 16z" />
    <glyph glyph-name="atilde" unicode="&#xe3;" horiz-adv-x="1142" 
d="M553 229c12.667 0 26 0.168945 40 0.501953l41 1c13.333 0.333008 26 1 38 2s22.667 2.16699 32 3.5v182h-79c-54 0 -98.333 -1.33301 -133 -4s-62 -7.83398 -82 -15.501s-33.667 -17.834 -41 -30.501s-11 -29 -11 -49c0 -20.667 5.16699 -37 15.5 -49s24.5 -21 42.5 -27
s38.833 -9.83301 62.5 -11.5s48.5 -2.5 74.5 -2.5zM487 821.002c-21.333 0 -44.502 -0.333008 -69.502 -1s-51 -1.5 -78 -2.5s-54.167 -2.16699 -81.5 -3.5s-53.333 -3 -78 -5c-13.333 -2 -20 4 -20 18v228c0 13.333 6.66699 21 20 23c27.333 4 56.5 7.5 87.5 10.5
s61.833 5.66699 92.5 8s60.334 4.16602 89.001 5.49902s54.334 2 77.001 2c74.667 0 139 -3.66699 193 -11s99.5 -18.5 136.5 -33.5s66.833 -34.167 89.5 -57.5s40.167 -51 52.5 -83s20.5 -68.333 24.5 -109s6 -86 6 -136v-652c0 -13.333 -6.66699 -21 -20 -23
c-38 -4.66699 -77.667 -8.83398 -119 -12.501s-82 -6.83398 -122 -9.50098s-77.833 -4.66699 -113.5 -6s-66.5 -2 -92.5 -2c-87.333 0 -162.833 5.33301 -226.5 16s-116 29 -157 55s-71.333 60.5 -91 103.5s-29.5 96.833 -29.5 161.5c0 46.667 3.16699 87.834 9.5 123.501
s17.5 66.5 33.5 92.5s37.833 47.667 65.5 65s62.667 31.333 105 42s93 18.167 152 22.5s127.833 6.5 206.5 6.5h75v33c0 22.667 -2.83301 42.334 -8.5 59.001s-16.334 30.334 -32.001 41.001s-37.667 18.5 -66 23.5s-65.166 7.5 -110.499 7.5zM428.998 1343
c-6 0 -11.1641 -0.667969 -15.4971 -2.00098s-8 -4.66602 -11 -9.99902s-5.33301 -13.166 -7 -23.499s-2.83398 -24.5 -3.50098 -42.5c0 -13.333 -6.66699 -20 -20 -20h-185c-14 0 -21.333 6.66699 -22 20c-1.33301 8.66699 -2.33301 19.167 -3 31.5s-1 25.166 -1 38.499
c0 52 6.5 94 19.5 126s29.833 56.5 50.5 73.5s44 28.333 70 34s52.333 8.5 79 8.5c28 0 52.667 -2.66699 74 -8s44.666 -14.333 69.999 -27l49 -24c28 -14.667 49 -25.167 63 -31.5s25 -9.5 33 -9.5c6 0 11.333 0.666992 16 2s8.5 4.66602 11.5 9.99902
s5.16699 13.166 6.5 23.499s2.33301 24.5 3 42.5c0 13.333 6.66699 20 20 20h185c14 0 21.333 -6.66699 22 -20c1.33301 -8.66699 2.33301 -19.167 3 -31.5s1 -25.166 1 -38.499c0 -52 -6.33301 -93.833 -19 -125.5s-29.334 -56.167 -50.001 -73.5
s-44.167 -28.833 -70.5 -34.5s-52.833 -8.5 -79.5 -8.5c-14 0 -26.5 0.666992 -37.5 2s-22 3.33301 -33 6s-22.333 6.33398 -34 11.001l-38.5 16l-49 25c-28 14 -49 24.167 -63 30.5s-25.333 9.5 -34 9.5z" />
    <glyph glyph-name="adieresis" unicode="&#xe4;" horiz-adv-x="1142" 
d="M553 229c12.667 0 26 0.168945 40 0.501953l41 1c13.333 0.333008 26 1 38 2s22.667 2.16699 32 3.5v182h-79c-54 0 -98.333 -1.33301 -133 -4s-62 -7.83398 -82 -15.501s-33.667 -17.834 -41 -30.501s-11 -29 -11 -49c0 -20.667 5.16699 -37 15.5 -49s24.5 -21 42.5 -27
s38.833 -9.83301 62.5 -11.5s48.5 -2.5 74.5 -2.5zM487 821.002c-21.333 0 -44.502 -0.333008 -69.502 -1s-51 -1.5 -78 -2.5s-54.167 -2.16699 -81.5 -3.5s-53.333 -3 -78 -5c-13.333 -2 -20 4 -20 18v228c0 13.333 6.66699 21 20 23c27.333 4 56.5 7.5 87.5 10.5
s61.833 5.66699 92.5 8s60.334 4.16602 89.001 5.49902s54.334 2 77.001 2c74.667 0 139 -3.66699 193 -11s99.5 -18.5 136.5 -33.5s66.833 -34.167 89.5 -57.5s40.167 -51 52.5 -83s20.5 -68.333 24.5 -109s6 -86 6 -136v-652c0 -13.333 -6.66699 -21 -20 -23
c-38 -4.66699 -77.667 -8.83398 -119 -12.501s-82 -6.83398 -122 -9.50098s-77.833 -4.66699 -113.5 -6s-66.5 -2 -92.5 -2c-87.333 0 -162.833 5.33301 -226.5 16s-116 29 -157 55s-71.333 60.5 -91 103.5s-29.5 96.833 -29.5 161.5c0 46.667 3.16699 87.834 9.5 123.501
s17.5 66.5 33.5 92.5s37.833 47.667 65.5 65s62.667 31.333 105 42s93 18.167 152 22.5s127.833 6.5 206.5 6.5h75v33c0 22.667 -2.83301 42.334 -8.5 59.001s-16.334 30.334 -32.001 41.001s-37.667 18.5 -66 23.5s-65.166 7.5 -110.499 7.5zM191.998 1219
c-13.333 0 -20 6.66699 -20 20v287c0 13.333 6.66699 21 20 23l282 35c13.333 2 20 -3.66699 20 -17v-328c0 -13.333 -6.66699 -20 -20 -20h-282zM648.998 1219c-13.333 0 -20 6.66699 -20 20v287c0 13.333 6.66699 21 20 23l281 35c13.333 2 20 -3.66699 20 -17v-328
c0 -13.333 -6.66699 -20 -20 -20h-281z" />
    <glyph glyph-name="aring" unicode="&#xe5;" horiz-adv-x="1142" 
d="M553 229c12.667 0 26 0.168945 40 0.501953l41 1c13.333 0.333008 26 1 38 2s22.667 2.16699 32 3.5v182h-79c-54 0 -98.333 -1.33301 -133 -4s-62 -7.83398 -82 -15.501s-33.667 -17.834 -41 -30.501s-11 -29 -11 -49c0 -20.667 5.16699 -37 15.5 -49s24.5 -21 42.5 -27
s38.833 -9.83301 62.5 -11.5s48.5 -2.5 74.5 -2.5zM487 821.002c-21.333 0 -44.502 -0.333008 -69.502 -1s-51 -1.5 -78 -2.5s-54.167 -2.16699 -81.5 -3.5s-53.333 -3 -78 -5c-13.333 -2 -20 4 -20 18v228c0 13.333 6.66699 21 20 23c27.333 4 56.5 7.5 87.5 10.5
s61.833 5.66699 92.5 8s60.334 4.16602 89.001 5.49902s54.334 2 77.001 2c74.667 0 139 -3.66699 193 -11s99.5 -18.5 136.5 -33.5s66.833 -34.167 89.5 -57.5s40.167 -51 52.5 -83s20.5 -68.333 24.5 -109s6 -86 6 -136v-652c0 -13.333 -6.66699 -21 -20 -23
c-38 -4.66699 -77.667 -8.83398 -119 -12.501s-82 -6.83398 -122 -9.50098s-77.833 -4.66699 -113.5 -6s-66.5 -2 -92.5 -2c-87.333 0 -162.833 5.33301 -226.5 16s-116 29 -157 55s-71.333 60.5 -91 103.5s-29.5 96.833 -29.5 161.5c0 46.667 3.16699 87.834 9.5 123.501
s17.5 66.5 33.5 92.5s37.833 47.667 65.5 65s62.667 31.333 105 42s93 18.167 152 22.5s127.833 6.5 206.5 6.5h75v33c0 22.667 -2.83301 42.334 -8.5 59.001s-16.334 30.334 -32.001 41.001s-37.667 18.5 -66 23.5s-65.166 7.5 -110.499 7.5zM571.998 1458
c-10 0 -19.5 -0.5 -28.5 -1.5s-16.667 -3.5 -23 -7.5s-11.333 -9.66699 -15 -17s-5.5 -17 -5.5 -29s1.83301 -21.667 5.5 -29s8.66699 -13 15 -17s14 -6.5 23 -7.5s18.5 -1.5 28.5 -1.5s19.333 0.5 28 1.5s16.167 3.5 22.5 7.5s11.333 9.66699 15 17s5.5 17 5.5 29
s-1.83301 21.667 -5.5 29s-8.66699 13 -15 17s-13.833 6.5 -22.5 7.5s-18 1.5 -28 1.5zM560.998 1176c-47.333 0 -88 5.33301 -122 16s-61.833 26 -83.5 46s-37.5 44 -47.5 72s-15 59 -15 93s5 65 15 93s25.833 52 47.5 72s49.5 35.333 83.5 46s74.667 16 122 16
c46 0 86 -5.33301 120 -16s62 -26 84 -46s38.333 -44 49 -72s16 -59 16 -93s-5.33301 -65 -16 -93s-27 -52 -49 -72s-50 -35.333 -84 -46s-74 -16 -120 -16z" />
    <glyph glyph-name="ae" unicode="&#xe6;" horiz-adv-x="1794" 
d="M487 821c-21.333 0 -44.5 -0.334961 -69.5 -1.00195s-51 -1.5 -78 -2.5s-54.167 -2.16699 -81.5 -3.5s-53.333 -3 -78 -5c-13.333 -2 -20 4 -20 18v228c0 13.333 6.66699 21 20 23c27.333 4 56.5 7.5 87.5 10.5s61.833 5.66699 92.5 8s60.334 4.16602 89.001 5.49902
s54.334 2 77.001 2c92 0 168 -5.5 228 -16.5s108.667 -27.833 146 -50.5c78 42 183 63 315 63c92.667 0 171.5 -9.5 236.5 -28.5s117.833 -48.667 158.5 -89s70.334 -91.833 89.001 -154.5s28 -137.334 28 -224.001c0 -40 -2.83301 -76.667 -8.5 -110s-10.5 -58 -14.5 -74
c-2.66699 -11.333 -9.66699 -17 -21 -17h-648c3.33301 -33.333 9.66602 -60 18.999 -80s22.333 -35.333 39 -46s37.334 -17.5 62.001 -20.5s54.334 -4.5 89.001 -4.5c60.667 0 121.5 1 182.5 3s125.833 5.33301 194.5 10c13.333 0.666992 20.333 -5.66602 21 -18.999
l14 -226c0.666992 -13.333 -5.66602 -21 -18.999 -23c-66.667 -8 -134.334 -14.667 -203.001 -20s-140.334 -8 -215.001 -8c-46 0 -88.167 2.33301 -126.5 7s-73.5 11.667 -105.5 21c-37.333 -4 -75.833 -7.83301 -115.5 -11.5s-78.334 -6.66699 -116.001 -9
s-73.334 -4.16602 -107.001 -5.49902s-62.834 -2 -87.501 -2c-87.333 0 -162.833 5.33301 -226.5 16s-116 29 -157 55s-71.333 60.5 -91 103.5s-29.5 96.833 -29.5 161.5c0 44.667 3.16699 84 9.5 118s17.5 63.5 33.5 88.5s37.833 45.833 65.5 62.5s62.667 30 105 40
s93 17.167 152 21.5s127.833 6.5 206.5 6.5h75v48c0 22.667 -2.83301 42.334 -8.5 59.001s-16.334 30.334 -32.001 41.001s-37.667 18.5 -66 23.5s-65.166 7.5 -110.499 7.5zM1428 650.998c-6.66699 34 -15 61.667 -25 83s-23 38.166 -39 50.499s-36 20.833 -60 25.5
s-53.667 7 -89 7c-34 0 -62.5 -3 -85.5 -9s-41.5 -16.167 -55.5 -30.5s-24.333 -33.166 -31 -56.499s-10.667 -52.333 -12 -87zM553 228.998c12.667 0 26 0.166016 40 0.499023l41 1c13.333 0.333008 26 1 38 2s22.667 2.16699 32 3.5v167h-79
c-54 0 -98.333 -1.16699 -133 -3.5s-62 -6.66602 -82 -12.999s-33.667 -15 -41 -26s-11 -24.833 -11 -41.5c0 -20.667 5.16699 -37 15.5 -49s24.5 -21 42.5 -27s38.833 -9.83301 62.5 -11.5s48.5 -2.5 74.5 -2.5z" />
    <glyph glyph-name="ccedilla" unicode="&#xe7;" horiz-adv-x="965" 
d="M613 -31c-102 0 -186.997 10.002 -254.997 30.002s-122.167 50.5 -162.5 91.5s-68.833 93.167 -85.5 156.5s-25 138.666 -25 225.999v125c0 86.667 8.33301 161.5 25 224.5s45.167 115 85.5 156s94.5 71.5 162.5 91.5s153 30 255 30c50 0 97 -2.33301 141 -7
s84 -10.667 120 -18c13.333 -2.66699 19.666 -10.667 18.999 -24l-14 -236c-0.666992 -7.33301 -2.5 -12.333 -5.5 -15s-8.16699 -3.66699 -15.5 -3c-36.667 3.33301 -74 5.83301 -112 7.5s-78.667 2.5 -122 2.5c-46 0 -82.5 -3.83301 -109.5 -11.5s-47.5 -20.667 -61.5 -39
s-23.167 -42.5 -27.5 -72.5s-6.5 -67 -6.5 -111v-77c0 -44 2 -81 6 -111s13 -54.167 27 -72.5s34.667 -31.333 62 -39s64 -11.5 110 -11.5c43.333 0 84 1.16699 122 3.5s75.333 5.16602 112 8.49902c7.33301 0.666992 12.5 -0.333008 15.5 -3s4.83301 -7.66699 5.5 -15
l14 -236c0.666992 -13.333 -5.66602 -21.333 -18.999 -24c-17.333 -4 -36.333 -7.5 -57 -10.5s-42.334 -5.83301 -65.001 -8.5s-45.834 -4.66699 -69.501 -6s-46.834 -2 -69.501 -2zM267.003 -388.998c-12.667 0 -16 5.66602 -10 16.999l156 253
c3.33301 6.66699 7.33301 11.167 12 13.5s10.667 3.5 18 3.5h242c13.333 0 16.666 -6 9.99902 -18l-135 -251c-4 -7.33301 -8.16699 -12.166 -12.5 -14.499s-10.166 -3.5 -17.499 -3.5h-263z" />
    <glyph glyph-name="egrave" unicode="&#xe8;" horiz-adv-x="1172" 
d="M597 -31c-93.333 0 -172.502 9.83203 -237.502 29.499s-118 50 -159 91s-70.833 93.333 -89.5 157s-28 139.834 -28 228.501v115c0 88.667 9.33301 165 28 229s48.334 116.833 89.001 158.5s93.334 72.5 158.001 92.5s143 30 235 30c92.667 0 171.5 -10 236.5 -30
s117.833 -51 158.5 -93s70.334 -95.5 89.001 -160.5s28 -142.5 28 -232.5c0 -40 -2.83301 -76.833 -8.5 -110.5s-10.5 -58.834 -14.5 -75.501c-2.66699 -11.333 -9.66699 -17 -21 -17l-645 -2c4.66699 -28 12 -50.333 22 -67s23.167 -29.5 39.5 -38.5
s36.5 -14.833 60.5 -17.5s52 -4 84 -4c60.667 0 121.5 1 182.5 3s125.833 5.33301 194.5 10c13.333 0.666992 20.333 -5.66602 21 -18.999l14 -226c0.666992 -13.333 -5.66602 -21 -18.999 -23c-66.667 -8 -134.334 -14.667 -203.001 -20s-140.334 -8 -215.001 -8z
M805.998 630.999c-6.66699 38 -15 69 -25 93s-23 42.833 -39 56.5s-36 23.167 -60 28.5s-53.667 8 -89 8c-36 0 -65.667 -3.33301 -89 -10s-41.833 -18 -55.5 -34s-23.5 -37 -29.5 -63s-9.33301 -58.333 -10 -97zM539.998 1270c-7.33301 0 -13.499 1.16699 -18.499 3.5
s-10.167 6.16602 -15.5 11.499l-230 246c-4.66699 4.66699 -6.33398 8.33398 -5.00098 11.001s5 4 11 4h324c7.33301 0 13.333 -1.16699 18 -3.5s9 -6.83301 13 -13.5l164 -242c7.33301 -11.333 4.33301 -17 -9 -17h-252z" />
    <glyph glyph-name="eacute" unicode="&#xe9;" horiz-adv-x="1172" 
d="M597 -31c-93.333 0 -172.502 9.83203 -237.502 29.499s-118 50 -159 91s-70.833 93.333 -89.5 157s-28 139.834 -28 228.501v115c0 88.667 9.33301 165 28 229s48.334 116.833 89.001 158.5s93.334 72.5 158.001 92.5s143 30 235 30c92.667 0 171.5 -10 236.5 -30
s117.833 -51 158.5 -93s70.334 -95.5 89.001 -160.5s28 -142.5 28 -232.5c0 -40 -2.83301 -76.833 -8.5 -110.5s-10.5 -58.834 -14.5 -75.501c-2.66699 -11.333 -9.66699 -17 -21 -17l-645 -2c4.66699 -28 12 -50.333 22 -67s23.167 -29.5 39.5 -38.5
s36.5 -14.833 60.5 -17.5s52 -4 84 -4c60.667 0 121.5 1 182.5 3s125.833 5.33301 194.5 10c13.333 0.666992 20.333 -5.66602 21 -18.999l14 -226c0.666992 -13.333 -5.66602 -21 -18.999 -23c-66.667 -8 -134.334 -14.667 -203.001 -20s-140.334 -8 -215.001 -8z
M805.998 630.999c-6.66699 38 -15 69 -25 93s-23 42.833 -39 56.5s-36 23.167 -60 28.5s-53.667 8 -89 8c-36 0 -65.667 -3.33301 -89 -10s-41.833 -18 -55.5 -34s-23.5 -37 -29.5 -63s-9.33301 -58.333 -10 -97zM434.998 1270c-13.333 0 -16.332 5.66699 -8.99902 17
l164 242c4 6.66699 8.33301 11.167 13 13.5s10.667 3.5 18 3.5h325c6 0 9.66699 -1.33301 11 -4s-0.333984 -6.33398 -5.00098 -11.001l-230 -246c-5.33301 -5.33301 -10.5 -9.16602 -15.5 -11.499s-11.167 -3.5 -18.5 -3.5h-253z" />
    <glyph glyph-name="ecircumflex" unicode="&#xea;" horiz-adv-x="1172" 
d="M597 -31c-93.333 0 -172.502 9.83203 -237.502 29.499s-118 50 -159 91s-70.833 93.333 -89.5 157s-28 139.834 -28 228.501v115c0 88.667 9.33301 165 28 229s48.334 116.833 89.001 158.5s93.334 72.5 158.001 92.5s143 30 235 30c92.667 0 171.5 -10 236.5 -30
s117.833 -51 158.5 -93s70.334 -95.5 89.001 -160.5s28 -142.5 28 -232.5c0 -40 -2.83301 -76.833 -8.5 -110.5s-10.5 -58.834 -14.5 -75.501c-2.66699 -11.333 -9.66699 -17 -21 -17l-645 -2c4.66699 -28 12 -50.333 22 -67s23.167 -29.5 39.5 -38.5
s36.5 -14.833 60.5 -17.5s52 -4 84 -4c60.667 0 121.5 1 182.5 3s125.833 5.33301 194.5 10c13.333 0.666992 20.333 -5.66602 21 -18.999l14 -226c0.666992 -13.333 -5.66602 -21 -18.999 -23c-66.667 -8 -134.334 -14.667 -203.001 -20s-140.334 -8 -215.001 -8z
M805.998 630.999c-6.66699 38 -15 69 -25 93s-23 42.833 -39 56.5s-36 23.167 -60 28.5s-53.667 8 -89 8c-36 0 -65.667 -3.33301 -89 -10s-41.833 -18 -55.5 -34s-23.5 -37 -29.5 -63s-9.33301 -58.333 -10 -97zM402.998 1530c8 10.667 18.665 16 31.998 16h296
c13.333 0 24 -5.33301 32 -16l197 -265c8.66699 -10.667 6 -16 -8 -16h-263c-7.33301 0 -13.166 1.16699 -17.499 3.5s-8.5 6.83301 -12.5 13.5l-66 106h-20l-66 -106c-4 -6.66699 -8.16699 -11.167 -12.5 -13.5s-10.166 -3.5 -17.499 -3.5h-263
c-14 0 -16.667 5.33301 -8 16z" />
    <glyph glyph-name="edieresis" unicode="&#xeb;" horiz-adv-x="1172" 
d="M597 -31c-93.333 0 -172.502 9.83203 -237.502 29.499s-118 50 -159 91s-70.833 93.333 -89.5 157s-28 139.834 -28 228.501v115c0 88.667 9.33301 165 28 229s48.334 116.833 89.001 158.5s93.334 72.5 158.001 92.5s143 30 235 30c92.667 0 171.5 -10 236.5 -30
s117.833 -51 158.5 -93s70.334 -95.5 89.001 -160.5s28 -142.5 28 -232.5c0 -40 -2.83301 -76.833 -8.5 -110.5s-10.5 -58.834 -14.5 -75.501c-2.66699 -11.333 -9.66699 -17 -21 -17l-645 -2c4.66699 -28 12 -50.333 22 -67s23.167 -29.5 39.5 -38.5
s36.5 -14.833 60.5 -17.5s52 -4 84 -4c60.667 0 121.5 1 182.5 3s125.833 5.33301 194.5 10c13.333 0.666992 20.333 -5.66602 21 -18.999l14 -226c0.666992 -13.333 -5.66602 -21 -18.999 -23c-66.667 -8 -134.334 -14.667 -203.001 -20s-140.334 -8 -215.001 -8z
M805.998 630.999c-6.66699 38 -15 69 -25 93s-23 42.833 -39 56.5s-36 23.167 -60 28.5s-53.667 8 -89 8c-36 0 -65.667 -3.33301 -89 -10s-41.833 -18 -55.5 -34s-23.5 -37 -29.5 -63s-9.33301 -58.333 -10 -97zM213.998 1219c-13.333 0 -20 6.66699 -20 20v287
c0 13.333 6.66699 21 20 23l282 35c13.333 2 20 -3.66699 20 -17v-328c0 -13.333 -6.66699 -20 -20 -20h-282zM670.998 1219c-13.333 0 -20 6.66699 -20 20v287c0 13.333 6.66699 21 20 23l281 35c13.333 2 20 -3.66699 20 -17v-328c0 -13.333 -6.66699 -20 -20 -20h-281z
" />
    <glyph glyph-name="igrave" unicode="&#xec;" horiz-adv-x="585" 
d="M147 0c-13.333 0 -20 6.66699 -20 20v1031c0 13.333 6.66699 20 20 20h292c13.333 0 20 -6.66699 20 -20v-1031c0 -13.333 -6.66699 -20 -20 -20h-292zM230 1270c-7.33301 0 -13.499 1.16699 -18.499 3.5s-10.167 6.16602 -15.5 11.499l-230 246
c-4.66699 4.66699 -6.33398 8.33398 -5.00098 11.001s5 4 11 4h324c7.33301 0 13.333 -1.16699 18 -3.5s9 -6.83301 13 -13.5l164 -242c7.33301 -11.333 4.33301 -17 -9 -17h-252z" />
    <glyph glyph-name="iacute" unicode="&#xed;" horiz-adv-x="584" 
d="M146 0c-13.333 0 -20 6.66699 -20 20v1031c0 13.333 6.66699 20 20 20h292c13.333 0 20 -6.66699 20 -20v-1031c0 -13.333 -6.66699 -20 -20 -20h-292zM43 1270c-13.333 0 -16.332 5.66699 -8.99902 17l164 242c4 6.66699 8.33301 11.167 13 13.5s10.667 3.5 18 3.5h325
c6 0 9.66699 -1.33301 11 -4s-0.333984 -6.33398 -5.00098 -11.001l-230 -246c-5.33301 -5.33301 -10.5 -9.16602 -15.5 -11.499s-11.167 -3.5 -18.5 -3.5h-253z" />
    <glyph glyph-name="icircumflex" unicode="&#xee;" horiz-adv-x="584" 
d="M146 0c-13.333 0 -20 6.66699 -20 20v1031c0 13.333 6.66699 20 20 20h292c13.333 0 20 -6.66699 20 -20v-1031c0 -13.333 -6.66699 -20 -20 -20h-292zM113 1530c8 10.667 18.665 16 31.998 16h296c13.333 0 24 -5.33301 32 -16l197 -265c8.66699 -10.667 6 -16 -8 -16
h-263c-7.33301 0 -13.166 1.16699 -17.499 3.5s-8.5 6.83301 -12.5 13.5l-66 106h-20l-66 -106c-4 -6.66699 -8.16699 -11.167 -12.5 -13.5s-10.166 -3.5 -17.499 -3.5h-263c-14 0 -16.667 5.33301 -8 16z" />
    <glyph glyph-name="idieresis" unicode="&#xef;" horiz-adv-x="584" 
d="M146 0c-13.333 0 -20 6.66699 -20 20v1031c0 13.333 6.66699 20 20 20h292c13.333 0 20 -6.66699 20 -20v-1031c0 -13.333 -6.66699 -20 -20 -20h-292zM-76 1219c-13.333 0 -20 6.66699 -20 20v287c0 13.333 6.66699 21 20 23l282 35c13.333 2 20 -3.66699 20 -17v-328
c0 -13.333 -6.66699 -20 -20 -20h-282zM381 1219c-13.333 0 -20 6.66699 -20 20v287c0 13.333 6.66699 21 20 23l281 35c13.333 2 20 -3.66699 20 -17v-328c0 -13.333 -6.66699 -20 -20 -20h-281z" />
    <glyph glyph-name="eth" unicode="&#xf0;" horiz-adv-x="1188" 
d="M743 1407c68.667 -45.333 125.33 -97.167 169.997 -155.5s80.334 -122.5 107.001 -192.5s45.167 -145.5 55.5 -226.5s15.5 -166.833 15.5 -257.5v-88c0 -90.667 -8.83301 -168.667 -26.5 -234s-46.167 -119 -85.5 -161s-90.166 -73 -152.499 -93
s-138.166 -30 -227.499 -30c-94 0 -173.833 10 -239.5 30s-119 51 -160 93s-70.667 95.667 -89 161s-27.5 143.333 -27.5 234v88c0 86.667 9.5 161.334 28.5 224.001s48.167 114.167 87.5 154.5s89.5 70 150.5 89s133.167 28.5 216.5 28.5c30.667 0 60 -3.16699 88 -9.5
s54.667 -15.166 80 -26.499c-54.667 87.333 -128.334 158 -221.001 212l-190 -132c-10.667 -7.33301 -20 -5.66602 -28 5.00098l-52 74c-8 10.667 -6.66699 19.667 4 27l128 90c-24 8.66699 -49.167 16.667 -75.5 24s-53.5 13.666 -81.5 18.999
c-13.333 2.66699 -18.666 10.667 -15.999 24l39 190c2.66699 12.667 10.667 17.667 24 15c68.667 -12.667 132 -27.834 190 -45.501s111.333 -37.5 160 -59.5l196 137c10.667 7.33301 20 5.66602 28 -5.00098l52 -76c8 -10.667 6.66699 -19.667 -4 -27zM598.996 814.999
c-36 0 -66.002 -4.16602 -90.002 -12.499s-43.167 -22.166 -57.5 -41.499s-24.333 -45 -30 -77s-8.5 -71.667 -8.5 -119v-67c0 -48 2.66699 -87.833 8 -119.5s15 -57 29 -76s33 -32.5 57 -40.5s54.667 -12 92 -12c36.667 0 67 4.16699 91 12.5s43.333 22.166 58 41.499
s25 45 31 77s9 71.667 9 119v65c0 47.333 -2.83301 87 -8.5 119s-15.667 57.667 -30 77s-33.666 33.166 -57.999 41.499s-55.166 12.5 -92.499 12.5z" />
    <glyph glyph-name="ntilde" unicode="&#xf1;" horiz-adv-x="1255" 
d="M830 0c-13.333 0 -20.001 6.66602 -20.001 19.999v543c0 36.667 -2.16699 68.667 -6.5 96s-13.166 50 -26.499 68s-32.333 31.333 -57 40s-57.334 13 -98.001 13c-13.333 0 -27.5 -0.666992 -42.5 -2s-30 -3.16602 -45 -5.49902s-29.5 -5.16602 -43.5 -8.49902
s-27 -7 -39 -11v-733c0 -13.333 -6.66699 -20 -20 -20h-292c-13.333 0 -20 6.66699 -20 20v1050c0 13.333 6.66699 20 20 20h230c7.33301 0 13.166 -1.16699 17.499 -3.5s8.5 -6.83301 12.5 -13.5l31 -57c40 25.333 87.333 45.666 142 60.999s115.334 23 182.001 23
c62.667 0 118.167 -8.33301 166.5 -25s88.833 -43.5 121.5 -80.5s57.334 -85.333 74.001 -145s25 -132.5 25 -218.5v-611c0 -13.333 -6.66699 -20 -20 -20h-292zM499.999 1343c-6 0 -11.1641 -0.667969 -15.4971 -2.00098s-8 -4.66602 -11 -9.99902
s-5.33301 -13.166 -7 -23.499s-2.83398 -24.5 -3.50098 -42.5c0 -13.333 -6.66699 -20 -20 -20h-185c-14 0 -21.333 6.66699 -22 20c-1.33301 8.66699 -2.33301 19.167 -3 31.5s-1 25.166 -1 38.499c0 52 6.5 94 19.5 126s29.833 56.5 50.5 73.5s44 28.333 70 34
s52.333 8.5 79 8.5c28 0 52.667 -2.66699 74 -8s44.666 -14.333 69.999 -27l49 -24c28 -14.667 49 -25.167 63 -31.5s25 -9.5 33 -9.5c6 0 11.333 0.666992 16 2s8.5 4.66602 11.5 9.99902s5.16699 13.166 6.5 23.499s2.33301 24.5 3 42.5c0 13.333 6.66699 20 20 20h185
c14 0 21.333 -6.66699 22 -20c1.33301 -8.66699 2.33301 -19.167 3 -31.5s1 -25.166 1 -38.499c0 -52 -6.33301 -93.833 -19 -125.5s-29.334 -56.167 -50.001 -73.5s-44.167 -28.833 -70.5 -34.5s-52.833 -8.5 -79.5 -8.5c-14 0 -26.5 0.666992 -37.5 2s-22 3.33301 -33 6
s-22.333 6.33398 -34 11.001l-38.5 16l-49 25c-28 14 -49 24.167 -63 30.5s-25.333 9.5 -34 9.5z" />
    <glyph glyph-name="ograve" unicode="&#xf2;" horiz-adv-x="1188" 
d="M593 817c-38.667 0 -69.999 -3.66797 -93.999 -11.001s-42.667 -20.166 -56 -38.499s-22.333 -42.833 -27 -73.5s-7 -69.334 -7 -116.001v-86c0 -46 2.5 -84.5 7.5 -115.5s14.333 -55.667 28 -74s32.5 -31.333 56.5 -39s54.667 -11.5 92 -11.5c38 0 69 3.83301 93 11.5
s42.833 20.834 56.5 39.501s23.167 43.5 28.5 74.5s8 69.833 8 116.5v84c0 46.667 -2.33301 85.334 -7 116.001s-13.834 55.167 -27.501 73.5s-32.667 31.166 -57 38.499s-55.833 11 -94.5 11zM593.001 -31.001c-92 0 -170.333 9.83301 -235 29.5
s-117.334 50.334 -158.001 92.001s-70.334 94.834 -89.001 159.501s-28 141.667 -28 231v105c0 89.333 9.33301 166.333 28 231s48.334 118 89.001 160s93.334 73 158.001 93s143 30 235 30c92.667 0 171.5 -10 236.5 -30s117.833 -51 158.5 -93s70.334 -95.333 89.001 -160
s28 -141.667 28 -231v-105c0 -89.333 -9.33301 -166.333 -28 -231s-48.334 -117.834 -89.001 -159.501s-93.5 -72.334 -158.5 -92.001s-143.833 -29.5 -236.5 -29.5zM519.001 1270c-7.33301 0 -13.499 1.16699 -18.499 3.5s-10.167 6.16602 -15.5 11.499l-230 246
c-4.66699 4.66699 -6.33398 8.33398 -5.00098 11.001s5 4 11 4h324c7.33301 0 13.333 -1.16699 18 -3.5s9 -6.83301 13 -13.5l164 -242c7.33301 -11.333 4.33301 -17 -9 -17h-252z" />
    <glyph glyph-name="oacute" unicode="&#xf3;" horiz-adv-x="1188" 
d="M593 817c-38.667 0 -69.999 -3.66797 -93.999 -11.001s-42.667 -20.166 -56 -38.499s-22.333 -42.833 -27 -73.5s-7 -69.334 -7 -116.001v-86c0 -46 2.5 -84.5 7.5 -115.5s14.333 -55.667 28 -74s32.5 -31.333 56.5 -39s54.667 -11.5 92 -11.5c38 0 69 3.83301 93 11.5
s42.833 20.834 56.5 39.501s23.167 43.5 28.5 74.5s8 69.833 8 116.5v84c0 46.667 -2.33301 85.334 -7 116.001s-13.834 55.167 -27.501 73.5s-32.667 31.166 -57 38.499s-55.833 11 -94.5 11zM593.001 -31.001c-92 0 -170.333 9.83301 -235 29.5
s-117.334 50.334 -158.001 92.001s-70.334 94.834 -89.001 159.501s-28 141.667 -28 231v105c0 89.333 9.33301 166.333 28 231s48.334 118 89.001 160s93.334 73 158.001 93s143 30 235 30c92.667 0 171.5 -10 236.5 -30s117.833 -51 158.5 -93s70.334 -95.333 89.001 -160
s28 -141.667 28 -231v-105c0 -89.333 -9.33301 -166.333 -28 -231s-48.334 -117.834 -89.001 -159.501s-93.5 -72.334 -158.5 -92.001s-143.833 -29.5 -236.5 -29.5zM403.001 1270c-13.333 0 -16.332 5.66699 -8.99902 17l164 242c4 6.66699 8.33301 11.167 13 13.5
s10.667 3.5 18 3.5h325c6 0 9.66699 -1.33301 11 -4s-0.333984 -6.33398 -5.00098 -11.001l-230 -246c-5.33301 -5.33301 -10.5 -9.16602 -15.5 -11.499s-11.167 -3.5 -18.5 -3.5h-253z" />
    <glyph glyph-name="ocircumflex" unicode="&#xf4;" horiz-adv-x="1188" 
d="M593 817c-38.667 0 -69.999 -3.66797 -93.999 -11.001s-42.667 -20.166 -56 -38.499s-22.333 -42.833 -27 -73.5s-7 -69.334 -7 -116.001v-86c0 -46 2.5 -84.5 7.5 -115.5s14.333 -55.667 28 -74s32.5 -31.333 56.5 -39s54.667 -11.5 92 -11.5c38 0 69 3.83301 93 11.5
s42.833 20.834 56.5 39.501s23.167 43.5 28.5 74.5s8 69.833 8 116.5v84c0 46.667 -2.33301 85.334 -7 116.001s-13.834 55.167 -27.501 73.5s-32.667 31.166 -57 38.499s-55.833 11 -94.5 11zM593.001 -31.001c-92 0 -170.333 9.83301 -235 29.5
s-117.334 50.334 -158.001 92.001s-70.334 94.834 -89.001 159.501s-28 141.667 -28 231v105c0 89.333 9.33301 166.333 28 231s48.334 118 89.001 160s93.334 73 158.001 93s143 30 235 30c92.667 0 171.5 -10 236.5 -30s117.833 -51 158.5 -93s70.334 -95.333 89.001 -160
s28 -141.667 28 -231v-105c0 -89.333 -9.33301 -166.333 -28 -231s-48.334 -117.834 -89.001 -159.501s-93.5 -72.334 -158.5 -92.001s-143.833 -29.5 -236.5 -29.5zM413.001 1530c8 10.667 18.665 16 31.998 16h296c13.333 0 24 -5.33301 32 -16l197 -265
c8.66699 -10.667 6 -16 -8 -16h-263c-7.33301 0 -13.166 1.16699 -17.499 3.5s-8.5 6.83301 -12.5 13.5l-66 106h-20l-66 -106c-4 -6.66699 -8.16699 -11.167 -12.5 -13.5s-10.166 -3.5 -17.499 -3.5h-263c-14 0 -16.667 5.33301 -8 16z" />
    <glyph glyph-name="otilde" unicode="&#xf5;" horiz-adv-x="1188" 
d="M593 817c-38.667 0 -69.999 -3.66797 -93.999 -11.001s-42.667 -20.166 -56 -38.499s-22.333 -42.833 -27 -73.5s-7 -69.334 -7 -116.001v-86c0 -46 2.5 -84.5 7.5 -115.5s14.333 -55.667 28 -74s32.5 -31.333 56.5 -39s54.667 -11.5 92 -11.5c38 0 69 3.83301 93 11.5
s42.833 20.834 56.5 39.501s23.167 43.5 28.5 74.5s8 69.833 8 116.5v84c0 46.667 -2.33301 85.334 -7 116.001s-13.834 55.167 -27.501 73.5s-32.667 31.166 -57 38.499s-55.833 11 -94.5 11zM593.001 -31.001c-92 0 -170.333 9.83301 -235 29.5
s-117.334 50.334 -158.001 92.001s-70.334 94.834 -89.001 159.501s-28 141.667 -28 231v105c0 89.333 9.33301 166.333 28 231s48.334 118 89.001 160s93.334 73 158.001 93s143 30 235 30c92.667 0 171.5 -10 236.5 -30s117.833 -51 158.5 -93s70.334 -95.333 89.001 -160
s28 -141.667 28 -231v-105c0 -89.333 -9.33301 -166.333 -28 -231s-48.334 -117.834 -89.001 -159.501s-93.5 -72.334 -158.5 -92.001s-143.833 -29.5 -236.5 -29.5zM464.001 1343c-6 0 -11.1641 -0.667969 -15.4971 -2.00098s-8 -4.66602 -11 -9.99902
s-5.33301 -13.166 -7 -23.499s-2.83398 -24.5 -3.50098 -42.5c0 -13.333 -6.66699 -20 -20 -20h-185c-14 0 -21.333 6.66699 -22 20c-1.33301 8.66699 -2.33301 19.167 -3 31.5s-1 25.166 -1 38.499c0 52 6.5 94 19.5 126s29.833 56.5 50.5 73.5s44 28.333 70 34
s52.333 8.5 79 8.5c28 0 52.667 -2.66699 74 -8s44.666 -14.333 69.999 -27l49 -24c28 -14.667 49 -25.167 63 -31.5s25 -9.5 33 -9.5c6 0 11.333 0.666992 16 2s8.5 4.66602 11.5 9.99902s5.16699 13.166 6.5 23.499s2.33301 24.5 3 42.5c0 13.333 6.66699 20 20 20h185
c14 0 21.333 -6.66699 22 -20c1.33301 -8.66699 2.33301 -19.167 3 -31.5s1 -25.166 1 -38.499c0 -52 -6.33301 -93.833 -19 -125.5s-29.334 -56.167 -50.001 -73.5s-44.167 -28.833 -70.5 -34.5s-52.833 -8.5 -79.5 -8.5c-14 0 -26.5 0.666992 -37.5 2s-22 3.33301 -33 6
s-22.333 6.33398 -34 11.001l-38.5 16l-49 25c-28 14 -49 24.167 -63 30.5s-25.333 9.5 -34 9.5z" />
    <glyph glyph-name="odieresis" unicode="&#xf6;" horiz-adv-x="1188" 
d="M593 817c-38.667 0 -69.999 -3.66797 -93.999 -11.001s-42.667 -20.166 -56 -38.499s-22.333 -42.833 -27 -73.5s-7 -69.334 -7 -116.001v-86c0 -46 2.5 -84.5 7.5 -115.5s14.333 -55.667 28 -74s32.5 -31.333 56.5 -39s54.667 -11.5 92 -11.5c38 0 69 3.83301 93 11.5
s42.833 20.834 56.5 39.501s23.167 43.5 28.5 74.5s8 69.833 8 116.5v84c0 46.667 -2.33301 85.334 -7 116.001s-13.834 55.167 -27.501 73.5s-32.667 31.166 -57 38.499s-55.833 11 -94.5 11zM593.001 -31.001c-92 0 -170.333 9.83301 -235 29.5
s-117.334 50.334 -158.001 92.001s-70.334 94.834 -89.001 159.501s-28 141.667 -28 231v105c0 89.333 9.33301 166.333 28 231s48.334 118 89.001 160s93.334 73 158.001 93s143 30 235 30c92.667 0 171.5 -10 236.5 -30s117.833 -51 158.5 -93s70.334 -95.333 89.001 -160
s28 -141.667 28 -231v-105c0 -89.333 -9.33301 -166.333 -28 -231s-48.334 -117.834 -89.001 -159.501s-93.5 -72.334 -158.5 -92.001s-143.833 -29.5 -236.5 -29.5zM214.001 1219c-13.333 0 -20 6.66699 -20 20v287c0 13.333 6.66699 21 20 23l282 35
c13.333 2 20 -3.66699 20 -17v-328c0 -13.333 -6.66699 -20 -20 -20h-282zM671.001 1219c-13.333 0 -20 6.66699 -20 20v287c0 13.333 6.66699 21 20 23l281 35c13.333 2 20 -3.66699 20 -17v-328c0 -13.333 -6.66699 -20 -20 -20h-281z" />
    <glyph glyph-name="divide" unicode="&#xf7;" horiz-adv-x="1119" 
d="M84 602c-13.333 0 -20 6.66699 -20 20v280c0 13.333 6.66699 20 20 20h951c13.333 0 20 -6.66699 20 -20v-280c0 -13.333 -6.66699 -20 -20 -20h-951zM416 123c-13.333 0 -20 6.66699 -20 20v300c0 14 6.66699 21.333 20 22l291 35c13.333 0.666992 20 -5.33301 20 -18
v-339c0 -13.333 -6.66699 -20 -20 -20h-291zM416 1044c-13.333 0 -20 6.66699 -20 20v300c0 14 6.66699 21.333 20 22l291 35c13.333 0.666992 20 -5.33301 20 -18v-339c0 -13.333 -6.66699 -20 -20 -20h-291z" />
    <glyph glyph-name="oslash" unicode="&#xf8;" horiz-adv-x="1199" 
d="M159 159c-24.667 41.333 -42.666 88.6699 -53.999 142.003s-17 113.666 -17 180.999v104c0 89.333 9.33301 166.333 28 231s48.5 118 89.5 160s93.833 73 158.5 93s143 30 235 30c80 0 149.333 -8.16699 208 -24.5s108.667 -40.5 150 -72.5l50 53
c5.33301 5.33301 10.5 9 15.5 11s11.167 3 18.5 3h131c6 0 9.66699 -1.33301 11 -4s-0.333984 -6.33398 -5.00098 -11.001l-138 -146c25.333 -41.333 43.666 -88.833 54.999 -142.5s17 -113.834 17 -180.501v-104c0 -90 -9.33301 -167.333 -28 -232
s-48.5 -117.834 -89.5 -159.501s-94 -72.334 -159 -92.001s-143.833 -29.5 -236.5 -29.5c-80 0 -149.333 8.16699 -208 24.5s-108.667 40.5 -150 72.5l-48 -51c-5.33301 -5.33301 -10.5 -9.16602 -15.5 -11.499s-11.167 -3.5 -18.5 -3.5h-131c-6 0 -9.66699 1.33301 -11 4
s0.333984 6.33398 5.00098 11.001zM599.001 252.004c38 0 69.167 3.83301 93.5 11.5s43.5 20.667 57.5 39s23.5 43 28.5 74s7.5 69.833 7.5 116.5v108v40l-338 -357c13.333 -11.333 31.833 -19.5 55.5 -24.5s55.5 -7.5 95.5 -7.5zM599.001 817.004
c-38 0 -68.999 -3.83301 -92.999 -11.5s-42.833 -20.667 -56.5 -39s-22.834 -43 -27.501 -74s-7 -69.833 -7 -116.5v-110v-36l336 354c-13.333 12 -32 20.5 -56 25.5s-56 7.5 -96 7.5z" />
    <glyph glyph-name="ugrave" unicode="&#xf9;" horiz-adv-x="1237" 
d="M634 -31c-106 0 -192.833 8.66602 -260.5 25.999s-120.667 45.5 -159 84.5s-64.833 90.333 -79.5 154s-22 141.5 -22 233.5v584c0 13.333 6.66699 20 20 20h291c13.333 0 20 -6.66699 20 -20v-562c0 -42 2.33301 -77.167 7 -105.5s14 -51.166 28 -68.499
s33.333 -29.833 58 -37.5s57 -11.5 97 -11.5c23.333 0 49.333 0.833008 78 2.5s53.667 5.16699 75 10.5v772c0 13.333 6.66699 20 20 20h292c13.333 0 20 -6.66699 20 -20v-996c0 -14 -6.33301 -22.333 -19 -25c-28.667 -8 -62 -15.667 -100 -23
s-77.833 -13.833 -119.5 -19.5s-83.667 -10.167 -126 -13.5s-82.5 -5 -120.5 -5zM561 1270c-7.33301 0 -13.499 1.16699 -18.499 3.5s-10.167 6.16602 -15.5 11.499l-230 246c-4.66699 4.66699 -6.33398 8.33398 -5.00098 11.001s5 4 11 4h324
c7.33301 0 13.333 -1.16699 18 -3.5s9 -6.83301 13 -13.5l164 -242c7.33301 -11.333 4.33301 -17 -9 -17h-252z" />
    <glyph glyph-name="uacute" unicode="&#xfa;" horiz-adv-x="1237" 
d="M634 -31c-106 0 -192.833 8.66602 -260.5 25.999s-120.667 45.5 -159 84.5s-64.833 90.333 -79.5 154s-22 141.5 -22 233.5v584c0 13.333 6.66699 20 20 20h291c13.333 0 20 -6.66699 20 -20v-562c0 -42 2.33301 -77.167 7 -105.5s14 -51.166 28 -68.499
s33.333 -29.833 58 -37.5s57 -11.5 97 -11.5c23.333 0 49.333 0.833008 78 2.5s53.667 5.16699 75 10.5v772c0 13.333 6.66699 20 20 20h292c13.333 0 20 -6.66699 20 -20v-996c0 -14 -6.33301 -22.333 -19 -25c-28.667 -8 -62 -15.667 -100 -23
s-77.833 -13.833 -119.5 -19.5s-83.667 -10.167 -126 -13.5s-82.5 -5 -120.5 -5zM456 1270c-13.333 0 -16.332 5.66699 -8.99902 17l164 242c4 6.66699 8.33301 11.167 13 13.5s10.667 3.5 18 3.5h325c6 0 9.66699 -1.33301 11 -4s-0.333984 -6.33398 -5.00098 -11.001
l-230 -246c-5.33301 -5.33301 -10.5 -9.16602 -15.5 -11.499s-11.167 -3.5 -18.5 -3.5h-253z" />
    <glyph glyph-name="ucircumflex" unicode="&#xfb;" horiz-adv-x="1237" 
d="M634 -31c-106 0 -192.833 8.66602 -260.5 25.999s-120.667 45.5 -159 84.5s-64.833 90.333 -79.5 154s-22 141.5 -22 233.5v584c0 13.333 6.66699 20 20 20h291c13.333 0 20 -6.66699 20 -20v-562c0 -42 2.33301 -77.167 7 -105.5s14 -51.166 28 -68.499
s33.333 -29.833 58 -37.5s57 -11.5 97 -11.5c23.333 0 49.333 0.833008 78 2.5s53.667 5.16699 75 10.5v772c0 13.333 6.66699 20 20 20h292c13.333 0 20 -6.66699 20 -20v-996c0 -14 -6.33301 -22.333 -19 -25c-28.667 -8 -62 -15.667 -100 -23
s-77.833 -13.833 -119.5 -19.5s-83.667 -10.167 -126 -13.5s-82.5 -5 -120.5 -5zM434 1530c8 10.667 18.665 16 31.998 16h296c13.333 0 24 -5.33301 32 -16l197 -265c8.66699 -10.667 6 -16 -8 -16h-263c-7.33301 0 -13.166 1.16699 -17.499 3.5s-8.5 6.83301 -12.5 13.5
l-66 106h-20l-66 -106c-4 -6.66699 -8.16699 -11.167 -12.5 -13.5s-10.166 -3.5 -17.499 -3.5h-263c-14 0 -16.667 5.33301 -8 16z" />
    <glyph glyph-name="udieresis" unicode="&#xfc;" horiz-adv-x="1237" 
d="M634 -31c-106 0 -192.833 8.66602 -260.5 25.999s-120.667 45.5 -159 84.5s-64.833 90.333 -79.5 154s-22 141.5 -22 233.5v584c0 13.333 6.66699 20 20 20h291c13.333 0 20 -6.66699 20 -20v-562c0 -42 2.33301 -77.167 7 -105.5s14 -51.166 28 -68.499
s33.333 -29.833 58 -37.5s57 -11.5 97 -11.5c23.333 0 49.333 0.833008 78 2.5s53.667 5.16699 75 10.5v772c0 13.333 6.66699 20 20 20h292c13.333 0 20 -6.66699 20 -20v-996c0 -14 -6.33301 -22.333 -19 -25c-28.667 -8 -62 -15.667 -100 -23
s-77.833 -13.833 -119.5 -19.5s-83.667 -10.167 -126 -13.5s-82.5 -5 -120.5 -5zM235 1219c-13.333 0 -20 6.66699 -20 20v287c0 13.333 6.66699 21 20 23l282 35c13.333 2 20 -3.66699 20 -17v-328c0 -13.333 -6.66699 -20 -20 -20h-282zM692 1219
c-13.333 0 -20 6.66699 -20 20v287c0 13.333 6.66699 21 20 23l281 35c13.333 2 20 -3.66699 20 -17v-328c0 -13.333 -6.66699 -20 -20 -20h-281z" />
    <glyph glyph-name="yacute" unicode="&#xfd;" horiz-adv-x="1123" 
d="M181 -481c-22.667 0 -48.0029 1.33398 -76.0029 4.00098s-52.667 6 -74 10c-13.333 2.66699 -19 10.334 -17 23.001l31 238c1.33301 7.33301 3.66602 12.333 6.99902 15s8.66602 3.66699 15.999 3c15.333 -2 31.5 -3.66699 48.5 -5s33.167 -2 48.5 -2
c50 0 92 3.16699 126 9.5s62.667 17 86 32s42.833 35 58.5 60s30.5 56.167 44.5 93.5l-14.5 6.5c-9.66699 4.33301 -22.667 15.333 -39 33s-35.166 44 -56.499 79s-44 83.5 -68 145.5l-306 788c-4.66699 12.667 -0.333984 19 12.999 19h337
c7.33301 0 12.833 -1.33301 16.5 -4s6.83398 -7.66699 9.50098 -15l155 -487l61 -189l150 675c2.66699 13.333 10.667 20 24 20h337c13.333 0 18 -6.33301 14 -19l-346 -1134c-15.333 -49.333 -31.666 -93.333 -48.999 -132s-37.166 -72.834 -59.499 -102.501
s-47.833 -54.834 -76.5 -75.501s-62.167 -37.667 -100.5 -51s-82.166 -23 -131.499 -29s-105.666 -9 -168.999 -9zM403.997 1270c-13.333 0 -16.332 5.66699 -8.99902 17l164 242c4 6.66699 8.33301 11.167 13 13.5s10.667 3.5 18 3.5h325c6 0 9.66699 -1.33301 11 -4
s-0.333984 -6.33398 -5.00098 -11.001l-230 -246c-5.33301 -5.33301 -10.5 -9.16602 -15.5 -11.499s-11.167 -3.5 -18.5 -3.5h-253z" />
    <glyph glyph-name="thorn" unicode="&#xfe;" horiz-adv-x="1234" 
d="M140 -453c-13.333 0 -19.999 6.66797 -19.999 20.001v1348v5v662c0 14 6.66699 21.333 20 22l292 36c13.333 0.666992 20 -5.33301 20 -18v-526c28.667 1.33301 57.167 2.33301 85.5 3s56.5 1 84.5 1c100.667 0 184.667 -8.33301 252 -25s121.333 -43.834 162 -81.501
s69.5 -87.167 86.5 -148.5s25.5 -137 25.5 -227v-151c0 -92.667 -8.5 -170.834 -25.5 -234.501s-45.5 -115 -85.5 -154s-92.833 -67 -158.5 -84s-147.167 -25.5 -244.5 -25.5c-33.333 0 -65.333 1.83301 -96 5.5s-59.334 8.83398 -86.001 15.501v-423
c0 -13.333 -6.66699 -20 -20 -20h-292zM619.001 815.001c-11.333 0 -24.833 -0.166016 -40.5 -0.499023s-31.5 -0.833008 -47.5 -1.5s-31 -1.66699 -45 -3s-25.333 -3 -34 -5v-545c22.667 -2 48.167 -3.5 76.5 -4.5s61.5 -1.5 99.5 -1.5c42 0 76 4.16699 102 12.5
s46.333 22.166 61 41.499s24.5 45 29.5 77s7.5 71.667 7.5 119v71c0 46 -2.66699 84.5 -8 115.5s-15.5 55.667 -30.5 74s-36.167 31.333 -63.5 39s-63 11.5 -107 11.5z" />
    <glyph glyph-name="ydieresis" unicode="&#xff;" horiz-adv-x="1123" 
d="M181 -481c-22.667 0 -48.0029 1.33398 -76.0029 4.00098s-52.667 6 -74 10c-13.333 2.66699 -19 10.334 -17 23.001l31 238c1.33301 7.33301 3.66602 12.333 6.99902 15s8.66602 3.66699 15.999 3c15.333 -2 31.5 -3.66699 48.5 -5s33.167 -2 48.5 -2
c50 0 92 3.16699 126 9.5s62.667 17 86 32s42.833 35 58.5 60s30.5 56.167 44.5 93.5l-14.5 6.5c-9.66699 4.33301 -22.667 15.333 -39 33s-35.166 44 -56.499 79s-44 83.5 -68 145.5l-306 788c-4.66699 12.667 -0.333984 19 12.999 19h337
c7.33301 0 12.833 -1.33301 16.5 -4s6.83398 -7.66699 9.50098 -15l155 -487l61 -189l150 675c2.66699 13.333 10.667 20 24 20h337c13.333 0 18 -6.33301 14 -19l-346 -1134c-15.333 -49.333 -31.666 -93.333 -48.999 -132s-37.166 -72.834 -59.499 -102.501
s-47.833 -54.834 -76.5 -75.501s-62.167 -37.667 -100.5 -51s-82.166 -23 -131.499 -29s-105.666 -9 -168.999 -9zM208.997 1219c-13.333 0 -20 6.66699 -20 20v287c0 13.333 6.66699 21 20 23l282 35c13.333 2 20 -3.66699 20 -17v-328c0 -13.333 -6.66699 -20 -20 -20
h-282zM665.997 1219c-13.333 0 -20 6.66699 -20 20v287c0 13.333 6.66699 21 20 23l281 35c13.333 2 20 -3.66699 20 -17v-328c0 -13.333 -6.66699 -20 -20 -20h-281z" />
    <glyph glyph-name="Amacron" unicode="&#x100;" horiz-adv-x="1372" 
d="M16 0c-13.333 0 -18.0039 6.33301 -14.0039 19l436 1437c2.66699 7.33301 5.83398 12.333 9.50098 15s9.16699 4 16.5 4h442c7.33301 0 12.833 -1.33301 16.5 -4s6.83398 -7.66699 9.50098 -15l438 -1437c4 -12.667 -0.666992 -19 -14 -19h-345
c-13.333 -0 -21.666 6.33301 -24.999 19l-60 221h-483l-59 -221c-3.33301 -12.667 -11.666 -19 -24.999 -19h-343zM683.996 1135l-158 -588h318zM408.996 1596c-13.333 0 -20 6.66699 -20 20v198c0 13.333 6.66699 20 20 20h554c13.333 0 20 -6.66699 20 -20v-198
c0 -13.333 -6.66699 -20 -20 -20h-554z" />
    <glyph glyph-name="amacron" unicode="&#x101;" horiz-adv-x="1142" 
d="M553 229c12.667 0 26 0.168945 40 0.501953l41 1c13.333 0.333008 26 1 38 2s22.667 2.16699 32 3.5v182h-79c-54 0 -98.333 -1.33301 -133 -4s-62 -7.83398 -82 -15.501s-33.667 -17.834 -41 -30.501s-11 -29 -11 -49c0 -20.667 5.16699 -37 15.5 -49s24.5 -21 42.5 -27
s38.833 -9.83301 62.5 -11.5s48.5 -2.5 74.5 -2.5zM487 821.002c-21.333 0 -44.502 -0.333008 -69.502 -1s-51 -1.5 -78 -2.5s-54.167 -2.16699 -81.5 -3.5s-53.333 -3 -78 -5c-13.333 -2 -20 4 -20 18v228c0 13.333 6.66699 21 20 23c27.333 4 56.5 7.5 87.5 10.5
s61.833 5.66699 92.5 8s60.334 4.16602 89.001 5.49902s54.334 2 77.001 2c74.667 0 139 -3.66699 193 -11s99.5 -18.5 136.5 -33.5s66.833 -34.167 89.5 -57.5s40.167 -51 52.5 -83s20.5 -68.333 24.5 -109s6 -86 6 -136v-652c0 -13.333 -6.66699 -21 -20 -23
c-38 -4.66699 -77.667 -8.83398 -119 -12.501s-82 -6.83398 -122 -9.50098s-77.833 -4.66699 -113.5 -6s-66.5 -2 -92.5 -2c-87.333 0 -162.833 5.33301 -226.5 16s-116 29 -157 55s-71.333 60.5 -91 103.5s-29.5 96.833 -29.5 161.5c0 46.667 3.16699 87.834 9.5 123.501
s17.5 66.5 33.5 92.5s37.833 47.667 65.5 65s62.667 31.333 105 42s93 18.167 152 22.5s127.833 6.5 206.5 6.5h75v33c0 22.667 -2.83301 42.334 -8.5 59.001s-16.334 30.334 -32.001 41.001s-37.667 18.5 -66 23.5s-65.166 7.5 -110.499 7.5zM279.998 1268
c-13.333 0 -20 6.66699 -20 20v197c0 13.333 6.66699 20 20 20h554c13.333 0 20 -6.66699 20 -20v-197c0 -13.333 -6.66699 -20 -20 -20h-554z" />
    <glyph glyph-name="Abreve" unicode="&#x102;" horiz-adv-x="1372" 
d="M16 0c-13.333 0 -18.0039 6.33301 -14.0039 19l436 1437c2.66699 7.33301 5.83398 12.333 9.50098 15s9.16699 4 16.5 4h442c7.33301 0 12.833 -1.33301 16.5 -4s6.83398 -7.66699 9.50098 -15l438 -1437c4 -12.667 -0.666992 -19 -14 -19h-345
c-13.333 -0 -21.666 6.33301 -24.999 19l-60 221h-483l-59 -221c-3.33301 -12.667 -11.666 -19 -24.999 -19h-343zM683.996 1135l-158 -588h318zM684.996 1577c-65.333 0 -118.502 5.16699 -159.502 15.5s-73 26.333 -96 48s-38.833 49.334 -47.5 83.001
s-13.334 73.834 -14.001 120.501c0 13.333 6.66699 20 20 20h180c14 0 21.333 -6.66699 22 -20c2 -18 5.83301 -33 11.5 -45s12.834 -21.5 21.501 -28.5s18.334 -12 29.001 -15s21.667 -4.5 33 -4.5s22.333 1.5 33 4.5s20.334 8 29.001 15s15.834 16.5 21.501 28.5
s9.5 27 11.5 45c0.666992 13.333 8 20 22 20h181c13.333 0 20 -6.66699 20 -20c-0.666992 -46.667 -5.33398 -86.834 -14.001 -120.501s-24.667 -61.334 -48 -83.001s-55.5 -37.667 -96.5 -48s-94.167 -15.5 -159.5 -15.5z" />
    <glyph glyph-name="abreve" unicode="&#x103;" horiz-adv-x="1142" 
d="M553 229c12.667 0 26 0.168945 40 0.501953l41 1c13.333 0.333008 26 1 38 2s22.667 2.16699 32 3.5v182h-79c-54 0 -98.333 -1.33301 -133 -4s-62 -7.83398 -82 -15.501s-33.667 -17.834 -41 -30.501s-11 -29 -11 -49c0 -20.667 5.16699 -37 15.5 -49s24.5 -21 42.5 -27
s38.833 -9.83301 62.5 -11.5s48.5 -2.5 74.5 -2.5zM487 821.002c-21.333 0 -44.502 -0.333008 -69.502 -1s-51 -1.5 -78 -2.5s-54.167 -2.16699 -81.5 -3.5s-53.333 -3 -78 -5c-13.333 -2 -20 4 -20 18v228c0 13.333 6.66699 21 20 23c27.333 4 56.5 7.5 87.5 10.5
s61.833 5.66699 92.5 8s60.334 4.16602 89.001 5.49902s54.334 2 77.001 2c74.667 0 139 -3.66699 193 -11s99.5 -18.5 136.5 -33.5s66.833 -34.167 89.5 -57.5s40.167 -51 52.5 -83s20.5 -68.333 24.5 -109s6 -86 6 -136v-652c0 -13.333 -6.66699 -21 -20 -23
c-38 -4.66699 -77.667 -8.83398 -119 -12.501s-82 -6.83398 -122 -9.50098s-77.833 -4.66699 -113.5 -6s-66.5 -2 -92.5 -2c-87.333 0 -162.833 5.33301 -226.5 16s-116 29 -157 55s-71.333 60.5 -91 103.5s-29.5 96.833 -29.5 161.5c0 46.667 3.16699 87.834 9.5 123.501
s17.5 66.5 33.5 92.5s37.833 47.667 65.5 65s62.667 31.333 105 42s93 18.167 152 22.5s127.833 6.5 206.5 6.5h75v33c0 22.667 -2.83301 42.334 -8.5 59.001s-16.334 30.334 -32.001 41.001s-37.667 18.5 -66 23.5s-65.166 7.5 -110.499 7.5zM560.998 1237
c-65.333 0 -118.333 6.5 -159 19.5s-72.5 31.833 -95.5 56.5s-39 54.667 -48 90s-13.833 75.666 -14.5 120.999c0 13.333 6.66699 20 20 20h201c13.333 0 20 -6.66699 20 -20c2 -44 9.33301 -73.833 22 -89.5s30.667 -23.5 54 -23.5s41.333 7.83301 54 23.5s20 45.5 22 89.5
c0 13.333 6.66699 20 20 20h202c13.333 0 20 -6.66699 20 -20c-1.33301 -45.333 -6.33301 -85.666 -15 -120.999s-24.5 -65.333 -47.5 -90s-55 -43.5 -96 -56.5s-94.167 -19.5 -159.5 -19.5z" />
    <glyph glyph-name="Aogonek" unicode="&#x104;" horiz-adv-x="1372" 
d="M16 0c-13.333 0 -18 6.3418 -14 19.0088l436 1437c3.33301 12.667 12 19 26 19h442c14 0 22.667 -6.33301 26 -19l437 -1434c2 -6.66699 2 -11.834 0 -15.501s-7 -5.83398 -15 -6.50098c-43.333 -2 -79 -9.33301 -107 -22s-50.167 -27.834 -66.5 -45.501
s-27.666 -36.334 -33.999 -56.001s-9.5 -37.167 -9.5 -52.5c0 -14 1.33301 -25.667 4 -35s7.5 -16.5 14.5 -21.5s16.5 -8.5 28.5 -10.5s27.667 -3 47 -3c13.333 0 30 0.666992 50 2s38.333 2.66602 55 3.99902c13.333 0.666992 20.333 -5.33301 21 -18l6 -122
c0.666992 -13.333 -5.33301 -21.333 -18 -24c-20.667 -4.66699 -46.334 -8.5 -77.001 -11.5s-61.334 -4.5 -92.001 -4.5c-48.667 0 -90.667 3.16699 -126 9.5s-64.5 17.166 -87.5 32.499s-40 35.666 -51 60.999s-16.5 56.666 -16.5 93.999c0 26 2.5 50 7.5 72
s12 42.167 21 60.5s19.5 35.166 31.5 50.499s25 30 39 44c-3.33301 2.66699 -6 7.66699 -8 15l-60 221h-483l-59 -221c-3.33301 -12.667 -11.666 -19 -24.999 -19h-343zM684 1135.01l-158 -588h318z" />
    <glyph glyph-name="aogonek" unicode="&#x105;" horiz-adv-x="1142" 
d="M487 821c-21.333 0 -44.5029 -0.334961 -69.5029 -1.00195s-51 -1.5 -78 -2.5s-54.167 -2.16699 -81.5 -3.5s-53.333 -3 -78 -5c-13.333 -2 -20 4 -20 18v228c0 13.333 6.66699 21 20 23c27.333 4 56.5 7.5 87.5 10.5s61.833 5.66699 92.5 8
s60.334 4.16602 89.001 5.49902s54.334 2 77.001 2c74.667 0 139 -3.66699 193 -11s99.5 -18.5 136.5 -33.5s66.833 -34.167 89.5 -57.5s40.167 -51 52.5 -83s20.5 -68.333 24.5 -109s6 -86 6 -136v-652c0 -6.66699 -0.5 -11.334 -1.5 -14.001s-4.16699 -5 -9.5 -7
c-27.333 -12 -52.333 -26 -75 -42s-42.167 -32.5 -58.5 -49.5s-29.166 -33.667 -38.499 -50s-14 -30.833 -14 -43.5c0 -12 0.833008 -22 2.5 -30s5.16699 -14.333 10.5 -19s13 -8 23 -10s23.333 -3 40 -3c9.33301 0 19.333 0.333008 30 1s21.334 1.66699 32.001 3
c14 2 21.333 -3.66699 22 -17l15 -121c1.33301 -7.33301 0.666016 -12.833 -2.00098 -16.5s-7.66699 -6.5 -15 -8.5c-16.667 -3.33301 -38.667 -6.66602 -66 -9.99902s-58 -5 -92 -5c-40 0 -75 3 -105 9s-55 16 -75 30s-35.167 32.5 -45.5 55.5s-15.5 51.5 -15.5 85.5
c0 40 11.833 79 35.5 117s58.167 70.667 103.5 98c-32.667 -2 -63.5 -3.5 -92.5 -4.5s-54.167 -1.5 -75.5 -1.5c-87.333 0 -162.833 5.33301 -226.5 16s-116 29 -157 55s-71.333 60.5 -91 103.5s-29.5 96.833 -29.5 161.5c0 46.667 3.16699 87.834 9.5 123.501
s17.5 66.5 33.5 92.5s37.833 47.667 65.5 65s62.667 31.333 105 42s93 18.167 152 22.5s127.833 6.5 206.5 6.5h75v33c0 22.667 -2.83301 42.334 -8.5 59.001s-16.334 30.334 -32.001 41.001s-37.667 18.5 -66 23.5s-65.166 7.5 -110.499 7.5zM552.997 228.998
c12.667 0 26 0.168945 40 0.501953l41 1c13.333 0.333008 26 1 38 2s22.667 2.16699 32 3.5v182h-79c-54 0 -98.333 -1.33301 -133 -4s-62 -7.83398 -82 -15.501s-33.667 -17.834 -41 -30.501s-11 -29 -11 -49c0 -20.667 5.16699 -37 15.5 -49s24.5 -21 42.5 -27
s38.833 -9.83301 62.5 -11.5s48.5 -2.5 74.5 -2.5z" />
    <glyph glyph-name="Cacute" unicode="&#x106;" horiz-adv-x="1212" 
d="M749 -31c-103.333 0 -195.835 11.335 -277.502 34.002s-150.667 60.834 -207 114.501s-99.333 124.834 -129 213.501s-44.5 199 -44.5 331v153c0 130.667 14.833 240.167 44.5 328.5s72.667 159.333 129 213s125.333 91.834 207 114.501s174.167 34 277.5 34
c36 0 71.833 -1.16699 107.5 -3.5s69.834 -5.83301 102.501 -10.5s63.5 -10.334 92.5 -17.001s54.833 -14.334 77.5 -23.001c7.33301 -2.66699 12.166 -5.83398 14.499 -9.50098s2.83301 -9.16699 1.5 -16.5l-45 -272c-2 -13.333 -9.66699 -18.666 -23 -15.999
c-52 11.333 -104.333 19.166 -157 23.499s-105 6.5 -157 6.5s-98 -5.66699 -138 -17s-73.5 -30.333 -100.5 -57s-47.333 -61.834 -61 -105.501s-20.5 -97.834 -20.5 -162.501v-174c0 -65.333 6.83301 -119.833 20.5 -163.5s33.834 -79 60.501 -106s60 -46.167 100 -57.5
s86.333 -17 139 -17c55.333 0 110.333 1.66699 165 5s109 8.33301 163 15c13.333 2 21 -3.66699 23 -17l39 -279c2 -13.333 -3.33301 -21.333 -16 -24c-23.333 -6 -49.833 -11.333 -79.5 -16s-61.167 -8.66699 -94.5 -12s-68.166 -5.83301 -104.499 -7.5
s-72.833 -2.5 -109.5 -2.5zM556.998 1597c-13.333 0 -15.6689 5.00098 -7.00195 15.001l191 216c5.33301 5.33301 10.333 9.16602 15 11.499s10.667 3.5 18 3.5h335c13.333 0 15 -4.33301 5 -13l-257 -220c-5.33301 -5.33301 -10.666 -8.83301 -15.999 -10.5
s-11.666 -2.5 -18.999 -2.5h-265z" />
    <glyph glyph-name="cacute" unicode="&#x107;" horiz-adv-x="962" 
d="M612 -31c-102 0 -186.997 10.002 -254.997 30.002s-122.167 50.5 -162.5 91.5s-68.833 93.167 -85.5 156.5s-25 138.666 -25 225.999v125c0 86.667 8.33301 161.5 25 224.5s45.167 115 85.5 156s94.5 71.5 162.5 91.5s153 30 255 30c50 0 97 -2.33301 141 -7
s84 -10.667 120 -18c13.333 -2.66699 19.666 -10.667 18.999 -24l-14 -236c-0.666992 -7.33301 -2.5 -12.333 -5.5 -15s-8.16699 -3.66699 -15.5 -3c-36.667 3.33301 -74 5.83301 -112 7.5s-78.667 2.5 -122 2.5c-46 0 -82.5 -3.83301 -109.5 -11.5s-47.5 -20.667 -61.5 -39
s-23.167 -42.5 -27.5 -72.5s-6.5 -67 -6.5 -111v-77c0 -44 2 -81 6 -111s13 -54.167 27 -72.5s34.667 -31.333 62 -39s64 -11.5 110 -11.5c43.333 0 84 1.16699 122 3.5s75.333 5.16602 112 8.49902c7.33301 0.666992 12.5 -0.333008 15.5 -3s4.83301 -7.66699 5.5 -15
l14 -236c0.666992 -13.333 -5.66602 -21.333 -18.999 -24c-17.333 -4 -36.333 -7.5 -57 -10.5s-42.334 -5.83301 -65.001 -8.5s-45.834 -4.66699 -69.501 -6s-46.834 -2 -69.501 -2zM368.003 1270c-13.333 0 -16.332 5.66699 -8.99902 17l164 242
c4 6.66699 8.33301 11.167 13 13.5s10.667 3.5 18 3.5h325c6 0 9.66699 -1.33301 11 -4s-0.333984 -6.33398 -5.00098 -11.001l-230 -246c-5.33301 -5.33301 -10.5 -9.16602 -15.5 -11.499s-11.167 -3.5 -18.5 -3.5h-253z" />
    <glyph glyph-name="Ccaron" unicode="&#x10c;" horiz-adv-x="1212" 
d="M749 -31c-103.333 0 -195.835 11.335 -277.502 34.002s-150.667 60.834 -207 114.501s-99.333 124.834 -129 213.501s-44.5 199 -44.5 331v153c0 130.667 14.833 240.167 44.5 328.5s72.667 159.333 129 213s125.333 91.834 207 114.501s174.167 34 277.5 34
c36 0 71.833 -1.16699 107.5 -3.5s69.834 -5.83301 102.501 -10.5s63.5 -10.334 92.5 -17.001s54.833 -14.334 77.5 -23.001c7.33301 -2.66699 12.166 -5.83398 14.499 -9.50098s2.83301 -9.16699 1.5 -16.5l-45 -272c-2 -13.333 -9.66699 -18.666 -23 -15.999
c-52 11.333 -104.333 19.166 -157 23.499s-105 6.5 -157 6.5s-98 -5.66699 -138 -17s-73.5 -30.333 -100.5 -57s-47.333 -61.834 -61 -105.501s-20.5 -97.834 -20.5 -162.501v-174c0 -65.333 6.83301 -119.833 20.5 -163.5s33.834 -79 60.501 -106s60 -46.167 100 -57.5
s86.333 -17 139 -17c55.333 0 110.333 1.66699 165 5s109 8.33301 163 15c13.333 2 21 -3.66699 23 -17l39 -279c2 -13.333 -3.33301 -21.333 -16 -24c-23.333 -6 -49.833 -11.333 -79.5 -16s-61.167 -8.66699 -94.5 -12s-68.166 -5.83301 -104.499 -7.5
s-72.833 -2.5 -109.5 -2.5zM334.998 1828c-4.66699 4.66699 -6.33203 8.33398 -4.99902 11.001s5 4 11 4h243c7.33301 0 13.5 -1.16699 18.5 -3.5s10.167 -6.16602 15.5 -11.499l82 -88h20l83 88c5.33301 5.33301 10.5 9.16602 15.5 11.499s11.167 3.5 18.5 3.5h242
c6 0 9.66699 -1.33301 11 -4s-0.333984 -6.33398 -5.00098 -11.001l-203 -216c-5.33301 -5.33301 -10.5 -9.16602 -15.5 -11.499s-11.167 -3.5 -18.5 -3.5h-276c-7.33301 0 -13.5 1.16699 -18.5 3.5s-10.167 6.16602 -15.5 11.499z" />
    <glyph glyph-name="ccaron" unicode="&#x10d;" horiz-adv-x="962" 
d="M612 -31c-102 0 -186.997 10.002 -254.997 30.002s-122.167 50.5 -162.5 91.5s-68.833 93.167 -85.5 156.5s-25 138.666 -25 225.999v125c0 86.667 8.33301 161.5 25 224.5s45.167 115 85.5 156s94.5 71.5 162.5 91.5s153 30 255 30c50 0 97 -2.33301 141 -7
s84 -10.667 120 -18c13.333 -2.66699 19.666 -10.667 18.999 -24l-14 -236c-0.666992 -7.33301 -2.5 -12.333 -5.5 -15s-8.16699 -3.66699 -15.5 -3c-36.667 3.33301 -74 5.83301 -112 7.5s-78.667 2.5 -122 2.5c-46 0 -82.5 -3.83301 -109.5 -11.5s-47.5 -20.667 -61.5 -39
s-23.167 -42.5 -27.5 -72.5s-6.5 -67 -6.5 -111v-77c0 -44 2 -81 6 -111s13 -54.167 27 -72.5s34.667 -31.333 62 -39s64 -11.5 110 -11.5c43.333 0 84 1.16699 122 3.5s75.333 5.16602 112 8.49902c7.33301 0.666992 12.5 -0.333008 15.5 -3s4.83301 -7.66699 5.5 -15
l14 -236c0.666992 -13.333 -5.66602 -21.333 -18.999 -24c-17.333 -4 -36.333 -7.5 -57 -10.5s-42.334 -5.83301 -65.001 -8.5s-45.834 -4.66699 -69.501 -6s-46.834 -2 -69.501 -2zM174.003 1530c-8.66699 10.667 -5.99805 16 8.00195 16h263
c7.33301 0 13.166 -1.16699 17.499 -3.5s8.5 -6.83301 12.5 -13.5l66 -106h20l66 106c4 6.66699 8.16699 11.167 12.5 13.5s10.166 3.5 17.499 3.5h263c14 0 16.667 -5.33301 8 -16l-197 -265c-8 -10.667 -18.667 -16 -32 -16h-296c-13.333 0 -24 5.33301 -32 16z" />
    <glyph glyph-name="Dcaron" unicode="&#x10e;" horiz-adv-x="1428" 
d="M513 -16c-20.667 0 -44.833 0.330078 -72.5 0.99707s-57 1.5 -88 2.5s-62.5 2.33301 -94.5 4s-62.667 3.83398 -92 6.50098c-13.333 0.666992 -20 8 -20 22v1435c0 13.333 6.66699 20.333 20 21c26 2 54.833 3.83301 86.5 5.5l95.5 5
c32 1.66699 62.5 2.83398 91.5 3.50098s53.5 1 73.5 1c82.667 0 160.667 -3.33301 234 -10s140.666 -19 201.999 -37s116.5 -43.167 165.5 -75.5s90.5 -74.166 124.5 -125.499s60 -113.833 78 -187.5s27 -160.5 27 -260.5v-113c0 -100 -9 -186.833 -27 -260.5
s-44 -136.334 -78 -188.001s-75.5 -93.667 -124.5 -126s-104.167 -57.666 -165.5 -75.999s-128.666 -30.833 -201.999 -37.5s-151.333 -10 -234 -10zM593.001 1180c-14.667 0 -30.832 -0.5 -48.499 -1.5s-33.5 -2.5 -47.5 -4.5v-873c6 -1.33301 14.333 -2.33301 25 -3
s21.834 -1.16699 33.501 -1.5l33.5 -1c10.667 -0.333008 18.667 -0.5 24 -0.5c64.667 0 120.667 5 168 15s86.666 29 117.999 57s54.666 67 69.999 117s23 114.667 23 194v119c0 78.667 -8.16699 142.834 -24.5 192.501s-41 88.667 -74 117s-74.5 47.666 -124.5 57.999
s-108.667 15.5 -176 15.5zM281.003 1828c-4.66699 4.66699 -6.33203 8.33398 -4.99902 11.001s5 4 11 4h243c7.33301 0 13.5 -1.16699 18.5 -3.5s10.167 -6.16602 15.5 -11.499l82 -88h20l83 88c5.33301 5.33301 10.5 9.16602 15.5 11.499s11.167 3.5 18.5 3.5h242
c6 0 9.66699 -1.33301 11 -4s-0.333984 -6.33398 -5.00098 -11.001l-203 -216c-5.33301 -5.33301 -10.5 -9.16602 -15.5 -11.499s-11.167 -3.5 -18.5 -3.5h-276c-7.33301 0 -13.5 1.16699 -18.5 3.5s-10.167 6.16602 -15.5 11.499z" />
    <glyph glyph-name="dcaron" unicode="&#x10f;" horiz-adv-x="1234" 
d="M604 815c-42 0 -76.0029 -3.83203 -102.003 -11.499s-46 -20.667 -60 -39s-23.5 -42.5 -28.5 -72.5s-7.5 -67.333 -7.5 -112v-72c0 -48 2.5 -88.333 7.5 -121s14.833 -58.834 29.5 -78.501s35 -33.667 61 -42s60 -12.5 102 -12.5c29.333 0 60.333 0.5 93 1.5
s60.334 2.5 83.001 4.5v545c-10 2 -22.667 3.66699 -38 5s-31.166 2.33301 -47.499 3s-32.666 1.16699 -48.999 1.5s-30.833 0.5 -43.5 0.5zM611.997 -30.999c-100.667 0 -184.666 8.49902 -251.999 25.499s-121.333 44.833 -162 83.5s-69.5 89.334 -86.5 152.001
s-25.5 139.667 -25.5 231v153c0 90 8.16699 166 24.5 228s44.166 112.167 83.499 150.5s91.5 65.833 156.5 82.5s146.167 25 243.5 25c32.667 0 65.5 -1.83301 98.5 -5.5s62.833 -8.16699 89.5 -13.5v501c0 14 6.66699 21.333 20 22l292 36
c13.333 0.666992 20 -5.33301 20 -18v-1600c0 -14 -6.66699 -21.333 -20 -22c-80.667 -9.33301 -161.5 -16.833 -242.5 -22.5s-160.833 -8.5 -239.5 -8.5zM1244 1141c-13.333 0 -20 6.66699 -20 20v421c0 14 6.66699 21.333 20 22l272 34
c12.667 0.666992 18.667 -5.33301 18 -18l-52 -459c-0.666992 -13.333 -8 -20 -22 -20h-216z" />
    <glyph glyph-name="Dcroat" unicode="&#x110;" horiz-adv-x="1448" 
d="M533 -16c-20.667 0 -44.833 0.330078 -72.5 0.99707s-57 1.5 -88 2.5s-62.5 2.33301 -94.5 4s-62.667 3.83398 -92 6.50098c-13.333 0.666992 -20 8 -20 22v574h-103c-13.333 0 -20 6.66699 -20 20v279c0 13.333 6.66699 20 20 20h103v542c0 13.333 6.66699 20.333 20 21
c26 2 54.833 3.83301 86.5 5.5l95.5 5c32 1.66699 62.5 2.83398 91.5 3.50098s53.5 1 73.5 1c82.667 0 160.667 -3.33301 234 -10s140.666 -19 201.999 -37s116.5 -43.167 165.5 -75.5s90.5 -74.166 124.5 -125.499s60 -113.833 78 -187.5s27 -160.5 27 -260.5v-113
c0 -100 -9 -186.833 -27 -260.5s-44 -136.334 -78 -188.001s-75.5 -93.667 -124.5 -126s-104.167 -57.666 -165.5 -75.999s-128.666 -30.833 -201.999 -37.5s-151.333 -10 -234 -10zM613.001 1180c-14.667 0 -30.832 -0.5 -48.499 -1.5s-33.5 -2.5 -47.5 -4.5v-261h211
c13.333 0 20 -6.66699 20 -20v-279c0 -13.333 -6.66699 -20 -20 -20h-211v-293c6 -1.33301 14.333 -2.33301 25 -3s21.834 -1.16699 33.501 -1.5l33.5 -1c10.667 -0.333008 18.667 -0.5 24 -0.5c64.667 0 120.667 5 168 15s86.666 29 117.999 57s54.666 67 69.999 117
s23 114.667 23 194v119c0 78.667 -8.16699 142.834 -24.5 192.501s-41 88.667 -74 117s-74.5 47.666 -124.5 57.999s-108.667 15.5 -176 15.5z" />
    <glyph glyph-name="dcroat" unicode="&#x111;" horiz-adv-x="1233" 
d="M612 -31c-100.667 0 -184.666 8.49902 -251.999 25.499s-121.333 44.833 -162 83.5s-69.5 89.334 -86.5 152.001s-25.5 139.667 -25.5 231v153c0 90 8.16699 166 24.5 228s44.166 112.167 83.499 150.5s91.5 65.833 156.5 82.5s146.167 25 243.5 25
c32.667 0 65.5 -1.83301 98.5 -5.5s62.833 -8.16699 89.5 -13.5v112h-275c-13.333 0 -20 6.66699 -20 20v185c0 13.333 6.66699 20 20 20h275v164c0 14 6.66699 21.333 20 22l292 36c13.333 0.666992 20 -5.33301 20 -18v-204h109c13.333 0 20 -6.66699 20 -20v-185
c0 -13.333 -6.66699 -20 -20 -20h-109v-1171c0 -14 -6.66699 -21.333 -20 -22c-80.667 -9.33301 -161.5 -16.833 -242.5 -22.5s-160.833 -8.5 -239.5 -8.5zM604.001 814.999c-42 0 -76.0029 -3.83203 -102.003 -11.499s-46 -20.667 -60 -39s-23.5 -42.5 -28.5 -72.5
s-7.5 -67.333 -7.5 -112v-72c0 -48 2.5 -88.333 7.5 -121s14.833 -58.834 29.5 -78.501s35 -33.667 61 -42s60 -12.5 102 -12.5c29.333 0 60.333 0.5 93 1.5s60.334 2.5 83.001 4.5v545c-10 2 -22.667 3.66699 -38 5s-31.166 2.33301 -47.499 3s-32.666 1.16699 -48.999 1.5
s-30.833 0.5 -43.5 0.5z" />
    <glyph glyph-name="Emacron" unicode="&#x112;" horiz-adv-x="1212" 
d="M168 0c-13.333 0 -20 6.66699 -20 20v1435c0 13.333 6.66699 20 20 20h933c13.333 0 20 -6.66699 20 -20v-288c0 -13.333 -6.66699 -20 -20 -20h-602v-242h457c13.333 0 20 -6.66699 20 -20v-287c0 -13.333 -6.66699 -20 -20 -20h-457v-250h602
c13.333 0 20 -6.66699 20 -20v-288c0 -13.333 -6.66699 -20 -20 -20h-933zM340 1596c-13.333 0 -20 6.66699 -20 20v198c0 13.333 6.66699 20 20 20h554c13.333 0 20 -6.66699 20 -20v-198c0 -13.333 -6.66699 -20 -20 -20h-554z" />
    <glyph glyph-name="emacron" unicode="&#x113;" horiz-adv-x="1172" 
d="M597 -31c-93.333 0 -172.502 9.83203 -237.502 29.499s-118 50 -159 91s-70.833 93.333 -89.5 157s-28 139.834 -28 228.501v115c0 88.667 9.33301 165 28 229s48.334 116.833 89.001 158.5s93.334 72.5 158.001 92.5s143 30 235 30c92.667 0 171.5 -10 236.5 -30
s117.833 -51 158.5 -93s70.334 -95.5 89.001 -160.5s28 -142.5 28 -232.5c0 -40 -2.83301 -76.833 -8.5 -110.5s-10.5 -58.834 -14.5 -75.501c-2.66699 -11.333 -9.66699 -17 -21 -17l-645 -2c4.66699 -28 12 -50.333 22 -67s23.167 -29.5 39.5 -38.5
s36.5 -14.833 60.5 -17.5s52 -4 84 -4c60.667 0 121.5 1 182.5 3s125.833 5.33301 194.5 10c13.333 0.666992 20.333 -5.66602 21 -18.999l14 -226c0.666992 -13.333 -5.66602 -21 -18.999 -23c-66.667 -8 -134.334 -14.667 -203.001 -20s-140.334 -8 -215.001 -8z
M805.998 630.999c-6.66699 38 -15 69 -25 93s-23 42.833 -39 56.5s-36 23.167 -60 28.5s-53.667 8 -89 8c-36 0 -65.667 -3.33301 -89 -10s-41.833 -18 -55.5 -34s-23.5 -37 -29.5 -63s-9.33301 -58.333 -10 -97zM305.998 1268c-13.333 0 -20 6.66699 -20 20v197
c0 13.333 6.66699 20 20 20h554c13.333 0 20 -6.66699 20 -20v-197c0 -13.333 -6.66699 -20 -20 -20h-554z" />
    <glyph glyph-name="Edotaccent" unicode="&#x116;" horiz-adv-x="1212" 
d="M168 0c-13.333 0 -20 6.66699 -20 20v1435c0 13.333 6.66699 20 20 20h933c13.333 0 20 -6.66699 20 -20v-288c0 -13.333 -6.66699 -20 -20 -20h-602v-242h457c13.333 0 20 -6.66699 20 -20v-287c0 -13.333 -6.66699 -20 -20 -20h-457v-250h602
c13.333 0 20 -6.66699 20 -20v-288c0 -13.333 -6.66699 -20 -20 -20h-933zM471 1597c-13.333 0 -20 6.66699 -20 20v216c0 14 6.66699 21.333 20 22l292 37c13.333 0.666992 20 -5.33301 20 -18v-257c0 -13.333 -6.66699 -20 -20 -20h-292z" />
    <glyph glyph-name="edotaccent" unicode="&#x117;" horiz-adv-x="1172" 
d="M597 -31c-93.333 0 -172.502 9.83203 -237.502 29.499s-118 50 -159 91s-70.833 93.333 -89.5 157s-28 139.834 -28 228.501v115c0 88.667 9.33301 165 28 229s48.334 116.833 89.001 158.5s93.334 72.5 158.001 92.5s143 30 235 30c92.667 0 171.5 -10 236.5 -30
s117.833 -51 158.5 -93s70.334 -95.5 89.001 -160.5s28 -142.5 28 -232.5c0 -40 -2.83301 -76.833 -8.5 -110.5s-10.5 -58.834 -14.5 -75.501c-2.66699 -11.333 -9.66699 -17 -21 -17l-645 -2c4.66699 -28 12 -50.333 22 -67s23.167 -29.5 39.5 -38.5
s36.5 -14.833 60.5 -17.5s52 -4 84 -4c60.667 0 121.5 1 182.5 3s125.833 5.33301 194.5 10c13.333 0.666992 20.333 -5.66602 21 -18.999l14 -226c0.666992 -13.333 -5.66602 -21 -18.999 -23c-66.667 -8 -134.334 -14.667 -203.001 -20s-140.334 -8 -215.001 -8z
M805.998 630.999c-6.66699 38 -15 69 -25 93s-23 42.833 -39 56.5s-36 23.167 -60 28.5s-53.667 8 -89 8c-36 0 -65.667 -3.33301 -89 -10s-41.833 -18 -55.5 -34s-23.5 -37 -29.5 -63s-9.33301 -58.333 -10 -97zM452.998 1219c-13.333 0 -20 6.66699 -20 20v287
c0 14 6.66699 21.333 20 22l292 37c13.333 0.666992 20 -5.33301 20 -18v-328c0 -13.333 -6.66699 -20 -20 -20h-292z" />
    <glyph glyph-name="Eogonek" unicode="&#x118;" horiz-adv-x="1212" 
d="M988 -246c13.333 0 30.002 0.666992 50.002 2s38.333 2.66602 55 3.99902c13.333 0.666992 20.333 -5.33301 21 -18l6 -122c0.666992 -13.333 -5.33301 -21.333 -18 -24c-20.667 -4.66699 -46.334 -8.5 -77.001 -11.5s-61.334 -4.5 -92.001 -4.5
c-41.333 0 -78.833 3.16699 -112.5 9.5s-62.334 17.333 -86.001 33s-42 36.334 -55 62.001s-19.5 57.834 -19.5 96.501c0 46 13.167 88.167 39.5 126.5s64.833 69.166 115.5 92.499h-647c-13.333 0 -20 6.66699 -20 20v1435c0 13.333 6.66699 20 20 20h933
c13.333 0 20 -6.66699 20 -20v-288c0 -13.333 -6.66699 -20 -20 -20h-602v-242h457c13.333 0 20 -6.66699 20 -20v-287c0 -13.333 -6.66699 -20 -20 -20h-457v-250h602c13.333 0 20 -6.66699 20 -20v-288c0 -13.333 -6.66699 -20 -20 -20h-64
c-47.333 -25.333 -81.666 -52.666 -102.999 -81.999s-32 -60 -32 -92c0 -24.667 6 -42.834 18 -54.501s34.667 -17.5 68 -17.5z" />
    <glyph glyph-name="eogonek" unicode="&#x119;" horiz-adv-x="1174" 
d="M922 -246c13.333 0 30.001 0.666016 50.001 1.99902s38.333 2.66602 55 3.99902c13.333 0.666992 20.333 -5.33301 21 -18l6 -122c0.666992 -13.333 -5.33301 -21.333 -18 -24c-20.667 -4.66699 -46.334 -8.5 -77.001 -11.5s-61.334 -4.5 -92.001 -4.5
c-41.333 0 -78.833 3.16699 -112.5 9.5s-62.334 17.333 -86.001 33s-42 36.334 -55 62.001s-19.5 57.834 -19.5 96.501c0 38 8.83301 73.167 26.5 105.5s43.5 60.5 77.5 84.5c-16.667 -0.666992 -33.334 -1.16699 -50.001 -1.5s-33.667 -0.5 -51 -0.5
c-93.333 0 -172.5 9.83301 -237.5 29.5s-118 50 -159 91s-70.833 93.333 -89.5 157s-28 139.834 -28 228.501v115c0 88.667 9.33301 165 28 229s48.334 116.833 89.001 158.5s93.334 72.5 158.001 92.5s143 30 235 30c92.667 0 171.5 -10 236.5 -30s117.833 -51 158.5 -93
s70.334 -95.5 89.001 -160.5s28 -142.5 28 -232.5c0 -40 -2.83301 -76.833 -8.5 -110.5s-10.5 -58.834 -14.5 -75.501c-2.66699 -11.333 -9.66699 -17 -21 -17l-645 -2c4.66699 -28 12 -50.333 22 -67s23.167 -29.5 39.5 -38.5s36.5 -14.833 60.5 -17.5s52 -4 84 -4
c60.667 0 121.5 1 182.5 3s125.833 5.33301 194.5 10c13.333 0.666992 20.333 -5.66602 21 -18.999l14 -226c0.666992 -13.333 -5.66602 -21 -18.999 -23c-10.667 -1.33301 -21 -2.5 -31 -3.5s-20.333 -2.16699 -31 -3.5c-40.667 -24.667 -70.334 -50.667 -89.001 -78
s-28 -56 -28 -86c0 -24.667 6 -42.834 18 -54.501s34.667 -17.5 68 -17.5zM806.001 630.999c-6.66699 38 -15 69 -25 93s-23 42.833 -39 56.5s-36 23.167 -60 28.5s-53.667 8 -89 8c-36 0 -65.667 -3.33301 -89 -10s-41.833 -18 -55.5 -34s-23.5 -37 -29.5 -63
s-9.33301 -58.333 -10 -97z" />
    <glyph glyph-name="Ecaron" unicode="&#x11a;" horiz-adv-x="1212" 
d="M168 0c-13.333 0 -20 6.66699 -20 20v1435c0 13.333 6.66699 20 20 20h933c13.333 0 20 -6.66699 20 -20v-288c0 -13.333 -6.66699 -20 -20 -20h-602v-242h457c13.333 0 20 -6.66699 20 -20v-287c0 -13.333 -6.66699 -20 -20 -20h-457v-250h602
c13.333 0 20 -6.66699 20 -20v-288c0 -13.333 -6.66699 -20 -20 -20h-933zM242 1828c-4.66699 4.66699 -6.33203 8.33398 -4.99902 11.001s5 4 11 4h243c7.33301 0 13.5 -1.16699 18.5 -3.5s10.167 -6.16602 15.5 -11.499l82 -88h20l83 88
c5.33301 5.33301 10.5 9.16602 15.5 11.499s11.167 3.5 18.5 3.5h242c6 0 9.66699 -1.33301 11 -4s-0.333984 -6.33398 -5.00098 -11.001l-203 -216c-5.33301 -5.33301 -10.5 -9.16602 -15.5 -11.499s-11.167 -3.5 -18.5 -3.5h-276c-7.33301 0 -13.5 1.16699 -18.5 3.5
s-10.167 6.16602 -15.5 11.499z" />
    <glyph glyph-name="ecaron" unicode="&#x11b;" horiz-adv-x="1172" 
d="M597 -31c-93.333 0 -172.502 9.83203 -237.502 29.499s-118 50 -159 91s-70.833 93.333 -89.5 157s-28 139.834 -28 228.501v115c0 88.667 9.33301 165 28 229s48.334 116.833 89.001 158.5s93.334 72.5 158.001 92.5s143 30 235 30c92.667 0 171.5 -10 236.5 -30
s117.833 -51 158.5 -93s70.334 -95.5 89.001 -160.5s28 -142.5 28 -232.5c0 -40 -2.83301 -76.833 -8.5 -110.5s-10.5 -58.834 -14.5 -75.501c-2.66699 -11.333 -9.66699 -17 -21 -17l-645 -2c4.66699 -28 12 -50.333 22 -67s23.167 -29.5 39.5 -38.5
s36.5 -14.833 60.5 -17.5s52 -4 84 -4c60.667 0 121.5 1 182.5 3s125.833 5.33301 194.5 10c13.333 0.666992 20.333 -5.66602 21 -18.999l14 -226c0.666992 -13.333 -5.66602 -21 -18.999 -23c-66.667 -8 -134.334 -14.667 -203.001 -20s-140.334 -8 -215.001 -8z
M805.998 630.999c-6.66699 38 -15 69 -25 93s-23 42.833 -39 56.5s-36 23.167 -60 28.5s-53.667 8 -89 8c-36 0 -65.667 -3.33301 -89 -10s-41.833 -18 -55.5 -34s-23.5 -37 -29.5 -63s-9.33301 -58.333 -10 -97zM221.998 1530c-8.66699 10.667 -5.99805 16 8.00195 16h263
c7.33301 0 13.166 -1.16699 17.499 -3.5s8.5 -6.83301 12.5 -13.5l66 -106h20l66 106c4 6.66699 8.16699 11.167 12.5 13.5s10.166 3.5 17.499 3.5h263c14 0 16.667 -5.33301 8 -16l-197 -265c-8 -10.667 -18.667 -16 -32 -16h-296c-13.333 0 -24 5.33301 -32 16z" />
    <glyph glyph-name="Gbreve" unicode="&#x11e;" horiz-adv-x="1334" 
d="M717 544c-13.333 0.666992 -19.998 7.66504 -19.998 20.998v242c0 13.333 6.66699 20 20 20h497c13.333 0 20 -6.66699 20 -20v-740c0 -7.33301 -1.33301 -13 -4 -17s-7.66699 -7.33301 -15 -10c-37.333 -14 -75.5 -25.667 -114.5 -35s-78 -16.666 -117 -21.999
s-77.333 -9 -115 -11s-73.5 -3 -107.5 -3c-108.667 0 -204.667 11.333 -288 34s-153.333 60.834 -210 114.501s-99.5 124.834 -128.5 213.501s-43.5 199 -43.5 331v153c0 130.667 14.5 240.167 43.5 328.5s71.833 159.333 128.5 213s126.667 91.834 210 114.501
s179.333 34 288 34c32.667 0 67 -1.16699 103 -3.5s71.333 -5.83301 106 -10.5s67.5 -10.334 98.5 -17.001s58.5 -14.334 82.5 -23.001c7.33301 -2.66699 12.166 -5.83398 14.499 -9.50098s2.83301 -9.16699 1.5 -16.5l-45 -272c-2 -13.333 -9.66699 -19 -23 -17
c-108 18 -216 27 -324 27c-57.333 0 -106.833 -5.5 -148.5 -16.5s-76.167 -29.5 -103.5 -55.5s-47.5 -60.667 -60.5 -104s-19.5 -97.333 -19.5 -162v-174c0 -65.333 6 -119.666 18 -162.999s30.667 -78 56 -104s57.666 -44.333 96.999 -55s86.333 -16 141 -16h64.5
c21.667 0 43.167 0.666992 64.5 2v220zM685.002 1577c-65.333 0 -118.502 5.16699 -159.502 15.5s-73 26.333 -96 48s-38.833 49.334 -47.5 83.001s-13.334 73.834 -14.001 120.501c0 13.333 6.66699 20 20 20h180c14 0 21.333 -6.66699 22 -20c2 -18 5.83301 -33 11.5 -45
s12.834 -21.5 21.501 -28.5s18.334 -12 29.001 -15s21.667 -4.5 33 -4.5s22.333 1.5 33 4.5s20.334 8 29.001 15s15.834 16.5 21.501 28.5s9.5 27 11.5 45c0.666992 13.333 8 20 22 20h181c13.333 0 20 -6.66699 20 -20
c-0.666992 -46.667 -5.33398 -86.834 -14.001 -120.501s-24.667 -61.334 -48 -83.001s-55.5 -37.667 -96.5 -48s-94.167 -15.5 -159.5 -15.5z" />
    <glyph glyph-name="gbreve" unicode="&#x11f;" horiz-adv-x="1233" 
d="M618 1237c-65.333 0 -118.333 6.5 -159 19.5s-72.5 31.833 -95.5 56.5s-39 54.667 -48 90s-13.833 75.666 -14.5 120.999c0 13.333 6.66699 20 20 20h201c13.333 0 20 -6.66699 20 -20c2 -44 9.33301 -73.833 22 -89.5s30.667 -23.5 54 -23.5s41.333 7.83301 54 23.5
s20 45.5 22 89.5c0 13.333 6.66699 20 20 20h202c13.333 0 20 -6.66699 20 -20c-1.33301 -45.333 -6.33301 -85.666 -15 -120.999s-24.5 -65.333 -47.5 -90s-55 -43.5 -96 -56.5s-94.167 -19.5 -159.5 -19.5zM606 819c-42.667 0 -76.999 -4.16797 -102.999 -12.501
s-46.167 -22.166 -60.5 -41.499s-24 -44.5 -29 -75.5s-7.5 -69.167 -7.5 -114.5v-71c0 -43.333 2.16699 -80 6.5 -110s13.5 -54.167 27.5 -72.5s34 -31.5 60 -39.5s60.667 -12 104 -12c14 0 29.167 0.333008 45.5 1s32.666 1.5 48.999 2.5s31.833 2.33301 46.5 4
s27 3.5 37 5.5v532c-22.667 1.33301 -50.167 2.33301 -82.5 3s-63.5 1 -93.5 1zM502.001 -481.001c-50.667 0 -100.671 2.16895 -150.004 6.50195s-95.666 10.166 -138.999 17.499c-13.333 2.66699 -19.666 10.667 -18.999 24l14 225c0.666992 13.333 7.66699 19 21 17
c18.667 -2.66699 38.667 -5 60 -7s42.333 -3.5 63 -4.5s40.334 -1.66699 59.001 -2s34.667 -0.5 48 -0.5c68.667 0 124.167 3.33301 166.5 10s75.166 18 98.499 34s38.833 37 46.5 63s11.5 58.667 11.5 98c-23.333 -6 -50.166 -10.833 -80.499 -14.5
s-68.166 -5.5 -113.499 -5.5c-94 0 -173 8.5 -237 25.5s-115.667 44.667 -155 83s-67.5 88.5 -84.5 150.5s-25.5 138 -25.5 228v151c0 88.667 8.33301 163.667 25 225s45.334 111 86.001 149s94.667 65.5 162 82.5s151.666 25.5 252.999 25.5
c38.667 0 79.167 -0.833008 121.5 -2.5s84.333 -3.83398 126 -6.50098s82.5 -5.66699 122.5 -9s77.333 -7 112 -11c13.333 -0.666992 20 -8 20 -22v-1035c0 -99.333 -13.333 -181 -40 -245s-66 -114.5 -118 -151.5s-116 -62.667 -192 -77s-163.333 -21.5 -262 -21.5z" />
    <glyph glyph-name="Gcommaaccent" unicode="&#x122;" horiz-adv-x="1334" 
d="M717 544c-13.333 0.666992 -19.998 7.66504 -19.998 20.998v242c0 13.333 6.66699 20 20 20h497c13.333 0 20 -6.66699 20 -20v-740c0 -7.33301 -1.33301 -13 -4 -17s-7.66699 -7.33301 -15 -10c-37.333 -14 -75.5 -25.667 -114.5 -35s-78 -16.666 -117 -21.999
s-77.333 -9 -115 -11s-73.5 -3 -107.5 -3c-108.667 0 -204.667 11.333 -288 34s-153.333 60.834 -210 114.501s-99.5 124.834 -128.5 213.501s-43.5 199 -43.5 331v153c0 130.667 14.5 240.167 43.5 328.5s71.833 159.333 128.5 213s126.667 91.834 210 114.501
s179.333 34 288 34c32.667 0 67 -1.16699 103 -3.5s71.333 -5.83301 106 -10.5s67.5 -10.334 98.5 -17.001s58.5 -14.334 82.5 -23.001c7.33301 -2.66699 12.166 -5.83398 14.499 -9.50098s2.83301 -9.16699 1.5 -16.5l-45 -272c-2 -13.333 -9.66699 -19 -23 -17
c-108 18 -216 27 -324 27c-57.333 0 -106.833 -5.5 -148.5 -16.5s-76.167 -29.5 -103.5 -55.5s-47.5 -60.667 -60.5 -104s-19.5 -97.333 -19.5 -162v-174c0 -65.333 6 -119.666 18 -162.999s30.667 -78 56 -104s57.666 -44.333 96.999 -55s86.333 -16 141 -16h64.5
c21.667 0 43.167 0.666992 64.5 2v220zM531.002 -453.002c-12.667 0 -17.667 6.33301 -15 19l63 284c2 7.33301 4.83301 12.5 8.5 15.5s9.16699 5.16699 16.5 6.5l276 33c12.667 2 17 -3.33301 13 -16l-130 -323c-2.66699 -7.33301 -6 -12.333 -10 -15s-9.66699 -4 -17 -4
h-205z" />
    <glyph glyph-name="gcommaaccent" unicode="&#x123;" horiz-adv-x="1233" 
d="M444 1245c-12.667 -0.666992 -16.666 4.66797 -11.999 16.001l146 323c3.33301 7.33301 7 12.166 11 14.499s9.66699 3.5 17 3.5h257c13.333 0 18 -6.33301 14 -19l-87 -282c-2.66699 -7.33301 -5.83398 -12.5 -9.50098 -15.5s-9.16699 -4.83301 -16.5 -5.5z
M606.001 819.002c-42.667 0 -76.999 -4.16797 -102.999 -12.501s-46.167 -22.166 -60.5 -41.499s-24 -44.5 -29 -75.5s-7.5 -69.167 -7.5 -114.5v-71c0 -43.333 2.16699 -80 6.5 -110s13.5 -54.167 27.5 -72.5s34 -31.5 60 -39.5s60.667 -12 104 -12
c14 0 29.167 0.333008 45.5 1s32.666 1.5 48.999 2.5s31.833 2.33301 46.5 4s27 3.5 37 5.5v532c-22.667 1.33301 -50.167 2.33301 -82.5 3s-63.5 1 -93.5 1zM502.002 -480.999c-50.667 0 -100.671 2.16895 -150.004 6.50195s-95.666 10.166 -138.999 17.499
c-13.333 2.66699 -19.666 10.667 -18.999 24l14 225c0.666992 13.333 7.66699 19 21 17c18.667 -2.66699 38.667 -5 60 -7s42.333 -3.5 63 -4.5s40.334 -1.66699 59.001 -2s34.667 -0.5 48 -0.5c68.667 0 124.167 3.33301 166.5 10s75.166 18 98.499 34s38.833 37 46.5 63
s11.5 58.667 11.5 98c-23.333 -6 -50.166 -10.833 -80.499 -14.5s-68.166 -5.5 -113.499 -5.5c-94 0 -173 8.5 -237 25.5s-115.667 44.667 -155 83s-67.5 88.5 -84.5 150.5s-25.5 138 -25.5 228v151c0 88.667 8.33301 163.667 25 225s45.334 111 86.001 149
s94.667 65.5 162 82.5s151.666 25.5 252.999 25.5c38.667 0 79.167 -0.833008 121.5 -2.5s84.333 -3.83398 126 -6.50098s82.5 -5.66699 122.5 -9s77.333 -7 112 -11c13.333 -0.666992 20 -8 20 -22v-1035c0 -99.333 -13.333 -181 -40 -245s-66 -114.5 -118 -151.5
s-116 -62.667 -192 -77s-163.333 -21.5 -262 -21.5z" />
    <glyph glyph-name="Imacron" unicode="&#x12a;" horiz-adv-x="647" 
d="M37 1626c-13.333 0 -20 6.66699 -20 20v198c0 13.333 6.66699 20 20 20h554c13.333 0 20 -6.66699 20 -20v-198c0 -13.333 -6.66699 -20 -20 -20h-554zM168 0c-13.333 0 -20 6.66699 -20 20v1435c0 13.333 6.66699 20 20 20h311c13.333 0 20 -6.66699 20 -20v-1435
c0 -13.333 -6.66699 -20 -20 -20h-311z" />
    <glyph glyph-name="imacron" unicode="&#x12b;" horiz-adv-x="584" 
d="M56 1237c-13.333 0 -20 6.66699 -20 20v198c0 13.333 6.66699 20 20 20h472c13.333 0 20 -6.66699 20 -20v-198c0 -13.333 -6.66699 -20 -20 -20h-472zM146 0c-13.333 0 -20 6.66699 -20 20v1031c0 13.333 6.66699 20 20 20h292c13.333 0 20 -6.66699 20 -20v-1031
c0 -13.333 -6.66699 -20 -20 -20h-292z" />
    <glyph glyph-name="Ibreve" unicode="&#x12c;" horiz-adv-x="647" 
d="M323 1577c-65.333 0 -118.502 5.16699 -159.502 15.5s-73 26.333 -96 48s-38.833 49.334 -47.5 83.001s-13.334 73.834 -14.001 120.501c0 13.333 6.66699 20 20 20h180c14 0 21.333 -6.66699 22 -20c2 -18 5.83301 -33 11.5 -45s12.834 -21.5 21.501 -28.5
s18.334 -12 29.001 -15s21.667 -4.5 33 -4.5s22.333 1.5 33 4.5s20.334 8 29.001 15s15.834 16.5 21.501 28.5s9.5 27 11.5 45c0.666992 13.333 8 20 22 20h181c13.333 0 20 -6.66699 20 -20c-0.666992 -46.667 -5.33398 -86.834 -14.001 -120.501
s-24.667 -61.334 -48 -83.001s-55.5 -37.667 -96.5 -48s-94.167 -15.5 -159.5 -15.5zM167.998 0c-13.333 0 -20 6.66699 -20 20v1435c0 13.333 6.66699 20 20 20h311c13.333 0 20 -6.66699 20 -20v-1435c0 -13.333 -6.66699 -20 -20 -20h-311z" />
    <glyph glyph-name="ibreve" unicode="&#x12d;" horiz-adv-x="584" 
d="M292 1237c-65.333 0 -118.333 6.5 -159 19.5s-72.5 31.833 -95.5 56.5s-39 54.667 -48 90s-13.833 75.666 -14.5 120.999c0 13.333 6.66699 20 20 20h201c13.333 0 20 -6.66699 20 -20c2 -44 9.33301 -73.833 22 -89.5s30.667 -23.5 54 -23.5s41.333 7.83301 54 23.5
s20 45.5 22 89.5c0 13.333 6.66699 20 20 20h202c13.333 0 20 -6.66699 20 -20c-1.33301 -45.333 -6.33301 -85.666 -15 -120.999s-24.5 -65.333 -47.5 -90s-55 -43.5 -96 -56.5s-94.167 -19.5 -159.5 -19.5zM146 0c-13.333 0 -20 6.66699 -20 20v1031
c0 13.333 6.66699 20 20 20h292c13.333 0 20 -6.66699 20 -20v-1031c0 -13.333 -6.66699 -20 -20 -20h-292z" />
    <glyph glyph-name="Iogonek" unicode="&#x12e;" horiz-adv-x="646" 
d="M37 -209c0 26.667 2.50293 50.501 7.50293 71.501s12.333 40.333 22 58s21.167 34.167 34.5 49.5s28.666 30 45.999 44v6v1435c0 13.333 6.66699 20 20 20h311c13.333 0 20 -6.66699 20 -20v-1435c0 -4.66699 -1 -9 -3 -13s-5.66699 -6.33301 -11 -7
c-33.333 -4 -62.833 -11.667 -88.5 -23s-47.167 -24.833 -64.5 -40.5s-30.333 -33 -39 -52s-13 -38.5 -13 -58.5c0 -14 1 -25.667 3 -35s6 -16.833 12 -22.5s14.667 -9.5 26 -11.5s26 -3 44 -3c13.333 0 30 0.666992 50 2s38.333 2.66602 55 3.99902
c13.333 0.666992 20.333 -5.33301 21 -18l6 -122c0.666992 -13.333 -5.33301 -21.333 -18 -24c-20.667 -4.66699 -46.334 -8.5 -77.001 -11.5s-61.334 -4.5 -92.001 -4.5c-46.667 0 -87 3.33301 -121 10s-62.167 18.167 -84.5 34.5s-39 38 -50 65s-16.5 60.833 -16.5 101.5z
" />
    </font>
</defs>
</svg>
