<?xml version="1.0" standalone="no"?>
<!DOCTYPE svg PUBLIC "-//W3C//DTD SVG 1.1//EN" "http://www.w3.org/Graphics/SVG/1.1/DTD/svg11.dtd" >
<svg>
<metadata>
Created by FontForge 20090914 at Wed Apr  8 22:55:58 2015
 By www-data
</metadata>
<defs>
<font id="SkodaPro-BoldItalic" horiz-adv-x="0" >
  <font-face 
    font-family="Skoda Pro"
    font-weight="600"
    font-style="italic"
    font-stretch="normal"
    units-per-em="2048"
    panose-1="2 0 0 0 0 0 0 0 0 0"
    ascent="1638"
    descent="-410"
    x-height="1071"
    cap-height="1475"
    bbox="-857.172 -478.004 2705.36 1941"
    underline-thickness="102"
    underline-position="-103"
    slope="-10"
    unicode-range="U+0020-U+FB02"
  />
<missing-glyph 
 />
    <glyph glyph-name=".notdef" 
 />
    <glyph glyph-name="space" unicode=" " horiz-adv-x="508" 
 />
    <glyph glyph-name="exclam" unicode="!" horiz-adv-x="590" 
d="M184 554c-12 0 -17 5.99707 -15 17.9971l146 885c1.33301 7.33301 3.33301 12.333 6 15s7.66699 4.33398 15 5.00098l239 31c12 0.666992 16.667 -4.66602 14 -15.999l-185 -920c-1.33301 -7.33301 -3.5 -12.166 -6.5 -14.499s-8.16699 -3.5 -15.5 -3.5h-198z
M65 -0.00292969c-12 0 -17 5.99707 -15 17.9971l49 264c1.33301 7.33301 3.33301 12.333 6 15s7.66699 4.33398 15 5.00098l225 30c12 0.666992 17 -4.66602 15 -15.999l-55 -298c-1.33301 -7.33301 -3.33301 -12.166 -6 -14.499s-7.66699 -3.5 -15 -3.5h-219z" />
    <glyph glyph-name="quotedbl" unicode="&#x22;" horiz-adv-x="884" 
d="M190 935c-12 0 -17 6 -15 18l94 504c1.33301 7.33301 3.33301 12.166 6 14.499s7.66699 4.16602 15 5.49902l215 23c12 0.666992 17 -4.66602 15 -15.999l-105 -531c-1.33301 -7.33301 -3.33301 -12.166 -6 -14.499s-7.66699 -3.5 -15 -3.5h-204zM587 935
c-12 0 -17 6 -15 18l94 504c1.33301 7.33301 3.33301 12.166 6 14.499s7.66699 4.16602 15 5.49902l214 23c12 0.666992 17 -4.66602 15 -15.999l-104 -531c-1.33301 -7.33301 -3.33301 -12.166 -6 -14.499s-7.66699 -3.5 -15 -3.5h-204z" />
    <glyph glyph-name="numbersign" unicode="#" horiz-adv-x="1473" 
d="M653 0c-12 0 -16 5.66699 -12 17l102 299h-262l-102 -299c-2.66699 -6.66699 -5.5 -11.167 -8.5 -13.5s-8.16699 -3.5 -15.5 -3.5h-219c-12 0 -16 5.66699 -12 17l102 299h-197c-12.667 0 -17 5.66699 -13 17l55 212c2 6.66699 4.5 11.167 7.5 13.5s8.16699 3.5 15.5 3.5
h217l121 353h-210c-12.667 0 -17 5.66699 -13 17l53 209c2 6.66699 4.5 11.167 7.5 13.5s8.16699 3.5 15.5 3.5h231l103 300c2.66699 6.66699 5.5 11.167 8.5 13.5s8.16699 3.5 15.5 3.5h217c12 0 16 -5.66699 12 -17l-103 -300h262l103 300
c2.66699 6.66699 5.5 11.167 8.5 13.5s8.16699 3.5 15.5 3.5h218c12 0 16 -5.66699 12 -17l-103 -300h199c12.667 0 17 -5.66699 13 -17l-54 -209c-2 -6.66699 -4.5 -11.167 -7.5 -13.5s-8.16699 -3.5 -15.5 -3.5h-218l-121 -353h211c12.667 0 17 -5.66699 13 -17l-55 -212
c-2 -6.66699 -4.5 -11.167 -7.5 -13.5s-8.16699 -3.5 -15.5 -3.5h-231l-102 -299c-2.66699 -6.66699 -5.5 -11.167 -8.5 -13.5s-8.16699 -3.5 -15.5 -3.5h-217zM686 915l-121 -353h262l121 353h-262z" />
    <glyph glyph-name="dollar" unicode="$" horiz-adv-x="1089" 
d="M287 -230c-12 0 -16.9971 6.00488 -14.9971 18.0049l38 207c-50 1.33301 -98.5 4.16602 -145.5 8.49902s-90.5 10.833 -130.5 19.5c-12 2.66699 -16 9.66699 -12 21l69 186c3.33301 11.333 11.333 16 24 14c40 -7.33301 81 -12.5 123 -15.5s86.667 -5.16699 134 -6.5
l99 430l-81 25c-43.333 14 -80 30.5 -110 49.5s-54.5 40.667 -73.5 65s-32.667 51.666 -41 81.999s-12.5 63.5 -12.5 99.5c0 80 8.5 149.833 25.5 209.5s44.167 110 81.5 151s86.166 73 146.499 96s133.5 38.167 219.5 45.5l39 212c1.33301 7.33301 3.33301 12.166 6 14.499
s7.66699 3.5 15 3.5h164c12 0 17 -6 15 -18l-38 -207c47.333 -1.33301 92.5 -4 135.5 -8s82.5 -9.66699 118.5 -17c12 -2.66699 16 -9.66699 12 -21l-65 -180c-2.66699 -6.66699 -5.5 -11.167 -8.5 -13.5s-8.16699 -2.83301 -15.5 -1.5
c-40 3.33301 -78.667 6.16602 -116 8.49902s-78 4.16602 -122 5.49902l-96 -420l76 -24c45.333 -15.333 83.166 -32.833 113.499 -52.5s54.666 -41.834 72.999 -66.501s31.333 -51.5 39 -80.5s11.5 -59.833 11.5 -92.5c0 -82.667 -8.83301 -154.667 -26.5 -216
s-45.5 -113 -83.5 -155s-86.833 -74.833 -146.5 -98.5s-131.5 -39.5 -215.5 -47.5l-39 -212c-1.33301 -7.33301 -3.33301 -12.166 -6 -14.499s-7.66699 -3.5 -15 -3.5h-164zM596.003 1251c-41.333 -3.33301 -75.501 -9.50098 -102.501 -18.501s-48.167 -22.167 -63.5 -39.5
s-26 -39.166 -32 -65.499s-9 -58.5 -9 -96.5c0 -18 2.33301 -34 7 -48s12.334 -26.833 23.001 -38.5s24.5 -22.5 41.5 -32.5s38.167 -20 63.5 -30zM541.002 226.004c39.333 4 72.166 11 98.499 21s47.5 24 63.5 42s27.333 40.667 34 68s10 60.333 10 99
c0 16 -2.16699 30.667 -6.5 44s-11.666 25.666 -21.999 36.999s-24 22.333 -41 33s-38.167 21.334 -63.5 32.001z" />
    <glyph glyph-name="percent" unicode="%" horiz-adv-x="2012" 
d="M425 590c-53.333 0 -100.665 7 -141.998 21s-74.833 36.833 -100.5 68.5s-42.667 72.667 -51 123s-5.83301 111.833 7.5 184.5l22 119c14.667 78.667 35.5 143.5 62.5 194.5s59.167 91.5 96.5 121.5s79.166 50.833 125.499 62.5s96.166 17.5 149.499 17.5
s100.5 -6.83301 141.5 -20.5s74.167 -36 99.5 -67s42 -71.833 50 -122.5s5.33301 -112.667 -8 -186l-21 -119c-14 -78 -34.333 -142.5 -61 -193.5s-58.5 -91.5 -95.5 -121.5s-78.667 -51.167 -125 -63.5s-96.5 -18.5 -150.5 -18.5zM557.001 1301
c-23.333 0 -44.333 -3 -63 -9s-35.334 -16.333 -50.001 -31s-27.334 -33.834 -38.001 -57.501s-19.334 -52.834 -26.001 -87.501l-25 -139c-6.66699 -33.333 -9.16699 -61.833 -7.5 -85.5s7.16699 -43 16.5 -58s22.333 -25.833 39 -32.5s36.667 -10 60 -10
c44.667 0 82 14.333 112 43s50.667 76.667 62 144l27 138c6.66699 34.667 8.83398 63.834 6.50098 87.501s-8.16602 42.834 -17.499 57.501s-22.166 25 -38.499 31s-35.5 9 -57.5 9zM1459 -28c-53.333 0 -100.665 7.16406 -141.998 21.4971s-74.833 37.333 -100.5 69
s-42.5 72.667 -50.5 123s-5.33301 111.833 8 184.5l21 119c14.667 78.667 35.5 143.5 62.5 194.5s59 91.5 96 121.5s78.667 51 125 63s96.166 18 149.499 18s100.833 -6.83301 142.5 -20.5s75.167 -36.167 100.5 -67.5s42 -72.333 50 -123s5.33301 -112.667 -8 -186
l-22 -119c-14.667 -77.333 -35.334 -141.666 -62.001 -192.999s-58.5 -92.166 -95.5 -122.499s-78.5 -51.666 -124.5 -63.999s-96 -18.5 -150 -18.5zM1591 683.997c-23.333 0 -44.333 -3 -63 -9s-35.334 -16.333 -50.001 -31s-27.334 -33.834 -38.001 -57.501
s-19 -52.834 -25 -87.501l-27 -139c-12 -67.333 -8.33301 -115.166 11 -143.499s52 -42.5 98 -42.5c45.333 0 82.833 14.167 112.5 42.5s50.834 76.166 63.501 143.499l25 139c6 34.667 8 63.834 6 87.501s-7.66699 42.834 -17 57.501s-22.166 25 -38.499 31
s-35.5 9 -57.5 9zM340.002 -0.00292969c-12 0 -14.333 4.66699 -7 14l1074 1447c4 5.33301 8 9 12 11s9.66699 3 17 3h264c12 0 14.333 -4.66699 7 -14l-1072 -1447c-4 -5.33301 -8 -9 -12 -11s-9.66699 -3 -17 -3h-266z" />
    <glyph glyph-name="ampersand" unicode="&#x26;" horiz-adv-x="1405" 
d="M995 0c-7.33301 0 -12.8311 1.16992 -16.498 3.50293s-7.5 6.16602 -11.5 11.499l-73 114c-73.333 -48.667 -153.333 -87 -240 -115s-179.667 -42 -279 -42c-48 0 -94 5.83301 -138 17.5s-83 30.5 -117 56.5s-61.167 60 -81.5 102s-30.5 93.667 -30.5 155
c0 54.667 7.83301 103.667 23.5 147s41 85 76 125s80.5 80.667 136.5 122s124 87 204 137c-36 60.667 -63 115.5 -81 164.5s-27 97.5 -27 145.5c0 62 10.167 115.5 30.5 160.5s49.666 82.167 87.999 111.5s85.166 51 140.499 65s118.333 21 189 21
c52 0 98.333 -5.83301 139 -17.5s74.834 -28.167 102.501 -49.5s48.834 -47.166 63.501 -77.499s22 -63.833 22 -100.5c0 -49.333 -7 -93.833 -21 -133.5s-35.5 -77.334 -64.5 -113.001s-65.333 -70.667 -109 -105s-94.834 -70.5 -153.501 -108.5l200 -317
c32.667 37.333 63 77.333 91 120s52.667 88.667 74 138c4.66699 11.333 13 17 25 17h187c12 0 16 -5.66699 12 -17c-30 -80.667 -67.333 -158.834 -112 -234.501s-97.334 -145.834 -158.001 -210.501l175 -278c6.66699 -10 4 -15 -8 -15h-258zM275.002 343.003
c0 -31.333 5 -56.166 15 -74.499s23 -32.333 39 -42s34.167 -16 54.5 -19s40.5 -4.5 60.5 -4.5c51.333 0 105.333 9.66699 162 29s113.334 47 170.001 83l-221 348c-52.667 -34 -96.834 -64.833 -132.501 -92.5s-64.5 -54 -86.5 -79s-37.667 -49.333 -47 -73
s-14 -48.834 -14 -75.501zM751.002 1298c-54 0 -96 -10.332 -126 -30.999s-45 -55 -45 -103c0 -32.667 7.66699 -65.334 23 -98.001s34.333 -66.667 57 -102c38 24.667 70.5 47 97.5 67s48.833 39.5 65.5 58.5s28.834 38.333 36.501 58s11.5 41.5 11.5 65.5
c0 29.333 -10.333 50.833 -31 64.5s-50.334 20.5 -89.001 20.5z" />
    <glyph glyph-name="quotesingle" unicode="'" horiz-adv-x="486" 
d="M190 935c-12 0 -17 6 -15 18l94 504c1.33301 7.33301 3.33301 12.166 6 14.499s7.66699 4.16602 15 5.49902l215 23c12 0.666992 17 -4.66602 15 -15.999l-105 -531c-1.33301 -7.33301 -3.33301 -12.166 -6 -14.499s-7.66699 -3.5 -15 -3.5h-204z" />
    <glyph glyph-name="parenleft" unicode="(" horiz-adv-x="654" 
d="M356 520c-13.333 -74.667 -22.835 -151.498 -28.502 -230.498s-6.66699 -157 -3 -234s11.834 -151.833 24.501 -224.5s31 -140.334 55 -203.001c4.66699 -11.333 1 -17 -11 -17h-232c-7.33301 0 -12.666 1.16699 -15.999 3.5s-6.33301 6.83301 -9 13.5
c-23.333 58 -42 121.667 -56 191s-23.333 141.833 -28 217.5s-4.5 153.167 0.5 232.5s14.833 157.666 29.5 234.999l16 88c14.667 80.667 34 160.5 58 239.5s52 155.5 84 229.5s67.5 144.667 106.5 212s80.5 130 124.5 188c4 5.33301 8 9 12 11s9.66699 3 17 3h237
c12 0 14.333 -4.66699 7 -14c-47.333 -62.667 -91.166 -130.5 -131.499 -203.5s-76.833 -148.333 -109.5 -226s-60.834 -156.167 -84.501 -235.5s-42.167 -156.333 -55.5 -231l-7 -45v0z" />
    <glyph glyph-name="parenright" unicode=")" horiz-adv-x="658" 
d="M272 565c13.333 74.667 22.832 151.498 28.499 230.498s6.66699 157 3 234s-11.834 151.833 -24.501 224.5s-31 140.334 -55 203.001c-4.66699 11.333 -1 17 11 17h232c7.33301 0 12.666 -1.16699 15.999 -3.5s6.33301 -6.83301 9 -13.5
c22.667 -58 41.167 -121.667 55.5 -191s23.833 -141.833 28.5 -217.5s4.5 -153.167 -0.5 -232.5s-14.833 -157.666 -29.5 -234.999l-16 -88c-14.667 -81.333 -34 -161.333 -58 -240s-52 -155 -84 -229s-67.5 -144.667 -106.5 -212s-80.5 -130 -124.5 -188
c-4 -5.33301 -8 -9 -12 -11s-9.66699 -3 -17 -3h-237c-12 0 -14.333 4.66699 -7 14c46.667 62.667 90.334 130.5 131.001 203.5s77.334 148.333 110.001 226s60.834 156 84.501 235s42.167 156.167 55.5 231.5l7 45v0z" />
    <glyph glyph-name="asterisk" unicode="*" horiz-adv-x="978" 
d="M209 1280c-10 6.66699 -11.333 14.667 -4 24l105 140c7.33301 9.33301 16 10.666 26 3.99902l180 -118l45 237c1.33301 7.33301 3.33301 12.166 6 14.499s7.66699 3.5 15 3.5h157c12 0 17 -6 15 -18l-44 -235l226 119c10.667 5.33301 18.334 2.33301 23.001 -9l53 -135
c4.66699 -11.333 1.66699 -19.666 -9 -24.999l-228 -120l181 -117c10 -6.66699 11.333 -14.667 4 -24l-105 -140c-7.33301 -9.33301 -16 -10.666 -26 -3.99902l-181 117l-44 -237c-1.33301 -7.33301 -3.33301 -12.166 -6 -14.499s-7.66699 -3.5 -15 -3.5h-159
c-12 0 -17 6 -15 18l44 235l-225 -118c-10.667 -5.33301 -18.334 -2.33301 -23.001 9l-52 136c-4.66699 11.333 -1.66699 19.666 9 24.999l226 119z" />
    <glyph glyph-name="plus" unicode="+" horiz-adv-x="1069" 
d="M97 655c-12 0 -17 6 -15 18l40 208c1.33301 7.33301 3.33301 12.166 6 14.499s7.66699 3.5 15 3.5h319l61 327c1.33301 7.33301 3.33301 12.166 6 14.499s7.66699 3.5 15 3.5h207c12 0 17 -6 15 -18l-61 -327h320c12 0 17 -6 15 -18l-39 -208
c-1.33301 -7.33301 -3.33301 -12.166 -6 -14.499s-7.66699 -3.5 -15 -3.5h-320l-60 -322c-1.33301 -7.33301 -3.33301 -12.166 -6 -14.499s-7.66699 -3.5 -15 -3.5h-207c-12 0 -17 6 -15 18l60 322h-320z" />
    <glyph glyph-name="comma" unicode="," horiz-adv-x="539" 
d="M-75 -254c-12 0 -16.002 5.66797 -12.002 17.001l170 520c2.66699 6.66699 5.5 11.167 8.5 13.5s8.16699 4.16602 15.5 5.49902l259 30c12.667 1.33301 16.334 -3.66699 11.001 -15l-242 -554c-2.66699 -6.66699 -5.66699 -11.167 -9 -13.5s-8.66602 -3.5 -15.999 -3.5
h-185z" />
    <glyph glyph-name="hyphen" unicode="-" horiz-adv-x="787" 
d="M130 457c-12 0 -17 6 -15 18l40 208c1.33301 7.33301 3.33301 12.166 6 14.499s7.66699 3.5 15 3.5h464c12 0 17 -6 15 -18l-39 -208c-1.33301 -7.33301 -3.33301 -12.166 -6 -14.499s-7.66699 -3.5 -15 -3.5h-465z" />
    <glyph glyph-name="period" unicode="." horiz-adv-x="507" 
d="M31 0c-12 0 -17 5.99707 -15 17.9971l50 264c1.33301 7.33301 3.33301 12.333 6 15s7.66699 4.33398 15 5.00098l225 30c12 0.666992 17 -4.66602 15 -15.999l-55 -298c-1.33301 -7.33301 -3.33301 -12.166 -6 -14.499s-7.66699 -3.5 -15 -3.5h-220z" />
    <glyph glyph-name="slash" unicode="/" horiz-adv-x="858" 
d="M-25 0c-12.667 0 -16 5.33301 -10 16l708 1524c3.33301 6 6.66602 10.167 9.99902 12.5s8.66602 3.5 15.999 3.5h248c12.667 0 16 -5.33301 10 -16l-708 -1524c-3.33301 -6 -6.66602 -10.167 -9.99902 -12.5s-8.66602 -3.5 -15.999 -3.5h-248z" />
    <glyph glyph-name="zero" unicode="0" horiz-adv-x="1304" 
d="M530 -28c-54 0 -103.832 3.16699 -149.499 9.5s-86.334 18 -122.001 35s-65.667 40.333 -90 70s-42.5 67.667 -54.5 114s-17.333 102.333 -16 168s10.333 143.167 27 232.5l51 273c16.667 92 36.334 171.333 59.001 238s48.334 123.334 77.001 170.001
s60.334 84.334 95.001 113.001s72.667 51 114 67s86.333 26.667 135 32s101 8 157 8c54.667 0 105 -3.16699 151 -9.5s86.833 -18 122.5 -35s65.5 -40.333 89.5 -70s41.833 -67.667 53.5 -114s16.667 -102.333 15 -168s-10.834 -142.834 -27.501 -231.501l-50 -273
c-16.667 -92 -36.167 -171.5 -58.5 -238.5s-47.666 -123.833 -75.999 -170.5s-59.833 -84.334 -94.5 -113.001s-72.834 -51 -114.501 -67s-86.834 -26.667 -135.501 -32s-101.334 -8 -158.001 -8zM765.001 1246c-44 0 -82.833 -4.66602 -116.5 -13.999
s-63.667 -27.833 -90 -55.5s-49.333 -66.5 -69 -116.5s-36.834 -115.667 -51.501 -197l-46 -250c-15.333 -81.333 -22.333 -147 -21 -197s10 -88.833 26 -116.5s39.167 -46.334 69.5 -56.001s67.166 -14.5 110.499 -14.5s81.833 4.83301 115.5 14.5s63.667 28.334 90 56.001
s49.333 66.667 69 117s37.167 116.166 52.5 197.499l46 249c15.333 81.333 22.5 147 21.5 197s-9.66699 88.833 -26 116.5s-39.666 46.167 -69.999 55.5s-67.166 14 -110.499 14z" />
    <glyph glyph-name="one" unicode="1" horiz-adv-x="806" 
d="M162 1157c-12 -2.66699 -17.999 1.99902 -17.999 13.999l6 210c0 7.33301 1.16699 12.5 3.5 15.5s7.16602 5.16699 14.499 6.5l338 68c5.33301 1.33301 11.333 2.33301 18 3s12.667 1 18 1h229c12 0 17 -6 15 -18l-268 -1439
c-1.33301 -7.33301 -3.33301 -12.166 -6 -14.499s-7.66699 -3.5 -15 -3.5h-229c-12 0 -17 6 -15 18l224 1203z" />
    <glyph glyph-name="two" unicode="2" horiz-adv-x="1120" 
d="M-6 0c-12 0 -17.002 5.99707 -15.002 17.9971l24 128c14 72.667 31.167 135.167 51.5 187.5s46.5 99.833 78.5 142.5s70.833 83 116.5 121s100.5 78.667 164.5 122l234 157c30.667 20.667 57.167 39.834 79.5 57.501s40.666 35.667 54.999 54s24.833 37.833 31.5 58.5
s10 44.334 10 71.001c0 23.333 -4.33301 43.166 -13 59.499s-22.5 29.5 -41.5 39.5s-43.833 17.333 -74.5 22s-67.667 7 -111 7c-18 0 -38.833 -0.333008 -62.5 -1s-49.167 -2 -76.5 -4s-55.5 -4.5 -84.5 -7.5s-57.833 -6.83301 -86.5 -11.5c-12 -2 -18 3 -18 15l4 203
c0 7.33301 1.16699 12.5 3.5 15.5s6.83301 5.16699 13.5 6.5c32 8 65.167 14.667 99.5 20s68 9.5 101 12.5s64.833 5.16699 95.5 6.5s58.334 2 83.001 2c87.333 0 160.5 -7.16699 219.5 -21.5s106.5 -34.833 142.5 -61.5s61.833 -58.5 77.5 -95.5s23.5 -78.167 23.5 -123.5
c0 -54.667 -5 -103.5 -15 -146.5s-27.167 -83.667 -51.5 -122s-56.666 -75.833 -96.999 -112.5s-90.833 -76.334 -151.5 -119.001l-182 -127c-57.333 -40 -103.5 -73.833 -138.5 -101.5s-62.833 -53.167 -83.5 -76.5s-35.667 -46.166 -45 -68.499
s-16.666 -48.166 -21.999 -77.499h584c12 0 17 -6 15 -18l-40 -213c-1.33301 -7.33301 -3.33301 -12.166 -6 -14.499s-7.66699 -3.5 -15 -3.5h-877z" />
    <glyph glyph-name="three" unicode="3" horiz-adv-x="1130" 
d="M356 -28c-66.667 0 -130.5 2.83594 -191.5 8.50293s-114.5 12.834 -160.5 21.501c-12 2 -16.667 8.66699 -14 20l53 213c2.66699 11.333 10 16.666 22 15.999c55.333 -7.33301 109.666 -12.166 162.999 -14.499s103.666 -3.5 150.999 -3.5
c48.667 0 91.334 3.33301 128.001 10s68.167 17.667 94.5 33s47.5 35.666 63.5 60.999s27.333 56.666 34 93.999l6 31c4 24.667 4.83301 48.667 2.5 72s-10.166 44 -23.499 62s-33.333 32.5 -60 43.5s-62 16.5 -106 16.5h-256c-12 0 -17 6 -15 18l37 207
c1.33301 7.33301 3.33301 12.166 6 14.499s7.66699 3.5 15 3.5h252c46 0 84.667 4.66699 116 14s57 21.833 77 37.5s35 33.167 45 52.5s16.667 39 20 59l5 21c5.33301 30 3.66602 55.167 -5.00098 75.5s-23.834 36.666 -45.501 48.999s-49.5 21.333 -83.5 27
s-73.667 8.5 -119 8.5c-54 0 -106.167 -1.66699 -156.5 -5s-103.5 -7.66602 -159.5 -12.999c-11.333 -0.666992 -16.666 4.66602 -15.999 15.999l25 212c0.666992 7.33301 2.33398 12.333 5.00098 15s7.66699 4.66699 15 6c48 7.33301 101.833 13.833 161.5 19.5
s122.167 8.5 187.5 8.5c85.333 0 160 -7 224 -21s116.333 -36.333 157 -67s68.5 -69.834 83.5 -117.501s16.167 -104.834 3.5 -171.501l-5 -27c-15.333 -81.333 -47.833 -148.5 -97.5 -201.5s-117.834 -90.833 -204.501 -113.5c38 -13.333 70 -32.166 96 -56.499
s46.333 -52 61 -83s23.834 -64.167 27.501 -99.5s2.16699 -70.666 -4.5 -105.999l-7 -38c-16.667 -86 -42 -156.667 -76 -212s-76.333 -99 -127 -131s-109.667 -54.167 -177 -66.5s-143 -18.5 -227 -18.5z" />
    <glyph glyph-name="four" unicode="4" horiz-adv-x="1227" 
d="M12 305c-12 0 -17 5.99805 -15 17.998l43 227c2 12.667 7 23 15 31l789 881c4.66699 5.33301 9 8.83301 13 10.5s9.66699 2.5 17 2.5h260c12 0 17 -6 15 -18l-174 -932h146c12 0 17 -6 15 -18l-35 -184c-1.33301 -7.33301 -3.33301 -12.166 -6 -14.499
s-7.66699 -3.5 -15 -3.5h-146l-53 -287c-1.33301 -7.33301 -3.33301 -12.166 -6 -14.499s-7.66699 -3.5 -15 -3.5h-230c-12 0 -17 6 -15 18l54 287h-657zM305 524.998h405l108 578h-16l-495 -565z" />
    <glyph glyph-name="five" unicode="5" horiz-adv-x="1123" 
d="M333 -28c-127.333 0 -240.661 13.6709 -339.994 41.0039c-10.667 3.33301 -14.334 10.666 -11.001 21.999l75 209c3.33301 11.333 11.333 16 24 14c24 -4 49.5 -7.83301 76.5 -11.5s53.333 -6.83398 79 -9.50098s50.167 -4.66699 73.5 -6s43.666 -2 60.999 -2
c57.333 0 106.5 5 147.5 15s75.167 24.667 102.5 44s48.833 43.166 64.5 71.499s27.167 60.833 34.5 97.5l5 24c7.33301 40.667 8.16602 76 2.49902 106s-19.5 54.667 -41.5 74s-53 33.666 -93 42.999s-90.667 14 -152 14c-20 0 -43 -0.833008 -69 -2.5
s-51.667 -3.66699 -77 -6s-49 -4.83301 -71 -7.5s-39 -4.66699 -51 -6c-12 -0.666992 -17 4.66602 -15 15.999l30 162c1.33301 5.33301 2.66602 11.333 3.99902 18s2.66602 12.334 3.99902 17.001l157 549c2 6.66699 4.5 11.167 7.5 13.5s8.16699 3.5 15.5 3.5h777
c12 0 16 -5.66699 12 -17l-78 -215c-2.66699 -6.66699 -5.5 -11.167 -8.5 -13.5s-8.16699 -3.5 -15.5 -3.5h-529l-83 -293l11 1c7.33301 0.666992 15.5 1.33398 24.5 2.00098l27.5 2c9.33301 0.666992 16 1 20 1c85.333 0 160.166 -8.33301 224.499 -25
s116.333 -43.334 156 -80.001s66.5 -84 80.5 -142s13 -128.333 -3 -211l-5 -24c-17.333 -88.667 -44 -163.834 -80 -225.501s-81.5 -111.667 -136.5 -150s-119 -66.166 -192 -83.499s-154.833 -26 -245.5 -26z" />
    <glyph glyph-name="six" unicode="6" horiz-adv-x="1232" 
d="M515 -28c-78 0 -146.508 11.333 -205.508 34s-106.167 59.5 -141.5 110.5s-57.666 117.333 -66.999 199s-3 181.834 19 300.501l37 202c24 128.667 57 236.667 99 324s94 157.666 156 210.999s133.833 91.5 215.5 114.5s173.834 34.5 276.501 34.5
c48.667 0 98.5 -3 149.5 -9s102.5 -16 154.5 -30c10.667 -3.33301 14.334 -10.666 11.001 -21.999l-73 -202c-3.33301 -11.333 -11.333 -16 -24 -14c-42 7.33301 -86.667 12.666 -134 15.999s-90 5 -128 5c-59.333 0 -111.666 -4.83301 -156.999 -14.5
s-84.666 -27 -117.999 -52s-61.666 -59.167 -84.999 -102.5s-42.333 -98.333 -57 -165c40 6.66699 82.333 12.834 127 18.501s92.334 8.5 143.001 8.5c70 0 133.667 -7.83301 191 -23.5s105 -40.834 143 -75.501s64.5 -80.167 79.5 -136.5s15.167 -124.833 0.5 -205.5
l-4 -20c-15.333 -80 -39.666 -151.333 -72.999 -214s-75.5 -115.667 -126.5 -159s-110.667 -76.333 -179 -99s-144.833 -34 -229.5 -34zM858.992 491c8 42 8.33496 76.8291 1.00195 104.496s-20.833 49.834 -40.5 66.501s-44.834 28.5 -75.501 35.5
s-65.334 10.5 -104.001 10.5c-35.333 0 -74.666 -2.66699 -117.999 -8s-84.333 -10.666 -123 -15.999l-13 -68c-15.333 -80 -22 -145.167 -20 -195.5s11.167 -89.666 27.5 -117.999s39.333 -47.666 69 -57.999s65.167 -15.5 106.5 -15.5c78.667 0 142.167 19.167 190.5 57.5
s80.166 99.5 95.499 183.5z" />
    <glyph glyph-name="seven" unicode="7" horiz-adv-x="1058" 
d="M17 0c-11.333 0 -14 4.99902 -8 14.999l831 1211h-651c-12 0 -17.667 6 -17 18l18 213c0.666992 12 7 18 19 18h942c12 0 17 -6 15 -18l-39 -212c-2 -12.667 -6.33301 -23.667 -13 -33l-792 -1197c-4 -5.33301 -7.83301 -9.16602 -11.5 -11.499s-9.16699 -3.5 -16.5 -3.5
h-277z" />
    <glyph glyph-name="eight" unicode="8" horiz-adv-x="1275" 
d="M518 -28c-80 0 -151.494 7.16699 -214.494 21.5s-114.5 38.166 -154.5 71.499s-67.667 77.333 -83 132s-15.333 122.334 0 203.001l8 41c5.33301 29.333 15.333 60.166 30 92.499s34.334 63.333 59.001 93s54.167 56.667 88.5 81s74.166 43.5 119.499 57.5
c-32 13.333 -57.833 32.333 -77.5 57s-34.334 52 -44.001 82s-14.667 61.167 -15 93.5s2.5 62.833 8.5 91.5l7 29c16.667 73.333 40.167 134.5 70.5 183.5s68.333 88.333 114 118s98.834 50.834 159.501 63.501s129.667 19 207 19c76.667 0 143.667 -7.5 201 -22.5
s103.666 -38.333 138.999 -70s59 -72.167 71 -121.5s11.333 -108 -2 -176l-6 -29c-7.33301 -34.667 -17.333 -68.334 -30 -101.001s-28.834 -63 -48.501 -91s-43.334 -52.833 -71.001 -74.5s-59.834 -38.834 -96.501 -51.501c38.667 -15.333 70.5 -36 95.5 -62
s44.167 -54.167 57.5 -84.5s21.666 -61.166 24.999 -92.499s2.66602 -60.333 -2.00098 -87l-8 -42c-16 -86 -41.833 -156.667 -77.5 -212s-79.5 -98.666 -131.5 -129.999s-111.5 -53 -178.5 -65s-140.5 -18 -220.5 -18zM483.006 1068
c-4 -19.333 -5.66895 -39.666 -5.00195 -60.999s6.5 -40.833 17.5 -58.5s28.333 -32.334 52 -44.001s56.5 -17.5 98.5 -17.5h81c42 0 76.833 5.83301 104.5 17.5s50 26.334 67 44.001s29.833 37.167 38.5 58.5s15 41.666 19 60.999l4 15c7.33301 32.667 9 60.667 5 84
s-14.167 42.166 -30.5 56.499s-39.166 24.833 -68.499 31.5s-65.666 10 -108.999 10s-80.5 -3.33301 -111.5 -10s-57 -17.167 -78 -31.5s-37.833 -33.166 -50.5 -56.499s-22.667 -51.333 -30 -84zM600.004 641c-49.333 0 -90.5 -7.33301 -123.5 -22
s-59.667 -32.167 -80 -52.5s-35.166 -41.5 -44.499 -63.5s-15.333 -40 -18 -54l-5 -30c-7.33301 -38 -8.33301 -70.333 -3 -97s17.5 -48.167 36.5 -64.5s44.833 -28.333 77.5 -36s73 -11.5 121 -11.5s89.833 3.83301 125.5 11.5s66 19.667 91 36s45 37.833 60 64.5
s26.167 59 33.5 97l6 30c2 14 2.33301 32 1 54s-8.33301 43.167 -21 63.5s-32.834 37.833 -60.501 52.5s-66.167 22 -115.5 22h-81z" />
    <glyph glyph-name="nine" unicode="9" horiz-adv-x="1237" 
d="M375 -28c-50 0 -102 3.33301 -156 10s-108 17 -162 31c-10.667 3.33301 -14.334 10.666 -11.001 21.999l73 208c2 6 4.66699 10 8 12s8.66602 2.33301 15.999 1c22 -4.66699 45 -8.66699 69 -12s48.167 -6.16602 72.5 -8.49902s48 -4 71 -5s44.167 -1.5 63.5 -1.5
c56.667 0 107 4.66699 151 14s82.833 26.166 116.5 50.499s62.334 57.5 86.001 99.5s43.834 95.333 60.501 160c-39.333 -6.66699 -81.333 -12.5 -126 -17.5s-92 -7.5 -142 -7.5c-74 0 -139.667 8.16699 -197 24.5s-104.166 42.833 -140.499 79.5
s-60.833 83.834 -73.5 141.501s-11.334 128.167 3.99902 211.5l4 20c30.667 166 95.167 290.333 193.5 373s233.5 124 405.5 124c77.333 0 145.666 -11.167 204.999 -33.5s107 -58.833 143 -109.5s58.833 -116.667 68.5 -198s3.5 -181.333 -18.5 -300l-30 -164
c-25.333 -137.333 -59.666 -252.333 -102.999 -345s-96 -167.167 -158 -223.5s-134 -96.5 -216 -120.5s-174.333 -36 -277 -36zM427 992c-8.66699 -44 -10.6719 -80.8291 -6.00488 -110.496s15.834 -53.5 33.501 -71.5s41.834 -30.833 72.501 -38.5s67.667 -11.5 111 -11.5
c35.333 0 74.333 1.66699 117 5s83.334 7.33301 122.001 12l17 91c14.667 80 20.834 144.667 18.501 194s-12 87.666 -29 114.999s-40.667 45.666 -71 54.999s-65.5 14 -105.5 14c-42 0 -78.667 -4.33301 -110 -13s-58.166 -22.334 -80.499 -41.001
s-40.5 -42.834 -54.5 -72.501s-24.667 -65.5 -32 -107.5z" />
    <glyph glyph-name="colon" unicode=":" horiz-adv-x="571" 
d="M58 0c-12 0 -17 5.99707 -15 17.9971l50 264c1.33301 7.33301 3.33301 12.333 6 15s7.66699 4.33398 15 5.00098l225 30c12 0.666992 17 -4.66602 15 -15.999l-55 -298c-1.33301 -7.33301 -3.33301 -12.166 -6 -14.499s-7.66699 -3.5 -15 -3.5h-220zM183 675.997
c-12 0 -17 5.99707 -15 17.9971l50 264c1.33301 7.33301 3.33301 12.333 6 15s7.66699 4.33398 15 5.00098l225 30c12 0.666992 17 -4.66602 15 -15.999l-55 -298c-1.33301 -7.33301 -3.33301 -12.166 -6 -14.499s-7.66699 -3.5 -15 -3.5h-220z" />
    <glyph glyph-name="semicolon" unicode=";" horiz-adv-x="587" 
d="M-44 -254c-12 0 -16.002 5.66797 -12.002 17.001l170 520c2.66699 6.66699 5.5 11.167 8.5 13.5s8.16699 4.16602 15.5 5.49902l259 30c12.667 1.33301 16.334 -3.66699 11.001 -15l-242 -554c-2.66699 -6.66699 -5.66699 -11.167 -9 -13.5s-8.66602 -3.5 -15.999 -3.5
h-185zM206.998 676.001c-12 0 -17 5.99707 -15 17.9971l50 264c1.33301 7.33301 3.33301 12.333 6 15s7.66699 4.33398 15 5.00098l225 30c12 0.666992 17 -4.66602 15 -15.999l-55 -298c-1.33301 -7.33301 -3.33301 -12.166 -6 -14.499s-7.66699 -3.5 -15 -3.5h-220z" />
    <glyph glyph-name="less" unicode="&#x3c;" horiz-adv-x="972" 
d="M89 621c-5.33301 4 -9.00195 7.83105 -11.002 11.498s-2.33301 9.16699 -1 16.5l42 217c1.33301 7.33301 3.33301 12.833 6 16.5s7 7.16699 13 10.5l762 411c10.667 5.33301 16.334 2.33301 17.001 -9l18 -215c0.666992 -7.33301 -0.166016 -12.666 -2.49902 -15.999
s-6.5 -6.66602 -12.5 -9.99902l-595 -301l482 -297c10 -6 12.667 -14.333 8 -25l-94 -214c-4.66699 -10.667 -12 -12.667 -22 -6z" />
    <glyph glyph-name="equal" unicode="=" horiz-adv-x="1204" 
d="M135 419c-12 0 -17 6 -15 18l40 207c1.33301 7.33301 3.33301 12.166 6 14.499s7.66699 3.5 15 3.5h854c12 0 17 -6 15 -18l-40 -207c-1.33301 -7.33301 -3.33301 -12.166 -6 -14.499s-7.66699 -3.5 -15 -3.5h-854zM232 938c-12 0 -17 6 -15 18l38 207
c1.33301 7.33301 3.33301 12.166 6 14.499s7.66699 3.5 15 3.5h853c12 0 17 -6 15 -18l-38 -207c-1.33301 -7.33301 -3.33301 -12.166 -6 -14.499s-7.66699 -3.5 -15 -3.5h-853z" />
    <glyph glyph-name="greater" unicode="&#x3e;" horiz-adv-x="971" 
d="M930 892c5.33301 -4 9.00195 -7.83105 11.002 -11.498s2.33301 -9.16699 1 -16.5l-42 -217c-1.33301 -7.33301 -3.33301 -12.833 -6 -16.5s-7 -7.16699 -13 -10.5l-762 -411c-10.667 -5.33301 -16.334 -2.33301 -17.001 9l-18 215
c-0.666992 7.33301 0.166016 12.666 2.49902 15.999s6.5 6.66602 12.5 9.99902l595 301l-482 297c-10 6 -12.667 14.333 -8 25l94 214c4.66699 10.667 12 12.667 22 6z" />
    <glyph glyph-name="question" unicode="?" horiz-adv-x="916" 
d="M456 485c-1.33301 -7.33301 -3.5 -12.168 -6.5 -14.501s-7.83301 -3.5 -14.5 -3.5h-202c-12.667 0 -19.334 6 -20.001 18c-0.666992 7.33301 -1.16699 15.833 -1.5 25.5s0.166992 19.167 1.5 28.5c2 36.667 6.5 69.5 13.5 98.5s17.667 56.167 32 81.5
s32.833 50.166 55.5 74.499s50.667 50.5 84 78.5l87 70c24.667 20 46 38 64 54s33.333 31.333 46 46s22.834 29.5 30.501 44.5s13.167 31.5 16.5 49.5c6.66699 38 -3.66602 65.667 -30.999 83s-75 26 -143 26c-38 0 -75.667 -1.83301 -113 -5.5
s-78.666 -8.83398 -123.999 -15.501c-12 -2 -18 3 -18 15l3 203c0 7.33301 1.16699 12.5 3.5 15.5s6.83301 5.5 13.5 7.5c46 12.667 97.167 22 153.5 28s113.833 9 172.5 9c68 0 128 -5.83301 180 -17.5s94.667 -29.667 128 -54s56.666 -55.666 69.999 -93.999
s16 -84.166 8 -137.499c-6 -37.333 -14.667 -70.333 -26 -99s-26.5 -56.167 -45.5 -82.5s-42.167 -52.666 -69.5 -78.999s-59.333 -55.5 -96 -87.5l-100 -88c-28 -24 -50.167 -44.5 -66.5 -61.5s-29.333 -33.833 -39 -50.5s-17.334 -35 -23.001 -55s-11.5 -45.333 -17.5 -76
zM134 -0.00195312c-12 0 -17 5.99707 -15 17.9971l51 264c1.33301 7.33301 3.33301 12.333 6 15s7.66699 4.33398 15 5.00098l224 30c12 0.666992 17 -4.66602 15 -15.999l-55 -298c-1.33301 -7.33301 -3.33301 -12.166 -6 -14.499s-7.66699 -3.5 -15 -3.5h-220z" />
    <glyph glyph-name="at" unicode="@" horiz-adv-x="1866" 
d="M324 539c-21.333 -67.333 -37.6621 -131.003 -48.9951 -191.003s-15.666 -115.667 -12.999 -167s13.334 -97.666 32.001 -138.999s47.667 -76.5 87 -105.5s89.666 -51.667 150.999 -68s136 -24.833 224 -25.5c12.667 0 17 -5.66699 13 -17l-52 -183
c-2 -6.66699 -4.5 -11.167 -7.5 -13.5s-8.16699 -3.5 -15.5 -3.5c-163.333 1.33301 -294.5 23.333 -393.5 66s-171.167 103.334 -216.5 182.001s-66.333 174.167 -63 286.5s25.333 239.166 66 380.499l40 142c39.333 136.667 92.666 254.667 159.999 354
s146.666 181.333 237.999 246s193.5 112.5 306.5 143.5s234.833 46.5 365.5 46.5c107.333 0 199.666 -12.167 276.999 -36.5s140.833 -59 190.5 -104s86.334 -99.5 110.001 -163.5s35.5 -136 35.5 -216c0 -118 -10.667 -222.333 -32 -313s-52.333 -169.5 -93 -236.5
s-90.834 -123.167 -150.501 -168.5s-128 -81.833 -205 -109.5s-162.167 -47.667 -255.5 -60s-194 -18.5 -302 -18.5h-12c-70.667 0 -128.334 7.66699 -173.001 23s-77.167 40.333 -97.5 75s-29.166 79.834 -26.499 135.501s16 124.167 40 205.5l38 129
c24 84 50.167 154 78.5 210s62.333 100.833 102 134.5s86.5 57.334 140.5 71.001s119 20.5 195 20.5c52 0 104.5 -3 157.5 -9s104.167 -13.667 153.5 -23c12 -2 16.667 -8.66699 14 -20l-165 -697c54 15.333 102.5 37.333 145.5 66s79.333 67.334 109 116.001
s52.334 108.5 68.001 179.5s23.5 156.5 23.5 256.5c0 54 -7.66699 101.833 -23 143.5s-40.333 76.834 -75 105.501s-79.5 50.5 -134.5 65.5s-121.833 22.5 -200.5 22.5s-155.834 -8.33301 -231.501 -25s-146.834 -46.834 -213.501 -90.501
s-127.334 -103.334 -182.001 -179.001s-100.334 -172.5 -137.001 -290.5zM989.004 835.997c-30.667 0 -56.6689 -4.1709 -78.002 -12.5039s-40 -22.166 -56 -41.499s-30.5 -45.5 -43.5 -78.5s-26.167 -73.833 -39.5 -122.5l-18 -66
c-15.333 -55.333 -25.5 -99.166 -30.5 -131.499s-3.66699 -57.166 4 -74.499s22.334 -28.5 44.001 -33.5s51.5 -7.5 89.5 -7.5c40 0 77 3 111 9l129 550c-18.667 2.66699 -37.167 4.83398 -55.5 6.50098s-37.166 2.5 -56.499 2.5z" />
    <glyph glyph-name="A" unicode="A" horiz-adv-x="1324" 
d="M-85 0c-11.333 0 -14.668 5.33301 -10.001 16l730 1443c3.33301 6 6.66602 10.167 9.99902 12.5s8.66602 3.5 15.999 3.5h329c12.667 0 19.334 -6 20.001 -18l196 -1439c0.666992 -12 -4.66602 -18 -15.999 -18h-254c-12.667 0 -19.334 6 -20.001 18l-32 282h-550
l-137 -284c-3.33301 -6 -6.66602 -10.167 -9.99902 -12.5s-8.66602 -3.5 -15.999 -3.5h-256zM779.998 1217l-329 -677h406z" />
    <glyph glyph-name="B" unicode="B" horiz-adv-x="1341" 
d="M446 -19c-23.333 0 -49.998 0.333984 -79.998 1.00098s-61.333 1.66699 -94 3s-65.834 2.83301 -99.501 4.5s-66.5 3.83398 -98.5 6.50098c-12 0.666992 -17 7 -15 19l268 1442c1.33301 7.33301 3.33301 12.166 6 14.499s7.66699 3.83301 15 4.5c26 2 55 4 87 6
s64.667 3.66699 98 5s67 2.33301 101 3s66 1 96 1c108.667 0 200.167 -6.33301 274.5 -19s133 -33.5 176 -62.5s71.167 -66.833 84.5 -113.5s13.666 -103.667 0.999023 -171l-2 -11c-7.33301 -38.667 -17.166 -72.834 -29.499 -102.501s-26.666 -55.834 -42.999 -78.501
s-34.5 -42.167 -54.5 -58.5s-41.333 -30.166 -64 -41.499c28 -15.333 52.667 -34.5 74 -57.5s38.5 -49.667 51.5 -80s21.167 -64.166 24.5 -101.499s1 -78 -7 -122l-7 -41c-12.667 -70.667 -30.334 -130.834 -53.001 -180.501s-50 -91.167 -82 -124.5
s-69.167 -59.666 -111.5 -78.999s-89.5 -33.833 -141.5 -43.5s-109.333 -15.834 -172 -18.501s-130.334 -4 -203.001 -4zM946.002 454.001c7.33301 39.333 8.33203 71.666 2.99902 96.999s-16 45.333 -32 60s-36.833 24.834 -62.5 30.501s-55.167 8.5 -88.5 8.5h-325
l-79 -425c12.667 -1.33301 26.834 -2.33301 42.501 -3s31.5 -1.16699 47.5 -1.5l47 -1c15.333 -0.333008 29 -0.5 41 -0.5c66.667 0 123.5 2 170.5 6s86.167 13 117.5 27s55.833 34.333 73.5 61s30.5 63 38.5 109zM740.001 1254c-35.333 0 -67.498 -0.333008 -96.498 -1
s-59.167 -2.33398 -90.5 -5.00098l-69 -367h288c55.333 1.33301 101.166 15 137.499 41s61.166 68.333 74.499 127l7 30c6.66699 38.667 6.33398 69.334 -0.999023 92.001c-8 24 -22.833 42 -44.5 54s-49.834 19.833 -84.501 23.5s-75 5.5 -121 5.5z" />
    <glyph glyph-name="C" unicode="C" horiz-adv-x="1184" 
d="M619 -28c-98.667 0 -184.669 11.832 -258.002 35.499s-131.666 62.667 -174.999 117s-71 125.666 -83 213.999s-6.33301 197.166 17 326.499l27 147c24 133.333 58.333 244.333 103 333s98.834 159.5 162.501 212.5s136.5 90.333 218.5 112s172.333 32.5 271 32.5
c68 0 132.5 -4 193.5 -12s111.833 -19 152.5 -33c12 -3.33301 15.667 -11 11 -23l-71 -202c-3.33301 -11.333 -11.333 -15.666 -24 -12.999c-47.333 10 -96.166 17 -146.499 21s-100.833 6 -151.5 6c-60 0 -114.333 -6.83301 -163 -20.5s-91.834 -37 -129.501 -70
s-69.667 -76.667 -96 -131s-47.166 -121.833 -62.499 -202.5l-29 -167c-15.333 -81.333 -20 -149.333 -14 -204s21.667 -98.5 47 -131.5s59.666 -56.333 102.999 -70s95 -20.5 155 -20.5c57.333 0 112.5 1.83301 165.5 5.5s104.5 8.83398 154.5 15.501
c12 2 17.667 -3 17 -15l-7 -205c-0.666992 -7.33301 -2.16699 -12.5 -4.5 -15.5s-6.83301 -5.16699 -13.5 -6.5c-46 -11.333 -101.5 -20.166 -166.5 -26.499s-132.833 -9.5 -203.5 -9.5z" />
    <glyph glyph-name="D" unicode="D" horiz-adv-x="1415" 
d="M427 -16c-22.667 0 -48.168 0.333008 -76.501 1s-58 1.5 -89 2.5s-62.5 2.33301 -94.5 4s-62.667 3.83398 -92 6.50098c-12 0.666992 -17 7.33398 -15 20.001l267 1439c1.33301 7.33301 3.33301 12.166 6 14.499s7.66699 3.83301 15 4.5c26.667 2 55.667 3.83301 87 5.5
s62.333 3 93 4s60 1.83301 88 2.5s51.667 1 71 1c74 0 143.833 -3.66699 209.5 -11s125.5 -20.5 179.5 -39.5s101.333 -45 142 -78s72.667 -75.167 96 -126.5s37.166 -113 41.499 -185s-2.5 -156.667 -20.5 -254l-21 -113c-20 -106.667 -44.667 -198 -74 -274
s-63.5 -139.833 -102.5 -191.5s-83 -92.834 -132 -123.501s-103.167 -54.167 -162.5 -70.5s-123.666 -26.833 -192.999 -31.5s-143.666 -7 -222.999 -7zM705.999 1252c-10 0 -21.667 -0.165039 -35 -0.498047l-41 -1c-14 -0.333008 -27.833 -1 -41.5 -2
s-25.834 -2.16699 -36.501 -3.5l-188 -1016c10.667 -1.33301 23.334 -2.5 38.001 -3.5s29.834 -1.83301 45.501 -2.5s30.834 -1.16699 45.501 -1.5s27 -0.5 37 -0.5c72.667 0 137.167 6 193.5 18s105.5 34.667 147.5 68s77.333 79.666 106 138.999s52 136.666 70 231.999
l23 119c17.333 94.667 22.166 171.5 14.499 230.5s-27.167 105.167 -58.5 138.5s-73.833 56 -127.5 68s-117.834 18 -192.501 18z" />
    <glyph glyph-name="E" unicode="E" horiz-adv-x="1195" 
d="M76 0c-12 0 -17 5.99805 -15 17.998l266 1439c1.33301 7.33301 3.33301 12.166 6 14.499s7.66699 3.5 15 3.5h883c12 0 17 -6 15 -18l-41 -216c-1.33301 -7.33301 -3.33301 -12.166 -6 -14.499s-7.66699 -3.5 -15 -3.5h-635l-62 -334h509c12 0 17 -6 15 -18l-41 -215
c-1.33301 -7.33301 -3.33301 -12.166 -6 -14.499s-7.66699 -3.5 -15 -3.5h-509l-70 -386h635c12 0 17 -6 15 -18l-42 -216c-1.33301 -7.33301 -3.33301 -12.166 -6 -14.499s-7.66699 -3.5 -15 -3.5h-881z" />
    <glyph glyph-name="F" unicode="F" horiz-adv-x="1142" 
d="M76 0c-12 0 -17 5.99805 -15 17.998l266 1439c1.33301 7.33301 3.33301 12.166 6 14.499s7.66699 3.5 15 3.5h887c12 0 17 -6 15 -18l-41 -216c-1.33301 -7.33301 -3.33301 -12.166 -6 -14.499s-7.66699 -3.5 -15 -3.5h-639l-63 -339h499c12 0 17 -6 15 -18l-41 -216
c-1.33301 -7.33301 -3.33301 -12.166 -6 -14.499s-7.66699 -3.5 -15 -3.5h-499l-114 -614c-1.33301 -7.33301 -3.33301 -12.166 -6 -14.499s-7.66699 -3.5 -15 -3.5h-228z" />
    <glyph glyph-name="G" unicode="G" horiz-adv-x="1314" 
d="M1214 806c12 0 16.9951 -6.00098 14.9951 -18.001l-136 -731c-2 -12 -8.66699 -19.667 -20 -23c-78 -25.333 -155.5 -42 -232.5 -50s-148.5 -12 -214.5 -12c-103.333 0 -192.166 11.667 -266.499 35s-133.333 62 -177 116s-70.834 125.167 -81.501 213.5
s-3.66699 197.833 21 328.5l27 147c24 132 57.833 242.333 101.5 331s97.167 159.5 160.5 212.5s136.666 90.667 219.999 113s177.333 33.5 282 33.5c32 0 64.833 -1 98.5 -3s66.334 -5 98.001 -9s61.334 -8.83301 89.001 -14.5s52.167 -12.167 73.5 -19.5
c12 -3.33301 15.667 -11 11 -23l-70 -201c-3.33301 -11.333 -11.333 -16 -24 -14c-50 8.66699 -101.167 15 -153.5 19s-105.166 6 -158.499 6c-64.667 0 -122.167 -6.66699 -172.5 -20s-94.166 -36.333 -131.499 -69s-68.833 -76 -94.5 -130s-46.167 -121.333 -61.5 -202
l-29 -167c-15.333 -81.333 -21 -149.166 -17 -203.499s17.833 -97.666 41.5 -129.999s56.834 -55.166 99.501 -68.499s95 -20 157 -20c36 0 69.833 0.666992 101.5 2s62.834 3.66602 93.501 6.99902l61 333l-215 8c-12 0.666992 -17 7 -15 19l35 186
c1.33301 7.33301 3.33301 12.166 6 14.499s7.66699 3.5 15 3.5h463z" />
    <glyph glyph-name="H" unicode="H" horiz-adv-x="1482" 
d="M76 0c-12 0 -17 6 -15 18l266 1439c1.33301 7.33301 3.33301 12.166 6 14.499s7.66699 3.5 15 3.5h228c12 0 17 -6 15 -18l-104 -568h604l105 568c1.33301 7.33301 3.33301 12.166 6 14.499s7.66699 3.5 15 3.5h230c12 0 17 -6 15 -18l-269 -1439
c-1.33301 -7.33301 -3.33301 -12.166 -6 -14.499s-7.66699 -3.5 -15 -3.5h-228c-12 0 -17 6 -15 18l115 619h-604l-115 -619c-1.33301 -7.33301 -3.33301 -12.166 -6 -14.499s-7.66699 -3.5 -15 -3.5h-228z" />
    <glyph glyph-name="I" unicode="I" horiz-adv-x="613" 
d="M76 0c-12 0 -17 6 -15 18l266 1439c1.33301 7.33301 3.33301 12.166 6 14.499s7.66699 3.5 15 3.5h228c12 0 17 -6 15 -18l-266 -1439c-1.33301 -7.33301 -3.33301 -12.166 -6 -14.499s-7.66699 -3.5 -15 -3.5h-228z" />
    <glyph glyph-name="J" unicode="J" horiz-adv-x="614" 
d="M-97 -359c-24 0 -50.0029 1.50195 -78.0029 4.50195s-52.667 6.83301 -74 11.5c-6 1.33301 -10 3.5 -12 6.5s-1.66699 7.83301 1 14.5l67 202c3.33301 12 11.333 17 24 15c15.333 -2 29.333 -3.16699 42 -3.5s25 -0.5 37 -0.5c20.667 0 39.334 1.66699 56.001 5
s31.334 9.83301 44.001 19.5s23.334 23.167 32.001 40.5s15.667 39.666 21 66.999l265 1434c1.33301 7.33301 3.33301 12.166 6 14.499s7.66699 3.5 15 3.5h228c12 0 17 -6 15 -18l-269 -1457c-10.667 -56.667 -25.667 -107.167 -45 -151.5s-45.333 -81.833 -78 -112.5
s-73.167 -54.167 -121.5 -70.5s-106.833 -24.5 -175.5 -24.5z" />
    <glyph glyph-name="K" unicode="K" horiz-adv-x="1312" 
d="M863 0c-7.33301 0 -12.6699 1.16699 -16.0029 3.5s-6.66602 6.5 -9.99902 12.5l-297 598l-125 -115l-89 -481c-1.33301 -7.33301 -3.33301 -12.166 -6 -14.499s-7.66699 -3.5 -15 -3.5h-229c-12 0 -17 6 -15 18l266 1439c1.33301 7.33301 3.33301 12.166 6 14.499
s7.66699 3.5 15 3.5h228c12 0 17 -6 15 -18l-104 -564l613 570c8.66699 8 19 12 31 12h335c12.667 0 14.334 -4 5.00098 -12l-713 -651l420 -796c4.66699 -10.667 1.33398 -16 -9.99902 -16h-305z" />
    <glyph glyph-name="L" unicode="L" horiz-adv-x="1037" 
d="M76 0c-12 0 -17 6 -15 18l266 1439c1.33301 7.33301 3.33301 12.166 6 14.499s7.66699 3.5 15 3.5h228c12 0 17 -6 15 -18l-222 -1208h558c12 0 17 -6 15 -18l-40 -213c-1.33301 -7.33301 -3.33301 -12.166 -6 -14.499s-7.66699 -3.5 -15 -3.5h-805z" />
    <glyph glyph-name="M" unicode="M" horiz-adv-x="1692" 
d="M76 0c-12 0 -16.998 5.99805 -14.998 17.998l266 1439c1.33301 7.33301 3.33301 12.166 6 14.499s7.66699 3.5 15 3.5h262c12.667 0 20.667 -5.66699 24 -17l205 -556c4 -10.667 7.5 -21.5 10.5 -32.5s5.5 -21 7.5 -30l5 -23c1.33301 -6.33301 2 -9.83301 2 -10.5
c0 0.666992 1.83301 4 5.5 10s8.5 13.5 14.5 22.5l20 30.5l23 34l410 558c4 5.33301 8 9 12 11s9.66699 3 17 3h291c12 0 17 -6 15 -18l-268 -1439c-1.33301 -7.33301 -3.33301 -12.166 -6 -14.499s-7.66699 -3.5 -15 -3.5h-230c-12 0 -17 6 -15 18l185 995l11 72
c-0.666992 0 -2.33398 -2.33301 -5.00098 -7l-10.5 -17.5l-14.5 -24c-5.33301 -9 -11 -17.833 -17 -26.5l-363 -511c-3.33301 -5.33301 -7 -9.16602 -11 -11.499s-9.66699 -3.5 -17 -3.5h-156c-7.33301 0 -12.5 1.16699 -15.5 3.5s-5.83301 6.83301 -8.5 13.5l-169 500
c-3.33301 10.667 -6.33301 21 -9 31s-4.83398 19 -6.50098 27l-4 19c-1 4.66699 -1.83301 7 -2.5 7l-17 -86l-183 -981c-1.33301 -7.33301 -3.33301 -12.166 -6 -14.499s-7.66699 -3.5 -15 -3.5h-228z" />
    <glyph glyph-name="N" unicode="N" horiz-adv-x="1468" 
d="M76 0c-12 0 -16.9961 6 -14.9961 18l266 1439c1.33301 7.33301 3.33301 12.166 6 14.499s7.66699 3.5 15 3.5h240c7.33301 0 12.666 -1.16699 15.999 -3.5s6.33301 -6.83301 9 -13.5l349 -894c11.333 -29.333 19.666 -53.833 24.999 -73.5s8.66602 -29.5 9.99902 -29.5
l185 996c1.33301 7.33301 3.33301 12.166 6 14.499s7.66699 3.5 15 3.5h230c12 0 17 -6 15 -18l-268 -1439c-1.33301 -7.33301 -3.33301 -12.166 -6 -14.499s-7.66699 -3.5 -15 -3.5h-246c-12.667 0 -20.667 5.66699 -24 17l-342 889
c-12.667 32 -21.334 58.167 -26.001 78.5s-7.66699 30.5 -9 30.5l-187 -997c-1.33301 -7.33301 -3.33301 -12.166 -6 -14.499s-7.66699 -3.5 -15 -3.5h-228z" />
    <glyph glyph-name="O" unicode="O" horiz-adv-x="1435" 
d="M596 -28c-96 0 -178.668 13.1689 -248.001 39.502s-124.333 67.666 -165 123.999s-66.167 128.166 -76.5 215.499s-4.5 192 17.5 314l27 147c25.333 138 59 251.667 101 341s92.833 159.833 152.5 211.5s128.834 87.5 207.501 107.5s167.667 30 267 30
c96 0 178.5 -13 247.5 -39s123.833 -67 164.5 -123s66.167 -127.667 76.5 -215s4.5 -192.333 -17.5 -315l-26 -147c-25.333 -138 -58.833 -251.667 -100.5 -341s-92.5 -159.833 -152.5 -211.5s-129.333 -87.667 -208 -108s-167.667 -30.5 -267 -30.5zM828.999 1238
c-54 0 -102.995 -6.66504 -146.995 -19.998s-83 -36 -117 -68s-63.333 -74.667 -88 -128s-44.334 -120 -59.001 -200l-29 -167c-15.333 -80.667 -21.333 -147.834 -18 -201.501s15.5 -96.5 36.5 -128.5s51.167 -54.667 90.5 -68s87.666 -20 144.999 -20
c54.667 0 104.167 6.83301 148.5 20.5s83.666 36.667 117.999 69s63.666 75.166 87.999 128.499s43.5 120 57.5 200l32 165c14.667 80 20.5 146.833 17.5 200.5s-15.333 96.5 -37 128.5s-52.334 54.833 -92.001 68.5s-88.5 20.5 -146.5 20.5z" />
    <glyph glyph-name="P" unicode="P" horiz-adv-x="1329" 
d="M727 1254c-11.333 0 -24.833 -0.166992 -40.5 -0.5s-31.5 -0.833008 -47.5 -1.5s-31.667 -1.5 -47 -2.5l-39 -2.5l-90 -489c10.667 -1.33301 23.334 -2.33301 38.001 -3l46 -2c16 -0.666992 31.667 -1.16699 47 -1.5s28.666 -0.5 39.999 -0.5c74 0 135.667 2.66699 185 8
s89.666 16 120.999 32s55.333 38.5 72 67.5s29.334 66.833 38.001 113.5l12 61c8 46.667 9 84.5 3 113.5s-21.667 51.5 -47 67.5s-61.5 26.667 -108.5 32s-107.833 8 -182.5 8zM75 0c-12 0 -16.999 6 -14.999 18l269 1440c1.33301 7.33301 3.33301 12.166 6 14.499
s7.66699 3.83301 15 4.5c34 2 70.167 4 108.5 6s76.166 3.5 113.499 4.5s73 1.83301 107 2.5s63.667 1 89 1c118.667 0 217.834 -7 297.501 -21s141.667 -37.667 186 -71s72.666 -78 84.999 -134s10.5 -126.333 -5.5 -211l-19 -103c-12 -64 -26.333 -119.167 -43 -165.5
s-37.5 -85.666 -62.5 -117.999s-55.333 -58.5 -91 -78.5s-78.5 -35.5 -128.5 -46.5s-108 -18.5 -174 -22.5s-141.667 -6 -227 -6c-12 0 -26.167 0.166992 -42.5 0.5l-49 1c-16.333 0.333008 -31.5 0.666016 -45.5 0.999023s-24.667 0.833008 -32 1.5l-92 -500
c-1.33301 -7.33301 -3.33301 -12.166 -6 -14.499s-7.66699 -3.5 -15 -3.5h-229z" />
    <glyph glyph-name="Q" unicode="Q" horiz-adv-x="1436" 
d="M597 -28c-96 0 -178.833 13.501 -248.5 40.501s-124.834 68.667 -165.501 125s-66.167 128.166 -76.5 215.499s-4.5 191.333 17.5 312l27 147c26 139.333 59.833 253.666 101.5 342.999s92.334 159.666 152.001 210.999s128.834 86.833 207.501 106.5
s167.667 29.5 267 29.5c96 0 178.667 -13.333 248 -40s124.166 -68.167 164.499 -124.5s65.666 -128.166 75.999 -215.499s4.5 -191.333 -17.5 -312l-27 -147c-19.333 -103.333 -42.833 -192.666 -70.5 -267.999s-60.167 -139.333 -97.5 -192s-79.666 -95 -126.999 -127
s-100 -56 -158 -72l171 -377c4.66699 -10.667 1 -16 -11 -16h-287c-7.33301 0 -12.5 1.16699 -15.5 3.5s-5.83301 6.83301 -8.5 13.5zM829 1238c-54.667 0 -104 -6.66504 -148 -19.998s-83 -36 -117 -68s-63.167 -74.667 -87.5 -128s-43.833 -120 -58.5 -200l-30 -167
c-14.667 -80.667 -20.5 -147.834 -17.5 -201.501s15 -96.5 36 -128.5s51.167 -54.667 90.5 -68s88 -20 146 -20c54 0 103.167 6.83301 147.5 20.5s83.833 36.667 118.5 69s64.167 75.166 88.5 128.499s43.5 120 57.5 200l31 165c14.667 80 20.5 146.833 17.5 200.5
s-15.167 96.5 -36.5 128.5s-51.833 54.833 -91.5 68.5s-88.5 20.5 -146.5 20.5z" />
    <glyph glyph-name="R" unicode="R" horiz-adv-x="1375" 
d="M890 0c-7.33301 0 -12.499 1.16406 -15.499 3.49707s-5.83301 6.83301 -8.5 13.5l-168 513h-79c-31.333 0 -62.166 0.5 -92.499 1.5s-64.833 2.83301 -103.5 5.5l-97 -519c-1.33301 -7.33301 -3.33301 -12.166 -6 -14.499s-7.66699 -3.5 -15 -3.5h-229
c-12 0 -17 6 -15 18l267 1439c1.33301 7.33301 3.33301 12.166 6 14.499s7.66699 3.83301 15 4.5c75.333 5.33301 147.833 8.83301 217.5 10.5s138.167 2.5 205.5 2.5c127.333 0 231.5 -6.66699 312.5 -20s143.167 -36.166 186.5 -68.499s70.166 -75.666 80.499 -129.999
s8.5 -122.166 -5.5 -203.499l-21 -118c-12.667 -68 -29.334 -125.5 -50.001 -172.5s-46 -86 -76 -117s-64.667 -55.167 -104 -72.5s-84 -30.333 -134 -39c12 -26.667 24.333 -56.667 37 -90l169 -441c4 -11.333 0 -17 -12 -17h-265zM745.001 1252
c-15.333 0 -31.6689 -0.166992 -49.002 -0.5l-52 -1c-17.333 -0.333008 -34 -1 -50 -2s-29.667 -2.16699 -41 -3.5l-86 -471c14 -1.33301 29 -2.5 45 -3.5s32.5 -1.66699 49.5 -2l50.5 -1c16.667 -0.333008 32.667 -0.5 48 -0.5c70.667 0 129.834 2.16699 177.501 6.5
s86.834 13.833 117.501 28.5s54.167 36 70.5 64s29.166 65.667 38.499 113l11 64c8.66699 48 9.83398 86 3.50098 114s-22.333 49 -48 63s-61.667 22.833 -108 26.5s-105.5 5.5 -177.5 5.5z" />
    <glyph glyph-name="S" unicode="S" horiz-adv-x="1218" 
d="M416 -28c-76.667 0 -149.001 3.82715 -217.001 11.4941s-126.667 18.167 -176 31.5c-11.333 2.66699 -15 10 -11 22l75 200c3.33301 11.333 11.333 16 24 14c34 -5.33301 65.333 -9.83301 94 -13.5s56.167 -6.66699 82.5 -9s52.5 -4 78.5 -5s53.667 -1.5 83 -1.5
c74.667 0 136 3.66699 184 11s86 19.166 114 35.499s47.333 37.833 58 64.5s16 59.334 16 98.001c0 18.667 -3.83301 35.334 -11.5 50.001s-20.667 29.167 -39 43.5s-42.5 29.5 -72.5 45.5s-67.333 34.667 -112 56l-145 72c-49.333 24 -91 49.333 -125 76
s-61.5 54.334 -82.5 83.001s-36 58.834 -45 90.501s-13.5 64.5 -13.5 98.5c0 81.333 11.167 150.833 33.5 208.5s59.833 104.834 112.5 141.501s122 63.5 208 80.5s192.667 25.5 320 25.5c66 0 129 -3.16699 189 -9.5s113.667 -16.166 161 -29.499
c10.667 -2.66699 14.334 -10 11.001 -22l-73 -193c-3.33301 -11.333 -11.333 -16 -24 -14c-23.333 3.33301 -47.833 6.33301 -73.5 9s-51.167 4.83398 -76.5 6.50098s-49.5 2.83398 -72.5 3.50098s-43.167 1 -60.5 1c-72 0 -132.167 -2.66699 -180.5 -8
s-87 -14.5 -116 -27.5s-49.5 -30.5 -61.5 -52.5s-18 -50 -18 -84c0 -20.667 4.16699 -38.667 12.5 -54s21.5 -30 39.5 -44s41.167 -28.333 69.5 -43s62.833 -31 103.5 -49l167 -77c48 -22 88.5 -45 121.5 -69s59.667 -49.333 80 -76s34.833 -55.167 43.5 -85.5
s13 -62.5 13 -96.5c0 -96.667 -12.333 -177.834 -37 -243.501s-64.5 -118.667 -119.5 -159s-126.167 -69.333 -213.5 -87s-193.333 -26.5 -318 -26.5z" />
    <glyph glyph-name="T" unicode="T" horiz-adv-x="1188" 
d="M357 0c-12 0 -17 5.99902 -15 17.999l224 1205h-413c-12 0 -17 6 -15 18l41 216c1.33301 7.33301 3.33301 12.166 6 14.499s7.66699 3.5 15 3.5h1091c12 0 17 -6 15 -18l-41 -216c-1.33301 -7.33301 -3.33301 -12.166 -6 -14.499s-7.66699 -3.5 -15 -3.5h-413l-224 -1205
c-1.33301 -7.33301 -3.33301 -12.166 -6 -14.499s-7.66699 -3.5 -15 -3.5h-229z" />
    <glyph glyph-name="U" unicode="U" horiz-adv-x="1473" 
d="M616 -28c-88 0 -165.67 10.0029 -233.003 30.0029s-122.166 51.167 -164.499 93.5s-71 96.333 -86 162s-13.833 144.167 3.5 235.5l179 964c1.33301 7.33301 3.33301 12.166 6 14.499s7.66699 3.5 15 3.5h229c12 0 17 -6 15 -18l-166 -903
c-11.333 -57.333 -15.5 -106.333 -12.5 -147s14 -74.334 33 -101.001s47.167 -46.167 84.5 -58.5s85 -18.5 143 -18.5s108 6.16699 150 18.5s78 31.666 108 57.999s54.333 60 73 101s33.334 90.167 44.001 147.5l168 903c1.33301 7.33301 3.33301 12.166 6 14.499
s7.66699 3.5 15 3.5h226c12 0 17 -6 15 -18l-179 -964c-19.333 -104 -48.166 -189.5 -86.499 -256.5s-85.833 -120.167 -142.5 -159.5s-122 -66.666 -196 -81.999s-156.333 -23 -247 -23z" />
    <glyph glyph-name="V" unicode="V" horiz-adv-x="1309" 
d="M573 243h2.00293l581 1216c3.33301 6 6.66602 10.167 9.99902 12.5s8.66602 3.5 15.999 3.5h253c11.333 0 14.666 -5.33301 9.99902 -16l-724 -1443c-3.33301 -6 -6.66602 -10.167 -9.99902 -12.5s-8.66602 -3.5 -15.999 -3.5h-329c-12.667 0 -19.334 6 -20.001 18
l-186 1439c-0.666992 12 4.66602 18 15.999 18h246c11.333 0 18 -6 20 -18z" />
    <glyph glyph-name="W" unicode="W" horiz-adv-x="1900" 
d="M243 0c-12 0 -18 5.99902 -18 17.999l1 1439c0 12 6 18 18 18h259c12 0 17.667 -6 17 -18l-53 -1004l-12 -225l8 21l20 53l27.5 71.5l31.5 77.5l424 1007c2.66699 6.66699 5.66699 11.167 9 13.5s8.66602 3.5 15.999 3.5h227c12 0 18.333 -6 19 -18l54 -1000
c0.666992 -14.667 1.33398 -34.667 2.00098 -60l2 -75.5c0.666992 -25 1 -46.833 1 -65.5l1 -28l71 232l317 998c2 6.66699 4.5 11.167 7.5 13.5s8.16699 3.5 15.5 3.5h266c12 0 16 -5.66699 12 -17l-534 -1441c-3.33301 -11.333 -11.333 -17 -24 -17h-314
c-12 0 -18.333 6 -19 18l-65 903c-0.666992 12.667 -1.16699 26.334 -1.5 41.001s-0.5 28.334 -0.5 41.001v32l1 12c-0.666992 -2 -2.33398 -6.33301 -5.00098 -13c-2.66699 -8.66699 -6.33398 -19.334 -11.001 -32.001l-15 -40.5
c-5.33301 -14.333 -10.666 -27.833 -15.999 -40.5l-400 -905c-2.66699 -6 -5.66699 -10.167 -9 -12.5s-8.66602 -3.5 -15.999 -3.5h-314z" />
    <glyph glyph-name="X" unicode="X" horiz-adv-x="1315" 
d="M896 0c-7.33301 0 -12.666 1.16699 -15.999 3.5s-6.33301 6.83301 -9 13.5l-213 531l-411 -534c-4 -5.33301 -8 -9 -12 -11s-9.66699 -3 -17 -3h-298c-12 0 -14.333 4.66699 -7 14l595 723l-326 722c-4.66699 10.667 -1 16 11 16h266
c7.33301 0 12.666 -1.16699 15.999 -3.5s6.33301 -6.83301 9 -13.5l215 -521l410 524c4 5.33301 8 9 12 11s9.66699 3 17 3h297c12 0 14.333 -4.66699 7 -14l-593 -722l324 -723c4.66699 -10.667 1 -16 -11 -16h-266z" />
    <glyph glyph-name="Y" unicode="Y" horiz-adv-x="1205" 
d="M367 0c-12 0 -16.999 6 -14.999 18l87 477l-293 963c-2.66699 11.333 1.66602 17 12.999 17h251c7.33301 0 12.5 -1.16699 15.5 -3.5s5.5 -6.83301 7.5 -13.5l184 -668l430 670c4 5.33301 7.83301 9.16602 11.5 11.499s9.16699 3.5 16.5 3.5h271c11.333 0 14 -5 8 -15
l-649 -964l-89 -478c-1.33301 -7.33301 -3.33301 -12.166 -6 -14.499s-7.66699 -3.5 -15 -3.5h-228z" />
    <glyph glyph-name="Z" unicode="Z" horiz-adv-x="1217" 
d="M-14 0c-12 0 -17 6 -15 18l39 199c2 12.667 7 23 15 31l886 991h-670c-12 0 -17 6 -15 18l37 200c1.33301 7.33301 3.33301 12.166 6 14.499s7.66699 3.5 15 3.5h972c12 0 17 -6 15 -18l-36 -198c-2 -12.667 -7 -23 -15 -31l-886 -991h702c12 0 17 -6 15 -18l-39 -201
c-1.33301 -7.33301 -3.33301 -12.166 -6 -14.499s-7.66699 -3.5 -15 -3.5h-1005z" />
    <glyph glyph-name="bracketleft" unicode="[" horiz-adv-x="703" 
d="M-13 -389c-12 0 -17 5.99902 -15 17.999l354 1909c1.33301 7.33301 3.33301 12.166 6 14.499s7.66699 3.5 15 3.5h479c12 0 17 -6 15 -18l-41 -212c-1.33301 -7.33301 -3.33301 -12.166 -6 -14.499s-7.66699 -3.5 -15 -3.5h-231l-268 -1448h231c12 0 17 -6 15 -18
l-40 -213c-1.33301 -7.33301 -3.33301 -12.166 -6 -14.499s-7.66699 -3.5 -15 -3.5h-478z" />
    <glyph glyph-name="backslash" unicode="\" horiz-adv-x="1094" 
d="M469 1556c7.33301 0 12.332 -1.16699 14.999 -3.5s5 -6.83301 7 -13.5l434 -1523c2.66699 -10.667 -1.66602 -16 -12.999 -16h-248c-7.33301 0 -12.5 1 -15.5 3s-5.5 6.33301 -7.5 13l-432 1520c-3.33301 13.333 0.666992 20 12 20h248z" />
    <glyph glyph-name="bracketright" unicode="]" horiz-adv-x="695" 
d="M693 1556c12 0 17 -5.99902 15 -17.999l-354 -1909c-1.33301 -7.33301 -3.33301 -12.166 -6 -14.499s-7.66699 -3.5 -15 -3.5h-479c-12 0 -17 6 -15 18l41 212c1.33301 7.33301 3.33301 12.166 6 14.499s7.66699 3.5 15 3.5h231l268 1448h-231c-12 0 -17 6 -15 18l40 213
c1.33301 7.33301 3.33301 12.166 6 14.499s7.66699 3.5 15 3.5h478z" />
    <glyph glyph-name="asciicircum" unicode="^" horiz-adv-x="1282" 
d="M478 1134c-12 0 -13.666 4.33301 -4.99902 13l317 313c5.33301 5.33301 10.166 8.83301 14.499 10.5s9.83301 2.5 16.5 2.5h187c7.33301 0 12.833 -1.16699 16.5 -3.5s7.5 -6.16602 11.5 -11.499l196 -309c6.66699 -10 4 -15 -8 -15h-169
c-7.33301 0 -12.833 1.16699 -16.5 3.5s-7.16699 6.16602 -10.5 11.499l-124 203l-208 -205c-8.66699 -8.66699 -19 -13 -31 -13h-187z" />
    <glyph glyph-name="underscore" unicode="_" horiz-adv-x="970" 
d="M-120 -329c-12 0 -17 6 -15 18l40 207c1.33301 7.33301 3.33301 12.166 6 14.499s7.66699 3.5 15 3.5h870c12 0 17 -6 15 -18l-39 -207c-1.33301 -7.33301 -3.33301 -12.166 -6 -14.499s-7.66699 -3.5 -15 -3.5h-871z" />
    <glyph glyph-name="grave" unicode="`" horiz-adv-x="767" 
d="M630 1267c-7.33301 0 -12.999 1 -16.999 3s-8 5.66699 -12 11l-179 242c-7.33301 9.33301 -5 14 7 14h248c7.33301 0 12.666 -1.16699 15.999 -3.5s6.66602 -6.5 9.99902 -12.5l123 -238c4.66699 -10.667 1.33398 -16 -9.99902 -16h-186z" />
    <glyph glyph-name="a" unicode="a" horiz-adv-x="1203" 
d="M853 868c-24.667 3.33301 -54.501 5.83105 -89.501 7.49805s-71.5 2.5 -109.5 2.5c-53.333 0 -97.333 -4.83301 -132 -14.5s-63.5 -26 -86.5 -49s-41.5 -53.667 -55.5 -92s-26.333 -86.5 -37 -144.5l-14 -73c-11.333 -60 -17.166 -110.167 -17.499 -150.5
s6.66699 -72.666 21 -96.999s37.5 -41.5 69.5 -51.5s75 -15 129 -15c34 0 69 0.833008 105 2.5s66.667 3.83398 92 6.50098zM494.999 -28.002c-97.333 0 -176.837 9.66992 -238.504 29.0029s-108.5 49.166 -140.5 89.499s-50.333 91.666 -55 153.999s1 136.5 17 222.5
l27 140c18.667 98 41.834 178.667 69.501 242s63.834 113.333 108.501 150s99.834 62.167 165.501 76.5s145.834 21.5 240.501 21.5c77.333 0 153.5 -2.16699 228.5 -6.5s144.167 -10.166 207.5 -17.499c12 -0.666992 17 -7.33398 15 -20.001l-193 -1035
c-1.33301 -7.33301 -3.33301 -12.333 -6 -15s-7.66699 -4.33398 -15 -5.00098c-74.667 -8.66699 -148 -15.167 -220 -19.5s-142.333 -6.5 -211 -6.5z" />
    <glyph glyph-name="b" unicode="b" horiz-adv-x="1203" 
d="M643 878c-16 0 -32.9961 -0.333008 -50.9961 -1s-36 -1.5 -54 -2.5s-35.5 -2.33301 -52.5 -4s-31.833 -3.83398 -44.5 -6.50098l-124 -663c28 -3.33301 59.667 -5.83301 95 -7.5s69.666 -2.5 102.999 -2.5c53.333 0 97.666 5.16699 132.999 15.5s64.833 27.5 88.5 51.5
s42.5 55.833 56.5 95.5s26.667 88.834 38 147.501l14 79c10.667 57.333 16.167 105 16.5 143s-6.83398 68.5 -21.501 91.5s-37.834 39.333 -69.501 49s-74.167 14.5 -127.5 14.5zM469.004 -28c-68.667 0 -138.332 2.49805 -208.999 7.49805s-141.334 12.5 -212.001 22.5
c-12 2 -17 9 -15 21l290 1561c1.33301 7.33301 3.33301 12.333 6 15s7.66699 4.33398 15 5.00098l222 30c12 0.666992 17 -4.66602 15 -15.999l-100 -541c35.333 5.33301 72.333 10 111 14s81.334 6 128.001 6c86 0 156.833 -9 212.5 -27s98.167 -46.5 127.5 -85.5
s46.333 -89.667 51 -152s-1.33301 -137.5 -18 -225.5l-26 -144c-18 -94 -41 -172.5 -69 -235.5s-65.167 -113.333 -111.5 -151s-103.333 -64.5 -171 -80.5s-149.834 -24 -246.501 -24z" />
    <glyph glyph-name="c" unicode="c" horiz-adv-x="956" 
d="M494 -28c-97.333 0 -176.499 9.49805 -237.499 28.498s-107.333 49 -139 90s-49.834 93.5 -54.501 157.5s1 141 17 231l20 113c16 91.333 37.833 169 65.5 233s65 116.167 112 156.5s105 69.666 174 87.999s153.167 27.5 252.5 27.5c46.667 0 90.5 -2.16699 131.5 -6.5
s77.833 -9.83301 110.5 -16.5c12.667 -2 17 -8.66699 13 -20l-47 -177c-2 -6.66699 -4.5 -11.167 -7.5 -13.5s-8.16699 -3.16602 -15.5 -2.49902c-34 4.66699 -69.333 7.83398 -106 9.50098s-75 2.5 -115 2.5c-55.333 0 -101 -5 -137 -15s-65.667 -26.833 -89 -50.5
s-41.833 -54.834 -55.5 -93.501s-25.834 -86.667 -36.501 -144l-14 -71c-10.667 -58 -16.334 -106.333 -17.001 -145s6.16602 -69.667 20.499 -93s38 -39.833 71 -49.5s77.5 -14.5 133.5 -14.5c40.667 0 79.834 1.16699 117.501 3.5s74.167 5.83301 109.5 10.5
c11.333 0.666992 16.666 -4.66602 15.999 -15.999l-20 -176c-1.33301 -7.33301 -3.16602 -12.5 -5.49902 -15.5s-7.16602 -5.16699 -14.499 -6.5c-17.333 -3.33301 -36.166 -6.5 -56.499 -9.5s-41.5 -5.66699 -63.5 -8s-44.333 -4.16602 -67 -5.49902s-44.667 -2 -66 -2z
" />
    <glyph glyph-name="d" unicode="d" horiz-adv-x="1202" 
d="M654 878c-53.333 0 -97.5 -4.83594 -132.5 -14.5029s-64 -26.167 -87 -49.5s-41.333 -54.166 -55 -92.499s-25.834 -86.166 -36.501 -143.499l-15 -73c-11.333 -60 -17.166 -110.167 -17.499 -150.5s6.83398 -72.666 21.501 -96.999s38 -41.5 70 -51.5s75 -15 129 -15
c32.667 0 66.667 0.833008 102 2.5s67 4.16699 95 7.5l124 662c-12 2.66699 -26.5 5 -43.5 7s-34.5 3.5 -52.5 4.5s-35.833 1.83301 -53.5 2.5s-33.834 1 -48.501 1zM494 -28.0029c-97.333 0 -176.832 8.8291 -238.499 26.4961s-108.334 46.334 -140.001 86.001
s-50 90.834 -55 153.501s0.833008 139 17.5 229l26 140c17.333 94 39.833 172.333 67.5 235s64 112.834 109 150.501s100.667 64.5 167 80.5s146.5 24 240.5 24c36 0 71.833 -2 107.5 -6s67.5 -9 95.5 -15l94 508c1.33301 7.33301 3.33301 12.333 6 15
s7.66699 4.33398 15 5.00098l224 30c12 0.666992 17 -4.66602 15 -15.999l-298 -1595c-1.33301 -7.33301 -3.33301 -12.333 -6 -15s-7.66699 -4.33398 -15 -5.00098c-74.667 -10 -148.167 -17.667 -220.5 -23s-142.833 -8 -211.5 -8z" />
    <glyph glyph-name="e" unicode="e" horiz-adv-x="1155" 
d="M476 -28c-89.333 0 -163.166 10.002 -221.499 30.002s-103.166 51 -134.499 93s-50 95.333 -56 160s-1 141.667 15 231l18 101c16 90 38.667 167.333 68 232s67.166 117.5 113.499 158.5s102.166 71.167 167.499 90.5s142 29 230 29c144 0 248.667 -30.167 314 -90.5
s98 -150.833 98 -271.5c0 -37.333 -2.5 -72 -7.5 -104s-11.167 -60.833 -18.5 -86.5s-14.833 -47.834 -22.5 -66.501s-13.834 -33 -18.501 -43c-5.33301 -10.667 -13.666 -16 -24.999 -16l-680 -2c-5.33301 -46 -5.33301 -83.667 0 -113s16.666 -52.5 33.999 -69.5
s41 -28.667 71 -35s67.333 -9.5 112 -9.5c58 0 116.667 1 176 3s122 5.66699 188 11c11.333 0.666992 16.666 -5 15.999 -17l-19 -169c-1.33301 -7.33301 -3.16602 -12.333 -5.49902 -15s-7.16602 -4.33398 -14.499 -5.00098c-63.333 -7.33301 -127.5 -13.5 -192.5 -18.5
s-133.5 -7.5 -205.5 -7.5zM845 620.002c4 48.667 3.99902 89.5 -0.000976562 122.5s-13.833 59.667 -29.5 80s-38 35 -67 44s-66.167 13.5 -111.5 13.5s-84 -5 -116 -15s-59.167 -25.833 -81.5 -47.5s-40.666 -50 -54.999 -85s-26.5 -77.5 -36.5 -127.5z" />
    <glyph glyph-name="f" unicode="f" horiz-adv-x="757" 
d="M105 863c-12 2 -16.999 8.99902 -14.999 20.999l31 169c1.33301 7.33301 3.33301 12.166 6 14.499s7.66699 3.5 15 3.5h158l28 148c14.667 78 32.167 143.5 52.5 196.5s48.333 95.833 84 128.5s80.667 56.167 135 70.5s122.833 21.5 205.5 21.5
c34.667 0 69 -1.83301 103 -5.5s62 -7.83398 84 -12.501c12 -2.66699 16.333 -9.66699 13 -21l-46 -177c-2 -6.66699 -4.5 -11.167 -7.5 -13.5s-8.16699 -3.16602 -15.5 -2.49902c-20 1.33301 -42.667 2.33301 -68 3s-48.333 1 -69 1c-40 0 -72.667 -2.83301 -98 -8.5
s-45.5 -14.667 -60.5 -27s-26.333 -28.666 -34 -48.999s-14.167 -44.833 -19.5 -73.5l-33 -179h234c12.667 0 17 -5.66699 13 -17l-53 -197c-2 -6.66699 -4.5 -11.167 -7.5 -13.5s-8.16699 -3.5 -15.5 -3.5h-214l-176 -950c-13.333 -70.667 -30.333 -129.5 -51 -176.5
s-48 -84.667 -82 -113s-76.167 -48.5 -126.5 -60.5s-111.5 -18 -183.5 -18c-26.667 0 -55 1.16699 -85 3.5s-56.667 5.83301 -80 10.5c-6.66699 1.33301 -11 3.5 -13 6.5s-1.66699 7.83301 1 14.5l59 175c2 6 4.66699 10.167 8 12.5s8.66602 2.83301 15.999 1.5
c15.333 -2.66699 32.5 -4.66699 51.5 -6s37.167 -2 54.5 -2c32 0 58.167 2.16699 78.5 6.5s37 12.333 50 24s23.333 27.334 31 47.001s14.167 44.5 19.5 74.5l175 950z" />
    <glyph glyph-name="g" unicode="g" horiz-adv-x="1204" 
d="M295 -478c-45.333 0 -92.332 1.99902 -140.999 5.99902s-93 9.66699 -133 17c-12 2 -16.667 8.66699 -14 20l44 169c2 6.66699 4.5 11.167 7.5 13.5s8.16699 2.83301 15.5 1.5c17.333 -3.33301 36.166 -5.83301 56.499 -7.5s40.833 -3.16699 61.5 -4.5
s40.667 -2.16602 60 -2.49902s36.666 -0.5 51.999 -0.5c67.333 0 123.5 3.83301 168.5 11.5s82.167 21.334 111.5 41.001s52.166 46.5 68.499 80.5s29.5 77.667 39.5 131c-25.333 -5.33301 -55.833 -9.66602 -91.5 -12.999s-75.167 -5 -118.5 -5
c-93.333 0 -169.833 8.83301 -229.5 26.5s-105.167 46 -136.5 85s-49.5 89.333 -54.5 151s0.833008 136.5 17.5 224.5l27 140c18.667 98 41.834 178.667 69.501 242s63.834 113.333 108.501 150s99.834 62.167 165.501 76.5s145.834 21.5 240.501 21.5
c77.333 0 153.5 -2.16699 228.5 -6.5s144.167 -10.166 207.5 -17.499c12 -0.666992 17 -7.33398 15 -20.001l-195 -1043c-18.667 -101.333 -45.834 -183.833 -81.501 -247.5s-80.334 -113.334 -134.001 -149.001s-116.667 -59.834 -189 -72.501s-154.5 -19 -246.5 -19z
M655.001 877.999c-53.333 0 -97.333 -4.83496 -132 -14.502s-63.334 -26 -86.001 -49s-41 -53.667 -55 -92s-26.667 -86.5 -38 -144.5l-14 -73c-11.333 -60 -17.166 -110.167 -17.499 -150.5s6.66699 -72.666 21 -96.999s37.5 -41.5 69.5 -51.5s75 -15 129 -15
c34 0 69 0.833008 105 2.5s66.667 3.83398 92 6.50098l125 668c-24.667 3.33301 -54.5 5.83301 -89.5 7.5s-71.5 2.5 -109.5 2.5z" />
    <glyph glyph-name="h" unicode="h" horiz-adv-x="1229" 
d="M745 0c-12 0 -17.001 5.99609 -15.001 17.9961l106 568c8.66699 48.667 13.5 90.167 14.5 124.5s-4.16699 62 -15.5 83s-29.666 36.333 -54.999 46s-60 14.5 -104 14.5c-39.333 0 -80.833 -4.16699 -124.5 -12.5s-83.5 -20.5 -119.5 -36.5l-146 -787
c-1.33301 -7.33301 -3.33301 -12.166 -6 -14.499s-7.66699 -3.5 -15 -3.5h-216c-12 0 -17 6 -15 18l291 1566c1.33301 7.33301 3.33301 12.333 6 15s7.66699 4.33398 15 5.00098l222 30c12 0.666992 17 -4.66602 15 -15.999l-112 -603c54 26.667 110.833 47 170.5 61
s117.167 21 172.5 21c64 0 117.667 -8.5 161 -25.5s76.5 -44.333 99.5 -82s36 -86.167 39 -145.5s-3.16699 -131.333 -18.5 -216l-113 -610c-1.33301 -7.33301 -3.33301 -12.166 -6 -14.499s-7.66699 -3.5 -15 -3.5h-216z" />
    <glyph glyph-name="i" unicode="i" horiz-adv-x="550" 
d="M52 0c-12 0 -17 6 -15 18l193 1035c1.33301 7.33301 3.33301 12.166 6 14.499s7.66699 3.5 15 3.5h216c12 0 17 -6 15 -18l-193 -1035c-1.33301 -7.33301 -3.33301 -12.166 -6 -14.499s-7.66699 -3.5 -15 -3.5h-216zM278 1231c-12 0 -17 5.99707 -15 17.9971l52 276
c1.33301 7.33301 3.33301 12.333 6 15s7.66699 4.33398 15 5.00098l227 31c12 0.666992 17 -4.66602 15 -15.999l-60 -311c-1.33301 -7.33301 -3.33301 -12.166 -6 -14.499s-7.66699 -3.5 -15 -3.5h-219z" />
    <glyph glyph-name="j" unicode="j" horiz-adv-x="550" 
d="M-177 -478c-26.667 0 -54.8311 1.16699 -84.498 3.5s-56.167 5.83301 -79.5 10.5c-6.66699 1.33301 -11 3.5 -13 6.5s-1.66699 7.83301 1 14.5l58 175c2 6 4.66699 10.167 8 12.5s8.66602 2.83301 15.999 1.5c15.333 -2.66699 32.5 -4.66699 51.5 -6s37.167 -2 54.5 -2
c32 0 58.167 2.16699 78.5 6.5s37 12.333 50 24s23.333 27.334 31 47.001s14.167 44.5 19.5 74.5l215 1163c1.33301 7.33301 3.33301 12.166 6 14.499s7.66699 3.5 15 3.5h216c12 0 17 -6 15 -18l-214 -1163c-12.667 -68 -29.334 -125.5 -50.001 -172.5
s-48.167 -85 -82.5 -114s-76.833 -49.833 -127.5 -62.5s-112 -19 -184 -19zM279.003 1231c-12 0 -17 5.99707 -15 17.9971l51 276c1.33301 7.33301 3.33301 12.333 6 15s7.66699 4.33398 15 5.00098l226 31c12 0.666992 17 -4.66602 15 -15.999l-58 -311
c-1.33301 -7.33301 -3.33301 -12.166 -6 -14.499s-7.66699 -3.5 -15 -3.5h-219z" />
    <glyph glyph-name="k" unicode="k" horiz-adv-x="1167" 
d="M735 0c-7.33301 0 -12.668 1.16406 -16.001 3.49707s-6.33301 6.83301 -9 13.5l-214 498l-136 -101l-74 -396c-1.33301 -7.33301 -3.33301 -12.166 -6 -14.499s-7.66699 -3.5 -15 -3.5h-216c-12 0 -17 6 -15 18l291 1566c1.33301 7.33301 3.33301 12.333 6 15
s7.66699 4.33398 15 5.00098l222 30c12 0.666992 17 -4.66602 15 -15.999l-164 -883l436 325c9.33301 7.33301 20 11 32 11h342c5.33301 0 8.33301 -1 9 -3s-1 -4.66699 -5 -8l-532 -394l327 -650c4.66699 -10.667 1.33398 -16 -9.99902 -16h-283z" />
    <glyph glyph-name="l" unicode="l" horiz-adv-x="563" 
d="M59 0c-12 0 -17 5.99707 -15 17.9971l291 1566c1.33301 7.33301 3.33301 12.333 6 15s7.66699 4.33398 15 5.00098l222 30c12 0.666992 17 -4.66602 15 -15.999l-297 -1600c-1.33301 -7.33301 -3.33301 -12.166 -6 -14.499s-7.66699 -3.5 -15 -3.5h-216z" />
    <glyph glyph-name="m" unicode="m" horiz-adv-x="1761" 
d="M47 0c-12 0 -16.999 5.99805 -14.999 17.998l197 1054c1.33301 7.33301 3.33301 12.166 6 14.499s7.66699 3.5 15 3.5h168c7.33301 0 12.5 -1.16699 15.5 -3.5s5.16699 -7.16602 6.5 -14.499l13 -61c42.667 26.667 90.334 47.667 143.001 63s105.334 23 158.001 23
c58 0 106.5 -7.16699 145.5 -21.5s69.833 -37.5 92.5 -69.5c52 29.333 106 51.833 162 67.5s112.667 23.5 170 23.5c71.333 0 130.166 -9.33301 176.499 -28s81.5 -47.334 105.5 -86.001s37.5 -87.5 40.5 -146.5s-2.83301 -128.833 -17.5 -209.5l-114 -609
c-1.33301 -7.33301 -3.33301 -12.166 -6 -14.499s-7.66699 -3.5 -15 -3.5h-213c-12 0 -17 6 -15 18l106 571c10.667 55.333 16 100.5 16 135.5s-5.83301 62.333 -17.5 82s-30 33.167 -55 40.5s-57.167 11 -96.5 11c-28 0 -57.667 -3.33301 -89 -10s-62.333 -17.667 -93 -33
c-0.666992 -24 -2.5 -49.833 -5.5 -77.5s-7.5 -57.5 -13.5 -89.5l-118 -630c-1.33301 -7.33301 -3.33301 -12.166 -6 -14.499s-7.66699 -3.5 -15 -3.5h-210c-12 0 -17 6 -15 18l110 596c8.66699 45.333 13.167 83.333 13.5 114s-4.5 55.5 -14.5 74.5s-25.667 32.667 -47 41
s-49.333 12.5 -84 12.5c-32.667 0 -67.334 -4.16699 -104.001 -12.5s-70.334 -21.833 -101.001 -40.5l-146 -785c-1.33301 -7.33301 -3.33301 -12.166 -6 -14.499s-7.66699 -3.5 -15 -3.5h-213z" />
    <glyph glyph-name="n" unicode="n" horiz-adv-x="1227" 
d="M47 0c-12 0 -16.999 5.99902 -14.999 17.999l197 1054c1.33301 7.33301 3.33301 12.166 6 14.499s7.66699 3.5 15 3.5h168c7.33301 0 12.5 -1.16699 15.5 -3.5s5.16699 -6.83301 6.5 -13.5l16 -65c55.333 28.667 114.166 50.667 176.499 66s122.166 23 179.499 23
c64 0 117.5 -8.83301 160.5 -26.5s76 -45.334 99 -83.001s36.167 -86.167 39.5 -145.5s-2.66699 -130.666 -18 -213.999l-113 -610c-1.33301 -7.33301 -3.33301 -12.166 -6 -14.499s-7.66699 -3.5 -15 -3.5h-216c-12 0 -17 6 -15 18l106 568
c8.66699 48.667 13.5 90.167 14.5 124.5s-4.16699 62 -15.5 83s-29.666 36.333 -54.999 46s-60 14.5 -104 14.5c-39.333 0 -80.833 -4.16699 -124.5 -12.5s-83.5 -20.5 -119.5 -36.5l-146 -787c-1.33301 -7.33301 -3.33301 -12.166 -6 -14.499s-7.66699 -3.5 -15 -3.5h-216z
" />
    <glyph glyph-name="o" unicode="o" horiz-adv-x="1177" 
d="M637 880c-47.333 0 -87.3301 -5.33203 -119.997 -15.999s-60.334 -28 -83.001 -52s-41 -55.333 -55 -94s-26.333 -86.334 -37 -143.001l-15 -80c-10 -56 -15 -103.5 -15 -142.5s6.66699 -70.5 20 -94.5s34.166 -41.333 62.499 -52s65.833 -16 112.5 -16
c47.333 0 87.333 5.33301 120 16s60.334 28.167 83.001 52.5s41.167 56 55.5 95s26.833 86.833 37.5 143.5l15 78c10.667 56 16.167 103.5 16.5 142.5s-6.33398 70.5 -20.001 94.5s-34.834 41.333 -63.501 52s-66.667 16 -114 16zM468.003 -27.999
c-87.333 0 -159.833 10.3359 -217.5 31.0029s-102 52.167 -133 94.5s-49.333 95.666 -55 159.999s-0.5 140.166 15.5 227.499l19 98c16.667 92 40 170.667 70 236s68.167 118.5 114.5 159.5s101.833 71 166.5 90s140.667 28.5 228 28.5c88 0 161 -10.167 219 -30.5
s102.5 -51.5 133.5 -93.5s49.333 -95.333 55 -160s0.166992 -141.334 -16.5 -230.001l-18 -98c-16.667 -92 -39.834 -170.5 -69.501 -235.5s-67.667 -118 -114 -159s-102.166 -71 -167.499 -90s-142 -28.5 -230 -28.5z" />
    <glyph glyph-name="p" unicode="p" horiz-adv-x="1203" 
d="M636 878c-14.667 0 -30.665 -0.166992 -47.998 -0.5s-34.833 -1 -52.5 -2s-34.667 -2.33301 -51 -4s-30.833 -3.5 -43.5 -5.5l-124 -662c26 -4 55.667 -7.16699 89 -9.5s69 -3.5 107 -3.5c53.333 0 97.833 5.16699 133.5 15.5s65.167 27.5 88.5 51.5
s42.166 55.833 56.499 95.5s27.166 89.167 38.499 148.5l14 72c10.667 58.667 16 107.5 16 146.5s-7.5 70.167 -22.5 93.5s-38.667 39.833 -71 49.5s-75.833 14.5 -130.5 14.5zM-37.998 -453c-12 0 -16.999 5.99707 -14.999 17.9971l277 1483
c1.33301 7.33301 3.33301 12.333 6 15s7.66699 4.33398 15 5.00098c74.667 9.33301 148.167 16.5 220.5 21.5s143.166 7.5 212.499 7.5c96 0 174.667 -8.66699 236 -26s108 -45.166 140 -83.499s50.667 -88.5 56 -150.5s0 -138 -16 -228l-26 -137
c-17.333 -95.333 -40 -175 -68 -239s-65 -115.333 -111 -154s-102.5 -66.167 -169.5 -82.5s-147.833 -24.5 -242.5 -24.5c-36 0 -71 2 -105 6s-65 9.33301 -93 16l-79 -429c-1.33301 -7.33301 -3.33301 -12.166 -6 -14.499s-7.66699 -3.5 -15 -3.5h-217z" />
    <glyph glyph-name="q" unicode="q" horiz-adv-x="1203" 
d="M663 878c-55.333 0 -101.17 -4.83301 -137.503 -14.5s-66.166 -26.167 -89.499 -49.5s-42 -54.5 -56 -93.5s-26.333 -87.833 -37 -146.5l-15 -72c-11.333 -59.333 -17.166 -108.833 -17.499 -148.5s6.83398 -71.5 21.501 -95.5s38 -41.167 70 -51.5
s74.667 -15.5 128 -15.5c37.333 0 73 1.16699 107 3.5s65 5.5 93 9.5l122 662c-12 2 -25.667 3.83301 -41 5.5s-31.333 3 -48 4s-33.5 1.66699 -50.5 2s-33.5 0.5 -49.5 0.5zM624.996 -453c-12 0 -16.9971 6.00098 -14.9971 18.001l81 429
c-30.667 -6.66699 -63.834 -12 -99.501 -16s-71.167 -6 -106.5 -6c-95.333 0 -173 9 -233 27s-105.5 46.667 -136.5 86s-48.833 90.166 -53.5 152.499s1 138.166 17 227.499l25 144c16.667 94.667 39.167 173.334 67.5 236.001s65.666 112.667 111.999 150
s103.666 63.666 171.999 78.999s151.5 23 249.5 23c68 0 138.833 -2.5 212.5 -7.5s142.5 -11.833 206.5 -20.5c12 -2 17 -9 15 -21l-276 -1483c-1.33301 -7.33301 -3.33301 -12.166 -6 -14.499s-7.66699 -3.5 -15 -3.5h-217z" />
    <glyph glyph-name="r" unicode="r" horiz-adv-x="785" 
d="M47 0c-12 0 -17 5.99805 -15 17.998l197 1054c1.33301 7.33301 3.33301 12.166 6 14.499s7.66699 3.5 15 3.5h168c7.33301 0 12.5 -1.16699 15.5 -3.5s5.16699 -6.83301 6.5 -13.5l15 -60c22.667 16.667 47.334 30.334 74.001 41.001s53.667 19.167 81 25.5
s54.333 10.833 81 13.5s51 4 73 4c21.333 0 38.666 -1 51.999 -3c12 -2 16.667 -9 14 -21l-55 -221c-1.33301 -6.66699 -3.5 -11.167 -6.5 -13.5s-8.16699 -2.83301 -15.5 -1.5c-8 0.666992 -16.167 1.16699 -24.5 1.5s-17.5 0.5 -27.5 0.5
c-51.333 0 -98.833 -3.16699 -142.5 -9.5s-87.167 -18.166 -130.5 -35.499l-144 -776c-1.33301 -7.33301 -3.33301 -12.166 -6 -14.499s-7.66699 -3.5 -15 -3.5h-216z" />
    <glyph glyph-name="s" unicode="s" horiz-adv-x="1007" 
d="M338 -28c-18.667 0 -41.3301 0.506836 -67.9971 1.50684s-54.834 2.83301 -84.501 5.5s-59.5 5.83398 -89.5 9.50098s-57.333 8.16699 -82 13.5c-12 2.66699 -16.667 9.66699 -14 21l46 177c2 7.33301 4.66699 12 8 14s8.33301 2.33301 15 1
c29.333 -4 56.833 -7.5 82.5 -10.5s50.334 -5.33301 74.001 -7s46.667 -2.83398 69 -3.50098s44.833 -1 67.5 -1c54.667 0 98.667 2 132 6s59 10.5 77 19.5s30 21.167 36 36.5s9 34.666 9 57.999c0 10.667 -2 20.167 -6 28.5s-11 16.5 -21 24.5s-23.5 16.167 -40.5 24.5
s-38.833 17.5 -65.5 27.5l-172 62c-34.667 12.667 -64.334 26.667 -89.001 42s-45 32.5 -61 51.5s-27.667 40.167 -35 63.5s-11 49.666 -11 78.999c0 76 10.667 138.667 32 188s53.666 88.166 96.999 116.499s97.666 48.166 162.999 59.499s142 17 230 17
c56 0 108.833 -2.5 158.5 -7.5s94.5 -10.167 134.5 -15.5c12.667 -2 17 -8.66699 13 -20l-47 -178c-2 -6.66699 -4.5 -11 -7.5 -13s-8.16699 -2.66699 -15.5 -2c-39.333 4.66699 -81.5 8.5 -126.5 11.5s-85.5 4.5 -121.5 4.5c-46.667 0 -86 -1.33301 -118 -4s-58 -8 -78 -16
s-34.333 -19.167 -43 -33.5s-13 -33.166 -13 -56.499c0 -10 1.83301 -19 5.5 -27s10.5 -15.667 20.5 -23s23.833 -15 41.5 -23s40.5 -17 68.5 -27l148 -51c39.333 -14 73 -28.333 101 -43s50.833 -31.334 68.5 -50.001s30.5 -39.834 38.5 -63.501s12 -51.5 12 -83.5
c0 -83.333 -11.167 -151.333 -33.5 -204s-56 -93.834 -101 -123.501s-101.167 -49.834 -168.5 -60.501s-146 -16 -236 -16z" />
    <glyph glyph-name="t" unicode="t" horiz-adv-x="815" 
d="M382 -28c-47.333 0 -87.8311 4.33105 -121.498 12.998s-59.834 25 -78.501 49s-29.834 57.5 -33.501 100.5s0.833008 98.5 13.5 166.5l101 546l-169 23c-12 0.666992 -17 7.33398 -15 20.001l31 163c1.33301 7.33301 3.33301 12.166 6 14.499s7.66699 3.5 15 3.5h173
l36 194c1.33301 7.33301 3.33301 12.333 6 15s7.66699 4.33398 15 5.00098l223 31c12 0.666992 17 -4.66602 15 -15.999l-44 -229h289c12 0 16 -5.66699 12 -17l-64 -190c-2.66699 -6.66699 -5.5 -11.167 -8.5 -13.5s-8.16699 -3.5 -15.5 -3.5h-253l-99 -533
c-4.66699 -26 -6.5 -46.833 -5.5 -62.5s5.16699 -27.5 12.5 -35.5s18 -13.333 32 -16s31.667 -4 53 -4c16.667 0 36 0.666992 58 2s41.333 3 58 5c11.333 2 16.666 -3 15.999 -15l-18 -170c-1.33301 -6.66699 -3.16602 -11.5 -5.49902 -14.5s-6.83301 -5.16699 -13.5 -6.5
c-28 -7.33301 -62.167 -13.333 -102.5 -18s-79.833 -7 -118.5 -7z" />
    <glyph glyph-name="u" unicode="u" horiz-adv-x="1226" 
d="M509 -28c-100 0 -180.333 8.83203 -241 26.499s-106 45.834 -136 84.501s-46.333 88.5 -49 149.5s4 134.5 20 220.5l113 600c1.33301 7.33301 3.33301 12.166 6 14.499s7.66699 3.5 15 3.5h215c12 0 17 -6 15 -18l-109 -585c-10 -52 -14.667 -95.333 -14 -130
s8.16699 -62.167 22.5 -82.5s36.333 -34.666 66 -42.999s69.167 -12.5 118.5 -12.5c16 0 33.167 0.333008 51.5 1s36.5 1.83398 54.5 3.50098s35.667 3.66699 53 6s33 5.16602 47 8.49902l155 834c1.33301 7.33301 3.33301 12.166 6 14.499s7.66699 3.5 15 3.5h216
c12 0 17 -6 15 -18l-186 -1003c-2 -11.333 -8.66699 -18.666 -20 -21.999c-28 -7.33301 -60.167 -14.333 -96.5 -21s-74.333 -12.5 -114 -17.5s-80 -9.16699 -121 -12.5s-80.167 -5 -117.5 -5z" />
    <glyph glyph-name="v" unicode="v" horiz-adv-x="1078" 
d="M256 0c-6.66699 0 -11.498 1.16797 -14.498 3.50098s-4.83301 7.16602 -5.5 14.499l-144 1035c-0.666992 12 4.66602 18 15.999 18h236c11.333 0 18 -6 20 -18l84 -834l396 836c3.33301 6 6.66602 10.167 9.99902 12.5s8.66602 3.5 15.999 3.5h250
c11.333 0 14.666 -5.33301 9.99902 -16l-531 -1039c-3.33301 -6 -6.66602 -10.167 -9.99902 -12.5s-8.66602 -3.5 -15.999 -3.5h-317z" />
    <glyph glyph-name="w" unicode="w" horiz-adv-x="1689" 
d="M209 0c-12 0 -18.3379 5.99707 -19.0049 17.9971l-55 1035c-0.666992 12 5 18 17 18h233c12 0 18 -6 18 -18l12 -734c0 -3.33301 -0.166992 -11.666 -0.5 -24.999s-0.666016 -27.5 -0.999023 -42.5s-0.666016 -28.5 -0.999023 -40.5s-0.166016 -18 0.500977 -18
s2.33398 3.5 5.00098 10.5l10.5 27.5l15.5 39c6 14.667 12.667 30 20 46l346 739c3.33301 6 6.66602 10.167 9.99902 12.5s8.66602 3.5 15.999 3.5h185c11.333 0 18 -6 20 -18l69 -740c1.33301 -14.667 2.33301 -29.167 3 -43.5s1.16699 -27.166 1.5 -38.499
s0.666016 -20.5 0.999023 -27.5s0.833008 -10.5 1.5 -10.5s3.16699 6 7.5 18l14 40c5 14.667 10 28.5 15 41.5s8.16699 20.833 9.5 23.5l284 738c3.33301 11.333 11.333 17 24 17h236c12 0 15.667 -5.66699 11 -17l-442 -1037c-2.66699 -6.66699 -5.66699 -11.167 -9 -13.5
s-8.66602 -3.5 -15.999 -3.5h-292c-12.667 0 -19.334 6 -20.001 18l-76 551c-1.33301 10.667 -2.16602 22.667 -2.49902 36s-0.666016 25.833 -0.999023 37.5s-0.5 21.334 -0.5 29.001s-0.333008 11.5 -1 11.5s-2.5 -4 -5.5 -12l-11.5 -29.5l-15.5 -37
c-5.66699 -13 -11.167 -24.833 -16.5 -35.5l-282 -553c-3.33301 -6 -6.66602 -10.167 -9.99902 -12.5s-8.66602 -3.5 -15.999 -3.5h-292z" />
    <glyph glyph-name="x" unicode="x" horiz-adv-x="1127" 
d="M707 0c-7.33301 0 -12.666 1.16699 -15.999 3.5s-6.33301 6.83301 -9 13.5l-156 365l-292 -368c-4 -5.33301 -8 -9 -12 -11s-9.66699 -3 -17 -3h-276c-12 0 -14 4.66699 -6 14l460 533l-251 508c-4.66699 10.667 -1.33398 16 9.99902 16h248
c7.33301 0 12.666 -1.16699 15.999 -3.5s6.33301 -6.83301 9 -13.5l156 -363l292 366c4 5.33301 8 9 12 11s9.66699 3 17 3h276c12 0 14 -4.66699 6 -14l-460 -529l252 -512c4.66699 -10.667 1.33398 -16 -9.99902 -16h-249z" />
    <glyph glyph-name="y" unicode="y" horiz-adv-x="1055" 
d="M-44 -478c-20 0 -42.5 1.16797 -67.5 3.50098s-47.167 5.83301 -66.5 10.5c-12 2 -16 9 -12 21l58 178c2.66699 6.66699 5.5 11 8.5 13s8.16699 2.33301 15.5 1c14.667 -2 30.167 -3.83301 46.5 -5.5s31.833 -2.5 46.5 -2.5c46.667 0 86.334 3.33301 119.001 10
s61.834 19.5 87.501 38.5s50.167 45.333 73.5 79s49 77.5 77 131.5c-1.33301 0 -5.5 2.16699 -12.5 6.5s-15.5 13.166 -25.5 26.499s-20.333 33.166 -31 59.499s-20 61.5 -28 105.5l-162 855c-2 12 3 18 15 18h246c6.66699 0 11.5 -1.16699 14.5 -3.5
s5.16699 -7.16602 6.5 -14.499l87 -601l22 -179l341 782c2.66699 6 5.66699 10.167 9 12.5s8.66602 3.5 15.999 3.5h253c11.333 0 14.666 -5.33301 9.99902 -16l-561 -1137c-38.667 -78.667 -76 -143.5 -112 -194.5s-75.667 -91.5 -119 -121.5s-93.333 -50.833 -150 -62.5
s-125 -17.5 -205 -17.5z" />
    <glyph glyph-name="z" unicode="z" horiz-adv-x="1063" 
d="M154 845c-6 0 -9.83203 1.33203 -11.499 3.99902s-1.83398 7 -0.500977 13l36 192c1.33301 7.33301 3.83301 12 7.5 14s9.16699 3 16.5 3h830c11.333 0 15.666 -6.33301 12.999 -19l-30 -157c-2 -10 -5 -19.5 -9 -28.5s-10 -17.167 -18 -24.5l-629 -614h523
c10.667 0 15 -6.33301 13 -19l-36 -194c-1.33301 -7.33301 -3.66602 -11.666 -6.99902 -12.999s-8.66602 -2 -15.999 -2h-842c-13.333 0 -18.333 6.66699 -15 20l32 166c1.33301 7.33301 3.66602 14.5 6.99902 21.5s8 13.167 14 18.5l630 619h-508z" />
    <glyph glyph-name="braceleft" unicode="{" horiz-adv-x="749" 
d="M375 -389c-65.333 0 -120.171 3.49805 -164.504 10.498s-78.5 22.833 -102.5 47.5s-38 61 -42 109s1.66699 112.667 17 194l44 239c6 31.333 9.66699 58 11 80s-0.666992 41 -6 57s-14.166 29.5 -26.499 40.5s-29.166 21.167 -50.499 30.5
c-11.333 5.33301 -15.666 13.666 -12.999 24.999l38 198c2 11.333 8.66699 19.333 20 24c24.667 9.33301 45.334 19.5 62.001 30.5s30.5 24.5 41.5 40.5s20 35 27 57s13.5 49 19.5 81l44 239c10.667 58 22.667 107.333 36 148s28.5 74.334 45.5 101.001s36.333 47.5 58 62.5
s46.5 26.167 74.5 33.5s59.333 11.833 94 13.5s73.667 2.5 117 2.5h126c12 0 17 -6 15 -18l-39 -213c-1.33301 -7.33301 -3.33301 -12.166 -6 -14.499s-7.66699 -3.5 -15 -3.5h-126c-21.333 0 -38.333 -1.66699 -51 -5s-23 -9 -31 -17s-14.167 -18.667 -18.5 -32
s-8.5 -30.333 -12.5 -51l-47 -246c-9.33301 -50 -19.333 -91.5 -30 -124.5s-24 -61 -40 -84s-35.167 -43 -57.5 -60s-49.833 -34.5 -82.5 -52.5l-4 -22c26 -18 47 -36.333 63 -55s27.5 -40.167 34.5 -64.5s9.83301 -52.5 8.5 -84.5s-6 -70.333 -14 -115l-45 -249
c-4 -20.667 -6.33301 -37.667 -7 -51s1.5 -24 6.5 -32s13.333 -13.5 25 -16.5s28.167 -4.5 49.5 -4.5h125c12 0 17 -6 15 -18l-39 -213c-1.33301 -7.33301 -3.33301 -12.166 -6 -14.499s-7.66699 -3.5 -15 -3.5h-126v0z" />
    <glyph glyph-name="bar" unicode="|" horiz-adv-x="692" 
d="M211 -389c-12 0 -18 6 -18 18v1828c0 12 6 18 18 18h229c12 0 18 -6 18 -18v-1828c0 -12 -6 -18 -18 -18h-229z" />
    <glyph glyph-name="braceright" unicode="}" horiz-adv-x="739" 
d="M335 1474c65.333 0 120.171 -3.49805 164.504 -10.498s78.5 -22.833 102.5 -47.5s38 -61 42 -109s-1.66699 -112.667 -17 -194l-44 -239c-6 -31.333 -9.66699 -58 -11 -80s0.666992 -41 6 -57s14.166 -29.667 26.499 -41s29.166 -21.333 50.499 -30
c11.333 -5.33301 15.666 -13.666 12.999 -24.999l-38 -198c-2 -11.333 -8.66699 -19.333 -20 -24c-24.667 -9.33301 -45.334 -19.5 -62.001 -30.5s-30.5 -24.5 -41.5 -40.5s-20 -35 -27 -57s-13.5 -49 -19.5 -81l-44 -239c-10.667 -58 -22.667 -107.333 -36 -148
s-28.5 -74.334 -45.5 -101.001s-36.333 -47.5 -58 -62.5s-46.5 -26.167 -74.5 -33.5s-59.333 -11.833 -94 -13.5s-73.667 -2.5 -117 -2.5h-126c-12 0 -17 6 -15 18l39 213c1.33301 7.33301 3.33301 12.166 6 14.499s7.66699 3.5 15 3.5h126c20.667 0 37.5 1.66699 50.5 5
s23.5 9 31.5 17s14.167 18.667 18.5 32s8.5 30.333 12.5 51l47 246c9.33301 50 19.333 91.5 30 124.5s24 61 40 84s35.167 43 57.5 60s49.833 34.5 82.5 52.5l4 22c-26 18 -47 36.333 -63 55s-27.5 40.167 -34.5 64.5s-9.83301 52.5 -8.5 84.5s6 70.333 14 115l45 249
c4 20.667 6.33301 37.667 7 51s-1.5 24 -6.5 32s-13.5 13.5 -25.5 16.5s-28.333 4.5 -49 4.5h-125c-12 0 -17 6 -15 18l39 213c1.33301 7.33301 3.33301 12.166 6 14.499s7.66699 3.5 15 3.5h126v0z" />
    <glyph glyph-name="asciitilde" unicode="~" horiz-adv-x="1108" 
d="M129 558c-12 0 -16.999 6.00098 -14.999 18.001l11 60c12 64 28.333 114.5 49 151.5s43.5 64.667 68.5 83s51.333 30 79 35s54.5 7.5 80.5 7.5c36 0 67.5 -5 94.5 -15s52.833 -25.333 77.5 -46l56 -46c27.333 -22 49.666 -38 66.999 -48s35 -15 53 -15
c12 0 22.667 1.5 32 4.5s18 9.66699 26 20s15.5 25.333 22.5 45s13.833 46.167 20.5 79.5c1.33301 7.33301 3.5 12.166 6.5 14.499s7.83301 3.5 14.5 3.5h150c12 0 17 -6 15 -18l-10 -60c-11.333 -63.333 -27.166 -113.5 -47.499 -150.5s-43.333 -65 -69 -84
s-52.334 -31 -80.001 -36s-54.5 -7.5 -80.5 -7.5c-36 0 -67.5 4.66699 -94.5 14s-53.167 24.666 -78.5 45.999l-55 48c-27.333 23.333 -49.5 39.833 -66.5 49.5s-34.5 14.5 -52.5 14.5c-12 0 -22.833 -1.5 -32.5 -4.5s-18.5 -9.66699 -26.5 -20s-15.5 -25.333 -22.5 -45
s-13.833 -46.5 -20.5 -80.5c-1.33301 -7.33301 -3.5 -12.166 -6.5 -14.499s-7.83301 -3.5 -14.5 -3.5h-151z" />
    <glyph glyph-name="uni007F" 
 />
    <glyph glyph-name="uni00A0" unicode="&#xa0;" horiz-adv-x="508" 
 />
    <glyph glyph-name="exclamdown" unicode="&#xa1;" horiz-adv-x="575" 
d="M370 517c12 0 17 -5.99707 15 -17.9971l-146 -885c-1.33301 -7.33301 -3.33301 -12.333 -6 -15s-7.66699 -4.33398 -15 -5.00098l-239 -31c-12 -0.666992 -16.667 4.66602 -14 15.999l185 920c1.33301 7.33301 3.5 12.166 6.5 14.499s8.16699 3.5 15.5 3.5h198zM489 1071
c12 0 17 -5.99707 15 -17.9971l-49 -264c-1.33301 -7.33301 -3.33301 -12.333 -6 -15s-7.66699 -4.33398 -15 -5.00098l-225 -30c-12 -0.666992 -17 4.66602 -15 15.999l55 298c1.33301 7.33301 3.33301 12.166 6 14.499s7.66699 3.5 15 3.5h219z" />
    <glyph glyph-name="cent" unicode="&#xa2;" horiz-adv-x="935" 
d="M338 -252c-12 0 -16.999 5.99902 -14.999 17.999l39 210c-74.667 6 -135.167 20.333 -181.5 43s-80.833 55 -103.5 97s-34.5 94.667 -35.5 158s6.83301 139 23.5 227l24 125c16.667 90 37 166.833 61 230.5s54.833 116.334 92.5 158.001s83.834 73.167 138.501 94.5
s120.667 35 198 41l39 210c1.33301 7.33301 3.33301 12.166 6 14.499s7.66699 3.5 15 3.5h132c12 0 17 -6 15 -18l-39 -207c35.333 -1.33301 68.666 -3.5 99.999 -6.5s59.666 -7.16699 84.999 -12.5c12 -2.66699 16 -9.66699 12 -21l-62 -189
c-2.66699 -6.66699 -5.5 -11 -8.5 -13s-8.16699 -2.66699 -15.5 -2c-24.667 3.33301 -50 6 -76 8s-52 3.66699 -78 5l-137 -732c28 0.666992 55 1.66699 81 3s51.667 4 77 8c12 2 18 -3 18 -15l-3 -173c0 -7.33301 -1.16699 -12.5 -3.5 -15.5
s-7.16602 -5.16699 -14.499 -6.5c-26 -4.66699 -56.333 -8.5 -91 -11.5s-69.334 -5.16699 -104.001 -6.5l-39 -207c-1.33301 -7.33301 -3.33301 -12.166 -6 -14.499s-7.66699 -3.5 -15 -3.5h-129zM314.001 507.999c-9.33301 -49.333 -15.5 -91.8301 -18.5 -127.497
s-1.5 -65.834 4.5 -90.501s17.167 -44.334 33.5 -59.001s39.5 -25.334 69.5 -32.001l132 713c-32 -7.33301 -59 -18.833 -81 -34.5s-40.833 -36 -56.5 -61s-28.667 -55.167 -39 -90.5s-19.833 -76 -28.5 -122z" />
    <glyph glyph-name="sterling" unicode="&#xa3;" horiz-adv-x="1134" 
d="M120 635c-12 0 -16.998 5.99902 -14.998 17.999l40 212c1.33301 7.33301 3.33301 12.166 6 14.499s7.66699 3.5 15 3.5h111l23 120c10 53.333 21.167 102 33.5 146s27.833 83.5 46.5 118.5s41.667 65.5 69 91.5s61 47.667 101 65s87.5 30.166 142.5 38.499
s119.5 12.5 193.5 12.5h256c12 0 17 -6 15 -18l-40 -213c-1.33301 -7.33301 -3.33301 -12.166 -6 -14.499s-7.66699 -3.5 -15 -3.5h-256c-52.667 0 -95.334 -4 -128.001 -12s-58.667 -20.667 -78 -38s-33.833 -39.666 -43.5 -66.999s-17.834 -60.333 -24.501 -99l-24 -127
h410c12 0 16 -5.66699 12 -17l-75 -214c-2.66699 -6.66699 -5.5 -11.167 -8.5 -13.5s-8.16699 -3.5 -15.5 -3.5h-369l-31 -170c-10 -52 -21 -95 -33 -129s-27 -63 -45 -87h582c12 0 17 -6 15 -18l-41 -213c-1.33301 -7.33301 -3.33301 -12.166 -6 -14.499
s-7.66699 -3.5 -15 -3.5h-920c-12 0 -17 6 -15 18l41 215c2 11.333 8.66699 19.333 20 24c25.333 8.66699 46.333 18.5 63 29.5s30.667 24.5 42 40.5s20.5 35 27.5 57s13.5 49 19.5 81l31 170h-111z" />
    <glyph glyph-name="currency" unicode="&#xa4;" horiz-adv-x="1285" 
d="M203 1066c-7.33301 9.33301 -6.33496 17.999 2.99805 25.999l177 148c9.33301 8 17.666 7.33301 24.999 -2l87 -107c35.333 14 73.5 24.333 114.5 31s84.5 10 130.5 10c44.667 0 85.334 -4.5 122.001 -13.5s69 -22.167 97 -39.5l131 109
c9.33301 8 17.666 7.33301 24.999 -2l124 -152c7.33301 -9.33301 6.33301 -18 -3 -26l-146 -122c7.33301 -33.333 11 -68.333 11 -105c0 -144 -24.667 -259.333 -74 -346l88 -106c7.33301 -9.33301 6.33301 -18 -3 -26l-175 -148c-9.33301 -8 -17.666 -7.33301 -24.999 2
l-87 105c-68 -26.667 -149 -40 -243 -40c-87.333 0 -160.666 18.333 -219.999 55l-132 -110c-9.33301 -7.33301 -17.666 -6.33301 -24.999 3l-125 152c-7.33301 9.33301 -6.33301 18 3 26l147 122c-4 17.333 -6.83301 35 -8.5 53s-2.5 37 -2.5 57
c0 70.667 6.33301 133.834 19 189.501s30.667 104.5 54 146.5zM443.998 659.999c0 -31.333 4.33203 -57.832 12.999 -79.499s20.667 -39 36 -52s33.833 -22.333 55.5 -28s45.5 -8.5 71.5 -8.5c38 0 72.667 4.5 104 13.5s58.333 24.333 81 46s40.167 51 52.5 88
s18.5 83.5 18.5 139.5c0 30.667 -4.16699 56.667 -12.5 78s-20.166 38.666 -35.499 51.999s-33.5 22.833 -54.5 28.5s-44.5 8.5 -70.5 8.5c-38 0 -72.833 -4.5 -104.5 -13.5s-59 -24.5 -82 -46.5s-40.833 -51.333 -53.5 -88s-19 -82.667 -19 -138z" />
    <glyph glyph-name="yen" unicode="&#xa5;" horiz-adv-x="1337" 
d="M176 510c-12 0 -15.999 5.66699 -11.999 17l49 133c2.66699 6.66699 5.5 11.167 8.5 13.5s8.16699 3.5 15.5 3.5h220l-248 781c-2.66699 11.333 1.66602 17 12.999 17h256c7.33301 0 12.5 -1.16699 15.5 -3.5s5.5 -6.83301 7.5 -13.5l188 -642l426 644
c4 5.33301 7.83301 9.16602 11.5 11.499s9.16699 3.5 16.5 3.5h266c11.333 0 14 -5 8 -15l-538 -783h284c12 0 16 -5.66699 12 -17l-49 -133c-2.66699 -6.66699 -5.5 -11.167 -8.5 -13.5s-8.16699 -3.5 -15.5 -3.5h-331l-24 -130h354c12 0 16 -5.66699 12 -17l-49 -133
c-2.66699 -6.66699 -5.5 -11.167 -8.5 -13.5s-8.16699 -3.5 -15.5 -3.5h-324l-36 -195c-1.33301 -7.33301 -3.33301 -12.166 -6 -14.499s-7.66699 -3.5 -15 -3.5h-229c-12 0 -17 6 -15 18l36 195h-338c-12 0 -16 5.66699 -12 17l49 133c2.66699 6.66699 5.5 11.167 8.5 13.5
s8.16699 3.5 15.5 3.5h308l24 130h-330z" />
    <glyph glyph-name="brokenbar" unicode="&#xa6;" horiz-adv-x="691" 
d="M225 707c-12 0 -18 6 -18 18l-16 732c0 12 6 18 18 18h229c12 0 18 -6 18 -18l-15 -732c0 -12 -6 -18 -18 -18h-198zM209 -389c-12 0 -18 6 -18 18l16 732c0 12 6 18 18 18h198c12 0 18 -6 18 -18l15 -732c0 -12 -6 -18 -18 -18h-229z" />
    <glyph glyph-name="section" unicode="&#xa7;" horiz-adv-x="1120" 
d="M287 -452c-28 0 -57.4971 0.832031 -88.4971 2.49902s-61.5 4.33398 -91.5 8.00098s-59 8 -87 13s-53 10.5 -75 16.5c-11.333 2.66699 -15 10 -11 22l76 209c3.33301 11.333 11.333 16 24 14c54.667 -9.33301 105 -16.5 151 -21.5s93 -7.5 141 -7.5
c56.667 0 103.834 3.33301 141.501 10s67.834 16.667 90.501 30s38.667 30.333 48 51s14 44.667 14 72c0 14.667 -2.83301 28 -8.5 40s-15.334 24 -29.001 36s-31.834 24.5 -54.501 37.5s-51 28.167 -85 45.5l-136 72c-36.667 19.333 -68.834 39.5 -96.501 60.5
s-50.834 44 -69.501 69s-32.834 52.333 -42.501 82s-14.5 62.834 -14.5 99.501c0 76 12.167 143.167 36.5 201.5s63.5 108.166 117.5 149.499c-37.333 51.333 -56 113 -56 185c0 83.333 11.5 154 34.5 212s59.5 105.167 109.5 141.5s114.167 62.666 192.5 78.999
s173.166 24.5 284.499 24.5c22.667 0 47.334 -0.666992 74.001 -2s53.334 -3.33301 80.001 -6s52.667 -6.5 78 -11.5s48.666 -10.833 69.999 -17.5c12 -3.33301 15.667 -11 11 -23l-72 -201c-3.33301 -11.333 -11.333 -16 -24 -14
c-20 3.33301 -41.167 6.16602 -63.5 8.49902s-44.5 4.33301 -66.5 6s-43.667 2.83398 -65 3.50098s-41.333 1 -60 1c-55.333 0 -101.666 -3.16699 -138.999 -9.5s-67.333 -16 -90 -29s-38.834 -29.167 -48.501 -48.5s-14.5 -42.333 -14.5 -69
c0 -16 3.16699 -30.167 9.5 -42.5s16.5 -24.5 30.5 -36.5s31.833 -24.333 53.5 -37s48.167 -26.667 79.5 -42l150 -79c77.333 -39.333 132.333 -83.5 165 -132.5s49 -104.833 49 -167.5c0 -86 -13.667 -157.167 -41 -213.5s-65 -102.5 -113 -138.5
c19.333 -26.667 33.333 -55 42 -85s13 -61.667 13 -95c0 -83.333 -12.333 -154.666 -37 -213.999s-62.5 -108.333 -113.5 -147s-115.833 -67 -194.5 -85s-171.667 -27 -279 -27zM729.003 483.999c0 18 -3.00098 34.667 -9.00098 50s-16.167 30 -30.5 44
s-33.5 28.167 -57.5 42.5s-54 29.5 -90 45.5l-122 58c-19.333 -22 -33.666 -47 -42.999 -75s-14 -52.333 -14 -73s3.5 -39 10.5 -55s17.833 -31 32.5 -45s33.667 -27.667 57 -41s51 -27.333 83 -42l128 -60c10 11.333 18.5 23.666 25.5 36.999s12.667 26.833 17 40.5
s7.5 26.834 9.5 39.501s3 24 3 34z" />
    <glyph glyph-name="dieresis" unicode="&#xa8;" horiz-adv-x="768" 
d="M309 1231c-12 0 -17 5.99707 -15 17.9971l53 276c1.33301 7.33301 3.33301 12.333 6 15s7.66699 4.33398 15 5.00098l217 31c12 0.666992 17 -4.66602 15 -15.999l-58 -311c-1.33301 -7.33301 -3.33301 -12.166 -6 -14.499s-7.66699 -3.5 -15 -3.5h-212zM704 1231
c-12 0 -17 5.99707 -15 17.9971l52 276c1.33301 7.33301 3.33301 12.333 6 15s7.66699 4.33398 15 5.00098l219 31c12 0.666992 17 -4.66602 15 -15.999l-59 -311c-1.33301 -7.33301 -3.33301 -12.166 -6 -14.499s-7.66699 -3.5 -15 -3.5h-212z" />
    <glyph glyph-name="copyright" unicode="&#xa9;" horiz-adv-x="1563" 
d="M769 339c-65.333 0 -119.498 7.99902 -162.498 23.999s-76 40 -99 72s-36.5 72.167 -40.5 120.5s0.666992 105.166 14 170.499l13 66c12 64.667 28.667 120 50 166s48.833 83.5 82.5 112.5s74.5 50.167 122.5 63.5s104.667 20 170 20c32.667 0 64.667 -1.66699 96 -5
s59 -7.66602 83 -12.999c12 -2.66699 16.333 -9.66699 13 -21l-54 -182c-2 -6.66699 -4.5 -11.167 -7.5 -13.5s-8.16699 -2.83301 -15.5 -1.5c-24 2 -47.333 3.5 -70 4.5s-46.334 1.5 -71.001 1.5c-26.667 0 -49.334 -3.33301 -68.001 -10s-34.5 -16.5 -47.5 -29.5
s-23.5 -29.167 -31.5 -48.5s-14.333 -42 -19 -68l-7 -41c-5.33301 -26.667 -7.66602 -50 -6.99902 -70s5 -36.5 13 -49.5s20.167 -22.833 36.5 -29.5s37.833 -10 64.5 -10c27.333 0 52.166 0.5 74.499 1.5s45.166 2.83301 68.499 5.5
c12 0.666992 17.667 -4.66602 17 -15.999l-12 -181c-0.666992 -7.33301 -2.16699 -12.5 -4.5 -15.5s-7.16602 -5.16699 -14.499 -6.5c-25.333 -5.33301 -54.833 -9.5 -88.5 -12.5s-66.5 -4.5 -98.5 -4.5zM314.002 585.999c0 -57.333 6.83203 -108.169 20.499 -152.502
s35.834 -81.833 66.501 -112.5s71 -54 121 -70s111.667 -24 185 -24c94 0 177.167 12.333 249.5 37s133.166 64.334 182.499 119.001s86.833 125 112.5 211s38.5 190.667 38.5 314c0 56.667 -6.66699 107.167 -20 151.5s-35.166 81.833 -65.499 112.5s-70 54 -119 70
s-109.5 24 -181.5 24c-94.667 0 -178.667 -12.333 -252 -37s-135 -64.167 -185 -118.5s-88 -124.666 -114 -210.999s-39 -190.833 -39 -313.5zM1494 908.996c0 -136.667 -15.1641 -259.166 -45.4971 -367.499s-78.333 -200.333 -144 -276s-150.334 -133.5 -254.001 -173.5
s-229.167 -60 -376.5 -60c-98 0 -182.333 12.667 -253 38s-128.834 61.5 -174.501 108.5s-79.5 104 -101.5 171s-33 142.167 -33 225.5c0 138 15.167 261.667 45.5 371s78.5 202 144.5 278s151.167 134.333 255.5 175s230.166 61 377.499 61
c98 0 182.167 -12.833 252.5 -38.5s128.333 -62.334 174 -110.001s79.167 -105.5 100.5 -173.5s32 -144.333 32 -229z" />
    <glyph glyph-name="ordfeminine" unicode="&#xaa;" horiz-adv-x="985" 
d="M529 860c19.333 0 39 0.499023 59 1.49902s39 2.83301 57 5.5l31 165h-56c-38 0 -70 -1.33301 -96 -4s-47 -7.83398 -63 -15.501s-27.333 -18.667 -34 -33s-10 -33.166 -10 -56.499c0 -14.667 2.83301 -26.167 8.5 -34.5s13.5 -14.666 23.5 -18.999s21.833 -7 35.5 -8
s28.5 -1.5 44.5 -1.5zM578 1319c-32 0 -67.5 -1.00098 -106.5 -3.00098s-76.5 -4.66699 -112.5 -8c-12 -0.666992 -17 5 -15 17l26 136c1.33301 6.66699 3.33301 11.334 6 14.001s7.66699 4.66699 15 6c20 4 41 7.33301 63 10s44 4.83398 66 6.50098s43 2.83398 63 3.50098
s38 1 54 1c76.667 0 136.667 -6.33301 180 -19s74.333 -32 93 -58s27.834 -59.167 27.501 -99.5s-5.5 -87.833 -15.5 -142.5l-83 -446c-1.33301 -7.33301 -3.33301 -12.333 -6 -15s-7.66699 -4.33398 -15 -5.00098c-26.667 -3.33301 -54.667 -6.33301 -84 -9s-58 -5 -86 -7
s-54.5 -3.66699 -79.5 -5s-46.5 -2 -64.5 -2c-52.667 0 -98.667 3 -138 9s-72 16.167 -98 30.5s-45.333 33.333 -58 57s-19 53.167 -19 88.5c0 62 8.5 112.667 25.5 152s44 70.166 81 92.499s84.5 37.833 142.5 46.5s128.333 13 211 13h53l5 30
c3.33301 19.333 4.16602 35.666 2.49902 48.999s-7.16699 24.333 -16.5 33s-23.5 14.834 -42.5 18.501s-43.833 5.5 -74.5 5.5zM105 399.998c-12 0 -17 6 -15 18l28 152c1.33301 7.33301 3.33301 12.166 6 14.499s7.66699 3.5 15 3.5h699c12 0 17 -6 15 -18l-28 -152
c-1.33301 -7.33301 -3.33301 -12.166 -6 -14.499s-7.66699 -3.5 -15 -3.5h-699z" />
    <glyph glyph-name="guillemotleft" unicode="&#xab;" horiz-adv-x="1326" 
d="M318 184c-7.33301 0 -12.834 1.16797 -16.501 3.50098s-7.5 6.16602 -11.5 11.499l-251 366c-6.66699 10 -5.66699 19 3 27l387 373c8.66699 8 19 12 31 12h275c12.667 0 14.334 -4 5.00098 -12l-410 -393l254 -373c6 -10 3.33301 -15 -8 -15h-258zM868.999 184.001
c-7.33301 0 -12.834 1.16797 -16.501 3.50098s-7.5 6.16602 -11.5 11.499l-251 366c-6.66699 10 -5.66699 19 3 27l387 373c8.66699 8 19 12 31 12h275c12.667 0 14.334 -4 5.00098 -12l-410 -393l254 -373c6 -10 3.33301 -15 -8 -15h-258z" />
    <glyph glyph-name="logicalnot" unicode="&#xac;" horiz-adv-x="1172" 
d="M152 855c-12 0 -17 6 -15 18l39 207c1.33301 7.33301 3.33301 12.166 6 14.499s7.66699 3.5 15 3.5h875c12 0 17 -6 15 -18l-3 -15l-39 -210l-77 -416c-1.33301 -7.33301 -3.33301 -12.166 -6 -14.499s-7.66699 -3.5 -15 -3.5h-207c-12 0 -17 6 -15 18l77 416h-650z" />
    <glyph glyph-name="uni00AD" unicode="&#xad;" horiz-adv-x="793" 
d="M130 457c-12 0 -17 6 -15 18l39 208c1.33301 7.33301 3.33301 12.166 6 14.499s7.66699 3.5 15 3.5h472c12 0 17 -6 15 -18l-39 -208c-1.33301 -7.33301 -3.33301 -12.166 -6 -14.499s-7.66699 -3.5 -15 -3.5h-472z" />
    <glyph glyph-name="registered" unicode="&#xae;" horiz-adv-x="1313" 
d="M1281 1123c0 -138.667 -15.999 -253.999 -47.999 -345.999s-77.167 -165.5 -135.5 -220.5s-128.833 -93.833 -211.5 -116.5s-174.334 -34 -275.001 -34c-84 0 -155 11.333 -213 34s-105 53.667 -141 93s-62 86 -78 140s-24 112 -24 174c0 138.667 16 254.167 48 346.5
s77.333 166 136 221s129.167 93.833 211.5 116.5s173.5 34 273.5 34c84.667 0 156.167 -11.333 214.5 -34s105.5 -53.834 141.5 -93.501s61.833 -86.5 77.5 -140.5s23.5 -112 23.5 -174zM332.001 862.001c0 -46 5.00195 -86.667 15.002 -122s27 -65 51 -89
s55.667 -42.333 95 -55s88.666 -19 147.999 -19c94.667 0 172 13.333 232 40s107 63.834 141 111.501s57.333 104 70 169s19 136.167 19 213.5c0 45.333 -5 85.666 -15 120.999s-27 65 -51 89s-55.833 42.167 -95.5 54.5s-88.834 18.5 -147.501 18.5
c-94.667 0 -172 -13.333 -232 -40s-107 -63.667 -141 -111s-57.333 -103.5 -70 -168.5s-19 -135.833 -19 -212.5zM791.003 678.001c-7.33301 0 -12.502 1.16895 -15.502 3.50195s-5.16699 7.16602 -6.5 14.499l-40 201c-6.66699 -0.666992 -13.5 -1 -20.5 -1h-21.5h-24.5
c-12.333 0 -25.166 0.666992 -38.499 2l-39 -202c-1.33301 -7.33301 -3.33301 -12.166 -6 -14.499s-7.66699 -3.5 -15 -3.5h-96c-12 0 -17 6 -15 18l107 579c1.33301 7.33301 3.33301 12.166 6 14.499s7.66699 3.83301 15 4.5c30 1.33301 59.167 2.5 87.5 3.5
s55.166 1.5 80.499 1.5c56.667 0 101.834 -3.5 135.501 -10.5s58.667 -17.833 75 -32.5s25.333 -33.834 27 -57.501s-0.833008 -51.834 -7.5 -84.501l-6 -35c-3.33301 -18.667 -7.66602 -36.167 -12.999 -52.5s-12.5 -31.166 -21.5 -44.499s-20.167 -25.333 -33.5 -36
s-30 -19.667 -50 -27l60 -198c2 -6.66699 2.33301 -12 1 -16s-4.66602 -8.33301 -9.99902 -13l-3 -2c-8.66699 -8 -19.334 -12 -32.001 -12h-80zM747.001 1169c-9.33301 0 -21.167 -0.168945 -35.5 -0.501953s-26.833 -1.16602 -37.5 -2.49902l-29 -151
c4.66699 -0.666992 10.667 -1.16699 18 -1.5s14.833 -0.5 22.5 -0.5h21.5h16c19.333 0 36 0.833008 50 2.5s25.833 5 35.5 10s17.167 11.833 22.5 20.5s9.33301 20.334 12 35.001l4 26c4.66699 25.333 -0.5 42 -15.5 50s-43.167 12 -84.5 12z" />
    <glyph glyph-name="macron" unicode="&#xaf;" horiz-adv-x="767" 
d="M358 1292c-12 0 -17 6 -15 18l29 153c1.33301 7.33301 3.33301 12.166 6 14.499s7.66699 3.5 15 3.5h518c12 0 17 -6 15 -18l-28 -153c-1.33301 -7.33301 -3.33301 -12.166 -6 -14.499s-7.66699 -3.5 -15 -3.5h-519z" />
    <glyph glyph-name="degree" unicode="&#xb0;" horiz-adv-x="837" 
d="M540 1310c-16 0 -32.002 -2.00195 -48.002 -6.00195s-30.833 -10.667 -44.5 -20s-25.667 -21.666 -36 -36.999s-17.5 -34.666 -21.5 -57.999l-6 -26c-4 -23.333 -3.66699 -42.666 1 -57.999s12 -27.666 22 -36.999s22.167 -15.833 36.5 -19.5s29.5 -5.5 45.5 -5.5
c15.333 0 31 1.83301 47 5.5s30.833 10 44.5 19s25.667 21.333 36 37s17.5 35.5 21.5 59.5l4 25c4.66699 23.333 4.83398 42.666 0.500977 57.999s-11.5 27.666 -21.5 36.999s-22.167 16 -36.5 20s-29.166 6 -44.499 6zM454.998 851.998c-52 0 -97.5 7.16797 -136.5 21.501
s-70.5 35.166 -94.5 62.499s-40.167 61 -48.5 101s-7.83301 85.667 1.5 137l7 32c9.33301 50 25.333 93.667 48 131s50.667 68.166 84 92.499s71.833 42.5 115.5 54.5s91.5 18 143.5 18s97.333 -7.16699 136 -21.5s69.834 -35.166 93.501 -62.499s39.667 -61.333 48 -102
s7.83301 -87 -1.5 -139l-7 -32c-9.33301 -49.333 -25.333 -92.333 -48 -129s-50.834 -67.167 -84.501 -91.5s-72.167 -42.5 -115.5 -54.5s-90.333 -18 -141 -18z" />
    <glyph glyph-name="plusminus" unicode="&#xb1;" horiz-adv-x="1169" 
d="M176 802c-12 0 -17 6 -15 18l39 208c1.33301 7.33301 3.33301 12.166 6 14.499s7.66699 3.5 15 3.5h324l62 327c1.33301 7.33301 3.33301 12.166 6 14.499s7.66699 3.5 15 3.5h207c12 0 17 -6 15 -18l-62 -327h325c12 0 17 -6 15 -18l-39 -208
c-1.33301 -7.33301 -3.33301 -12.166 -6 -14.499s-7.66699 -3.5 -15 -3.5h-325l-60 -321c-1.33301 -7.33301 -3.33301 -12.166 -6 -14.499s-7.66699 -3.5 -15 -3.5h-207c-12 0 -17 6 -15 18l60 321h-324zM41 0c-12 0 -17 6 -15 18l39 207
c1.33301 7.33301 3.33301 12.166 6 14.499s7.66699 3.5 15 3.5h864c12 0 17 -6 15 -18l-39 -207c-1.33301 -7.33301 -3.33301 -12.166 -6 -14.499s-7.66699 -3.5 -15 -3.5h-864z" />
    <glyph glyph-name="twosuperior" unicode="&#xb2;" horiz-adv-x="858" 
d="M119 600c-12 0 -17.002 5.99805 -15.002 17.998l15 77c8.66699 44.667 19.167 82.834 31.5 114.501s28.5 60.167 48.5 85.5s44.833 49.5 74.5 72.5s66.167 48.167 109.5 75.5l148 95l40 26c11.333 7.33301 20.833 14.666 28.5 21.999s13.334 15.5 17.001 24.5
s5.5 19.5 5.5 31.5c0 20 -11.167 34.5 -33.5 43.5s-58.166 13.5 -107.499 13.5c-20.667 0 -48 -0.666992 -82 -2s-68.333 -4.66602 -103 -9.99902c-12 -2 -18 3 -18 15l3 152c0 7.33301 1.16699 12.5 3.5 15.5s6.83301 5.16699 13.5 6.5c42 10.667 84.667 17.667 128 21
s81 5 113 5c62.667 0 114.667 -5.16699 156 -15.5s74.333 -24.5 99 -42.5s42.167 -39 52.5 -63s15.5 -49.667 15.5 -77c0 -31.333 -2.16699 -60.166 -6.5 -86.499s-13.5 -51.5 -27.5 -75.5s-34 -47.833 -60 -71.5s-60.333 -47.834 -103 -72.501l-113 -66l-67.5 -41.5
c-19.667 -12.333 -36.5 -24 -50.5 -35s-25.667 -22 -35 -33s-16.333 -22.5 -21 -34.5h365c12 0 17 -6 15 -18l-29 -152c-1.33301 -7.33301 -3.33301 -12.166 -6 -14.499s-7.66699 -3.5 -15 -3.5h-589z" />
    <glyph glyph-name="threesuperior" unicode="&#xb3;" horiz-adv-x="837" 
d="M367 582c-46.667 0 -90.999 1.50195 -132.999 4.50195s-79 6.83301 -111 11.5c-12 2 -16.667 8.66699 -14 20l40 160c1.33301 7.33301 3.5 12.166 6.5 14.499s8.16699 3.16602 15.5 2.49902c40 -3.33301 77.667 -5.5 113 -6.5s68.666 -1.5 99.999 -1.5
c52 0 91.5 6.16699 118.5 18.5s43.833 35.5 50.5 69.5l4 19c2 12 2.5 23.5 1.5 34.5s-5.33301 20.5 -13 28.5s-19.334 14.333 -35.001 19s-36.834 7 -63.501 7h-142c-12 0 -17 6 -15 18l23 119c1.33301 7.33301 3.33301 12.166 6 14.499s7.66699 3.5 15 3.5h136
c26.667 0 48.834 1.5 66.501 4.5s32 7.5 43 13.5s19.167 13.5 24.5 22.5s9 19.5 11 31.5l2 11c6 30.667 -3.16699 51 -27.5 61s-61.5 15 -111.5 15c-36 0 -71.833 -0.666992 -107.5 -2s-70.167 -3 -103.5 -5c-11.333 -0.666992 -16.666 5 -15.999 17l20 158
c0.666992 7.33301 2.33398 12.333 5.00098 15s7.66699 4.66699 15 6c32.667 4 69.5 7.66699 110.5 11s84.167 5 129.5 5c57.333 0 107.166 -4.16699 149.499 -12.5s76.833 -21.5 103.5 -39.5s45.334 -41.5 56.001 -70.5s13 -63.833 7 -104.5l-3 -18
c-8.66699 -54 -29.334 -96.167 -62.001 -126.5s-76.667 -52.166 -132 -65.499c46 -17.333 79.667 -44.166 101 -80.499s27 -81.166 17 -134.499l-3 -17c-10 -50.667 -25.833 -92.334 -47.5 -125.001s-49.167 -58.334 -82.5 -77.001s-72.333 -31.5 -117 -38.5
s-95 -10.5 -151 -10.5z" />
    <glyph glyph-name="acute" unicode="&#xb4;" horiz-adv-x="768" 
d="M386 1267c-11.333 0 -13.333 4.66699 -6 14l214 242c4.66699 5.33301 9 9 13 11s9.66699 3 17 3h270c11.333 0 13 -4 5 -12l-279 -246c-8.66699 -8 -19 -12 -31 -12h-203z" />
    <glyph glyph-name="mu" unicode="&#xb5;" horiz-adv-x="1307" 
d="M-7 -389c-12 0 -16.999 6 -14.999 18l266 1424c1.33301 7.33301 3.33301 12.166 6 14.499s7.66699 3.5 15 3.5h216c12 0 17 -6 15 -18l-105 -563c-11.333 -59.333 -14.5 -107.333 -9.5 -144s16.667 -65.167 35 -85.5s43 -34 74 -41s67.5 -10.5 109.5 -10.5
c16.667 0 34.667 0.333008 54 1s38.5 1.66699 57.5 3s37.667 3.33301 56 6s34.833 5.66699 49.5 9l153 825c1.33301 7.33301 3.33301 12.166 6 14.499s7.66699 3.5 15 3.5h216c12 0 17 -6 15 -18l-186 -1001c-2 -11.333 -8.66699 -18.666 -20 -21.999
c-30 -7.33301 -64.833 -14.5 -104.5 -21.5s-80.834 -13.167 -123.501 -18.5s-85.334 -9.66602 -128.001 -12.999s-82 -5 -118 -5c-58 0 -107.667 6.16699 -149 18.5s-69.666 30.166 -84.999 53.499l-77 -415c-1.33301 -7.33301 -3.33301 -12.166 -6 -14.499
s-7.66699 -3.5 -15 -3.5h-217z" />
    <glyph glyph-name="paragraph" unicode="&#xb6;" horiz-adv-x="1324" 
d="M351 -453c-12 0 -16.999 5.99805 -14.999 17.998l191 1026c-4 0 -9.5 -0.166992 -16.5 -0.5s-14.5 -0.666016 -22.5 -0.999023l-24.5 -1c-8.33301 -0.333008 -15.5 -0.5 -21.5 -0.5c-77.333 0 -139.833 6.33301 -187.5 19s-83.167 34.667 -106.5 66
s-35.5 73.833 -36.5 127.5s6.16699 121.5 21.5 203.5l12 66c14.667 80 32.667 146.167 54 198.5s49.833 93.833 85.5 124.5s80.167 52 133.5 64s119.666 18 198.999 18h308c12 0 17 -6 15 -18l-351 -1892c-1.33301 -7.33301 -3.33301 -12.166 -6 -14.499
s-7.66699 -3.5 -15 -3.5h-217zM717.001 -453.002c-12 0 -17 6 -15 18l350 1892c1.33301 7.33301 3.33301 12.166 6 14.499s7.66699 3.5 15 3.5h217c12 0 17 -6 15 -18l-351 -1892c-1.33301 -7.33301 -3.33301 -12.166 -6 -14.499s-7.66699 -3.5 -15 -3.5h-216z" />
    <glyph glyph-name="periodcentered" unicode="&#xb7;" horiz-adv-x="541" 
d="M117 394c-12 0 -17 5.99707 -15 17.9971l50 264c1.33301 7.33301 3.33301 12.333 6 15s7.66699 4.33398 15 5.00098l225 30c12 0.666992 17 -4.66602 15 -15.999l-55 -298c-1.33301 -7.33301 -3.33301 -12.166 -6 -14.499s-7.66699 -3.5 -15 -3.5h-220z" />
    <glyph glyph-name="cedilla" unicode="&#xb8;" horiz-adv-x="767" 
d="M144 -389c-12 0 -14.333 4.66602 -7 13.999l197 259c4 5.33301 8 9 12 11s9.66699 3 17 3h181c11.333 0 14 -5 8 -15l-179 -257c-4 -5.33301 -7.83301 -9.16602 -11.5 -11.499s-9.16699 -3.5 -16.5 -3.5h-201z" />
    <glyph glyph-name="onesuperior" unicode="&#xb9;" horiz-adv-x="559" 
d="M202 1263c-12 -2 -17.999 3 -17.999 15l2 149c0 7.33301 1.16699 12.333 3.5 15s7.16602 4.66699 14.499 6l161 30c5.33301 1.33301 11.333 2.16602 18 2.49902s12.667 0.5 18 0.5h159c12 0 17 -6 15 -18l-157 -845c-1.33301 -7.33301 -3.33301 -12.166 -6 -14.499
s-7.66699 -3.5 -15 -3.5h-181c-12 0 -17 6 -15 18l124 668z" />
    <glyph glyph-name="ordmasculine" unicode="&#xba;" horiz-adv-x="1006" 
d="M634 1315c-29.333 0 -54.1641 -3.16504 -74.4971 -9.49805s-37.666 -16.833 -51.999 -31.5s-26.166 -34 -35.499 -58s-17.333 -53.333 -24 -88l-11 -59c-6.66699 -34.667 -9.83398 -63.834 -9.50098 -87.501s4.66602 -42.834 12.999 -57.501s21.333 -25.167 39 -31.5
s40.5 -9.5 68.5 -9.5c28.667 0 53.167 3.16699 73.5 9.5s37.666 16.833 51.999 31.5s26.166 34 35.499 58s17.333 53.667 24 89l11 57c6.66699 34.667 10.167 64 10.5 88s-3.66699 43.333 -12 58s-21.333 25.167 -39 31.5s-40.834 9.5 -69.501 9.5zM515.002 694.002
c-67.333 0 -122.665 7.33008 -165.998 21.9971s-76.166 37 -98.499 67s-35.333 68 -39 114s0.166016 100.667 11.499 164l13 73c12 65.333 28.833 121.333 50.5 168s50 84.834 85 114.501s77.333 51.334 127 65.001s108.167 20.5 175.5 20.5
c64 0 117.167 -7.33301 159.5 -22s74.666 -37.167 96.999 -67.5s35.666 -68.666 39.999 -114.999s0.5 -100.833 -11.5 -163.5l-13 -73c-12 -65.333 -29 -121.333 -51 -168s-50.5 -84.667 -85.5 -114s-76.833 -50.833 -125.5 -64.5s-105 -20.5 -169 -20.5zM111.003 399.999
c-12 0 -17 6 -15 18l28 152c1.33301 7.33301 3.33301 12.166 6 14.499s7.66699 3.5 15 3.5h699c12 0 17 -6 15 -18l-29 -152c-1.33301 -7.33301 -3.33301 -12.166 -6 -14.499s-7.66699 -3.5 -15 -3.5h-698z" />
    <glyph glyph-name="guillemotright" unicode="&#xbb;" horiz-adv-x="1328" 
d="M444 977c7.33301 0 12.834 -1.16797 16.501 -3.50098s7.5 -6.16602 11.5 -11.499l251 -366c6.66699 -10 5.66699 -19 -3 -27l-387 -373c-8.66699 -8 -19 -12 -31 -12h-275c-12.667 0 -14.334 4 -5.00098 12l410 393l-254 373c-6 10 -3.33301 15 8 15h258z
M995.001 976.999c7.33301 0 12.834 -1.16797 16.501 -3.50098s7.5 -6.16602 11.5 -11.499l251 -366c6.66699 -10 5.66699 -19 -3 -27l-387 -373c-8.66699 -8 -19 -12 -31 -12h-275c-12.667 0 -14.334 4 -5.00098 12l410 393l-254 373c-6 10 -3.33301 15 8 15h258z" />
    <glyph glyph-name="onequarter" unicode="&#xbc;" horiz-adv-x="1851" 
d="M939 192c-12 0 -17 5.99805 -15 17.998l36 189c2 12.667 7 23 15 31l406 460c4.66699 5.33301 9 8.83301 13 10.5s9.66699 2.5 17 2.5h302c12 0 17 -6 15 -18l-93 -497h82c12 0 17 -6 15 -18l-31 -160c-1.33301 -7.33301 -3.33301 -12.166 -6 -14.499
s-7.66699 -3.5 -15 -3.5h-81l-33 -174c-1.33301 -7.33301 -3.33301 -12.166 -6 -14.499s-7.66699 -3.5 -15 -3.5h-181c-12 0 -17 6 -15 18l32 174h-442zM142 -0.00195312c-12 0 -14.333 4.66699 -7 14l1084 1447c4 5.33301 8 9 12 11s9.66699 3 17 3h265
c12 0 14.333 -4.66699 7 -14l-1084 -1447c-4 -5.33301 -8 -9 -12 -11s-9.66699 -3 -17 -3h-265zM218 1263c-12 -2 -17.999 3 -17.999 15l2 149c0 7.33301 1.16699 12.333 3.5 15s7.16602 4.66699 14.499 6l161 30c5.33301 1.33301 11.333 2.16602 18 2.49902
s12.667 0.5 18 0.5h159c12 0 17 -6 15 -18l-157 -845c-1.33301 -7.33301 -3.33301 -12.166 -6 -14.499s-7.66699 -3.5 -15 -3.5h-181c-12 0 -17 6 -15 18l124 668zM1187 387.998h231l58 313h-19l-267 -296z" />
    <glyph glyph-name="onehalf" unicode="&#xbd;" horiz-adv-x="1864" 
d="M142 0c-12 0 -14.333 4.66699 -7 14l1084 1447c4 5.33301 8 9 12 11s9.66699 3 17 3h265c12 0 14.333 -4.66699 7 -14l-1084 -1447c-4 -5.33301 -8 -9 -12 -11s-9.66699 -3 -17 -3h-265zM1045 -1c-12 0 -17.002 6 -15.002 18l16 88c8 44 18.333 81.833 31 113.5
s29.334 60.334 50.001 86.001s45.834 49.667 75.501 72s65.5 46.166 107.5 71.499l147 90c16.667 10 30.667 19 42 27s20.666 15.833 27.999 23.5s12.666 15.667 15.999 24s5 18.166 5 29.499c0 20 -11.167 34.5 -33.5 43.5s-58.166 13.5 -107.499 13.5
c-10.667 0 -23.5 -0.166992 -38.5 -0.5s-31.167 -1 -48.5 -2s-35.333 -2.16699 -54 -3.5s-37 -3.33301 -55 -6c-12 -2 -18 3 -18 15l3 152c0 7.33301 1.16699 12.5 3.5 15.5s6.83301 5.16699 13.5 6.5c44.667 10.667 89.334 17.667 134.001 21s84 5 118 5
c62.667 0 114.667 -5.16699 156 -15.5s74.333 -24.5 99 -42.5s42.167 -39 52.5 -63s15.5 -49.667 15.5 -77c0 -31.333 -2.33301 -60 -7 -86s-14.167 -51 -28.5 -75s-34.333 -47.667 -60 -71s-59.5 -48 -101.5 -74l-108 -66l-81 -50c-20.667 -13.333 -37 -25 -49 -35
s-20.667 -19 -26 -27s-9.33301 -17 -12 -27h355c12 0 17 -6 15 -18l-30 -158c-1.33301 -7.33301 -3.33301 -12.166 -6 -14.499s-7.66699 -3.5 -15 -3.5h-589zM217.998 1263c-12 -2 -17.999 3 -17.999 15l2 149c0 7.33301 1.16699 12.333 3.5 15s7.16602 4.66699 14.499 6
l161 30c5.33301 1.33301 11.333 2.16602 18 2.49902s12.667 0.5 18 0.5h159c12 0 17 -6 15 -18l-157 -845c-1.33301 -7.33301 -3.33301 -12.166 -6 -14.499s-7.66699 -3.5 -15 -3.5h-181c-12 0 -17 6 -15 18l124 668z" />
    <glyph glyph-name="threequarters" unicode="&#xbe;" horiz-adv-x="2025" 
d="M1122 192c-12 0 -17 5.99805 -15 17.998l36 189c2 12.667 7 23 15 31l406 460c4.66699 5.33301 9 8.83301 13 10.5s9.66699 2.5 17 2.5h302c12 0 17 -6 15 -18l-93 -497h82c12 0 17 -6 15 -18l-31 -160c-1.33301 -7.33301 -3.33301 -12.166 -6 -14.499
s-7.66699 -3.5 -15 -3.5h-81l-33 -174c-1.33301 -7.33301 -3.33301 -12.166 -6 -14.499s-7.66699 -3.5 -15 -3.5h-181c-12 0 -17 6 -15 18l32 174h-442zM1370 387.998h231l58 313h-20l-266 -296zM321 -0.00195312c-12 0 -14.333 4.66699 -7 14l1084 1447
c4 5.33301 8 9 12 11s9.66699 3 17 3h265c12 0 14.333 -4.66699 7 -14l-1084 -1447c-4 -5.33301 -8 -9 -12 -11s-9.66699 -3 -17 -3h-265zM341 581.998c-46 0 -90.168 1.50098 -132.501 4.50098s-79.5 6.83301 -111.5 11.5c-12 2 -16.667 8.66699 -14 20l41 161
c1.33301 6.66699 3.5 11.167 6.5 13.5s8.16699 3.16602 15.5 2.49902c40 -3.33301 77.667 -5.5 113 -6.5s68.666 -1.5 99.999 -1.5c52 0 91.5 6.16699 118.5 18.5s43.833 35.5 50.5 69.5l4 19c2 12 2.33301 23.5 1 34.5s-5.83301 20.5 -13.5 28.5s-19.334 14.333 -35.001 19
s-36.5 7 -62.5 7h-142c-12 0 -17 6 -15 18l22 119c1.33301 7.33301 3.33301 12.166 6 14.499s7.66699 3.5 15 3.5h137c26 0 47.833 1.5 65.5 4.5s32 7.5 43 13.5s19.333 13.5 25 22.5s9.5 19.5 11.5 31.5l2 11c5.33301 30.667 -4.16699 51 -28.5 61s-61.166 15 -110.499 15
c-36 0 -71.833 -0.666992 -107.5 -2s-70.5 -3 -104.5 -5c-11.333 -0.666992 -16.666 5 -15.999 17l20 158c0.666992 7.33301 2.33398 12.333 5.00098 15s7.66699 4.66699 15 6c32.667 4 69.5 7.66699 110.5 11s84.167 5 129.5 5c114.667 0 199.167 -17.333 253.5 -52
s75.166 -93 62.499 -175l-3 -18c-8 -54 -28.5 -96.167 -61.5 -126.5s-77.167 -52.166 -132.5 -65.499c46 -17.333 79.833 -44.166 101.5 -80.499s27.5 -81.166 17.5 -134.499l-4 -17c-10 -50.667 -25.667 -92.334 -47 -125.001s-48.666 -58.334 -81.999 -77.001
s-72.5 -31.5 -117.5 -38.5s-95.5 -10.5 -151.5 -10.5z" />
    <glyph glyph-name="questiondown" unicode="&#xbf;" horiz-adv-x="886" 
d="M421 586c1.33301 7.33301 3.5 12.1689 6.5 14.502s7.83301 3.5 14.5 3.5h202c12.667 0 19.334 -6 20.001 -18c0.666992 -7.33301 1.16699 -15.833 1.5 -25.5s-0.166992 -19.167 -1.5 -28.5c-2 -36.667 -6.5 -69.5 -13.5 -98.5s-17.667 -56.167 -32 -81.5
s-32.833 -50.166 -55.5 -74.499s-50.667 -50.5 -84 -78.5l-87 -70c-24.667 -20 -46 -38 -64 -54s-33.333 -31.333 -46 -46s-22.834 -29.5 -30.501 -44.5s-13.167 -31.5 -16.5 -49.5c-6.66699 -38 3.66602 -65.667 30.999 -83s75 -26 143 -26c38 0 75.667 1.66699 113 5
s78.666 8.66602 123.999 15.999c12 2 18 -3 18 -15l-3 -203c0 -7.33301 -1.16699 -12.5 -3.5 -15.5s-6.83301 -5.5 -13.5 -7.5c-46 -12.667 -97.167 -22 -153.5 -28s-113.833 -9 -172.5 -9c-68 0 -128 5.66699 -180 17s-94.667 29.333 -128 54s-56.666 56.167 -69.999 94.5
s-16 84.166 -8 137.499c6 37.333 14.667 70.333 26 99s26.5 56.167 45.5 82.5s42 52.666 69 78.999s59.167 55.5 96.5 87.5l100 88c28 24 50.167 44.5 66.5 61.5s29.333 33.833 39 50.5s17.334 35 23.001 55s11.5 45.333 17.5 76zM743 1071c12 0 17 -5.99707 15 -17.9971
l-51 -264c-1.33301 -7.33301 -3.33301 -12.333 -6 -15s-7.66699 -4.33398 -15 -5.00098l-224 -30c-12 -0.666992 -17 4.66602 -15 15.999l55 298c1.33301 7.33301 3.33301 12.166 6 14.499s7.66699 3.5 15 3.5h220z" />
    <glyph glyph-name="Agrave" unicode="&#xc0;" horiz-adv-x="1324" 
d="M-85 0c-11.333 0 -14.668 5.33301 -10.001 16l730 1443c3.33301 6 6.66602 10.167 9.99902 12.5s8.66602 3.5 15.999 3.5h329c12.667 0 19.334 -6 20.001 -18l196 -1439c0.666992 -12 -4.66602 -18 -15.999 -18h-254c-12.667 0 -19.334 6 -20.001 18l-32 282h-550
l-137 -284c-3.33301 -6 -6.66602 -10.167 -9.99902 -12.5s-8.66602 -3.5 -15.999 -3.5h-256zM779.998 1217l-329 -677h406zM846.998 1601c-6.66699 0 -11.833 0.999023 -15.5 2.99902s-7.83398 5 -12.501 9l-207 205c-3.33301 2.66699 -4.5 5.5 -3.5 8.5
s4.16699 4.5 9.5 4.5h262c6.66699 0 11.834 -0.666992 15.501 -2s7.16699 -4.66602 10.5 -9.99902l152 -204c6.66699 -9.33301 3.66699 -14 -9 -14h-202z" />
    <glyph glyph-name="Aacute" unicode="&#xc1;" horiz-adv-x="1324" 
d="M-85 0c-11.333 0 -14.668 5.33301 -10.001 16l730 1443c3.33301 6 6.66602 10.167 9.99902 12.5s8.66602 3.5 15.999 3.5h329c12.667 0 19.334 -6 20.001 -18l196 -1439c0.666992 -12 -4.66602 -18 -15.999 -18h-254c-12.667 0 -19.334 6 -20.001 18l-32 282h-550
l-137 -284c-3.33301 -6 -6.66602 -10.167 -9.99902 -12.5s-8.66602 -3.5 -15.999 -3.5h-256zM779.998 1217l-329 -677h406zM667.998 1601c-12.667 0 -14.333 4 -5 12l226 206c8.66699 8 19 12 31 12h274c5.33301 0 8.33301 -1 9 -3s-1.33301 -4.66699 -6 -8l-284 -208
c-10 -7.33301 -21 -11 -33 -11h-212z" />
    <glyph glyph-name="Acircumflex" unicode="&#xc2;" horiz-adv-x="1324" 
d="M-85 0c-11.333 0 -14.668 5.33301 -10.001 16l730 1443c3.33301 6 6.66602 10.167 9.99902 12.5s8.66602 3.5 15.999 3.5h329c12.667 0 19.334 -6 20.001 -18l196 -1439c0.666992 -12 -4.66602 -18 -15.999 -18h-254c-12.667 0 -19.334 6 -20.001 18l-32 282h-550
l-137 -284c-3.33301 -6 -6.66602 -10.167 -9.99902 -12.5s-8.66602 -3.5 -15.999 -3.5h-256zM779.998 1217l-329 -677h406zM1194 1615c7.33301 -9.33301 5.00098 -14 -6.99902 -14h-186c-7.33301 0 -13 1 -17 3s-8 5.66699 -12 11l-75 99h-20l-116 -101
c-8.66699 -8 -19.334 -12 -32.001 -12h-216c-5.33301 0 -8.33301 1 -9 3s1 4.66699 5 8l254 208c9.33301 7.33301 20 11 32 11h206c7.33301 0 13 -1 17 -3s8 -5.66699 12 -11z" />
    <glyph glyph-name="Atilde" unicode="&#xc3;" horiz-adv-x="1324" 
d="M-85 0c-11.333 0 -14.668 5.33301 -10.001 16l730 1443c3.33301 6 6.66602 10.167 9.99902 12.5s8.66602 3.5 15.999 3.5h329c12.667 0 19.334 -6 20.001 -18l196 -1439c0.666992 -12 -4.66602 -18 -15.999 -18h-254c-12.667 0 -19.334 6 -20.001 18l-32 282h-550
l-137 -284c-3.33301 -6 -6.66602 -10.167 -9.99902 -12.5s-8.66602 -3.5 -15.999 -3.5h-256zM779.998 1217l-329 -677h406zM504.998 1595c-11.333 0 -16.667 5.99805 -16 17.998c8.66699 62 22.167 111 40.5 147s38.833 63.167 61.5 81.5s46.5 30 71.5 35s48.5 7.5 70.5 7.5
c15.333 0 29.333 -0.833008 42 -2.5s25 -4.66699 37 -9s24.5 -10.166 37.5 -17.499s27.833 -16.666 44.5 -27.999l44 -30c12 -8 22 -14.333 30 -19s15 -8 21 -10s11.667 -3 17 -3c8 0 15.333 1 22 3s12.667 6.16699 18 12.5s10 15.5 14 27.5s8 28 12 48
c1.33301 7.33301 3.5 12.166 6.5 14.499s7.83301 3.5 14.5 3.5h149c11.333 0 16.666 -6 15.999 -18c-9.33301 -62 -23 -111 -41 -147s-38.5 -63.167 -61.5 -81.5s-47 -30 -72 -35s-48.5 -7.5 -70.5 -7.5c-15.333 0 -29.166 0.833008 -41.499 2.5s-24.5 4.5 -36.5 8.5
s-24.5 9.83301 -37.5 17.5s-28.167 17.5 -45.5 29.5l-43.5 30c-11.667 8 -21.667 14.333 -30 19s-15.5 8 -21.5 10s-11.333 3 -16 3c-8 0 -15.333 -1 -22 -3s-12.667 -6.33301 -18 -13s-10 -16 -14 -28s-8 -28 -12 -48c-1.33301 -7.33301 -3.5 -12.166 -6.5 -14.499
s-7.83301 -3.5 -14.5 -3.5h-149z" />
    <glyph glyph-name="Adieresis" unicode="&#xc4;" horiz-adv-x="1324" 
d="M-85 0c-11.333 0 -14.668 5.33301 -10.001 16l730 1443c3.33301 6 6.66602 10.167 9.99902 12.5s8.66602 3.5 15.999 3.5h329c12.667 0 19.334 -6 20.001 -18l196 -1439c0.666992 -12 -4.66602 -18 -15.999 -18h-254c-12.667 0 -19.334 6 -20.001 18l-32 282h-550
l-137 -284c-3.33301 -6 -6.66602 -10.167 -9.99902 -12.5s-8.66602 -3.5 -15.999 -3.5h-256zM779.998 1217l-329 -677h406zM546.998 1601c-12 0 -17 5.99707 -15 17.9971l39 207c1.33301 7.33301 3.33301 12.333 6 15s7.66699 4.33398 15 5.00098l219 31
c12 0.666992 17 -4.66602 15 -15.999l-46 -242c-1.33301 -7.33301 -3.33301 -12.166 -6 -14.499s-7.66699 -3.5 -15 -3.5h-212zM941.998 1601c-12 0 -17 5.99707 -15 17.9971l39 207c1.33301 7.33301 3.33301 12.333 6 15s7.66699 4.33398 15 5.00098l218 31
c12 0.666992 17 -4.66602 15 -15.999l-45 -242c-1.33301 -7.33301 -3.33301 -12.166 -6 -14.499s-7.66699 -3.5 -15 -3.5h-212z" />
    <glyph glyph-name="Aring" unicode="&#xc5;" horiz-adv-x="1317" 
d="M-89 0c-11.333 0 -14.6689 5.33496 -10.002 16.002l727 1438c-9.33301 17.333 -15.333 36.666 -18 57.999s-1.66699 43.666 3 66.999l1 9c5.33301 29.333 14.833 56.5 28.5 81.5s31.5 46.5 53.5 64.5s48.333 32.167 79 42.5s65.667 15.5 105 15.5
c38.667 0 71.334 -5.66699 98.001 -17s47.5 -26.666 62.5 -45.999s24.667 -41.833 29 -67.5s4.16602 -52.834 -0.500977 -81.501c-9.33301 -52 -30 -95.667 -62 -131l195 -1431c0.666992 -12 -4.66602 -18 -15.999 -18h-254c-12.667 0 -19.334 6 -20.001 18l-32 282h-550
l-137 -284c-3.33301 -6 -6.66602 -10.167 -9.99902 -12.5s-8.66602 -3.5 -15.999 -3.5h-256zM775.997 1217l-329 -677h406zM853.997 1654c-24 0 -44.5 -6.50098 -61.5 -19.501s-27.167 -29.833 -30.5 -50.5l-1 -7c-2.66699 -19.333 1.5 -35.5 12.5 -48.5
s29.167 -19.5 54.5 -19.5c24 0 44.5 6.5 61.5 19.5s27.5 30.833 31.5 53.5c2.66699 20.667 -1.5 37.834 -12.5 51.501s-29.167 20.5 -54.5 20.5z" />
    <glyph glyph-name="AE" unicode="&#xc6;" horiz-adv-x="1869" 
d="M767 0c-12 0 -17 5.99707 -15 17.9971l53 287h-465l-174 -290c-3.33301 -5.33301 -6.83301 -9.16602 -10.5 -11.499s-9.16699 -3.5 -16.5 -3.5h-254c-12 0 -15 5 -9 15l883 1445c3.33301 5.33301 6.83301 9.16602 10.5 11.499s9.16699 3.5 16.5 3.5h1118
c12 0 17 -6 15 -18l-40 -216c-1.33301 -7.33301 -3.33301 -12.166 -6 -14.499s-7.66699 -3.5 -15 -3.5h-617l-62 -334h494c12 0 17 -6 15 -18l-41 -215c-1.33301 -7.33301 -3.33301 -12.166 -6 -14.499s-7.66699 -3.5 -15 -3.5h-494l-71 -386h617c12 0 17 -6 15 -18
l-41 -216c-1.33301 -7.33301 -3.33301 -12.166 -6 -14.499s-7.66699 -3.5 -15 -3.5h-864zM891 1223l-409 -681h367l126 681h-84z" />
    <glyph glyph-name="Ccedilla" unicode="&#xc7;" horiz-adv-x="1185" 
d="M619 -28c-98.667 0 -184.669 11.832 -258.002 35.499s-131.666 62.667 -174.999 117s-71 125.666 -83 213.999s-6.33301 197.166 17 326.499l27 147c24 133.333 58.333 244.333 103 333s98.834 159.5 162.501 212.5s136.5 90.333 218.5 112s172.333 32.5 271 32.5
c68 0 132.5 -4 193.5 -12s111.833 -19 152.5 -33c12 -3.33301 15.667 -11 11 -23l-71 -202c-3.33301 -11.333 -11.333 -15.666 -24 -12.999c-47.333 10 -96.166 17 -146.499 21s-100.833 6 -151.5 6c-60 0 -114.333 -6.83301 -163 -20.5s-91.834 -37 -129.501 -70
s-69.667 -76.667 -96 -131s-47.166 -121.833 -62.499 -202.5l-29 -167c-15.333 -81.333 -20 -149.333 -14 -204s21.667 -98.5 47 -131.5s59.666 -56.333 102.999 -70s95 -20.5 155 -20.5c57.333 0 112.5 1.83301 165.5 5.5s104.5 8.83398 154.5 15.501
c12 2 17.667 -3 17 -15l-7 -205c-0.666992 -7.33301 -2.16699 -12.5 -4.5 -15.5s-6.83301 -5.16699 -13.5 -6.5c-46 -11.333 -101.5 -20.166 -166.5 -26.499s-132.833 -9.5 -203.5 -9.5zM317.998 -389.001c-12 0 -14.333 4.66602 -7 13.999l197 259c4 5.33301 8 9 12 11
s9.66699 3 17 3h181c11.333 0 14 -5 8 -15l-179 -257c-4 -5.33301 -7.83301 -9.16602 -11.5 -11.499s-9.16699 -3.5 -16.5 -3.5h-201z" />
    <glyph glyph-name="Egrave" unicode="&#xc8;" horiz-adv-x="1195" 
d="M780 1601c-6.66699 0 -11.833 0.999023 -15.5 2.99902s-7.83398 5 -12.501 9l-207 205c-3.33301 2.66699 -4.5 5.5 -3.5 8.5s4.16699 4.5 9.5 4.5h262c6.66699 0 11.834 -0.666992 15.501 -2s7.16699 -4.66602 10.5 -9.99902l152 -204
c6.66699 -9.33301 3.66699 -14 -9 -14h-202zM76.001 -0.000976562c-12 0 -17 5.99805 -15 17.998l266 1439c1.33301 7.33301 3.33301 12.166 6 14.499s7.66699 3.5 15 3.5h883c12 0 17 -6 15 -18l-41 -216c-1.33301 -7.33301 -3.33301 -12.166 -6 -14.499
s-7.66699 -3.5 -15 -3.5h-635l-62 -334h509c12 0 17 -6 15 -18l-41 -215c-1.33301 -7.33301 -3.33301 -12.166 -6 -14.499s-7.66699 -3.5 -15 -3.5h-509l-70 -386h635c12 0 17 -6 15 -18l-42 -216c-1.33301 -7.33301 -3.33301 -12.166 -6 -14.499s-7.66699 -3.5 -15 -3.5
h-881z" />
    <glyph glyph-name="Eacute" unicode="&#xc9;" horiz-adv-x="1195" 
d="M76 0c-12 0 -17 5.99805 -15 17.998l266 1439c1.33301 7.33301 3.33301 12.166 6 14.499s7.66699 3.5 15 3.5h883c12 0 17 -6 15 -18l-41 -216c-1.33301 -7.33301 -3.33301 -12.166 -6 -14.499s-7.66699 -3.5 -15 -3.5h-635l-62 -334h509c12 0 17 -6 15 -18l-41 -215
c-1.33301 -7.33301 -3.33301 -12.166 -6 -14.499s-7.66699 -3.5 -15 -3.5h-509l-70 -386h635c12 0 17 -6 15 -18l-42 -216c-1.33301 -7.33301 -3.33301 -12.166 -6 -14.499s-7.66699 -3.5 -15 -3.5h-881zM640 1601c-12.667 0 -14.333 4 -5 12l226 206c8.66699 8 19 12 31 12
h274c5.33301 0 8.33301 -1 9 -3s-1.33301 -4.66699 -6 -8l-284 -208c-10 -7.33301 -21 -11 -33 -11h-212z" />
    <glyph glyph-name="Ecircumflex" unicode="&#xca;" horiz-adv-x="1195" 
d="M1140 1615c7.33301 -9.33301 5.00098 -14 -6.99902 -14h-186c-7.33301 0 -13 1 -17 3s-8 5.66699 -12 11l-75 99h-20l-116 -101c-8.66699 -8 -19.334 -12 -32.001 -12h-216c-5.33301 0 -8.33301 1 -9 3s1 4.66699 5 8l254 208c9.33301 7.33301 20 11 32 11h206
c7.33301 0 13 -1 17 -3s8 -5.66699 12 -11zM76.001 0c-12 0 -17 5.99805 -15 17.998l266 1439c1.33301 7.33301 3.33301 12.166 6 14.499s7.66699 3.5 15 3.5h883c12 0 17 -6 15 -18l-41 -216c-1.33301 -7.33301 -3.33301 -12.166 -6 -14.499s-7.66699 -3.5 -15 -3.5h-635
l-62 -334h509c12 0 17 -6 15 -18l-41 -215c-1.33301 -7.33301 -3.33301 -12.166 -6 -14.499s-7.66699 -3.5 -15 -3.5h-509l-70 -386h635c12 0 17 -6 15 -18l-42 -216c-1.33301 -7.33301 -3.33301 -12.166 -6 -14.499s-7.66699 -3.5 -15 -3.5h-881z" />
    <glyph glyph-name="Edieresis" unicode="&#xcb;" horiz-adv-x="1195" 
d="M76 0c-12 0 -17 5.99805 -15 17.998l266 1439c1.33301 7.33301 3.33301 12.166 6 14.499s7.66699 3.5 15 3.5h883c12 0 17 -6 15 -18l-41 -216c-1.33301 -7.33301 -3.33301 -12.166 -6 -14.499s-7.66699 -3.5 -15 -3.5h-635l-62 -334h509c12 0 17 -6 15 -18l-41 -215
c-1.33301 -7.33301 -3.33301 -12.166 -6 -14.499s-7.66699 -3.5 -15 -3.5h-509l-70 -386h635c12 0 17 -6 15 -18l-42 -216c-1.33301 -7.33301 -3.33301 -12.166 -6 -14.499s-7.66699 -3.5 -15 -3.5h-881zM492 1601c-12 0 -17 5.99707 -15 17.9971l39 207
c1.33301 7.33301 3.33301 12.333 6 15s7.66699 4.33398 15 5.00098l219 31c12 0.666992 17 -4.66602 15 -15.999l-46 -242c-1.33301 -7.33301 -3.33301 -12.166 -6 -14.499s-7.66699 -3.5 -15 -3.5h-212zM887 1601c-12 0 -17 5.99707 -15 17.9971l39 207
c1.33301 7.33301 3.33301 12.333 6 15s7.66699 4.33398 15 5.00098l218 31c12 0.666992 17 -4.66602 15 -15.999l-45 -242c-1.33301 -7.33301 -3.33301 -12.166 -6 -14.499s-7.66699 -3.5 -15 -3.5h-212z" />
    <glyph glyph-name="Igrave" unicode="&#xcc;" horiz-adv-x="614" 
d="M77 0c-12 0 -17 6 -15 18l266 1439c1.33301 7.33301 3.33301 12.166 6 14.499s7.66699 3.5 15 3.5h228c12 0 17 -6 15 -18l-266 -1439c-1.33301 -7.33301 -3.33301 -12.166 -6 -14.499s-7.66699 -3.5 -15 -3.5h-228zM470 1601c-6.66699 0 -11.833 0.999023 -15.5 2.99902
s-7.83398 5 -12.501 9l-207 205c-3.33301 2.66699 -4.5 5.5 -3.5 8.5s4.16699 4.5 9.5 4.5h262c6.66699 0 11.834 -0.666992 15.501 -2s7.16699 -4.66602 10.5 -9.99902l152 -204c6.66699 -9.33301 3.66699 -14 -9 -14h-202z" />
    <glyph glyph-name="Iacute" unicode="&#xcd;" horiz-adv-x="613" 
d="M76 0c-12 0 -17 6 -15 18l266 1439c1.33301 7.33301 3.33301 12.166 6 14.499s7.66699 3.5 15 3.5h228c12 0 17 -6 15 -18l-266 -1439c-1.33301 -7.33301 -3.33301 -12.166 -6 -14.499s-7.66699 -3.5 -15 -3.5h-228zM242 1601c-12.667 0 -14.333 4 -5 12l226 206
c8.66699 8 19 12 31 12h274c5.33301 0 8.33301 -1 9 -3s-1.33301 -4.66699 -6 -8l-284 -208c-10 -7.33301 -21 -11 -33 -11h-212z" />
    <glyph glyph-name="Icircumflex" unicode="&#xce;" horiz-adv-x="614" 
d="M77 0c-12 0 -17 6 -15 18l266 1439c1.33301 7.33301 3.33301 12.166 6 14.499s7.66699 3.5 15 3.5h228c12 0 17 -6 15 -18l-266 -1439c-1.33301 -7.33301 -3.33301 -12.166 -6 -14.499s-7.66699 -3.5 -15 -3.5h-228zM837 1615c7.33301 -9.33301 5.00098 -14 -6.99902 -14
h-186c-7.33301 0 -13 1 -17 3s-8 5.66699 -12 11l-75 99h-20l-116 -101c-8.66699 -8 -19.334 -12 -32.001 -12h-216c-5.33301 0 -8.33301 1 -9 3s1 4.66699 5 8l254 208c9.33301 7.33301 20 11 32 11h206c7.33301 0 13 -1 17 -3s8 -5.66699 12 -11z" />
    <glyph glyph-name="Idieresis" unicode="&#xcf;" horiz-adv-x="614" 
d="M77 0c-12 0 -17 6 -15 18l266 1439c1.33301 7.33301 3.33301 12.166 6 14.499s7.66699 3.5 15 3.5h228c12 0 17 -6 15 -18l-266 -1439c-1.33301 -7.33301 -3.33301 -12.166 -6 -14.499s-7.66699 -3.5 -15 -3.5h-228zM184 1601c-12 0 -17 5.99707 -15 17.9971l39 207
c1.33301 7.33301 3.33301 12.333 6 15s7.66699 4.33398 15 5.00098l219 31c12 0.666992 17 -4.66602 15 -15.999l-46 -242c-1.33301 -7.33301 -3.33301 -12.166 -6 -14.499s-7.66699 -3.5 -15 -3.5h-212zM579 1601c-12 0 -17 5.99707 -15 17.9971l39 207
c1.33301 7.33301 3.33301 12.333 6 15s7.66699 4.33398 15 5.00098l218 31c12 0.666992 17 -4.66602 15 -15.999l-45 -242c-1.33301 -7.33301 -3.33301 -12.166 -6 -14.499s-7.66699 -3.5 -15 -3.5h-212z" />
    <glyph glyph-name="Eth" unicode="&#xd0;" horiz-adv-x="1432" 
d="M444 -16c-22.667 0 -48.168 0.333984 -76.501 1.00098s-58 1.5 -89 2.5s-62.5 2.33301 -94.5 4s-62.667 3.83398 -92 6.50098c-12 0.666992 -17 7.33398 -15 20.001l116 628h-147c-12 0 -17 6 -15 18l38 207c1.33301 7.33301 3.33301 12.166 6 14.499s7.66699 3.5 15 3.5
h148l106 568c1.33301 7.33301 3.33301 12.166 6 14.499s7.66699 3.83301 15 4.5c26.667 2 55.667 3.83301 87 5.5s62.333 3 93 4s60 1.83301 88 2.5s51.667 1 71 1c74 0 143.833 -3.66699 209.5 -11s125.5 -20.5 179.5 -39.5s101.333 -45 142 -78s72.667 -75.167 96 -126.5
s37.166 -113 41.499 -185s-2.5 -156.667 -20.5 -254l-21 -113c-20 -106.667 -44.667 -198 -74 -274s-63.5 -139.833 -102.5 -191.5s-83 -92.834 -132 -123.501s-103.167 -54.167 -162.5 -70.5s-123.666 -26.833 -192.999 -31.5s-143.666 -7 -222.999 -7zM722.999 1252
c-10 0 -21.667 -0.166016 -35 -0.499023l-41 -1c-14 -0.333008 -27.833 -1 -41.5 -2s-25.834 -2.16699 -36.501 -3.5l-66 -356h234c12 0 17 -6 15 -18l-38 -207c-1.33301 -7.33301 -3.33301 -12.166 -6 -14.499s-7.66699 -3.5 -15 -3.5h-235l-77 -417
c10.667 -1.33301 23.334 -2.5 38.001 -3.5s29.834 -1.83301 45.501 -2.5s30.834 -1.16699 45.501 -1.5s27 -0.5 37 -0.5c72.667 0 137.167 6 193.5 18s105.5 34.667 147.5 68s77.333 79.666 106 138.999s52 136.666 70 231.999l23 119
c17.333 94.667 22.166 171.5 14.499 230.5s-27.167 105.167 -58.5 138.5s-73.833 56 -127.5 68s-117.834 18 -192.501 18z" />
    <glyph glyph-name="Ntilde" unicode="&#xd1;" horiz-adv-x="1483" 
d="M579 1595c-11.333 0 -16.667 5.99805 -16 17.998c8.66699 62 22.167 111 40.5 147s38.833 63.167 61.5 81.5s46.5 30 71.5 35s48.5 7.5 70.5 7.5c15.333 0 29.333 -0.833008 42 -2.5s25 -4.66699 37 -9s24.5 -10.166 37.5 -17.499s27.833 -16.666 44.5 -27.999l44 -30
c12 -8 22 -14.333 30 -19s15 -8 21 -10s11.667 -3 17 -3c8 0 15.333 1 22 3s12.667 6.16699 18 12.5s10 15.5 14 27.5s8 28 12 48c1.33301 7.33301 3.5 12.166 6.5 14.499s7.83301 3.5 14.5 3.5h149c11.333 0 16.666 -6 15.999 -18c-9.33301 -62 -23 -111 -41 -147
s-38.5 -63.167 -61.5 -81.5s-47 -30 -72 -35s-48.5 -7.5 -70.5 -7.5c-15.333 0 -29.166 0.833008 -41.499 2.5s-24.5 4.5 -36.5 8.5s-24.5 9.83301 -37.5 17.5s-28.167 17.5 -45.5 29.5l-43.5 30c-11.667 8 -21.667 14.333 -30 19s-15.5 8 -21.5 10s-11.333 3 -16 3
c-8 0 -15.333 -1 -22 -3s-12.667 -6.33301 -18 -13s-10 -16 -14 -28s-8 -28 -12 -48c-1.33301 -7.33301 -3.5 -12.166 -6.5 -14.499s-7.83301 -3.5 -14.5 -3.5h-149zM75.999 -0.00195312c-12 0 -16.9961 6 -14.9961 18l266 1439c1.33301 7.33301 3.33301 12.166 6 14.499
s7.66699 3.5 15 3.5h240c7.33301 0 12.666 -1.16699 15.999 -3.5s6.33301 -6.83301 9 -13.5l349 -894c11.333 -29.333 19.666 -53.833 24.999 -73.5s8.66602 -29.5 9.99902 -29.5l185 996c1.33301 7.33301 3.33301 12.166 6 14.499s7.66699 3.5 15 3.5h230
c12 0 17 -6 15 -18l-268 -1439c-1.33301 -7.33301 -3.33301 -12.166 -6 -14.499s-7.66699 -3.5 -15 -3.5h-246c-12.667 0 -20.667 5.66699 -24 17l-342 889c-12.667 32 -21.334 58.167 -26.001 78.5s-7.66699 30.5 -9 30.5l-187 -997
c-1.33301 -7.33301 -3.33301 -12.166 -6 -14.499s-7.66699 -3.5 -15 -3.5h-228z" />
    <glyph glyph-name="Ograve" unicode="&#xd2;" horiz-adv-x="1435" 
d="M861 1601c-6.66699 0 -11.833 0.999023 -15.5 2.99902s-7.83398 5 -12.501 9l-207 205c-3.33301 2.66699 -4.5 5.5 -3.5 8.5s4.16699 4.5 9.5 4.5h262c6.66699 0 11.834 -0.666992 15.501 -2s7.16699 -4.66602 10.5 -9.99902l152 -204
c6.66699 -9.33301 3.66699 -14 -9 -14h-202zM596.001 -28.001c-96 0 -178.668 13.1689 -248.001 39.502s-124.333 67.666 -165 123.999s-66.167 128.166 -76.5 215.499s-4.5 192 17.5 314l27 147c25.333 138 59 251.667 101 341s92.833 159.833 152.5 211.5
s128.834 87.5 207.501 107.5s167.667 30 267 30c96 0 178.5 -13 247.5 -39s123.833 -67 164.5 -123s66.167 -127.667 76.5 -215s4.5 -192.333 -17.5 -315l-26 -147c-25.333 -138 -58.833 -251.667 -100.5 -341s-92.5 -159.833 -152.5 -211.5s-129.333 -87.667 -208 -108
s-167.667 -30.5 -267 -30.5zM829 1238c-54 0 -102.995 -6.66504 -146.995 -19.998s-83 -36 -117 -68s-63.333 -74.667 -88 -128s-44.334 -120 -59.001 -200l-29 -167c-15.333 -80.667 -21.333 -147.834 -18 -201.501s15.5 -96.5 36.5 -128.5s51.167 -54.667 90.5 -68
s87.666 -20 144.999 -20c54.667 0 104.167 6.83301 148.5 20.5s83.666 36.667 117.999 69s63.666 75.166 87.999 128.499s43.5 120 57.5 200l32 165c14.667 80 20.5 146.833 17.5 200.5s-15.333 96.5 -37 128.5s-52.334 54.833 -92.001 68.5s-88.5 20.5 -146.5 20.5z" />
    <glyph glyph-name="Oacute" unicode="&#xd3;" horiz-adv-x="1435" 
d="M692 1601c-12.667 0 -14.333 4 -5 12l226 206c8.66699 8 19 12 31 12h274c5.33301 0 8.33301 -1 9 -3s-1.33301 -4.66699 -6 -8l-284 -208c-10 -7.33301 -21 -11 -33 -11h-212zM596.001 -28c-96 0 -178.668 13.1689 -248.001 39.502s-124.333 67.666 -165 123.999
s-66.167 128.166 -76.5 215.499s-4.5 192 17.5 314l27 147c25.333 138 59 251.667 101 341s92.833 159.833 152.5 211.5s128.834 87.5 207.501 107.5s167.667 30 267 30c96 0 178.5 -13 247.5 -39s123.833 -67 164.5 -123s66.167 -127.667 76.5 -215
s4.5 -192.333 -17.5 -315l-26 -147c-25.333 -138 -58.833 -251.667 -100.5 -341s-92.5 -159.833 -152.5 -211.5s-129.333 -87.667 -208 -108s-167.667 -30.5 -267 -30.5zM829 1238c-54 0 -102.995 -6.66504 -146.995 -19.998s-83 -36 -117 -68s-63.333 -74.667 -88 -128
s-44.334 -120 -59.001 -200l-29 -167c-15.333 -80.667 -21.333 -147.834 -18 -201.501s15.5 -96.5 36.5 -128.5s51.167 -54.667 90.5 -68s87.666 -20 144.999 -20c54.667 0 104.167 6.83301 148.5 20.5s83.666 36.667 117.999 69s63.666 75.166 87.999 128.499
s43.5 120 57.5 200l32 165c14.667 80 20.5 146.833 17.5 200.5s-15.333 96.5 -37 128.5s-52.334 54.833 -92.001 68.5s-88.5 20.5 -146.5 20.5z" />
    <glyph glyph-name="Ocircumflex" unicode="&#xd4;" horiz-adv-x="1435" 
d="M1241 1615c7.33301 -9.33301 5.00098 -14 -6.99902 -14h-186c-7.33301 0 -13 1 -17 3s-8 5.66699 -12 11l-75 99h-20l-116 -101c-8.66699 -8 -19.334 -12 -32.001 -12h-216c-5.33301 0 -8.33301 1 -9 3s1 4.66699 5 8l254 208c9.33301 7.33301 20 11 32 11h206
c7.33301 0 13 -1 17 -3s8 -5.66699 12 -11zM596.001 -28c-96 0 -178.668 13.1689 -248.001 39.502s-124.333 67.666 -165 123.999s-66.167 128.166 -76.5 215.499s-4.5 192 17.5 314l27 147c25.333 138 59 251.667 101 341s92.833 159.833 152.5 211.5
s128.834 87.5 207.501 107.5s167.667 30 267 30c96 0 178.5 -13 247.5 -39s123.833 -67 164.5 -123s66.167 -127.667 76.5 -215s4.5 -192.333 -17.5 -315l-26 -147c-25.333 -138 -58.833 -251.667 -100.5 -341s-92.5 -159.833 -152.5 -211.5s-129.333 -87.667 -208 -108
s-167.667 -30.5 -267 -30.5zM829 1238c-54 0 -102.995 -6.66504 -146.995 -19.998s-83 -36 -117 -68s-63.333 -74.667 -88 -128s-44.334 -120 -59.001 -200l-29 -167c-15.333 -80.667 -21.333 -147.834 -18 -201.501s15.5 -96.5 36.5 -128.5s51.167 -54.667 90.5 -68
s87.666 -20 144.999 -20c54.667 0 104.167 6.83301 148.5 20.5s83.666 36.667 117.999 69s63.666 75.166 87.999 128.499s43.5 120 57.5 200l32 165c14.667 80 20.5 146.833 17.5 200.5s-15.333 96.5 -37 128.5s-52.334 54.833 -92.001 68.5s-88.5 20.5 -146.5 20.5z" />
    <glyph glyph-name="Otilde" unicode="&#xd5;" horiz-adv-x="1435" 
d="M596 -28c-96 0 -178.668 13.1689 -248.001 39.502s-124.333 67.666 -165 123.999s-66.167 128.166 -76.5 215.499s-4.5 192 17.5 314l27 147c25.333 138 59 251.667 101 341s92.833 159.833 152.5 211.5s128.834 87.5 207.501 107.5s167.667 30 267 30
c96 0 178.5 -13 247.5 -39s123.833 -67 164.5 -123s66.167 -127.667 76.5 -215s4.5 -192.333 -17.5 -315l-26 -147c-25.333 -138 -58.833 -251.667 -100.5 -341s-92.5 -159.833 -152.5 -211.5s-129.333 -87.667 -208 -108s-167.667 -30.5 -267 -30.5zM828.999 1238
c-54 0 -102.995 -6.66504 -146.995 -19.998s-83 -36 -117 -68s-63.333 -74.667 -88 -128s-44.334 -120 -59.001 -200l-29 -167c-15.333 -80.667 -21.333 -147.834 -18 -201.501s15.5 -96.5 36.5 -128.5s51.167 -54.667 90.5 -68s87.666 -20 144.999 -20
c54.667 0 104.167 6.83301 148.5 20.5s83.666 36.667 117.999 69s63.666 75.166 87.999 128.499s43.5 120 57.5 200l32 165c14.667 80 20.5 146.833 17.5 200.5s-15.333 96.5 -37 128.5s-52.334 54.833 -92.001 68.5s-88.5 20.5 -146.5 20.5zM555.004 1595
c-11.333 0 -16.667 5.99805 -16 17.998c8.66699 62 22.167 111 40.5 147s38.833 63.167 61.5 81.5s46.5 30 71.5 35s48.5 7.5 70.5 7.5c15.333 0 29.333 -0.833008 42 -2.5s25 -4.66699 37 -9s24.5 -10.166 37.5 -17.499s27.833 -16.666 44.5 -27.999l44 -30
c12 -8 22 -14.333 30 -19s15 -8 21 -10s11.667 -3 17 -3c8 0 15.333 1 22 3s12.667 6.16699 18 12.5s10 15.5 14 27.5s8 28 12 48c1.33301 7.33301 3.5 12.166 6.5 14.499s7.83301 3.5 14.5 3.5h149c11.333 0 16.666 -6 15.999 -18c-9.33301 -62 -23 -111 -41 -147
s-38.5 -63.167 -61.5 -81.5s-47 -30 -72 -35s-48.5 -7.5 -70.5 -7.5c-15.333 0 -29.166 0.833008 -41.499 2.5s-24.5 4.5 -36.5 8.5s-24.5 9.83301 -37.5 17.5s-28.167 17.5 -45.5 29.5l-43.5 30c-11.667 8 -21.667 14.333 -30 19s-15.5 8 -21.5 10s-11.333 3 -16 3
c-8 0 -15.333 -1 -22 -3s-12.667 -6.33301 -18 -13s-10 -16 -14 -28s-8 -28 -12 -48c-1.33301 -7.33301 -3.5 -12.166 -6.5 -14.499s-7.83301 -3.5 -14.5 -3.5h-149z" />
    <glyph glyph-name="Odieresis" unicode="&#xd6;" horiz-adv-x="1435" 
d="M596 -28c-96 0 -178.668 13.1689 -248.001 39.502s-124.333 67.666 -165 123.999s-66.167 128.166 -76.5 215.499s-4.5 192 17.5 314l27 147c25.333 138 59 251.667 101 341s92.833 159.833 152.5 211.5s128.834 87.5 207.501 107.5s167.667 30 267 30
c96 0 178.5 -13 247.5 -39s123.833 -67 164.5 -123s66.167 -127.667 76.5 -215s4.5 -192.333 -17.5 -315l-26 -147c-25.333 -138 -58.833 -251.667 -100.5 -341s-92.5 -159.833 -152.5 -211.5s-129.333 -87.667 -208 -108s-167.667 -30.5 -267 -30.5zM828.999 1238
c-54 0 -102.995 -6.66504 -146.995 -19.998s-83 -36 -117 -68s-63.333 -74.667 -88 -128s-44.334 -120 -59.001 -200l-29 -167c-15.333 -80.667 -21.333 -147.834 -18 -201.501s15.5 -96.5 36.5 -128.5s51.167 -54.667 90.5 -68s87.666 -20 144.999 -20
c54.667 0 104.167 6.83301 148.5 20.5s83.666 36.667 117.999 69s63.666 75.166 87.999 128.499s43.5 120 57.5 200l32 165c14.667 80 20.5 146.833 17.5 200.5s-15.333 96.5 -37 128.5s-52.334 54.833 -92.001 68.5s-88.5 20.5 -146.5 20.5zM593.004 1601
c-12 0 -17 5.99707 -15 17.9971l39 207c1.33301 7.33301 3.33301 12.333 6 15s7.66699 4.33398 15 5.00098l219 31c12 0.666992 17 -4.66602 15 -15.999l-46 -242c-1.33301 -7.33301 -3.33301 -12.166 -6 -14.499s-7.66699 -3.5 -15 -3.5h-212zM988.004 1601
c-12 0 -17 5.99707 -15 17.9971l39 207c1.33301 7.33301 3.33301 12.333 6 15s7.66699 4.33398 15 5.00098l218 31c12 0.666992 17 -4.66602 15 -15.999l-45 -242c-1.33301 -7.33301 -3.33301 -12.166 -6 -14.499s-7.66699 -3.5 -15 -3.5h-212z" />
    <glyph glyph-name="multiply" unicode="&#xd7;" horiz-adv-x="1031" 
d="M183 1009c-7.33301 9.33301 -6.33301 18 3 26l177 147c9.33301 8 17.666 7.33301 24.999 -2l185 -228l276 233c9.33301 8 17.666 7.33301 24.999 -2l118 -144c7.33301 -9.33301 6.33301 -18 -3 -26l-276 -233l187 -228c7.33301 -9.33301 6.33301 -18 -3 -26l-175 -148
c-9.33301 -8 -17.666 -7.33301 -24.999 2l-187 228l-270 -228c-9.33301 -8 -17.666 -7.33301 -24.999 2l-118 145c-7.33301 9.33301 -6.33301 18 3 26l270 227z" />
    <glyph glyph-name="Oslash" unicode="&#xd8;" horiz-adv-x="1410" 
d="M136 240c-17.333 56.667 -26.1699 122.831 -26.5029 198.498s8.83398 162.834 27.501 261.501l19 112c24 130.667 57.167 240.167 99.5 328.5s93.166 159.166 152.499 212.499s127 91.5 203 114.5s160 34.5 252 34.5c74.667 0 140.834 -8.16699 198.501 -24.5
s106.834 -42.166 147.501 -77.499l58 62c8 8.66699 18 13 30 13h215c11.333 0 13.333 -4.33301 6 -13l-206 -223c18 -56.667 27.333 -123.167 28 -199.5s-8.33301 -164.5 -27 -264.5l-21 -112c-24 -131.333 -56.833 -241.166 -98.5 -329.499s-92 -159.333 -151 -213
s-126.667 -91.834 -203 -114.501s-160.833 -34 -253.5 -34c-75.333 0 -142.166 8.33301 -200.499 25s-107.833 43.334 -148.5 80.001l-59 -64c-4.66699 -5.33301 -9 -8.83301 -13 -10.5s-9.66699 -2.5 -17 -2.5h-216c-11.333 -0 -13.333 4.33301 -6 13zM1056 819.997
c5.33301 32 9.66504 61.332 12.998 87.999s5.33301 51.667 6 75l-640 -692c21.333 -19.333 48.333 -33.166 81 -41.499s71.334 -12.5 116.001 -12.5c52 0 98.833 6.83301 140.5 20.5s78.834 36.5 111.501 68.5s60.667 74.833 84 128.5s42.333 120.5 57 200.5zM816.995 1238
c-52 0 -98.834 -6.66699 -140.501 -20s-78.667 -36 -111 -68s-60.333 -74.667 -84 -128s-42.834 -120 -57.501 -200l-31 -167c-5.33301 -30 -9.66602 -58.167 -12.999 -84.5s-5.33301 -50.833 -6 -73.5l638 690c-21.333 18 -48.166 31 -80.499 39s-70.5 12 -114.5 12z" />
    <glyph glyph-name="Ugrave" unicode="&#xd9;" horiz-adv-x="1473" 
d="M872 1601c-6.66699 0 -11.833 0.999023 -15.5 2.99902s-7.83398 5 -12.501 9l-207 205c-3.33301 2.66699 -4.5 5.5 -3.5 8.5s4.16699 4.5 9.5 4.5h262c6.66699 0 11.834 -0.666992 15.501 -2s7.16699 -4.66602 10.5 -9.99902l152 -204
c6.66699 -9.33301 3.66699 -14 -9 -14h-202zM616.001 -28.001c-88 0 -165.67 10.0029 -233.003 30.0029s-122.166 51.167 -164.499 93.5s-71 96.333 -86 162s-13.833 144.167 3.5 235.5l179 964c1.33301 7.33301 3.33301 12.166 6 14.499s7.66699 3.5 15 3.5h229
c12 0 17 -6 15 -18l-166 -903c-11.333 -57.333 -15.5 -106.333 -12.5 -147s14 -74.334 33 -101.001s47.167 -46.167 84.5 -58.5s85 -18.5 143 -18.5s108 6.16699 150 18.5s78 31.666 108 57.999s54.333 60 73 101s33.334 90.167 44.001 147.5l168 903
c1.33301 7.33301 3.33301 12.166 6 14.499s7.66699 3.5 15 3.5h226c12 0 17 -6 15 -18l-179 -964c-19.333 -104 -48.166 -189.5 -86.499 -256.5s-85.833 -120.167 -142.5 -159.5s-122 -66.666 -196 -81.999s-156.333 -23 -247 -23z" />
    <glyph glyph-name="Uacute" unicode="&#xda;" horiz-adv-x="1473" 
d="M616 -28c-88 0 -165.67 10.0029 -233.003 30.0029s-122.166 51.167 -164.499 93.5s-71 96.333 -86 162s-13.833 144.167 3.5 235.5l179 964c1.33301 7.33301 3.33301 12.166 6 14.499s7.66699 3.5 15 3.5h229c12 0 17 -6 15 -18l-166 -903
c-11.333 -57.333 -15.5 -106.333 -12.5 -147s14 -74.334 33 -101.001s47.167 -46.167 84.5 -58.5s85 -18.5 143 -18.5s108 6.16699 150 18.5s78 31.666 108 57.999s54.333 60 73 101s33.334 90.167 44.001 147.5l168 903c1.33301 7.33301 3.33301 12.166 6 14.499
s7.66699 3.5 15 3.5h226c12 0 17 -6 15 -18l-179 -964c-19.333 -104 -48.166 -189.5 -86.499 -256.5s-85.833 -120.167 -142.5 -159.5s-122 -66.666 -196 -81.999s-156.333 -23 -247 -23zM771.997 1601c-12.667 0 -14.333 4 -5 12l226 206c8.66699 8 19 12 31 12h274
c5.33301 0 8.33301 -1 9 -3s-1.33301 -4.66699 -6 -8l-284 -208c-10 -7.33301 -21 -11 -33 -11h-212z" />
    <glyph glyph-name="Ucircumflex" unicode="&#xdb;" horiz-adv-x="1473" 
d="M1262 1615c7.33301 -9.33301 5.00098 -14 -6.99902 -14h-186c-7.33301 0 -13 1 -17 3s-8 5.66699 -12 11l-75 99h-20l-116 -101c-8.66699 -8 -19.334 -12 -32.001 -12h-216c-5.33301 0 -8.33301 1 -9 3s1 4.66699 5 8l254 208c9.33301 7.33301 20 11 32 11h206
c7.33301 0 13 -1 17 -3s8 -5.66699 12 -11zM616.001 -28c-88 0 -165.67 10.0029 -233.003 30.0029s-122.166 51.167 -164.499 93.5s-71 96.333 -86 162s-13.833 144.167 3.5 235.5l179 964c1.33301 7.33301 3.33301 12.166 6 14.499s7.66699 3.5 15 3.5h229
c12 0 17 -6 15 -18l-166 -903c-11.333 -57.333 -15.5 -106.333 -12.5 -147s14 -74.334 33 -101.001s47.167 -46.167 84.5 -58.5s85 -18.5 143 -18.5s108 6.16699 150 18.5s78 31.666 108 57.999s54.333 60 73 101s33.334 90.167 44.001 147.5l168 903
c1.33301 7.33301 3.33301 12.166 6 14.499s7.66699 3.5 15 3.5h226c12 0 17 -6 15 -18l-179 -964c-19.333 -104 -48.166 -189.5 -86.499 -256.5s-85.833 -120.167 -142.5 -159.5s-122 -66.666 -196 -81.999s-156.333 -23 -247 -23z" />
    <glyph glyph-name="Udieresis" unicode="&#xdc;" horiz-adv-x="1473" 
d="M616 -28c-88 0 -165.67 10.0029 -233.003 30.0029s-122.166 51.167 -164.499 93.5s-71 96.333 -86 162s-13.833 144.167 3.5 235.5l179 964c1.33301 7.33301 3.33301 12.166 6 14.499s7.66699 3.5 15 3.5h229c12 0 17 -6 15 -18l-166 -903
c-11.333 -57.333 -15.5 -106.333 -12.5 -147s14 -74.334 33 -101.001s47.167 -46.167 84.5 -58.5s85 -18.5 143 -18.5s108 6.16699 150 18.5s78 31.666 108 57.999s54.333 60 73 101s33.334 90.167 44.001 147.5l168 903c1.33301 7.33301 3.33301 12.166 6 14.499
s7.66699 3.5 15 3.5h226c12 0 17 -6 15 -18l-179 -964c-19.333 -104 -48.166 -189.5 -86.499 -256.5s-85.833 -120.167 -142.5 -159.5s-122 -66.666 -196 -81.999s-156.333 -23 -247 -23zM612.997 1601c-12 0 -17 5.99707 -15 17.9971l39 207
c1.33301 7.33301 3.33301 12.333 6 15s7.66699 4.33398 15 5.00098l219 31c12 0.666992 17 -4.66602 15 -15.999l-46 -242c-1.33301 -7.33301 -3.33301 -12.166 -6 -14.499s-7.66699 -3.5 -15 -3.5h-212zM1008 1601c-12 0 -17 5.99707 -15 17.9971l39 207
c1.33301 7.33301 3.33301 12.333 6 15s7.66699 4.33398 15 5.00098l218 31c12 0.666992 17 -4.66602 15 -15.999l-45 -242c-1.33301 -7.33301 -3.33301 -12.166 -6 -14.499s-7.66699 -3.5 -15 -3.5h-212z" />
    <glyph glyph-name="Yacute" unicode="&#xdd;" horiz-adv-x="1205" 
d="M367 0c-12 0 -16.999 6 -14.999 18l87 477l-293 963c-2.66699 11.333 1.66602 17 12.999 17h251c7.33301 0 12.5 -1.16699 15.5 -3.5s5.5 -6.83301 7.5 -13.5l184 -668l430 670c4 5.33301 7.83301 9.16602 11.5 11.499s9.16699 3.5 16.5 3.5h271c11.333 0 14 -5 8 -15
l-649 -964l-89 -478c-1.33301 -7.33301 -3.33301 -12.166 -6 -14.499s-7.66699 -3.5 -15 -3.5h-228zM608.001 1601c-12.667 0 -14.333 4 -5 12l226 206c8.66699 8 19 12 31 12h274c5.33301 0 8.33301 -1 9 -3s-1.33301 -4.66699 -6 -8l-284 -208
c-10 -7.33301 -21 -11 -33 -11h-212z" />
    <glyph glyph-name="Thorn" unicode="&#xde;" horiz-adv-x="1329" 
d="M76 0c-12 0 -17.0029 5.99902 -15.0029 17.999l209 1129l22 118l36 192c1.33301 7.33301 3.33301 12.166 6 14.499s7.66699 3.5 15 3.5h229c12 0 17 -6 15 -18l-34 -181c32 1.33301 62.5 2.16602 91.5 2.49902s54.833 0.5 77.5 0.5
c118.667 0 217.834 -6.66699 297.501 -20s141.834 -36.5 186.501 -69.5s73 -77.833 85 -134.5s10 -128 -6 -214l-19 -102c-12 -62.667 -26.167 -117 -42.5 -163s-37.166 -85.167 -62.499 -117.5s-55.833 -58.666 -91.5 -78.999s-78.334 -36.166 -128.001 -47.499
s-107.5 -19.166 -173.5 -23.499s-141.667 -6.5 -227 -6.5h-42.5c-16.333 0 -32.666 0.166992 -48.999 0.5s-31.5 0.666016 -45.5 0.999023s-24.667 0.833008 -32 1.5l-52 -287c-1.33301 -7.33301 -3.33301 -12.166 -6 -14.499s-7.66699 -3.5 -15 -3.5h-229zM686.997 1042
c-11.333 0 -24.665 -0.166992 -39.998 -0.5s-31 -0.833008 -47 -1.5s-31.667 -1.5 -47 -2.5s-28.666 -1.83301 -39.999 -2.5l-90 -490c10.667 -1.33301 23.5 -2.33301 38.5 -3s30.5 -1.16699 46.5 -1.5l47 -1c15.333 -0.333008 28.666 -0.5 39.999 -0.5
c74 0 135.667 2.66699 185 8s89.666 16 120.999 32s55.166 38.333 71.499 67s29.166 66.667 38.499 114l11 60c8 46.667 9.16699 84.5 3.5 113.5s-21.167 51.5 -46.5 67.5s-61.666 26.833 -108.999 32.5s-108.333 8.5 -183 8.5z" />
    <glyph glyph-name="germandbls" unicode="&#xdf;" horiz-adv-x="1265" 
d="M48 0c-12 0 -17.001 5.99707 -15.001 17.9971l190 1024c18.667 102 42.5 187.5 71.5 256.5s66.333 124.667 112 167s101 72.666 166 90.999s142.833 27.5 233.5 27.5c84 0 155.167 -11.5 213.5 -34.5s104.333 -54.5 138 -94.5s55.5 -87.167 65.5 -141.5
s8.66699 -112.833 -4 -175.5l-5 -25c-6.66699 -34 -16.167 -66.167 -28.5 -96.5s-29 -58 -50 -83s-47.167 -47 -78.5 -66s-69.333 -33.833 -114 -44.5c44 -14 80.5 -33.167 109.5 -57.5s51 -53 66 -86s23.5 -69.667 25.5 -110s-2 -83.5 -12 -129.5l-6 -41
c-16.667 -89.333 -37.5 -161.666 -62.5 -216.999s-57.667 -98.666 -98 -129.999s-90 -52.5 -149 -63.5s-130.833 -16.5 -215.5 -16.5c-26.667 0 -54.5 1.33301 -83.5 4s-55.167 6.66699 -78.5 12c-11.333 2.66699 -15.666 10 -12.999 22l43 179c2.66699 12 10 17 22 15
c36.667 -6 77.667 -9 123 -9c34.667 0 65.5 3.83301 92.5 11.5s50.5 20.334 70.5 38.001s36.667 41 50 70s23.666 64.5 30.999 106.5l11 61c6 30.667 7.83301 59.5 5.5 86.5s-10.5 50.5 -24.5 70.5s-34.5 35.667 -61.5 47s-61.833 17 -104.5 17h-65c-12 0 -17 6 -15 18
l39 206c1.33301 7.33301 3.33301 12.166 6 14.499s7.66699 3.5 15 3.5h60c41.333 0 76.166 5 104.499 15s51.5 23.5 69.5 40.5s31.833 36.5 41.5 58.5s16.834 44.667 21.501 68l3 19c12.667 70 4.16699 120.833 -25.5 152.5s-80.167 47.5 -151.5 47.5
c-52.667 0 -96.667 -5.66699 -132 -17s-64.666 -29.166 -87.999 -53.499s-42 -55.5 -56 -93.5s-26 -84 -36 -138l-190 -1026c-1.33301 -7.33301 -3.33301 -12.166 -6 -14.499s-7.66699 -3.5 -15 -3.5h-216z" />
    <glyph glyph-name="agrave" unicode="&#xe0;" horiz-adv-x="1203" 
d="M853 868c-24.667 3.33301 -54.501 5.83105 -89.501 7.49805s-71.5 2.5 -109.5 2.5c-53.333 0 -97.333 -4.83301 -132 -14.5s-63.5 -26 -86.5 -49s-41.5 -53.667 -55.5 -92s-26.333 -86.5 -37 -144.5l-14 -73c-11.333 -60 -17.166 -110.167 -17.499 -150.5
s6.66699 -72.666 21 -96.999s37.5 -41.5 69.5 -51.5s75 -15 129 -15c34 0 69 0.833008 105 2.5s66.667 3.83398 92 6.50098zM494.999 -28.002c-97.333 0 -176.837 9.66992 -238.504 29.0029s-108.5 49.166 -140.5 89.499s-50.333 91.666 -55 153.999s1 136.5 17 222.5
l27 140c18.667 98 41.834 178.667 69.501 242s63.834 113.333 108.501 150s99.834 62.167 165.501 76.5s145.834 21.5 240.501 21.5c77.333 0 153.5 -2.16699 228.5 -6.5s144.167 -10.166 207.5 -17.499c12 -0.666992 17 -7.33398 15 -20.001l-193 -1035
c-1.33301 -7.33301 -3.33301 -12.333 -6 -15s-7.66699 -4.33398 -15 -5.00098c-74.667 -8.66699 -148 -15.167 -220 -19.5s-142.333 -6.5 -211 -6.5zM676.995 1267c-7.33301 0 -12.999 1 -16.999 3s-8 5.66699 -12 11l-179 242c-7.33301 9.33301 -5 14 7 14h248
c7.33301 0 12.666 -1.16699 15.999 -3.5s6.66602 -6.5 9.99902 -12.5l123 -238c4.66699 -10.667 1.33398 -16 -9.99902 -16h-186z" />
    <glyph glyph-name="aacute" unicode="&#xe1;" horiz-adv-x="1203" 
d="M853 868c-24.667 3.33301 -54.501 5.83105 -89.501 7.49805s-71.5 2.5 -109.5 2.5c-53.333 0 -97.333 -4.83301 -132 -14.5s-63.5 -26 -86.5 -49s-41.5 -53.667 -55.5 -92s-26.333 -86.5 -37 -144.5l-14 -73c-11.333 -60 -17.166 -110.167 -17.499 -150.5
s6.66699 -72.666 21 -96.999s37.5 -41.5 69.5 -51.5s75 -15 129 -15c34 0 69 0.833008 105 2.5s66.667 3.83398 92 6.50098zM494.999 -28.002c-97.333 0 -176.837 9.66992 -238.504 29.0029s-108.5 49.166 -140.5 89.499s-50.333 91.666 -55 153.999s1 136.5 17 222.5
l27 140c18.667 98 41.834 178.667 69.501 242s63.834 113.333 108.501 150s99.834 62.167 165.501 76.5s145.834 21.5 240.501 21.5c77.333 0 153.5 -2.16699 228.5 -6.5s144.167 -10.166 207.5 -17.499c12 -0.666992 17 -7.33398 15 -20.001l-193 -1035
c-1.33301 -7.33301 -3.33301 -12.333 -6 -15s-7.66699 -4.33398 -15 -5.00098c-74.667 -8.66699 -148 -15.167 -220 -19.5s-142.333 -6.5 -211 -6.5zM559.995 1267c-11.333 0 -13.333 4.66699 -6 14l214 242c4.66699 5.33301 9 9 13 11s9.66699 3 17 3h270
c11.333 0 13 -4 5 -12l-279 -246c-8.66699 -8 -19 -12 -31 -12h-203z" />
    <glyph glyph-name="acircumflex" unicode="&#xe2;" horiz-adv-x="1203" 
d="M853 868c-24.667 3.33301 -54.501 5.83105 -89.501 7.49805s-71.5 2.5 -109.5 2.5c-53.333 0 -97.333 -4.83301 -132 -14.5s-63.5 -26 -86.5 -49s-41.5 -53.667 -55.5 -92s-26.333 -86.5 -37 -144.5l-14 -73c-11.333 -60 -17.166 -110.167 -17.499 -150.5
s6.66699 -72.666 21 -96.999s37.5 -41.5 69.5 -51.5s75 -15 129 -15c34 0 69 0.833008 105 2.5s66.667 3.83398 92 6.50098zM494.999 -28.002c-97.333 0 -176.837 9.66992 -238.504 29.0029s-108.5 49.166 -140.5 89.499s-50.333 91.666 -55 153.999s1 136.5 17 222.5
l27 140c18.667 98 41.834 178.667 69.501 242s63.834 113.333 108.501 150s99.834 62.167 165.501 76.5s145.834 21.5 240.501 21.5c77.333 0 153.5 -2.16699 228.5 -6.5s144.167 -10.166 207.5 -17.499c12 -0.666992 17 -7.33398 15 -20.001l-193 -1035
c-1.33301 -7.33301 -3.33301 -12.333 -6 -15s-7.66699 -4.33398 -15 -5.00098c-74.667 -8.66699 -148 -15.167 -220 -19.5s-142.333 -6.5 -211 -6.5zM1067 1270c6.66699 -10 3.99902 -15.001 -8.00098 -15.001h-191c-7.33301 0 -12.666 1.16699 -15.999 3.5
s-6.66602 6.5 -9.99902 12.5l-69 134h-21l-120 -136c-4.66699 -5.33301 -9 -9 -13 -11s-9.66699 -3 -17 -3h-207c-12 0 -13.667 4.33301 -5 13l256 256c5.33301 5.33301 10.166 8.83301 14.499 10.5s9.83301 2.5 16.5 2.5h205c7.33301 0 12.833 -1.16699 16.5 -3.5
s7.5 -6.16602 11.5 -11.499z" />
    <glyph glyph-name="atilde" unicode="&#xe3;" horiz-adv-x="1203" 
d="M853 868c-24.667 3.33301 -54.501 5.83105 -89.501 7.49805s-71.5 2.5 -109.5 2.5c-53.333 0 -97.333 -4.83301 -132 -14.5s-63.5 -26 -86.5 -49s-41.5 -53.667 -55.5 -92s-26.333 -86.5 -37 -144.5l-14 -73c-11.333 -60 -17.166 -110.167 -17.499 -150.5
s6.66699 -72.666 21 -96.999s37.5 -41.5 69.5 -51.5s75 -15 129 -15c34 0 69 0.833008 105 2.5s66.667 3.83398 92 6.50098zM494.999 -28.002c-97.333 0 -176.837 9.66992 -238.504 29.0029s-108.5 49.166 -140.5 89.499s-50.333 91.666 -55 153.999s1 136.5 17 222.5
l27 140c18.667 98 41.834 178.667 69.501 242s63.834 113.333 108.501 150s99.834 62.167 165.501 76.5s145.834 21.5 240.501 21.5c77.333 0 153.5 -2.16699 228.5 -6.5s144.167 -10.166 207.5 -17.499c12 -0.666992 17 -7.33398 15 -20.001l-193 -1035
c-1.33301 -7.33301 -3.33301 -12.333 -6 -15s-7.66699 -4.33398 -15 -5.00098c-74.667 -8.66699 -148 -15.167 -220 -19.5s-142.333 -6.5 -211 -6.5zM609.995 1378c-8.66699 0 -16.3311 -1.00098 -22.998 -3.00098s-12.667 -6.66699 -18 -14s-10.5 -18 -15.5 -32
s-9.83301 -32.667 -14.5 -56c-1.33301 -7.33301 -3.5 -12.166 -6.5 -14.499s-7.83301 -3.5 -14.5 -3.5h-140c-12.667 0 -18 6 -16 18c6 60 16.833 108.833 32.5 146.5s34.5 66.834 56.5 87.501s46.333 34.667 73 42s54.334 11 83.001 11
c13.333 0 25.833 -0.833008 37.5 -2.5s23.5 -5 35.5 -10s24.833 -11.667 38.5 -20s29.5 -18.833 47.5 -31.5c31.333 -23.333 54.833 -39.5 70.5 -48.5s29.5 -13.5 41.5 -13.5c8 0 15.333 1 22 3s12.667 6.66699 18 14s10.5 17.833 15.5 31.5s9.83301 32.5 14.5 56.5
c1.33301 7.33301 3.5 12.166 6.5 14.499s7.83301 3.5 14.5 3.5h140c12.667 0 18 -6 16 -18c-6 -60.667 -16.833 -109.667 -32.5 -147s-34.334 -66.333 -56.001 -87s-45.834 -34.667 -72.501 -42s-54.334 -11 -83.001 -11c-14 0 -26.833 0.833008 -38.5 2.5s-23.5 5 -35.5 10
s-24.667 11.5 -38 19.5s-29 18.667 -47 32c-32 22.667 -55.833 38.667 -71.5 48s-29.167 14 -40.5 14z" />
    <glyph glyph-name="adieresis" unicode="&#xe4;" horiz-adv-x="1203" 
d="M853 868c-24.667 3.33301 -54.501 5.83105 -89.501 7.49805s-71.5 2.5 -109.5 2.5c-53.333 0 -97.333 -4.83301 -132 -14.5s-63.5 -26 -86.5 -49s-41.5 -53.667 -55.5 -92s-26.333 -86.5 -37 -144.5l-14 -73c-11.333 -60 -17.166 -110.167 -17.499 -150.5
s6.66699 -72.666 21 -96.999s37.5 -41.5 69.5 -51.5s75 -15 129 -15c34 0 69 0.833008 105 2.5s66.667 3.83398 92 6.50098zM494.999 -28.002c-97.333 0 -176.837 9.66992 -238.504 29.0029s-108.5 49.166 -140.5 89.499s-50.333 91.666 -55 153.999s1 136.5 17 222.5
l27 140c18.667 98 41.834 178.667 69.501 242s63.834 113.333 108.501 150s99.834 62.167 165.501 76.5s145.834 21.5 240.501 21.5c77.333 0 153.5 -2.16699 228.5 -6.5s144.167 -10.166 207.5 -17.499c12 -0.666992 17 -7.33398 15 -20.001l-193 -1035
c-1.33301 -7.33301 -3.33301 -12.333 -6 -15s-7.66699 -4.33398 -15 -5.00098c-74.667 -8.66699 -148 -15.167 -220 -19.5s-142.333 -6.5 -211 -6.5zM409.995 1231c-12 0 -17 5.99707 -15 17.9971l53 276c1.33301 7.33301 3.33301 12.333 6 15s7.66699 4.33398 15 5.00098
l217 31c12 0.666992 17 -4.66602 15 -15.999l-58 -311c-1.33301 -7.33301 -3.33301 -12.166 -6 -14.499s-7.66699 -3.5 -15 -3.5h-212zM804.995 1231c-12 0 -17 5.99707 -15 17.9971l52 276c1.33301 7.33301 3.33301 12.333 6 15s7.66699 4.33398 15 5.00098l219 31
c12 0.666992 17 -4.66602 15 -15.999l-59 -311c-1.33301 -7.33301 -3.33301 -12.166 -6 -14.499s-7.66699 -3.5 -15 -3.5h-212z" />
    <glyph glyph-name="aring" unicode="&#xe5;" horiz-adv-x="1203" 
d="M853 868c-24.667 3.33301 -54.501 5.83105 -89.501 7.49805s-71.5 2.5 -109.5 2.5c-53.333 0 -97.333 -4.83301 -132 -14.5s-63.5 -26 -86.5 -49s-41.5 -53.667 -55.5 -92s-26.333 -86.5 -37 -144.5l-14 -73c-11.333 -60 -17.166 -110.167 -17.499 -150.5
s6.66699 -72.666 21 -96.999s37.5 -41.5 69.5 -51.5s75 -15 129 -15c34 0 69 0.833008 105 2.5s66.667 3.83398 92 6.50098zM494.999 -28.002c-97.333 0 -176.837 9.66992 -238.504 29.0029s-108.5 49.166 -140.5 89.499s-50.333 91.666 -55 153.999s1 136.5 17 222.5
l27 140c18.667 98 41.834 178.667 69.501 242s63.834 113.333 108.501 150s99.834 62.167 165.501 76.5s145.834 21.5 240.501 21.5c77.333 0 153.5 -2.16699 228.5 -6.5s144.167 -10.166 207.5 -17.499c12 -0.666992 17 -7.33398 15 -20.001l-193 -1035
c-1.33301 -7.33301 -3.33301 -12.333 -6 -15s-7.66699 -4.33398 -15 -5.00098c-74.667 -8.66699 -148 -15.167 -220 -19.5s-142.333 -6.5 -211 -6.5zM745.995 1474c-33.333 0 -58.5 -6.16699 -75.5 -18.5s-25.5 -36.166 -25.5 -71.499c0 -21.333 6.66699 -35.5 20 -42.5
s31.333 -10.5 54 -10.5c33.333 0 58.666 6.16699 75.999 18.5s26 36.166 26 71.499c0 21.333 -6.66699 35.5 -20 42.5s-31.666 10.5 -54.999 10.5zM686.995 1194c-72 0 -124.499 14.6689 -157.499 44.002s-49.5 70 -49.5 122c0 36.667 5.5 70.334 16.5 101.001
s28 57.167 51 79.5s52.5 39.666 88.5 51.999s79 18.5 129 18.5c70.667 0 122.834 -14.833 156.501 -44.5s50.5 -70.834 50.5 -123.501c0 -36.667 -5.83301 -70.334 -17.5 -101.001s-29.334 -57 -53.001 -79s-53.334 -39 -89.001 -51s-77.5 -18 -125.5 -18z" />
    <glyph glyph-name="ae" unicode="&#xe6;" horiz-adv-x="1862" 
d="M1183 -28c-97.333 0 -177.004 12.0029 -239.004 36.0029c-2.66699 -6 -8.66699 -9.33301 -18 -10c-74.667 -8.66699 -148 -15.167 -220 -19.5s-142.333 -6.5 -211 -6.5c-97.333 0 -176.833 9.66699 -238.5 29s-108.5 49.166 -140.5 89.499s-50.333 91.666 -55 153.999
s1 136.5 17 222.5l27 140c18.667 98 41.834 178.667 69.501 242s63.834 113.333 108.501 150s99.834 62.167 165.501 76.5s145.834 21.5 240.501 21.5c77.333 0 153.5 -2.16699 228.5 -6.5s144.167 -10.166 207.5 -17.499c8 -1.33301 13 -4.33301 15 -9c68 22 149 33 243 33
c144 0 248.667 -30.167 314 -90.5s98 -150.833 98 -271.5c0 -37.333 -2.5 -72 -7.5 -104s-11.167 -60.833 -18.5 -86.5s-14.833 -47.834 -22.5 -66.501s-13.834 -33 -18.501 -43c-5.33301 -10.667 -13.666 -16 -24.999 -16l-680 -2c-5.33301 -46 -5.33301 -83.667 0 -113
s16.666 -52.5 33.999 -69.5s41 -28.667 71 -35s67.333 -9.5 112 -9.5c58 0 116.667 1 176 3s122 5.66699 188 11c11.333 0.666992 16.666 -5 15.999 -17l-19 -169c-1.33301 -7.33301 -3.16602 -12.333 -5.49902 -15s-7.16602 -4.33398 -14.499 -5.00098
c-63.333 -7.33301 -127.5 -13.5 -192.5 -18.5s-133.5 -7.5 -205.5 -7.5zM852.996 868.003c-24.667 3.33301 -54.501 5.83105 -89.501 7.49805s-71.5 2.5 -109.5 2.5c-53.333 0 -97.333 -4.83301 -132 -14.5s-63.5 -26 -86.5 -49s-41.5 -53.667 -55.5 -92
s-26.333 -86.5 -37 -144.5l-14 -73c-11.333 -60 -17.166 -110.167 -17.499 -150.5s6.66699 -72.666 21 -96.999s37.5 -41.5 69.5 -51.5s75 -15 129 -15c34 0 69 0.833008 105 2.5s66.667 3.83398 92 6.50098zM1552 620.001c4 48.667 4.00098 89.5 0.000976562 122.5
s-13.833 59.667 -29.5 80s-38 35 -67 44s-66.167 13.5 -111.5 13.5c-42 0 -78.167 -4.16699 -108.5 -12.5s-56.5 -21.833 -78.5 -40.5s-40.333 -42.667 -55 -72s-27.334 -65 -38.001 -107l-8 -43z" />
    <glyph glyph-name="ccedilla" unicode="&#xe7;" horiz-adv-x="955" 
d="M494 -28c-97.333 0 -176.499 9.49805 -237.499 28.498s-107.333 49 -139 90s-49.834 93.5 -54.501 157.5s1 141 17 231l20 113c16 91.333 37.833 169 65.5 233s65 116.167 112 156.5s105 69.666 174 87.999s153.167 27.5 252.5 27.5c46.667 0 90.5 -2.16699 131.5 -6.5
s77.833 -9.83301 110.5 -16.5c12.667 -2 17 -8.66699 13 -20l-47 -177c-2 -6.66699 -4.5 -11.167 -7.5 -13.5s-8.16699 -3.16602 -15.5 -2.49902c-34 4.66699 -69.333 7.83398 -106 9.50098s-75 2.5 -115 2.5c-55.333 0 -101 -5 -137 -15s-65.667 -26.833 -89 -50.5
s-41.833 -54.834 -55.5 -93.501s-25.834 -86.667 -36.501 -144l-14 -71c-10.667 -58 -16.334 -106.333 -17.001 -145s6.16602 -69.667 20.499 -93s38 -39.833 71 -49.5s77.5 -14.5 133.5 -14.5c40.667 0 79.834 1.16699 117.501 3.5s74.167 5.83301 109.5 10.5
c11.333 0.666992 16.666 -4.66602 15.999 -15.999l-20 -176c-1.33301 -7.33301 -3.16602 -12.5 -5.49902 -15.5s-7.16602 -5.16699 -14.499 -6.5c-17.333 -3.33301 -36.166 -6.5 -56.499 -9.5s-41.5 -5.66699 -63.5 -8s-44.333 -4.16602 -67 -5.49902s-44.667 -2 -66 -2z
M131.001 -389.002c-12 0 -14.333 4.66602 -7 13.999l197 259c4 5.33301 8 9 12 11s9.66699 3 17 3h181c11.333 0 14 -5 8 -15l-179 -257c-4 -5.33301 -7.83301 -9.16602 -11.5 -11.499s-9.16699 -3.5 -16.5 -3.5h-201z" />
    <glyph glyph-name="egrave" unicode="&#xe8;" horiz-adv-x="1155" 
d="M476 -28c-89.333 0 -163.166 10.002 -221.499 30.002s-103.166 51 -134.499 93s-50 95.333 -56 160s-1 141.667 15 231l18 101c16 90 38.667 167.333 68 232s67.166 117.5 113.499 158.5s102.166 71.167 167.499 90.5s142 29 230 29c144 0 248.667 -30.167 314 -90.5
s98 -150.833 98 -271.5c0 -37.333 -2.5 -72 -7.5 -104s-11.167 -60.833 -18.5 -86.5s-14.833 -47.834 -22.5 -66.501s-13.834 -33 -18.501 -43c-5.33301 -10.667 -13.666 -16 -24.999 -16l-680 -2c-5.33301 -46 -5.33301 -83.667 0 -113s16.666 -52.5 33.999 -69.5
s41 -28.667 71 -35s67.333 -9.5 112 -9.5c58 0 116.667 1 176 3s122 5.66699 188 11c11.333 0.666992 16.666 -5 15.999 -17l-19 -169c-1.33301 -7.33301 -3.16602 -12.333 -5.49902 -15s-7.16602 -4.33398 -14.499 -5.00098c-63.333 -7.33301 -127.5 -13.5 -192.5 -18.5
s-133.5 -7.5 -205.5 -7.5zM845 620.002c4 48.667 3.99902 89.5 -0.000976562 122.5s-13.833 59.667 -29.5 80s-38 35 -67 44s-66.167 13.5 -111.5 13.5s-84 -5 -116 -15s-59.167 -25.833 -81.5 -47.5s-40.666 -50 -54.999 -85s-26.5 -77.5 -36.5 -127.5zM671.999 1267
c-7.33301 0 -12.999 1 -16.999 3s-8 5.66699 -12 11l-179 242c-7.33301 9.33301 -5 14 7 14h248c7.33301 0 12.666 -1.16699 15.999 -3.5s6.66602 -6.5 9.99902 -12.5l123 -238c4.66699 -10.667 1.33398 -16 -9.99902 -16h-186z" />
    <glyph glyph-name="eacute" unicode="&#xe9;" horiz-adv-x="1155" 
d="M544 1267c-11.333 0 -13.333 4.66699 -6 14l214 242c4.66699 5.33301 9 9 13 11s9.66699 3 17 3h270c11.333 0 13 -4 5 -12l-279 -246c-8.66699 -8 -19 -12 -31 -12h-203zM476 -28c-89.333 0 -163.166 10.002 -221.499 30.002s-103.166 51 -134.499 93
s-50 95.333 -56 160s-1 141.667 15 231l18 101c16 90 38.667 167.333 68 232s67.166 117.5 113.499 158.5s102.166 71.167 167.499 90.5s142 29 230 29c144 0 248.667 -30.167 314 -90.5s98 -150.833 98 -271.5c0 -37.333 -2.5 -72 -7.5 -104s-11.167 -60.833 -18.5 -86.5
s-14.833 -47.834 -22.5 -66.501s-13.834 -33 -18.501 -43c-5.33301 -10.667 -13.666 -16 -24.999 -16l-680 -2c-5.33301 -46 -5.33301 -83.667 0 -113s16.666 -52.5 33.999 -69.5s41 -28.667 71 -35s67.333 -9.5 112 -9.5c58 0 116.667 1 176 3s122 5.66699 188 11
c11.333 0.666992 16.666 -5 15.999 -17l-19 -169c-1.33301 -7.33301 -3.16602 -12.333 -5.49902 -15s-7.16602 -4.33398 -14.499 -5.00098c-63.333 -7.33301 -127.5 -13.5 -192.5 -18.5s-133.5 -7.5 -205.5 -7.5zM845 620.002c4 48.667 3.99902 89.5 -0.000976562 122.5
s-13.833 59.667 -29.5 80s-38 35 -67 44s-66.167 13.5 -111.5 13.5s-84 -5 -116 -15s-59.167 -25.833 -81.5 -47.5s-40.666 -50 -54.999 -85s-26.5 -77.5 -36.5 -127.5z" />
    <glyph glyph-name="ecircumflex" unicode="&#xea;" horiz-adv-x="1155" 
d="M1025 1270c6.66699 -10 3.99902 -15.001 -8.00098 -15.001h-191c-7.33301 0 -12.666 1.16699 -15.999 3.5s-6.66602 6.5 -9.99902 12.5l-69 134h-21l-120 -136c-4.66699 -5.33301 -9 -9 -13 -11s-9.66699 -3 -17 -3h-207c-12 0 -13.667 4.33301 -5 13l256 256
c5.33301 5.33301 10.166 8.83301 14.499 10.5s9.83301 2.5 16.5 2.5h205c7.33301 0 12.833 -1.16699 16.5 -3.5s7.5 -6.16602 11.5 -11.499zM475.999 -28.001c-89.333 0 -163.166 10.002 -221.499 30.002s-103.166 51 -134.499 93s-50 95.333 -56 160s-1 141.667 15 231
l18 101c16 90 38.667 167.333 68 232s67.166 117.5 113.499 158.5s102.166 71.167 167.499 90.5s142 29 230 29c144 0 248.667 -30.167 314 -90.5s98 -150.833 98 -271.5c0 -37.333 -2.5 -72 -7.5 -104s-11.167 -60.833 -18.5 -86.5s-14.833 -47.834 -22.5 -66.501
s-13.834 -33 -18.501 -43c-5.33301 -10.667 -13.666 -16 -24.999 -16l-680 -2c-5.33301 -46 -5.33301 -83.667 0 -113s16.666 -52.5 33.999 -69.5s41 -28.667 71 -35s67.333 -9.5 112 -9.5c58 0 116.667 1 176 3s122 5.66699 188 11c11.333 0.666992 16.666 -5 15.999 -17
l-19 -169c-1.33301 -7.33301 -3.16602 -12.333 -5.49902 -15s-7.16602 -4.33398 -14.499 -5.00098c-63.333 -7.33301 -127.5 -13.5 -192.5 -18.5s-133.5 -7.5 -205.5 -7.5zM844.999 620.001c4 48.667 3.99902 89.5 -0.000976562 122.5s-13.833 59.667 -29.5 80
s-38 35 -67 44s-66.167 13.5 -111.5 13.5s-84 -5 -116 -15s-59.167 -25.833 -81.5 -47.5s-40.666 -50 -54.999 -85s-26.5 -77.5 -36.5 -127.5z" />
    <glyph glyph-name="edieresis" unicode="&#xeb;" horiz-adv-x="1155" 
d="M370 1231c-12 0 -17 5.99707 -15 17.9971l53 276c1.33301 7.33301 3.33301 12.333 6 15s7.66699 4.33398 15 5.00098l217 31c12 0.666992 17 -4.66602 15 -15.999l-58 -311c-1.33301 -7.33301 -3.33301 -12.166 -6 -14.499s-7.66699 -3.5 -15 -3.5h-212zM765 1231
c-12 0 -17 5.99707 -15 17.9971l52 276c1.33301 7.33301 3.33301 12.333 6 15s7.66699 4.33398 15 5.00098l219 31c12 0.666992 17 -4.66602 15 -15.999l-59 -311c-1.33301 -7.33301 -3.33301 -12.166 -6 -14.499s-7.66699 -3.5 -15 -3.5h-212zM476 -28.0059
c-89.333 0 -163.166 10.002 -221.499 30.002s-103.166 51 -134.499 93s-50 95.333 -56 160s-1 141.667 15 231l18 101c16 90 38.667 167.333 68 232s67.166 117.5 113.499 158.5s102.166 71.167 167.499 90.5s142 29 230 29c144 0 248.667 -30.167 314 -90.5
s98 -150.833 98 -271.5c0 -37.333 -2.5 -72 -7.5 -104s-11.167 -60.833 -18.5 -86.5s-14.833 -47.834 -22.5 -66.501s-13.834 -33 -18.501 -43c-5.33301 -10.667 -13.666 -16 -24.999 -16l-680 -2c-5.33301 -46 -5.33301 -83.667 0 -113s16.666 -52.5 33.999 -69.5
s41 -28.667 71 -35s67.333 -9.5 112 -9.5c58 0 116.667 1 176 3s122 5.66699 188 11c11.333 0.666992 16.666 -5 15.999 -17l-19 -169c-1.33301 -7.33301 -3.16602 -12.333 -5.49902 -15s-7.16602 -4.33398 -14.499 -5.00098c-63.333 -7.33301 -127.5 -13.5 -192.5 -18.5
s-133.5 -7.5 -205.5 -7.5zM845 619.996c4 48.667 3.99902 89.5 -0.000976562 122.5s-13.833 59.667 -29.5 80s-38 35 -67 44s-66.167 13.5 -111.5 13.5s-84 -5 -116 -15s-59.167 -25.833 -81.5 -47.5s-40.666 -50 -54.999 -85s-26.5 -77.5 -36.5 -127.5z" />
    <glyph glyph-name="igrave" unicode="&#xec;" horiz-adv-x="550" 
d="M53 0c-12 0 -17 6 -15 18l193 1035c1.33301 7.33301 3.33301 12.166 6 14.499s7.66699 3.5 15 3.5h216c12 0 17 -6 15 -18l-193 -1035c-1.33301 -7.33301 -3.33301 -12.166 -6 -14.499s-7.66699 -3.5 -15 -3.5h-216zM350 1267c-7.33301 0 -12.999 1 -16.999 3
s-8 5.66699 -12 11l-179 242c-7.33301 9.33301 -5 14 7 14h248c7.33301 0 12.666 -1.16699 15.999 -3.5s6.66602 -6.5 9.99902 -12.5l123 -238c4.66699 -10.667 1.33398 -16 -9.99902 -16h-186z" />
    <glyph glyph-name="iacute" unicode="&#xed;" horiz-adv-x="550" 
d="M184 1267c-11.333 0 -13.333 4.66699 -6 14l214 242c4.66699 5.33301 9 9 13 11s9.66699 3 17 3h270c11.333 0 13 -4 5 -12l-279 -246c-8.66699 -8 -19 -12 -31 -12h-203zM52 0c-12 0 -17 6 -15 18l193 1035c1.33301 7.33301 3.33301 12.166 6 14.499s7.66699 3.5 15 3.5
h216c12 0 17 -6 15 -18l-193 -1035c-1.33301 -7.33301 -3.33301 -12.166 -6 -14.499s-7.66699 -3.5 -15 -3.5h-216z" />
    <glyph glyph-name="icircumflex" unicode="&#xee;" horiz-adv-x="550" 
d="M727 1270c6.66699 -10 3.99902 -15.001 -8.00098 -15.001h-191c-7.33301 0 -12.666 1.16699 -15.999 3.5s-6.66602 6.5 -9.99902 12.5l-69 134h-21l-120 -136c-4.66699 -5.33301 -9 -9 -13 -11s-9.66699 -3 -17 -3h-207c-12 0 -13.667 4.33301 -5 13l256 256
c5.33301 5.33301 10.166 8.83301 14.499 10.5s9.83301 2.5 16.5 2.5h205c7.33301 0 12.833 -1.16699 16.5 -3.5s7.5 -6.16602 11.5 -11.499zM51.999 -0.000976562c-12 0 -17 6 -15 18l193 1035c1.33301 7.33301 3.33301 12.166 6 14.499s7.66699 3.5 15 3.5h216
c12 0 17 -6 15 -18l-193 -1035c-1.33301 -7.33301 -3.33301 -12.166 -6 -14.499s-7.66699 -3.5 -15 -3.5h-216z" />
    <glyph glyph-name="idieresis" unicode="&#xef;" horiz-adv-x="550" 
d="M86 1231c-12 0 -17 5.99707 -15 17.9971l53 276c1.33301 7.33301 3.33301 12.333 6 15s7.66699 4.33398 15 5.00098l217 31c12 0.666992 17 -4.66602 15 -15.999l-58 -311c-1.33301 -7.33301 -3.33301 -12.166 -6 -14.499s-7.66699 -3.5 -15 -3.5h-212zM481 1231
c-12 0 -17 5.99707 -15 17.9971l52 276c1.33301 7.33301 3.33301 12.333 6 15s7.66699 4.33398 15 5.00098l219 31c12 0.666992 17 -4.66602 15 -15.999l-59 -311c-1.33301 -7.33301 -3.33301 -12.166 -6 -14.499s-7.66699 -3.5 -15 -3.5h-212zM52 -0.00585938
c-12 0 -17 6 -15 18l193 1035c1.33301 7.33301 3.33301 12.166 6 14.499s7.66699 3.5 15 3.5h216c12 0 17 -6 15 -18l-193 -1035c-1.33301 -7.33301 -3.33301 -12.166 -6 -14.499s-7.66699 -3.5 -15 -3.5h-216z" />
    <glyph glyph-name="eth" unicode="&#xf0;" horiz-adv-x="1190" 
d="M457 1135c-5.33301 -3.33301 -9.83301 -4.50391 -13.5 -3.50391s-7.16699 4.5 -10.5 10.5l-40 75c-3.33301 6 -4.5 10.833 -3.5 14.5s4.16699 7.16699 9.5 10.5l168 103c-56 24 -119 43 -189 57c-12 2.66699 -15.667 9.66699 -11 21l56 145
c3.33301 11.333 11.333 16 24 14c132 -26.667 241.667 -63 329 -109l219 134c5.33301 3.33301 9.66602 4.5 12.999 3.5s6.66602 -4.5 9.99902 -10.5l41 -78c5.33301 -10.667 3 -19 -7 -25l-162 -99c52.667 -42.667 94.334 -91.5 125.001 -146.5s52.167 -116.333 64.5 -184
s16.5 -141.5 12.5 -221.5s-14.667 -166.667 -32 -260c0 -4 -0.666992 -8.66699 -2 -14l-15 -81c-18 -97.333 -41.167 -179.166 -69.5 -245.499s-64.5 -119.666 -108.5 -159.999s-96.5 -69.333 -157.5 -87s-132.833 -26.5 -215.5 -26.5
c-92.667 0 -169.167 10.833 -229.5 32.5s-106.666 54.334 -138.999 98.001s-51.666 97.834 -57.999 162.501s-1.5 140 14.5 226l15 81c16 94 37.667 174 65 240s62.666 119.833 105.999 161.5s95.333 72 156 91s132 28.5 214 28.5c46 0 87.5 -4.5 124.5 -13.5
s70.5 -21.5 100.5 -37.5c-32.667 96.667 -90 174.667 -172 234zM642 876.996c-46 0 -85.501 -5.66602 -118.501 -16.999s-61 -29.5 -84 -54.5s-42 -57.5 -57 -97.5s-27.833 -88.667 -38.5 -146l-11 -61c-11.333 -58 -17 -106.833 -17 -146.5s6.5 -71.834 19.5 -96.501
s33.167 -42.5 60.5 -53.5s63.333 -16.5 108 -16.5c48 0 89 5.66699 123 17s63.167 29.5 87.5 54.5s44.333 57.5 60 97.5s28.834 88.667 39.501 146l11 59c10.667 57.333 16 106 16 146s-6.83301 72.5 -20.5 97.5s-35 43.167 -64 54.5s-67.167 17 -114.5 17z" />
    <glyph glyph-name="ntilde" unicode="&#xf1;" horiz-adv-x="1227" 
d="M47 0c-12 0 -16.999 5.99902 -14.999 17.999l197 1054c1.33301 7.33301 3.33301 12.166 6 14.499s7.66699 3.5 15 3.5h168c7.33301 0 12.5 -1.16699 15.5 -3.5s5.16699 -6.83301 6.5 -13.5l16 -65c55.333 28.667 114.166 50.667 176.499 66s122.166 23 179.499 23
c64 0 117.5 -8.83301 160.5 -26.5s76 -45.334 99 -83.001s36.167 -86.167 39.5 -145.5s-2.66699 -130.666 -18 -213.999l-113 -610c-1.33301 -7.33301 -3.33301 -12.166 -6 -14.499s-7.66699 -3.5 -15 -3.5h-216c-12 0 -17 6 -15 18l106 568
c8.66699 48.667 13.5 90.167 14.5 124.5s-4.16699 62 -15.5 83s-29.666 36.333 -54.999 46s-60 14.5 -104 14.5c-39.333 0 -80.833 -4.16699 -124.5 -12.5s-83.5 -20.5 -119.5 -36.5l-146 -787c-1.33301 -7.33301 -3.33301 -12.166 -6 -14.499s-7.66699 -3.5 -15 -3.5h-216z
M613.001 1378c-8.66699 0 -16.3311 -1.00098 -22.998 -3.00098s-12.667 -6.66699 -18 -14s-10.5 -18 -15.5 -32s-9.83301 -32.667 -14.5 -56c-1.33301 -7.33301 -3.5 -12.166 -6.5 -14.499s-7.83301 -3.5 -14.5 -3.5h-140c-12.667 0 -18 6 -16 18
c6 60 16.833 108.833 32.5 146.5s34.5 66.834 56.5 87.501s46.333 34.667 73 42s54.334 11 83.001 11c13.333 0 25.833 -0.833008 37.5 -2.5s23.5 -5 35.5 -10s24.833 -11.667 38.5 -20s29.5 -18.833 47.5 -31.5c31.333 -23.333 54.833 -39.5 70.5 -48.5
s29.5 -13.5 41.5 -13.5c8 0 15.333 1 22 3s12.667 6.66699 18 14s10.5 17.833 15.5 31.5s9.83301 32.5 14.5 56.5c1.33301 7.33301 3.5 12.166 6.5 14.499s7.83301 3.5 14.5 3.5h140c12.667 0 18 -6 16 -18c-6 -60.667 -16.833 -109.667 -32.5 -147
s-34.334 -66.333 -56.001 -87s-45.834 -34.667 -72.501 -42s-54.334 -11 -83.001 -11c-14 0 -26.833 0.833008 -38.5 2.5s-23.5 5 -35.5 10s-24.667 11.5 -38 19.5s-29 18.667 -47 32c-32 22.667 -55.833 38.667 -71.5 48s-29.167 14 -40.5 14z" />
    <glyph glyph-name="ograve" unicode="&#xf2;" horiz-adv-x="1177" 
d="M637 880c-47.333 0 -87.3301 -5.33203 -119.997 -15.999s-60.334 -28 -83.001 -52s-41 -55.333 -55 -94s-26.333 -86.334 -37 -143.001l-15 -80c-10 -56 -15 -103.5 -15 -142.5s6.66699 -70.5 20 -94.5s34.166 -41.333 62.499 -52s65.833 -16 112.5 -16
c47.333 0 87.333 5.33301 120 16s60.334 28.167 83.001 52.5s41.167 56 55.5 95s26.833 86.833 37.5 143.5l15 78c10.667 56 16.167 103.5 16.5 142.5s-6.33398 70.5 -20.001 94.5s-34.834 41.333 -63.501 52s-66.667 16 -114 16zM468.003 -27.999
c-87.333 0 -159.833 10.3359 -217.5 31.0029s-102 52.167 -133 94.5s-49.333 95.666 -55 159.999s-0.5 140.166 15.5 227.499l19 98c16.667 92 40 170.667 70 236s68.167 118.5 114.5 159.5s101.833 71 166.5 90s140.667 28.5 228 28.5c88 0 161 -10.167 219 -30.5
s102.5 -51.5 133.5 -93.5s49.333 -95.333 55 -160s0.166992 -141.334 -16.5 -230.001l-18 -98c-16.667 -92 -39.834 -170.5 -69.501 -235.5s-67.667 -118 -114 -159s-102.166 -71 -167.499 -90s-142 -28.5 -230 -28.5zM658.003 1267c-7.33301 0 -12.999 1 -16.999 3
s-8 5.66699 -12 11l-179 242c-7.33301 9.33301 -5 14 7 14h248c7.33301 0 12.666 -1.16699 15.999 -3.5s6.66602 -6.5 9.99902 -12.5l123 -238c4.66699 -10.667 1.33398 -16 -9.99902 -16h-186z" />
    <glyph glyph-name="oacute" unicode="&#xf3;" horiz-adv-x="1177" 
d="M532 1267c-11.333 0 -13.333 4.66699 -6 14l214 242c4.66699 5.33301 9 9 13 11s9.66699 3 17 3h270c11.333 0 13 -4 5 -12l-279 -246c-8.66699 -8 -19 -12 -31 -12h-203zM637 880c-47.333 0 -87.3301 -5.33203 -119.997 -15.999s-60.334 -28 -83.001 -52
s-41 -55.333 -55 -94s-26.333 -86.334 -37 -143.001l-15 -80c-10 -56 -15 -103.5 -15 -142.5s6.66699 -70.5 20 -94.5s34.166 -41.333 62.499 -52s65.833 -16 112.5 -16c47.333 0 87.333 5.33301 120 16s60.334 28.167 83.001 52.5s41.167 56 55.5 95
s26.833 86.833 37.5 143.5l15 78c10.667 56 16.167 103.5 16.5 142.5s-6.33398 70.5 -20.001 94.5s-34.834 41.333 -63.501 52s-66.667 16 -114 16zM468.003 -27.999c-87.333 0 -159.833 10.3359 -217.5 31.0029s-102 52.167 -133 94.5s-49.333 95.666 -55 159.999
s-0.5 140.166 15.5 227.499l19 98c16.667 92 40 170.667 70 236s68.167 118.5 114.5 159.5s101.833 71 166.5 90s140.667 28.5 228 28.5c88 0 161 -10.167 219 -30.5s102.5 -51.5 133.5 -93.5s49.333 -95.333 55 -160s0.166992 -141.334 -16.5 -230.001l-18 -98
c-16.667 -92 -39.834 -170.5 -69.501 -235.5s-67.667 -118 -114 -159s-102.166 -71 -167.499 -90s-142 -28.5 -230 -28.5z" />
    <glyph glyph-name="ocircumflex" unicode="&#xf4;" horiz-adv-x="1177" 
d="M1033 1270c6.66699 -10 3.99902 -15.001 -8.00098 -15.001h-191c-7.33301 0 -12.666 1.16699 -15.999 3.5s-6.66602 6.5 -9.99902 12.5l-69 134h-21l-120 -136c-4.66699 -5.33301 -9 -9 -13 -11s-9.66699 -3 -17 -3h-207c-12 0 -13.667 4.33301 -5 13l256 256
c5.33301 5.33301 10.166 8.83301 14.499 10.5s9.83301 2.5 16.5 2.5h205c7.33301 0 12.833 -1.16699 16.5 -3.5s7.5 -6.16602 11.5 -11.499zM636.999 879.999c-47.333 0 -87.3301 -5.33203 -119.997 -15.999s-60.334 -28 -83.001 -52s-41 -55.333 -55 -94
s-26.333 -86.334 -37 -143.001l-15 -80c-10 -56 -15 -103.5 -15 -142.5s6.66699 -70.5 20 -94.5s34.166 -41.333 62.499 -52s65.833 -16 112.5 -16c47.333 0 87.333 5.33301 120 16s60.334 28.167 83.001 52.5s41.167 56 55.5 95s26.833 86.833 37.5 143.5l15 78
c10.667 56 16.167 103.5 16.5 142.5s-6.33398 70.5 -20.001 94.5s-34.834 41.333 -63.501 52s-66.667 16 -114 16zM468.002 -28c-87.333 0 -159.833 10.3359 -217.5 31.0029s-102 52.167 -133 94.5s-49.333 95.666 -55 159.999s-0.5 140.166 15.5 227.499l19 98
c16.667 92 40 170.667 70 236s68.167 118.5 114.5 159.5s101.833 71 166.5 90s140.667 28.5 228 28.5c88 0 161 -10.167 219 -30.5s102.5 -51.5 133.5 -93.5s49.333 -95.333 55 -160s0.166992 -141.334 -16.5 -230.001l-18 -98c-16.667 -92 -39.834 -170.5 -69.501 -235.5
s-67.667 -118 -114 -159s-102.166 -71 -167.499 -90s-142 -28.5 -230 -28.5z" />
    <glyph glyph-name="otilde" unicode="&#xf5;" horiz-adv-x="1177" 
d="M637 880c-47.333 0 -87.3301 -5.33203 -119.997 -15.999s-60.334 -28 -83.001 -52s-41 -55.333 -55 -94s-26.333 -86.334 -37 -143.001l-15 -80c-10 -56 -15 -103.5 -15 -142.5s6.66699 -70.5 20 -94.5s34.166 -41.333 62.499 -52s65.833 -16 112.5 -16
c47.333 0 87.333 5.33301 120 16s60.334 28.167 83.001 52.5s41.167 56 55.5 95s26.833 86.833 37.5 143.5l15 78c10.667 56 16.167 103.5 16.5 142.5s-6.33398 70.5 -20.001 94.5s-34.834 41.333 -63.501 52s-66.667 16 -114 16zM468.003 -27.999
c-87.333 0 -159.833 10.3359 -217.5 31.0029s-102 52.167 -133 94.5s-49.333 95.666 -55 159.999s-0.5 140.166 15.5 227.499l19 98c16.667 92 40 170.667 70 236s68.167 118.5 114.5 159.5s101.833 71 166.5 90s140.667 28.5 228 28.5c88 0 161 -10.167 219 -30.5
s102.5 -51.5 133.5 -93.5s49.333 -95.333 55 -160s0.166992 -141.334 -16.5 -230.001l-18 -98c-16.667 -92 -39.834 -170.5 -69.501 -235.5s-67.667 -118 -114 -159s-102.166 -71 -167.499 -90s-142 -28.5 -230 -28.5zM584.003 1378
c-8.66699 0 -16.3311 -1.00098 -22.998 -3.00098s-12.667 -6.66699 -18 -14s-10.5 -18 -15.5 -32s-9.83301 -32.667 -14.5 -56c-1.33301 -7.33301 -3.5 -12.166 -6.5 -14.499s-7.83301 -3.5 -14.5 -3.5h-140c-12.667 0 -18 6 -16 18c6 60 16.833 108.833 32.5 146.5
s34.5 66.834 56.5 87.501s46.333 34.667 73 42s54.334 11 83.001 11c13.333 0 25.833 -0.833008 37.5 -2.5s23.5 -5 35.5 -10s24.833 -11.667 38.5 -20s29.5 -18.833 47.5 -31.5c31.333 -23.333 54.833 -39.5 70.5 -48.5s29.5 -13.5 41.5 -13.5c8 0 15.333 1 22 3
s12.667 6.66699 18 14s10.5 17.833 15.5 31.5s9.83301 32.5 14.5 56.5c1.33301 7.33301 3.5 12.166 6.5 14.499s7.83301 3.5 14.5 3.5h140c12.667 0 18 -6 16 -18c-6 -60.667 -16.833 -109.667 -32.5 -147s-34.334 -66.333 -56.001 -87s-45.834 -34.667 -72.501 -42
s-54.334 -11 -83.001 -11c-14 0 -26.833 0.833008 -38.5 2.5s-23.5 5 -35.5 10s-24.667 11.5 -38 19.5s-29 18.667 -47 32c-32 22.667 -55.833 38.667 -71.5 48s-29.167 14 -40.5 14z" />
    <glyph glyph-name="odieresis" unicode="&#xf6;" horiz-adv-x="1177" 
d="M386 1231c-12 0 -17 5.99707 -15 17.9971l53 276c1.33301 7.33301 3.33301 12.333 6 15s7.66699 4.33398 15 5.00098l217 31c12 0.666992 17 -4.66602 15 -15.999l-58 -311c-1.33301 -7.33301 -3.33301 -12.166 -6 -14.499s-7.66699 -3.5 -15 -3.5h-212zM781 1231
c-12 0 -17 5.99707 -15 17.9971l52 276c1.33301 7.33301 3.33301 12.333 6 15s7.66699 4.33398 15 5.00098l219 31c12 0.666992 17 -4.66602 15 -15.999l-59 -311c-1.33301 -7.33301 -3.33301 -12.166 -6 -14.499s-7.66699 -3.5 -15 -3.5h-212zM637 879.994
c-47.333 0 -87.3301 -5.33203 -119.997 -15.999s-60.334 -28 -83.001 -52s-41 -55.333 -55 -94s-26.333 -86.334 -37 -143.001l-15 -80c-10 -56 -15 -103.5 -15 -142.5s6.66699 -70.5 20 -94.5s34.166 -41.333 62.499 -52s65.833 -16 112.5 -16
c47.333 0 87.333 5.33301 120 16s60.334 28.167 83.001 52.5s41.167 56 55.5 95s26.833 86.833 37.5 143.5l15 78c10.667 56 16.167 103.5 16.5 142.5s-6.33398 70.5 -20.001 94.5s-34.834 41.333 -63.501 52s-66.667 16 -114 16zM468.003 -28.0049
c-87.333 0 -159.833 10.3359 -217.5 31.0029s-102 52.167 -133 94.5s-49.333 95.666 -55 159.999s-0.5 140.166 15.5 227.499l19 98c16.667 92 40 170.667 70 236s68.167 118.5 114.5 159.5s101.833 71 166.5 90s140.667 28.5 228 28.5c88 0 161 -10.167 219 -30.5
s102.5 -51.5 133.5 -93.5s49.333 -95.333 55 -160s0.166992 -141.334 -16.5 -230.001l-18 -98c-16.667 -92 -39.834 -170.5 -69.501 -235.5s-67.667 -118 -114 -159s-102.166 -71 -167.499 -90s-142 -28.5 -230 -28.5z" />
    <glyph glyph-name="divide" unicode="&#xf7;" horiz-adv-x="1116" 
d="M111 654c-12 0 -17 6 -15 18l38 207c1.33301 7.33301 3.33301 12.166 6 14.499s7.66699 3.5 15 3.5h905c12 0 17 -6 15 -18l-39 -207c-1.33301 -7.33301 -3.33301 -12.166 -6 -14.499s-7.66699 -3.5 -15 -3.5h-904zM369 195c-12 0 -17 5.99707 -15 17.9971l49 264
c1.33301 7.33301 3.33301 12.333 6 15s7.66699 4.33398 15 5.00098l226 29c12 0.666992 17 -4.66602 15 -15.999l-56 -297c-1.33301 -7.33301 -3.33301 -12.166 -6 -14.499s-7.66699 -3.5 -15 -3.5h-219zM524 1031c-12 0 -17 5.99707 -15 17.9971l50 264
c1.33301 7.33301 3.33301 12.333 6 15s7.66699 4.33398 15 5.00098l225 30c12 0.666992 17 -4.66602 15 -15.999l-56 -298c-1.33301 -7.33301 -3.33301 -12.166 -6 -14.499s-7.66699 -3.5 -15 -3.5h-219z" />
    <glyph glyph-name="oslash" unicode="&#xf8;" horiz-adv-x="1190" 
d="M94 150c-36.667 81.333 -41.334 193.333 -14.001 336l17 97c16.667 90 40.167 167.333 70.5 232s69 117.834 116 159.501s103.5 72.5 169.5 92.5s143 30 231 30c134.667 0 235.667 -25.667 303 -77l40 39c8.66699 8 19 12 31 12h149c12 0 13.667 -4.33301 5 -13
l-144 -141c18 -41.333 28 -89.666 30 -144.999s-3.33301 -118.333 -16 -189l-19 -97c-16.667 -90 -40 -167.5 -70 -232.5s-68.5 -118.333 -115.5 -160s-103.667 -72.334 -170 -92.001s-143.833 -29.5 -232.5 -29.5c-67.333 0 -125.666 6.16699 -174.999 18.5
s-91 31.166 -125 56.499l-35 -34c-8.66699 -8.66699 -19 -13 -31 -13h-151c-12 -0 -13.667 4.33301 -5 13zM643 880c-48 0 -88.667 -5.33203 -122 -15.999s-61.333 -28.167 -84 -52.5s-41.167 -56 -55.5 -95s-26.833 -86.833 -37.5 -143.5l-10 -59
c-5.33301 -30 -9.83301 -57.5 -13.5 -82.5s-6.16699 -47.833 -7.5 -68.5l494 481c-15.333 13.333 -36.5 22.666 -63.5 27.999s-60.5 8 -100.5 8zM828 555.001c5.33301 29.333 9.6709 56.167 13.0039 80.5s5.66602 46.833 6.99902 67.5l-492 -480
c16 -12 37.167 -20.5 63.5 -25.5s59.166 -7.5 98.499 -7.5c48.667 0 89.667 5.33301 123 16s61.166 28.167 83.499 52.5s40.666 56 54.999 95s26.833 86.833 37.5 143.5z" />
    <glyph glyph-name="ugrave" unicode="&#xf9;" horiz-adv-x="1226" 
d="M509 -28c-100 0 -180.333 8.83203 -241 26.499s-106 45.834 -136 84.501s-46.333 88.5 -49 149.5s4 134.5 20 220.5l113 600c1.33301 7.33301 3.33301 12.166 6 14.499s7.66699 3.5 15 3.5h215c12 0 17 -6 15 -18l-109 -585c-10 -52 -14.667 -95.333 -14 -130
s8.16699 -62.167 22.5 -82.5s36.333 -34.666 66 -42.999s69.167 -12.5 118.5 -12.5c16 0 33.167 0.333008 51.5 1s36.5 1.83398 54.5 3.50098s35.667 3.66699 53 6s33 5.16602 47 8.49902l155 834c1.33301 7.33301 3.33301 12.166 6 14.499s7.66699 3.5 15 3.5h216
c12 0 17 -6 15 -18l-186 -1003c-2 -11.333 -8.66699 -18.666 -20 -21.999c-28 -7.33301 -60.167 -14.333 -96.5 -21s-74.333 -12.5 -114 -17.5s-80 -9.16699 -121 -12.5s-80.167 -5 -117.5 -5zM688 1267c-7.33301 0 -12.999 1 -16.999 3s-8 5.66699 -12 11l-179 242
c-7.33301 9.33301 -5 14 7 14h248c7.33301 0 12.666 -1.16699 15.999 -3.5s6.66602 -6.5 9.99902 -12.5l123 -238c4.66699 -10.667 1.33398 -16 -9.99902 -16h-186z" />
    <glyph glyph-name="uacute" unicode="&#xfa;" horiz-adv-x="1226" 
d="M587 1267c-11.333 0 -13.333 4.66699 -6 14l214 242c4.66699 5.33301 9 9 13 11s9.66699 3 17 3h270c11.333 0 13 -4 5 -12l-279 -246c-8.66699 -8 -19 -12 -31 -12h-203zM509 -28c-100 0 -180.333 8.83203 -241 26.499s-106 45.834 -136 84.501s-46.333 88.5 -49 149.5
s4 134.5 20 220.5l113 600c1.33301 7.33301 3.33301 12.166 6 14.499s7.66699 3.5 15 3.5h215c12 0 17 -6 15 -18l-109 -585c-10 -52 -14.667 -95.333 -14 -130s8.16699 -62.167 22.5 -82.5s36.333 -34.666 66 -42.999s69.167 -12.5 118.5 -12.5
c16 0 33.167 0.333008 51.5 1s36.5 1.83398 54.5 3.50098s35.667 3.66699 53 6s33 5.16602 47 8.49902l155 834c1.33301 7.33301 3.33301 12.166 6 14.499s7.66699 3.5 15 3.5h216c12 0 17 -6 15 -18l-186 -1003c-2 -11.333 -8.66699 -18.666 -20 -21.999
c-28 -7.33301 -60.167 -14.333 -96.5 -21s-74.333 -12.5 -114 -17.5s-80 -9.16699 -121 -12.5s-80.167 -5 -117.5 -5z" />
    <glyph glyph-name="ucircumflex" unicode="&#xfb;" horiz-adv-x="1226" 
d="M1054 1270c6.66699 -10 3.99902 -15.001 -8.00098 -15.001h-191c-7.33301 0 -12.666 1.16699 -15.999 3.5s-6.66602 6.5 -9.99902 12.5l-69 134h-21l-120 -136c-4.66699 -5.33301 -9 -9 -13 -11s-9.66699 -3 -17 -3h-207c-12 0 -13.667 4.33301 -5 13l256 256
c5.33301 5.33301 10.166 8.83301 14.499 10.5s9.83301 2.5 16.5 2.5h205c7.33301 0 12.833 -1.16699 16.5 -3.5s7.5 -6.16602 11.5 -11.499zM508.999 -28.001c-100 0 -180.333 8.83203 -241 26.499s-106 45.834 -136 84.501s-46.333 88.5 -49 149.5s4 134.5 20 220.5
l113 600c1.33301 7.33301 3.33301 12.166 6 14.499s7.66699 3.5 15 3.5h215c12 0 17 -6 15 -18l-109 -585c-10 -52 -14.667 -95.333 -14 -130s8.16699 -62.167 22.5 -82.5s36.333 -34.666 66 -42.999s69.167 -12.5 118.5 -12.5c16 0 33.167 0.333008 51.5 1
s36.5 1.83398 54.5 3.50098s35.667 3.66699 53 6s33 5.16602 47 8.49902l155 834c1.33301 7.33301 3.33301 12.166 6 14.499s7.66699 3.5 15 3.5h216c12 0 17 -6 15 -18l-186 -1003c-2 -11.333 -8.66699 -18.666 -20 -21.999c-28 -7.33301 -60.167 -14.333 -96.5 -21
s-74.333 -12.5 -114 -17.5s-80 -9.16699 -121 -12.5s-80.167 -5 -117.5 -5z" />
    <glyph glyph-name="udieresis" unicode="&#xfc;" horiz-adv-x="1226" 
d="M413 1231c-12 0 -17 5.99707 -15 17.9971l53 276c1.33301 7.33301 3.33301 12.333 6 15s7.66699 4.33398 15 5.00098l217 31c12 0.666992 17 -4.66602 15 -15.999l-58 -311c-1.33301 -7.33301 -3.33301 -12.166 -6 -14.499s-7.66699 -3.5 -15 -3.5h-212zM808 1231
c-12 0 -17 5.99707 -15 17.9971l52 276c1.33301 7.33301 3.33301 12.333 6 15s7.66699 4.33398 15 5.00098l219 31c12 0.666992 17 -4.66602 15 -15.999l-59 -311c-1.33301 -7.33301 -3.33301 -12.166 -6 -14.499s-7.66699 -3.5 -15 -3.5h-212zM509 -28.0059
c-100 0 -180.333 8.83203 -241 26.499s-106 45.834 -136 84.501s-46.333 88.5 -49 149.5s4 134.5 20 220.5l113 600c1.33301 7.33301 3.33301 12.166 6 14.499s7.66699 3.5 15 3.5h215c12 0 17 -6 15 -18l-109 -585c-10 -52 -14.667 -95.333 -14 -130
s8.16699 -62.167 22.5 -82.5s36.333 -34.666 66 -42.999s69.167 -12.5 118.5 -12.5c16 0 33.167 0.333008 51.5 1s36.5 1.83398 54.5 3.50098s35.667 3.66699 53 6s33 5.16602 47 8.49902l155 834c1.33301 7.33301 3.33301 12.166 6 14.499s7.66699 3.5 15 3.5h216
c12 0 17 -6 15 -18l-186 -1003c-2 -11.333 -8.66699 -18.666 -20 -21.999c-28 -7.33301 -60.167 -14.333 -96.5 -21s-74.333 -12.5 -114 -17.5s-80 -9.16699 -121 -12.5s-80.167 -5 -117.5 -5z" />
    <glyph glyph-name="yacute" unicode="&#xfd;" horiz-adv-x="1055" 
d="M-44 -478c-20 0 -42.5 1.16797 -67.5 3.50098s-47.167 5.83301 -66.5 10.5c-12 2 -16 9 -12 21l58 178c2.66699 6.66699 5.5 11 8.5 13s8.16699 2.33301 15.5 1c14.667 -2 30.167 -3.83301 46.5 -5.5s31.833 -2.5 46.5 -2.5c46.667 0 86.334 3.33301 119.001 10
s61.834 19.5 87.501 38.5s50.167 45.333 73.5 79s49 77.5 77 131.5c-1.33301 0 -5.5 2.16699 -12.5 6.5s-15.5 13.166 -25.5 26.499s-20.333 33.166 -31 59.499s-20 61.5 -28 105.5l-162 855c-2 12 3 18 15 18h246c6.66699 0 11.5 -1.16699 14.5 -3.5
s5.16699 -7.16602 6.5 -14.499l87 -601l22 -179l341 782c2.66699 6 5.66699 10.167 9 12.5s8.66602 3.5 15.999 3.5h253c11.333 0 14.666 -5.33301 9.99902 -16l-561 -1137c-38.667 -78.667 -76 -143.5 -112 -194.5s-75.667 -91.5 -119 -121.5s-93.333 -50.833 -150 -62.5
s-125 -17.5 -205 -17.5zM479 1267c-11.333 0 -13.333 4.66699 -6 14l214 242c4.66699 5.33301 9 9 13 11s9.66699 3 17 3h270c11.333 0 13 -4 5 -12l-279 -246c-8.66699 -8 -19 -12 -31 -12h-203z" />
    <glyph glyph-name="thorn" unicode="&#xfe;" horiz-adv-x="1204" 
d="M-37 -453c-12 0 -16.998 5.99707 -14.998 17.9971l280 1501l97 518c1.33301 7.33301 3.33301 12.333 6 15s7.66699 4.33398 15 5.00098l222 30c12 0.666992 17 -4.66602 15 -15.999l-98 -527c66 4 130.667 6 194 6c96.667 0 175.667 -8.66699 237 -26
s108 -45.333 140 -84s50.667 -89 56 -151s-0.333984 -137.667 -17.001 -227l-26 -137c-18 -95.333 -41 -175 -69 -239s-64.833 -115.333 -110.5 -154s-101.834 -66.167 -168.501 -82.5s-147.667 -24.5 -243 -24.5c-36 0 -70.833 2 -104.5 6s-64.5 9.33301 -92.5 16l-80 -429
c-1.33301 -7.33301 -3.33301 -12.166 -6 -14.499s-7.66699 -3.5 -15 -3.5h-217zM637.002 877.997c-14.667 0 -30.6641 -0.166992 -47.9971 -0.5s-34.833 -1 -52.5 -2s-34.667 -2.33301 -51 -4s-30.833 -3.5 -43.5 -5.5l-123 -662c25.333 -4 54.833 -7.16699 88.5 -9.5
s69.167 -3.5 106.5 -3.5c53.333 0 97.833 5.16699 133.5 15.5s65.167 27.5 88.5 51.5s42.166 55.833 56.499 95.5s27.166 89.167 38.499 148.5l14 72c10.667 58.667 16.167 107.5 16.5 146.5s-7 70.167 -22 93.5s-38.833 39.833 -71.5 49.5s-76.334 14.5 -131.001 14.5z" />
    <glyph glyph-name="ydieresis" unicode="&#xff;" horiz-adv-x="1055" 
d="M-44 -478c-20 0 -42.5 1.16797 -67.5 3.50098s-47.167 5.83301 -66.5 10.5c-12 2 -16 9 -12 21l58 178c2.66699 6.66699 5.5 11 8.5 13s8.16699 2.33301 15.5 1c14.667 -2 30.167 -3.83301 46.5 -5.5s31.833 -2.5 46.5 -2.5c46.667 0 86.334 3.33301 119.001 10
s61.834 19.5 87.501 38.5s50.167 45.333 73.5 79s49 77.5 77 131.5c-1.33301 0 -5.5 2.16699 -12.5 6.5s-15.5 13.166 -25.5 26.499s-20.333 33.166 -31 59.499s-20 61.5 -28 105.5l-162 855c-2 12 3 18 15 18h246c6.66699 0 11.5 -1.16699 14.5 -3.5
s5.16699 -7.16602 6.5 -14.499l87 -601l22 -179l341 782c2.66699 6 5.66699 10.167 9 12.5s8.66602 3.5 15.999 3.5h253c11.333 0 14.666 -5.33301 9.99902 -16l-561 -1137c-38.667 -78.667 -76 -143.5 -112 -194.5s-75.667 -91.5 -119 -121.5s-93.333 -50.833 -150 -62.5
s-125 -17.5 -205 -17.5zM312 1231c-12 0 -17 5.99707 -15 17.9971l53 276c1.33301 7.33301 3.33301 12.333 6 15s7.66699 4.33398 15 5.00098l217 31c12 0.666992 17 -4.66602 15 -15.999l-58 -311c-1.33301 -7.33301 -3.33301 -12.166 -6 -14.499s-7.66699 -3.5 -15 -3.5
h-212zM707 1231c-12 0 -17 5.99707 -15 17.9971l52 276c1.33301 7.33301 3.33301 12.333 6 15s7.66699 4.33398 15 5.00098l219 31c12 0.666992 17 -4.66602 15 -15.999l-59 -311c-1.33301 -7.33301 -3.33301 -12.166 -6 -14.499s-7.66699 -3.5 -15 -3.5h-212z" />
    <glyph glyph-name="Amacron" unicode="&#x100;" horiz-adv-x="1324" 
d="M-85 0c-11.333 0 -14.668 5.33301 -10.001 16l730 1443c3.33301 6 6.66602 10.167 9.99902 12.5s8.66602 3.5 15.999 3.5h329c12.667 0 19.334 -6 20.001 -18l196 -1439c0.666992 -12 -4.66602 -18 -15.999 -18h-254c-12.667 0 -19.334 6 -20.001 18l-32 282h-550
l-137 -284c-3.33301 -6 -6.66602 -10.167 -9.99902 -12.5s-8.66602 -3.5 -15.999 -3.5h-256zM779.998 1217l-329 -677h406zM592.998 1615c-12 0 -17 6 -15 18l28 150c1.33301 7.33301 3.33301 12.166 6 14.499s7.66699 3.5 15 3.5h518c12 0 17 -6 15 -18l-28 -150
c-1.33301 -7.33301 -3.33301 -12.166 -6 -14.499s-7.66699 -3.5 -15 -3.5h-518z" />
    <glyph glyph-name="amacron" unicode="&#x101;" horiz-adv-x="1203" 
d="M853 868c-24.667 3.33301 -54.501 5.83105 -89.501 7.49805s-71.5 2.5 -109.5 2.5c-53.333 0 -97.333 -4.83301 -132 -14.5s-63.5 -26 -86.5 -49s-41.5 -53.667 -55.5 -92s-26.333 -86.5 -37 -144.5l-14 -73c-11.333 -60 -17.166 -110.167 -17.499 -150.5
s6.66699 -72.666 21 -96.999s37.5 -41.5 69.5 -51.5s75 -15 129 -15c34 0 69 0.833008 105 2.5s66.667 3.83398 92 6.50098zM494.999 -28.002c-97.333 0 -176.837 9.66992 -238.504 29.0029s-108.5 49.166 -140.5 89.499s-50.333 91.666 -55 153.999s1 136.5 17 222.5
l27 140c18.667 98 41.834 178.667 69.501 242s63.834 113.333 108.501 150s99.834 62.167 165.501 76.5s145.834 21.5 240.501 21.5c77.333 0 153.5 -2.16699 228.5 -6.5s144.167 -10.166 207.5 -17.499c12 -0.666992 17 -7.33398 15 -20.001l-193 -1035
c-1.33301 -7.33301 -3.33301 -12.333 -6 -15s-7.66699 -4.33398 -15 -5.00098c-74.667 -8.66699 -148 -15.167 -220 -19.5s-142.333 -6.5 -211 -6.5zM463.995 1292c-12 0 -17 6 -15 18l29 153c1.33301 7.33301 3.33301 12.166 6 14.499s7.66699 3.5 15 3.5h518
c12 0 17 -6 15 -18l-28 -153c-1.33301 -7.33301 -3.33301 -12.166 -6 -14.499s-7.66699 -3.5 -15 -3.5h-519z" />
    <glyph glyph-name="Abreve" unicode="&#x102;" horiz-adv-x="1324" 
d="M-85 0c-11.333 0 -14.668 5.33301 -10.001 16l730 1443c3.33301 6 6.66602 10.167 9.99902 12.5s8.66602 3.5 15.999 3.5h329c12.667 0 19.334 -6 20.001 -18l196 -1439c0.666992 -12 -4.66602 -18 -15.999 -18h-254c-12.667 0 -19.334 6 -20.001 18l-32 282h-550
l-137 -284c-3.33301 -6 -6.66602 -10.167 -9.99902 -12.5s-8.66602 -3.5 -15.999 -3.5h-256zM779.998 1217l-329 -677h406zM839.998 1579c-101.333 0 -171.833 20.333 -211.5 61s-53.834 103.334 -42.501 188.001c1.33301 6.66699 3.33301 11.334 6 14.001s7.66699 4 15 4
h136c12 0 17.667 -6 17 -18c-1.33301 -20 0.833984 -36.667 6.50098 -50s13.334 -23.833 23.001 -31.5s20.667 -13.167 33 -16.5s25.166 -5 38.499 -5c28 0 53.833 7.33301 77.5 22s41.5 42 53.5 82c3.33301 11.333 11.333 17 24 17h146c12 0 16.667 -6 14 -18
c-10.667 -46 -23.167 -84.833 -37.5 -116.5s-33.833 -57.334 -58.5 -77.001s-56.167 -33.834 -94.5 -42.501s-86.833 -13 -145.5 -13z" />
    <glyph glyph-name="abreve" unicode="&#x103;" horiz-adv-x="1203" 
d="M853 868c-24.667 3.33301 -54.501 5.83105 -89.501 7.49805s-71.5 2.5 -109.5 2.5c-53.333 0 -97.333 -4.83301 -132 -14.5s-63.5 -26 -86.5 -49s-41.5 -53.667 -55.5 -92s-26.333 -86.5 -37 -144.5l-14 -73c-11.333 -60 -17.166 -110.167 -17.499 -150.5
s6.66699 -72.666 21 -96.999s37.5 -41.5 69.5 -51.5s75 -15 129 -15c34 0 69 0.833008 105 2.5s66.667 3.83398 92 6.50098zM494.999 -28.002c-97.333 0 -176.837 9.66992 -238.504 29.0029s-108.5 49.166 -140.5 89.499s-50.333 91.666 -55 153.999s1 136.5 17 222.5
l27 140c18.667 98 41.834 178.667 69.501 242s63.834 113.333 108.501 150s99.834 62.167 165.501 76.5s145.834 21.5 240.501 21.5c77.333 0 153.5 -2.16699 228.5 -6.5s144.167 -10.166 207.5 -17.499c12 -0.666992 17 -7.33398 15 -20.001l-193 -1035
c-1.33301 -7.33301 -3.33301 -12.333 -6 -15s-7.66699 -4.33398 -15 -5.00098c-74.667 -8.66699 -148 -15.167 -220 -19.5s-142.333 -6.5 -211 -6.5zM726.995 1249c-52.667 0 -96.0029 6.5 -130.003 19.5s-60.167 31.333 -78.5 55s-30.166 52 -35.499 85s-6 69.833 -2 110.5
c0.666992 12 7.33398 18 20.001 18h152c11.333 0 16.666 -6 15.999 -18c-5.33301 -45.333 -0.666016 -76.333 14.001 -93s35.667 -25 63 -25c28.667 0 54 8.5 76 25.5s39.333 48.167 52 93.5c3.33301 11.333 11.333 17 24 17h155c12 0 17 -6 15 -18
c-7.33301 -42.667 -18.166 -80.667 -32.499 -114s-34.5 -61.5 -60.5 -84.5s-59 -40.667 -99 -53s-89.667 -18.5 -149 -18.5z" />
    <glyph glyph-name="Aogonek" unicode="&#x104;" horiz-adv-x="1325" 
d="M-85 0c-11.333 0 -14.665 5.33301 -9.99805 16l730 1443c3.33301 6 6.66602 10.167 9.99902 12.5s8.66602 3.5 15.999 3.5h329c12.667 0 19.334 -6 20.001 -18l196 -1439c1.33301 -7.33301 0.666016 -12.333 -2.00098 -15s-7.33398 -4.66699 -14.001 -6
c-46 -9.33301 -85 -23 -117 -41s-58.167 -37.667 -78.5 -59s-35 -43.166 -44 -65.499s-13.5 -42.166 -13.5 -59.499c0 -18.667 6.33301 -31.334 19 -38.001s35.334 -10 68.001 -10c13.333 0 28.166 0.333008 44.499 1s32.166 2 47.499 4c12 2 17.667 -3 17 -15l-8 -96
c-0.666992 -12 -6.66699 -19.333 -18 -22c-15.333 -3.33301 -35.333 -6.33301 -60 -9s-54.667 -4 -90 -4c-77.333 0 -133.166 10.667 -167.499 32s-51.5 56.333 -51.5 105c0 33.333 5 64.166 15 92.499s23.333 54.5 40 78.5s35.667 45.833 57 65.5s43.666 37.5 66.999 53.5
l-33 290h-550l-137 -284c-3.33301 -6 -6.66602 -10.167 -9.99902 -12.5s-8.66602 -3.5 -15.999 -3.5h-256zM780.001 1217l-329 -677h406z" />
    <glyph glyph-name="aogonek" unicode="&#x105;" horiz-adv-x="1203" 
d="M495 -28c-97.333 0 -176.839 9.66797 -238.506 29.001s-108.5 49.166 -140.5 89.499s-50.333 91.666 -55 153.999s1 136.5 17 222.5l27 140c18.667 98 41.834 178.667 69.501 242s63.834 113.333 108.501 150s99.834 62.167 165.501 76.5s145.834 21.5 240.501 21.5
c77.333 0 153.5 -2.16699 228.5 -6.5s144.167 -10.166 207.5 -17.499c12 -0.666992 17 -7.33398 15 -20.001l-193 -1035c-1.33301 -7.33301 -3.66602 -12.5 -6.99902 -15.5s-7.66602 -5.83301 -12.999 -8.5c-30 -13.333 -58.833 -29.166 -86.5 -47.499
s-52 -37.833 -73 -58.5s-37.833 -41.5 -50.5 -62.5s-19 -40.5 -19 -58.5c0 -16.667 5.33301 -28 16 -34s29.667 -9 57 -9c11.333 0 23 0.333008 35 1s24.333 2 37 4s18 -3 16 -15l-8 -96c-0.666992 -7.33301 -2.16699 -12.5 -4.5 -15.5s-6.83301 -5.16699 -13.5 -6.5
c-15.333 -3.33301 -35.333 -6.33301 -60 -9s-51.667 -4 -81 -4c-68 0 -117.833 10.5 -149.5 31.5s-47.5 53.5 -47.5 97.5c0 24 4.16699 48.167 12.5 72.5s20 48 35 71s32.667 44.833 53 65.5s42.166 39 65.499 55c-28.667 -1.33301 -56.667 -2.33301 -84 -3
s-54.666 -1 -81.999 -1zM852.994 868.001c-24.667 3.33301 -54.501 5.83105 -89.501 7.49805s-71.5 2.5 -109.5 2.5c-53.333 0 -97.333 -4.83301 -132 -14.5s-63.5 -26 -86.5 -49s-41.5 -53.667 -55.5 -92s-26.333 -86.5 -37 -144.5l-14 -73
c-11.333 -60 -17.166 -110.167 -17.499 -150.5s6.66699 -72.666 21 -96.999s37.5 -41.5 69.5 -51.5s75 -15 129 -15c34 0 69 0.833008 105 2.5s66.667 3.83398 92 6.50098z" />
    <glyph glyph-name="Cacute" unicode="&#x106;" horiz-adv-x="1184" 
d="M619 -28c-98.667 0 -184.669 11.832 -258.002 35.499s-131.666 62.667 -174.999 117s-71 125.666 -83 213.999s-6.33301 197.166 17 326.499l27 147c24 133.333 58.333 244.333 103 333s98.834 159.5 162.501 212.5s136.5 90.333 218.5 112s172.333 32.5 271 32.5
c68 0 132.5 -4 193.5 -12s111.833 -19 152.5 -33c12 -3.33301 15.667 -11 11 -23l-71 -202c-3.33301 -11.333 -11.333 -15.666 -24 -12.999c-47.333 10 -96.166 17 -146.499 21s-100.833 6 -151.5 6c-60 0 -114.333 -6.83301 -163 -20.5s-91.834 -37 -129.501 -70
s-69.667 -76.667 -96 -131s-47.166 -121.833 -62.499 -202.5l-29 -167c-15.333 -81.333 -20 -149.333 -14 -204s21.667 -98.5 47 -131.5s59.666 -56.333 102.999 -70s95 -20.5 155 -20.5c57.333 0 112.5 1.83301 165.5 5.5s104.5 8.83398 154.5 15.501
c12 2 17.667 -3 17 -15l-7 -205c-0.666992 -7.33301 -2.16699 -12.5 -4.5 -15.5s-6.83301 -5.16699 -13.5 -6.5c-46 -11.333 -101.5 -20.166 -166.5 -26.499s-132.833 -9.5 -203.5 -9.5zM742.998 1601c-12.667 0 -14.333 4 -5 12l226 206c8.66699 8 19 12 31 12h274
c5.33301 0 8.33301 -1 9 -3s-1.33301 -4.66699 -6 -8l-284 -208c-10 -7.33301 -21 -11 -33 -11h-212z" />
    <glyph glyph-name="cacute" unicode="&#x107;" horiz-adv-x="956" 
d="M497 1267c-11.333 0 -13.333 4.66699 -6 14l214 242c4.66699 5.33301 9 9 13 11s9.66699 3 17 3h270c11.333 0 13 -4 5 -12l-279 -246c-8.66699 -8 -19 -12 -31 -12h-203zM494 -28c-97.333 0 -176.499 9.49805 -237.499 28.498s-107.333 49 -139 90
s-49.834 93.5 -54.501 157.5s1 141 17 231l20 113c16 91.333 37.833 169 65.5 233s65 116.167 112 156.5s105 69.666 174 87.999s153.167 27.5 252.5 27.5c46.667 0 90.5 -2.16699 131.5 -6.5s77.833 -9.83301 110.5 -16.5c12.667 -2 17 -8.66699 13 -20l-47 -177
c-2 -6.66699 -4.5 -11.167 -7.5 -13.5s-8.16699 -3.16602 -15.5 -2.49902c-34 4.66699 -69.333 7.83398 -106 9.50098s-75 2.5 -115 2.5c-55.333 0 -101 -5 -137 -15s-65.667 -26.833 -89 -50.5s-41.833 -54.834 -55.5 -93.501s-25.834 -86.667 -36.501 -144l-14 -71
c-10.667 -58 -16.334 -106.333 -17.001 -145s6.16602 -69.667 20.499 -93s38 -39.833 71 -49.5s77.5 -14.5 133.5 -14.5c40.667 0 79.834 1.16699 117.501 3.5s74.167 5.83301 109.5 10.5c11.333 0.666992 16.666 -4.66602 15.999 -15.999l-20 -176
c-1.33301 -7.33301 -3.16602 -12.5 -5.49902 -15.5s-7.16602 -5.16699 -14.499 -6.5c-17.333 -3.33301 -36.166 -6.5 -56.499 -9.5s-41.5 -5.66699 -63.5 -8s-44.333 -4.16602 -67 -5.49902s-44.667 -2 -66 -2z" />
    <glyph glyph-name="Ccaron" unicode="&#x10c;" horiz-adv-x="1184" 
d="M619 -28c-98.667 0 -184.669 11.832 -258.002 35.499s-131.666 62.667 -174.999 117s-71 125.666 -83 213.999s-6.33301 197.166 17 326.499l27 147c24 133.333 58.333 244.333 103 333s98.834 159.5 162.501 212.5s136.5 90.333 218.5 112s172.333 32.5 271 32.5
c68 0 132.5 -4 193.5 -12s111.833 -19 152.5 -33c12 -3.33301 15.667 -11 11 -23l-71 -202c-3.33301 -11.333 -11.333 -15.666 -24 -12.999c-47.333 10 -96.166 17 -146.499 21s-100.833 6 -151.5 6c-60 0 -114.333 -6.83301 -163 -20.5s-91.834 -37 -129.501 -70
s-69.667 -76.667 -96 -131s-47.166 -121.833 -62.499 -202.5l-29 -167c-15.333 -81.333 -20 -149.333 -14 -204s21.667 -98.5 47 -131.5s59.666 -56.333 102.999 -70s95 -20.5 155 -20.5c57.333 0 112.5 1.83301 165.5 5.5s104.5 8.83398 154.5 15.501
c12 2 17.667 -3 17 -15l-7 -205c-0.666992 -7.33301 -2.16699 -12.5 -4.5 -15.5s-6.83301 -5.16699 -13.5 -6.5c-46 -11.333 -101.5 -20.166 -166.5 -26.499s-132.833 -9.5 -203.5 -9.5zM581.998 1817c-7.33301 9.33301 -5.00098 14 6.99902 14h186c7.33301 0 13 -1 17 -3
s8 -5.66699 12 -11l75 -99h20l116 101c8.66699 8 19.334 12 32.001 12h216c5.33301 0 8.33301 -1 9 -3s-1 -4.66699 -5 -8l-254 -208c-9.33301 -7.33301 -20 -11 -32 -11h-206c-7.33301 0 -13 1 -17 3s-8 5.66699 -12 11z" />
    <glyph glyph-name="ccaron" unicode="&#x10d;" horiz-adv-x="956" 
d="M371 1522c-7.33301 10 -4.66504 15.001 8.00195 15.001h191c7.33301 0 12.666 -1.16699 15.999 -3.5s6.66602 -6.5 9.99902 -12.5l69 -134h21l120 136c4.66699 5.33301 9 9 13 11s9.66699 3 17 3h207c12 0 13.667 -4.33301 5 -13l-256 -256
c-8.66699 -8.66699 -19 -13 -31 -13h-205c-7.33301 0 -12.833 1.16699 -16.5 3.5s-7.5 6.16602 -11.5 11.499zM494.001 -27.999c-97.333 0 -176.499 9.49805 -237.499 28.498s-107.333 49 -139 90s-49.834 93.5 -54.501 157.5s1 141 17 231l20 113
c16 91.333 37.833 169 65.5 233s65 116.167 112 156.5s105 69.666 174 87.999s153.167 27.5 252.5 27.5c46.667 0 90.5 -2.16699 131.5 -6.5s77.833 -9.83301 110.5 -16.5c12.667 -2 17 -8.66699 13 -20l-47 -177c-2 -6.66699 -4.5 -11.167 -7.5 -13.5
s-8.16699 -3.16602 -15.5 -2.49902c-34 4.66699 -69.333 7.83398 -106 9.50098s-75 2.5 -115 2.5c-55.333 0 -101 -5 -137 -15s-65.667 -26.833 -89 -50.5s-41.833 -54.834 -55.5 -93.501s-25.834 -86.667 -36.501 -144l-14 -71c-10.667 -58 -16.334 -106.333 -17.001 -145
s6.16602 -69.667 20.499 -93s38 -39.833 71 -49.5s77.5 -14.5 133.5 -14.5c40.667 0 79.834 1.16699 117.501 3.5s74.167 5.83301 109.5 10.5c11.333 0.666992 16.666 -4.66602 15.999 -15.999l-20 -176c-1.33301 -7.33301 -3.16602 -12.5 -5.49902 -15.5
s-7.16602 -5.16699 -14.499 -6.5c-17.333 -3.33301 -36.166 -6.5 -56.499 -9.5s-41.5 -5.66699 -63.5 -8s-44.333 -4.16602 -67 -5.49902s-44.667 -2 -66 -2z" />
    <glyph glyph-name="Dcaron" unicode="&#x10e;" horiz-adv-x="1415" 
d="M427 -16c-22.667 0 -48.168 0.333008 -76.501 1s-58 1.5 -89 2.5s-62.5 2.33301 -94.5 4s-62.667 3.83398 -92 6.50098c-12 0.666992 -17 7.33398 -15 20.001l267 1439c1.33301 7.33301 3.33301 12.166 6 14.499s7.66699 3.83301 15 4.5c26.667 2 55.667 3.83301 87 5.5
s62.333 3 93 4s60 1.83301 88 2.5s51.667 1 71 1c74 0 143.833 -3.66699 209.5 -11s125.5 -20.5 179.5 -39.5s101.333 -45 142 -78s72.667 -75.167 96 -126.5s37.166 -113 41.499 -185s-2.5 -156.667 -20.5 -254l-21 -113c-20 -106.667 -44.667 -198 -74 -274
s-63.5 -139.833 -102.5 -191.5s-83 -92.834 -132 -123.501s-103.167 -54.167 -162.5 -70.5s-123.666 -26.833 -192.999 -31.5s-143.666 -7 -222.999 -7zM705.999 1252c-10 0 -21.667 -0.165039 -35 -0.498047l-41 -1c-14 -0.333008 -27.833 -1 -41.5 -2
s-25.834 -2.16699 -36.501 -3.5l-188 -1016c10.667 -1.33301 23.334 -2.5 38.001 -3.5s29.834 -1.83301 45.501 -2.5s30.834 -1.16699 45.501 -1.5s27 -0.5 37 -0.5c72.667 0 137.167 6 193.5 18s105.5 34.667 147.5 68s77.333 79.666 106 138.999s52 136.666 70 231.999
l23 119c17.333 94.667 22.166 171.5 14.499 230.5s-27.167 105.167 -58.5 138.5s-73.833 56 -127.5 68s-117.834 18 -192.501 18zM532.999 1817c-7.33301 9.33301 -5.00098 14 6.99902 14h186c7.33301 0 13 -1 17 -3s8 -5.66699 12 -11l75 -99h20l116 101
c8.66699 8 19.334 12 32.001 12h216c5.33301 0 8.33301 -1 9 -3s-1 -4.66699 -5 -8l-254 -208c-9.33301 -7.33301 -20 -11 -32 -11h-206c-7.33301 0 -13 1 -17 3s-8 5.66699 -12 11z" />
    <glyph glyph-name="dcaron" unicode="&#x10f;" horiz-adv-x="1202" 
d="M654 878c-53.333 0 -97.5 -4.83594 -132.5 -14.5029s-64 -26.167 -87 -49.5s-41.333 -54.166 -55 -92.499s-25.834 -86.166 -36.501 -143.499l-15 -73c-11.333 -60 -17.166 -110.167 -17.499 -150.5s6.83398 -72.666 21.501 -96.999s38 -41.5 70 -51.5s75 -15 129 -15
c32.667 0 66.667 0.833008 102 2.5s67 4.16699 95 7.5l124 662c-12 2.66699 -26.5 5 -43.5 7s-34.5 3.5 -52.5 4.5s-35.833 1.83301 -53.5 2.5s-33.834 1 -48.501 1zM494 -28.0029c-97.333 0 -176.832 8.8291 -238.499 26.4961s-108.334 46.334 -140.001 86.001
s-50 90.834 -55 153.501s0.833008 139 17.5 229l26 140c17.333 94 39.833 172.333 67.5 235s64 112.834 109 150.501s100.667 64.5 167 80.5s146.5 24 240.5 24c36 0 71.833 -2 107.5 -6s67.5 -9 95.5 -15l94 508c1.33301 7.33301 3.33301 12.333 6 15
s7.66699 4.33398 15 5.00098l224 30c12 0.666992 17 -4.66602 15 -15.999l-298 -1595c-1.33301 -7.33301 -3.33301 -12.333 -6 -15s-7.66699 -4.33398 -15 -5.00098c-74.667 -10 -148.167 -17.667 -220.5 -23s-142.833 -8 -211.5 -8zM1297 1167.99
c-12 0 -16.999 5.99902 -14.999 17.999l75 398c1.33301 7.33301 3.33301 12.333 6 15s7.66699 4.33398 15 5.00098l211 29c11.333 0.666992 15.666 -4.33301 12.999 -15l-120 -433c-2 -6.66699 -4.5 -11.167 -7.5 -13.5s-8.16699 -3.5 -15.5 -3.5h-162z" />
    <glyph glyph-name="Dcroat" unicode="&#x110;" horiz-adv-x="1432" 
d="M444 -16c-22.667 0 -48.168 0.333984 -76.501 1.00098s-58 1.5 -89 2.5s-62.5 2.33301 -94.5 4s-62.667 3.83398 -92 6.50098c-12 0.666992 -17 7.33398 -15 20.001l116 628h-147c-12 0 -17 6 -15 18l38 207c1.33301 7.33301 3.33301 12.166 6 14.499s7.66699 3.5 15 3.5
h148l106 568c1.33301 7.33301 3.33301 12.166 6 14.499s7.66699 3.83301 15 4.5c26.667 2 55.667 3.83301 87 5.5s62.333 3 93 4s60 1.83301 88 2.5s51.667 1 71 1c74 0 143.833 -3.66699 209.5 -11s125.5 -20.5 179.5 -39.5s101.333 -45 142 -78s72.667 -75.167 96 -126.5
s37.166 -113 41.499 -185s-2.5 -156.667 -20.5 -254l-21 -113c-20 -106.667 -44.667 -198 -74 -274s-63.5 -139.833 -102.5 -191.5s-83 -92.834 -132 -123.501s-103.167 -54.167 -162.5 -70.5s-123.666 -26.833 -192.999 -31.5s-143.666 -7 -222.999 -7zM722.999 1252
c-10 0 -21.667 -0.166016 -35 -0.499023l-41 -1c-14 -0.333008 -27.833 -1 -41.5 -2s-25.834 -2.16699 -36.501 -3.5l-66 -356h234c12 0 17 -6 15 -18l-38 -207c-1.33301 -7.33301 -3.33301 -12.166 -6 -14.499s-7.66699 -3.5 -15 -3.5h-235l-77 -417
c10.667 -1.33301 23.334 -2.5 38.001 -3.5s29.834 -1.83301 45.501 -2.5s30.834 -1.16699 45.501 -1.5s27 -0.5 37 -0.5c72.667 0 137.167 6 193.5 18s105.5 34.667 147.5 68s77.333 79.666 106 138.999s52 136.666 70 231.999l23 119
c17.333 94.667 22.166 171.5 14.499 230.5s-27.167 105.167 -58.5 138.5s-73.833 56 -127.5 68s-117.834 18 -192.501 18z" />
    <glyph glyph-name="dcroat" unicode="&#x111;" horiz-adv-x="1202" 
d="M494 -28c-97.333 0 -176.832 8.8291 -238.499 26.4961s-108.334 46.334 -140.001 86.001s-50 90.834 -55 153.501s0.833008 139 17.5 229l26 140c17.333 94 39.833 172.333 67.5 235s64 112.834 109 150.501s100.667 64.5 167 80.5s146.5 24 240.5 24
c36 0 71.833 -2 107.5 -6s67.5 -9 95.5 -15l27 149h-287c-12 0 -17 6 -15 18l26 140c1.33301 7.33301 3.33301 12.166 6 14.499s7.66699 3.5 15 3.5h288l34 183c1.33301 7.33301 3.33301 12.333 6 15s7.66699 4.33398 15 5.00098l224 30c12 0.666992 17 -4.66602 15 -15.999
l-41 -217h114c12 0 17 -6 15 -18l-26 -140c-1.33301 -7.33301 -3.33301 -12.166 -6 -14.499s-7.66699 -3.5 -15 -3.5h-115l-224 -1202c-1.33301 -7.33301 -3.33301 -12.333 -6 -15s-7.66699 -4.33398 -15 -5.00098c-74.667 -10 -148.167 -17.667 -220.5 -23
s-142.833 -8 -211.5 -8zM654.001 877.996c-53.333 0 -97.5 -4.83594 -132.5 -14.5029s-64 -26.167 -87 -49.5s-41.333 -54.166 -55 -92.499s-25.834 -86.166 -36.501 -143.499l-15 -73c-11.333 -60 -17.166 -110.167 -17.499 -150.5s6.83398 -72.666 21.501 -96.999
s38 -41.5 70 -51.5s75 -15 129 -15c32.667 0 66.667 0.833008 102 2.5s67 4.16699 95 7.5l124 662c-12 2.66699 -26.5 5 -43.5 7s-34.5 3.5 -52.5 4.5s-35.833 1.83301 -53.5 2.5s-33.834 1 -48.501 1z" />
    <glyph glyph-name="Emacron" unicode="&#x112;" horiz-adv-x="1195" 
d="M76 0c-12 0 -17 5.99805 -15 17.998l266 1439c1.33301 7.33301 3.33301 12.166 6 14.499s7.66699 3.5 15 3.5h883c12 0 17 -6 15 -18l-41 -216c-1.33301 -7.33301 -3.33301 -12.166 -6 -14.499s-7.66699 -3.5 -15 -3.5h-635l-62 -334h509c12 0 17 -6 15 -18l-41 -215
c-1.33301 -7.33301 -3.33301 -12.166 -6 -14.499s-7.66699 -3.5 -15 -3.5h-509l-70 -386h635c12 0 17 -6 15 -18l-42 -216c-1.33301 -7.33301 -3.33301 -12.166 -6 -14.499s-7.66699 -3.5 -15 -3.5h-881zM544 1615c-12 0 -17 6 -15 18l28 150
c1.33301 7.33301 3.33301 12.166 6 14.499s7.66699 3.5 15 3.5h518c12 0 17 -6 15 -18l-28 -150c-1.33301 -7.33301 -3.33301 -12.166 -6 -14.499s-7.66699 -3.5 -15 -3.5h-518z" />
    <glyph glyph-name="emacron" unicode="&#x113;" horiz-adv-x="1155" 
d="M476 -28c-89.333 0 -163.166 10.002 -221.499 30.002s-103.166 51 -134.499 93s-50 95.333 -56 160s-1 141.667 15 231l18 101c16 90 38.667 167.333 68 232s67.166 117.5 113.499 158.5s102.166 71.167 167.499 90.5s142 29 230 29c144 0 248.667 -30.167 314 -90.5
s98 -150.833 98 -271.5c0 -37.333 -2.5 -72 -7.5 -104s-11.167 -60.833 -18.5 -86.5s-14.833 -47.834 -22.5 -66.501s-13.834 -33 -18.501 -43c-5.33301 -10.667 -13.666 -16 -24.999 -16l-680 -2c-5.33301 -46 -5.33301 -83.667 0 -113s16.666 -52.5 33.999 -69.5
s41 -28.667 71 -35s67.333 -9.5 112 -9.5c58 0 116.667 1 176 3s122 5.66699 188 11c11.333 0.666992 16.666 -5 15.999 -17l-19 -169c-1.33301 -7.33301 -3.16602 -12.333 -5.49902 -15s-7.16602 -4.33398 -14.499 -5.00098c-63.333 -7.33301 -127.5 -13.5 -192.5 -18.5
s-133.5 -7.5 -205.5 -7.5zM845 620.002c4 48.667 3.99902 89.5 -0.000976562 122.5s-13.833 59.667 -29.5 80s-38 35 -67 44s-66.167 13.5 -111.5 13.5s-84 -5 -116 -15s-59.167 -25.833 -81.5 -47.5s-40.666 -50 -54.999 -85s-26.5 -77.5 -36.5 -127.5zM429.999 1292
c-12 0 -17 6 -15 18l29 153c1.33301 7.33301 3.33301 12.166 6 14.499s7.66699 3.5 15 3.5h518c12 0 17 -6 15 -18l-28 -153c-1.33301 -7.33301 -3.33301 -12.166 -6 -14.499s-7.66699 -3.5 -15 -3.5h-519z" />
    <glyph glyph-name="Edotaccent" unicode="&#x116;" horiz-adv-x="1195" 
d="M686 1601c-12 0 -17 5.99707 -15 17.9971l38 207c1.33301 7.33301 3.33301 12.333 6 15s7.66699 4.33398 15 5.00098l227 31c12 0.666992 17 -4.66602 15 -15.999l-46 -242c-1.33301 -7.33301 -3.33301 -12.166 -6 -14.499s-7.66699 -3.5 -15 -3.5h-219zM76 -0.00292969
c-12 0 -17 5.99805 -15 17.998l266 1439c1.33301 7.33301 3.33301 12.166 6 14.499s7.66699 3.5 15 3.5h883c12 0 17 -6 15 -18l-41 -216c-1.33301 -7.33301 -3.33301 -12.166 -6 -14.499s-7.66699 -3.5 -15 -3.5h-635l-62 -334h509c12 0 17 -6 15 -18l-41 -215
c-1.33301 -7.33301 -3.33301 -12.166 -6 -14.499s-7.66699 -3.5 -15 -3.5h-509l-70 -386h635c12 0 17 -6 15 -18l-42 -216c-1.33301 -7.33301 -3.33301 -12.166 -6 -14.499s-7.66699 -3.5 -15 -3.5h-881z" />
    <glyph glyph-name="edotaccent" unicode="&#x117;" horiz-adv-x="1155" 
d="M476 -28c-89.333 0 -163.166 10.002 -221.499 30.002s-103.166 51 -134.499 93s-50 95.333 -56 160s-1 141.667 15 231l18 101c16 90 38.667 167.333 68 232s67.166 117.5 113.499 158.5s102.166 71.167 167.499 90.5s142 29 230 29c144 0 248.667 -30.167 314 -90.5
s98 -150.833 98 -271.5c0 -37.333 -2.5 -72 -7.5 -104s-11.167 -60.833 -18.5 -86.5s-14.833 -47.834 -22.5 -66.501s-13.834 -33 -18.501 -43c-5.33301 -10.667 -13.666 -16 -24.999 -16l-680 -2c-5.33301 -46 -5.33301 -83.667 0 -113s16.666 -52.5 33.999 -69.5
s41 -28.667 71 -35s67.333 -9.5 112 -9.5c58 0 116.667 1 176 3s122 5.66699 188 11c11.333 0.666992 16.666 -5 15.999 -17l-19 -169c-1.33301 -7.33301 -3.16602 -12.333 -5.49902 -15s-7.16602 -4.33398 -14.499 -5.00098c-63.333 -7.33301 -127.5 -13.5 -192.5 -18.5
s-133.5 -7.5 -205.5 -7.5zM845 620.002c4 48.667 3.99902 89.5 -0.000976562 122.5s-13.833 59.667 -29.5 80s-38 35 -67 44s-66.167 13.5 -111.5 13.5s-84 -5 -116 -15s-59.167 -25.833 -81.5 -47.5s-40.666 -50 -54.999 -85s-26.5 -77.5 -36.5 -127.5zM578.999 1231
c-12 0 -17 5.99707 -15 17.9971l53 276c1.33301 7.33301 3.33301 12.333 6 15s7.66699 4.33398 15 5.00098l225 31c12 0.666992 17 -4.66602 15 -15.999l-59 -311c-1.33301 -7.33301 -3.33301 -12.166 -6 -14.499s-7.66699 -3.5 -15 -3.5h-219z" />
    <glyph glyph-name="Eogonek" unicode="&#x118;" horiz-adv-x="1195" 
d="M908 0c-26 -14.667 -50.001 -31.502 -72.001 -50.502s-41 -38.833 -57 -59.5s-28.5 -41.5 -37.5 -62.5s-13.5 -40.833 -13.5 -59.5c0 -17.333 6.33301 -29 19 -35s36.334 -9 71.001 -9c12.667 0 27 0.333008 43 1s32 2 48 4c12.667 2 18 -3 16 -15l-8 -96
c-0.666992 -7.33301 -2.16699 -12.5 -4.5 -15.5s-6.83301 -5.16699 -13.5 -6.5c-15.333 -3.33301 -35.5 -6.33301 -60.5 -9s-56.5 -4 -94.5 -4c-74.667 0 -129 10.667 -163 32s-51 56.333 -51 105c0 30 4.5 58.833 13.5 86.5s21.833 53.5 38.5 77.5s36.667 45.833 60 65.5
s49.333 36.5 78 50.5h-644c-12 0 -17 6 -15 18l266 1439c1.33301 7.33301 3.33301 12.166 6 14.499s7.66699 3.5 15 3.5h883c12 0 17 -6 15 -18l-41 -216c-1.33301 -7.33301 -3.33301 -12.166 -6 -14.499s-7.66699 -3.5 -15 -3.5h-635l-62 -334h509c12 0 17 -6 15 -18
l-41 -215c-1.33301 -7.33301 -3.33301 -12.166 -6 -14.499s-7.66699 -3.5 -15 -3.5h-509l-70 -386h635c12 0 17 -6 15 -18l-42 -216c-1.33301 -7.33301 -3.33301 -12.166 -6 -14.499s-7.66699 -3.5 -15 -3.5h-49z" />
    <glyph glyph-name="eogonek" unicode="&#x119;" horiz-adv-x="1156" 
d="M476 -28c-89.333 0 -163.167 10.0039 -221.5 30.0039s-103.166 51 -134.499 93s-50 95.333 -56 160s-1 141.667 15 231l18 101c16 90 38.667 167.333 68 232s67.166 117.5 113.499 158.5s102.166 71.167 167.499 90.5s142 29 230 29c144 0 248.667 -30.167 314 -90.5
s98 -150.833 98 -271.5c0 -37.333 -2.5 -72 -7.5 -104s-11.167 -60.833 -18.5 -86.5s-14.833 -47.834 -22.5 -66.501s-13.834 -33 -18.501 -43c-5.33301 -10.667 -13.666 -16 -24.999 -16l-680 -2c-5.33301 -46 -5.33301 -83.667 0 -113s16.666 -52.5 33.999 -69.5
s41 -28.667 71 -35s67.333 -9.5 112 -9.5c58 0 116.667 1 176 3s122 5.66699 188 11c11.333 0.666992 16.666 -5 15.999 -17l-19 -169c-1.33301 -7.33301 -3.16602 -12.333 -5.49902 -15s-7.16602 -4.33398 -14.499 -5.00098l-60 -7c-24 -14.667 -46 -31.334 -66 -50.001
s-37.333 -37.834 -52 -57.501s-26.167 -39.5 -34.5 -59.5s-12.5 -38.667 -12.5 -56s6.33301 -29 19 -35s36.334 -9 71.001 -9c12.667 0 27 0.333008 43 1s32 2 48 4c12.667 2 18 -3 16 -15l-8 -96c-0.666992 -7.33301 -2.16699 -12.5 -4.5 -15.5
s-6.83301 -5.16699 -13.5 -6.5c-15.333 -3.33301 -35.5 -6.33301 -60.5 -9s-56.5 -4 -94.5 -4c-74.667 0 -129 10.667 -163 32s-51 56.333 -51 105c0 52 13.167 100 39.5 144s61.833 81 106.5 111c-40 -2 -80.333 -3 -121 -3zM844.999 620.004
c4 48.667 3.99902 89.5 -0.000976562 122.5s-13.833 59.667 -29.5 80s-38 35 -67 44s-66.167 13.5 -111.5 13.5s-84 -5 -116 -15s-59.167 -25.833 -81.5 -47.5s-40.666 -50 -54.999 -85s-26.5 -77.5 -36.5 -127.5z" />
    </font>
</defs>
</svg>
