<?xml version="1.0" standalone="no"?>
<!DOCTYPE svg PUBLIC "-//W3C//DTD SVG 1.1//EN" "http://www.w3.org/Graphics/SVG/1.1/DTD/svg11.dtd" >
<svg>
<metadata>
Created by FontForge 20090914 at Thu Apr  9 18:01:22 2015
 By www-data
Copyright (c) 1992
</metadata>
<defs>
<font id="Helvetica_cyr-Bold" horiz-adv-x="556" >
  <font-face 
    font-family="Helvetica"
    font-weight="700"
    font-stretch="normal"
    units-per-em="1000"
    panose-1="0 0 0 0 0 0 0 0 0 0"
    ascent="800"
    descent="-200"
    x-height="532"
    cap-height="718"
    bbox="-33 -217 1073 915"
    underline-thickness="20"
    underline-position="-123"
    unicode-range="U+0020-U+2122"
  />
<missing-glyph horiz-adv-x="783" 
d="M48 0v783h687v-783h-687zM687 48v687h-591v-687h591z" />
    <glyph glyph-name=".notdef" horiz-adv-x="783" 
d="M48 0v783h687v-783h-687zM687 48v687h-591v-687h591z" />
    <glyph glyph-name="space" unicode=" " horiz-adv-x="278" 
 />
    <glyph glyph-name="exclam" unicode="!" horiz-adv-x="333" 
d="M240 141v-141h-146v141h146zM244 535l-41 -336h-74l-39 336v183h154v-183z" />
    <glyph glyph-name="quotedbl" unicode="&#x22;" horiz-adv-x="474" 
d="M277 447v271h99l-1 -271h-98zM97 447v271h99l-1 -271h-98z" />
    <glyph glyph-name="numbersign" unicode="#" 
d="M508 289l-12 -90h-97l-27 -199h-94l27 199h-97l-27 -199h-94l27 199h-97l12 90h97l18 120h-97l11 90h97l28 199h94l-28 -199h97l28 199h94l-28 -199h97l-11 -90h-97l-18 -120h97zM335 409h-97l-18 -120h97z" />
    <glyph glyph-name="dollar" unicode="$" 
d="M511 501l-129 -0.000976562c0 41.333 -8.66699 70 -26 86c-12 11.333 -30.333 17 -55 17v-187c44 -14 79.667 -27.667 107 -41s47.333 -26 60 -38c24 -22.667 40 -49 48 -79c4.66699 -17.333 7 -37.666 7 -60.999c0 -54.667 -16.333 -102 -49 -142
c-40 -48.667 -97.667 -73 -173 -73l1 -98h-46l-1 98c-78.667 0 -135.834 19.5 -171.501 58.5s-53.5 96.833 -53.5 173.5h131c3.33301 -40 10 -68 20 -84c13.333 -21.333 38 -35.333 74 -42v210c-65.333 17.333 -112.666 37 -141.999 59c-45.333 34 -68 82 -68 144
c0 58.667 17 107 51 145c37.333 42 90 63 158 63v65h46v-65c58 -6 102.333 -19.333 133 -40c52 -34.667 78 -91 78 -169zM255 430.999l-0.000976562 173c-27.333 0 -48.166 -8 -62.499 -24s-21.5 -34 -21.5 -54c0 -29.333 9 -52 27 -68c14 -12.667 33 -21.667 57 -27z
M300.999 281.999l0.000976562 -193c21.333 0 40 6.66699 56 20c21.333 18 32 44 32 78c0 26 -9.66699 47.667 -29 65c-14.667 13.333 -34.334 23.333 -59.001 30z" />
    <glyph glyph-name="percent" unicode="%" horiz-adv-x="889" 
d="M497 170c0 50.667 17.667 93.667 53 129s78.333 53 129 53c50 0 92.833 -17.833 128.5 -53.5s53.5 -78.5 53.5 -128.5s-17.833 -92.833 -53.5 -128.5s-78.5 -53.5 -128.5 -53.5s-92.833 17.5 -128.5 52.5s-53.5 78.167 -53.5 129.5zM600 170
c0 -22 7.66699 -40.667 23 -56s34 -23 56 -23c21.333 0 39.833 7.5 55.5 22.5s23.5 33.833 23.5 56.5c0 22 -7.66699 40.667 -23 56s-34 23 -56 23c-21.333 0 -39.833 -7.5 -55.5 -22.5s-23.5 -33.833 -23.5 -56.5zM27 528c0 50.667 17.668 93.667 53.001 129
s78.333 53 129 53c50 0 92.833 -17.833 128.5 -53.5s53.5 -78.5 53.5 -128.5c0 -50.667 -17.667 -93.667 -53 -129s-78 -53 -128 -53c-50.667 0 -93.834 17.5 -129.501 52.5s-53.5 78.167 -53.5 129.5zM130.001 528c0 -22 7.66699 -40.667 23 -56s34 -23 56 -23
c21.333 0 39.833 7.5 55.5 22.5s23.5 33.833 23.5 56.5c0 22 -7.66699 40.667 -23 56s-34 23 -56 23c-21.333 0 -39.833 -7.5 -55.5 -22.5s-23.5 -33.833 -23.5 -56.5zM677.001 710l-397 -729h-74l397 729h74z" />
    <glyph glyph-name="ampersand" unicode="&#x26;" horiz-adv-x="722" 
d="M388 553c0 19.333 -5.66699 34 -17 44s-26 15 -44 15c-16.667 0 -30.334 -5 -41.001 -15s-16 -24.333 -16 -43c0 -23.333 17.333 -53.333 52 -90c20.667 13.333 36.834 27 48.501 41s17.5 30 17.5 48zM570 157l131.002 -156.998h-169l-49 61
c-25.333 -25.333 -51 -44 -77 -56c-35.333 -16 -78 -24 -128 -24c-66.667 0 -120.834 20.167 -162.501 60.5s-62.5 88.166 -62.5 143.499c0 40.667 8 75 24 103c21.333 37.333 59.666 72.666 114.999 105.999l15 9c-18.667 21.333 -33.334 42.666 -44.001 63.999
c-14 28.667 -21 57.334 -21 86.001c0 48.667 17.667 88.334 53 119.001s81.333 46 138 46c45.333 0 84.333 -13 117 -39c38.667 -30.667 58 -73 58 -127c0 -34.667 -9.5 -65.834 -28.5 -93.501s-48.833 -53.5 -89.5 -77.5l102 -126c14.667 23.333 24.334 43.333 29.001 60
s7 36 7 58h124c0 -46 -7.33301 -86.333 -22 -121c-10.667 -26 -30.667 -57.667 -60 -95zM411.002 149.002l-132 164.999c-32 -23.333 -53.333 -41.666 -64 -54.999c-14 -18 -21 -39.667 -21 -65c0 -21.333 7 -40.666 21 -57.999c19.333 -24.667 47.666 -37 84.999 -37
c22 0 43.333 5.33301 64 16c14.667 7.33301 30.334 18.666 47.001 33.999z" />
    <glyph glyph-name="quotesingle" unicode="'" horiz-adv-x="238" 
d="M69 447l1 271h98l-1 -271h-98z" />
    <glyph glyph-name="parenleft" unicode="(" horiz-adv-x="333" 
d="M314 -208h-103c-53.333 72 -94 140.667 -122 206c-36.667 86 -55 173.667 -55 263c0 90 17.667 177.667 53 263c28 66.667 69 136.667 123 210h103c-43.333 -74 -75.333 -143.333 -96 -208c-26 -82 -39 -170.333 -39 -265c0 -64.667 6.33301 -126.334 19 -185.001
c10.667 -50 27 -100.333 49 -151c17.333 -39.333 40 -83.666 68 -132.999z" />
    <glyph glyph-name="parenright" unicode=")" horiz-adv-x="333" 
d="M18 734l103 0.00195312c53.333 -71.333 94 -140 122 -206c36 -85.333 54 -173 54 -263c0 -90.667 -17.333 -178.334 -52 -263.001c-28 -68 -69 -138 -123 -210h-103c44 74 76 143.333 96 208c25.333 80 38 168.333 38 265c0 94.667 -13.333 182.667 -40 264
c-20 61.333 -51.667 129.666 -95 204.999z" />
    <glyph glyph-name="asterisk" unicode="*" horiz-adv-x="389" 
d="M338 633l23 -73l-105 -32l70 -97l-64 -44l-67 91l-70 -91l-62 44l67 97l-104 32l24 73l101 -34l1 119h85l-1 -119z" />
    <glyph glyph-name="plus" unicode="+" horiz-adv-x="584" 
d="M236 309v197h112v-197h196v-112h-196v-197h-112v197h-196v112h196z" />
    <glyph glyph-name="comma" unicode="," horiz-adv-x="278" 
d="M214 146v-125.999c0 -57.333 -14 -101.333 -42 -132c-24 -26 -59.667 -44.667 -107 -56v53c26 9.33301 44.333 19.333 55 30c18.667 19.333 28 47.666 28 84.999h-84v146h150z" />
    <glyph glyph-name="hyphen" unicode="-" horiz-adv-x="333" 
d="M305 345l1 -130h-279v130h278z" />
    <glyph glyph-name="period" unicode="." horiz-adv-x="278" 
d="M214 146v-146h-150v146h150z" />
    <glyph glyph-name="slash" unicode="/" horiz-adv-x="278" 
d="M311 737l-227 -756h-117l227 756h117z" />
    <glyph glyph-name="zero" unicode="0" 
d="M32 346c0 124.667 19.832 216.5 59.499 275.5s101.5 88.5 185.5 88.5s146.167 -29.5 186.5 -88.5s60.5 -150.833 60.5 -275.5s-20 -216.667 -60 -276s-102 -89 -186 -89c-83.333 0 -145.166 29.833 -185.499 89.5s-60.5 151.5 -60.5 275.5zM175.999 346
c0 -93.333 7.16895 -158.833 21.502 -196.5s41.166 -56.5 80.499 -56.5s66.166 18.667 80.499 56s21.5 103 21.5 197c0 93.333 -7.33301 158.666 -22 195.999s-41.667 56 -81 56c-38.667 0 -65.167 -18.667 -79.5 -56s-21.5 -102.666 -21.5 -195.999z" />
    <glyph glyph-name="one" unicode="1" 
d="M69 489v98h20c61.333 0 107 13.667 137 41c24 22 36 49.333 36 82h115l1 -710h-140v489h-169z" />
    <glyph glyph-name="two" unicode="2" 
d="M170 459l-136 -0.00195312c0 100 30.667 170.667 92 212c38 26 84.333 39 139 39c70.667 0 129 -19.833 175 -59.5s69 -94.5 69 -164.5c0 -54 -16 -101.667 -48 -143c-21.333 -28 -54.333 -57.333 -99 -88l-87 -61c-40 -29.333 -64 -52.666 -72 -69.999h308v-124h-485
c0 53.333 8 96.666 24 129.999c24 50.667 71 101.334 141 152.001c58.667 42.667 96 71 112 85c44 38.667 66 80 66 124c0 26.667 -7.66699 49.334 -23 68.001c-18 22 -43 33 -75 33c-42.667 0 -71.667 -15.667 -87 -47c-9.33301 -19.333 -14 -48 -14 -86z" />
    <glyph glyph-name="three" unicode="3" 
d="M212 311l0.00292969 100.001h22c32.667 0 57.667 4.33301 75 13c30 15.333 45 43 45 83c0 28.667 -8.33301 51 -25 67s-38.334 24 -65.001 24c-41.333 0 -69.333 -16 -84 -48c-8 -17.333 -12 -40 -12 -68h-130c0 69.333 19 124 57 164c40.667 42.667 100 64 178 64
c57.333 0 106 -14 146 -42c50 -35.333 75 -87.333 75 -156c0 -34 -9 -63.333 -27 -88c-14.667 -20.667 -34.334 -36.334 -59.001 -47.001c34 -12 60.5 -32.667 79.5 -62s28.5 -64.333 28.5 -105c0 -67.333 -22.333 -122.333 -67 -165s-103 -64 -175 -64
c-81.333 0 -143 21 -185 63s-63 100 -63 174h137c0 -31.333 5.33301 -57 16 -77c17.333 -32 46.666 -48 87.999 -48c30 0 54.333 9.33301 73 28c21.333 21.333 32 51 32 89c0 42.667 -18.333 71.667 -55 87c-22.667 9.33301 -57.667 14 -105 14z" />
    <glyph glyph-name="four" unicode="4" 
d="M130 266h179v305zM526 266l-1 -109h-78v-157h-140v157h-280v121l260 432h160v-444h79z" />
    <glyph glyph-name="five" unicode="5" 
d="M198 580l-23.998 -153.999c16 11.333 31.667 20 47 26c23.333 8.66699 50 13 80 13c55.333 0 103 -17.667 143 -53c48 -42 72 -100.667 72 -176c0 -64.667 -16.667 -119.334 -50 -164.001c-45.333 -60.667 -114.666 -91 -207.999 -91
c-62.667 0 -115.334 16.667 -158.001 50c-49.333 38.667 -74 91.667 -74 159h140c3.33301 -30.667 13.333 -54.5 30 -71.5s40 -25.5 70 -25.5c32.667 0 58.5 12.333 77.5 37s28.5 56.667 28.5 96c0 34.667 -8 63.667 -24 87c-18.667 26.667 -45.334 40 -80.001 40
c-18.667 0 -33.334 -2 -44.001 -6c-21.333 -8 -38.333 -23 -51 -45l-125 6l49 390h390v-118h-289z" />
    <glyph glyph-name="six" unicode="6" 
d="M506 530l-138.999 -0.000976562c-2.66699 21.333 -10.667 38 -24 50s-33 18 -59 18c-41.333 0 -72 -21 -92 -63c-16.667 -35.333 -25 -79.666 -25 -132.999l3 -2c16 22 35.167 37.333 57.5 46s47.5 13 75.5 13c68.667 0 123 -23 163 -69c36 -42 54 -92 54 -150
c0 -78 -21.333 -140.667 -64 -188s-98.667 -71 -168 -71c-98 0 -167.667 37.333 -209 112c-32 57.333 -48 139 -48 245c0 62.667 4.33301 114.667 13 156c13.333 63.333 37.333 113 72 149c43.333 44.667 102.666 67 177.999 67c22.667 0 46 -3 70 -9
c34 -8.66699 59 -21 75 -37c20.667 -20 35.5 -38.5 44.5 -55.5s16.5 -43.167 22.5 -78.5zM379.001 227.999c0 40.667 -11.333 71.666 -34 92.999c-18.667 17.333 -41 26 -67 26c-30 0 -54.333 -9 -73 -27c-22.667 -22 -34 -53.667 -34 -95c0 -39.333 10 -71.166 30 -95.499
s47 -36.5 81 -36.5c28 0 51.167 11 69.5 33s27.5 56 27.5 102z" />
    <glyph glyph-name="seven" unicode="7" 
d="M527 698v-107.999c-38.667 -42.667 -70.667 -81.667 -96 -117c-46.667 -65.333 -83.334 -132 -110.001 -200c-34.667 -89.333 -52 -180.333 -52 -273h-144c0 86 17.333 173 52 261c26.667 67.333 62.667 133.666 108 198.999c28.667 41.333 59.334 79.333 92.001 114
h-353v124h503z" />
    <glyph glyph-name="eight" unicode="8" 
d="M279 422c27.333 0 48.499 8.16699 63.499 24.5s22.5 37.5 22.5 63.5s-7.83301 47.167 -23.5 63.5s-35.167 24.5 -58.5 24.5c-31.333 0 -55.166 -7.83301 -71.499 -23.5s-24.5 -37.167 -24.5 -64.5c0 -23.333 8.16699 -43.833 24.5 -61.5s38.833 -26.5 67.5 -26.5z
M523.999 211c0 -56.667 -17.332 -106 -51.999 -148c-44.667 -54.667 -109.334 -82 -194.001 -82c-83.333 0 -147 23.667 -191 71c-36.667 40 -55 88.333 -55 145c0 34 4.33301 62 13 84c16.667 42.667 48 74.667 94 96c-56.667 28.667 -85 75 -85 139
c0 59.333 20.667 106.5 62 141.5s94 52.5 158 52.5c70.667 0 126.667 -18.333 168 -55c38.667 -34.667 58 -78 58 -130c0 -32.667 -6.66699 -61 -20 -85s-34.333 -43.333 -63 -58c36.667 -18 63 -39 79 -63c18.667 -28 28 -64 28 -108zM380 205c0 29.333 -7.66699 54 -23 74
c-18.667 24.667 -46 37 -82 37c-28 0 -51.5 -9.16699 -70.5 -27.5s-28.5 -45.833 -28.5 -82.5c0 -34.667 9.16699 -62.167 27.5 -82.5s43.5 -30.5 75.5 -30.5c34 0 60 12.333 78 37c15.333 20.667 23 45.667 23 75z" />
    <glyph glyph-name="nine" unicode="9" 
d="M169 475c0 -49.333 10.668 -84.333 32.001 -105c17.333 -16.667 41.666 -25 72.999 -25c27.333 0 50.666 9.33301 69.999 28c22.667 22 34 52.333 34 91c0 41.333 -9.16699 73.5 -27.5 96.5s-45.166 34.5 -80.499 34.5c-26 0 -47.333 -7 -64 -21
c-24.667 -20.667 -37 -53.667 -37 -99zM44.001 164l138.999 -0.00195312c4 -24 13.167 -41.833 27.5 -53.5s32.5 -17.5 54.5 -17.5c32.667 0 59.334 14.333 80.001 43c24.667 34.667 37 86.334 37 155.001l-3 2c-14.667 -22 -34.667 -38 -60 -48c-21.333 -8 -46 -12 -74 -12
c-65.333 0 -117.5 21.5 -156.5 64.5s-58.5 95.5 -58.5 157.5c0 84 22.667 148.333 68 193c42 41.333 99.667 62 173 62c83.333 0 145.833 -29.5 187.5 -88.5s62.5 -151.167 62.5 -276.5c0 -127.333 -26.667 -222.333 -80 -285c-44.667 -52.667 -103.667 -79 -177 -79
c-60.667 0 -111 16.333 -151 49s-63 77.334 -69 134.001z" />
    <glyph glyph-name="colon" unicode=":" horiz-adv-x="333" 
d="M242 146v-146h-150v146h150zM242 512v-146h-150v146h150z" />
    <glyph glyph-name="semicolon" unicode=";" horiz-adv-x="333" 
d="M242 146v-125.999c0 -57.333 -14 -101.333 -42 -132c-24 -26 -59.667 -44.667 -107 -56v53c26 9.33301 44.333 19.333 55 30c18.667 19.333 28 47.666 28 84.999h-84v146h150zM242 512.001v-146h-150v146h150z" />
    <glyph glyph-name="less" unicode="&#x3c;" horiz-adv-x="584" 
d="M546 100v-108l-508 216v90l507 216v-108l-362 -153z" />
    <glyph glyph-name="equal" unicode="=" horiz-adv-x="584" 
d="M543 419v-112h-504v112h504zM543 199v-112h-504v112h504z" />
    <glyph glyph-name="greater" unicode="&#x3e;" horiz-adv-x="584" 
d="M38 100l363 153l-364 153v108l508 -216l1 -90l-508 -216v108z" />
    <glyph glyph-name="question" unicode="?" horiz-adv-x="611" 
d="M374 208l-132 0.000976562c0 52 5.83301 91 17.5 117s39.5 54.667 83.5 86c41.333 28.667 62 61.667 62 99c0 36 -10.667 62.333 -32 79c-16.667 13.333 -38.334 20 -65.001 20c-30.667 0 -55.167 -8.5 -73.5 -25.5s-29.833 -46.833 -34.5 -89.5l-140 -1
c0 79.333 26.333 140 79 182c43.333 34.667 97 52 161 52c80 0 143.333 -19.667 190 -59c43.333 -36.667 65 -88 65 -154c0 -38.667 -10.333 -72.667 -31 -102c-17.333 -24.667 -47.333 -52 -90 -82c-23.333 -17.333 -38.666 -32.333 -45.999 -45
c-9.33301 -16.667 -14 -42.334 -14 -77.001zM384 141.001v-141h-146v141h146z" />
    <glyph glyph-name="at" unicode="@" horiz-adv-x="834" 
d="M511 376c0 24.667 -7.66895 45.001 -23.002 61.001s-34.666 24 -57.999 24c-32.667 0 -60.334 -14.333 -83.001 -43s-34 -59.334 -34 -92.001c0 -26.667 6.83301 -48.167 20.5 -64.5s32.834 -24.5 57.501 -24.5c34.667 0 63.334 14.167 86.001 42.5s34 60.5 34 96.5z
M540.998 493.001l11.999 53.002h88l-57 -255c-2 -9.33301 -3.66699 -17.666 -5 -24.999s-2 -13.333 -2 -18c0 -13.333 4.66699 -20 14 -20c28.667 0 54.834 16.333 78.501 49s35.5 75 35.5 127c0 80 -25.333 142.167 -76 186.5s-116.334 66.5 -197.001 66.5
c-84.667 0 -153.334 -28.333 -206.001 -85s-79 -128.334 -79 -215.001c0 -88.667 27.833 -160.167 83.5 -214.5s127.5 -81.5 215.5 -81.5c40.667 0 79 7.16699 115 21.5s67.667 34.166 95 59.499h89c-34.667 -51.333 -78.5 -91 -131.5 -119s-110.833 -42 -173.5 -42
c-108.667 0 -201.334 36 -278.001 108s-115 162 -115 270c0 106 37.833 195.5 113.5 268.5s166.834 109.5 273.501 109.5c94.667 0 176 -28 244 -84c72 -59.333 108 -134.333 108 -225c0 -94.667 -33.667 -170 -101 -226c-52 -43.333 -103.333 -65 -154 -65
c-15.333 0 -28.833 4.5 -40.5 13.5s-17.5 22.167 -17.5 39.5c-15.333 -15.333 -32.333 -28 -51 -38s-37 -15 -55 -15c-43.333 0 -81 17.167 -113 51.5s-48 75.166 -48 122.499c0 65.333 19.333 122 58 170c41.333 51.333 93.333 77 156 77c26.667 0 49.834 -5 69.501 -15
s36.834 -26.667 51.501 -50z" />
    <glyph glyph-name="A" unicode="A" horiz-adv-x="722" 
d="M227 148l-49 -148h-158l256 718h173l253 -718h-163l-47 148h-265zM268 272h183l-90 284z" />
    <glyph glyph-name="B" unicode="B" horiz-adv-x="722" 
d="M76 0l-0.00195312 718.001h349c78.667 0 137.334 -21.333 176.001 -64c30 -33.333 45 -73.333 45 -120c0 -44.667 -11 -80 -33 -106c-12.667 -14.667 -31.334 -28.334 -56.001 -41.001c40.667 -15.333 70 -39.333 88 -72c15.333 -28 23 -62 23 -102
c0 -59.333 -20.333 -108.666 -61 -147.999c-23.333 -22.667 -47.666 -38.334 -72.999 -47.001c-35.333 -12 -86.666 -18 -153.999 -18h-304zM218.998 316.001l1 -191.999h184c37.333 0 65.833 8.5 85.5 25.5s29.5 43.5 29.5 79.5c0 29.333 -10.667 51.166 -32 65.499
s-47 21.5 -77 21.5h-191zM218.998 594.002l0.999023 -157h176c32 0 57 6 75 18c20.667 14 31 34.667 31 62s-9.66699 47 -29 59s-46.666 18 -81.999 18h-172z" />
    <glyph glyph-name="C" unicode="C" horiz-adv-x="722" 
d="M684 483h-149.997c-9.33301 34.667 -22 60.667 -38 78c-27.333 30.667 -68 46 -122 46c-46 0 -84.333 -16.333 -115 -49c-41.333 -44 -62 -111.333 -62 -202c0 -70.667 13.667 -127.667 41 -171c31.333 -49.333 77 -74 137 -74c42 0 76.667 11.5 104 34.5
s45.333 56.5 54 100.5h150c-15.333 -82 -48 -145.667 -98 -191c-54 -49.333 -125 -74 -213 -74c-98.667 0 -177.334 31.667 -236.001 95c-62 66.667 -93 160.667 -93 282s32 216 96 284c59.333 63.333 137.666 95 234.999 95s174.666 -29 231.999 -87
c46.667 -47.333 72.667 -103 78 -167z" />
    <glyph glyph-name="D" unicode="D" horiz-adv-x="722" 
d="M76 0v718.001h317c108 0 187 -40 237 -120c36.667 -58.667 55 -132.667 55 -222c0 -96.667 -20 -178.334 -60 -245.001c-52 -87.333 -131.333 -131 -238 -131h-311zM222 594.001l1 -470h146c56 0 98.333 25.333 127 76c24 42.667 36 97.667 36 165
c0 93.333 -19.667 158 -59 194c-25.333 23.333 -61 35 -107 35h-144z" />
    <glyph glyph-name="E" unicode="E" horiz-adv-x="667" 
d="M604 718v-127h-381v-151h350v-127h-350v-186h398v-127h-545v718h528z" />
    <glyph glyph-name="F" unicode="F" horiz-adv-x="611" 
d="M225 302l1 -302h-150v718h511v-127h-361l-1 -162h316v-127h-316z" />
    <glyph glyph-name="G" unicode="G" horiz-adv-x="778" 
d="M412 266l0.00390625 120.998h300v-387h-99l-15 90c-28.667 -33.333 -54.334 -57 -77.001 -71c-40.667 -25.333 -89.667 -38 -147 -38c-92.667 0 -169.334 31 -230.001 93c-66.667 68 -100 162.333 -100 283c0 106.667 28 194.334 84 263.001
c63.333 78 152.333 117 267 117c100 0 179.667 -28 239 -84c50 -47.333 75 -100 75 -158h-150c0 20.667 -12.667 43.667 -38 69c-32.667 32.667 -72.334 49 -119.001 49c-58.667 0 -106.334 -20 -143.001 -60c-42 -46 -63 -112 -63 -198c0 -90 22 -155.667 66 -197
c35.333 -33.333 83.333 -50 144 -50c31.333 0 60.333 8 87 24c44.667 26.667 73.667 71.334 87 134.001h-168z" />
    <glyph glyph-name="H" unicode="H" horiz-adv-x="722" 
d="M501 322h-280v-322h-150v718h150v-272h280v272h150v-718h-150v322z" />
    <glyph glyph-name="I" unicode="I" horiz-adv-x="278" 
d="M214 718v-718h-150v718h150z" />
    <glyph glyph-name="J" unicode="J" 
d="M484 718l-0.000976562 -510c0 -75.333 -18.833 -131.833 -56.5 -169.5s-93.167 -56.5 -166.5 -56.5c-106 0 -175.667 31 -209 93c-20 36.667 -30 102 -30 196h140c0 -62.667 4.66699 -104.667 14 -126c12 -28 36.667 -42 74 -42c34.667 0 58.334 10.667 71.001 32
c8.66699 14.667 13 39 13 73v510h150z" />
    <glyph glyph-name="K" unicode="K" horiz-adv-x="722" 
d="M237 243v-243h-150v718h150v-292l274 292h194l-294 -294l311 -424h-193l-222 315z" />
    <glyph glyph-name="L" unicode="L" horiz-adv-x="611" 
d="M226 718v-588h357v-130h-507v718h150z" />
    <glyph glyph-name="M" unicode="M" horiz-adv-x="833" 
d="M765 718v-718h-140v600l-136 -600h-147l-131 600l-2 -600h-140v718h219l130 -566l130 566h217z" />
    <glyph glyph-name="N" unicode="N" horiz-adv-x="722" 
d="M514 718h140v-718h-150l-293 512l-2 -512h-140v718h158l284 -500z" />
    <glyph glyph-name="O" unicode="O" horiz-adv-x="778" 
d="M43 359c0 102.667 22.668 185.335 68.001 248.002c35.333 48.667 84 84.334 146 107.001c42 15.333 86 23 132 23c45.333 0 89 -7.66699 131 -23c61.333 -22.667 109.666 -58.334 144.999 -107.001c45.333 -62.667 68 -145.334 68 -248.001
s-22.667 -185.334 -68 -248.001c-35.333 -49.333 -83.333 -85 -144 -107c-42 -15.333 -86 -23 -132 -23s-90 7.66699 -132 23c-60.667 22 -109 57.667 -145 107c-46 63.333 -69 146 -69 248zM193.001 359.001c0 -90.667 22.334 -157.667 67.001 -201
c34.667 -33.333 77.667 -50 129 -50c50.667 0 93 16.667 127 50c44.667 43.333 67 110.333 67 201s-22 157.667 -66 201c-34 33.333 -76.667 50 -128 50c-50.667 0 -93.334 -16.667 -128.001 -50c-45.333 -43.333 -68 -110.333 -68 -201z" />
    <glyph glyph-name="P" unicode="P" horiz-adv-x="667" 
d="M226 259v-259h-150v718h328c69.333 0 123.833 -20.5 163.5 -61.5s59.5 -97.167 59.5 -168.5c0 -50.667 -14 -97 -42 -139c-40 -60 -102.333 -90 -187 -90h-172zM225 383l139.001 0.000976562c48 0 80.667 14.667 98 44c9.33301 16 14 38.667 14 68
c0 35.333 -10.333 60.666 -31 75.999s-54.334 23 -101.001 23h-119v-211z" />
    <glyph glyph-name="Q" unicode="Q" horiz-adv-x="778" 
d="M397 195l78 81l76 -71c10 19.333 17.833 41.833 23.5 67.5s8.5 54.5 8.5 86.5c0 90.667 -22 157.667 -66 201c-34 33.333 -76.667 50 -128 50c-50.667 0 -93.334 -16.667 -128.001 -50c-45.333 -43.333 -68 -110.333 -68 -201s22.333 -157.667 67 -201
c34.667 -33.333 77.667 -50 129 -50c14 0 27.833 1.5 41.5 4.5s26.834 7.83301 39.501 14.5zM737 29l-78.999 -81l-85 81c-30.667 -18 -64.667 -31 -102 -39c-28 -6 -55.333 -9 -82 -9c-46 0 -90 7.66699 -132 23c-60.667 22 -109 57.667 -145 107
c-46 63.333 -69 146 -69 248c0 102.667 22.667 185.334 68 248.001c35.333 48.667 84 84.334 146 107.001c42 15.333 86 23 132 23c45.333 0 89 -7.66699 131 -23c61.333 -22.667 109.666 -58.334 144.999 -107.001c45.333 -62.667 68 -145.334 68 -248.001
c0 -57.333 -6.33301 -106.833 -19 -148.5s-31 -77.5 -55 -107.5z" />
    <glyph glyph-name="R" unicode="R" horiz-adv-x="722" 
d="M76 0l0.00390625 718.002h363c83.333 0 144.666 -26 183.999 -78c27.333 -36.667 41 -78.334 41 -125.001c0 -40 -9.83301 -75.5 -29.5 -106.5s-46.834 -52.5 -81.501 -64.5c34 -14.667 56.667 -31.334 68 -50.001c15.333 -25.333 23 -69.333 23 -132
c0 -57.333 1.66699 -94 5 -110s12.666 -27 27.999 -33v-19h-166c-5.33301 19.333 -9.33301 39 -12 59s-4 48.667 -4 86c0 54.667 -5.33301 89.667 -16 105c-14.667 20.667 -48.334 31 -101.001 31h-155v-281h-147zM222.004 402.002h176c40 0 69.333 7.5 88 22.5
s28 40.167 28 75.5c0 24.667 -6.33301 45 -19 61c-18 22 -46.667 33 -86 33h-187v-192z" />
    <glyph glyph-name="S" unicode="S" horiz-adv-x="667" 
d="M39 221l144 -0.00292969c0 -29.333 8.66699 -53.666 26 -72.999c26 -28.667 68 -43 126 -43c42.667 0 76.667 6 102 18c32 15.333 48 40.333 48 75c0 26 -12 45.667 -36 59c-16 8.66699 -47.333 18.667 -94 30l-77 18c-76.667 18 -129 36.667 -157 56
c-47.333 32.667 -71 84.334 -71 155.001c0 55.333 16.667 102 50 140c47.333 54 122.666 81 225.999 81c98 0 172 -27.667 222 -83c38 -42 57 -91.667 57 -149h-144c-3.33301 28.667 -11.666 50.667 -24.999 66c-24 28 -64.667 42 -122 42c-34 0 -62 -6 -84 -18
c-27.333 -15.333 -41 -38 -41 -68c0 -24.667 9 -43.334 27 -56.001c10 -7.33301 26.333 -13.666 49 -18.999l176 -43c59.333 -14.667 103 -33.667 131 -57c38 -31.333 57 -76.666 57 -135.999c0 -72.667 -24 -129 -72 -169c-52.667 -44 -123 -66 -211 -66
c-116.667 0 -200.667 28.667 -252 86c-36.667 40.667 -55 92 -55 154z" />
    <glyph glyph-name="T" unicode="T" horiz-adv-x="611" 
d="M381 591v-591h-150v591h-217v127h584v-127h-217z" />
    <glyph glyph-name="U" unicode="U" horiz-adv-x="722" 
d="M650 718v-467.002c0 -92 -26.333 -160.667 -79 -206c-49.333 -42.667 -121 -64 -215 -64c-42.667 0 -81 5.33301 -115 16c-46 14.667 -84 38.334 -114 71.001c-37.333 43.333 -56 101.333 -56 174l1 476h153v-466c0 -47.333 12 -83.166 36 -107.499
s54.667 -36.5 92 -36.5c50 0 86.667 11.667 110 35s35 57.333 35 102v473h152z" />
    <glyph glyph-name="V" unicode="V" horiz-adv-x="667" 
d="M492 718h156l-244 -718h-143l-242 718h161l154 -544z" />
    <glyph glyph-name="W" unicode="W" horiz-adv-x="944" 
d="M219 0l-203.001 718.002h160l67 -292c11.333 -49.333 21.333 -96.333 30 -141s14.334 -75.334 17.001 -92.001l27 149c13.333 71.333 38.333 196.666 75 375.999h159l79 -375c9.33301 -46 18.666 -96 27.999 -150c8.66699 44.667 18.834 93 30.501 145l88.5 380h152
l-202 -718h-144l-56 271l-31 156.5c-10 51 -18.333 95.167 -25 132.5l-22 -124l-31 -156l-59 -280h-140z" />
    <glyph glyph-name="X" unicode="X" horiz-adv-x="667" 
d="M418 373l235 -373h-183l-136 245l-145 -245h-175l232 367l-219 351h179l127 -232l132 232h173z" />
    <glyph glyph-name="Y" unicode="Y" horiz-adv-x="667" 
d="M413 269v-269h-150v271l-248 447h177l148 -312l143 312h170z" />
    <glyph glyph-name="Z" unicode="Z" horiz-adv-x="611" 
d="M586 127v-127h-561v127l371 464h-361v127h549v-118l-376 -473h378z" />
    <glyph glyph-name="bracketleft" unicode="[" horiz-adv-x="333" 
d="M184 626v-726h125v-96h-247v918h246v-96h-124z" />
    <glyph glyph-name="backslash" unicode="\" horiz-adv-x="278" 
d="M194 -19l-227 756h117l227 -756h-117z" />
    <glyph glyph-name="bracketright" unicode="]" horiz-adv-x="333" 
d="M148 -100l-1 726h-124v96h246l1 -918h-246v96h124z" />
    <glyph glyph-name="asciicircum" unicode="^" horiz-adv-x="584" 
d="M171 323h-109l179 375h100l181 -375h-110l-120 263z" />
    <glyph glyph-name="underscore" unicode="_" 
d="M556 -125h-556v50h556v-50z" />
    <glyph glyph-name="grave" unicode="`" horiz-adv-x="333" 
d="M173 604l-147 146h154l94 -146h-101z" />
    <glyph glyph-name="a" unicode="a" 
d="M495 392l1.00195 -288.001c0 -29.333 2.66699 -49.666 8 -60.999s13 -18.666 23 -21.999v-21h-151c-6.66699 20 -11 41 -13 63c-22.667 -24 -43.334 -41 -62.001 -51c-30.667 -17.333 -67.334 -26 -110.001 -26c-44.667 0 -81.667 12 -111 36c-34 28 -51 67.667 -51 119
c0 50 13.833 89.167 41.5 117.5s65.5 45.833 113.5 52.5l125 19c19.333 2.66699 32.5 7.5 39.5 14.5s10.5 16.167 10.5 27.5c0 26 -11 43.667 -33 53c-14 6 -34 9 -60 9c-30.667 0 -53 -8.33301 -67 -25c-10 -12 -16 -28.333 -18 -49h-135
c6.66699 73.333 34.334 124.666 83.001 153.999c35.333 21.333 86.666 32 153.999 32c53.333 0 98 -9 134 -27c52 -26 78 -68.333 78 -127zM359.002 190.999l0.00292969 68.0029c-6.66699 -5.33301 -17.334 -10.5 -32.001 -15.5s-36.834 -9.83301 -66.501 -14.5
s-50.834 -11.334 -63.501 -20.001c-18.667 -12.667 -28 -32.334 -28 -59.001c0 -22 7.33301 -38.667 22 -50c12 -9.33301 26.333 -14 43 -14c33.333 0 62.5 9.66699 87.5 29s37.5 44.666 37.5 75.999z" />
    <glyph glyph-name="b" unicode="b" horiz-adv-x="611" 
d="M434 262c0 47.333 -8.66797 84.999 -26.001 112.999c-20.667 33.333 -52 50 -94 50c-44 0 -75.667 -17.667 -95 -53c-16 -28.667 -24 -68 -24 -118c0 -43.333 9.33301 -78.666 28 -105.999c21.333 -31.333 53 -47 95 -47c40.667 0 71.334 19 92.001 57
c16 29.333 24 64 24 104zM199.999 717.999l-0.000976562 -255c22.667 30.667 46.667 52.167 72 64.5s53.333 18.5 84 18.5c62.667 0 114.334 -22.667 155.001 -68c44.667 -49.333 67 -118 67 -206c0 -80.667 -17.333 -146.667 -52 -198c-40 -58.667 -97.333 -88 -172 -88
c-32 0 -60.667 6 -86 18c-29.333 14 -52 35 -68 63l-2 -67h-137v718h139z" />
    <glyph glyph-name="c" unicode="c" 
d="M381 194l141.998 -0.00195312c-4 -46 -20.667 -87.333 -50 -124c-44 -56 -108.333 -84 -193 -84c-89.333 0 -155.333 30 -198 90c-32.667 46 -49 104.333 -49 175c0 90.667 20 161.334 60 212.001c43.333 55.333 108.333 83 195 83c56 0 104 -13 144 -39
c55.333 -35.333 86 -90.333 92 -165h-142c-6 30.667 -18 53.334 -36 68.001c-14.667 12 -33.667 18 -57 18c-40 0 -69.667 -17.333 -89 -52c-15.333 -27.333 -23 -61.333 -23 -102c0 -63.333 8.83301 -108 26.5 -134s44.834 -39 81.501 -39
c30.667 0 55.334 12.333 74.001 37c14.667 19.333 22 38 22 56z" />
    <glyph glyph-name="d" unicode="d" horiz-adv-x="611" 
d="M551 718v-718h-137v67c-16.667 -28 -39.667 -49 -69 -63c-25.333 -12 -54.333 -18 -87 -18c-74 0 -131 29.333 -171 88c-35.333 52 -53 118 -53 198c0 88 22 156.667 66 206c40 45.333 91.333 68 154 68c40.667 0 75 -9.33301 103 -28c19.333 -12.667 36.333 -31 51 -55
l2 255h141zM178 262c0 -40.667 7.66699 -75.3311 23 -103.998c20 -38 50.333 -57 91 -57c42 0 74 15.667 96 47c19.333 27.333 29 62.666 29 105.999c0 49.333 -8 88.333 -24 117c-20 36 -52.333 54 -97 54c-41.333 0 -72 -16.667 -92 -50
c-17.333 -28.667 -26 -66.334 -26 -113.001z" />
    <glyph glyph-name="e" unicode="e" 
d="M378 156l143.998 -0.00292969c-17.333 -59.333 -49.333 -103.666 -96 -132.999c-39.333 -24.667 -85.333 -37 -138 -37c-82 0 -145 21 -189 63c-50.667 48.667 -76 124.667 -76 228c0 60.667 13 113.334 39 158.001c42.667 74 114.334 111 215.001 111
c67.333 0 122.333 -18.333 165 -55c57.333 -49.333 86 -128.666 86 -237.999l-1 -25h-365c6 -47.333 18.833 -80.833 38.5 -100.5s48.834 -29.5 87.501 -29.5c20.667 0 39.5 5 56.5 15s28.167 24.333 33.5 43zM166.998 318.997l217.001 0.000976562
c-4 39.333 -17.333 68.666 -40 87.999c-18.667 16 -41.334 24 -68.001 24c-32.667 0 -58 -9.66699 -76 -29s-29 -47 -33 -83z" />
    <glyph glyph-name="f" unicode="f" horiz-adv-x="333" 
d="M227 432v-432h-140v432h-77l-1 100h77v43c0 52.667 13.5 91.167 40.5 115.5s65.833 36.5 116.5 36.5l71 -2v-113h-39c-22 0 -35.5 -3.66699 -40.5 -11s-7.5 -23.333 -7.5 -48l-1 -21h91l1 -100h-91z" />
    <glyph glyph-name="g" unicode="g" horiz-adv-x="611" 
d="M418 532h135.001v-504c0 -70 -12 -122.333 -36 -157c-40.667 -58.667 -118.334 -88 -233.001 -88c-62 0 -114.333 12.333 -157 37c-50 29.333 -75 70.333 -75 123h152c4 -17.333 10.667 -29.666 20 -36.999c15.333 -11.333 41.333 -17 78 -17c74 0 111 40.667 111 122v64
l-2 2c-13.333 -24 -29.333 -42.333 -48 -55c-24.667 -16.667 -56 -25 -94 -25c-67.333 0 -121.333 22.333 -162 67c-44.667 49.333 -67 118.666 -67 207.999c0 88 22 156.667 66 206c40 45.333 91.333 68 154 68c44 0 80.333 -11 109 -33c20 -15.333 35.667 -35.333 47 -60z
M184.001 263c0 -40 7.66797 -73.001 23.001 -99.001c19.333 -32.667 48.333 -49 87 -49c43.333 0 75 16.333 95 49c16.667 26.667 25 61.667 25 105c0 44.667 -10.667 81.834 -32 111.501s-51 44.5 -89 44.5c-30.667 0 -55.334 -11.333 -74.001 -34
c-23.333 -28 -35 -70.667 -35 -128z" />
    <glyph glyph-name="h" unicode="h" horiz-adv-x="611" 
d="M545 368l0.999023 -368.001h-140v323c0 30 -4 52.333 -12 67c-13.333 25.333 -39.666 38 -78.999 38c-32 0 -58.333 -10.667 -79 -32s-31 -51.666 -31 -90.999v-305h-140v718h139v-255c11.333 23.333 31 43 59 59s60.333 24 97 24c54 0 98.333 -15.5 133 -46.5
s52 -74.833 52 -131.5z" />
    <glyph glyph-name="i" unicode="i" horiz-adv-x="278" 
d="M68 532h140v-532h-140v532zM208 725v-130h-140v130h140z" />
    <glyph glyph-name="j" unicode="j" horiz-adv-x="278" 
d="M209 532v-587.998c0 -64.667 -15 -108.334 -45 -131.001c-24 -18 -65.667 -27 -125 -27h-35l-1 112h25c10.667 0 19 2 25 6c10.667 7.33301 16 21.666 16 42.999v585h140zM209 725.002v-130h-140v130h140z" />
    <glyph glyph-name="k" unicode="k" horiz-adv-x="576" 
d="M209 168v-168h-140v718h139v-388l176 202h172l-188 -206l194 -326h-168l-128 228z" />
    <glyph glyph-name="l" unicode="l" horiz-adv-x="278" 
d="M209 718v-718h-140v718h140z" />
    <glyph glyph-name="m" unicode="m" horiz-adv-x="889" 
d="M825 368l1.00293 -367.999h-140v323c0 37.333 -6.83301 64.166 -20.5 80.499s-32.167 24.5 -55.5 24.5c-33.333 0 -57.5 -9.66699 -72.5 -29s-22.5 -46 -22.5 -80v-319h-140v320c0 34 -3.33301 57.667 -10 71c-12 24.667 -36.667 37 -74 37
c-30.667 0 -52.834 -9.33301 -66.501 -28s-20.5 -44 -20.5 -76v-324h-140l-1 532h134v-78c15.333 26 31.666 45.667 48.999 59c28 22 62.667 33 104 33c36.667 0 65.667 -6.66699 87 -20s41.666 -35 60.999 -65c18 24.667 33.333 42 46 52c27.333 22 59.333 33 96 33
c54 0 98.333 -15.5 133 -46.5s52 -74.833 52 -131.5z" />
    <glyph glyph-name="n" unicode="n" horiz-adv-x="611" 
d="M545 368l0.998047 -368.001h-140v323c0 30 -4 52.333 -12 67c-13.333 25.333 -39.666 38 -78.999 38c-32 0 -58.333 -10.667 -79 -32s-31 -51.666 -31 -90.999v-305h-140v532h133v-78c22.667 34 46.834 57.833 72.501 71.5s55.5 20.5 89.5 20.5
c54 0 98.333 -15.5 133 -46.5s52 -74.833 52 -131.5z" />
    <glyph glyph-name="o" unicode="o" horiz-adv-x="611" 
d="M578 266c0 -91.333 -27.335 -162 -82.002 -212c-49.333 -45.333 -112.666 -68 -189.999 -68s-140.666 22.667 -189.999 68c-54.667 50 -82 120.667 -82 212c0 90.667 27.333 161.334 82 212.001c49.333 45.333 112.333 68 189 68s140 -22.667 190 -68
c55.333 -50.667 83 -121.334 83 -212.001zM433.998 266c0 44 -7.66699 79.333 -23 106c-21.333 37.333 -56.333 56 -105 56c-48 0 -82.667 -18.333 -104 -55c-16 -28 -24 -63.667 -24 -107c0 -44 7.66699 -79.333 23 -106c21.333 -37.333 56.333 -56 105 -56
c48 0 82.667 18.333 104 55c16 28 24 63.667 24 107z" />
    <glyph glyph-name="p" unicode="p" horiz-adv-x="611" 
d="M196 254c0 -44 8.99902 -79.333 26.999 -106c21.333 -31.333 53 -47 95 -47c40.667 0 71.334 19 92.001 57c16 29.333 24 64 24 104c0 47.333 -8.66699 85 -26 113c-20.667 33.333 -52 50 -94 50c-44 0 -75.667 -17.667 -95 -53c-15.333 -28 -23 -67.333 -23 -118z
M194.999 532l0.999023 -77c18.667 28 37 48.333 55 61c28 20 63 30 105 30c62.667 0 114.334 -22.667 155.001 -68c44.667 -49.333 67 -118 67 -206c0 -80.667 -17.333 -146.667 -52 -198c-40 -58.667 -97.333 -88 -172 -88c-42 0 -77 10 -105 30
c-16.667 12 -32 29.333 -46 52l-1 -275h-140v739h133z" />
    <glyph glyph-name="q" unicode="q" horiz-adv-x="611" 
d="M417 532h134.001l1 -739h-140v273c-30.667 -53.333 -81.667 -80 -153 -80c-76 0 -134.333 30.667 -175 92c-33.333 50 -50 109 -50 177c0 81.333 18 148.333 54 201c41.333 60 100.666 90 177.999 90c40 0 73.667 -11 101 -33c18 -14.667 34 -34.667 48 -60zM177.001 256
c0 -49.333 9.83105 -87 29.498 -113s50.167 -39 91.5 -39c34.667 0 62.834 13.333 84.501 40s32.5 66.334 32.5 119.001c0 63.333 -16.333 108.666 -49 135.999c-20.667 17.333 -44.667 26 -72 26c-33.333 0 -59.666 -11 -78.999 -33c-25.333 -28.667 -38 -74 -38 -136z" />
    <glyph glyph-name="r" unicode="r" horiz-adv-x="389" 
d="M64 0l-0.999023 532.002h134l1 -92c19.333 35.333 36.666 59.666 51.999 72.999c24.667 22 56.334 33 95.001 33l28 -2l-1 -142c-6 0.666992 -11.833 1.16699 -17.5 1.5s-12.834 0.5 -21.501 0.5c-49.333 0 -84.333 -13.667 -105 -41
c-16 -20.667 -24 -49.334 -24 -86.001v-277h-140z" />
    <glyph glyph-name="s" unicode="s" 
d="M503 370l-137.001 0.00195312c-4 22.667 -10.667 38.667 -20 48c-14.667 14.667 -39.334 22 -74.001 22c-34 0 -58 -5.66699 -72 -17c-10 -8 -15 -19.667 -15 -35c0 -20.667 28.667 -37.334 86 -50.001c82.667 -18 136.334 -32.667 161.001 -44
c58 -27.333 87 -69 87 -125c0 -68 -28.333 -117.667 -85 -149c-41.333 -22.667 -90.666 -34 -147.999 -34c-71.333 0 -129 12.667 -173 38c-55.333 32 -83 80.667 -83 146h144c0 -24.667 8.83301 -43.834 26.5 -57.501s47.5 -20.5 89.5 -20.5c31.333 0 55 6.66699 71 20
c12 10 18 21.667 18 35c0 22 -28.333 39.333 -85 52c-84.667 18.667 -138 33 -160 43c-57.333 26.667 -86 68.667 -86 126c0 46.667 15 86 45 118c38 40 94.667 60 170 60c67.333 0 120.333 -10.333 159 -31c54 -28.667 81 -77 81 -145z" />
    <glyph glyph-name="t" unicode="t" horiz-adv-x="333" 
d="M222 676l-1 -144h88v-100h-87l-1 -289c0 -17.333 3.16699 -28.833 9.5 -34.5s22.833 -8.5 49.5 -8.5l29 2v-106l-66 -2h-18c-56.667 0 -95.667 10.333 -117 31c-17.333 16.667 -26 44.667 -26 84v323h-72l-1 100h72l1 144h140z" />
    <glyph glyph-name="u" unicode="u" horiz-adv-x="611" 
d="M545 532l-0.00292969 -531.999h-134v75c-35.333 -59.333 -90 -89 -164 -89c-55.333 0 -98.666 15.667 -129.999 47c-34 34 -51 83.667 -51 149l-1 350h141v-330c0 -37.333 9.66699 -64 29 -80c14.667 -12 35.334 -18 62.001 -18c28.667 0 52.334 8 71.001 24
c24.667 21.333 37 53.666 37 96.999v307h140z" />
    <glyph glyph-name="v" unicode="v" 
d="M542 532l-191 -532h-147l-192 532h156l111 -392l114 392h149z" />
    <glyph glyph-name="w" unicode="w" horiz-adv-x="778" 
d="M768 532l-152 -532h-144l-84 388l-84 -388h-144l-151 532h149l84 -382l76 382h141l81 -382l84 382h144z" />
    <glyph glyph-name="x" unicode="x" 
d="M360 271l181 -271h-173l-92 160l-92 -160h-169l181 271l-175 261h170l90 -155l88 155h165z" />
    <glyph glyph-name="y" unicode="y" 
d="M538 532l-182 -523c-34 -100.667 -61 -162.334 -81 -185.001c-22.667 -25.333 -64 -38 -124 -38l-64 2v112l27 -2c28.667 0 48.667 4 60 12c15.333 10.667 26 33.334 32 68.001l-197 554h156l115 -392l110 392h148z" />
    <glyph glyph-name="z" unicode="z" horiz-adv-x="500" 
d="M470 417l-270 -302h279l1 -115h-460v109l272 311h-254v112h432v-115z" />
    <glyph glyph-name="braceleft" unicode="{" horiz-adv-x="389" 
d="M365 -108l-0.000976562 -87.999h-83c-36 0 -67.333 11 -94 33c-30.667 25.333 -46 60 -46 104v200c0 27.333 -12 47.666 -36 60.999c-17.333 10 -36.666 15 -57.999 15v92c21.333 0 40.333 4.66699 57 14c24.667 14 37 34.667 37 62l-1 200c0 44 15.333 78.667 46 104
c26.667 22 58 33 94 33h84v-88h-45c-18 0 -31.833 -4.5 -41.5 -13.5s-14.5 -26.5 -14.5 -52.5v-196c-4.66699 -37.333 -20.667 -65.666 -48 -84.999c-18.667 -12.667 -40.667 -20.334 -66 -23.001c25.333 -4 47 -12.333 65 -25c28 -20 44.333 -48.333 49 -85v-196
c0 -20 2.66699 -34.667 8 -44c8.66699 -14.667 24.667 -22 48 -22h45z" />
    <glyph glyph-name="bar" unicode="|" horiz-adv-x="280" 
d="M84 -19v756h112v-756h-112z" />
    <glyph glyph-name="braceright" unicode="}" horiz-adv-x="389" 
d="M341 309l0.000976562 -92.001c-21.333 0 -40.333 -4.66699 -57 -14c-24.667 -14 -37 -34.667 -37 -62v-200c0 -44 -15.333 -78.667 -46 -104c-26.667 -22 -58 -33 -94 -33h-83v88h45c18 0 31.833 4.5 41.5 13.5s14.5 26.5 14.5 52.5v196
c4.66699 37.333 20.667 65.666 48 84.999c18.667 12.667 40.667 20.334 66 23.001c-25.333 4 -47 12.333 -65 25c-28 20 -44.333 48.333 -49 85v196c0 20 -2.66699 34.667 -8 44c-8.66699 14.667 -24.667 22 -48 22h-45l-1 88h83c36 0 67.333 -11 94 -33
c30.667 -25.333 46 -60 46 -104l1 -200c0 -27.333 12 -47.666 36 -60.999c17.333 -10 36.666 -15 57.999 -15z" />
    <glyph glyph-name="asciitilde" unicode="~" horiz-adv-x="584" 
d="M487 343l35.998 -90c-20 -28 -37 -47.667 -51 -59c-22 -18 -47 -27 -75 -27c-20.667 0 -42 4.66699 -64 14c-6.66699 2.66699 -19 9 -37 19c-22.667 12 -40 20.333 -52 25c-20 7.33301 -41 11 -63 11c-20 0 -37.333 -7.66699 -52 -23c-11.333 -12 -22 -28.667 -32 -50
l-36 90c13.333 26 28.333 45.667 45 59c22 18 48.667 27 80 27c16.667 0 34.667 -3 54 -9c12.667 -4 31.334 -11.667 56.001 -23l56.5 -24.5c19.667 -8.33301 34.834 -12.5 45.501 -12.5c20.667 0 40.667 11.333 60 34c8 9.33301 17.667 22.333 29 39z" />
    <glyph glyph-name="nonbreakingspace" unicode="&#xa0;" horiz-adv-x="500" 
 />
    <glyph glyph-name="sterling" unicode="&#xa3;" 
d="M484 718l-0.000976562 -510c0 -75.333 -18.833 -131.833 -56.5 -169.5s-93.167 -56.5 -166.5 -56.5c-106 0 -175.667 31 -209 93c-20 36.667 -30 102 -30 196h140c0 -62.667 4.66699 -104.667 14 -126c12 -28 36.667 -42 74 -42c34.667 0 58.334 10.667 71.001 32
c8.66699 14.667 13 39 13 73v510h150z" />
    <glyph glyph-name="sterling" unicode="&#x408;" 
d="M484 718l-0.000976562 -510c0 -75.333 -18.833 -131.833 -56.5 -169.5s-93.167 -56.5 -166.5 -56.5c-106 0 -175.667 31 -209 93c-20 36.667 -30 102 -30 196h140c0 -62.667 4.66699 -104.667 14 -126c12 -28 36.667 -42 74 -42c34.667 0 58.334 10.667 71.001 32
c8.66699 14.667 13 39 13 73v510h150z" />
    <glyph glyph-name="currency" unicode="&#xa4;" horiz-adv-x="596" 
d="M298 244c30 0 54.835 10.833 74.502 32.5s29.5 48.5 29.5 80.5s-9.83301 58.5 -29.5 79.5s-44.834 31.5 -75.501 31.5s-55.167 -10.5 -73.5 -31.5s-27.5 -47.5 -27.5 -79.5c0 -32.667 9.16699 -59.667 27.5 -81s43.166 -32 74.499 -32zM17.002 142l97.999 97.9971
c-10 16.667 -17.667 34.5 -23 53.5s-8 40.167 -8 63.5c0 20.667 2.83301 41.334 8.5 62.001s12.834 38.334 21.501 53.001l-98 98l66 66l98 -98c17.333 10.667 35.5 18.834 54.5 24.501s39.833 8.5 62.5 8.5s43.834 -2.83301 63.501 -8.5s37.5 -13.834 53.5 -24.501l98 98
l66 -66l-98 -98c10 -15.333 18.167 -33.166 24.5 -53.499s9.5 -40.833 9.5 -61.5c0 -22.667 -2.83301 -43.834 -8.5 -63.501s-13.834 -37.5 -24.501 -53.5l98 -98l-66 -66l-98 98c-15.333 -10 -32.833 -18 -52.5 -24s-41.167 -9 -64.5 -9
c-21.333 0 -41.833 2.83301 -61.5 8.5s-38.167 13.834 -55.5 24.501l-98 -98z" />
    <glyph glyph-name="brokenbar" unicode="&#xa6;" horiz-adv-x="280" 
d="M84 -19v290h112v-290h-112zM83 447l1 290h112l-1 -290h-112z" />
    <glyph glyph-name="section" unicode="&#xa7;" 
d="M240 512l161.996 -81.001c38.667 -19.333 67 -39.333 85 -60c23.333 -27.333 35 -61.666 35 -102.999c0 -18 -7 -39.333 -21 -64c-18.667 -32.667 -43.667 -56 -75 -70c16 -13.333 29.333 -28.666 40 -45.999c15.333 -25.333 23 -52.666 23 -81.999
c0 -60 -22 -107.333 -66 -142c-40.667 -32 -90.667 -48 -150 -48c-77.333 0 -134.666 25 -171.999 75c-25.333 34 -38 71.333 -38 112h132c2.66699 -24 9.33398 -42.333 20.001 -55c14.667 -17.333 37.334 -26 68.001 -26c26.667 0 46.334 9.33301 59.001 28
c8.66699 12.667 13 27 13 43s-4.66699 28.667 -14 38s-24.333 19.333 -45 30l-153 78c-38 19.333 -65 39.666 -81 60.999c-18.667 25.333 -28 58.666 -28 99.999c0 28.667 9 54.667 27 78c15.333 20 37.333 38 66 54c-14 12.667 -25.667 27.334 -35 44.001
c-12 22 -18 46 -18 72c0 49.333 17.333 90.666 52 123.999c38 36.667 88.333 55 151 55c56 0 101.333 -12.333 136 -37c44 -31.333 66 -80 66 -146h-127c0 24 -6.83301 42.833 -20.5 56.5s-33.167 20.5 -58.5 20.5c-22 0 -39.5 -5.66699 -52.5 -17s-19.5 -24.333 -19.5 -39
c0 -22 13 -39.667 39 -53zM340.996 308.999l-147 74.0029c-13.333 -4.66699 -23.666 -13.334 -30.999 -26.001s-11 -23.334 -11 -32.001c0 -14 4.16699 -26 12.5 -36s19.5 -18.667 33.5 -26l157 -84c28.667 16 43 38 43 66c0 13.333 -5.33301 25.166 -16 35.499
s-24.334 19.833 -41.001 28.5z" />
    <glyph glyph-name="dieresis" unicode="&#xa8;" horiz-adv-x="667" 
d="M298 800h-126v115h126v-115zM493 800h-126l-1 115h126zM604 591h-381v-151h350v-127h-350v-186h398v-127h-545v718h528v-127z" />
    <glyph glyph-name="dieresis" unicode="&#x401;" horiz-adv-x="667" 
d="M298 800h-126v115h126v-115zM493 800h-126l-1 115h126zM604 591h-381v-151h350v-127h-350v-186h398v-127h-545v718h528v-127z" />
    <glyph glyph-name="copyright" unicode="&#xa9;" horiz-adv-x="852" 
d="M809 360c0 -114.667 -38.332 -207.667 -114.999 -279c-72 -66.667 -160.333 -100 -265 -100s-193 33.333 -265 100c-76.667 71.333 -115 164.333 -115 279s38.333 207.334 115 278.001c71.333 66 159.666 99 264.999 99c104.667 0 193 -33 265 -99
c76.667 -70.667 115 -163.334 115 -278.001zM700.001 360c0 84.667 -26.499 154.167 -79.499 208.5s-117.167 81.5 -192.5 81.5c-76.667 0 -140.834 -26.833 -192.501 -80.5s-77.5 -123.5 -77.5 -209.5c0 -85.333 26 -155.166 78 -209.499s116.333 -81.5 193 -81.5
c74.667 0 138.5 27.167 191.5 81.5s79.5 124.166 79.5 209.499zM532.002 303l90.002 -0.00195312c-7.33301 -48.667 -27.666 -87 -60.999 -115s-72.333 -42 -117 -42c-62.667 0 -113.167 20.5 -151.5 61.5s-57.5 92.833 -57.5 155.5s18.667 114.334 56 155.001
s87.333 61 150 61c46.667 0 86 -13.167 118 -39.5s52 -64.166 60 -113.499h-86c-4.66699 22 -15.334 38.5 -32.001 49.5s-36.334 16.5 -59.001 16.5c-32.667 0 -58 -11.333 -76 -34s-27 -53.667 -27 -93c0 -38 9.66699 -69.5 29 -94.5s44.666 -37.5 75.999 -37.5
c25.333 0 45.833 5.83301 61.5 17.5s24.5 29.167 26.5 52.5z" />
    <glyph glyph-name="guillemotleft" unicode="&#xab;" 
d="M254 368l-99 -88l100 -88v-116l-167 144l-1 120l168 144zM467 368l-99 -88l100 -88v-116l-167 144l-1 120l168 144z" />
    <glyph glyph-name="logicalnot" unicode="&#xac;" horiz-adv-x="584" 
d="M432 108l-1 199h-392v112h504l1 -311h-112z" />
    <glyph glyph-name="minus" unicode="&#xad;" horiz-adv-x="429" 
d="M388 378v-74h-345v74h345z" />
    <glyph glyph-name="registered" unicode="&#xae;" horiz-adv-x="849" 
d="M366 327v-171.001h-87v407h152c56 0 97.833 -9.16699 125.5 -27.5s41.5 -50.166 41.5 -95.499c0 -36 -9 -62.667 -27 -80s-41.667 -26 -71 -26l104 -178h-103l-94 171h-41zM365 395.999l77.001 -0.000976562c22 0 37.833 3.33301 47.5 10s14.5 21 14.5 43
c0 18.667 -7.33301 30.834 -22 36.501s-33.334 8.5 -56.001 8.5h-61v-98zM807.001 358.998c0 -115.333 -38 -208.333 -114 -279c-70.667 -66 -158.667 -99 -264 -99c-106 0 -194.667 33 -266 99c-76.667 70.667 -115 163.667 -115 279s38.333 208.333 115 279
c71.333 66 160 99 266 99c105.333 0 193.333 -33 264 -99c76 -70.667 114 -163.667 114 -279zM698.001 358.998c0 84.667 -26.168 154.167 -78.501 208.5s-116.166 81.5 -191.499 81.5c-77.333 0 -141.833 -26.833 -193.5 -80.5s-77.5 -123.5 -77.5 -209.5
c0 -85.333 26 -155 78 -209s116.667 -81 194 -81c74.667 0 138.167 26.833 190.5 80.5s78.5 123.5 78.5 209.5z" />
    <glyph glyph-name="macron" unicode="&#xaf;" horiz-adv-x="278" 
d="M214 718v-718h-150v718h150zM105 915v-115h-126v115h126zM300 915v-115h-126v115h126z" />
    <glyph glyph-name="macron" unicode="&#x407;" horiz-adv-x="278" 
d="M214 718v-718h-150v718h150zM105 915v-115h-126v115h126zM300 915v-115h-126v115h126z" />
    <glyph glyph-name="degree" unicode="&#xb0;" horiz-adv-x="400" 
d="M56 569c0 39.333 13.999 73 41.999 101s61.667 42 101 42s73 -14 101 -42s42 -61.667 42 -101s-13.667 -73 -41 -101s-61 -42 -101 -42c-39.333 0 -73.166 13.833 -101.499 41.5s-42.5 61.5 -42.5 101.5zM111.999 569c0 -24 8.5 -44.5 25.5 -61.5s37.5 -25.5 61.5 -25.5
s44.5 8.5 61.5 25.5s25.5 37.5 25.5 61.5s-8.5 44.5 -25.5 61.5s-37.5 25.5 -61.5 25.5s-44.5 -8.5 -61.5 -25.5s-25.5 -37.5 -25.5 -61.5z" />
    <glyph glyph-name="plusminus" unicode="&#xb1;" horiz-adv-x="584" 
d="M236 381v125h112v-125h196v-112h-196l-1 -126h-112l1 126h-196v112h196zM40 0v112h504v-112h-504z" />
    <glyph glyph-name="twosuperior" unicode="&#xb2;" horiz-adv-x="278" 
d="M214 718v-718h-150v718h150z" />
    <glyph glyph-name="twosuperior" unicode="&#x406;" horiz-adv-x="278" 
d="M214 718v-718h-150v718h150z" />
    <glyph glyph-name="threesuperior" unicode="&#xb3;" horiz-adv-x="278" 
d="M68 532h140v-532h-140v532zM208 725v-130h-140v130h140z" />
    <glyph glyph-name="threesuperior" unicode="&#x456;" horiz-adv-x="278" 
d="M68 532h140v-532h-140v532zM208 725v-130h-140v130h140z" />
    <glyph glyph-name="mu" unicode="&#xb5;" horiz-adv-x="611" 
d="M545 532l-0.00195312 -531.999h-134v75c-16.667 -28.667 -36.334 -50.667 -59.001 -66s-45 -23 -67 -23c-35.333 0 -61.666 8.66699 -78.999 26v-219h-140l-1 739h141v-330c0 -37.333 9.66699 -64 29 -80c14.667 -12 35.334 -18 62.001 -18c28.667 0 52.334 8 71.001 24
c24.667 21.333 37 53.666 37 96.999v307h140z" />
    <glyph glyph-name="paragraph" unicode="&#xb6;" 
d="M214 -191l0.000976562 538c-70.667 0 -125.334 15.333 -164.001 46s-58 73 -58 127c0 66 23 113.667 69 143c39.333 24.667 97.333 37 174 37h304v-891h-112v806h-101v-806h-112z" />
    <glyph glyph-name="periodcentered" unicode="&#xb7;" horiz-adv-x="278" 
d="M58 253c0 22.667 7.83105 41.833 23.498 57.5s34.834 23.5 57.501 23.5s41.834 -7.83301 57.501 -23.5s23.5 -34.834 23.5 -57.501c0 -22 -7.66699 -41 -23 -57s-34.666 -24 -57.999 -24c-22.667 0 -41.834 7.83301 -57.501 23.5s-23.5 34.834 -23.5 57.501z" />
    <glyph glyph-name="periodcentered" unicode="&#x2219;" horiz-adv-x="278" 
d="M58 253c0 22.667 7.83105 41.833 23.498 57.5s34.834 23.5 57.501 23.5s41.834 -7.83301 57.501 -23.5s23.5 -34.834 23.5 -57.501c0 -22 -7.66699 -41 -23 -57s-34.666 -24 -57.999 -24c-22.667 0 -41.834 7.83301 -57.501 23.5s-23.5 34.834 -23.5 57.501z" />
    <glyph glyph-name="cedilla" unicode="&#xb8;" 
d="M249 614h-126v115h126v-115zM443 614h-126v115h126v-115zM527 156c-17.333 -59.333 -49.335 -103.669 -96.002 -133.002c-39.333 -24.667 -85.333 -37 -138 -37c-82 0 -145 21 -189 63c-50.667 48.667 -76 124.667 -76 228c0 60.667 13 113.334 39 158.001
c42.667 74 114.334 111 215.001 111c67.333 0 122.333 -18.333 165 -55c57.333 -49.333 86 -128.666 86 -237.999l-1 -25h-365c6 -47.333 18.833 -80.833 38.5 -100.5s48.834 -29.5 87.501 -29.5c20.667 0 39.5 5 56.5 15s28.167 24.333 33.5 43h144zM388.998 318.997
c-4 39.333 -17.332 68.667 -39.999 88c-18.667 16 -41.334 24 -68.001 24c-32.667 0 -58 -9.66699 -76 -29s-29 -47 -33 -83h217z" />
    <glyph glyph-name="cedilla" unicode="&#x451;" 
d="M249 614h-126v115h126v-115zM443 614h-126v115h126v-115zM527 156c-17.333 -59.333 -49.335 -103.669 -96.002 -133.002c-39.333 -24.667 -85.333 -37 -138 -37c-82 0 -145 21 -189 63c-50.667 48.667 -76 124.667 -76 228c0 60.667 13 113.334 39 158.001
c42.667 74 114.334 111 215.001 111c67.333 0 122.333 -18.333 165 -55c57.333 -49.333 86 -128.666 86 -237.999l-1 -25h-365c6 -47.333 18.833 -80.833 38.5 -100.5s48.834 -29.5 87.501 -29.5c20.667 0 39.5 5 56.5 15s28.167 24.333 33.5 43h144zM388.998 318.997
c-4 39.333 -17.332 68.667 -39.999 88c-18.667 16 -41.334 24 -68.001 24c-32.667 0 -58 -9.66699 -76 -29s-29 -47 -33 -83h217z" />
    <glyph glyph-name="onesuperior" unicode="&#xb9;" horiz-adv-x="365" 
d="M1073 293c0 -44.667 -13.333 -82.333 -40 -113c-32 -36.667 -77.667 -55 -137 -55c-58.667 0 -104 18.333 -136 55c-27.333 31.333 -41 69 -41 113s13.667 81.667 41 113c32 36.667 77.667 55 137 55c58 0 103 -18.333 135 -55c27.333 -31.333 41 -69 41 -113z
M975 293.001c0 27.333 -7.00098 50.1689 -21.001 68.502s-33.333 27.5 -58 27.5s-44 -9 -58 -27s-21 -41 -21 -69c0 -26.667 7.33301 -49.334 22 -68.001s34 -28 58 -28c24.667 0 43.834 9.16699 57.501 27.5s20.5 41.166 20.5 68.499zM746.999 80.0039h300v-80h-300v80z
M513.999 718.004h140v-718h-150l-293 512l-2 -512h-140v718h158l284 -500z" />
    <glyph glyph-name="onesuperior" unicode="&#x2116;" horiz-adv-x="365" 
d="M1073 293c0 -44.667 -13.333 -82.333 -40 -113c-32 -36.667 -77.667 -55 -137 -55c-58.667 0 -104 18.333 -136 55c-27.333 31.333 -41 69 -41 113s13.667 81.667 41 113c32 36.667 77.667 55 137 55c58 0 103 -18.333 135 -55c27.333 -31.333 41 -69 41 -113z
M975 293.001c0 27.333 -7.00098 50.1689 -21.001 68.502s-33.333 27.5 -58 27.5s-44 -9 -58 -27s-21 -41 -21 -69c0 -26.667 7.33301 -49.334 22 -68.001s34 -28 58 -28c24.667 0 43.834 9.16699 57.501 27.5s20.5 41.166 20.5 68.499zM746.999 80.0039h300v-80h-300v80z
M513.999 718.004h140v-718h-150l-293 512l-2 -512h-140v718h158l284 -500z" />
    <glyph glyph-name="guillemotright" unicode="&#xbb;" 
d="M401 280l-101 88v116l167 -144l1 -120l-167 -144v116zM188 280l-101 88l1 116l167 -144v-120l-167 -144v116z" />
    <glyph glyph-name="onequarter" unicode="&#xbc;" horiz-adv-x="278" 
d="M209 532v-587.998c0 -64.667 -15 -108.334 -45 -131.001c-24 -18 -65.667 -27 -125 -27h-35l-1 112h25c10.667 0 19 2 25 6c10.667 7.33301 16 21.666 16 42.999v585h140zM209 725.002v-130h-140v130h140z" />
    <glyph glyph-name="onequarter" unicode="&#x458;" horiz-adv-x="278" 
d="M209 532v-587.998c0 -64.667 -15 -108.334 -45 -131.001c-24 -18 -65.667 -27 -125 -27h-35l-1 112h25c10.667 0 19 2 25 6c10.667 7.33301 16 21.666 16 42.999v585h140zM209 725.002v-130h-140v130h140z" />
    <glyph glyph-name="onehalf" unicode="&#xbd;" horiz-adv-x="667" 
d="M39 221l144 -0.00292969c0 -29.333 8.66699 -53.666 26 -72.999c26 -28.667 68 -43 126 -43c42.667 0 76.667 6 102 18c32 15.333 48 40.333 48 75c0 26 -12 45.667 -36 59c-16 8.66699 -47.333 18.667 -94 30l-77 18c-76.667 18 -129 36.667 -157 56
c-47.333 32.667 -71 84.334 -71 155.001c0 55.333 16.667 102 50 140c47.333 54 122.666 81 225.999 81c98 0 172 -27.667 222 -83c38 -42 57 -91.667 57 -149h-144c-3.33301 28.667 -11.666 50.667 -24.999 66c-24 28 -64.667 42 -122 42c-34 0 -62 -6 -84 -18
c-27.333 -15.333 -41 -38 -41 -68c0 -24.667 9 -43.334 27 -56.001c10 -7.33301 26.333 -13.666 49 -18.999l176 -43c59.333 -14.667 103 -33.667 131 -57c38 -31.333 57 -76.666 57 -135.999c0 -72.667 -24 -129 -72 -169c-52.667 -44 -123 -66 -211 -66
c-116.667 0 -200.667 28.667 -252 86c-36.667 40.667 -55 92 -55 154z" />
    <glyph glyph-name="onehalf" unicode="&#x405;" horiz-adv-x="667" 
d="M39 221l144 -0.00292969c0 -29.333 8.66699 -53.666 26 -72.999c26 -28.667 68 -43 126 -43c42.667 0 76.667 6 102 18c32 15.333 48 40.333 48 75c0 26 -12 45.667 -36 59c-16 8.66699 -47.333 18.667 -94 30l-77 18c-76.667 18 -129 36.667 -157 56
c-47.333 32.667 -71 84.334 -71 155.001c0 55.333 16.667 102 50 140c47.333 54 122.666 81 225.999 81c98 0 172 -27.667 222 -83c38 -42 57 -91.667 57 -149h-144c-3.33301 28.667 -11.666 50.667 -24.999 66c-24 28 -64.667 42 -122 42c-34 0 -62 -6 -84 -18
c-27.333 -15.333 -41 -38 -41 -68c0 -24.667 9 -43.334 27 -56.001c10 -7.33301 26.333 -13.666 49 -18.999l176 -43c59.333 -14.667 103 -33.667 131 -57c38 -31.333 57 -76.666 57 -135.999c0 -72.667 -24 -129 -72 -169c-52.667 -44 -123 -66 -211 -66
c-116.667 0 -200.667 28.667 -252 86c-36.667 40.667 -55 92 -55 154z" />
    <glyph glyph-name="threequarters" unicode="&#xbe;" 
d="M503 370l-137.001 0.00195312c-4 22.667 -10.667 38.667 -20 48c-14.667 14.667 -39.334 22 -74.001 22c-34 0 -58 -5.66699 -72 -17c-10 -8 -15 -19.667 -15 -35c0 -20.667 28.667 -37.334 86 -50.001c82.667 -18 136.334 -32.667 161.001 -44
c58 -27.333 87 -69 87 -125c0 -68 -28.333 -117.667 -85 -149c-41.333 -22.667 -90.666 -34 -147.999 -34c-71.333 0 -129 12.667 -173 38c-55.333 32 -83 80.667 -83 146h144c0 -24.667 8.83301 -43.834 26.5 -57.501s47.5 -20.5 89.5 -20.5c31.333 0 55 6.66699 71 20
c12 10 18 21.667 18 35c0 22 -28.333 39.333 -85 52c-84.667 18.667 -138 33 -160 43c-57.333 26.667 -86 68.667 -86 126c0 46.667 15 86 45 118c38 40 94.667 60 170 60c67.333 0 120.333 -10.333 159 -31c54 -28.667 81 -77 81 -145z" />
    <glyph glyph-name="threequarters" unicode="&#x455;" 
d="M503 370l-137.001 0.00195312c-4 22.667 -10.667 38.667 -20 48c-14.667 14.667 -39.334 22 -74.001 22c-34 0 -58 -5.66699 -72 -17c-10 -8 -15 -19.667 -15 -35c0 -20.667 28.667 -37.334 86 -50.001c82.667 -18 136.334 -32.667 161.001 -44
c58 -27.333 87 -69 87 -125c0 -68 -28.333 -117.667 -85 -149c-41.333 -22.667 -90.666 -34 -147.999 -34c-71.333 0 -129 12.667 -173 38c-55.333 32 -83 80.667 -83 146h144c0 -24.667 8.83301 -43.834 26.5 -57.501s47.5 -20.5 89.5 -20.5c31.333 0 55 6.66699 71 20
c12 10 18 21.667 18 35c0 22 -28.333 39.333 -85 52c-84.667 18.667 -138 33 -160 43c-57.333 26.667 -86 68.667 -86 126c0 46.667 15 86 45 118c38 40 94.667 60 170 60c67.333 0 120.333 -10.333 159 -31c54 -28.667 81 -77 81 -145z" />
    <glyph glyph-name="questiondown" unicode="&#xbf;" horiz-adv-x="278" 
d="M69 532h140v-532h-140v532zM105 729v-115h-126v115h126zM299 729l1 -115h-126l-1 115h126z" />
    <glyph glyph-name="questiondown" unicode="&#x457;" horiz-adv-x="278" 
d="M69 532h140v-532h-140v532zM105 729v-115h-126v115h126zM299 729l1 -115h-126l-1 115h126z" />
    <glyph glyph-name="Agrave" unicode="&#xc0;" horiz-adv-x="722" 
d="M173 0h-158l256 718h173l253 -718h-163l-47 148h-265zM263 272h183l-90 284z" />
    <glyph glyph-name="Agrave" unicode="&#x410;" horiz-adv-x="722" 
d="M173 0h-158l256 718h173l253 -718h-163l-47 148h-265zM263 272h183l-90 284z" />
    <glyph glyph-name="Aacute" unicode="&#xc1;" horiz-adv-x="722" 
d="M220 439h190.001c75.333 0 136.666 -18.667 183.999 -56c50.667 -40 76 -94.667 76 -164c0 -68 -25.333 -122 -76 -162c-48 -38 -109 -57 -183 -57h-334v718h539v-126h-396v-153zM221.001 315v-191h190c33.333 0 59.833 8.5 79.5 25.5s29.5 40.167 29.5 69.5
c0 30 -10 53.667 -30 71s-46.667 26 -80 26z" />
    <glyph glyph-name="Aacute" unicode="&#x411;" horiz-adv-x="722" 
d="M220 439h190.001c75.333 0 136.666 -18.667 183.999 -56c50.667 -40 76 -94.667 76 -164c0 -68 -25.333 -122 -76 -162c-48 -38 -109 -57 -183 -57h-334v718h539v-126h-396v-153zM221.001 315v-191h190c33.333 0 59.833 8.5 79.5 25.5s29.5 40.167 29.5 69.5
c0 30 -10 53.667 -30 71s-46.667 26 -80 26z" />
    <glyph glyph-name="Acircumflex" unicode="&#xc2;" horiz-adv-x="722" 
d="M77 718l348.998 0.000976562c78.667 0 137.334 -21.333 176.001 -64c30 -33.333 45 -73.333 45 -120c0 -44.667 -11 -80 -33 -106c-12.667 -14.667 -31.334 -28.334 -56.001 -41.001c40.667 -15.333 70 -39.333 88 -72c15.333 -28 23 -62 23 -102
c0 -59.333 -20.333 -108.666 -61 -147.999c-23.333 -22.667 -47.666 -38.334 -72.999 -47.001c-35.333 -12 -86.666 -18 -153.999 -18h-304v718zM220.998 124.001l184 0.000976562c37.333 0 65.833 8.5 85.5 25.5s29.5 43.5 29.5 79.5c0 29.333 -10.667 51.166 -32 65.499
s-47 21.5 -77 21.5h-190v-192zM220.998 437.002h175.999c32 0 57 6 75 18c20.667 14 31 34.667 31 62s-9.66699 47 -29 59s-46.666 18 -81.999 18h-171v-157z" />
    <glyph glyph-name="Acircumflex" unicode="&#x412;" horiz-adv-x="722" 
d="M77 718l348.998 0.000976562c78.667 0 137.334 -21.333 176.001 -64c30 -33.333 45 -73.333 45 -120c0 -44.667 -11 -80 -33 -106c-12.667 -14.667 -31.334 -28.334 -56.001 -41.001c40.667 -15.333 70 -39.333 88 -72c15.333 -28 23 -62 23 -102
c0 -59.333 -20.333 -108.666 -61 -147.999c-23.333 -22.667 -47.666 -38.334 -72.999 -47.001c-35.333 -12 -86.666 -18 -153.999 -18h-304v718zM220.998 124.001l184 0.000976562c37.333 0 65.833 8.5 85.5 25.5s29.5 43.5 29.5 79.5c0 29.333 -10.667 51.166 -32 65.499
s-47 21.5 -77 21.5h-190v-192zM220.998 437.002h175.999c32 0 57 6 75 18c20.667 14 31 34.667 31 62s-9.66699 47 -29 59s-46.666 18 -81.999 18h-171v-157z" />
    <glyph glyph-name="Atilde" unicode="&#xc3;" horiz-adv-x="611" 
d="M227 0h-150v718h521v-127h-371v-591z" />
    <glyph glyph-name="Atilde" unicode="&#x413;" horiz-adv-x="611" 
d="M227 0h-150v718h521v-127h-371v-591z" />
    <glyph glyph-name="Adieresis" unicode="&#xc4;" horiz-adv-x="738" 
d="M136 359v359h496v-591h70l1 -261h-141v134h-396v-134h-139l-1 261c37.333 0 64.333 16 81 48c19.333 36.667 29 98 29 184zM482 127v464h-205l-1 -232c0 -67.333 -4.5 -117.5 -13.5 -150.5s-22.833 -60.167 -41.5 -81.5h261z" />
    <glyph glyph-name="Adieresis" unicode="&#x414;" horiz-adv-x="738" 
d="M136 359v359h496v-591h70l1 -261h-141v134h-396v-134h-139l-1 261c37.333 0 64.333 16 81 48c19.333 36.667 29 98 29 184zM482 127v464h-205l-1 -232c0 -67.333 -4.5 -117.5 -13.5 -150.5s-22.833 -60.167 -41.5 -81.5h261z" />
    <glyph glyph-name="Aring" unicode="&#xc5;" horiz-adv-x="668" 
d="M605 591h-381v-151h350v-127h-350v-186h398v-127h-545v718h528v-127z" />
    <glyph glyph-name="Aring" unicode="&#x415;" horiz-adv-x="668" 
d="M605 591h-381v-151h350v-127h-350v-186h398v-127h-545v718h528v-127z" />
    <glyph glyph-name="AE" unicode="&#xc6;" horiz-adv-x="993" 
d="M423 0v243l-40 50l-171 -293h-192l259 414l-243 304h180l207 -292v292h150v-292l207 292h180l-243 -304l259 -414h-192l-173 293l-38 -50v-243h-150z" />
    <glyph glyph-name="AE" unicode="&#x416;" horiz-adv-x="993" 
d="M423 0v243l-40 50l-171 -293h-192l259 414l-243 304h180l207 -292v292h150v-292l207 292h180l-243 -304l259 -414h-192l-173 293l-38 -50v-243h-150z" />
    <glyph glyph-name="Ccedilla" unicode="&#xc7;" horiz-adv-x="667" 
d="M474 381c36.667 -4 70.665 -20.333 101.998 -49c37.333 -34 56 -74.667 56 -122c0 -63.333 -20.667 -115.333 -62 -156c-50 -48.667 -124.333 -73 -223 -73c-116.667 0 -200.667 28.667 -252 86c-36.667 40.667 -55 92 -55 154h144c0 -28 10 -52.333 30 -73
c28 -28.667 71.333 -43 130 -43c38 0 70.5 9.66699 97.5 29s40.5 44.666 40.5 75.999c0 34 -13.833 60.167 -41.5 78.5s-61.167 27.5 -100.5 27.5h-114l1 121h112c36.667 0 66.334 7.5 89.001 22.5s34 36.833 34 65.5c0 27.333 -12 48.833 -36 64.5s-55 23.5 -93 23.5
c-54 0 -92.667 -14 -116 -42c-15.333 -18.667 -23 -40.667 -23 -66h-144c0 56.667 19.333 106.334 58 149.001c50 55.333 124.333 83 223 83c100 0 174.333 -25.333 223 -76c36.667 -38 55 -83.333 55 -136c0 -42 -14.667 -75.667 -44 -101
c-23.333 -20 -53.666 -34.333 -90.999 -43z" />
    <glyph glyph-name="Ccedilla" unicode="&#x417;" horiz-adv-x="667" 
d="M474 381c36.667 -4 70.665 -20.333 101.998 -49c37.333 -34 56 -74.667 56 -122c0 -63.333 -20.667 -115.333 -62 -156c-50 -48.667 -124.333 -73 -223 -73c-116.667 0 -200.667 28.667 -252 86c-36.667 40.667 -55 92 -55 154h144c0 -28 10 -52.333 30 -73
c28 -28.667 71.333 -43 130 -43c38 0 70.5 9.66699 97.5 29s40.5 44.666 40.5 75.999c0 34 -13.833 60.167 -41.5 78.5s-61.167 27.5 -100.5 27.5h-114l1 121h112c36.667 0 66.334 7.5 89.001 22.5s34 36.833 34 65.5c0 27.333 -12 48.833 -36 64.5s-55 23.5 -93 23.5
c-54 0 -92.667 -14 -116 -42c-15.333 -18.667 -23 -40.667 -23 -66h-144c0 56.667 19.333 106.334 58 149.001c50 55.333 124.333 83 223 83c100 0 174.333 -25.333 223 -76c36.667 -38 55 -83.333 55 -136c0 -42 -14.667 -75.667 -44 -101
c-23.333 -20 -53.666 -34.333 -90.999 -43z" />
    <glyph glyph-name="Egrave" unicode="&#xc8;" horiz-adv-x="722" 
d="M211 218l288 500h158v-718h-140v512l-295 -512h-150v718h139v-500z" />
    <glyph glyph-name="Egrave" unicode="&#x418;" horiz-adv-x="722" 
d="M211 218l288 500h158v-718h-140v512l-295 -512h-150v718h139v-500z" />
    <glyph glyph-name="Eacute" unicode="&#xc9;" horiz-adv-x="722" 
d="M212 218l288 500h158v-718h-140v512l-295 -512h-150v718h139v-500zM542 866c0 -34 -11.001 -64 -33.001 -90c-31.333 -37.333 -79.666 -56 -144.999 -56c-58.667 0 -102 19.333 -130 58c-19.333 26.667 -29 56 -29 88h66c4 -20 10.333 -34.667 19 -44
c16.667 -17.333 43.334 -26 80.001 -26c30.667 0 53 3.33301 67 10c21.333 10 34.666 30 39.999 60h65z" />
    <glyph glyph-name="Eacute" unicode="&#x419;" horiz-adv-x="722" 
d="M212 218l288 500h158v-718h-140v512l-295 -512h-150v718h139v-500zM542 866c0 -34 -11.001 -64 -33.001 -90c-31.333 -37.333 -79.666 -56 -144.999 -56c-58.667 0 -102 19.333 -130 58c-19.333 26.667 -29 56 -29 88h66c4 -20 10.333 -34.667 19 -44
c16.667 -17.333 43.334 -26 80.001 -26c30.667 0 53 3.33301 67 10c21.333 10 34.666 30 39.999 60h65z" />
    <glyph glyph-name="Ecircumflex" unicode="&#xca;" horiz-adv-x="722" 
d="M232 0h-150v718h150v-292l274 292h194l-294 -294l311 -424h-193l-222 315l-70 -72v-243z" />
    <glyph glyph-name="Ecircumflex" unicode="&#x41a;" horiz-adv-x="722" 
d="M232 0h-150v718h150v-292l274 292h194l-294 -294l311 -424h-193l-222 315l-70 -72v-243z" />
    <glyph glyph-name="Edieresis" unicode="&#xcb;" horiz-adv-x="667" 
d="M256 591v-364.001c0 -81.333 -19.167 -142.666 -57.5 -183.999s-96.833 -62 -175.5 -62v131c36 0 61.333 11.333 76 34c11.333 18 17 45 17 81v491h496v-718h-150v591h-206z" />
    <glyph glyph-name="Edieresis" unicode="&#x41b;" horiz-adv-x="667" 
d="M256 591v-364.001c0 -81.333 -19.167 -142.666 -57.5 -183.999s-96.833 -62 -175.5 -62v131c36 0 61.333 11.333 76 34c11.333 18 17 45 17 81v491h496v-718h-150v591h-206z" />
    <glyph glyph-name="Igrave" unicode="&#xcc;" horiz-adv-x="833" 
d="M770 0h-140v520l-136 -520h-147l-131 520l-2 -520h-140v718h219l130 -496l130 496h217v-718z" />
    <glyph glyph-name="Igrave" unicode="&#x41c;" horiz-adv-x="833" 
d="M770 0h-140v520l-136 -520h-147l-131 520l-2 -520h-140v718h219l130 -496l130 496h217v-718z" />
    <glyph glyph-name="Iacute" unicode="&#xcd;" horiz-adv-x="722" 
d="M225 322l1 -322h-150v718h150v-272h280v272h150v-718h-151v322h-280z" />
    <glyph glyph-name="Iacute" unicode="&#x41d;" horiz-adv-x="722" 
d="M225 322l1 -322h-150v718h150v-272h280v272h150v-718h-151v322h-280z" />
    <glyph glyph-name="Icircumflex" unicode="&#xce;" horiz-adv-x="778" 
d="M394 737c45.333 0 89.001 -7.66602 131.001 -22.999c61.333 -22.667 109.666 -58.334 144.999 -107.001c45.333 -62.667 68 -145.334 68 -248.001s-22.667 -185.334 -68 -248.001c-35.333 -49.333 -83.333 -85 -144 -107c-42 -15.333 -86 -23 -132 -23
s-90 7.66699 -132 23c-60.667 22 -109 57.667 -145 107c-46 63.333 -69 146 -69 248c0 102.667 22.667 185.334 68 248.001c35.333 48.667 84 84.334 146 107.001c42 15.333 86 23 132 23zM394.001 108.001c50.667 0 93.001 16.667 127.001 50
c44.667 43.333 67 110.333 67 201s-22 157.667 -66 201c-34 33.333 -76.667 50 -128 50c-50.667 0 -93.334 -16.667 -128.001 -50c-45.333 -43.333 -68 -110.333 -68 -201s22.333 -157.667 67 -201c34.667 -33.333 77.667 -50 129 -50z" />
    <glyph glyph-name="Icircumflex" unicode="&#x41e;" horiz-adv-x="778" 
d="M394 737c45.333 0 89.001 -7.66602 131.001 -22.999c61.333 -22.667 109.666 -58.334 144.999 -107.001c45.333 -62.667 68 -145.334 68 -248.001s-22.667 -185.334 -68 -248.001c-35.333 -49.333 -83.333 -85 -144 -107c-42 -15.333 -86 -23 -132 -23
s-90 7.66699 -132 23c-60.667 22 -109 57.667 -145 107c-46 63.333 -69 146 -69 248c0 102.667 22.667 185.334 68 248.001c35.333 48.667 84 84.334 146 107.001c42 15.333 86 23 132 23zM394.001 108.001c50.667 0 93.001 16.667 127.001 50
c44.667 43.333 67 110.333 67 201s-22 157.667 -66 201c-34 33.333 -76.667 50 -128 50c-50.667 0 -93.334 -16.667 -128.001 -50c-45.333 -43.333 -68 -110.333 -68 -201s22.333 -157.667 67 -201c34.667 -33.333 77.667 -50 129 -50z" />
    <glyph glyph-name="Idieresis" unicode="&#xcf;" horiz-adv-x="722" 
d="M226 591v-591h-150v718h580v-718h-150v591h-280z" />
    <glyph glyph-name="Idieresis" unicode="&#x41f;" horiz-adv-x="722" 
d="M226 591v-591h-150v718h580v-718h-150v591h-280z" />
    <glyph glyph-name="Eth" unicode="&#xd0;" horiz-adv-x="667" 
d="M221 0h-150v718h328c69.333 0 123.833 -20.5 163.5 -61.5s59.5 -97.167 59.5 -168.5c0 -50.667 -14 -97 -42 -139c-40 -60 -102.333 -90 -187 -90h-172v-259zM359 383c48 0 80.668 14.668 98.001 44.001c9.33301 16 14 38.667 14 68c0 35.333 -10.333 60.666 -31 75.999
s-54.334 23 -101.001 23h-119v-211h139z" />
    <glyph glyph-name="Eth" unicode="&#x420;" horiz-adv-x="667" 
d="M221 0h-150v718h328c69.333 0 123.833 -20.5 163.5 -61.5s59.5 -97.167 59.5 -168.5c0 -50.667 -14 -97 -42 -139c-40 -60 -102.333 -90 -187 -90h-172v-259zM359 383c48 0 80.668 14.668 98.001 44.001c9.33301 16 14 38.667 14 68c0 35.333 -10.333 60.666 -31 75.999
s-54.334 23 -101.001 23h-119v-211h139z" />
    <glyph glyph-name="Ntilde" unicode="&#xd1;" horiz-adv-x="722" 
d="M529 483c-9.33301 34.667 -21.9971 60.667 -37.9971 78c-27.333 30.667 -68 46 -122 46c-46 0 -84.333 -16.333 -115 -49c-41.333 -44 -62 -111.333 -62 -202c0 -70.667 13.667 -127.667 41 -171c31.333 -49.333 77 -74 137 -74c42 0 76.667 11.5 104 34.5
s45.333 56.5 54 100.5h150c-15.333 -82 -48 -145.667 -98 -191c-54 -49.333 -125 -74 -213 -74c-98.667 0 -177.334 31.667 -236.001 95c-62 66.667 -93 160.667 -93 282s32 216 96 284c59.333 63.333 137.666 95 234.999 95s174.666 -29 231.999 -87
c46.667 -47.333 72.667 -103 78 -167h-150z" />
    <glyph glyph-name="Ntilde" unicode="&#x421;" horiz-adv-x="722" 
d="M529 483c-9.33301 34.667 -21.9971 60.667 -37.9971 78c-27.333 30.667 -68 46 -122 46c-46 0 -84.333 -16.333 -115 -49c-41.333 -44 -62 -111.333 -62 -202c0 -70.667 13.667 -127.667 41 -171c31.333 -49.333 77 -74 137 -74c42 0 76.667 11.5 104 34.5
s45.333 56.5 54 100.5h150c-15.333 -82 -48 -145.667 -98 -191c-54 -49.333 -125 -74 -213 -74c-98.667 0 -177.334 31.667 -236.001 95c-62 66.667 -93 160.667 -93 282s32 216 96 284c59.333 63.333 137.666 95 234.999 95s174.666 -29 231.999 -87
c46.667 -47.333 72.667 -103 78 -167h-150z" />
    <glyph glyph-name="Ograve" unicode="&#xd2;" horiz-adv-x="611" 
d="M383 0h-150v591h-217v127h584v-127h-217v-591z" />
    <glyph glyph-name="Ograve" unicode="&#x422;" horiz-adv-x="611" 
d="M383 0h-150v591h-217v127h584v-127h-217v-591z" />
    <glyph glyph-name="Oacute" unicode="&#xd3;" horiz-adv-x="722" 
d="M294 -11l-11.999 0.000976562c-20.667 0 -36.667 0.5 -48 1.5s-24.333 4.16699 -39 9.5v128c6 -2.66699 13.833 -5.33398 23.5 -8.00098s18.5 -4 26.5 -4c15.333 0 28.666 3 39.999 9s20.666 16.667 27.999 32l4 6l-300 555h179l192 -401l147 401h172l-259 -598
c-17.333 -40.667 -43.666 -73.667 -78.999 -99c-29.333 -21.333 -54.333 -32 -75 -32z" />
    <glyph glyph-name="Oacute" unicode="&#x423;" horiz-adv-x="722" 
d="M294 -11l-11.999 0.000976562c-20.667 0 -36.667 0.5 -48 1.5s-24.333 4.16699 -39 9.5v128c6 -2.66699 13.833 -5.33398 23.5 -8.00098s18.5 -4 26.5 -4c15.333 0 28.666 3 39.999 9s20.666 16.667 27.999 32l4 6l-300 555h179l192 -401l147 401h172l-259 -598
c-17.333 -40.667 -43.666 -73.667 -78.999 -99c-29.333 -21.333 -54.333 -32 -75 -32z" />
    <glyph glyph-name="Ocircumflex" unicode="&#xd4;" horiz-adv-x="889" 
d="M522 641c81.333 0 151.333 -19.334 210 -58.001c76 -50 114 -124.667 114 -224c0 -98.667 -37.667 -173 -113 -223c-58.667 -39.333 -128.667 -59 -210 -59v-77h-150v77c-82 0 -152.667 19.333 -212 58c-78 50.667 -117 125.334 -117 224.001
c0 98 38.667 172.333 116 223c60 39.333 130.667 59 212 59v77h150v-77zM523 524.999l-0.000976562 -332c48 0 87.333 10.667 118 32c40.667 28 61 72.667 61 134c0 60 -20.333 104.333 -61 133c-31.333 22 -70.666 33 -117.999 33zM372.999 192.999v332
c-48 0 -87.667 -10.667 -119 -32c-41.333 -28 -62 -72.667 -62 -134c0 -60 20.667 -104.333 62 -133c32 -22 71.667 -33 119 -33z" />
    <glyph glyph-name="Ocircumflex" unicode="&#x424;" horiz-adv-x="889" 
d="M522 641c81.333 0 151.333 -19.334 210 -58.001c76 -50 114 -124.667 114 -224c0 -98.667 -37.667 -173 -113 -223c-58.667 -39.333 -128.667 -59 -210 -59v-77h-150v77c-82 0 -152.667 19.333 -212 58c-78 50.667 -117 125.334 -117 224.001
c0 98 38.667 172.333 116 223c60 39.333 130.667 59 212 59v77h150v-77zM523 524.999l-0.000976562 -332c48 0 87.333 10.667 118 32c40.667 28 61 72.667 61 134c0 60 -20.333 104.333 -61 133c-31.333 22 -70.666 33 -117.999 33zM372.999 192.999v332
c-48 0 -87.667 -10.667 -119 -32c-41.333 -28 -62 -72.667 -62 -134c0 -60 20.667 -104.333 62 -133c32 -22 71.667 -33 119 -33z" />
    <glyph glyph-name="Otilde" unicode="&#xd5;" horiz-adv-x="667" 
d="M658 0h-183l-136 245l-145 -245h-175l232 367l-219 351h179l127 -232l132 232h173l-220 -345z" />
    <glyph glyph-name="Otilde" unicode="&#x425;" horiz-adv-x="667" 
d="M658 0h-183l-136 245l-145 -245h-175l232 367l-219 351h179l127 -232l132 232h173l-220 -345z" />
    <glyph glyph-name="Odieresis" unicode="&#xd6;" horiz-adv-x="722" 
d="M566 0h-510v718h150v-591h280v591h150v-591h70v-261h-140v134z" />
    <glyph glyph-name="Odieresis" unicode="&#x426;" horiz-adv-x="722" 
d="M566 0h-510v718h150v-591h280v591h150v-591h70v-261h-140v134z" />
    <glyph glyph-name="multiply" unicode="&#xd7;" horiz-adv-x="722" 
d="M75 486l1.00098 232.001h150l-1 -232c0 -32.667 10 -56.667 30 -72s46.333 -23 79 -23c28.667 0 58.167 5 88.5 15s58.166 23.333 83.499 40v272h150v-718h-150l-1 322c-32.667 -18.667 -67.667 -33.334 -105 -44.001s-74 -16 -110 -16c-64 0 -114.333 16.667 -151 50
c-42.667 38.667 -64 96.667 -64 174z" />
    <glyph glyph-name="multiply" unicode="&#x427;" horiz-adv-x="722" 
d="M75 486l1.00098 232.001h150l-1 -232c0 -32.667 10 -56.667 30 -72s46.333 -23 79 -23c28.667 0 58.167 5 88.5 15s58.166 23.333 83.499 40v272h150v-718h-150l-1 322c-32.667 -18.667 -67.667 -33.334 -105 -44.001s-74 -16 -110 -16c-64 0 -114.333 16.667 -151 50
c-42.667 38.667 -64 96.667 -64 174z" />
    <glyph glyph-name="Oslash" unicode="&#xd8;" horiz-adv-x="889" 
d="M375 127v591h150v-591h150v591h150v-718h-750v718h150v-591h150z" />
    <glyph glyph-name="Oslash" unicode="&#x428;" horiz-adv-x="889" 
d="M375 127v591h150v-591h150v591h150v-718h-750v718h150v-591h150z" />
    <glyph glyph-name="Ugrave" unicode="&#xd9;" horiz-adv-x="903" 
d="M745 0h-680v718h150v-591h150v591h150v-591h150v591h150v-591h70l1 -261h-141v134z" />
    <glyph glyph-name="Ugrave" unicode="&#x429;" horiz-adv-x="903" 
d="M745 0h-680v718h150v-591h150v591h150v-591h150v591h150v-591h70l1 -261h-141v134z" />
    <glyph glyph-name="Uacute" unicode="&#xda;" horiz-adv-x="722" 
d="M286 459l172 -0.000976562c84 0 146.333 -30 187 -90c28 -41.333 42 -87.666 42 -138.999c0 -70.667 -19.667 -126.667 -59 -168s-94 -62 -164 -62h-328l-1 592h-121l1 126h271v-259zM285 334.999l1 -210.999h119c46.667 0 80.167 7.66699 100.5 23
s30.5 40.666 30.5 75.999c0 29.333 -4.66699 52 -14 68c-17.333 29.333 -50 44 -98 44h-139z" />
    <glyph glyph-name="Uacute" unicode="&#x42a;" horiz-adv-x="722" 
d="M286 459l172 -0.000976562c84 0 146.333 -30 187 -90c28 -41.333 42 -87.666 42 -138.999c0 -70.667 -19.667 -126.667 -59 -168s-94 -62 -164 -62h-328l-1 592h-121l1 126h271v-259zM285 334.999l1 -210.999h119c46.667 0 80.167 7.66699 100.5 23
s30.5 40.666 30.5 75.999c0 29.333 -4.66699 52 -14 68c-17.333 29.333 -50 44 -98 44h-139z" />
    <glyph glyph-name="Ucircumflex" unicode="&#xdb;" horiz-adv-x="944" 
d="M241 459l172 -0.000976562c84 0 146.333 -30 187 -90c28 -41.333 42 -87.666 42 -138.999c0 -70.667 -19.667 -126.667 -59 -168s-94 -62 -164 -62h-328v718h150v-259zM883 -0.000976562h-150v718h150v-718zM241 334.999v-210.999h119c46.667 0 80.167 7.66699 100.5 23
s30.5 40.666 30.5 75.999c0 29.333 -4.66699 52 -14 68c-17.333 29.333 -50 44 -98 44h-138z" />
    <glyph glyph-name="Ucircumflex" unicode="&#x42b;" horiz-adv-x="944" 
d="M241 459l172 -0.000976562c84 0 146.333 -30 187 -90c28 -41.333 42 -87.666 42 -138.999c0 -70.667 -19.667 -126.667 -59 -168s-94 -62 -164 -62h-328v718h150v-259zM883 -0.000976562h-150v718h150v-718zM241 334.999v-210.999h119c46.667 0 80.167 7.66699 100.5 23
s30.5 40.666 30.5 75.999c0 29.333 -4.66699 52 -14 68c-17.333 29.333 -50 44 -98 44h-138z" />
    <glyph glyph-name="Udieresis" unicode="&#xdc;" horiz-adv-x="667" 
d="M231 459l172 -0.000976562c84 0 146.333 -30 187 -90c28 -41.333 42 -87.666 42 -138.999c0 -70.667 -19.667 -126.667 -59 -168s-94 -62 -164 -62h-328v718h150v-259zM230 334.999l1 -210.999h119c46.667 0 80.167 7.66699 100.5 23s30.5 40.666 30.5 75.999
c0 29.333 -4.66699 52 -14 68c-17.333 29.333 -50 44 -98 44h-139z" />
    <glyph glyph-name="Udieresis" unicode="&#x42c;" horiz-adv-x="667" 
d="M231 459l172 -0.000976562c84 0 146.333 -30 187 -90c28 -41.333 42 -87.666 42 -138.999c0 -70.667 -19.667 -126.667 -59 -168s-94 -62 -164 -62h-328v718h150v-259zM230 334.999l1 -210.999h119c46.667 0 80.167 7.66699 100.5 23s30.5 40.666 30.5 75.999
c0 29.333 -4.66699 52 -14 68c-17.333 29.333 -50 44 -98 44h-139z" />
    <glyph glyph-name="Yacute" unicode="&#xdd;" horiz-adv-x="722" 
d="M524 440c-11.333 59.333 -35.333 103.667 -72 133c-28.667 22.667 -61.667 34 -99 34c-54 0 -94.333 -15.333 -121 -46c-14.667 -16.667 -27 -42.667 -37 -78h-150c0 61.333 24.667 116.666 74 165.999c58.667 58.667 137.334 88 236.001 88
c96.667 0 174.667 -31.667 234 -95c63.333 -68 95 -162.667 95 -284c0 -120 -30.667 -213.667 -92 -281c-58.667 -64 -137 -96 -235 -96c-86.667 0 -157.334 24.667 -212.001 74c-51.333 46 -85 109.667 -101 191h150c9.33301 -43.333 28 -76.666 56 -99.999
s62.667 -35 104 -35c53.333 0 95.333 19.667 126 59c27.333 35.333 44 83 50 143h-282v127h276z" />
    <glyph glyph-name="Yacute" unicode="&#x42d;" horiz-adv-x="722" 
d="M524 440c-11.333 59.333 -35.333 103.667 -72 133c-28.667 22.667 -61.667 34 -99 34c-54 0 -94.333 -15.333 -121 -46c-14.667 -16.667 -27 -42.667 -37 -78h-150c0 61.333 24.667 116.666 74 165.999c58.667 58.667 137.334 88 236.001 88
c96.667 0 174.667 -31.667 234 -95c63.333 -68 95 -162.667 95 -284c0 -120 -30.667 -213.667 -92 -281c-58.667 -64 -137 -96 -235 -96c-86.667 0 -157.334 24.667 -212.001 74c-51.333 46 -85 109.667 -101 191h150c9.33301 -43.333 28 -76.666 56 -99.999
s62.667 -35 104 -35c53.333 0 95.333 19.667 126 59c27.333 35.333 44 83 50 143h-282v127h276z" />
    <glyph glyph-name="Thorn" unicode="&#xde;" horiz-adv-x="1000" 
d="M329 322h-104l1 -322h-150v718h150v-272h109c10 78 36 141 78 189c33.333 38 74.666 65.667 123.999 83c36.667 12.667 72.667 19 108 19c40.667 0 80.334 -7.66699 119.001 -23c56 -22 100.333 -57.667 133 -107c42 -63.333 63 -146 63 -248
c0 -103.333 -20.667 -186 -62 -248c-32.667 -49.333 -77 -85 -133 -107c-38.667 -15.333 -78.667 -23 -120 -23c-39.333 0 -78.666 7 -117.999 21c-56.667 20.667 -101.334 52.667 -134.001 96c-42.667 57.333 -64 132 -64 224zM645 108c42 0 77.668 16.667 107.001 50
c38.667 44 58 111 58 201c0 90.667 -19 157.667 -57 201c-29.333 33.333 -65.333 50 -108 50c-42 0 -78 -16.667 -108 -50c-39.333 -44 -59 -111 -59 -201c0 -90.667 19.333 -157.667 58 -201c29.333 -33.333 65.666 -50 108.999 -50z" />
    <glyph glyph-name="Thorn" unicode="&#x42e;" horiz-adv-x="1000" 
d="M329 322h-104l1 -322h-150v718h150v-272h109c10 78 36 141 78 189c33.333 38 74.666 65.667 123.999 83c36.667 12.667 72.667 19 108 19c40.667 0 80.334 -7.66699 119.001 -23c56 -22 100.333 -57.667 133 -107c42 -63.333 63 -146 63 -248
c0 -103.333 -20.667 -186 -62 -248c-32.667 -49.333 -77 -85 -133 -107c-38.667 -15.333 -78.667 -23 -120 -23c-39.333 0 -78.666 7 -117.999 21c-56.667 20.667 -101.334 52.667 -134.001 96c-42.667 57.333 -64 132 -64 224zM645 108c42 0 77.668 16.667 107.001 50
c38.667 44 58 111 58 201c0 90.667 -19 157.667 -57 201c-29.333 33.333 -65.333 50 -108 50c-42 0 -78 -16.667 -108 -50c-39.333 -44 -59 -111 -59 -201c0 -90.667 19.333 -157.667 58 -201c29.333 -33.333 65.666 -50 108.999 -50z" />
    <glyph glyph-name="germandbls" unicode="&#xdf;" horiz-adv-x="722" 
d="M661 0h-146.999v281h-97l-183 -281h-184l203 281c-48.667 10.667 -90 34.334 -124 71.001c-38.667 41.333 -58 90.666 -58 147.999c0 58.667 20.333 109 61 151c43.333 44.667 98.666 67 165.999 67h363v-718zM513.001 402v191.999h-187c-34.667 0 -61.667 -10 -81 -30
c-16 -16.667 -24 -36.667 -24 -60c0 -31.333 9.83301 -56.166 29.5 -74.499s48.5 -27.5 86.5 -27.5h176z" />
    <glyph glyph-name="germandbls" unicode="&#x42f;" horiz-adv-x="722" 
d="M661 0h-146.999v281h-97l-183 -281h-184l203 281c-48.667 10.667 -90 34.334 -124 71.001c-38.667 41.333 -58 90.666 -58 147.999c0 58.667 20.333 109 61 151c43.333 44.667 98.666 67 165.999 67h363v-718zM513.001 402v191.999h-187c-34.667 0 -61.667 -10 -81 -30
c-16 -16.667 -24 -36.667 -24 -60c0 -31.333 9.83301 -56.166 29.5 -74.499s48.5 -27.5 86.5 -27.5h176z" />
    <glyph glyph-name="agrave" unicode="&#xe0;" 
d="M501 104c0 -29.333 2.66895 -49.667 8.00195 -61s13 -18.666 23 -21.999v-21h-151c-6.66699 20 -11 41 -13 63c-22.667 -24 -43.334 -41 -62.001 -51c-30.667 -17.333 -67.334 -26 -110.001 -26c-44.667 0 -81.667 12 -111 36c-34 28 -51 67.667 -51 119
c0 50 13.833 89.167 41.5 117.5s65.5 45.833 113.5 52.5l125 19c19.333 2.66699 32.5 7.5 39.5 14.5s10.5 16.167 10.5 27.5c0 26 -11 43.667 -33 53c-14 6 -34 9 -60 9c-30.667 0 -53 -8.33301 -67 -25c-10 -12 -16 -28.333 -18 -49h-135
c6.66699 73.333 34.334 124.666 83.001 153.999c35.333 21.333 86.666 32 153.999 32c53.333 0 98 -9 134 -27c52 -26 78 -68.333 78 -127zM364.002 258.999c-6.66699 -5.33301 -17.3311 -10.4971 -31.998 -15.4971s-36.834 -9.83301 -66.501 -14.5
s-50.834 -11.334 -63.501 -20.001c-18.667 -12.667 -28 -32.334 -28 -59.001c0 -22 7.33301 -38.667 22 -50c12 -9.33301 26.333 -14 43 -14c33.333 0 62.5 9.66699 87.5 29s37.5 44.666 37.5 75.999v68z" />
    <glyph glyph-name="agrave" unicode="&#x430;" 
d="M501 104c0 -29.333 2.66895 -49.667 8.00195 -61s13 -18.666 23 -21.999v-21h-151c-6.66699 20 -11 41 -13 63c-22.667 -24 -43.334 -41 -62.001 -51c-30.667 -17.333 -67.334 -26 -110.001 -26c-44.667 0 -81.667 12 -111 36c-34 28 -51 67.667 -51 119
c0 50 13.833 89.167 41.5 117.5s65.5 45.833 113.5 52.5l125 19c19.333 2.66699 32.5 7.5 39.5 14.5s10.5 16.167 10.5 27.5c0 26 -11 43.667 -33 53c-14 6 -34 9 -60 9c-30.667 0 -53 -8.33301 -67 -25c-10 -12 -16 -28.333 -18 -49h-135
c6.66699 73.333 34.334 124.666 83.001 153.999c35.333 21.333 86.666 32 153.999 32c53.333 0 98 -9 134 -27c52 -26 78 -68.333 78 -127zM364.002 258.999c-6.66699 -5.33301 -17.3311 -10.4971 -31.998 -15.4971s-36.834 -9.83301 -66.501 -14.5
s-50.834 -11.334 -63.501 -20.001c-18.667 -12.667 -28 -32.334 -28 -59.001c0 -22 7.33301 -38.667 22 -50c12 -9.33301 26.333 -14 43 -14c33.333 0 62.5 9.66699 87.5 29s37.5 44.666 37.5 75.999v68z" />
    <glyph glyph-name="aacute" unicode="&#xe1;" horiz-adv-x="611" 
d="M151 690c26 22.667 60.6689 38.001 104.002 46.001c29.333 5.33301 74.666 8 135.999 8c19.333 0 32.666 4 39.999 12c2 2.66699 4 7 6 13h112c-0.666992 -13.333 -1.66699 -24.333 -3 -33c-10.667 -51.333 -40 -85.666 -88 -102.999
c-18.667 -6.66699 -56.834 -12.167 -114.501 -16.5s-97.5 -12.833 -119.5 -25.5s-39.333 -32.667 -52 -60c-6.66699 -13.333 -13.334 -34 -20.001 -62c15.333 20.667 37.833 38.667 67.5 54s59.5 23 89.5 23c76.667 0 140 -22.667 190 -68
c55.333 -50.667 83 -121.334 83 -212.001c0 -91.333 -27.333 -162 -82 -212c-49.333 -45.333 -112.666 -68 -189.999 -68s-140.666 22.667 -189.999 68c-54.667 50 -82 120.667 -82 212c0 118.667 9 210.667 27 276s46.667 114.666 86 147.999zM310.002 428.001
c-48 0 -82.667 -18.333 -104 -55c-16 -28 -24 -63.667 -24 -107c0 -44 7.66699 -79.333 23 -106c21.333 -37.333 56.333 -56 105 -56c48 0 82.667 18.333 104 55c16 28 24 63.667 24 107c0 44 -7.66699 79.333 -23 106c-21.333 37.333 -56.333 56 -105 56z" />
    <glyph glyph-name="aacute" unicode="&#x431;" horiz-adv-x="611" 
d="M151 690c26 22.667 60.6689 38.001 104.002 46.001c29.333 5.33301 74.666 8 135.999 8c19.333 0 32.666 4 39.999 12c2 2.66699 4 7 6 13h112c-0.666992 -13.333 -1.66699 -24.333 -3 -33c-10.667 -51.333 -40 -85.666 -88 -102.999
c-18.667 -6.66699 -56.834 -12.167 -114.501 -16.5s-97.5 -12.833 -119.5 -25.5s-39.333 -32.667 -52 -60c-6.66699 -13.333 -13.334 -34 -20.001 -62c15.333 20.667 37.833 38.667 67.5 54s59.5 23 89.5 23c76.667 0 140 -22.667 190 -68
c55.333 -50.667 83 -121.334 83 -212.001c0 -91.333 -27.333 -162 -82 -212c-49.333 -45.333 -112.666 -68 -189.999 -68s-140.666 22.667 -189.999 68c-54.667 50 -82 120.667 -82 212c0 118.667 9 210.667 27 276s46.667 114.666 86 147.999zM310.002 428.001
c-48 0 -82.667 -18.333 -104 -55c-16 -28 -24 -63.667 -24 -107c0 -44 7.66699 -79.333 23 -106c21.333 -37.333 56.333 -56 105 -56c48 0 82.667 18.333 104 55c16 28 24 63.667 24 107c0 44 -7.66699 79.333 -23 106c-21.333 37.333 -56.333 56 -105 56z" />
    <glyph glyph-name="acircumflex" unicode="&#xe2;" 
d="M61 0v532.001h218c70 0 124 -10.833 162 -32.5s57 -56.834 57 -105.501c0 -32 -11.333 -59 -34 -81c-20 -19.333 -45 -31.333 -75 -36c34.667 -6 62.667 -17.333 84 -34c29.333 -23.333 44 -55.333 44 -96c0 -50.667 -21.667 -88.667 -65 -114
c-38 -22.667 -89.667 -34 -155 -34zM201 226.001v-134h93c55.333 0 83 21.333 83 64c0 22.667 -7.33301 40 -22 52s-35 18 -61 18h-93zM201 440.001v-125h81c24 0 43.167 5.5 57.5 16.5s21.5 26.833 21.5 47.5c0 20 -7.16699 35.167 -21.5 45.5s-33.5 15.5 -57.5 15.5h-81z
" />
    <glyph glyph-name="acircumflex" unicode="&#x432;" 
d="M61 0v532.001h218c70 0 124 -10.833 162 -32.5s57 -56.834 57 -105.501c0 -32 -11.333 -59 -34 -81c-20 -19.333 -45 -31.333 -75 -36c34.667 -6 62.667 -17.333 84 -34c29.333 -23.333 44 -55.333 44 -96c0 -50.667 -21.667 -88.667 -65 -114
c-38 -22.667 -89.667 -34 -155 -34zM201 226.001v-134h93c55.333 0 83 21.333 83 64c0 22.667 -7.33301 40 -22 52s-35 18 -61 18h-93zM201 440.001v-125h81c24 0 43.167 5.5 57.5 16.5s21.5 26.833 21.5 47.5c0 20 -7.16699 35.167 -21.5 45.5s-33.5 15.5 -57.5 15.5h-81z
" />
    <glyph glyph-name="atilde" unicode="&#xe3;" horiz-adv-x="444" 
d="M421 420h-220v-420h-140v532h360v-112z" />
    <glyph glyph-name="atilde" unicode="&#x433;" horiz-adv-x="444" 
d="M421 420h-220v-420h-140v532h360v-112z" />
    <glyph glyph-name="adieresis" unicode="&#xe4;" horiz-adv-x="591" 
d="M94 277v255h410l1 -421h63v-245h-130v134h-294v-134h-130v245c27.333 0 47.5 11.5 60.5 34.5s19.5 66.833 19.5 131.5zM365 111l-1 308.999h-141v-146c0 -81.333 -12.333 -135.666 -37 -162.999h179z" />
    <glyph glyph-name="adieresis" unicode="&#x434;" horiz-adv-x="591" 
d="M94 277v255h410l1 -421h63v-245h-130v134h-294v-134h-130v245c27.333 0 47.5 11.5 60.5 34.5s19.5 66.833 19.5 131.5zM365 111l-1 308.999h-141v-146c0 -81.333 -12.333 -135.666 -37 -162.999h179z" />
    <glyph glyph-name="aring" unicode="&#xe5;" 
d="M528 156c-17.333 -59.333 -49.335 -103.669 -96.002 -133.002c-39.333 -24.667 -85.333 -37 -138 -37c-82 0 -145 21 -189 63c-50.667 48.667 -76 124.667 -76 228c0 60.667 13 113.334 39 158.001c42.667 74 114.334 111 215.001 111c67.333 0 122.333 -18.333 165 -55
c57.333 -49.333 86 -128.666 86 -237.999l-1 -25h-365c6 -47.333 18.833 -80.833 38.5 -100.5s48.834 -29.5 87.501 -29.5c20.667 0 39.5 5 56.5 15s28.167 24.333 33.5 43h144zM389.998 318.997c-4 39.333 -17.332 68.667 -39.999 88c-18.667 16 -41.334 24 -68.001 24
c-32.667 0 -58 -9.66699 -76 -29s-29 -47 -33 -83h217z" />
    <glyph glyph-name="aring" unicode="&#x435;" 
d="M528 156c-17.333 -59.333 -49.335 -103.669 -96.002 -133.002c-39.333 -24.667 -85.333 -37 -138 -37c-82 0 -145 21 -189 63c-50.667 48.667 -76 124.667 -76 228c0 60.667 13 113.334 39 158.001c42.667 74 114.334 111 215.001 111c67.333 0 122.333 -18.333 165 -55
c57.333 -49.333 86 -128.666 86 -237.999l-1 -25h-365c6 -47.333 18.833 -80.833 38.5 -100.5s48.834 -29.5 87.501 -29.5c20.667 0 39.5 5 56.5 15s28.167 24.333 33.5 43h144zM389.998 318.997c-4 39.333 -17.332 68.667 -39.999 88c-18.667 16 -41.334 24 -68.001 24
c-32.667 0 -58 -9.66699 -76 -29s-29 -47 -33 -83h217z" />
    <glyph glyph-name="ae" unicode="&#xe6;" horiz-adv-x="825" 
d="M344 0v168l-41 49l-119 -217h-168l192 326l-188 206h167l156 -197v197h139v-197l156 197h167l-188 -206l194 -326h-168l-119 217l-41 -49v-168h-139z" />
    <glyph glyph-name="ae" unicode="&#x436;" horiz-adv-x="825" 
d="M344 0v168l-41 49l-119 -217h-168l192 326l-188 206h167l156 -197v197h139v-197l156 197h167l-188 -206l194 -326h-168l-119 217l-41 -49v-168h-139z" />
    <glyph glyph-name="ccedilla" unicode="&#xe7;" 
d="M384 277c38.667 -4.66699 68.666 -13.667 89.999 -27c33.333 -20 50 -50.333 50 -91c0 -63.333 -28.333 -110 -85 -140c-41.333 -22 -90.666 -33 -147.999 -33c-71.333 0 -129 12.667 -173 38c-55.333 32 -83 80.667 -83 146h144c0 -24.667 8.83301 -43.834 26.5 -57.501
s47.5 -20.5 89.5 -20.5c31.333 0 55 8.66699 71 26c12 12.667 18 26.334 18 41.001c0 21.333 -9.33301 37.833 -28 49.5s-41 17.5 -67 17.5h-98v89h97c23.333 0 42.333 5.33301 57 16s22 26 22 46c0 16.667 -4.66699 30 -14 40c-14 15.333 -37.667 23 -71 23
c-34 0 -58.333 -7.33301 -73 -22c-10 -10 -17 -26 -21 -48h-137c0 66.667 26.667 114.667 80 144c39.333 21.333 92 32 158 32c75.333 0 132 -18.667 170 -56c30 -30 45 -67.667 45 -113c0 -30.667 -12.667 -54.667 -38 -72c-18 -12 -45.333 -21.333 -82 -28z" />
    <glyph glyph-name="ccedilla" unicode="&#x437;" 
d="M384 277c38.667 -4.66699 68.666 -13.667 89.999 -27c33.333 -20 50 -50.333 50 -91c0 -63.333 -28.333 -110 -85 -140c-41.333 -22 -90.666 -33 -147.999 -33c-71.333 0 -129 12.667 -173 38c-55.333 32 -83 80.667 -83 146h144c0 -24.667 8.83301 -43.834 26.5 -57.501
s47.5 -20.5 89.5 -20.5c31.333 0 55 8.66699 71 26c12 12.667 18 26.334 18 41.001c0 21.333 -9.33301 37.833 -28 49.5s-41 17.5 -67 17.5h-98v89h97c23.333 0 42.333 5.33301 57 16s22 26 22 46c0 16.667 -4.66699 30 -14 40c-14 15.333 -37.667 23 -71 23
c-34 0 -58.333 -7.33301 -73 -22c-10 -10 -17 -26 -21 -48h-137c0 66.667 26.667 114.667 80 144c39.333 21.333 92 32 158 32c75.333 0 132 -18.667 170 -56c30 -30 45 -67.667 45 -113c0 -30.667 -12.667 -54.667 -38 -72c-18 -12 -45.333 -21.333 -82 -28z" />
    <glyph glyph-name="egrave" unicode="&#xe8;" horiz-adv-x="611" 
d="M560 0h-140v320l-189 -320h-150l-1 532h141v-320l188 320h151v-532z" />
    <glyph glyph-name="egrave" unicode="&#x438;" horiz-adv-x="611" 
d="M560 0h-140v320l-189 -320h-150l-1 532h141v-320l188 320h151v-532z" />
    <glyph glyph-name="eacute" unicode="&#xe9;" horiz-adv-x="611" 
d="M560 0h-140v320l-189 -320h-150l-1 532h141v-320l188 320h151v-532zM497 750c-3.33301 -36.667 -14.668 -66.667 -34.001 -90c-30.667 -37.333 -78.667 -56 -144 -56c-58.667 0 -102 19.333 -130 58c-19.333 26.667 -29 56 -29 88h66c4 -19.333 10.667 -34 20 -44
c16.667 -17.333 43.334 -26 80.001 -26c30 0 52 3.33301 66 10c22 10.667 35.333 30.667 40 60h65z" />
    <glyph glyph-name="eacute" unicode="&#x439;" horiz-adv-x="611" 
d="M560 0h-140v320l-189 -320h-150l-1 532h141v-320l188 320h151v-532zM497 750c-3.33301 -36.667 -14.668 -66.667 -34.001 -90c-30.667 -37.333 -78.667 -56 -144 -56c-58.667 0 -102 19.333 -130 58c-19.333 26.667 -29 56 -29 88h66c4 -19.333 10.667 -34 20 -44
c16.667 -17.333 43.334 -26 80.001 -26c30 0 52 3.33301 66 10c22 10.667 35.333 30.667 40 60h65z" />
    <glyph glyph-name="ecircumflex" unicode="&#xea;" 
d="M191 0h-140v532h139v-202l176 202h175l-191 -206l200 -326h-170l-132 228l-57 -60v-168z" />
    <glyph glyph-name="ecircumflex" unicode="&#x43a;" 
d="M191 0h-140v532h139v-202l176 202h175l-191 -206l200 -326h-170l-132 228l-57 -60v-168z" />
    <glyph glyph-name="edieresis" unicode="&#xeb;" 
d="M224 420l-0.000976562 -231c0 -72 -19.333 -124.667 -58 -158c-33.333 -28.667 -79.666 -43 -138.999 -43v112c22 0 38.667 7 50 21s17 36.667 17 68v343h410v-532h-140v420h-140z" />
    <glyph glyph-name="edieresis" unicode="&#x43b;" 
d="M224 420l-0.000976562 -231c0 -72 -19.333 -124.667 -58 -158c-33.333 -28.667 -79.666 -43 -138.999 -43v112c22 0 38.667 7 50 21s17 36.667 17 68v343h410v-532h-140v420h-140z" />
    <glyph glyph-name="igrave" unicode="&#xec;" horiz-adv-x="778" 
d="M586 363l-132.999 -363.001h-118l-135 363h-4c2 -12.667 3.33301 -24.667 4 -36s1 -20.333 1 -27v-300h-130v532h190l131 -362h4l129 362h192v-532h-130v300c0 24 0.166992 39.333 0.5 46s1.16602 12.334 2.49902 17.001h-4z" />
    <glyph glyph-name="igrave" unicode="&#x43c;" horiz-adv-x="778" 
d="M586 363l-132.999 -363.001h-118l-135 363h-4c2 -12.667 3.33301 -24.667 4 -36s1 -20.333 1 -27v-300h-130v532h190l131 -362h4l129 362h192v-532h-130v300c0 24 0.166992 39.333 0.5 46s1.16602 12.334 2.49902 17.001h-4z" />
    <glyph glyph-name="iacute" unicode="&#xed;" horiz-adv-x="611" 
d="M550 0h-140v210h-199v-210h-140v532h139v-210h199v210h141v-532z" />
    <glyph glyph-name="iacute" unicode="&#x43d;" horiz-adv-x="611" 
d="M550 0h-140v210h-199v-210h-140v532h139v-210h199v210h141v-532z" />
    <glyph glyph-name="icircumflex" unicode="&#xee;" horiz-adv-x="611" 
d="M311 -14c-77.333 0 -140.668 22.667 -190.001 68c-54.667 50 -82 120.667 -82 212c0 90.667 27.333 161.334 82 212.001c49.333 45.333 112.333 68 189 68s140 -22.667 190 -68c55.333 -50.667 83 -121.334 83 -212.001c0 -91.333 -27.333 -162 -82 -212
c-49.333 -45.333 -112.666 -68 -189.999 -68zM310.998 428c-48 0 -82.667 -18.333 -104 -55c-16 -28 -24 -63.667 -24 -107c0 -44 7.66699 -79.333 23 -106c21.333 -37.333 56.333 -56 105 -56c48 0 82.667 18.333 104 55c16 28 24 63.667 24 107
c0 44 -7.66699 79.333 -23 106c-21.333 37.333 -56.333 56 -105 56z" />
    <glyph glyph-name="icircumflex" unicode="&#x43e;" horiz-adv-x="611" 
d="M311 -14c-77.333 0 -140.668 22.667 -190.001 68c-54.667 50 -82 120.667 -82 212c0 90.667 27.333 161.334 82 212.001c49.333 45.333 112.333 68 189 68s140 -22.667 190 -68c55.333 -50.667 83 -121.334 83 -212.001c0 -91.333 -27.333 -162 -82 -212
c-49.333 -45.333 -112.666 -68 -189.999 -68zM310.998 428c-48 0 -82.667 -18.333 -104 -55c-16 -28 -24 -63.667 -24 -107c0 -44 7.66699 -79.333 23 -106c21.333 -37.333 56.333 -56 105 -56c48 0 82.667 18.333 104 55c16 28 24 63.667 24 107
c0 44 -7.66699 79.333 -23 106c-21.333 37.333 -56.333 56 -105 56z" />
    <glyph glyph-name="idieresis" unicode="&#xef;" horiz-adv-x="611" 
d="M550 0h-140v419h-199v-419h-140v532h479v-532z" />
    <glyph glyph-name="idieresis" unicode="&#x43f;" horiz-adv-x="611" 
d="M550 0h-140v419h-199v-419h-140v532h479v-532z" />
    <glyph glyph-name="eth" unicode="&#xf0;" horiz-adv-x="611" 
d="M191 455c18.667 28 36.999 48.333 54.999 61c28 20 63 30 105 30c62.667 0 114.334 -22.667 155.001 -68c44.667 -49.333 67 -118 67 -206c0 -80.667 -17.333 -146.667 -52 -198c-40 -58.667 -97.333 -88 -172 -88c-42 0 -77 10 -105 30c-16.667 12 -32 29.333 -46 52
l-2 -275h-139v739h134v-77zM312.999 101c40.667 0 71.333 19 92 57c16 29.333 24 64 24 104c0 47.333 -8.66699 85 -26 113c-20.667 33.333 -52 50 -94 50c-44 0 -75.667 -17.667 -95 -53c-15.333 -28 -23 -67.333 -23 -118c0 -44 9 -79.333 27 -106
c21.333 -31.333 53 -47 95 -47z" />
    <glyph glyph-name="eth" unicode="&#x440;" horiz-adv-x="611" 
d="M191 455c18.667 28 36.999 48.333 54.999 61c28 20 63 30 105 30c62.667 0 114.334 -22.667 155.001 -68c44.667 -49.333 67 -118 67 -206c0 -80.667 -17.333 -146.667 -52 -198c-40 -58.667 -97.333 -88 -172 -88c-42 0 -77 10 -105 30c-16.667 12 -32 29.333 -46 52
l-2 -275h-139v739h134v-77zM312.999 101c40.667 0 71.333 19 92 57c16 29.333 24 64 24 104c0 47.333 -8.66699 85 -26 113c-20.667 33.333 -52 50 -94 50c-44 0 -75.667 -17.667 -95 -53c-15.333 -28 -23 -67.333 -23 -118c0 -44 9 -79.333 27 -106
c21.333 -31.333 53 -47 95 -47z" />
    <glyph glyph-name="ntilde" unicode="&#xf1;" 
d="M528 194c-4 -46 -20.6689 -87.335 -50.002 -124.002c-44 -56 -108.333 -84 -193 -84c-89.333 0 -155.333 30 -198 90c-32.667 46 -49 104.333 -49 175c0 90.667 20 161.334 60 212.001c43.333 55.333 108.333 83 195 83c56 0 104 -13 144 -39
c55.333 -35.333 86 -90.333 92 -165h-142c-6 30.667 -18 53.334 -36 68.001c-14.667 12 -33.667 18 -57 18c-40 0 -69.667 -17.333 -89 -52c-15.333 -27.333 -23 -61.333 -23 -102c0 -63.333 8.83301 -108 26.5 -134s44.834 -39 81.501 -39
c30.667 0 55.334 12.333 74.001 37c14.667 19.333 22 38 22 56h142z" />
    <glyph glyph-name="ntilde" unicode="&#x441;" 
d="M528 194c-4 -46 -20.6689 -87.335 -50.002 -124.002c-44 -56 -108.333 -84 -193 -84c-89.333 0 -155.333 30 -198 90c-32.667 46 -49 104.333 -49 175c0 90.667 20 161.334 60 212.001c43.333 55.333 108.333 83 195 83c56 0 104 -13 144 -39
c55.333 -35.333 86 -90.333 92 -165h-142c-6 30.667 -18 53.334 -36 68.001c-14.667 12 -33.667 18 -57 18c-40 0 -69.667 -17.333 -89 -52c-15.333 -27.333 -23 -61.333 -23 -102c0 -63.333 8.83301 -108 26.5 -134s44.834 -39 81.501 -39
c30.667 0 55.334 12.333 74.001 37c14.667 19.333 22 38 22 56h142z" />
    <glyph glyph-name="ograve" unicode="&#xf2;" horiz-adv-x="494" 
d="M179 0v420h-159v112h458v-112h-159v-420h-140z" />
    <glyph glyph-name="ograve" unicode="&#x442;" horiz-adv-x="494" 
d="M179 0v420h-159v112h458v-112h-159v-420h-140z" />
    <glyph glyph-name="oacute" unicode="&#xf3;" 
d="M361 9c-34 -100.667 -61 -162.334 -81 -185.001c-22.667 -25.333 -64 -38 -124 -38l-64 2v112l27 -2c28.667 0 48.667 4 60 12c15.333 10.667 26 33.334 32 68.001l-197 554h156l115 -392l110 392h148z" />
    <glyph glyph-name="oacute" unicode="&#x443;" 
d="M361 9c-34 -100.667 -61 -162.334 -81 -185.001c-22.667 -25.333 -64 -38 -124 -38l-64 2v112l27 -2c28.667 0 48.667 4 60 12c15.333 10.667 26 33.334 32 68.001l-197 554h156l115 -392l110 392h148z" />
    <glyph glyph-name="ocircumflex" unicode="&#xf4;" horiz-adv-x="833" 
d="M349 -207l-0.00195312 275c-21.333 -34.667 -37.666 -55.667 -48.999 -63c-19.333 -12.667 -43.333 -19 -72 -19c-67.333 0 -117.666 29.333 -150.999 88c-28.667 50 -43 116 -43 198c0 88.667 18.333 157.334 55 206.001c34 45.333 79 68 135 68
c36.667 0 65.334 -9.66699 86.001 -29c8.66699 -8 23.334 -28.667 44.001 -62l2 263h128v-263c23.333 35.333 38 55.666 44 60.999c21.333 20 50 30 86 30c56 0 101.333 -22.667 136 -68c37.333 -49.333 56 -118 56 -206c0 -82.667 -14 -148.667 -42 -198
c-33.333 -58.667 -84 -88 -152 -88c-36.667 0 -65.334 10 -86.001 30c-4.66699 4.66699 -16.334 22 -35.001 52l-2 -275h-140zM355.998 254v32.002c0 46 -4.33301 78.333 -13 97c-13.333 28 -39 42 -77 42c-34 0 -58 -16.667 -72 -50c-10.667 -25.333 -16 -63 -16 -113
c0 -44.667 4.33301 -79.334 13 -104.001c13.333 -38 37 -57 71 -57c40 0 66.667 15.667 80 47c9.33301 21.333 14 56.666 14 105.999zM575.998 101.002c33.333 0 57 18.9971 71 56.9971c10 26.667 15 61.334 15 104.001c0 49.333 -5.66699 87 -17 113
c-14.667 33.333 -39 50 -73 50c-37.333 0 -62.333 -14 -75 -42c-8.66699 -19.333 -13 -51.666 -13 -96.999v-32c0 -51.333 4 -86.666 12 -105.999c13.333 -31.333 40 -47 80 -47z" />
    <glyph glyph-name="ocircumflex" unicode="&#x444;" horiz-adv-x="833" 
d="M349 -207l-0.00195312 275c-21.333 -34.667 -37.666 -55.667 -48.999 -63c-19.333 -12.667 -43.333 -19 -72 -19c-67.333 0 -117.666 29.333 -150.999 88c-28.667 50 -43 116 -43 198c0 88.667 18.333 157.334 55 206.001c34 45.333 79 68 135 68
c36.667 0 65.334 -9.66699 86.001 -29c8.66699 -8 23.334 -28.667 44.001 -62l2 263h128v-263c23.333 35.333 38 55.666 44 60.999c21.333 20 50 30 86 30c56 0 101.333 -22.667 136 -68c37.333 -49.333 56 -118 56 -206c0 -82.667 -14 -148.667 -42 -198
c-33.333 -58.667 -84 -88 -152 -88c-36.667 0 -65.334 10 -86.001 30c-4.66699 4.66699 -16.334 22 -35.001 52l-2 -275h-140zM355.998 254v32.002c0 46 -4.33301 78.333 -13 97c-13.333 28 -39 42 -77 42c-34 0 -58 -16.667 -72 -50c-10.667 -25.333 -16 -63 -16 -113
c0 -44.667 4.33301 -79.334 13 -104.001c13.333 -38 37 -57 71 -57c40 0 66.667 15.667 80 47c9.33301 21.333 14 56.666 14 105.999zM575.998 101.002c33.333 0 57 18.9971 71 56.9971c10 26.667 15 61.334 15 104.001c0 49.333 -5.66699 87 -17 113
c-14.667 33.333 -39 50 -73 50c-37.333 0 -62.333 -14 -75 -42c-8.66699 -19.333 -13 -51.666 -13 -96.999v-32c0 -51.333 4 -86.666 12 -105.999c13.333 -31.333 40 -47 80 -47z" />
    <glyph glyph-name="otilde" unicode="&#xf5;" 
d="M544 0h-173l-92 160l-92 -160h-169l181 271l-175 261h170l90 -155l88 155h165l-174 -261z" />
    <glyph glyph-name="otilde" unicode="&#x445;" 
d="M544 0h-173l-92 160l-92 -160h-169l181 271l-175 261h170l90 -155l88 155h165l-174 -261z" />
    <glyph glyph-name="odieresis" unicode="&#xf6;" horiz-adv-x="611" 
d="M474 0h-413v531h140v-419h199v419h140v-419h64v-246h-130v134z" />
    <glyph glyph-name="odieresis" unicode="&#x446;" horiz-adv-x="611" 
d="M474 0h-413v531h140v-419h199v419h140v-419h64v-246h-130v134z" />
    <glyph glyph-name="divide" unicode="&#xf7;" horiz-adv-x="611" 
d="M560 0h-139.999v219c-20.667 -10.667 -37.667 -18.667 -51 -24c-41.333 -16.667 -77 -25 -107 -25c-56 0 -99.333 14 -130 42c-34 31.333 -51 79.333 -51 144v176h140v-172c0 -28 9.66699 -47.667 29 -59c14.667 -8.66699 35 -13 61 -13c19.333 0 43 5.33301 71 16
c9.33301 3.33301 21.666 9 36.999 17v211h141v-532z" />
    <glyph glyph-name="divide" unicode="&#x447;" horiz-adv-x="611" 
d="M560 0h-139.999v219c-20.667 -10.667 -37.667 -18.667 -51 -24c-41.333 -16.667 -77 -25 -107 -25c-56 0 -99.333 14 -130 42c-34 31.333 -51 79.333 -51 144v176h140v-172c0 -28 9.66699 -47.667 29 -59c14.667 -8.66699 35 -13 61 -13c19.333 0 43 5.33301 71 16
c9.33301 3.33301 21.666 9 36.999 17v211h141v-532z" />
    <glyph glyph-name="oslash" unicode="&#xf8;" horiz-adv-x="833" 
d="M351 112v420h140v-420h141v419h140v-531h-701v531h140v-419h140z" />
    <glyph glyph-name="oslash" unicode="&#x448;" horiz-adv-x="833" 
d="M351 112v420h140v-420h141v419h140v-531h-701v531h140v-419h140z" />
    <glyph glyph-name="ugrave" unicode="&#xf9;" horiz-adv-x="833" 
d="M696 0h-635v531h140v-419h140v420h140v-420h141v419h140v-419h64v-246h-130v134z" />
    <glyph glyph-name="ugrave" unicode="&#x449;" horiz-adv-x="833" 
d="M696 0h-635v531h140v-419h140v420h140v-420h141v419h140v-419h64v-246h-130v134z" />
    <glyph glyph-name="uacute" unicode="&#xfa;" horiz-adv-x="611" 
d="M264 532v-207h84c70.667 0 124 -12 160 -36c42 -28 63 -72.333 63 -133c0 -50.667 -22 -90 -66 -118c-40 -25.333 -92.333 -38 -157 -38h-224v420h-111v112h251zM264 226v-134h81c26.667 0 47.667 5.5 63 16.5s23 26.833 23 47.5c0 22.667 -7.83301 40 -23.5 52
s-36.5 18 -62.5 18h-81z" />
    <glyph glyph-name="uacute" unicode="&#x44a;" horiz-adv-x="611" 
d="M264 532v-207h84c70.667 0 124 -12 160 -36c42 -28 63 -72.333 63 -133c0 -50.667 -22 -90 -66 -118c-40 -25.333 -92.333 -38 -157 -38h-224v420h-111v112h251zM264 226v-134h81c26.667 0 47.667 5.5 63 16.5s23 26.833 23 47.5c0 22.667 -7.83301 40 -23.5 52
s-36.5 18 -62.5 18h-81z" />
    <glyph glyph-name="ucircumflex" unicode="&#xfb;" horiz-adv-x="778" 
d="M211 325h77c70.667 0 124 -12 160 -36c42 -28 63 -72.333 63 -133c0 -50.667 -22 -90 -66 -118c-40 -25.333 -92.333 -38 -157 -38h-217v532h140v-207zM717 0h-140v532h140v-532zM211 226v-134h74c26.667 0 47.667 5.5 63 16.5s23 26.833 23 47.5
c0 22.667 -7.83301 40 -23.5 52s-36.5 18 -62.5 18h-74z" />
    <glyph glyph-name="ucircumflex" unicode="&#x44b;" horiz-adv-x="778" 
d="M211 325h77c70.667 0 124 -12 160 -36c42 -28 63 -72.333 63 -133c0 -50.667 -22 -90 -66 -118c-40 -25.333 -92.333 -38 -157 -38h-217v532h140v-207zM717 0h-140v532h140v-532zM211 226v-134h74c26.667 0 47.667 5.5 63 16.5s23 26.833 23 47.5
c0 22.667 -7.83301 40 -23.5 52s-36.5 18 -62.5 18h-74z" />
    <glyph glyph-name="udieresis" unicode="&#xfc;" 
d="M201 325h84c70.667 0 124 -12 160 -36c42 -28 63 -72.333 63 -133c0 -50.667 -22 -90 -66 -118c-40 -25.333 -92.333 -38 -157 -38h-224v532h140v-207zM201 226v-134h81c26.667 0 47.667 5.5 63 16.5s23 26.833 23 47.5c0 22.667 -7.83301 40 -23.5 52s-36.5 18 -62.5 18
h-81z" />
    <glyph glyph-name="udieresis" unicode="&#x44c;" 
d="M201 325h84c70.667 0 124 -12 160 -36c42 -28 63 -72.333 63 -133c0 -50.667 -22 -90 -66 -118c-40 -25.333 -92.333 -38 -157 -38h-224v532h140v-207zM201 226v-134h81c26.667 0 47.667 5.5 63 16.5s23 26.833 23 47.5c0 22.667 -7.83301 40 -23.5 52s-36.5 18 -62.5 18
h-81z" />
    <glyph glyph-name="yacute" unicode="&#xfd;" 
d="M379 321c-5.33301 32 -15.334 56.667 -30.001 74c-18.667 22 -44 33 -76 33c-29.333 0 -52.333 -10 -69 -30c-12.667 -15.333 -20.667 -34 -24 -56h-142c0 73.333 28.333 128 85 164c42 26.667 91.667 40 149 40c86 0 151 -27.667 195 -83
c40 -50.667 60 -121.334 60 -212.001c0 -70.667 -15.667 -128.667 -47 -174c-42 -60.667 -108 -91 -198 -91c-84.667 0 -149 27.667 -193 83c-29.333 36.667 -46 78.334 -50 125.001h142c0 -26.667 10.667 -50 32 -70c16.667 -15.333 37.334 -23 62.001 -23
c33.333 0 59 11.333 77 34c14 18 23.667 43 29 75h-158l-1 112z" />
    <glyph glyph-name="yacute" unicode="&#x44d;" 
d="M379 321c-5.33301 32 -15.334 56.667 -30.001 74c-18.667 22 -44 33 -76 33c-29.333 0 -52.333 -10 -69 -30c-12.667 -15.333 -20.667 -34 -24 -56h-142c0 73.333 28.333 128 85 164c42 26.667 91.667 40 149 40c86 0 151 -27.667 195 -83
c40 -50.667 60 -121.334 60 -212.001c0 -70.667 -15.667 -128.667 -47 -174c-42 -60.667 -108 -91 -198 -91c-84.667 0 -149 27.667 -193 83c-29.333 36.667 -46 78.334 -50 125.001h142c0 -26.667 10.667 -50 32 -70c16.667 -15.333 37.334 -23 62.001 -23
c33.333 0 59 11.333 77 34c14 18 23.667 43 29 75h-158l-1 112z" />
    <glyph glyph-name="thorn" unicode="&#xfe;" horiz-adv-x="833" 
d="M297 210l-96 0.000976562v-210h-140v532h139v-210h96c10 72.667 39.333 129 88 169c44.667 36.667 97.667 55 159 55c70 0 128 -22.667 174 -68c51.333 -50.667 77 -121.334 77 -212.001c0 -91.333 -25.333 -162 -76 -212c-45.333 -45.333 -103.333 -68 -174 -68
c-62.667 0 -115.667 18 -159 54c-48.667 40 -78 96.667 -88 170zM544 428.001c-39.333 0 -68.333 -18.333 -87 -55c-14.667 -28.667 -22 -64.334 -22 -107.001c0 -43.333 7 -78.666 21 -105.999c19.333 -37.333 48.666 -56 87.999 -56s68.333 18.333 87 55
c14.667 28.667 22 64.334 22 107.001c0 43.333 -7 78.666 -21 105.999c-19.333 37.333 -48.666 56 -87.999 56z" />
    <glyph glyph-name="thorn" unicode="&#x44e;" horiz-adv-x="833" 
d="M297 210l-96 0.000976562v-210h-140v532h139v-210h96c10 72.667 39.333 129 88 169c44.667 36.667 97.667 55 159 55c70 0 128 -22.667 174 -68c51.333 -50.667 77 -121.334 77 -212.001c0 -91.333 -25.333 -162 -76 -212c-45.333 -45.333 -103.333 -68 -174 -68
c-62.667 0 -115.667 18 -159 54c-48.667 40 -78 96.667 -88 170zM544 428.001c-39.333 0 -68.333 -18.333 -87 -55c-14.667 -28.667 -22 -64.334 -22 -107.001c0 -43.333 7 -78.666 21 -105.999c19.333 -37.333 48.666 -56 87.999 -56s68.333 18.333 87 55
c14.667 28.667 22 64.334 22 107.001c0 43.333 -7 78.666 -21 105.999c-19.333 37.333 -48.666 56 -87.999 56z" />
    <glyph glyph-name="ydieresis" unicode="&#xff;" 
d="M26 0l145 212.999c-28 0 -55.667 13.333 -83 40c-33.333 32.667 -50 73.667 -50 123c0 52.667 18.833 91.834 56.5 117.501s92.167 38.5 163.5 38.5h237v-532h-140v213h-31l-131 -213h-167zM354 301.999v138h-92c-24 0 -43.833 -5.83301 -59.5 -17.5
s-23.5 -27.834 -23.5 -48.501c0 -23.333 7.16699 -41.166 21.5 -53.499s34.5 -18.5 60.5 -18.5h93z" />
    <glyph glyph-name="ydieresis" unicode="&#x44f;" 
d="M26 0l145 212.999c-28 0 -55.667 13.333 -83 40c-33.333 32.667 -50 73.667 -50 123c0 52.667 18.833 91.834 56.5 117.501s92.167 38.5 163.5 38.5h237v-532h-140v213h-31l-131 -213h-167zM354 301.999v138h-92c-24 0 -43.833 -5.83301 -59.5 -17.5
s-23.5 -27.834 -23.5 -48.501c0 -23.333 7.16699 -41.166 21.5 -53.499s34.5 -18.5 60.5 -18.5h93z" />
    <glyph glyph-name="endash" unicode="&#x2013;" 
d="M555 333v-106h-555v106h555z" />
    <glyph glyph-name="emdash" unicode="&#x2014;" horiz-adv-x="1000" 
d="M999 333v-106h-999v106h999z" />
    <glyph glyph-name="quoteleft" unicode="&#x2018;" horiz-adv-x="278" 
d="M208 581v-127h-140v102c0 56 15.667 98.667 47 128c22 20.667 52.333 35 91 43v-51c-30 -9.33301 -50.667 -23 -62 -41c-8.66699 -14 -13 -32 -13 -54h77z" />
    <glyph glyph-name="quoteright" unicode="&#x2019;" horiz-adv-x="278" 
d="M69 591v127h139v-102c0 -56 -15.667 -98.667 -47 -128c-22 -20.667 -51.667 -35 -89 -43l-1 51c30 9.33301 50.667 23 62 41c8.66699 14 13 32 13 54h-77z" />
    <glyph glyph-name="quotesinglbase" unicode="&#x201a;" horiz-adv-x="278" 
d="M69 0v127.001h140v-102c0 -56.667 -15.333 -99.334 -46 -128.001c-22 -20.667 -52.333 -35 -91 -43v51c30 9.33301 50.667 23 62 41c8 12.667 12 30.667 12 54h-77z" />
    <glyph glyph-name="quotedblleft" unicode="&#x201c;" horiz-adv-x="500" 
d="M203 581v-127h-140v102c0 56 15.667 98.667 47 128c22 20.667 52.333 35 91 43v-51c-30 -9.33301 -50.667 -23 -62 -41c-8.66699 -14 -13 -32 -13 -54h77zM435 581v-127h-140v102c0 56 15.667 98.667 47 128c22 20.667 52.333 35 91 43v-51
c-30 -9.33301 -50.667 -23 -62 -41c-8.66699 -14 -13 -32 -13 -54h77z" />
    <glyph glyph-name="quotedblright" unicode="&#x201d;" horiz-adv-x="500" 
d="M64 591v127h140l-1 -102c0 -56 -15.667 -98.667 -47 -128c-22 -20.667 -51.667 -35 -89 -43l-1 51c30 9.33301 50.667 23 62 41c8.66699 14 13 32 13 54h-77zM296 591v127h140l-1 -102c0 -56 -15.667 -98.667 -47 -128c-22 -20.667 -51.667 -35 -89 -43l-1 51
c30 9.33301 50.667 23 62 41c8.66699 14 13 32 13 54h-77z" />
    <glyph glyph-name="quotedblbase" unicode="&#x201e;" horiz-adv-x="500" 
d="M64 0v127.001h140v-102c0 -56.667 -15.333 -99.334 -46 -128.001c-22 -20.667 -52.333 -35 -91 -43v51c30 9.33301 50.667 23 62 41c8 12.667 12 30.667 12 54h-77zM296 0.000976562v127.001h140v-102c0 -56.667 -15.333 -99.334 -46 -128.001
c-22 -20.667 -52.333 -35 -91 -43v51c30 9.33301 50.667 23 62 41c8 12.667 12 30.667 12 54h-77z" />
    <glyph glyph-name="dagger" unicode="&#x2020;" 
d="M519 499v-112h-174l1 -558h-135v558h-176v112h176v219h134v-219h174z" />
    <glyph glyph-name="daggerdbl" unicode="&#x2021;" 
d="M519 509v-112h-175v-239h176v-112h-176v-217h-134v217h-174v112h174l-1 239h-174v112h174l1 209h134v-209h175z" />
    <glyph glyph-name="bullet" unicode="&#x2022;" horiz-adv-x="421" 
d="M50 360c0 46 15.834 84.833 47.501 116.5s70.5 47.5 116.5 47.5s85.167 -15.833 117.5 -47.5s48.5 -70.5 48.5 -116.5c0 -46.667 -16 -86 -48 -118s-71 -48 -117 -48c-46.667 0 -85.834 15.833 -117.501 47.5s-47.5 71.167 -47.5 118.5z" />
    <glyph glyph-name="ellipsis" unicode="&#x2026;" horiz-adv-x="1000" 
d="M242 146v-146h-150v146h150zM575 146v-146h-150v146h150zM908 146v-146h-150v146h150z" />
    <glyph glyph-name="perthousand" unicode="&#x2030;" horiz-adv-x="1065" 
d="M346 149c0 44 15.833 81.833 47.5 113.5s69.5 47.5 113.5 47.5s81.833 -15.833 113.5 -47.5s47.5 -69.5 47.5 -113.5s-15.833 -81.833 -47.5 -113.5s-69.5 -47.5 -113.5 -47.5c-44.667 0 -82.667 15.667 -114 47s-47 69.333 -47 114zM446 149
c0 -17.333 5.83301 -31.833 17.5 -43.5s26.167 -17.5 43.5 -17.5c16.667 0 31 5.66699 43 17s18 26 18 44c0 17.333 -5.83301 31.833 -17.5 43.5s-26.167 17.5 -43.5 17.5c-16.667 0 -31 -5.66699 -43 -17s-18 -26 -18 -44zM711 149c0 44 15.833 81.833 47.5 113.5
s69.5 47.5 113.5 47.5s81.833 -15.833 113.5 -47.5s47.5 -69.5 47.5 -113.5s-15.833 -81.833 -47.5 -113.5s-69.5 -47.5 -113.5 -47.5c-44.667 0 -82.667 15.667 -114 47s-47 69.333 -47 114zM811 149c0 -17.333 5.83301 -31.833 17.5 -43.5s26.167 -17.5 43.5 -17.5
c16.667 0 31 5.66699 43 17s18 26 18 44c0 17.333 -5.83301 31.833 -17.5 43.5s-26.167 17.5 -43.5 17.5c-16.667 0 -31 -5.66699 -43 -17s-18 -26 -18 -44zM27 549c0 44 15.501 81.833 46.501 113.5s68.833 47.5 113.5 47.5c44 0 82 -15.667 114 -47s48 -69.333 48 -114
c0 -44 -15.833 -81.833 -47.5 -113.5s-69.834 -47.5 -114.501 -47.5c-44 0 -81.667 15.667 -113 47s-47 69.333 -47 114zM127.001 549c0 -17.333 5.83301 -31.833 17.5 -43.5s26.167 -17.5 43.5 -17.5c16.667 0 31 5.66699 43 17s18 26 18 44
c0 17.333 -5.83301 31.833 -17.5 43.5s-26.167 17.5 -43.5 17.5c-16.667 0 -31 -5.66699 -43 -17s-18 -26 -18 -44zM110.001 -19l397 729h74l-397 -729h-74z" />
    <glyph glyph-name="guilsinglleft" unicode="&#x2039;" horiz-adv-x="333" 
d="M250 484l-1 -116l-99 -88l100 -88v-116l-167 144v120z" />
    <glyph glyph-name="guilsinglright" unicode="&#x203a;" horiz-adv-x="333" 
d="M183 280l-100 88v116l166 -144l1 -120l-167 -144v116z" />
    <glyph glyph-name="trademark" unicode="&#x2122;" horiz-adv-x="1000" 
d="M616 718l93 -250l94 250h153v-412h-106v281l-100 -281h-81l-98 281l-2 -281h-106v412h153zM385 718v-85h-115v-327h-112v327h-114v85h341z" />
    <glyph glyph-name=".null" horiz-adv-x="0" 
 />
    <glyph glyph-name="nonmarkingreturn" horiz-adv-x="278" 
 />
    </font>
</defs>
</svg>
