<?xml version="1.0" standalone="no"?>
<!DOCTYPE svg PUBLIC "-//W3C//DTD SVG 1.1//EN" "http://www.w3.org/Graphics/SVG/1.1/DTD/svg11.dtd" >
<svg xmlns="http://www.w3.org/2000/svg">
<metadata></metadata>
<defs>
<font id="tradergregular" horiz-adv-x="1175" >
<font-face units-per-em="2048" ascent="1475" descent="-573" />
<missing-glyph horiz-adv-x="471" />
<glyph horiz-adv-x="2048" />
<glyph horiz-adv-x="2048" />
<glyph horiz-adv-x="682" />
<glyph unicode="&#xd;" horiz-adv-x="0" />
<glyph unicode=" "  horiz-adv-x="471" />
<glyph unicode="&#x09;" horiz-adv-x="471" />
<glyph unicode="&#xa0;" horiz-adv-x="471" />
<glyph unicode="!" horiz-adv-x="575" d="M154 1470h229l-41 -993h-141zM162 0v238h219v-238h-219z" />
<glyph unicode="&#x22;" horiz-adv-x="944" d="M182 1470h205l-41 -550h-123zM551 1470h207l-43 -550h-123z" />
<glyph unicode="#" d="M66 430v148h256l47 325h-236v148h256l60 419h124l-59 -419h236l59 419h125l-60 -419h238v-148h-260l-45 -325h237v-148h-258l-61 -430h-123l60 430h-236l-61 -430h-123l59 430h-235zM446 578h236l47 325h-237z" />
<glyph unicode="$" d="M61 281l154 102q73 -110 144 -158t176 -55v522q-53 16 -87.5 28t-82 32.5t-78.5 41t-65 51t-53.5 65t-32.5 81t-13 101.5q0 162 115 259.5t297 108.5v152h120v-154q248 -26 379 -217l-131 -104q-105 135 -248 161v-464q53 -17 88.5 -30t84 -34.5t80.5 -43t67 -54.5 t55 -70t33.5 -87t13.5 -109q0 -89 -32 -160.5t-89.5 -119.5t-133 -76.5t-167.5 -37.5v-258h-120v254q-150 7 -268 68.5t-206 204.5zM295 1094q0 -85 61.5 -134t178.5 -88v431q-111 -9 -175.5 -62t-64.5 -147zM655 172q112 13 180 69.5t68 153.5q0 52 -18.5 93.5t-55 72 t-77 51.5t-97.5 41v-481z" />
<glyph unicode="%" horiz-adv-x="1638" d="M68 1151q0 148 93.5 246t244.5 98t244 -98t93 -246q0 -143 -93.5 -241.5t-243.5 -98.5t-244 98.5t-94 241.5zM199 1151q0 -95 55 -155t152 -60t151.5 60t54.5 155q0 94 -54.5 155.5t-151.5 61.5t-152 -61.5t-55 -155.5zM317 -53l865 1573h131l-862 -1573h-134zM895 317 q0 146 93.5 244t244.5 98t244.5 -98t93.5 -244q0 -144 -94 -243t-244 -99t-244 99t-94 243zM1026 317q0 -95 55 -155t152 -60t152 60t55 155q0 93 -55.5 155.5t-151.5 62.5t-151.5 -62.5t-55.5 -155.5z" />
<glyph unicode="&#x26;" horiz-adv-x="1390" d="M88 375q0 65 19 123.5t47 102t74.5 86.5t87 72.5t98.5 65.5q-113 191 -113 336q0 154 89 244t247 90q152 0 233.5 -80t81.5 -209q0 -57 -18 -109t-44.5 -90.5t-71.5 -79.5t-83 -68t-96 -64q8 -12 164 -230q78 -111 160 -196q85 132 135 344l168 -35q-58 -254 -183 -424 q136 -107 248 -107v-176q-186 0 -370 152q-180 -148 -429 -148q-202 0 -323 109.5t-121 290.5zM270 377q0 -114 78 -182t203 -68q170 0 293 106q-91 97 -178 222q-101 137 -172 245q-70 -49 -114.5 -91t-77 -103t-32.5 -129zM483 1163q0 -106 80 -245q102 66 156.5 130.5 t54.5 149.5q0 65 -36 104t-103 39q-72 0 -112 -46.5t-40 -131.5z" />
<glyph unicode="'" horiz-adv-x="575" d="M182 1470h205l-41 -550h-123z" />
<glyph unicode="(" horiz-adv-x="684" d="M127 690q0 453 274 805h174q-58 -75 -104 -150.5t-91 -176.5t-70 -223t-25 -255t25 -255t70 -223t91 -176.5t104 -150.5h-174q-274 352 -274 805z" />
<glyph unicode=")" horiz-adv-x="684" d="M109 -115q58 75 104 150.5t91 176.5t70 223t25 255t-25 255t-70 223t-91 176.5t-104 150.5h174q274 -352 274 -805t-274 -805h-174z" />
<glyph unicode="*" horiz-adv-x="843" d="M78 1194l41 127l258 -104l-19 278h129l-18 -278l258 104l41 -127l-272 -66l180 -213l-105 -77l-147 237l-150 -239l-104 77l178 213z" />
<glyph unicode="+" d="M86 471v111h446v424h115v-424h445v-111h-445v-444h-115v444h-446z" />
<glyph unicode="," horiz-adv-x="575" d="M111 -313l125 313h-91v238h226v-230l-146 -321h-114z" />
<glyph unicode="-" horiz-adv-x="681" d="M78 446v168h524v-168h-524z" />
<glyph unicode="." horiz-adv-x="575" d="M145 0v238h226v-238h-226z" />
<glyph unicode="/" horiz-adv-x="577" d="M-25 -115l498 1610h127l-498 -1610h-127z" />
<glyph unicode="0" d="M94 727q0 366 128.5 567t365.5 201t365 -200.5t128 -567.5q0 -357 -128.5 -554.5t-364.5 -197.5t-365 197.5t-129 554.5zM281 727q0 -290 79 -443t228 -153q150 0 228.5 152.5t78.5 443.5q0 297 -79 454.5t-228 157.5t-228 -157.5t-79 -454.5z" />
<glyph unicode="1" d="M225 1233v125l359 112h125v-1314h245v-156h-684v156h254v1118z" />
<glyph unicode="2" d="M92 0v88q0 114 64 209t178 195q49 42 117.5 93t121 86.5t108.5 83t92.5 91t60.5 101.5t24 122q0 128 -71.5 196t-198.5 68q-124 0 -203.5 -73.5t-108.5 -221.5l-163 35q31 200 159.5 311t323.5 111q209 0 326.5 -111.5t117.5 -308.5q0 -83 -30.5 -159.5t-76.5 -133.5 t-113 -116t-126 -100.5t-130.5 -93t-112.5 -87.5q-75 -67 -116 -120t-42 -101h747v-164h-948z" />
<glyph unicode="3" d="M35 268l149 90q68 -124 150.5 -173.5t214.5 -49.5q152 0 243 76t91 213q0 144 -113.5 215.5t-318.5 71.5h-91v155h78q194 0 298 62t104 180q0 103 -74 164t-207 61q-213 0 -330 -176l-131 105q167 233 473 233q212 0 332.5 -101t120.5 -274q0 -113 -65 -196.5 t-195 -128.5v-4q154 -44 228.5 -141t74.5 -234q0 -207 -142.5 -324t-371.5 -117q-191 0 -318.5 70t-199.5 223z" />
<glyph unicode="4" d="M31 356v160l614 954h250v-952h219v-162h-219v-356h-182v356h-682zM221 518h492v762h-4z" />
<glyph unicode="5" d="M80 256l153 88q54 -111 133.5 -160t194.5 -49q157 0 245.5 96.5t88.5 260.5q0 158 -83.5 248.5t-231.5 90.5q-101 0 -171 -44.5t-118 -135.5l-154 29l64 790h774v-163h-635l-35 -435h4q71 60 145 86.5t167 26.5q214 0 337 -132t123 -359q0 -240 -140 -379.5t-376 -139.5 q-173 0 -289 65t-196 216z" />
<glyph unicode="6" d="M80 662q0 125 19.5 241t64.5 225t111.5 189.5t168.5 129t228 48.5q240 0 397 -139l-102 -146q-129 123 -293 123q-84 0 -153.5 -33t-115.5 -88.5t-77.5 -131t-46.5 -156.5t-17 -170h4q156 176 385 176q211 0 331 -126.5t120 -336.5q0 -216 -137 -354t-361 -138 q-252 0 -389 178.5t-137 508.5zM270 520q0 -165 88.5 -277t247.5 -112q144 0 230 90t86 240q0 148 -81.5 230.5t-228.5 82.5q-115 0 -212.5 -72.5t-129.5 -181.5z" />
<glyph unicode="7" d="M121 1300v170h956v-114l-616 -1356h-203l606 1300h-743z" />
<glyph unicode="8" d="M55 381q0 126 76.5 220.5t261.5 164.5v4q-63 27 -109 56t-86.5 69.5t-61.5 95.5t-21 123q0 175 125.5 278t347.5 103q225 0 350 -98t125 -273q0 -236 -277 -342v-4q172 -71 252 -165.5t80 -229.5q0 -194 -143.5 -301t-392.5 -107q-244 0 -385.5 109t-141.5 297zM233 385 q0 -118 95.5 -187t253.5 -69q167 0 262.5 68.5t95.5 185.5q0 30 -7 57t-17.5 48.5t-30.5 42t-37.5 36t-47.5 32t-51.5 27t-58.5 25.5t-59.5 23t-63.5 22q-163 -58 -248.5 -133.5t-85.5 -177.5zM287 1110q0 -31 10 -58t24.5 -48t42 -41.5t50.5 -34.5t63 -30.5t67 -27 t74 -26.5q62 23 106 45.5t85.5 55t62.5 75.5t21 96q0 105 -82.5 169.5t-222.5 64.5t-220.5 -66.5t-80.5 -173.5z" />
<glyph unicode="9" d="M66 1004q0 216 136.5 353.5t360.5 137.5q252 0 389.5 -178t137.5 -508q0 -88 -10 -172.5t-32 -168t-54.5 -156t-80.5 -135t-107.5 -107t-138 -70t-169.5 -25.5q-239 0 -398 140l103 145q129 -123 293 -123q84 0 153 33t115 88.5t78 131.5t46.5 158t16.5 171h-4 q-156 -178 -385 -178q-211 0 -330.5 126.5t-119.5 336.5zM248 1010q0 -148 81 -231t228 -83q115 0 212.5 72.5t129.5 181.5q0 107 -37.5 193.5t-115 141t-183.5 54.5q-144 0 -229.5 -89.5t-85.5 -239.5z" />
<glyph unicode=":" horiz-adv-x="575" d="M145 0v238h226v-238h-226zM145 616v240h226v-240h-226z" />
<glyph unicode=";" horiz-adv-x="575" d="M111 -313l125 313h-91v238h226v-230l-146 -321h-114zM145 616v240h226v-240h-226z" />
<glyph unicode="&#x3c;" d="M150 457v139l843 369v-134l-721 -305l721 -305v-133z" />
<glyph unicode="=" d="M86 270v113h1006v-113h-1006zM86 670v112h1006v-112h-1006z" />
<glyph unicode="&#x3e;" d="M182 88v133l721 305l-721 305v134l844 -369v-139z" />
<glyph unicode="?" horiz-adv-x="843" d="M41 1227q85 268 379 268q163 0 255.5 -86.5t92.5 -232.5q0 -57 -19 -111t-48.5 -98t-66 -86t-73 -80.5t-66 -75t-48.5 -77t-19 -79.5v-92h-152v121q0 62 31.5 122.5t76.5 110t90 100t76.5 112.5t31.5 128q0 77 -47.5 122.5t-126.5 45.5q-77 0 -126.5 -37.5t-91.5 -132.5z M238 0v238h225v-238h-225z" />
<glyph unicode="@" horiz-adv-x="1595" d="M88 451q0 136 30.5 258t93.5 224t152.5 176t213 115.5t270.5 41.5q305 0 480 -159.5t175 -451.5q0 -234 -122.5 -386t-301.5 -152q-29 0 -52.5 4.5t-47 15.5t-41 34.5t-27.5 57.5h-4q-103 -112 -239 -112q-125 0 -188.5 85.5t-63.5 213.5q0 69 18.5 141.5t54.5 138 t84.5 117.5t114 82.5t137.5 30.5q163 0 224 -121l43 86h108l-156 -524q-6 -20 -8.5 -40.5t0.5 -43t19 -36.5t45 -14q124 0 203 122t79 300q0 244 -143 371t-391 127q-162 0 -286 -54t-199.5 -150.5t-113.5 -221.5t-38 -276q0 -267 161.5 -429.5t430.5 -162.5q310 0 487 139 l68 -102q-115 -83 -251.5 -116.5t-303.5 -33.5q-330 0 -522.5 193t-192.5 512zM549 418q0 -91 36.5 -138t100.5 -47q70 0 130 42t97 106t57.5 134.5t20.5 131.5q0 75 -41 119.5t-121 44.5q-68 0 -123.5 -38t-88.5 -98t-50.5 -127t-17.5 -130z" />
<glyph unicode="A" horiz-adv-x="1288" d="M47 0l459 1470h276l459 -1470h-209l-131 438h-526l-131 -438h-197zM426 608h424l-209 699h-4z" />
<glyph unicode="B" horiz-adv-x="1359" d="M188 0v1470h416q296 0 434 -91t138 -281q0 -230 -220 -316v-4q104 -36 167 -94t86.5 -124.5t23.5 -151.5q0 -97 -31.5 -170t-83.5 -117.5t-128 -72t-156 -38t-177 -10.5h-469zM379 166h270q203 0 296 60.5t93 191.5q0 268 -364 268h-295v-520zM379 840h235q52 0 94 3.5 t96 18t90 39t61.5 71t25.5 109.5q0 50 -16 88t-47.5 61.5t-66.5 39t-84 22.5t-87.5 9t-89.5 2h-211v-463z" />
<glyph unicode="C" horiz-adv-x="1284" d="M94 743q0 355 155 553.5t425 198.5q206 0 332 -104t184 -334l-182 -37q-46 160 -128 231.5t-208 71.5q-179 0 -281 -154.5t-102 -425.5q0 -593 377 -593q136 0 225.5 76.5t134.5 242.5l186 -41q-33 -126 -86 -215t-124 -140.5t-153.5 -74.5t-184.5 -23q-286 0 -428 200 t-142 568z" />
<glyph unicode="D" horiz-adv-x="1386" d="M188 0v1470h396q364 0 536 -180.5t172 -537.5q0 -373 -188.5 -562.5t-558.5 -189.5h-357zM385 176h178q274 0 405.5 141t131.5 431q0 278 -123 412t-375 134h-217v-1118z" />
<glyph unicode="E" horiz-adv-x="1163" d="M188 0v1470h887v-172h-690v-452h496v-168h-496v-506h723v-172h-920z" />
<glyph unicode="F" horiz-adv-x="1148" d="M188 0v1470h912v-172h-715v-452h516v-168h-516v-678h-197z" />
<glyph unicode="G" horiz-adv-x="1363" d="M94 731q0 358 153 561t435 203q204 0 332.5 -104t185.5 -330l-180 -37q-46 159 -128.5 229t-209.5 70q-184 0 -288.5 -156t-104.5 -438q0 -287 100.5 -436.5t302.5 -149.5q161 0 253.5 92t92.5 257q0 36 -4 59h-342v156h520v-707h-159v147h-4q-133 -172 -381 -172 q-281 0 -427.5 197.5t-146.5 558.5z" />
<glyph unicode="H" horiz-adv-x="1482" d="M188 0v1470h197v-618h715v618h194v-1470h-194v674h-715v-674h-197z" />
<glyph unicode="I" horiz-adv-x="573" d="M188 0v1470h197v-1470h-197z" />
<glyph unicode="J" horiz-adv-x="919" d="M-2 186l156 99q41 -73 88 -104t116 -31q99 0 139 58t40 195v1067h196v-1046q0 -81 -10 -145.5t-35.5 -122.5t-66.5 -97t-106.5 -61.5t-152.5 -22.5q-122 0 -211 47.5t-153 163.5z" />
<glyph unicode="K" horiz-adv-x="1290" d="M188 0v1470h197v-737h4l612 737h226l-461 -550l522 -920h-225l-430 750l-248 -289v-461h-197z" />
<glyph unicode="L" horiz-adv-x="1056" d="M188 0v1470h197v-1298h641v-172h-838z" />
<glyph unicode="M" horiz-adv-x="1724" d="M188 0v1470h299l369 -1202h4l381 1202h295v-1470h-184v1253h-4l-402 -1253h-172l-401 1253h-4v-1253h-181z" />
<glyph unicode="N" horiz-adv-x="1482" d="M188 0v1470h279l637 -1114h4v1114h186v-1470h-192l-723 1235h-4v-1235h-187z" />
<glyph unicode="O" horiz-adv-x="1390" d="M94 735q0 222 67 391.5t204.5 269t330.5 99.5q192 0 329.5 -99.5t204 -269t66.5 -391.5q0 -353 -159 -556.5t-441 -203.5q-283 0 -442.5 203.5t-159.5 556.5zM289 735q0 -279 108.5 -435.5t298.5 -156.5t298 156.5t108 435.5q0 280 -108.5 437t-297.5 157 q-190 0 -298.5 -157t-108.5 -437z" />
<glyph unicode="P" horiz-adv-x="1261" d="M188 0v1470h453q275 0 411 -105t136 -321q0 -220 -140 -327t-423 -107h-240v-610h-197zM385 778h254q55 0 98 4.5t93.5 20.5t84 43.5t56 78t22.5 119.5q0 254 -336 254h-272v-520z" />
<glyph unicode="Q" horiz-adv-x="1390" d="M94 735q0 222 67 391.5t204.5 269t330.5 99.5q192 0 329.5 -99.5t204 -269t66.5 -391.5q0 -389 -186 -590q89 -118 236 -118v-170q-243 0 -367 186q-130 -68 -283 -68q-283 0 -442.5 203.5t-159.5 556.5zM289 733q0 -280 108.5 -438t298.5 -158q111 0 197 58 q-43 78 -78 115.5t-88 37.5v166q53 0 96 -15.5t76.5 -46.5t57 -62t49.5 -77q96 161 96 420q0 279 -109 437.5t-297 158.5q-189 0 -298 -158.5t-109 -437.5z" />
<glyph unicode="R" horiz-adv-x="1333" d="M188 0v1470h455q282 0 415.5 -102t133.5 -305q0 -286 -283 -379l346 -684h-221l-311 633h-338v-633h-197zM385 803h264q346 0 346 250q0 53 -13.5 94t-39 67t-55.5 43.5t-71 26t-76.5 11.5t-80.5 3h-274v-495z" />
<glyph unicode="S" horiz-adv-x="1177" d="M66 356l182 62q46 -142 126 -207.5t224 -65.5q137 0 219 64.5t82 181.5q0 59 -27 104t-72 75t-104 53.5t-124 45t-130 44.5t-124 56t-104 75.5t-72 108.5t-27 149q0 182 127 287.5t329 105.5q376 0 478 -330l-166 -61q-48 116 -120.5 169.5t-191.5 53.5 q-124 0 -199 -58.5t-75 -162.5q0 -53 27 -94.5t72.5 -68.5t105 -50t125 -44t131 -45t125 -58.5t105 -79t72.5 -112t27 -151.5q0 -207 -135.5 -317.5t-361.5 -110.5q-209 0 -332.5 90.5t-191.5 290.5z" />
<glyph unicode="T" horiz-adv-x="1142" d="M53 1298v172h1037v-172h-420v-1298h-197v1298h-420z" />
<glyph unicode="U" horiz-adv-x="1458" d="M178 575v895h197v-929q0 -203 80.5 -297t261.5 -94q183 0 275.5 96t92.5 295v929h195v-895q0 -600 -565 -600q-146 0 -251 40.5t-167 119.5t-90.5 187t-28.5 253z" />
<glyph unicode="V" horiz-adv-x="1191" d="M16 1470h211l363 -1206h4l385 1206h207l-486 -1470h-215z" />
<glyph unicode="W" horiz-adv-x="1726" d="M20 1470h207l277 -1146h4l266 1146h195l254 -1142h4l289 1142h196l-391 -1470h-195l-256 1116h-4l-262 -1116h-196z" />
<glyph unicode="X" horiz-adv-x="1191" d="M29 0l454 764l-424 706h224l321 -538h4l318 538h209l-424 -704l458 -766h-221l-352 594h-4l-348 -594h-215z" />
<glyph unicode="Y" horiz-adv-x="1161" d="M27 1470h215l336 -675h4l358 675h209l-469 -866v-604h-197v604z" />
<glyph unicode="Z" horiz-adv-x="1161" d="M76 0v170l743 1128h-686v172h926v-163l-752 -1135h762v-172h-993z" />
<glyph unicode="[" horiz-adv-x="684" d="M166 -90v1560h409v-108h-260v-1344h260v-108h-409z" />
<glyph unicode="\" horiz-adv-x="587" d="M-25 1495h127l498 -1610h-127z" />
<glyph unicode="]" horiz-adv-x="684" d="M109 18h260v1344h-260v108h409v-1560h-409v108z" />
<glyph unicode="^" d="M147 709l367 761h148l366 -761h-135l-305 641l-303 -641h-138z" />
<glyph unicode="_" horiz-adv-x="1161" d="M-10 -156h1181v-102h-1181v102z" />
<glyph unicode="`" horiz-adv-x="847" d="M205 1470h213l223 -288h-143z" />
<glyph unicode="a" horiz-adv-x="1060" d="M80 262q0 196 176 293q130 70 485 141q2 26 2 49q0 98 -41 143q-51 56 -172 56q-93 0 -157.5 -37.5t-120.5 -122.5l-127 80q70 116 171.5 168.5t240.5 52.5q194 0 285 -85t91 -261v-573l17 -166h-170l-17 127q-177 -150 -368 -150q-138 0 -216.5 77.5t-78.5 207.5z M256 279q0 -74 43.5 -117t122.5 -43q84 0 171.5 41.5t143.5 109.5v299q-286 -57 -387 -114q-94 -55 -94 -176z" />
<glyph unicode="b" horiz-adv-x="1150" d="M158 0v1470h174v-534q132 141 309 141q192 0 309 -149t117 -404q0 -248 -111 -398.5t-303 -150.5q-104 0 -180.5 34t-157.5 114l-30 -123h-127zM332 285q45 -73 121 -115.5t155 -42.5q133 0 208 106.5t75 294.5q0 185 -76.5 292.5t-208.5 107.5q-78 0 -149 -42t-125 -120 v-481z" />
<glyph unicode="c" horiz-adv-x="1046" d="M84 526q0 263 124.5 411t340.5 148q310 0 412 -288l-148 -58q-43 103 -105.5 150t-154.5 47q-136 0 -216.5 -109t-80.5 -301q0 -194 77.5 -297.5t217.5 -103.5q94 0 163 48t126 155l141 -78q-145 -275 -438 -275q-214 0 -336.5 148t-122.5 403z" />
<glyph unicode="d" horiz-adv-x="1150" d="M84 520q0 255 118.5 406t313.5 151q177 0 303 -135v528h174v-1470h-129l-28 125q-82 -79 -160 -114.5t-180 -35.5q-190 0 -301 149t-111 396zM260 518q0 -182 76 -286.5t207 -104.5q78 0 154 43t122 117v481q-53 77 -124 118.5t-150 41.5q-133 0 -209 -110t-76 -300z" />
<glyph unicode="e" horiz-adv-x="1060" d="M84 530q0 252 125.5 403.5t325.5 151.5q211 0 324.5 -139t113.5 -377q0 -36 -2 -63h-715q8 -185 76.5 -283t212.5 -98q96 0 167.5 44t123.5 144l133 -73q-140 -265 -437 -265q-212 0 -330 149t-118 406zM260 635h541q-2 142 -72 225.5t-194 83.5q-120 0 -189.5 -86 t-85.5 -223z" />
<glyph unicode="f" horiz-adv-x="624" d="M47 918v143h168v125q0 158 68.5 233.5t224.5 75.5q57 0 106 -8v-148q-50 11 -84 11q-74 0 -107.5 -32t-33.5 -118v-139h219v-143h-219v-918h-174v918h-168z" />
<glyph unicode="g" horiz-adv-x="1048" d="M41 -121q0 78 43 128.5t129 82.5v4q-127 33 -127 148q0 105 141 192q-135 97 -135 289q0 159 111 260.5t297 101.5q168 0 280 -88q96 107 224 107v-160q-82 0 -146 -37q49 -79 49 -184q0 -168 -108.5 -266.5t-298.5 -98.5q-95 0 -172 25q-80 -37 -80 -86q0 -28 26 -44.5 t70 -23.5t101.5 -9.5t120.5 -6.5t126 -10.5t120.5 -25t101.5 -47t70 -79t26 -119.5q0 -106 -68.5 -177t-179 -101.5t-258.5 -30.5q-215 0 -339 64t-124 192zM205 -98q0 -73 83 -111.5t224 -38.5q144 0 237 40t93 118q0 32 -12 55.5t-38 40t-57.5 27t-82 17t-100 9 t-120.5 4.5q-98 -13 -162.5 -53.5t-64.5 -107.5zM254 715q0 -108 65.5 -169t180.5 -61q114 0 179.5 61t65.5 169t-64.5 171.5t-180.5 63.5t-181 -63.5t-65 -171.5z" />
<glyph unicode="h" horiz-adv-x="1134" d="M158 0v1470h174v-546q95 88 177.5 124.5t170.5 36.5q173 0 252 -110q32 -45 43.5 -111t11.5 -180v-684h-172v686q0 62 -6 102t-24.5 76t-56 53t-95.5 17q-145 0 -301 -162v-772h-174z" />
<glyph unicode="i" horiz-adv-x="489" d="M150 1266v211h192v-211h-192zM158 0v1061h174v-1061h-174z" />
<glyph unicode="j" horiz-adv-x="481" d="M-66 -217q57 -14 105 -14q123 0 123 133v1159h172v-1163q0 -146 -66 -210.5t-196 -64.5q-66 0 -138 17v143zM152 1266v211h194v-211h-194z" />
<glyph unicode="k" horiz-adv-x="1042" d="M158 0v1470h172v-921h4l438 512h197l-332 -383l385 -678h-193l-307 543l-192 -213v-330h-172z" />
<glyph unicode="l" horiz-adv-x="489" d="M158 0v1470h174v-1470h-174z" />
<glyph unicode="m" horiz-adv-x="1703" d="M158 0v1061h166v-148q73 82 160.5 127t170.5 45q106 0 171 -43t96 -135q93 96 171.5 137t176.5 41q289 0 289 -331v-754h-175v743q0 189 -161 189q-138 0 -277 -158v-774h-174v725q0 207 -156 207q-140 0 -284 -166v-766h-174z" />
<glyph unicode="n" horiz-adv-x="1128" d="M158 0v1061h166v-148q89 89 175 130.5t185 41.5q167 0 242 -110q57 -80 57 -252v-723h-174v725q0 108 -42 157.5t-134 49.5q-73 0 -143 -36.5t-158 -127.5v-768h-174z" />
<glyph unicode="o" horiz-adv-x="1073" d="M84 526q0 263 120.5 411t332.5 148q211 0 330.5 -148t119.5 -411q0 -255 -121.5 -403t-328.5 -148q-208 0 -330.5 148.5t-122.5 402.5zM260 526q0 -188 70.5 -296.5t206.5 -108.5t206 108.5t70 296.5q0 190 -69.5 302t-206.5 112t-207 -112t-70 -302z" />
<glyph unicode="p" horiz-adv-x="1150" d="M158 -352v1413h166v-152q73 90 151 133t182 43q189 0 299.5 -148t110.5 -394q0 -259 -115.5 -409t-316.5 -150q-174 0 -303 135v-471h-174zM332 293q53 -77 124 -118.5t150 -41.5q139 0 212 109t73 301q0 184 -75 287.5t-206 103.5q-71 0 -145.5 -45t-132.5 -137v-459z " />
<glyph unicode="q" horiz-adv-x="1142" d="M84 539q0 247 111 396.5t303 149.5q105 0 183 -42t150 -132l35 150h127v-1413h-174v477q-132 -141 -309 -141q-198 0 -312 148.5t-114 406.5zM260 532q0 -187 74 -293t211 -106q78 0 149 42t125 120v459q-57 92 -130 136t-146 44q-133 0 -208 -106.5t-75 -295.5z" />
<glyph unicode="r" horiz-adv-x="708" d="M158 0v1061h166v-201q66 118 144.5 171.5t178.5 53.5q19 0 33 -2v-172q-16 2 -39 2q-104 0 -181.5 -70t-127.5 -186v-657h-174z" />
<glyph unicode="s" horiz-adv-x="921" d="M55 190l129 95q60 -90 123 -128t158 -38q103 0 159 43t56 119q0 55 -32.5 92.5t-84.5 58t-114.5 37.5t-125 39t-114.5 53.5t-84.5 90t-32.5 139.5q0 132 97 213t253 81q253 0 371 -194l-127 -86q-50 76 -108.5 107.5t-139.5 31.5q-84 0 -131 -39.5t-47 -107.5 q0 -39 20.5 -67.5t54.5 -46t78.5 -32t93.5 -28t98 -29.5t93.5 -41t78.5 -58.5t54.5 -86t20.5 -119.5q0 -146 -107.5 -230t-283.5 -84q-139 0 -236.5 53t-169.5 162z" />
<glyph unicode="t" horiz-adv-x="667" d="M41 918v143h158v350h172v-350h229v-143h-229v-652q0 -68 26 -99.5t84 -31.5q51 0 119 15v-150q-82 -16 -162 -16q-132 0 -185.5 60t-53.5 214v660h-158z" />
<glyph unicode="u" horiz-adv-x="1126" d="M145 340v721h177v-725q0 -108 41 -156.5t133 -48.5q74 0 142 36t157 126v768h174v-1061h-166v147q-88 -88 -174.5 -130t-184.5 -42q-163 0 -241 111q-58 85 -58 254z" />
<glyph unicode="v" horiz-adv-x="935" d="M14 1061h189l262 -819h4l270 819h187l-369 -1061h-182z" />
<glyph unicode="w" horiz-adv-x="1398" d="M10 1061h176l211 -793h4l213 793h170l207 -793h4l217 793h177l-312 -1061h-168l-211 776h-4l-213 -776h-170z" />
<glyph unicode="x" horiz-adv-x="942" d="M10 0l361 557l-330 504h195l233 -367h4l236 367h190l-326 -504l359 -557h-193l-268 418h-4l-264 -418h-193z" />
<glyph unicode="y" horiz-adv-x="946" d="M25 1061h192l268 -795h4l261 795h182l-350 -1028q-81 -242 -157.5 -326t-227.5 -84q-79 0 -144 12v146q65 -12 117 -12q85 0 129 42t82 152l20 60z" />
<glyph unicode="z" horiz-adv-x="921" d="M49 0v125l580 793h-535v143h754v-125l-578 -791h588v-145h-809z" />
<glyph unicode="{" horiz-adv-x="684" d="M66 676v110h71q65 0 94 37.5t29 124.5v246q0 147 50 211.5t177 64.5h97v-108h-52q-66 0 -94 -37t-28 -125v-248q0 -169 -115 -219v-4q115 -53 115 -219v-330q0 -88 28 -125t94 -37h52v-108h-97q-127 0 -177 64.5t-50 211.5v328q0 87 -29 124.5t-94 37.5h-71z" />
<glyph unicode="|" horiz-adv-x="542" d="M213 -115v1610h115v-1610h-115z" />
<glyph unicode="}" horiz-adv-x="684" d="M100 18h52q66 0 94 37t28 125v330q0 166 115 219v4q-115 50 -115 219v248q0 88 -28 125t-94 37h-52v108h97q127 0 177 -64.5t50 -211.5v-246q0 -87 29 -124.5t94 -37.5h71v-110h-71q-65 0 -94 -37.5t-29 -124.5v-328q0 -147 -50 -211.5t-177 -64.5h-97v108z" />
<glyph unicode="~" d="M106 369q19 141 88 220t187 79q54 0 116 -23t109 -50t105 -50t104 -23q116 0 137 160h119q-19 -141 -88.5 -220t-187.5 -79q-54 0 -116 22.5t-109.5 50t-105.5 50t-104 22.5q-113 0 -137 -159h-117z" />
<glyph unicode="&#xa1;" horiz-adv-x="575" d="M193 -385l40 993h142l47 -993h-229zM195 848v237h219v-237h-219z" />
<glyph unicode="&#xa2;" d="M100 526q0 243 109 389t301 168v217h119v-217q263 -25 354 -286l-147 -58q-43 102 -105.5 149.5t-155.5 47.5q-136 0 -217.5 -109t-81.5 -301q0 -194 77.5 -297.5t217.5 -103.5q96 0 165 48t126 155l142 -78q-129 -243 -375 -270v-244h-119v244q-193 19 -301.5 164 t-108.5 382z" />
<glyph unicode="&#xa3;" d="M74 -25v175q52 17 91.5 42.5t72.5 65.5t50 100.5t17 139.5q0 70 -24 178h-207v123h178q-45 192 -45 288q0 185 113.5 296.5t306.5 111.5q362 0 458 -377l-165 -45q-34 132 -103.5 196t-187.5 64q-114 0 -177 -64.5t-63 -178.5q0 -111 45 -291h281v-123h-252 q22 -121 22 -195q0 -113 -45 -211q144 -127 271 -127q97 0 155.5 54.5t94.5 175.5l165 -47q-54 -188 -151.5 -269.5t-251.5 -81.5q-112 0 -198 40.5t-175 117.5q-111 -117 -276 -158z" />
<glyph unicode="&#xa4;" d="M176 201l129 129q-55 90 -55 196q0 109 55 195l-129 131l86 88l129 -129q82 57 197 57q114 0 196 -57l131 129l86 -88l-131 -133q56 -85 56 -193q0 -106 -56 -194l131 -131l-86 -88l-131 129q-83 -58 -196 -58q-114 0 -197 58l-129 -129zM381 526q0 -95 55 -155t152 -60 t152 60t55 155q0 93 -55.5 155t-151.5 62t-151.5 -62t-55.5 -155z" />
<glyph unicode="&#xa5;" d="M41 1470h197l344 -698h4l364 698h197l-389 -720h286v-123h-354l-10 -21v-141h364v-123h-364v-342h-186v342h-365v123h365v141l-11 21h-354v123h289z" />
<glyph unicode="&#xa6;" horiz-adv-x="542" d="M213 -115v656h115v-656h-115zM213 881v614h115v-614h-115z" />
<glyph unicode="&#xa7;" horiz-adv-x="931" d="M84 782q0 94 52 155t138 73q-108 127 -108 233q0 108 76 180t202 72q111 0 192.5 -47.5t143.5 -151.5l-133 -84q-44 71 -90 104.5t-106 33.5q-53 0 -88 -28.5t-35 -82.5q0 -41 39.5 -93.5t98 -103t127.5 -113t127.5 -121.5t98 -130t39.5 -137q0 -94 -52 -155t-140 -75 q110 -123 110 -231q0 -109 -75 -180.5t-205 -71.5q-225 0 -355 199l133 84q99 -138 215 -138q57 0 92 28t35 83q0 35 -29.5 78.5t-76.5 88t-103.5 93t-113 101.5t-103.5 106t-76.5 113.5t-29.5 117.5zM236 793q0 -21 8 -43.5t25.5 -47t34.5 -45t47.5 -49.5t52 -48.5 t59.5 -52.5t59 -52q40 -25 84 -25q45 0 74 27.5t29 72.5q0 21 -7.5 43t-26.5 47t-35.5 45.5t-49 51t-52.5 48t-60.5 53t-59.5 52.5q-42 23 -80 23q-45 0 -73.5 -27.5t-28.5 -72.5z" />
<glyph unicode="&#xa8;" horiz-adv-x="847" d="M162 1202v201h180v-201h-180zM504 1202v201h182v-201h-182z" />
<glyph unicode="&#xa9;" horiz-adv-x="1654" d="M88 735q0 159 51.5 297.5t144.5 241.5t233.5 162t309.5 59t309 -59t233.5 -162t144.5 -241.5t51 -297.5q0 -125 -32 -239t-95.5 -208.5t-151.5 -164.5t-206 -109t-253 -39q-169 0 -309.5 60t-233.5 164t-144.5 242t-51.5 294zM211 735q0 -185 71.5 -330.5t212.5 -231 t332 -85.5q144 0 261.5 49.5t195 136.5t119 205t41.5 256q0 134 -42 251.5t-119 205.5t-194.5 139t-261.5 51q-143 0 -260.5 -51t-194.5 -139t-119 -205.5t-42 -251.5zM483 745q0 205 93 321t253 116q124 0 200 -63t108 -197l-121 -25q-25 91 -71.5 129.5t-117.5 38.5 q-98 0 -154.5 -82.5t-56.5 -237.5q0 -168 52 -247.5t157 -79.5q75 0 125.5 41.5t75.5 136.5l125 -29q-37 -142 -119 -204t-209 -62q-169 0 -254.5 116.5t-85.5 327.5z" />
<glyph unicode="&#xaa;" horiz-adv-x="690" d="M43 950q0 133 115 193q78 40 309 90q7 78 -22.5 111.5t-100.5 33.5q-57 0 -97.5 -23t-72.5 -75l-100 63q93 144 278 144q130 0 191 -59t61 -179v-352l12 -119h-135l-10 82q-114 -94 -238 -94q-88 0 -139 49t-51 135zM53 514v102h561v-102h-561zM182 969q0 -43 27 -70 t74 -27t97.5 24t84.5 62v181q-156 -29 -223 -66q-60 -31 -60 -104z" />
<glyph unicode="&#xab;" horiz-adv-x="1122" d="M119 532l250 324h180l-252 -324l252 -331h-180zM541 532l247 324h181l-252 -324l252 -331h-181z" />
<glyph unicode="&#xac;" d="M84 610v113h1008v-555h-115v442h-893z" />
<glyph unicode="&#xad;" horiz-adv-x="681" d="M78 446v168h524v-168h-524z" />
<glyph unicode="&#xae;" horiz-adv-x="1079" d="M59 1001q0 139 57.5 250.5t168 177.5t256.5 66t256 -66t166.5 -177.5t56.5 -250.5q0 -136 -56.5 -247t-167 -178.5t-255.5 -67.5q-109 0 -201 39t-153 106t-94.5 157t-33.5 191zM154 1001q0 -177 103.5 -290t283.5 -113q178 0 280.5 113t102.5 290q0 174 -103 289 t-280 115q-179 0 -283 -115.5t-104 -288.5zM354 733v557h185q221 0 221 -164q0 -106 -105 -147l127 -246h-114l-109 219h-104v-219h-101zM455 1036h88q119 0 119 88q0 80 -117 80h-90v-168z" />
<glyph unicode="&#xaf;" horiz-adv-x="847" d="M113 1247v125h622v-125h-622z" />
<glyph unicode="&#xb0;" horiz-adv-x="794" d="M59 1151q0 148 93.5 246t244.5 98t244.5 -98t93.5 -246q0 -143 -94 -241.5t-244 -98.5t-244 98.5t-94 241.5zM190 1151q0 -95 55 -155t152 -60t152 60t55 155q0 94 -55 155.5t-152 61.5t-152 -61.5t-55 -155.5z" />
<glyph unicode="&#xb1;" d="M86 0v111h1006v-111h-1006zM86 567v113h446v326h115v-326h445v-113h-445v-346h-115v346h-446z" />
<glyph unicode="&#xb2;" horiz-adv-x="778" d="M59 514v78q0 75 41.5 135.5t118.5 126.5q34 29 87 65.5t90 63.5t74 60.5t56 73t19 85.5q0 74 -42 114t-116 40q-150 0 -186 -174l-131 28q22 132 107.5 203.5t219.5 71.5q140 0 218.5 -73.5t78.5 -201.5q0 -64 -25 -120t-70 -100.5t-88.5 -78t-99.5 -72.5t-83 -63 q-46 -41 -70.5 -71t-24.5 -58h463v-133h-637z" />
<glyph unicode="&#xb3;" horiz-adv-x="778" d="M16 688l125 72q41 -74 90.5 -104.5t128.5 -30.5q90 0 145.5 45t55.5 125q0 168 -264 168h-59v120h51q119 0 181 37t62 107q0 60 -43.5 96.5t-123.5 36.5q-132 0 -199 -107l-107 82q110 150 322 150q139 0 221 -65t82 -179q0 -153 -172 -211v-2q197 -53 197 -244 q0 -134 -95.5 -210t-246.5 -76q-126 0 -212 43t-139 147z" />
<glyph unicode="&#xb4;" horiz-adv-x="847" d="M205 1182l223 288h213l-293 -288h-143z" />
<glyph unicode="&#xb5;" horiz-adv-x="1185" d="M158 -352v1413h176v-725q0 -108 41 -156.5t133 -48.5q74 0 142 36t157 126v768h174v-848q0 -42 16.5 -60t49.5 -18q25 0 63 6v-145q-56 -12 -117 -12q-89 0 -130.5 37.5t-47.5 125.5q-161 -170 -342 -170q-92 0 -139 39v-368h-176z" />
<glyph unicode="&#xb6;" horiz-adv-x="1050" d="M74 1083q0 200 118 293.5t326 93.5h447v-106h-113v-1479h-115v1479h-153v-1479h-117v797q-83 0 -153 24t-124.5 71.5t-85 125.5t-30.5 180z" />
<glyph unicode="&#xb7;" horiz-adv-x="575" d="M174 412v237h225v-237h-225z" />
<glyph unicode="&#xb8;" horiz-adv-x="847" d="M252 -260q52 -12 115 -12q133 0 133 57q0 47 -82 47q-31 0 -64 -10l-22 47l20 160l88 -6l-16 -111q23 4 51 4q70 0 113 -31t43 -94q0 -81 -69 -118.5t-185 -37.5q-68 0 -125 13v92z" />
<glyph unicode="&#xb9;" horiz-adv-x="778" d="M139 1290v103l244 77h102v-829h160v-127h-475v127h162v676z" />
<glyph unicode="&#xba;" horiz-adv-x="708" d="M51 1120q0 172 81 269.5t222 97.5t222 -97.5t81 -269.5q0 -166 -81.5 -262t-221.5 -96t-221.5 96t-81.5 262zM70 514v102h569v-102h-569zM193 1120q0 -114 41 -180t120 -66t119.5 66t40.5 180q0 116 -40 185t-120 69q-81 0 -121 -69t-40 -185z" />
<glyph unicode="&#xbb;" horiz-adv-x="1122" d="M154 201l252 331l-252 324h180l248 -324l-248 -331h-180zM575 201l252 331l-252 324h179l250 -324l-250 -331h-179z" />
<glyph unicode="&#xbc;" horiz-adv-x="1798" d="M139 1290v103l244 77h102v-829h160v-127h-475v127h162v676zM438 -53l862 1573h134l-865 -1573h-131zM1038 227v127l381 602h201v-602h141v-127h-141v-227h-147v227h-435zM1186 354h287v447h-3z" />
<glyph unicode="&#xbd;" horiz-adv-x="1867" d="M139 1290v103l244 77h102v-829h160v-127h-475v127h162v676zM438 -53l862 1573h134l-865 -1573h-131zM1147 0v78q0 75 41.5 135.5t118.5 126.5q34 29 87 65.5t89.5 63.5t73.5 60.5t56 73t19 85.5q0 74 -41.5 114t-115.5 40q-151 0 -187 -174l-131 28q22 131 108 203 t220 72q140 0 218.5 -73.5t78.5 -201.5q0 -54 -19.5 -103.5t-48.5 -85.5t-71 -73t-78.5 -62t-80.5 -56.5t-69 -53.5q-46 -40 -70 -70.5t-24 -58.5h463v-133h-637z" />
<glyph unicode="&#xbe;" horiz-adv-x="1798" d="M16 688l125 72q41 -74 90.5 -104.5t128.5 -30.5q90 0 145.5 45t55.5 125q0 168 -264 168h-59v120h51q119 0 181 37t62 107q0 60 -43.5 96.5t-123.5 36.5q-132 0 -199 -107l-107 82q110 150 322 150q139 0 221 -65t82 -179q0 -153 -172 -211v-2q197 -53 197 -244 q0 -134 -95.5 -210t-246.5 -76q-126 0 -212 43t-139 147zM438 -53l862 1573h134l-865 -1573h-131zM1038 227v127l381 602h201v-602h141v-127h-141v-227h-147v227h-435zM1186 354h287v447h-3z" />
<glyph unicode="&#xbf;" horiz-adv-x="843" d="M84 -90q0 77 35 150.5t85 130t100 109t85 108.5t35 108v92h151v-119q0 -63 -31.5 -123.5t-76 -110t-89.5 -100t-76.5 -113t-31.5 -128.5q0 -77 46.5 -121.5t127.5 -44.5q76 0 126 37t92 131l147 -57q-42 -136 -138.5 -202.5t-238.5 -66.5q-164 0 -256 86.5t-92 233.5z M389 848v237h225v-237h-225z" />
<glyph unicode="&#xc0;" horiz-adv-x="1288" d="M47 0l459 1470h276l459 -1470h-209l-131 438h-526l-131 -438h-197zM283 1866h213l223 -289h-144zM426 608h424l-209 699h-4z" />
<glyph unicode="&#xc1;" horiz-adv-x="1288" d="M47 0l459 1470h276l459 -1470h-209l-131 438h-526l-131 -438h-197zM426 608h424l-209 699h-4zM573 1577l224 289h213l-293 -289h-144z" />
<glyph unicode="&#xc2;" horiz-adv-x="1288" d="M47 0l459 1470h276l459 -1470h-209l-131 438h-526l-131 -438h-197zM328 1577l202 289h230l203 -289h-142l-176 201l-178 -201h-139zM426 608h424l-209 699h-4z" />
<glyph unicode="&#xc3;" horiz-adv-x="1288" d="M47 0l459 1470h276l459 -1470h-209l-131 438h-526l-131 -438h-197zM309 1593q31 217 203 217q56 0 150 -40.5t143 -40.5q64 0 78 94h110q-31 -219 -202 -219q-56 0 -150 41t-143 41q-32 0 -52 -25.5t-26 -67.5h-111zM426 608h424l-209 699h-4z" />
<glyph unicode="&#xc4;" horiz-adv-x="1288" d="M47 0l459 1470h276l459 -1470h-209l-131 438h-526l-131 -438h-197zM383 1597v201h180v-201h-180zM426 608h424l-209 699h-4zM725 1597v201h182v-201h-182z" />
<glyph unicode="&#xc5;" horiz-adv-x="1288" d="M47 0l459 1470h276l459 -1470h-209l-131 438h-526l-131 -438h-197zM426 608h424l-209 699h-4zM434 1776q0 90 60 151.5t151 61.5t151 -61.5t60 -151.5q0 -88 -60.5 -149.5t-150.5 -61.5t-150.5 61.5t-60.5 149.5zM518 1776q0 -54 35.5 -90.5t91.5 -36.5t91.5 36.5 t35.5 90.5t-35.5 91.5t-91.5 37.5t-91.5 -37.5t-35.5 -91.5z" />
<glyph unicode="&#xc6;" horiz-adv-x="1888" d="M-4 0l786 1470h1018v-172h-676v-452h480v-168h-480v-506h709v-172h-903v438h-494l-229 -438h-211zM524 608h406v701h-37z" />
<glyph unicode="&#xc7;" horiz-adv-x="1284" d="M94 743q0 355 155 553.5t425 198.5q206 0 332 -104t184 -334l-182 -37q-46 160 -128 231.5t-208 71.5q-179 0 -281 -154.5t-102 -425.5q0 -593 377 -593q136 0 225.5 76.5t134.5 242.5l186 -41q-33 -124 -85.5 -212.5t-122.5 -140t-151 -75t-181 -25.5l-8 -63q23 4 51 4 q70 0 112.5 -31t42.5 -94q0 -81 -69 -118.5t-185 -37.5q-67 0 -124 13v92q52 -12 114 -12q133 0 133 57q0 47 -82 47q-30 0 -63 -10l-23 47l15 111q-247 27 -369.5 224t-122.5 539z" />
<glyph unicode="&#xc8;" horiz-adv-x="1163" d="M188 0v1470h887v-172h-690v-452h496v-168h-496v-506h723v-172h-920zM297 1866h213l223 -289h-143z" />
<glyph unicode="&#xc9;" horiz-adv-x="1163" d="M188 0v1470h887v-172h-690v-452h496v-168h-496v-506h723v-172h-920zM545 1577l223 289h213l-293 -289h-143z" />
<glyph unicode="&#xca;" horiz-adv-x="1163" d="M188 0v1470h887v-172h-690v-452h496v-168h-496v-506h723v-172h-920zM328 1577l202 289h230l203 -289h-142l-176 201l-178 -201h-139z" />
<glyph unicode="&#xcb;" horiz-adv-x="1163" d="M188 0v1470h887v-172h-690v-452h496v-168h-496v-506h723v-172h-920zM377 1597v201h180v-201h-180zM719 1597v201h182v-201h-182z" />
<glyph unicode="&#xcc;" horiz-adv-x="573" d="M-72 1866h213l224 -289h-144zM188 0v1470h197v-1470h-197z" />
<glyph unicode="&#xcd;" horiz-adv-x="573" d="M188 0v1470h197v-1470h-197zM213 1577l223 289h213l-293 -289h-143z" />
<glyph unicode="&#xce;" horiz-adv-x="573" d="M-31 1577l203 289h229l203 -289h-141l-176 201l-178 -201h-140zM188 0v1470h197v-1470h-197z" />
<glyph unicode="&#xcf;" horiz-adv-x="573" d="M25 1597v201h180v-201h-180zM188 0v1470h197v-1470h-197zM367 1597v201h182v-201h-182z" />
<glyph unicode="&#xd0;" horiz-adv-x="1386" d="M53 696v131h135v643h416q342 0 515 -182t173 -536q0 -372 -187.5 -562t-545.5 -190h-371v696h-135zM385 176h156q296 0 427.5 139t131.5 433q0 278 -123 412t-375 134h-217v-467h303v-131h-303v-520z" />
<glyph unicode="&#xd1;" horiz-adv-x="1482" d="M188 0v1470h279l637 -1114h4v1114h186v-1470h-192l-723 1235h-4v-1235h-187zM410 1593q31 217 202 217q56 0 150 -40.5t143 -40.5q64 0 78 94h111q-31 -219 -203 -219q-56 0 -150 41t-143 41q-32 0 -52 -25.5t-26 -67.5h-110z" />
<glyph unicode="&#xd2;" horiz-adv-x="1390" d="M94 735q0 222 67 391.5t204.5 269t330.5 99.5q192 0 329.5 -99.5t204 -269t66.5 -391.5q0 -353 -159 -556.5t-441 -203.5q-283 0 -442.5 203.5t-159.5 556.5zM289 735q0 -279 108.5 -435.5t298.5 -156.5t298 156.5t108 435.5q0 280 -108.5 437t-297.5 157 q-190 0 -298.5 -157t-108.5 -437zM340 1866h213l223 -289h-143z" />
<glyph unicode="&#xd3;" horiz-adv-x="1390" d="M94 735q0 222 67 391.5t204.5 269t330.5 99.5q192 0 329.5 -99.5t204 -269t66.5 -391.5q0 -353 -159 -556.5t-441 -203.5q-283 0 -442.5 203.5t-159.5 556.5zM289 735q0 -279 108.5 -435.5t298.5 -156.5t298 156.5t108 435.5q0 280 -108.5 437t-297.5 157 q-190 0 -298.5 -157t-108.5 -437zM625 1577l223 289h213l-293 -289h-143z" />
<glyph unicode="&#xd4;" horiz-adv-x="1390" d="M94 735q0 222 67 391.5t204.5 269t330.5 99.5q192 0 329.5 -99.5t204 -269t66.5 -391.5q0 -353 -159 -556.5t-441 -203.5q-283 0 -442.5 203.5t-159.5 556.5zM289 735q0 -279 108.5 -435.5t298.5 -156.5t298 156.5t108 435.5q0 280 -108.5 437t-297.5 157 q-190 0 -298.5 -157t-108.5 -437zM379 1577l203 289h229l203 -289h-142l-176 201l-178 -201h-139z" />
<glyph unicode="&#xd5;" horiz-adv-x="1390" d="M94 735q0 222 67 391.5t204.5 269t330.5 99.5q192 0 329.5 -99.5t204 -269t66.5 -391.5q0 -353 -159 -556.5t-441 -203.5q-283 0 -442.5 203.5t-159.5 556.5zM289 735q0 -279 108.5 -435.5t298.5 -156.5t298 156.5t108 435.5q0 280 -108.5 437t-297.5 157 q-190 0 -298.5 -157t-108.5 -437zM371 1593q31 217 202 217q56 0 150 -40.5t143 -40.5q64 0 78 94h111q-31 -219 -203 -219q-56 0 -150 41t-143 41q-32 0 -52 -25.5t-26 -67.5h-110z" />
<glyph unicode="&#xd6;" horiz-adv-x="1390" d="M94 735q0 222 67 391.5t204.5 269t330.5 99.5q192 0 329.5 -99.5t204 -269t66.5 -391.5q0 -353 -159 -556.5t-441 -203.5q-283 0 -442.5 203.5t-159.5 556.5zM289 735q0 -279 108.5 -435.5t298.5 -156.5t298 156.5t108 435.5q0 280 -108.5 437t-297.5 157 q-190 0 -298.5 -157t-108.5 -437zM434 1597v201h180v-201h-180zM776 1597v201h182v-201h-182z" />
<glyph unicode="&#xd7;" d="M178 195l332 331l-332 334l78 78l332 -332l334 332l77 -78l-331 -334l331 -331l-77 -80l-334 331l-332 -331z" />
<glyph unicode="&#xd8;" horiz-adv-x="1390" d="M94 735q0 222 67 391.5t204.5 269t330.5 99.5q159 0 283 -70l100 189h164l-147 -279q99 -100 149.5 -254.5t50.5 -345.5q0 -353 -159 -556.5t-441 -203.5q-158 0 -286 70l-99 -188h-161l145 274q-201 201 -201 604zM287 735q0 -269 102 -424l508 959q-86 59 -201 59 q-190 0 -299.5 -157t-109.5 -437zM494 203q88 -60 202 -60q190 0 299 157t109 435q0 268 -103 424z" />
<glyph unicode="&#xd9;" horiz-adv-x="1458" d="M178 575v895h197v-929q0 -203 80.5 -297t261.5 -94q183 0 275.5 96t92.5 295v929h195v-895q0 -600 -565 -600q-146 0 -251 40.5t-167 119.5t-90.5 187t-28.5 253zM375 1866h213l223 -289h-143z" />
<glyph unicode="&#xda;" horiz-adv-x="1458" d="M178 575v895h197v-929q0 -203 80.5 -297t261.5 -94q183 0 275.5 96t92.5 295v929h195v-895q0 -600 -565 -600q-146 0 -251 40.5t-167 119.5t-90.5 187t-28.5 253zM645 1577l223 289h213l-293 -289h-143z" />
<glyph unicode="&#xdb;" horiz-adv-x="1458" d="M178 575v895h197v-929q0 -203 80.5 -297t261.5 -94q183 0 275.5 96t92.5 295v929h195v-895q0 -600 -565 -600q-146 0 -251 40.5t-167 119.5t-90.5 187t-28.5 253zM422 1577l203 289h229l203 -289h-142l-176 201l-178 -201h-139z" />
<glyph unicode="&#xdc;" horiz-adv-x="1458" d="M178 575v895h197v-929q0 -203 80.5 -297t261.5 -94q183 0 275.5 96t92.5 295v929h195v-895q0 -600 -565 -600q-146 0 -251 40.5t-167 119.5t-90.5 187t-28.5 253zM469 1597v201h180v-201h-180zM811 1597v201h182v-201h-182z" />
<glyph unicode="&#xdd;" horiz-adv-x="1161" d="M27 1470h215l336 -675h4l358 675h209l-469 -866v-604h-197v604zM516 1577l223 289h213l-293 -289h-143z" />
<glyph unicode="&#xde;" horiz-adv-x="1261" d="M188 0v1470h197v-219h256q275 0 411 -105t136 -321q0 -220 -140 -327t-423 -107h-240v-391h-197zM385 559h254q55 0 98 4.5t93.5 20.5t84 43.5t56 78t22.5 119.5q0 254 -336 254h-272v-520z" />
<glyph unicode="&#xdf;" horiz-adv-x="1128" d="M152 0v1053q0 217 108.5 329.5t296.5 112.5q184 0 292.5 -99.5t108.5 -267.5q0 -232 -198 -325v-4q276 -76 276 -398q0 -199 -99 -308t-278 -109q-79 0 -145 14v149q64 -12 115 -12q110 0 170.5 69t60.5 197q0 312 -346 318v147q139 6 204.5 64.5t65.5 179.5 q0 114 -64 175t-165 61q-113 0 -171 -69.5t-58 -201.5v-1075h-174z" />
<glyph unicode="&#xe0;" horiz-adv-x="1060" d="M80 262q0 196 176 293q130 70 485 141q12 136 -39 192t-172 56q-93 0 -157.5 -37.5t-120.5 -122.5l-127 80q70 116 171.5 168.5t240.5 52.5q194 0 285 -85t91 -261v-573l17 -166h-170l-17 127q-177 -150 -368 -150q-138 0 -216.5 77.5t-78.5 207.5zM193 1470h213 l223 -288h-144zM256 279q0 -74 43.5 -117t122.5 -43q84 0 171.5 41.5t143.5 109.5v299q-286 -57 -387 -114q-94 -55 -94 -176z" />
<glyph unicode="&#xe1;" horiz-adv-x="1060" d="M80 262q0 196 176 293q130 70 485 141q12 136 -39 192t-172 56q-93 0 -157.5 -37.5t-120.5 -122.5l-127 80q70 116 171.5 168.5t240.5 52.5q194 0 285 -85t91 -261v-573l17 -166h-170l-17 127q-177 -150 -368 -150q-138 0 -216.5 77.5t-78.5 207.5zM256 279 q0 -74 43.5 -117t122.5 -43q84 0 171.5 41.5t143.5 109.5v299q-286 -57 -387 -114q-94 -55 -94 -176zM440 1182l224 288h213l-293 -288h-144z" />
<glyph unicode="&#xe2;" horiz-adv-x="1060" d="M80 262q0 196 176 293q130 70 485 141q12 136 -39 192t-172 56q-93 0 -157.5 -37.5t-120.5 -122.5l-127 80q70 116 171.5 168.5t240.5 52.5q194 0 285 -85t91 -261v-573l17 -166h-170l-17 127q-177 -150 -368 -150q-138 0 -216.5 77.5t-78.5 207.5zM217 1182l203 288h229 l203 -288h-141l-176 200l-179 -200h-139zM256 279q0 -74 43.5 -117t122.5 -43q84 0 171.5 41.5t143.5 109.5v299q-286 -57 -387 -114q-94 -55 -94 -176z" />
<glyph unicode="&#xe3;" horiz-adv-x="1060" d="M80 262q0 196 176 293q130 70 485 141q12 136 -39 192t-172 56q-93 0 -157.5 -37.5t-120.5 -122.5l-127 80q70 116 171.5 168.5t240.5 52.5q194 0 285 -85t91 -261v-573l17 -166h-170l-17 127q-177 -150 -368 -150q-138 0 -216.5 77.5t-78.5 207.5zM203 1198 q31 217 203 217q56 0 149.5 -41t142.5 -41q64 0 78 94h111q-31 -219 -203 -219q-56 0 -150 41t-143 41q-64 0 -78 -92h-110zM256 279q0 -74 43.5 -117t122.5 -43q84 0 171.5 41.5t143.5 109.5v299q-286 -57 -387 -114q-94 -55 -94 -176z" />
<glyph unicode="&#xe4;" horiz-adv-x="1060" d="M80 262q0 196 176 293q130 70 485 141q12 136 -39 192t-172 56q-93 0 -157.5 -37.5t-120.5 -122.5l-127 80q70 116 171.5 168.5t240.5 52.5q194 0 285 -85t91 -261v-573l17 -166h-170l-17 127q-177 -150 -368 -150q-138 0 -216.5 77.5t-78.5 207.5zM256 279 q0 -74 43.5 -117t122.5 -43q84 0 171.5 41.5t143.5 109.5v299q-286 -57 -387 -114q-94 -55 -94 -176zM283 1202v201h180v-201h-180zM625 1202v201h182v-201h-182z" />
<glyph unicode="&#xe5;" horiz-adv-x="1060" d="M80 262q0 196 176 293q130 70 485 141q12 136 -39 192t-172 56q-93 0 -157.5 -37.5t-120.5 -122.5l-127 80q70 116 171.5 168.5t240.5 52.5q194 0 285 -85t91 -261v-573l17 -166h-170l-17 127q-177 -150 -368 -150q-138 0 -216.5 77.5t-78.5 207.5zM256 279 q0 -74 43.5 -117t122.5 -43q84 0 171.5 41.5t143.5 109.5v299q-286 -57 -387 -114q-94 -55 -94 -176zM332 1380q0 90 60 151.5t151 61.5t151 -61.5t60 -151.5q0 -88 -60.5 -149.5t-150.5 -61.5t-150.5 61.5t-60.5 149.5zM416 1380q0 -54 35.5 -90.5t91.5 -36.5t91.5 36.5 t35.5 90.5t-35.5 91.5t-91.5 37.5t-91.5 -37.5t-35.5 -91.5z" />
<glyph unicode="&#xe6;" horiz-adv-x="1671" d="M80 262q0 193 180 293q143 77 463 141q12 135 -40 191.5t-169 56.5q-88 0 -146.5 -37t-115.5 -123l-127 80q134 221 395 221q237 0 314 -163q59 78 143.5 120.5t183.5 42.5q203 0 311.5 -139t108.5 -377q0 -36 -2 -63h-692q10 -381 284 -381q91 0 155.5 43.5t117.5 144.5 l133 -73q-140 -265 -418 -265q-244 0 -364 201q-97 -102 -195.5 -150.5t-210.5 -48.5q-145 0 -227 77.5t-82 207.5zM256 279q0 -74 47 -117t131 -43q76 0 152 40.5t135 110.5v299q-248 -47 -367 -114q-98 -58 -98 -176zM891 635h518q-2 143 -65 226t-183 83 q-117 0 -186.5 -86.5t-83.5 -222.5z" />
<glyph unicode="&#xe7;" horiz-adv-x="1046" d="M84 526q0 263 124.5 411t340.5 148q310 0 412 -288l-148 -58q-43 103 -105.5 150t-154.5 47q-136 0 -216.5 -109t-80.5 -301q0 -194 77.5 -297.5t217.5 -103.5q94 0 163 48t126 155l141 -78q-142 -269 -424 -275l-8 -63q23 4 51 4q70 0 113 -31t43 -94q0 -81 -69 -118.5 t-185 -37.5q-68 0 -125 13v92q52 -12 115 -12q133 0 133 57q0 47 -82 47q-31 0 -64 -10l-22 47l14 111q-183 25 -285 169.5t-102 376.5z" />
<glyph unicode="&#xe8;" horiz-adv-x="1060" d="M84 530q0 252 125.5 403.5t325.5 151.5q211 0 324.5 -139t113.5 -377q0 -36 -2 -63h-715q8 -185 76.5 -283t212.5 -98q96 0 167.5 44t123.5 144l133 -73q-140 -265 -437 -265q-212 0 -330 149t-118 406zM193 1470h213l223 -288h-144zM260 635h541q-2 142 -72 225.5 t-194 83.5q-120 0 -189.5 -86t-85.5 -223z" />
<glyph unicode="&#xe9;" horiz-adv-x="1060" d="M84 530q0 252 125.5 403.5t325.5 151.5q211 0 324.5 -139t113.5 -377q0 -36 -2 -63h-715q8 -185 76.5 -283t212.5 -98q96 0 167.5 44t123.5 144l133 -73q-140 -265 -437 -265q-212 0 -330 149t-118 406zM260 635h541q-2 142 -72 225.5t-194 83.5q-120 0 -189.5 -86 t-85.5 -223zM446 1182l224 288h213l-293 -288h-144z" />
<glyph unicode="&#xea;" horiz-adv-x="1060" d="M84 530q0 252 125.5 403.5t325.5 151.5q211 0 324.5 -139t113.5 -377q0 -36 -2 -63h-715q8 -185 76.5 -283t212.5 -98q96 0 167.5 44t123.5 144l133 -73q-140 -265 -437 -265q-212 0 -330 149t-118 406zM236 1182l202 288h230l202 -288h-141l-176 200l-178 -200h-139z M260 635h541q-2 142 -72 225.5t-194 83.5q-120 0 -189.5 -86t-85.5 -223z" />
<glyph unicode="&#xeb;" horiz-adv-x="1060" d="M84 530q0 252 125.5 403.5t325.5 151.5q211 0 324.5 -139t113.5 -377q0 -36 -2 -63h-715q8 -185 76.5 -283t212.5 -98q96 0 167.5 44t123.5 144l133 -73q-140 -265 -437 -265q-212 0 -330 149t-118 406zM260 635h541q-2 142 -72 225.5t-194 83.5q-120 0 -189.5 -86 t-85.5 -223zM283 1202v201h180v-201h-180zM625 1202v201h182v-201h-182z" />
<glyph unicode="&#xec;" horiz-adv-x="489" d="M-115 1470h213l224 -288h-144zM158 0v1061h174v-1061h-174z" />
<glyph unicode="&#xed;" horiz-adv-x="489" d="M158 0v1061h174v-1061h-174zM176 1182l223 288h213l-293 -288h-143z" />
<glyph unicode="&#xee;" horiz-adv-x="489" d="M-72 1182l203 288h229l203 -288h-141l-176 200l-178 -200h-140zM158 0v1061h174v-1061h-174z" />
<glyph unicode="&#xef;" horiz-adv-x="489" d="M-16 1202v201h180v-201h-180zM158 0v1061h174v-1061h-174zM326 1202v201h182v-201h-182z" />
<glyph unicode="&#xf0;" horiz-adv-x="1120" d="M82 500q0 249 130 391.5t331 142.5q148 0 264 -82l4 2q-51 138 -131 252l-250 -108l-43 104l219 96l-84 93l117 112q55 -52 125 -137l188 82l41 -107l-159 -69q198 -295 198 -658q0 -306 -133.5 -472.5t-370.5 -166.5q-200 0 -323 138.5t-123 386.5zM258 506 q0 -184 71.5 -284.5t202.5 -100.5q160 0 245 127.5t85 355.5q0 78 -8 135q-58 75 -136 115.5t-153 40.5q-140 0 -223.5 -103.5t-83.5 -285.5z" />
<glyph unicode="&#xf1;" horiz-adv-x="1128" d="M158 0v1061h166v-148q89 89 175 130.5t185 41.5q167 0 242 -110q57 -80 57 -252v-723h-174v725q0 108 -42 157.5t-134 49.5q-73 0 -143 -36.5t-158 -127.5v-768h-174zM236 1198q31 217 202 217q56 0 150 -41t143 -41q64 0 78 94h111q-31 -219 -203 -219q-56 0 -150 41 t-143 41q-64 0 -78 -92h-110z" />
<glyph unicode="&#xf2;" horiz-adv-x="1073" d="M84 526q0 263 120.5 411t332.5 148q211 0 330.5 -148t119.5 -411q0 -255 -121.5 -403t-328.5 -148q-208 0 -330.5 148.5t-122.5 402.5zM178 1470h213l223 -288h-143zM260 526q0 -188 70.5 -296.5t206.5 -108.5t206 108.5t70 296.5q0 190 -69.5 302t-206.5 112t-207 -112 t-70 -302z" />
<glyph unicode="&#xf3;" horiz-adv-x="1073" d="M84 526q0 263 120.5 411t332.5 148q211 0 330.5 -148t119.5 -411q0 -255 -121.5 -403t-328.5 -148q-208 0 -330.5 148.5t-122.5 402.5zM260 526q0 -188 70.5 -296.5t206.5 -108.5t206 108.5t70 296.5q0 190 -69.5 302t-206.5 112t-207 -112t-70 -302zM465 1182l223 288 h213l-293 -288h-143z" />
<glyph unicode="&#xf4;" horiz-adv-x="1073" d="M84 526q0 263 120.5 411t332.5 148q211 0 330.5 -148t119.5 -411q0 -255 -121.5 -403t-328.5 -148q-208 0 -330.5 148.5t-122.5 402.5zM219 1182l203 288h229l203 -288h-141l-176 200l-179 -200h-139zM260 526q0 -188 70.5 -296.5t206.5 -108.5t206 108.5t70 296.5 q0 190 -69.5 302t-206.5 112t-207 -112t-70 -302z" />
<glyph unicode="&#xf5;" horiz-adv-x="1073" d="M84 526q0 263 120.5 411t332.5 148q211 0 330.5 -148t119.5 -411q0 -255 -121.5 -403t-328.5 -148q-208 0 -330.5 148.5t-122.5 402.5zM203 1198q31 217 203 217q56 0 149.5 -41t142.5 -41q64 0 78 94h111q-31 -219 -203 -219q-56 0 -150 41t-143 41q-64 0 -78 -92h-110z M260 526q0 -188 70.5 -296.5t206.5 -108.5t206 108.5t70 296.5q0 190 -69.5 302t-206.5 112t-207 -112t-70 -302z" />
<glyph unicode="&#xf6;" horiz-adv-x="1073" d="M84 526q0 263 120.5 411t332.5 148q211 0 330.5 -148t119.5 -411q0 -255 -121.5 -403t-328.5 -148q-208 0 -330.5 148.5t-122.5 402.5zM260 526q0 -188 70.5 -296.5t206.5 -108.5t206 108.5t70 296.5q0 190 -69.5 302t-206.5 112t-207 -112t-70 -302zM274 1202v201h181 v-201h-181zM616 1202v201h183v-201h-183z" />
<glyph unicode="&#xf7;" d="M86 471v111h1006v-111h-1006zM498 84v184h178v-184h-178zM498 784v187h178v-187h-178z" />
<glyph unicode="&#xf8;" horiz-adv-x="1073" d="M84 526q0 263 120.5 411t332.5 148q111 0 188 -38l80 157h139l-115 -227q158 -152 158 -451q0 -255 -121.5 -403t-328.5 -148q-102 0 -191 39l-78 -157h-139l115 227q-160 147 -160 442zM256 526q0 -183 63 -288l338 673q-54 31 -120 31q-138 0 -209.5 -113t-71.5 -303z M414 147q54 -28 123 -28q137 0 208.5 109t71.5 298q0 184 -65 293z" />
<glyph unicode="&#xf9;" horiz-adv-x="1126" d="M145 340v721h177v-725q0 -108 41 -156.5t133 -48.5q74 0 142 36t157 126v768h174v-1061h-166v147q-88 -88 -174.5 -130t-184.5 -42q-163 0 -241 111q-58 85 -58 254zM205 1470h213l223 -288h-143z" />
<glyph unicode="&#xfa;" horiz-adv-x="1126" d="M145 340v721h177v-725q0 -108 41 -156.5t133 -48.5q74 0 142 36t157 126v768h174v-1061h-166v147q-88 -88 -174.5 -130t-184.5 -42q-163 0 -241 111q-58 85 -58 254zM481 1182l224 288h213l-293 -288h-144z" />
<glyph unicode="&#xfb;" horiz-adv-x="1126" d="M145 340v721h177v-725q0 -108 41 -156.5t133 -48.5q74 0 142 36t157 126v768h174v-1061h-166v147q-88 -88 -174.5 -130t-184.5 -42q-163 0 -241 111q-58 85 -58 254zM262 1182l203 288h229l203 -288h-141l-176 200l-179 -200h-139z" />
<glyph unicode="&#xfc;" horiz-adv-x="1126" d="M145 340v721h177v-725q0 -108 41 -156.5t133 -48.5q74 0 142 36t157 126v768h174v-1061h-166v147q-88 -88 -174.5 -130t-184.5 -42q-163 0 -241 111q-58 85 -58 254zM319 1202v201h181v-201h-181zM662 1202v201h182v-201h-182z" />
<glyph unicode="&#xfd;" horiz-adv-x="946" d="M25 1061h192l268 -795h4l261 795h182l-350 -1028q-81 -242 -157.5 -326t-227.5 -84q-79 0 -144 12v146q65 -12 117 -12q85 0 129 42t82 152l20 60zM406 1182l223 288h213l-293 -288h-143z" />
<glyph unicode="&#xfe;" horiz-adv-x="1150" d="M158 -352v1825h174v-555q73 87 148 127t177 40q189 0 299.5 -148t110.5 -394q0 -259 -115.5 -409t-316.5 -150q-174 0 -303 135v-471h-174zM332 293q53 -77 124 -118.5t150 -41.5q139 0 212 109t73 301q0 184 -75 287.5t-206 103.5q-71 0 -145.5 -45t-132.5 -137v-459z " />
<glyph unicode="&#xff;" horiz-adv-x="946" d="M25 1061h192l268 -795h4l261 795h182l-350 -1028q-81 -242 -157.5 -326t-227.5 -84q-79 0 -144 12v146q65 -12 117 -12q85 0 129 42t82 152l20 60zM240 1202v201h180v-201h-180zM582 1202v201h182v-201h-182z" />
<glyph unicode="&#x152;" horiz-adv-x="2029" d="M94 727q0 226 81.5 395.5t244.5 266t389 96.5q101 0 262 -15h871v-172h-676v-452h481v-168h-481v-506h708v-172h-903q-123 -14 -268 -14q-146 0 -264 35.5t-200.5 100t-137.5 157t-81 204.5t-26 244zM289 727q0 -131 29 -234t90 -180t162 -118t237 -41q190 0 235 71 q29 50 29 195v676q0 120 -41 161q-56 62 -217 62q-258 0 -391 -152t-133 -440z" />
<glyph unicode="&#x153;" horiz-adv-x="1755" d="M84 526q0 264 114 411.5t318 147.5q122 0 214.5 -56t146.5 -161h4q132 217 362 217q205 0 313.5 -138.5t108.5 -377.5q0 -36 -2 -63h-698q13 -381 288 -381q91 0 156.5 43.5t118.5 144.5l133 -73q-140 -265 -420 -265q-243 0 -362 213h-5q-57 -103 -148.5 -158 t-209.5 -55q-201 0 -316.5 148t-115.5 403zM260 526q0 -190 63.5 -297.5t194.5 -107.5t202 107t71 296q0 190 -70 303t-203 113q-131 0 -194.5 -111t-63.5 -303zM969 635h524q-2 143 -66 226t-184 83q-117 0 -187.5 -86.5t-86.5 -222.5z" />
<glyph unicode="&#x178;" horiz-adv-x="1161" d="M27 1470h215l336 -675h4l358 675h209l-469 -866v-604h-197v604zM334 1597v201h180v-201h-180zM676 1597v201h182v-201h-182z" />
<glyph unicode="&#x2c6;" horiz-adv-x="847" d="M106 1182l203 288h230l202 -288h-141l-176 200l-178 -200h-140z" />
<glyph unicode="&#x2dc;" horiz-adv-x="847" d="M82 1198q31 217 203 217q56 0 150 -41t143 -41q63 0 77 94h111q-31 -219 -203 -219q-56 0 -150 41t-143 41q-63 0 -77 -92h-111z" />
<glyph unicode="&#x2000;" horiz-adv-x="994" />
<glyph unicode="&#x2001;" horiz-adv-x="1989" />
<glyph unicode="&#x2002;" horiz-adv-x="994" />
<glyph unicode="&#x2003;" horiz-adv-x="1989" />
<glyph unicode="&#x2004;" horiz-adv-x="663" />
<glyph unicode="&#x2005;" horiz-adv-x="497" />
<glyph unicode="&#x2006;" horiz-adv-x="331" />
<glyph unicode="&#x2007;" horiz-adv-x="331" />
<glyph unicode="&#x2008;" horiz-adv-x="248" />
<glyph unicode="&#x2009;" horiz-adv-x="397" />
<glyph unicode="&#x200a;" horiz-adv-x="110" />
<glyph unicode="&#x2010;" horiz-adv-x="681" d="M78 446v168h524v-168h-524z" />
<glyph unicode="&#x2011;" horiz-adv-x="681" d="M78 446v168h524v-168h-524z" />
<glyph unicode="&#x2012;" horiz-adv-x="681" d="M78 446v168h524v-168h-524z" />
<glyph unicode="&#x2013;" horiz-adv-x="1363" d="M78 479v105h1206v-105h-1206z" />
<glyph unicode="&#x2014;" horiz-adv-x="2072" d="M0 479v105h2073v-105h-2073z" />
<glyph unicode="&#x2018;" horiz-adv-x="575" d="M170 920v229l147 321h115l-125 -313h88v-237h-225z" />
<glyph unicode="&#x2019;" horiz-adv-x="575" d="M143 920l125 313h-88v237h226v-229l-148 -321h-115z" />
<glyph unicode="&#x201a;" horiz-adv-x="575" d="M143 -313l125 313h-88v238h226v-230l-148 -321h-115z" />
<glyph unicode="&#x201c;" horiz-adv-x="966" d="M170 920v229l147 321h115l-125 -313h88v-237h-225zM561 920v229l148 321h114l-125 -313h88v-237h-225z" />
<glyph unicode="&#x201d;" horiz-adv-x="966" d="M143 920l125 313h-88v237h226v-229l-148 -321h-115zM535 920l124 313h-88v237h226v-229l-148 -321h-114z" />
<glyph unicode="&#x201e;" horiz-adv-x="966" d="M143 -313l125 313h-88v238h226v-230l-148 -321h-115zM535 -313l124 313h-88v238h226v-230l-148 -321h-114z" />
<glyph unicode="&#x2022;" horiz-adv-x="1024" d="M145 735q0 152 107.5 260.5t259.5 108.5t260.5 -108.5t108.5 -260.5t-108 -259t-261 -107q-152 0 -259.5 107t-107.5 259z" />
<glyph unicode="&#x2026;" horiz-adv-x="2129" d="M145 0v238h226v-238h-226zM924 0v238h225v-238h-225zM1702 0v238h225v-238h-225z" />
<glyph unicode="&#x202f;" horiz-adv-x="397" />
<glyph unicode="&#x2039;" horiz-adv-x="702" d="M119 532l250 324h180l-252 -324l252 -331h-180z" />
<glyph unicode="&#x203a;" horiz-adv-x="702" d="M154 201l252 331l-252 324h180l248 -324l-248 -331h-180z" />
<glyph unicode="&#x205f;" horiz-adv-x="497" />
<glyph unicode="&#x20ac;" d="M51 555v123h178v65q0 62 2 93h-180v122h193q34 252 153 394.5t324 142.5q167 0 265 -74t155 -231l-170 -53q-38 101 -93 148.5t-159 47.5q-124 0 -195 -99.5t-96 -275.5h477v-122h-487q-2 -31 -2 -93v-65h489v-123h-483q14 -206 78.5 -312t204.5 -106q60 0 105 15t76 47 t50.5 67.5t40.5 89.5l174 -57q-37 -95 -85.5 -160.5t-107.5 -100t-120 -49t-136 -14.5q-117 0 -203 41.5t-139.5 120.5t-83 181t-40.5 237h-185z" />
<glyph unicode="&#x2122;" horiz-adv-x="1511" d="M51 1362v108h522v-108h-202v-627h-119v627h-201zM676 735v735h186l168 -569h4l166 569h182v-735h-118v596h-4l-168 -596h-117l-178 596h-4v-596h-117z" />
<glyph unicode="&#xe000;" horiz-adv-x="1064" d="M0 0v1065h1065v-1065h-1065z" />
<glyph unicode="&#xfb01;" horiz-adv-x="1124" d="M47 918v143h168v125q0 158 68.5 233.5t224.5 75.5q57 0 106 -8v-148q-50 11 -84 11q-74 0 -107.5 -32t-33.5 -118v-139h219v-143h-219v-918h-174v918h-168zM784 1266v211h193v-211h-193zM793 0v1061h174v-1061h-174z" />
<glyph unicode="&#xfb02;" horiz-adv-x="1124" d="M47 918v143h168v125q0 158 68.5 233.5t224.5 75.5q57 0 106 -8v-148q-50 11 -84 11q-74 0 -107.5 -32t-33.5 -118v-139h219v-143h-219v-918h-174v918h-168zM793 0v1470h174v-1470h-174z" />
<glyph unicode="&#xfb03;" horiz-adv-x="1697" d="M47 918v143h168v125q0 157 68 233t223 76q59 0 108 -8v-148q-50 11 -86 11q-72 0 -105.5 -32t-33.5 -118v-139h408v125q0 158 68.5 233.5t224.5 75.5q57 0 106 -8v-148q-49 11 -84 11q-74 0 -107.5 -32t-33.5 -118v-139h219v-143h-219v-918h-174v918h-408v-918h-174v918 h-168zM1356 1266v211h192v-211h-192zM1364 0v1061h174v-1061h-174z" />
<glyph unicode="&#xfb04;" horiz-adv-x="1697" d="M47 918v143h168v125q0 157 68 233t223 76q59 0 108 -8v-148q-50 11 -86 11q-72 0 -105.5 -32t-33.5 -118v-139h408v125q0 158 68.5 233.5t224.5 75.5q57 0 106 -8v-148q-49 11 -84 11q-74 0 -107.5 -32t-33.5 -118v-139h219v-143h-219v-918h-174v918h-408v-918h-174v918 h-168zM1364 0v1470h174v-1470h-174z" />
</font>
</defs>
</svg>
