<?xml version="1.0" standalone="no"?>
<!DOCTYPE svg PUBLIC "-//W3C//DTD SVG 1.1//EN" "http://www.w3.org/Graphics/SVG/1.1/DTD/svg11.dtd" >
<svg>
<metadata>
Created by FontForge 20090914 at Sat Apr  6 20:22:34 2013
 By www-data
Copr. 1994, Tobias Frere-Jones. Designed by Tobias Frere-Jones. Produced by The Font Bureau, Inc.
</metadata>
<defs>
<font id="Interstate-BoldCompressed" horiz-adv-x="598" >
  <font-face 
    font-family="Interstate"
    font-weight="700"
    font-stretch="normal"
    units-per-em="1000"
    panose-1="2 0 8 6 3 0 0 2 0 4"
    ascent="800"
    descent="-200"
    x-height="525"
    cap-height="700"
    bbox="-66 -193.004 979 903"
    underline-thickness="20"
    underline-position="-113"
    unicode-range="U+0005-U+2122"
  />
<missing-glyph horiz-adv-x="500" 
 />
    <glyph glyph-name=".notdef" horiz-adv-x="500" 
 />
    <glyph glyph-name="breve" horiz-adv-x="330" 
d="M297 731c-2 -48 -14.499 -83.667 -37.499 -107s-54.5 -35 -94.5 -35c-38 0 -68.5 11.667 -91.5 35s-35.5 59 -37.5 107h67c2.66699 -24.667 8.66699 -43 18 -55s24.666 -18 45.999 -18c37.333 0 58.333 24.333 63 73h67v0z" />
    <glyph glyph-name="dotaccent" horiz-adv-x="330" 
d="M226 651c0 -17.333 -5.83301 -32 -17.5 -44s-26.167 -18 -43.5 -18s-31.833 6 -43.5 18s-17.5 26.667 -17.5 44c0 16.667 5.83301 31 17.5 43s26.167 18 43.5 18s31.833 -6 43.5 -18s17.5 -26.333 17.5 -43z" />
    <glyph glyph-name="ring" horiz-adv-x="330" 
d="M265 690c0 -28.667 -9.33301 -52.5 -28 -71.5s-42.667 -28.5 -72 -28.5s-53.333 9.5 -72 28.5s-28 42.833 -28 71.5s9.33301 52.5 28 71.5s42.667 28.5 72 28.5s53.333 -9.5 72 -28.5s28 -42.833 28 -71.5zM209 690c0 13.333 -4.16699 24.333 -12.5 33
s-18.833 13 -31.5 13s-23.167 -4.33301 -31.5 -13s-12.5 -19.667 -12.5 -33s4.16699 -24.5 12.5 -33.5s18.833 -13.5 31.5 -13.5s23.167 4.5 31.5 13.5s12.5 20.167 12.5 33.5z" />
    <glyph glyph-name="hungarumlaut" unicode="&#xa;" horiz-adv-x="330" 
d="M220 589h-64l73 160h114zM75 589h-65l74 160h114z" />
    <glyph glyph-name="ogonek" horiz-adv-x="330" 
d="M262 -158c-14.667 -10.667 -29.668 -19.167 -45.001 -25.5s-32.666 -9.5 -51.999 -9.5c-23.333 0 -41.666 6.66699 -54.999 20s-20 31 -20 53c0 20.667 5.16699 40.5 15.5 59.5s25.166 39.167 44.499 60.5h48c-14 -23.333 -24 -43 -30 -59s-9 -31.667 -9 -47
c0 -26 10 -39 30 -39c18 0 36.667 6.33301 56 19l17 -32v0z" />
    <glyph glyph-name="caron" horiz-adv-x="330" 
d="M204 589h-78l-87 160h77l50 -79l50 79h75z" />
    <glyph glyph-name="dotlessi" unicode="&#xd;" horiz-adv-x="182" 
d="M37 0v525h107v-525h-107z" />
    <glyph glyph-name="fraction" horiz-adv-x="371" 
d="M76 0h-111l330 700h110z" />
    <glyph glyph-name="fi" horiz-adv-x="411" 
d="M382 662c0 -17.333 -6 -32.166 -18 -44.499s-26.667 -18.5 -44 -18.5s-32 6.16699 -44 18.5s-18 27.166 -18 44.499c0 18 6 33.167 18 45.5s26.667 18.5 44 18.5s32 -6.16699 44 -18.5s18 -27.5 18 -45.5zM266 0v525h107v-525h-107zM230 622
c-10 4 -22.333 6.00098 -37 6.00098c-22.667 0 -34 -13.333 -34 -40v-63h57v-99h-57v-426h-105v426h-39v99h39v78c0 41.333 10.5 72.166 31.5 92.499s46.167 30.5 75.5 30.5c17.333 0 30.833 -0.333008 40.5 -1s19.167 -2.66699 28.5 -6v-97v0z" />
    <glyph glyph-name="fl" horiz-adv-x="411" 
d="M266 0v682l107 47v-729h-107zM230 622c-10 4 -22.333 6.00098 -37 6.00098c-22.667 0 -34 -13.333 -34 -40v-63h57v-99h-57v-426h-105v426h-39v99h39v78c0 41.333 10.5 72.166 31.5 92.499s46.167 30.5 75.5 30.5c17.333 0 30.833 -0.333008 40.5 -1
s19.167 -2.66699 28.5 -6v-97v0z" />
    <glyph glyph-name="Lslash" horiz-adv-x="320" 
d="M57 0v239l-36 -30v119l36 31v341h108v-254l63 53v-119l-63 -53v-223h138v-104h-246z" />
    <glyph glyph-name="lslash" horiz-adv-x="207" 
d="M154 331v-331h-102v241l-36 -32v115l36 33v325l102 47v-284l36 33v-115z" />
    <glyph glyph-name="Zcaron" horiz-adv-x="322" 
d="M26 0l-0.000976562 96.001l117 375l11 33.5l11.5 36.5c3.66699 12 7.33398 23.167 11.001 33.5s6.5 18.833 8.5 25.5c-9.33301 0 -20.666 -0.166992 -33.999 -0.5s-27.333 -0.5 -42 -0.5h-73v101h259v-96l-116 -371l-11 -35l-11.5 -37.5
c-3.66699 -12.333 -7.33398 -23.833 -11.001 -34.5s-6.5 -19.334 -8.5 -26.001c9.33301 0 20 0.166992 32 0.5s25.667 0.5 41 0.5h85v-101h-269zM204.999 739.001h-78l-87 160h77l50 -79l50 79h75z" />
    <glyph glyph-name="zcaron" horiz-adv-x="301" 
d="M20 0v88l103 246l23 52.5l20 44.5c-10 -0.666992 -20.833 -1 -32.5 -1h-38.5h-61v95h240v-88l-102 -246l-22.5 -52c-8.33301 -18.667 -15.5 -33.667 -21.5 -45c10 0.666992 20.833 1 32.5 1h38.5h75v-95h-254zM196 589h-78l-87 160h77l50 -79l50 79h75z" />
    <glyph glyph-name="space" unicode=" " horiz-adv-x="187" 
 />
    <glyph glyph-name="space" unicode="&#xa0;" horiz-adv-x="187" 
 />
    <glyph glyph-name="exclam" unicode="!" horiz-adv-x="202" 
d="M137 184h-72l-18 180v336h108v-336zM166 55c0 -19.333 -6 -35.166 -18 -47.499s-27.667 -18.5 -47 -18.5s-35.166 6.16699 -47.499 18.5s-18.5 28.166 -18.5 47.499s6.16699 35.166 18.5 47.499s28.166 18.5 47.499 18.5s35 -6.16699 47 -18.5s18 -28.166 18 -47.499z
" />
    <glyph glyph-name="quotedbl" unicode="&#x22;" horiz-adv-x="408" 
d="M335 373h-73l-25 327h123zM146 373h-73l-25 327h123z" />
    <glyph glyph-name="numbersign" unicode="#" horiz-adv-x="457" 
d="M368 156v-156h-101v156h-77v-156h-101v156h-61v94h61v200h-61v94h61v156h101v-156h77v156h101v-156h61v-94h-61v-200h61v-94h-61zM267 450h-77v-200h77v200z" />
    <glyph glyph-name="dollar" unicode="$" horiz-adv-x="344" 
d="M324 167c0 -42 -8.83203 -76.999 -26.499 -104.999s-42.167 -47 -73.5 -57v-71h-107v72c-30 10.667 -52.833 30.167 -68.5 58.5s-25.5 66.166 -29.5 113.499l107 19c2 -21.333 4.33301 -38.666 7 -51.999s6 -23.666 10 -30.999s8.5 -12.333 13.5 -15s10.833 -4 17.5 -4
c15.333 0 26.166 4.5 32.499 13.5s9.5 25.167 9.5 48.5c0 16 -1.5 30.333 -4.5 43s-7.83301 25.167 -14.5 37.5s-15.5 25.166 -26.5 38.499s-24.5 28.666 -40.5 45.999c-36 36 -62.667 70.833 -80 104.5s-26 70.5 -26 110.5c0 38.667 7.66699 71.834 23 99.501
s38.333 46.834 69 57.501v72h106v-71c30 -9.33301 52.333 -27 67 -53s24.667 -59.333 30 -100l-106 -22c-4 34.667 -9.16699 57.667 -15.5 69s-15.833 17 -28.5 17c-13.333 0 -23 -4.5 -29 -13.5s-9 -24.5 -9 -46.5c0 -11.333 1.16699 -22 3.5 -32s6.33301 -20 12 -30
s13.167 -20.833 22.5 -32.5s21 -24.834 35 -39.501c20 -20.667 37.5 -40.5 52.5 -59.5s27.5 -38.333 37.5 -58s17.5 -39.834 22.5 -60.501s7.5 -43 7.5 -67z" />
    <glyph glyph-name="percent" unicode="%" horiz-adv-x="715" 
d="M685 208c0 -68 -9.83301 -121.5 -29.5 -160.5s-52.5 -58.5 -98.5 -58.5s-78.5 19.167 -97.5 57.5s-28.5 91.5 -28.5 159.5s9.83301 121.5 29.5 160.5s52.5 58.5 98.5 58.5s78.5 -19.167 97.5 -57.5s28.5 -91.5 28.5 -159.5zM247 0h-97l318 700h97zM284 494
c0 -68 -9.83301 -121.5 -29.5 -160.5s-52.5 -58.5 -98.5 -58.5s-78.5 19.167 -97.5 57.5s-28.5 91.5 -28.5 159.5s9.83301 121.5 29.5 160.5s52.5 58.5 98.5 58.5s78.5 -19.167 97.5 -57.5s28.5 -91.5 28.5 -159.5zM590 206c0 48 -2 82.333 -6 103s-12.667 31 -26 31
s-21.833 -10 -25.5 -30s-5.5 -54 -5.5 -102s2 -82.333 6 -103s12.667 -31 26 -31s21.833 10 25.5 30s5.5 54 5.5 102zM189 492c0 48 -2 82.333 -6 103s-12.667 31 -26 31s-21.833 -10 -25.5 -30s-5.5 -54 -5.5 -102s2 -82.333 6 -103s12.667 -31 26 -31s21.833 10 25.5 30
s5.5 54 5.5 102z" />
    <glyph glyph-name="ampersand" unicode="&#x26;" horiz-adv-x="368" 
d="M260 0l-19.998 50.9971c-14 -22 -28.833 -37.833 -44.5 -47.5s-33.167 -14.5 -52.5 -14.5c-45.333 0 -77.166 15.5 -95.499 46.5s-27.5 75.833 -27.5 134.5c0 38.667 6.83301 77 20.5 115s34.167 74 61.5 108l-24 61c-9.33301 24 -16.833 45.333 -22.5 64
s-8.5 37.667 -8.5 57c0 42 12.167 75.167 36.5 99.5s56.833 36.5 97.5 36.5c20 0 37.333 -2.66699 52 -8s27.167 -13.166 37.5 -23.499s19.166 -23.166 26.499 -38.499s13.666 -32.666 18.999 -51.999l-93 -43c-4.66699 14.667 -8.83398 26.5 -12.501 35.5
s-7.16699 16 -10.5 21s-6.83301 8.33301 -10.5 10s-8.16699 2.5 -13.5 2.5c-18.667 0 -28 -12.667 -28 -38c0 -13.333 1.83301 -27 5.5 -41s9.16699 -29.667 16.5 -47l68 -173l8.5 41l9.5 46l87 -21c-8.66699 -42 -17.167 -79.833 -25.5 -113.5s-16.5 -64.5 -24.5 -92.5
l69 -176h-102zM144.002 288.997c-15.333 -36 -23 -72.667 -23 -110c0 -62 10.667 -93 32 -93c8 0 15.5 4.5 22.5 13.5s14.5 27.167 22.5 54.5z" />
    <glyph glyph-name="quotesingle" unicode="'" horiz-adv-x="221" 
d="M148 373h-75l-25 327h125z" />
    <glyph glyph-name="parenleft" unicode="(" horiz-adv-x="250" 
d="M163 -110c-45.333 62 -79.168 127.334 -101.501 196.001s-33.5 140.667 -33.5 216c0 152.667 45 290.667 135 414l68 -42c-16 -26 -29.833 -54 -41.5 -84s-21 -61 -28 -93s-12.167 -64.167 -15.5 -96.5s-5 -64.166 -5 -95.499c0 -64.667 6.83301 -129.834 20.5 -195.501
s36.834 -124.834 69.501 -177.501z" />
    <glyph glyph-name="parenright" unicode=")" horiz-adv-x="250" 
d="M222 303c0 -153.333 -44.999 -291.335 -134.999 -414.002l-68 43c16 26 29.833 54 41.5 84s21 60.833 28 92.5s12.167 63.667 15.5 96s5 64.166 5 95.499c0 64.667 -6.83301 129.834 -20.5 195.501s-36.834 124.834 -69.501 177.501l68 42
c90 -123.333 135 -260.666 135 -411.999z" />
    <glyph glyph-name="asterisk" unicode="*" horiz-adv-x="357" 
d="M290 435l-89 75l22 -114h-90l22 114l-89 -75l-45 75l109 39l-109 41l45 75l89 -77l-22 115h90l-22 -115l89 77l44 -75l-109 -41l109 -39z" />
    <glyph glyph-name="plus" unicode="+" horiz-adv-x="357" 
d="M230 294v-124h-103v124h-106v100h106v124h103v-124h106v-100h-106z" />
    <glyph glyph-name="comma" unicode="," horiz-adv-x="205" 
d="M102 -105h-65l14 223h115z" />
    <glyph glyph-name="hyphen" unicode="-" horiz-adv-x="252" 
d="M32 313v106h188v-106h-188z" />
    <glyph glyph-name="period" unicode="." horiz-adv-x="205" 
d="M171 56c0 -19.333 -6.33301 -35.333 -19 -48s-28.667 -19 -48 -19s-35.333 6.33301 -48 19s-19 28.667 -19 48s6.33301 35.5 19 48.5s28.667 19.5 48 19.5s35.333 -6.5 48 -19.5s19 -29.167 19 -48.5z" />
    <glyph glyph-name="slash" unicode="/" horiz-adv-x="277" 
d="M92 -90h-103l196 880h103z" />
    <glyph glyph-name="zero" unicode="0" horiz-adv-x="370" 
d="M341 352c0 -60 -2.5 -112.5 -7.5 -157.5s-13.5 -82.833 -25.5 -113.5s-28.167 -53.667 -48.5 -69s-45.833 -23 -76.5 -23c-30 0 -54.833 7.5 -74.5 22.5s-35.5 37.5 -47.5 67.5s-20.5 67.5 -25.5 112.5s-7.5 97.167 -7.5 156.5c0 60 2.5 112.5 7.5 157.5
s13.5 82.833 25.5 113.5s28 53.667 48 69s45 23 75 23s55.167 -7.66699 75.5 -23s36.5 -38.166 48.5 -68.499s20.5 -67.833 25.5 -112.5s7.5 -96.334 7.5 -155.001zM230 348c0 54.667 -0.835938 99 -2.50293 133s-4.33398 60.5 -8.00098 79.5s-8.5 31.833 -14.5 38.5
s-13.333 10 -22 10c-8 0 -14.833 -3.33301 -20.5 -10s-10.167 -19.334 -13.5 -38.001s-5.66602 -44.667 -6.99902 -78s-2 -77 -2 -131c0 -55.333 0.666992 -100.166 2 -134.499s3.83301 -60.833 7.5 -79.5s8.33398 -31.167 14.001 -37.5s12.834 -9.5 21.501 -9.5
s15.834 3.16699 21.501 9.5s10.167 18.666 13.5 36.999s5.83301 44.333 7.5 78s2.5 77.834 2.5 132.501z" />
    <glyph glyph-name="one" unicode="1" horiz-adv-x="241" 
d="M82 0v557.002h-69v69c27.333 3.33301 47.5 10.666 60.5 21.999s22.167 28.666 27.5 51.999h92v-700h-111z" />
    <glyph glyph-name="two" unicode="2" horiz-adv-x="345" 
d="M25 0c2 52 5.50098 96.165 10.501 132.498s12.333 69 22 98s22.167 55.833 37.5 80.5s34.333 51.334 57 80.001c20 25.333 34.5 49.833 43.5 73.5s13.5 48.167 13.5 73.5s-2.16699 43.666 -6.5 54.999s-12.833 17 -25.5 17c-13.333 0 -23 -7 -29 -21s-11 -40 -15 -78
l-106 15c2.66699 27.333 7.16699 52.333 13.5 75s15.333 42.167 27 58.5s26.5 29 44.5 38s40.333 13.5 67 13.5c24 0 44.667 -4.33301 62 -13s31.5 -20.5 42.5 -35.5s19.167 -33 24.5 -54s8 -43.5 8 -67.5c0 -34.667 -6.16699 -68.334 -18.5 -101.001
s-32.5 -67.334 -60.5 -104.001c-18 -23.333 -33 -44.666 -45 -63.999s-21.667 -38.166 -29 -56.499s-12.833 -36.666 -16.5 -54.999s-5.83398 -38.166 -6.50098 -59.499h177v-101h-292z" />
    <glyph glyph-name="three" unicode="3" horiz-adv-x="355" 
d="M326 206c0 -68 -13.1689 -121.164 -39.502 -159.497s-64.5 -57.5 -114.5 -57.5c-24.667 0 -45.834 4.5 -63.501 13.5s-32.5 21.667 -44.5 38s-21.167 35.666 -27.5 57.999s-10.5 47.166 -12.5 74.499l106 14c2.66699 -34 6.83398 -58.667 12.501 -74s16.167 -23 31.5 -23
c16 0 27.167 8.5 33.5 25.5s9.5 44.5 9.5 82.5c0 24.667 -1 45.167 -3 61.5s-6 29.166 -12 38.499s-14 15.833 -24 19.5s-23 5.5 -39 5.5h-23v98h26c13.333 0 24.5 2 33.5 6s16.167 10.667 21.5 20s9 22 11 38s3 36 3 60c0 22.667 -2.5 39.167 -7.5 49.5
s-14.833 15.5 -29.5 15.5c-14 0 -23.833 -6.83301 -29.5 -20.5s-10.834 -37.5 -15.501 -71.5l-103 14c3.33301 26.667 8.33301 51 15 73s15.834 40.833 27.501 56.5s26.334 27.834 44.001 36.501s39.167 13 64.5 13c46.667 0 82.167 -15.167 106.5 -45.5
s36.5 -69.5 36.5 -117.5c0 -52 -6.83301 -90.833 -20.5 -116.5s-33.5 -43.167 -59.5 -52.5c12 -4 23.333 -9.33301 34 -16s19.834 -16.334 27.501 -29.001s13.667 -29.167 18 -49.5s6.5 -46.5 6.5 -78.5z" />
    <glyph glyph-name="four" unicode="4" horiz-adv-x="348" 
d="M297 164v-164h-96v166h-190v74l191 460h95v-443h39v-93h-39zM206 514c-4.66699 -18.667 -11.3301 -41 -19.9971 -67s-17.334 -50.667 -26.001 -74l-11 -30l-18.5 -46.5l-17.5 -40.5c9.33301 0 18.166 0.166992 26.499 0.5s18.166 0.5 29.499 0.5h33v124
c0 21.333 0.333008 44.333 1 69s1.66699 46 3 64z" />
    <glyph glyph-name="five" unicode="5" horiz-adv-x="360" 
d="M328 238c0 -38.667 -2.66602 -73.335 -7.99902 -104.002s-14 -56.834 -26 -78.501s-27.833 -38.167 -47.5 -49.5s-43.834 -17 -72.501 -17c-23.333 0 -43.5 4.33301 -60.5 13s-31.333 20.834 -43 36.501s-20.667 34.334 -27 56.001s-10.833 45.834 -13.5 72.501l106 14
c3.33301 -31.333 7.5 -54.333 12.5 -69s15.167 -22 30.5 -22c19.333 0 31 11.833 35 35.5s6 60.167 6 109.5s-3 85.333 -9 108s-18.667 34 -38 34c-13.333 0 -24 -4.33301 -32 -13s-15.333 -21.667 -22 -39l-85 11l14 364h267v-100h-172l-7 -149c7.33301 8 16 14.5 26 19.5
s23.333 7.5 40 7.5c46 0 78.5 -20 97.5 -60s28.5 -100 28.5 -180z" />
    <glyph glyph-name="six" unicode="6" horiz-adv-x="355" 
d="M333 216c0 -70.667 -13.502 -126.166 -40.502 -166.499s-65.833 -60.5 -116.5 -60.5c-47.333 0 -83.666 20.167 -108.999 60.5s-38 100.166 -38 179.499c0 68 5.16699 127.667 15.5 179s24.5 96.333 42.5 135s39 72 63 100s49.667 52.333 77 73l65 -82
c-42.667 -29.333 -77.334 -65 -104.001 -107s-43.667 -87 -51 -135c8 11.333 17.833 20.833 29.5 28.5s25.167 11.5 40.5 11.5c20.667 0 38.834 -5.16699 54.501 -15.5s28.834 -25 39.501 -44s18.667 -41.833 24 -68.5s8 -56 8 -88zM224.998 210.001
c0 38 -3.33203 68.167 -9.99902 90.5s-18.334 33.5 -35.001 33.5c-17.333 0 -29.333 -10.667 -36 -32s-10 -53.333 -10 -96c0 -40.667 4 -70.5 12 -89.5s19 -28.5 33 -28.5c30.667 0 46 40.667 46 122z" />
    <glyph glyph-name="seven" unicode="7" horiz-adv-x="343" 
d="M317 602c-29.333 -48 -52.5 -94.167 -69.5 -138.5s-29.833 -90 -38.5 -137s-14.167 -97 -16.5 -150s-3.5 -111.833 -3.5 -176.5h-108c0 48 1.33301 97.167 4 147.5s8.5 101 17.5 152s22 101.667 39 152s40.167 99.5 69.5 147.5h-196v101h302v-98v0z" />
    <glyph glyph-name="eight" unicode="8" horiz-adv-x="352" 
d="M326 209c0 -74.667 -13.333 -129.999 -40 -165.999s-64 -54 -112 -54c-45.333 0 -81.333 18.333 -108 55s-40 91.334 -40 164.001c0 47.333 6 84.166 18 110.499s27.667 47.833 47 64.5c-16.667 13.333 -30.667 31.5 -42 54.5s-17 52.5 -17 88.5
c0 25.333 3.16699 49.166 9.5 71.499s15.666 42 27.999 59s27.333 30.333 45 40s38.167 14.5 61.5 14.5c24.667 0 46.167 -5.16699 64.5 -15.5s33.5 -24 45.5 -41s20.833 -36.5 26.5 -58.5s8.5 -45 8.5 -69c0 -36 -5.66699 -65 -17 -87s-25.666 -40.333 -42.999 -55
c20 -16 35.833 -37.667 47.5 -65s17.5 -64.333 17.5 -111zM215 522.001c0 32.667 -3.50195 55.834 -10.502 69.501s-16.5 20.5 -28.5 20.5s-21.5 -6.33301 -28.5 -19s-10.5 -35.334 -10.5 -68.001c0 -26 3.33301 -47.667 10 -65s16.334 -26 29.001 -26
s22.334 8.33301 29.001 25s10 37.667 10 63zM218.998 210.001c0 44 -4.00195 75.334 -12.002 94.001s-18.667 28 -32 28s-23.666 -9.5 -30.999 -28.5s-11 -49.5 -11 -91.5c0 -45.333 3.83301 -77 11.5 -95s18.5 -27 32.5 -27c12.667 0 22.834 8.66699 30.501 26
s11.5 48.666 11.5 93.999z" />
    <glyph glyph-name="nine" unicode="9" horiz-adv-x="355" 
d="M327 471c0 -68 -5.3291 -127.668 -15.9961 -179.001s-25 -96.333 -43 -135s-39 -72 -63 -100s-49.667 -52.333 -77 -73l-65 82c43.333 29.333 78.166 65 104.499 107s43.166 87 50.499 135c-8 -11.333 -17.833 -20.833 -29.5 -28.5s-25.167 -11.5 -40.5 -11.5
c-20.667 0 -38.834 5.16699 -54.501 15.5s-28.834 25 -39.501 44s-18.667 41.833 -24 68.5s-8 56 -8 88c0 70.667 13.5 126.167 40.5 166.5s65.833 60.5 116.5 60.5c47.333 0 83.833 -20.167 109.5 -60.5s38.5 -100.166 38.5 -179.499zM221.004 493.999
c0 40.667 -4 70.5 -12 89.5s-18.667 28.5 -32 28.5c-31.333 0 -47 -40.667 -47 -122c0 -38 3.5 -68.167 10.5 -90.5s18.5 -33.5 34.5 -33.5c17.333 0 29.333 10.667 36 32s10 53.333 10 96z" />
    <glyph glyph-name="colon" unicode=":" horiz-adv-x="205" 
d="M171 469c0 -19.333 -6.33301 -35.5 -19 -48.5s-28.667 -19.5 -48 -19.5s-35.333 6.5 -48 19.5s-19 29.167 -19 48.5s6.33301 35.333 19 48s28.667 19 48 19s35.333 -6.33301 48 -19s19 -28.667 19 -48zM171 56c0 -19.333 -6.33301 -35.333 -19 -48s-28.667 -19 -48 -19
s-35.333 6.33301 -48 19s-19 28.667 -19 48s6.33301 35.5 19 48.5s28.667 19.5 48 19.5s35.333 -6.5 48 -19.5s19 -29.167 19 -48.5z" />
    <glyph glyph-name="semicolon" unicode=";" horiz-adv-x="205" 
d="M171 469c0 -19.333 -6.33301 -35.5 -19 -48.5s-28.667 -19.5 -48 -19.5s-35.333 6.5 -48 19.5s-19 29.167 -19 48.5s6.33301 35.333 19 48s28.667 19 48 19s35.333 -6.33301 48 -19s19 -28.667 19 -48zM99 -105h-65l14 223h115z" />
    <glyph glyph-name="less" unicode="&#x3c;" horiz-adv-x="264" 
d="M23 294v100l210 196v-137l-125 -108l125 -109v-138z" />
    <glyph glyph-name="equal" unicode="=" horiz-adv-x="399" 
d="M49 390v104h301v-104h-301zM49 194v104h301v-104h-301z" />
    <glyph glyph-name="greater" unicode="&#x3e;" horiz-adv-x="264" 
d="M31 98v137l125 108l-125 109v138l210 -196v-100z" />
    <glyph glyph-name="question" unicode="?" horiz-adv-x="327" 
d="M309 548c0 -36.667 -5.16797 -68.167 -15.501 -94.5s-26.166 -53.5 -47.499 -81.5c-11.333 -16 -20.5 -30.333 -27.5 -43s-12.5 -25.834 -16.5 -39.501s-6.66699 -28.834 -8 -45.501s-2 -36.667 -2 -60h-98c0 29.333 0.833008 54.833 2.5 76.5s5 41.334 10 59.001
s11.5 34.334 19.5 50.001s18.667 32.5 32 50.5c16 22 27.667 42.167 35 60.5s11 38.833 11 61.5c0 45.333 -13.333 68 -40 68c-15.333 0 -26.666 -6.5 -33.999 -19.5s-14.333 -34.833 -21 -65.5l-99 28c9.33301 49.333 26.166 88 50.499 116s59.5 42 105.5 42
c48 0 83.833 -15.167 107.5 -45.5s35.5 -69.5 35.5 -117.5zM208.999 55c0 -19.333 -6.16699 -35.166 -18.5 -47.499s-28.166 -18.5 -47.499 -18.5s-35 6.16699 -47 18.5s-18 28.166 -18 47.499s6 35.166 18 47.499s27.667 18.5 47 18.5s35.166 -6.16699 47.499 -18.5
s18.5 -28.166 18.5 -47.499z" />
    <glyph glyph-name="at" unicode="@" horiz-adv-x="483" 
d="M455 360c0 -40 -1.99805 -73.168 -5.99805 -99.501s-9.83301 -47.5 -17.5 -63.5s-17.167 -27.167 -28.5 -33.5s-24.333 -9.5 -39 -9.5c-18.667 0 -33.834 3.5 -45.501 10.5s-21.167 15.833 -28.5 26.5c-11.333 -13.333 -22.666 -23.166 -33.999 -29.499
s-24 -9.5 -38 -9.5c-50 0 -75 43.333 -75 130c0 44.667 6.66699 77.834 20 99.501s32.666 32.5 57.999 32.5c10 0 18.167 -1 24.5 -3s13.166 -5.66699 20.499 -11v51c0 16.667 -2 28.5 -6 35.5s-12.333 10.5 -25 10.5c-8.66699 0 -17 -1.83301 -25 -5.5
s-17.667 -10.167 -29 -19.5l-27 48c12.667 12 27 21.833 43 29.5s32.333 11.5 49 11.5c27.333 0 48 -7.33301 62 -22s21 -40.667 21 -78v-195c0 -40 10.667 -60 32 -60c6.66699 0 12.334 2.16699 17.001 6.5s8.66699 12.166 12 23.499s5.83301 27.166 7.5 47.499
s2.5 46.166 2.5 77.499c0 98.667 -14 173 -42 223s-66.667 75 -116 75c-54 0 -94 -26.5 -120 -79.5s-39 -129.167 -39 -228.5c0 -100 13 -176.667 39 -230s67 -80 123 -80c15.333 0 29.666 2.66699 42.999 8s25.333 12 36 20l25 -42c-14 -11.333 -30.167 -20.5 -48.5 -27.5
s-37.833 -10.5 -58.5 -10.5c-34 0 -64.333 8.16699 -91 24.5s-49 40 -67 71s-31.833 68.833 -41.5 113.5s-14.5 95.334 -14.5 152.001s4.83301 107.334 14.5 152.001s23.5 82.5 41.5 113.5s40.333 54.667 67 71s57 24.5 91 24.5s64.333 -8.5 91 -25.5s49 -41 67 -72
s31.667 -68 41 -111s14 -90.5 14 -142.5zM266.002 340.999c-4.66699 3.33301 -8.83496 5.83301 -12.502 7.5s-9.16699 2.5 -16.5 2.5c-11.333 0 -19.166 -5 -23.499 -15s-6.5 -27.667 -6.5 -53c0 -24 2.33301 -41.333 7 -52s12 -16 22 -16
c6.66699 0 12.334 1.66699 17.001 5s9 7.33301 13 12v109z" />
    <glyph glyph-name="A" unicode="A" horiz-adv-x="367" 
d="M243 0l-19 154h-82l-18 -154h-111l111 700h120l111 -700h-112zM197 383c-3.33301 25.333 -6.5 51.667 -9.5 79s-5.16699 55 -6.5 83c-1.33301 -28 -3.33301 -55.833 -6 -83.5s-5.66699 -54.167 -9 -79.5l-15 -127h62z" />
    <glyph glyph-name="B" unicode="B" horiz-adv-x="375" 
d="M349 205c0 -64.667 -14 -114.999 -42 -150.999s-71 -54 -129 -54h-133v700h135c52 0 92.167 -15 120.5 -45s42.5 -77.333 42.5 -142c0 -38.667 -6.66699 -69.834 -20 -93.501s-32.666 -42.167 -57.999 -55.5c25.333 -12.667 45.666 -31 60.999 -55s23 -58.667 23 -104z
M232 510.001c0 36 -4.5 60.833 -13.5 74.5s-23.167 20.5 -42.5 20.5h-23v-196h24c17.333 0 30.833 7.5 40.5 22.5s14.5 41.167 14.5 78.5zM237 204.001c0 41.333 -4.83301 70.5 -14.5 87.5s-26.167 25.5 -49.5 25.5h-20v-222h24c22 0 37.5 8.33301 46.5 25
s13.5 44.667 13.5 84z" />
    <glyph glyph-name="C" unicode="C" horiz-adv-x="371" 
d="M346 199c-4 -33.333 -9.16406 -63 -15.4971 -89s-15.333 -48 -27 -66s-26.667 -31.667 -45 -41s-40.833 -14 -67.5 -14c-30 0 -55.167 7 -75.5 21s-36.833 35.667 -49.5 65s-21.834 66.5 -27.501 111.5s-8.5 98.833 -8.5 161.5c0 62 2.66699 115.833 8 161.5
s14.333 83.5 27 113.5s29.5 52.167 50.5 66.5s46.833 21.5 77.5 21.5c27.333 0 50.333 -5.16699 69 -15.5s33.834 -25 45.501 -44s20.334 -41.5 26.001 -67.5s9.16699 -54.667 10.5 -86l-110 -16c-3.33301 46.667 -7.5 79.334 -12.5 98.001s-14.833 28 -29.5 28
c-8.66699 0 -16 -3.16699 -22 -9.5s-10.833 -18.666 -14.5 -36.999s-6.33398 -44.333 -8.00098 -78s-2.5 -77.5 -2.5 -131.5c0 -54.667 0.833008 -98.834 2.5 -132.501s4.5 -60 8.5 -79s9.16699 -31.833 15.5 -38.5s14.166 -10 23.499 -10c6 0 11.167 1.66699 15.5 5
s8.16602 9.66602 11.499 18.999s6.16602 21.833 8.49902 37.5s4.83301 36.167 7.5 61.5l108 -16v0z" />
    <glyph glyph-name="D" unicode="D" horiz-adv-x="386" 
d="M357 355c0 -120.667 -14.667 -210 -44 -268s-76 -87 -140 -87h-128v700h139c34 0 62.167 -7.83301 84.5 -23.5s40 -38.167 53 -67.5s22.167 -65.5 27.5 -108.5s8 -91.5 8 -145.5zM242 354c0 51.333 -1.33496 93.168 -4.00195 125.501s-6.66699 57.5 -12 75.5
s-12.166 30.333 -20.499 37s-18.5 10 -30.5 10h-19v-505h17c11.333 0 21.333 3.5 30 10.5s15.834 19.833 21.501 38.5s10 44.667 13 78s4.5 76.666 4.5 129.999z" />
    <glyph glyph-name="E" unicode="E" horiz-adv-x="336" 
d="M45 0v700h262v-104h-150v-175h115v-104h-115v-213h159v-104h-271z" />
    <glyph glyph-name="F" unicode="F" horiz-adv-x="331" 
d="M157 596v-175h116v-104h-116v-317h-112v700h266v-104h-154z" />
    <glyph glyph-name="G" unicode="G" horiz-adv-x="382" 
d="M350 216c0 -30.667 -2.66797 -59.8291 -8.00098 -87.4961s-14 -51.834 -26 -72.501s-28 -37 -48 -49s-45 -18 -75 -18c-32 0 -58.333 7.66699 -79 23s-37.334 38.333 -50.001 69s-21.5 68.334 -26.5 113.001s-7.5 96.667 -7.5 156c0 62 2.66699 115.667 8 161
s14.5 82.833 27.5 112.5s29.833 51.667 50.5 66s46.667 21.5 78 21.5c26.667 0 49.167 -5 67.5 -15s33.333 -24.333 45 -43s20.334 -40.834 26.001 -66.501s9.5 -53.834 11.5 -84.501l-110 -18c-3.33301 45.333 -7.5 77.333 -12.5 96s-14.5 28 -28.5 28
c-9.33301 0 -17 -3.33301 -23 -10s-10.833 -19.334 -14.5 -38.001s-6.33398 -44.834 -8.00098 -78.501s-2.5 -77.5 -2.5 -131.5c0 -50 0.666992 -91.667 2 -125s3.83301 -59.833 7.5 -79.5s8.83398 -33.667 15.501 -42s15.334 -12.5 26.001 -12.5c16.667 0 28.5 8 35.5 24
s10.5 43.333 10.5 82v69h-50v98h158v-148v0z" />
    <glyph glyph-name="H" unicode="H" horiz-adv-x="405" 
d="M249 0v321h-92v-321h-112v700h112v-275h92v275h112v-700h-112z" />
    <glyph glyph-name="I" unicode="I" horiz-adv-x="206" 
d="M47 0v700h112v-700h-112z" />
    <glyph glyph-name="J" unicode="J" horiz-adv-x="354" 
d="M312 185c0 -68 -12.6631 -117.668 -37.9961 -149.001s-63 -47 -113 -47c-26.667 0 -49.167 4.66699 -67.5 14s-33.333 22.333 -45 39s-20.334 36.334 -26.001 59.001s-9.5 47.334 -11.5 74.001l107 22c1.33301 -20.667 3.16602 -37.667 5.49902 -51
s5.16602 -24 8.49902 -32s7.5 -13.667 12.5 -17s11.167 -5 18.5 -5c13.333 0 22.666 6.16699 27.999 18.5s8 34.166 8 65.499v524h113v-515v0z" />
    <glyph glyph-name="K" unicode="K" horiz-adv-x="370" 
d="M242 0l-69 315.999l-17 -46v-270h-111v700h111v-129c0 -26 -0.166992 -51.167 -0.5 -75.5s-0.833008 -47.166 -1.5 -68.499l9 35.5c3.33301 13 7 26.167 11 39.5s8.16699 26.5 12.5 39.5l11.5 34.5l43 124h115l-99 -260l101 -440h-116z" />
    <glyph glyph-name="L" unicode="L" horiz-adv-x="308" 
d="M45 0v700h112v-596h133v-104h-245z" />
    <glyph glyph-name="M" unicode="M" horiz-adv-x="477" 
d="M333 0l0.00488281 183.001c0 42.667 0.5 84 1.5 124s2.16699 78 3.5 114l-9.5 -49.5c-3.66699 -19 -7.83398 -38.833 -12.501 -59.5l-14 -62.5c-4.66699 -21 -9.33398 -40.5 -14.001 -58.5l-50 -212l-49 212l-13 57l-14 63.5c-4.66699 21 -8.83398 41.167 -12.501 60.5
l-9.5 49c0.666992 -33.333 1.66699 -71 3 -113s2 -83.667 2 -125v-183h-100v700h110l46 -213c7.33301 -32 14.5 -66.333 21.5 -103s12.167 -69.334 15.5 -98.001c3.33301 28.667 8.66602 61.5 15.999 98.5s14.666 71.5 21.999 103.5l47 212h110v-700h-100z" />
    <glyph glyph-name="N" unicode="N" horiz-adv-x="406" 
d="M276 0l-68 215.001l-17 56c-6 20 -11.667 40 -17 60l-15.5 56.5c-5 17.667 -9.16699 33.167 -12.5 46.5c0 -12.667 0.166992 -27.667 0.5 -45l1 -54.5l1 -57c0.333008 -19 0.5 -36.167 0.5 -51.5v-226h-104v700h101l55 -171l15.5 -48l16.5 -54
c5.33301 -18 10.333 -35.667 15 -53l12 -46c0 12 -0.166992 26.5 -0.5 43.5l-1 53l-1 53.5c-0.333008 17.333 -0.5 32.666 -0.5 45.999v176h104v-700h-85z" />
    <glyph glyph-name="O" unicode="O" horiz-adv-x="386" 
d="M357 352c0 -61.333 -2.66895 -114.669 -8.00195 -160.002s-14.5 -83 -27.5 -113s-30.167 -52.5 -51.5 -67.5s-47.666 -22.5 -78.999 -22.5c-30.667 0 -56.334 7.33301 -77.001 22s-37.167 36.834 -49.5 66.501s-21.166 67 -26.499 112s-8 97.833 -8 158.5
s2.66699 113.834 8 159.501s14.333 83.5 27 113.5s29.334 52.5 50.001 67.5s46.667 22.5 78 22.5c62 0 104.833 -30 128.5 -90s35.5 -149.667 35.5 -269zM240.998 347.997c0 53.333 -0.833984 97 -2.50098 131s-4.5 60.5 -8.5 79.5s-9.16699 32 -15.5 39
s-13.833 10.5 -22.5 10.5c-9.33301 0 -17 -3.33301 -23 -10s-10.833 -19.5 -14.5 -38.5s-6.16699 -45.167 -7.5 -78.5s-2 -76.333 -2 -129c0 -53.333 0.833008 -97 2.5 -131s4.5 -60.5 8.5 -79.5s9 -32 15 -39s13.333 -10.5 22 -10.5s16.167 3.33301 22.5 10
s11.333 19.5 15 38.5s6.33398 45 8.00098 78s2.5 76.167 2.5 129.5z" />
    <glyph glyph-name="P" unicode="P" horiz-adv-x="366" 
d="M349 502c0 -37.333 -4.33105 -69.1689 -12.998 -95.502s-20.334 -48 -35.001 -65s-32 -29.5 -52 -37.5s-41.333 -12 -64 -12h-29v-292h-111v700h147c21.333 0 41.5 -3.33301 60.5 -10s35.667 -17.667 50 -33s25.666 -35.666 33.999 -60.999s12.5 -56.666 12.5 -93.999z
M236.002 496.997c0 40 -4.16699 68 -12.5 84s-22.166 24 -41.499 24h-26v-217h23c19.333 0 33.666 8.5 42.999 25.5s14 44.833 14 83.5z" />
    <glyph glyph-name="Q" unicode="Q" horiz-adv-x="386" 
d="M292 -28l-28.002 37.998c-21.333 -14 -45.666 -21 -72.999 -21c-30.667 0 -56.334 7.33301 -77.001 22s-37.167 36.834 -49.5 66.501s-21.166 67 -26.499 112s-8 97.833 -8 158.5s2.66699 113.834 8 159.501s14.333 83.5 27 113.5s29.334 52.5 50.001 67.5
s46.667 22.5 78 22.5c62 0 104.833 -30 128.5 -90s35.5 -149.667 35.5 -269c0 -125.333 -13.667 -217.333 -41 -276l42 -42zM240.998 347.998c0 53.333 -0.832031 97 -2.49902 131s-4.5 60.5 -8.5 79.5s-9.16699 32 -15.5 39s-13.833 10.5 -22.5 10.5
c-9.33301 0 -17 -3.33301 -23 -10s-10.833 -19.5 -14.5 -38.5s-6.16699 -45.167 -7.5 -78.5s-2 -76.333 -2 -129c0 -53.333 0.833008 -97.166 2.5 -131.499s4.5 -61.5 8.5 -81.5s9 -33.833 15 -41.5s13.333 -11.5 22 -11.5h13l-33 44l45 43l20 -20
c1.33301 19.333 2.16602 44.666 2.49902 75.999s0.5 71 0.5 119z" />
    <glyph glyph-name="R" unicode="R" horiz-adv-x="382" 
d="M242 0l-57.999 308.002h-28v-308h-111v700h146c22 0 42.5 -3.16699 61.5 -9.5s35.667 -17 50 -32s25.666 -34.833 33.999 -59.5s12.5 -55.334 12.5 -92.001c0 -40.667 -5.5 -74.834 -16.5 -102.501s-26.167 -49.167 -45.5 -64.5l69 -340h-114zM236.001 502.002
c0 38.667 -4.16699 65.501 -12.5 80.501s-22.166 22.5 -41.499 22.5h-26v-205h23c19.333 0 33.666 7.66699 42.999 23s14 41.666 14 78.999z" />
    <glyph glyph-name="S" unicode="S" horiz-adv-x="349" 
d="M326 164c0 -26 -3.33105 -49.6689 -9.99805 -71.002s-16.334 -39.666 -29.001 -54.999s-28.167 -27.333 -46.5 -36s-39.5 -13 -63.5 -13c-50 0 -87 16.5 -111 49.5s-38.667 79.5 -44 139.5l107 19c2 -21.333 4.5 -38.833 7.5 -52.5s6.5 -24.5 10.5 -32.5
s8.5 -13.5 13.5 -16.5s10.5 -4.5 16.5 -4.5c14 0 24.167 4.83301 30.5 14.5s9.5 25.834 9.5 48.501c0 16.667 -1.5 31.5 -4.5 44.5s-7.66699 25.833 -14 38.5s-14.833 25.667 -25.5 39s-24 28.666 -40 45.999c-36 36 -62.667 71.333 -80 106s-26 72 -26 112
c0 24.667 3 47.334 9 68.001s15 38.667 27 54s27 27.333 45 36s39 13 63 13c24.667 0 45.667 -4 63 -12s32 -19.333 44 -34s21.333 -32.334 28 -53.001s11.667 -44 15 -70l-105 -22c-4 34.667 -9.33301 58.334 -16 71.001s-16.334 19 -29.001 19c-12 0 -21 -4.66699 -27 -14
s-9 -25 -9 -47c0 -12 1.16699 -23.167 3.5 -33.5s6.33301 -20.666 12 -30.999s13 -21.333 22 -33s20.5 -24.834 34.5 -39.501c20 -20.667 37.5 -40.667 52.5 -60s27.5 -39 37.5 -59s17.333 -40.5 22 -61.5s7 -43.5 7 -67.5z" />
    <glyph glyph-name="T" unicode="T" horiz-adv-x="328" 
d="M220 596v-596h-112v596h-94v104h301v-104h-95z" />
    <glyph glyph-name="U" unicode="U" horiz-adv-x="402" 
d="M359 179c0 -61.333 -12.833 -108.335 -38.5 -141.002s-65.834 -49 -120.501 -49c-50.667 0 -89.5 16.333 -116.5 49s-40.5 77.334 -40.5 134.001v528h112v-529c0 -29.333 4 -49.833 12 -61.5s19.667 -17.5 35 -17.5c16.667 0 28.334 5.83301 35.001 17.5
s10 31.834 10 60.501v530h112v-521v0z" />
    <glyph glyph-name="V" unicode="V" horiz-adv-x="363" 
d="M237 0l-110.998 -0.000976562l-113 700h114l41 -342c3.33301 -30 6.33301 -61.833 9 -95.5l7 -89.5c1.33301 26 3.16602 55.833 5.49902 89.5s5.16602 65.834 8.49902 96.501l37 341h115z" />
    <glyph glyph-name="W" unicode="W" horiz-adv-x="482" 
d="M385 0h-93.998l-25 185c-2.66699 18 -5.16699 37 -7.5 57l-7 60c-2.33301 20 -4.33301 39.333 -6 58l-4.5 50l-4.5 -49.5c-1.66699 -18.333 -3.5 -37.5 -5.5 -57.5s-4.16699 -40 -6.5 -60s-4.83301 -39 -7.5 -57l-26 -186h-94l-83 700h103l23 -229
c1.33301 -14 2.66602 -29.667 3.99902 -47l4 -53.5c1.33301 -18.333 2.5 -36.666 3.5 -54.999s1.83301 -35.833 2.5 -52.5c1.33301 16.667 2.83301 34.167 4.5 52.5l5 55l5 53.5l4.5 47l25 229h86l26 -229l4.5 -47l5 -53.5l5 -55c1.66699 -18.333 3.16699 -35.833 4.5 -52.5
c0.666992 16.667 1.5 34.167 2.5 52.5s2.16699 36.666 3.5 54.999l4 53.5c1.33301 17.333 2.66602 33 3.99902 47l22 229h104z" />
    <glyph glyph-name="X" unicode="X" horiz-adv-x="347" 
d="M223 0l-22.9961 101c-6 27.333 -11.333 52.833 -16 76.5s-8.33398 46.167 -11.001 67.5c-3.33301 -20.667 -7.5 -43 -12.5 -67l-16.5 -78l-22 -100h-111l105 359l-99 341h114l19 -83c5.33301 -22.667 10.166 -45.667 14.499 -69s7.83301 -46.666 10.5 -69.999
c3.33301 23.333 7.16602 46.666 11.499 69.999s9.16602 46 14.499 68l19 84h110l-99 -336l106 -364h-114z" />
    <glyph glyph-name="Y" unicode="Y" horiz-adv-x="368" 
d="M244 296l-0.00195312 -296h-113v291l-124 409h122l29 -133c7.33301 -33.333 13.5 -64.5 18.5 -93.5s9.16699 -56.5 12.5 -82.5c2.66699 26 6.33398 53.5 11.001 82.5s10.334 60.167 17.001 93.5l27 133h117z" />
    <glyph glyph-name="Z" unicode="Z" horiz-adv-x="322" 
d="M26 0l-0.000976562 96.001l117 375l11 33.5l11.5 36.5c3.66699 12 7.33398 23.167 11.001 33.5s6.5 18.833 8.5 25.5c-9.33301 0 -20.666 -0.166992 -33.999 -0.5s-27.333 -0.5 -42 -0.5h-73v101h259v-96l-116 -371l-11 -35l-11.5 -37.5
c-3.66699 -12.333 -7.33398 -23.833 -11.001 -34.5s-6.5 -19.334 -8.5 -26.001c9.33301 0 20 0.166992 32 0.5s25.667 0.5 41 0.5h85v-101h-269z" />
    <glyph glyph-name="bracketleft" unicode="[" horiz-adv-x="272" 
d="M45 -93v793h191v-95h-85v-603h85v-95h-191z" />
    <glyph glyph-name="backslash" unicode="\" horiz-adv-x="277" 
d="M185 -90l-196 880h103l196 -880h-103z" />
    <glyph glyph-name="bracketright" unicode="]" horiz-adv-x="272" 
d="M37 -93v95h84v603h-84v95h191v-793h-191z" />
    <glyph glyph-name="asciicircum" unicode="^" horiz-adv-x="344" 
d="M216 382l-45 198l-43 -198h-109l106 318h94l107 -318h-110z" />
    <glyph glyph-name="underscore" unicode="_" horiz-adv-x="245" 
d="M0 -169v94h245v-94h-245z" />
    <glyph glyph-name="grave" unicode="`" horiz-adv-x="330" 
d="M173 589l-123 160h123l73 -160h-73z" />
    <glyph glyph-name="a" unicode="a" horiz-adv-x="339" 
d="M198 0l0.000976562 25c-10.667 -12 -21.5 -21 -32.5 -27s-24.5 -9 -40.5 -9c-70.667 0 -106 57.667 -106 173c0 58 9.83301 101.833 29.5 131.5s49.834 44.5 90.501 44.5c13.333 0 24.666 -1.5 33.999 -4.5s17.666 -6.83301 24.999 -11.5v63c0 19.333 -3 32.833 -9 40.5
s-16.333 11.5 -31 11.5c-13.333 0 -26 -3.33301 -38 -10s-25.667 -16.667 -41 -30l-44 78c18.667 17.333 40 31.833 64 43.5s48.667 17.5 74 17.5c44.667 0 78.167 -10.5 100.5 -31.5s33.5 -57.167 33.5 -108.5v-396h-109zM198.001 239
c-5.33301 3.33301 -10.668 5.83203 -16.001 7.49902s-12.666 2.5 -21.999 2.5c-13.333 0 -23 -6.33301 -29 -19s-9 -34.667 -9 -66c0 -29.333 3 -50.666 9 -63.999s16.333 -20 31 -20c15.333 0 27.333 5.33301 36 16v143z" />
    <glyph glyph-name="b" unicode="b" horiz-adv-x="352" 
d="M325 266c0 -94 -9.00195 -163.667 -27.002 -209s-46.667 -68 -86 -68c-13.333 0 -26.166 3.16699 -38.499 9.5s-23.166 14.5 -32.499 24.5v-23h-106v682l106 47v-229c8 10 18 18.5 30 25.5s26 10.5 42 10.5c22 0 40.167 -6.16699 54.5 -18.5s25.833 -30 34.5 -53
s14.667 -51.333 18 -85s5 -71.5 5 -113.5zM217.998 262c0 34 -0.668945 62.3301 -2.00195 84.9971s-3.5 40.834 -6.5 54.501s-7 23.334 -12 29.001s-11.167 8.5 -18.5 8.5s-14.166 -1.66699 -20.499 -5s-12.166 -7.66602 -17.499 -12.999v-315
c5.33301 -5.33301 11 -9.66602 17 -12.999s13.333 -5 22 -5c6.66699 0 12.5 2.5 17.5 7.5s9 14 12 27s5.16699 30.667 6.5 53s2 51.166 2 86.499z" />
    <glyph glyph-name="c" unicode="c" horiz-adv-x="329" 
d="M310 148c-9.33301 -52 -24.8301 -91.498 -46.4971 -118.498s-51.5 -40.5 -89.5 -40.5c-22.667 0 -43.167 4.83301 -61.5 14.5s-34 25.167 -47 46.5s-23 49.166 -30 83.499s-10.5 76.166 -10.5 125.499c0 50 3.16699 92.5 9.5 127.5s15.666 63.667 27.999 86
s28 38.5 47 48.5s41.5 15 67.5 15c21.333 0 39.666 -4.16699 54.999 -12.5s28.166 -19.833 38.499 -34.5s18.5 -31.834 24.5 -51.501s10.333 -40.5 13 -62.5l-98 -27c-3.33301 30 -7.33301 52.333 -12 67s-12.667 22 -24 22c-18 0 -29.5 -14.167 -34.5 -42.5
s-7.5 -72.833 -7.5 -133.5c0 -62 2.5 -106.333 7.5 -133s16.833 -40 35.5 -40c10 0 17.833 6.33301 23.5 19s11.167 36.334 16.5 71.001l95 -30v0z" />
    <glyph glyph-name="d" unicode="d" horiz-adv-x="352" 
d="M211 0l0.00195312 25c-8 -10 -18 -18.5 -30 -25.5s-26 -10.5 -42 -10.5c-22 0 -40.167 6.16699 -54.5 18.5s-25.833 30 -34.5 53s-14.667 51.333 -18 85s-5 71.5 -5 113.5c0 94 8.83301 163.667 26.5 209s46.5 68 86.5 68c13.333 0 26.166 -3.16699 38.499 -9.5
s23.166 -14.5 32.499 -24.5v180l106 47v-729h-106zM211.002 419c-5.33301 5.33301 -11 9.66895 -17 13.002s-13.333 5 -22 5c-7.33301 0 -13.333 -2.5 -18 -7.5s-8.5 -14 -11.5 -27s-5.16699 -30.667 -6.5 -53s-2 -51.166 -2 -86.499c0 -34 0.5 -62.333 1.5 -85
s3 -40.834 6 -54.501s7.16699 -23.334 12.5 -29.001s12 -8.5 20 -8.5c7.33301 0 14 1.66699 20 5s11.667 7.66602 17 12.999v315z" />
    <glyph glyph-name="e" unicode="e" horiz-adv-x="337" 
d="M127 229c0.666992 -27.333 2 -50.3311 4 -68.998s4.83301 -33.667 8.5 -45s8.33398 -19.333 14.001 -24s12.167 -7 19.5 -7c11.333 0 19.833 5 25.5 15s12.167 28.667 19.5 56l92 -31c-6 -20 -12.833 -38.333 -20.5 -55s-16.834 -30.834 -27.501 -42.501
s-23.5 -20.834 -38.5 -27.501s-33.167 -10 -54.5 -10c-26 0 -48.167 6.5 -66.5 19.5s-33.333 31.333 -45 55s-20 52 -25 85s-7.5 69.833 -7.5 110.5c0 89.333 11.167 157.833 33.5 205.5s60.5 71.5 114.5 71.5c48 0 83.333 -23.333 106 -70s34 -115 34 -205v-32h-186z
M211 313.002c-2 88.667 -15.667 133 -41 133c-13.333 0 -23.333 -9.83301 -30 -29.5s-10.667 -54.167 -12 -103.5h83v0z" />
    <glyph glyph-name="f" unicode="f" horiz-adv-x="229" 
d="M230 622c-10 4 -22.333 6.00098 -37 6.00098c-22.667 0 -34 -13.333 -34 -40v-63h57v-99h-57v-426h-105v426h-39v99h39v78c0 41.333 10.5 72.166 31.5 92.499s46.167 30.5 75.5 30.5c17.333 0 30.833 -0.333008 40.5 -1s19.167 -2.66699 28.5 -6v-97v0z" />
    <glyph glyph-name="g" unicode="g" horiz-adv-x="352" 
d="M317 37c0 -37.333 -3.66797 -69.167 -11.001 -95.5s-19.166 -48.5 -35.499 -66.5s-37.166 -32.333 -62.499 -43s-56 -19 -92 -25l-24 84c24 4.66699 43.833 10.167 59.5 16.5s27.834 14.333 36.501 24s14.667 21.167 18 34.5s5 30 5 50v9c-8 -10 -18 -18.5 -30 -25.5
s-26 -10.5 -42 -10.5c-22 0 -40.167 6.16699 -54.5 18.5s-25.833 30 -34.5 53s-14.667 51.333 -18 85s-5 71.5 -5 113.5c0 94 8.83301 163.667 26.5 209s46.5 68 86.5 68c13.333 0 26.166 -3.16699 38.499 -9.5s23.166 -14.5 32.499 -24.5v23h106v-488v0zM210.999 418.999
c-5.33301 5.33301 -11 9.66895 -17 13.002s-13.333 5 -22 5c-7.33301 0 -13.333 -2.5 -18 -7.5s-8.5 -14 -11.5 -27s-5.16699 -30.667 -6.5 -53s-2 -51.166 -2 -86.499c0 -34 0.5 -62.333 1.5 -85s3 -40.834 6 -54.501s7.16699 -23.334 12.5 -29.001s12 -8.5 20 -8.5
c7.33301 0 14 1.66699 20 5s11.667 7.66602 17 12.999v315z" />
    <glyph glyph-name="h" unicode="h" horiz-adv-x="349" 
d="M210 0l-0.00195312 387.999c0 16.667 -1.83301 29.167 -5.5 37.5s-10.5 12.5 -20.5 12.5c-8.66699 0 -16.167 -1.5 -22.5 -4.5s-13.166 -7.16699 -20.499 -12.5v-421h-106v682l106 47v-230c10.667 10.667 22.334 19.5 35.001 26.5s28.667 10.5 48 10.5
c32 0 55.333 -9.66699 70 -29s22 -53.666 22 -102.999v-404h-106z" />
    <glyph glyph-name="i" unicode="i" horiz-adv-x="182" 
d="M153 662c0 -17.333 -6 -32.166 -18 -44.499s-26.667 -18.5 -44 -18.5s-32 6.16699 -44 18.5s-18 27.166 -18 44.499c0 18 6 33.167 18 45.5s26.667 18.5 44 18.5s32 -6.16699 44 -18.5s18 -27.5 18 -45.5zM37 0v525h107v-525h-107z" />
    <glyph glyph-name="j" unicode="j" horiz-adv-x="182" 
d="M153 662c0 -17.333 -6 -32.166 -18 -44.499s-26.667 -18.5 -44 -18.5s-32 6.16699 -44 18.5s-18 27.166 -18 44.499c0 18 6 33.167 18 45.5s26.667 18.5 44 18.5s32 -6.16699 44 -18.5s18 -27.5 18 -45.5zM144 -7c0 -34.667 -3.49902 -63.001 -10.499 -85.001
s-17.333 -39.667 -31 -53s-30.834 -23.5 -51.501 -30.5s-44.667 -12.833 -72 -17.5l-19 85c16 3.33301 29 7 39 11s17.833 9.33301 23.5 16s9.5 14.834 11.5 24.501s3 22.167 3 37.5v544h107v-532v0z" />
    <glyph glyph-name="k" unicode="k" horiz-adv-x="339" 
d="M220 0l-54.002 232l-25 -52v-180h-106v682l106 47v-256c0 -24 -0.166992 -49.5 -0.5 -76.5s-1.16602 -50.167 -2.49902 -69.5c2.66699 8.66699 6.33398 19.5 11.001 32.5l15 40l16 40.5l14 34l22 51h109l-86 -177l91 -348h-110z" />
    <glyph glyph-name="l" unicode="l" horiz-adv-x="182" 
d="M37 0v682l107 47v-729h-107z" />
    <glyph glyph-name="m" unicode="m" horiz-adv-x="518" 
d="M380 0v390c0 16 -1.66699 28 -5 36s-10 12 -20 12c-8 0 -15.333 -1.5 -22 -4.5s-13.334 -7.16699 -20.001 -12.5v-421h-106v390c0 16 -1.66699 28 -5 36s-9.66602 12 -18.999 12c-8.66699 0 -16.167 -1.5 -22.5 -4.5s-12.833 -7.16699 -19.5 -12.5v-421h-106v525h106v-26
c9.33301 10 20.333 18.667 33 26s28.667 11 48 11c21.333 0 37.833 -3 49.5 -9s22.167 -16.333 31.5 -31c14 13.333 28.5 23.333 43.5 30s31.167 10 48.5 10c31.333 0 54.333 -9.5 69 -28.5s22 -52.5 22 -100.5v-407h-106z" />
    <glyph glyph-name="n" unicode="n" horiz-adv-x="349" 
d="M210 0l-0.00195312 387.999c0 16.667 -1.83301 29.167 -5.5 37.5s-10.5 12.5 -20.5 12.5c-8.66699 0 -16.167 -1.5 -22.5 -4.5s-13.166 -7.16699 -20.499 -12.5v-421h-106v525h106v-26c10.667 10.667 22.334 19.5 35.001 26.5s28.667 10.5 48 10.5
c32 0 55.333 -9.66699 70 -29s22 -53.666 22 -102.999v-404h-106z" />
    <glyph glyph-name="o" unicode="o" horiz-adv-x="351" 
d="M326 264c0 -41.333 -2.33105 -79 -6.99805 -113s-12.834 -63 -24.501 -87s-27.334 -42.5 -47.001 -55.5s-44.167 -19.5 -73.5 -19.5c-27.333 0 -50.5 6.33301 -69.5 19s-34.333 30.834 -46 54.501s-20.167 52.167 -25.5 85.5s-8 70.666 -8 111.999
c0 40 2.16699 77 6.5 111s12.166 63.167 23.499 87.5s26.833 43.333 46.5 57s45.167 20.5 76.5 20.5c28 0 51.5 -6.5 70.5 -19.5s34.333 -31.5 46 -55.5s19.834 -52.667 24.501 -86s7 -70.333 7 -111zM220.002 261c0 58.667 -2.66699 103 -8 133s-17.333 45 -36 45
c-19.333 0 -31.5 -15.167 -36.5 -45.5s-7.5 -73.5 -7.5 -129.5c0 -28.667 0.333008 -54 1 -76s2.5 -40.5 5.5 -55.5s7.5 -26.5 13.5 -34.5s14.333 -12 25 -12c18.667 0 30.5 15.333 35.5 46s7.5 73.667 7.5 129z" />
    <glyph glyph-name="p" unicode="p" horiz-adv-x="352" 
d="M325 266c0 -94 -9.00195 -163.667 -27.002 -209s-46.667 -68 -86 -68c-13.333 0 -26.166 3.16699 -38.499 9.5s-23.166 14.5 -32.499 24.5v-168l-106 -48v718h106v-25c8 10 18 18.5 30 25.5s26 10.5 42 10.5c22 0 40.167 -6.16699 54.5 -18.5s25.833 -30 34.5 -53
s14.667 -51.333 18 -85s5 -71.5 5 -113.5zM217.998 262c0 34 -0.668945 62.3301 -2.00195 84.9971s-3.5 40.834 -6.5 54.501s-7 23.334 -12 29.001s-11.167 8.5 -18.5 8.5s-14.166 -1.66699 -20.499 -5s-12.166 -7.66602 -17.499 -12.999v-315
c5.33301 -5.33301 11 -9.66602 17 -12.999s13.333 -5 22 -5c6.66699 0 12.5 2.5 17.5 7.5s9 14 12 27s5.16699 30.667 6.5 53s2 51.166 2 86.499z" />
    <glyph glyph-name="q" unicode="q" horiz-adv-x="352" 
d="M211 -193l0.00195312 218c-8 -10 -18 -18.5 -30 -25.5s-26 -10.5 -42 -10.5c-22 0 -40.167 6.16699 -54.5 18.5s-25.833 30 -34.5 53s-14.667 51.333 -18 85s-5 71.5 -5 113.5c0 94 8.83301 163.667 26.5 209s46.5 68 86.5 68c13.333 0 26.166 -3.16699 38.499 -9.5
s23.166 -14.5 32.499 -24.5v23h106v-671zM211.002 419c-5.33301 5.33301 -11 9.66895 -17 13.002s-13.333 5 -22 5c-7.33301 0 -13.333 -2.5 -18 -7.5s-8.5 -14 -11.5 -27s-5.16699 -30.667 -6.5 -53s-2 -51.166 -2 -86.499c0 -34 0.5 -62.333 1.5 -85s3 -40.834 6 -54.501
s7.16699 -23.334 12.5 -29.001s12 -8.5 20 -8.5c7.33301 0 14 1.66699 20 5s11.667 7.66602 17 12.999v315z" />
    <glyph glyph-name="r" unicode="r" horiz-adv-x="263" 
d="M240 411c-8 6.66699 -16 11.5 -24 14.5s-17.667 4.5 -29 4.5c-18.667 0 -34 -6.66699 -46 -20v-410h-106v525h106v-26c9.33301 11.333 19.5 20.333 30.5 27s23.5 10 37.5 10c12.667 0 22 -0.833008 28 -2.5s11.667 -4.16699 17 -7.5z" />
    <glyph glyph-name="s" unicode="s" horiz-adv-x="314" 
d="M293 130c0 -45.333 -13.165 -80.1631 -39.498 -104.496s-60.166 -36.5 -101.499 -36.5c-20 0 -37.333 3.16699 -52 9.5s-27.334 15.333 -38.001 27s-19.334 25.5 -26.001 41.5s-12.334 33.667 -17.001 53l91 34c6 -24.667 12.5 -43.334 19.5 -56.001s16.167 -19 27.5 -19
s20.333 3.66699 27 11s10 17.666 10 30.999c0 10.667 -1 20.167 -3 28.5s-5.33301 16.333 -10 24s-11 15.167 -19 22.5s-18 15.666 -30 24.999c-20.667 14.667 -38 29 -52 43s-25.167 28 -33.5 42s-14.166 28.333 -17.499 43s-5 30.667 -5 48
c0 41.333 11.5 74.833 34.5 100.5s55.5 38.5 97.5 38.5c37.333 0 65.666 -10.5 84.999 -31.5s34.333 -49.833 45 -86.5l-90 -34c-5.33301 19.333 -11.333 34.5 -18 45.5s-15 16.5 -25 16.5s-17.833 -3.5 -23.5 -10.5s-8.5 -16.167 -8.5 -27.5
c0 -9.33301 1 -17.666 3 -24.999s5.5 -14.5 10.5 -21.5s11.667 -14 20 -21s18.833 -15.167 31.5 -24.5c22 -16 39.833 -31.333 53.5 -46s24.5 -29.334 32.5 -44.001s13.5 -29.834 16.5 -45.501s4.5 -32.5 4.5 -50.5z" />
    <glyph glyph-name="t" unicode="t" horiz-adv-x="251" 
d="M222 6c-11.333 -5.33301 -22.501 -9.49902 -33.501 -12.499s-23.833 -4.5 -38.5 -4.5c-65.333 0 -98 39.333 -98 118v319h-39v99h39v157l106 47v-204h69v-99h-69v-294c0 -28 9 -42 27 -42c9.33301 0 17.333 1.16699 24 3.5s14.334 6.16602 23.001 11.499z" />
    <glyph glyph-name="u" unicode="u" horiz-adv-x="349" 
d="M208 0l0.00195312 26.001c-10.667 -10.667 -22.334 -19.5 -35.001 -26.5s-28.667 -10.5 -48 -10.5c-32 0 -55.5 9.66699 -70.5 29s-22.5 53.666 -22.5 102.999v404h106v-388c0 -16.667 2 -29.167 6 -37.5s11 -12.5 21 -12.5c8.66699 0 16.167 1.5 22.5 4.5
s13.166 7.16699 20.499 12.5v421h106v-525h-106z" />
    <glyph glyph-name="v" unicode="v" horiz-adv-x="332" 
d="M220 0h-108.002l-102 525h110l20 -141c2.66699 -18 5.33398 -37.833 8.00098 -59.5s5.16699 -44 7.5 -67s4.5 -45.667 6.5 -68s3.66699 -42.5 5 -60.5c0.666992 18 2 38.167 4 60.5s4.16699 45 6.5 68s4.83301 45.333 7.5 67s5.33398 41.5 8.00098 59.5l20 141h109z" />
    <glyph glyph-name="w" unicode="w" horiz-adv-x="462" 
d="M382 0l-106.003 -0.00195312l-16 114c-6 44 -11.5 89 -16.5 135s-9.16699 86.667 -12.5 122c-3.33301 -35.333 -7.66602 -76.166 -12.999 -122.499s-11 -91.166 -17 -134.499l-16 -114h-104l-67 525h99l7 -92c1.33301 -16 2.83301 -36 4.5 -60s3.5 -48.667 5.5 -74
s3.66699 -50 5 -74s2.33301 -43.667 3 -59c0.666992 15.333 2.33398 35 5.00098 59l8.5 74.5l9 74l7.5 58.5l13 93h102l13 -93l7.5 -58.5l9 -74c3 -25.667 5.5 -50.5 7.5 -74.5l5 -59c0.666992 15.333 1.83398 35 3.50098 59s3.5 48.833 5.5 74.5s3.83301 50.5 5.5 74.5
s3.16699 43.667 4.5 59l7 92h97z" />
    <glyph glyph-name="x" unicode="x" horiz-adv-x="330" 
d="M209 0l-12.999 51.998c-2.66699 10 -5.33398 20.833 -8.00098 32.5l-8 36.5l-8 37c-2.66699 12 -5 23.333 -7 34c-4 -21.333 -8.83301 -45.166 -14.5 -71.499s-11.167 -49.166 -16.5 -68.499l-13 -52h-111l96 271l-87 254h109l6 -22
c5.33301 -19.333 10.833 -42.166 16.5 -68.499s10.5 -50.166 14.5 -71.499c3.33301 21.333 8 45.166 14 71.499s11.667 49.166 17 68.499l6 22h109l-88 -251l96 -274h-110z" />
    <glyph glyph-name="y" unicode="y" horiz-adv-x="338" 
d="M179 -185h-105.001l45 178l-109 532h110l20 -141c2.66699 -18 5.33398 -38.167 8.00098 -60.5l8 -67.5c2.66699 -22.667 5 -45 7 -67s3.66699 -42 5 -60c0.666992 18 2.16699 38 4.5 60s5 44.5 8 67.5l9 67.5l8.5 60l21 141h109z" />
    <glyph glyph-name="z" unicode="z" horiz-adv-x="301" 
d="M20 0v88l103 246l23 52.5l20 44.5c-10 -0.666992 -20.833 -1 -32.5 -1h-38.5h-61v95h240v-88l-102 -246l-22.5 -52c-8.33301 -18.667 -15.5 -33.667 -21.5 -45c10 0.666992 20.833 1 32.5 1h38.5h75v-95h-254z" />
    <glyph glyph-name="braceleft" unicode="{" horiz-adv-x="287" 
d="M266 -110c-35.333 0.666992 -64.666 4.99609 -87.999 12.9961s-42 20 -56 36s-23.833 36.167 -29.5 60.5s-8.5 52.833 -8.5 85.5v87c0 31.333 -4.5 52.666 -13.5 63.999s-20.167 17 -33.5 17h-26v95h26c13.333 0 24.5 5.66699 33.5 17s13.5 32.666 13.5 63.999v87
c0 32.667 2.83301 61.167 8.5 85.5s15.5 44.5 29.5 60.5s32.667 28 56 36s52.666 12.333 87.999 13v-89c-16 -2 -28.833 -5 -38.5 -9s-17.334 -9.5 -23.001 -16.5s-9.5 -16.333 -11.5 -28s-3 -26.167 -3 -43.5v-68c0 -23.333 -1 -43.666 -3 -60.999
s-5.83301 -32.166 -11.5 -44.499s-13.5 -22.5 -23.5 -30.5s-22.667 -14.667 -38 -20c15.333 -5.33301 28 -12.166 38 -20.499s17.833 -18.666 23.5 -30.999s9.5 -27.166 11.5 -44.499s3 -37.666 3 -60.999v-68c0 -17.333 1 -31.833 3 -43.5s5.83301 -21 11.5 -28
s13.334 -12.5 23.001 -16.5s22.5 -7 38.5 -9v-89v0z" />
    <glyph glyph-name="bar" unicode="|" horiz-adv-x="208" 
d="M52 -185v985h104v-985h-104z" />
    <glyph glyph-name="braceright" unicode="}" horiz-adv-x="287" 
d="M250 253c-13.333 0 -24.5 -5.66309 -33.5 -16.9961s-13.5 -32.666 -13.5 -63.999v-87c0 -32.667 -2.83301 -61.167 -8.5 -85.5s-15.5 -44.5 -29.5 -60.5s-32.667 -28 -56 -36s-52.666 -12.333 -87.999 -13v89c16 2 28.833 5 38.5 9s17.334 9.5 23.001 16.5
s9.5 16.333 11.5 28s3 26.167 3 43.5v68c0 23.333 1 43.666 3 60.999s5.83301 32.166 11.5 44.499s13.5 22.5 23.5 30.5s22.667 14.667 38 20c-15.333 5.33301 -28 12.166 -38 20.499s-17.833 18.666 -23.5 30.999s-9.5 27.166 -11.5 44.499s-3 37.666 -3 60.999v68
c0 17.333 -1 31.833 -3 43.5s-5.83301 21 -11.5 28s-13.334 12.5 -23.001 16.5s-22.5 7 -38.5 9v89c35.333 -0.666992 64.666 -5 87.999 -13s42 -20 56 -36s23.833 -36.167 29.5 -60.5s8.5 -52.833 8.5 -85.5v-87c0 -31.333 4.5 -52.666 13.5 -63.999s20.167 -17 33.5 -17
h26v-95h-26z" />
    <glyph glyph-name="asciitilde" unicode="~" horiz-adv-x="352" 
d="M335 434c-9.33301 -46.667 -22.166 -80.832 -38.499 -102.499s-37.833 -32.5 -64.5 -32.5c-18 0 -32.5 3.5 -43.5 10.5s-23.167 17.833 -36.5 32.5c-6 6.66699 -10.833 11.5 -14.5 14.5s-7.83398 4.5 -12.501 4.5c-3.33301 0 -6 -0.5 -8 -1.5s-4.16699 -3.66699 -6.5 -8
s-4.66602 -10.833 -6.99902 -19.5l-9.5 -35l-77 18c9.33301 46.667 22.166 80.667 38.499 102s37.833 32 64.5 32c18.667 0 33.334 -3.5 44.001 -10.5s22.667 -17.5 36 -31.5c6 -6.66699 11 -11.5 15 -14.5s8 -4.5 12 -4.5c2.66699 0 5.16699 0.5 7.5 1.5
s4.66602 3.66699 6.99902 8s4.83301 10.666 7.5 18.999s5.66699 19.833 9 34.5l77 -17v0z" />
    <glyph glyph-name="exclamdown" unicode="&#xa1;" horiz-adv-x="202" 
d="M167 645c0 -19.333 -6.16699 -35.166 -18.5 -47.499s-28.166 -18.5 -47.499 -18.5s-35 6.16699 -47 18.5s-18 28.166 -18 47.499s6 35.166 18 47.499s27.667 18.5 47 18.5s35.166 -6.16699 47.499 -18.5s18.5 -28.166 18.5 -47.499zM47 0v336l18 180h72l18 -180v-336
h-108z" />
    <glyph glyph-name="cent" unicode="&#xa2;" horiz-adv-x="329" 
d="M310 241c-6.66699 -39.333 -16.833 -71.333 -30.5 -96s-31.834 -42.334 -54.501 -53.001v-103h-106v104c-30 13.333 -53.167 40.5 -69.5 81.5s-24.5 100.167 -24.5 177.5c0 79.333 7.66699 140.166 23 182.499s39 70.166 71 83.499v96h106v-94
c25.333 -11.333 44.333 -30.666 57 -57.999s21.334 -58.666 26.001 -93.999l-98 -27c-3.33301 30 -7.33301 52.333 -12 67s-12.667 22 -24 22c-18 0 -29.5 -14.167 -34.5 -42.5s-7.5 -72.833 -7.5 -133.5c0 -62 2.5 -106.333 7.5 -133s16.833 -40 35.5 -40
c10 0 17.833 6.33301 23.5 19s11.167 36.334 16.5 71.001l95 -30v0z" />
    <glyph glyph-name="sterling" unicode="&#xa3;" horiz-adv-x="361" 
d="M232 517c-4.66699 37.333 -10.667 63.002 -18 77.002s-18.333 21 -33 21s-24.334 -6.16699 -29.001 -18.5s-7 -28.833 -7 -49.5c0 -15.333 1.5 -31.5 4.5 -48.5s6.83301 -31.833 11.5 -44.5s9 -26 13 -40s7.66699 -28.667 11 -44h82v-90h-79
c-1.33301 -39.333 -6.5 -72.5 -15.5 -99.5s-20.167 -53.833 -33.5 -80.5h192v-100h-300v99l22 42c6.66699 13.333 12.334 27 17.001 41s8.33398 29 11.001 45s4.66699 33.667 6 53h-50v90h42c-2 9.33301 -4.66699 19 -8 29s-7 20.333 -11 31
c-6 15.333 -11.333 32.166 -16 50.499s-7 38.5 -7 60.5c0 23.333 3 45.333 9 66s15 38.667 27 54s27.167 27.5 45.5 36.5s40.166 13.5 65.499 13.5c46 0 80.833 -14.833 104.5 -44.5s39.5 -73.834 47.5 -132.501z" />
    <glyph glyph-name="currency" unicode="&#xa4;" 
d="M444 233c-10 -8 -18.999 -10.0029 -26.999 -6.00293c-7.33301 6.66699 -9.33301 16.334 -6 29.001l15 47h-79v-162l47 15c13.333 3.33301 22.666 1.33301 27.999 -6c4.66699 -8 3 -17 -5 -27l-118 -144l-118 144c-7.33301 10 -9 19 -5 27c3.33301 4 7 6.5 11 7.5
s10 0.5 18 -1.5l47 -15v162h-79l14 -47c2.66699 -7.33301 3.5 -13.166 2.5 -17.499s-3.83301 -8.16602 -8.5 -11.499c-8 -4.66699 -17 -2.66699 -27 6l-144 118l144 118c10.667 7.33301 19.667 9 27 5c8.66699 -6 10.667 -15.667 6 -29l-14 -47h79v161l-47 -15
c-8 -2 -14 -2.5 -18 -1.5s-7.66699 3.5 -11 7.5c-4 8 -2.33301 17 5 27l118 144l118 -144c8 -10 9.66699 -19 5 -27c-6 -8 -15.333 -10 -28 -6l-47 15v-161h79l-15 47c-3.33301 13.333 -1.33301 23 6 29c8 4 17 2.33301 27 -5l144 -118z" />
    <glyph glyph-name="yen" unicode="&#xa5;" horiz-adv-x="363" 
d="M238 286v-71h83v-98h-83v-117h-107v117h-83v98h83v66l-124 419h122l29 -133c6 -28.667 11.667 -58.667 17 -90s9 -60 11 -86c1.33301 26 4.5 54.833 9.5 86.5s10.167 61.5 15.5 89.5l27 133h118z" />
    <glyph glyph-name="brokenbar" unicode="&#xa6;" 
d="M444 233c-10 -8 -18.999 -10.0029 -26.999 -6.00293c-7.33301 6.66699 -9.33301 16.334 -6 29.001l15 47h-79v-162l47 15c13.333 3.33301 22.666 1.33301 27.999 -6c4.66699 -8 3 -17 -5 -27l-118 -144l-118 144c-7.33301 10 -9 19 -5 27c3.33301 4 7 6.5 11 7.5
s10 0.5 18 -1.5l47 -15v162h-79l14 -47c2.66699 -7.33301 3.5 -13.166 2.5 -17.499s-3.83301 -8.16602 -8.5 -11.499c-8 -4.66699 -17 -2.66699 -27 6l-144 118l144 118c10.667 7.33301 19.667 9 27 5c8.66699 -6 10.667 -15.667 6 -29l-14 -47h79v161l-47 -15
c-8 -2 -14 -2.5 -18 -1.5s-7.66699 3.5 -11 7.5c-4 8 -2.33301 17 5 27l118 144l118 -144c8 -10 9.66699 -19 5 -27c-6 -8 -15.333 -10 -28 -6l-47 15v-161h79l-15 47c-3.33301 13.333 -1.33301 23 6 29c8 4 17 2.33301 27 -5l144 -118z" />
    <glyph glyph-name="section" unicode="&#xa7;" horiz-adv-x="385" 
d="M355 268c0 -32 -5.50098 -60.667 -16.501 -86s-25.167 -47.666 -42.5 -66.999c12 -15.333 21.5 -32.5 28.5 -51.5s10.5 -41.167 10.5 -66.5c0 -23.333 -3 -44.833 -9 -64.5s-15 -36.667 -27 -51s-27 -25.5 -45 -33.5s-39 -12 -63 -12c-44 0 -78 14 -102 42
s-40 71.333 -48 130l104 16c5.33301 -33.333 11.333 -57 18 -71s17 -21 31 -21c13.333 0 22.833 5.16699 28.5 15.5s8.5 24.833 8.5 43.5c0 20.667 -4.5 38.667 -13.5 54s-25.833 30.666 -50.5 45.999l-53 35c-16.667 11.333 -31.167 24 -43.5 38s-22 30.167 -29 48.5
s-10.5 40.5 -10.5 66.5c0 32 5.33301 60.667 16 86s24.667 47.666 42 66.999c-11.333 15.333 -20.5 32.5 -27.5 51.5s-10.5 41.167 -10.5 66.5c0 46.667 12 85.167 36 115.5s60 45.5 108 45.5c44 0 77.833 -14 101.5 -42s39.834 -71.333 48.501 -130l-104 -16
c-6 33.333 -12.167 57 -18.5 71s-16.5 21 -30.5 21c-13.333 0 -23 -5.16699 -29 -15.5s-9 -24.833 -9 -43.5c0 -20.667 4.5 -38.667 13.5 -54s26.167 -30.666 51.5 -45.999l53 -35c16.667 -11.333 31.167 -24 43.5 -38s22 -30.167 29 -48.5s10.5 -40.5 10.5 -66.5z
M250.999 256c0 26.667 -6.66797 47.834 -20.001 63.501s-32.666 30.834 -57.999 45.501c-6.66699 4 -12 7 -16 9c-15.333 -23.333 -23 -51 -23 -83c0 -26.667 6.83301 -47.834 20.5 -63.501s33.167 -30.834 58.5 -45.501c3.33301 -2 6 -3.83301 8 -5.5
s4.33301 -3.16699 7 -4.5c15.333 24.667 23 52.667 23 84z" />
    <glyph glyph-name="dieresis" unicode="&#xa8;" horiz-adv-x="330" 
d="M305 651c0 -17.333 -6 -32 -18 -44s-26.333 -18 -43 -18c-17.333 0 -32 6 -44 18s-18 26.667 -18 44c0 16.667 6 31 18 43s26.667 18 44 18c16.667 0 31 -6 43 -18s18 -26.333 18 -43zM148 651c0 -17.333 -6 -32 -18 -44s-26.333 -18 -43 -18c-17.333 0 -32 6 -44 18
s-18 26.667 -18 44c0 16.667 6 31 18 43s26.667 18 44 18c16.667 0 31 -6 43 -18s18 -26.333 18 -43z" />
    <glyph glyph-name="copyright" unicode="&#xa9;" horiz-adv-x="483" 
d="M455 350c0 -54 -4.5 -103.167 -13.5 -147.5s-22.5 -82.333 -40.5 -114s-40.333 -56.167 -67 -73.5s-57.667 -26 -93 -26s-66.333 8.66699 -93 26s-48.834 41.833 -66.501 73.5s-31 69.667 -40 114s-13.5 93.5 -13.5 147.5s4.5 103.167 13.5 147.5s22.333 82.333 40 114
s39.834 56.167 66.501 73.5s57.667 26 93 26s66.333 -8.66699 93 -26s49 -41.833 67 -73.5s31.5 -69.667 40.5 -114s13.5 -93.5 13.5 -147.5zM400 350c0 45.333 -3 86.833 -9 124.5s-15.333 70.167 -28 97.5s-29.167 48.666 -49.5 63.999s-44.5 23 -72.5 23
s-52 -7.66699 -72 -23s-36.333 -36.666 -49 -63.999s-22 -59.833 -28 -97.5s-9 -79.167 -9 -124.5s3 -86.833 9 -124.5s15.333 -70.167 28 -97.5s29 -48.666 49 -63.999s44 -23 72 -23s52.167 7.66699 72.5 23s36.833 36.666 49.5 63.999s22 59.833 28 97.5
s9 79.167 9 124.5zM330 266c-5.33301 -40 -14.3311 -69.8301 -26.998 -89.4971s-33.667 -29.5 -63 -29.5c-33.333 0 -57.166 16 -71.499 48s-21.5 84 -21.5 156c0 71.333 7.33301 123.166 22 155.499s38.667 48.5 72 48.5c30.667 0 52.167 -10.833 64.5 -32.5
s20.166 -50.834 23.499 -87.501l-65 -11c-3.33301 28 -6.33301 47 -9 57s-7.66699 15 -15 15c-5.33301 0 -9.5 -2.16699 -12.5 -6.5s-5.33301 -12 -7 -23s-2.83398 -25.667 -3.50098 -44s-1 -41.833 -1 -70.5c0 -29.333 0.333008 -53.333 1 -72s2 -33.334 4 -44.001
s4.66699 -18 8 -22s7.66602 -6 12.999 -6c6.66699 0 11.667 4.33301 15 13s6.33301 28 9 58l64 -13v0z" />
    <glyph glyph-name="ordfeminine" unicode="&#xaa;" horiz-adv-x="307" 
d="M177 282v17.998c-8 -9.33301 -16.333 -16.166 -25 -20.499s-19.667 -6.5 -33 -6.5c-56.667 0 -85 46.333 -85 139c0 46 8 81 24 105s40.333 36 73 36c10.667 0 19.667 -1.16699 27 -3.5s13.666 -5.16602 18.999 -8.49902v49c0 14.667 -2.16699 25 -6.5 31
s-12.166 9 -23.499 9s-21.833 -2.66699 -31.5 -8s-20.834 -13.333 -33.501 -24l-36 63c15.333 14 33 25.833 53 35.5s40.667 14.5 62 14.5c34.667 0 60.834 -8.33301 78.501 -25s26.5 -45.667 26.5 -87v-317h-89zM177 472.998c-4 2.66699 -8 4.66699 -12 6s-9.66699 2 -17 2
c-10.667 0 -18.167 -5.16699 -22.5 -15.5s-6.5 -27.833 -6.5 -52.5c0 -23.333 2.33301 -40.333 7 -51s12.667 -16 24 -16c10.667 0 19.667 4 27 12v115z" />
    <glyph glyph-name="guillemotleft" unicode="&#xab;" horiz-adv-x="425" 
d="M297 0l-112 262l112 263h102l-109 -262l109 -263h-102zM125 0l-112 262l112 263h102l-109 -262l109 -263h-102z" />
    <glyph glyph-name="logicalnot" unicode="&#xac;" horiz-adv-x="371" 
d="M216 233c-9.33301 -8.66699 -17.999 -10.665 -25.999 -5.99805c-4.66699 3.33301 -7.33398 7.16602 -8.00098 11.499s0 10.166 2 17.499l14 45h-176v99h176l-14 45c-4 14 -2 23.667 6 29c8 4.66699 16.667 3 26 -5l145 -118z" />
    <glyph glyph-name="minus" unicode="&#xad;" 
d="M444 233c-10 -8 -18.999 -10.0029 -26.999 -6.00293c-7.33301 6.66699 -9.33301 16.334 -6 29.001l15 47h-79v-162l47 15c13.333 3.33301 22.666 1.33301 27.999 -6c4.66699 -8 3 -17 -5 -27l-118 -144l-118 144c-7.33301 10 -9 19 -5 27c3.33301 4 7 6.5 11 7.5
s10 0.5 18 -1.5l47 -15v162h-79l14 -47c2.66699 -7.33301 3.5 -13.166 2.5 -17.499s-3.83301 -8.16602 -8.5 -11.499c-8 -4.66699 -17 -2.66699 -27 6l-144 118l144 118c10.667 7.33301 19.667 9 27 5c8.66699 -6 10.667 -15.667 6 -29l-14 -47h79v161l-47 -15
c-8 -2 -14 -2.5 -18 -1.5s-7.66699 3.5 -11 7.5c-4 8 -2.33301 17 5 27l118 144l118 -144c8 -10 9.66699 -19 5 -27c-6 -8 -15.333 -10 -28 -6l-47 15v-161h79l-15 47c-3.33301 13.333 -1.33301 23 6 29c8 4 17 2.33301 27 -5l144 -118z" />
    <glyph glyph-name="registered" unicode="&#xae;" horiz-adv-x="483" 
d="M455 350c0 -54 -4.5 -103.167 -13.5 -147.5s-22.5 -82.333 -40.5 -114s-40.333 -56.167 -67 -73.5s-57.667 -26 -93 -26s-66.333 8.66699 -93 26s-48.834 41.833 -66.501 73.5s-31 69.667 -40 114s-13.5 93.5 -13.5 147.5s4.5 103.167 13.5 147.5s22.333 82.333 40 114
s39.834 56.167 66.501 73.5s57.667 26 93 26s66.333 -8.66699 93 -26s49 -41.833 67 -73.5s31.5 -69.667 40.5 -114s13.5 -93.5 13.5 -147.5zM400 350c0 45.333 -3 86.833 -9 124.5s-15.333 70.167 -28 97.5s-29.167 48.666 -49.5 63.999s-44.5 23 -72.5 23
s-52 -7.66699 -72 -23s-36.333 -36.666 -49 -63.999s-22 -59.833 -28 -97.5s-9 -79.167 -9 -124.5s3 -86.833 9 -124.5s15.333 -70.167 28 -97.5s29 -48.666 49 -63.999s44 -23 72 -23s52.167 7.66699 72.5 23s36.833 36.666 49.5 63.999s22 59.833 28 97.5
s9 79.167 9 124.5zM272 161l-34 173.999c-1.33301 -0.666992 -3.5 -1 -6.5 -1h-6.5v-173h-66v396h84c25.333 0 47.166 -8.33301 65.499 -25s27.5 -44.667 27.5 -84c0 -22 -3.16699 -40.667 -9.5 -56s-15.166 -27.666 -26.499 -36.999l40 -194h-68zM268 445.999
c0 20.667 -2.5 35.333 -7.5 44s-13.5 13 -25.5 13h-10v-116h10c22 0 33 19.667 33 59z" />
    <glyph glyph-name="macron" unicode="&#xaf;" horiz-adv-x="330" 
d="M39 607v79h252v-79h-252z" />
    <glyph glyph-name="degree" unicode="&#xb0;" horiz-adv-x="351" 
d="M325 559c0 -22 -3.66699 -42.333 -11 -61s-17.666 -34.834 -30.999 -48.501s-29 -24.5 -47 -32.5s-38 -12 -60 -12s-42 4 -60 12s-33.667 18.833 -47 32.5s-23.666 29.834 -30.999 48.501s-11 39 -11 61c0 21.333 3.66699 41.166 11 59.499s17.666 34.333 30.999 48
s29 24.5 47 32.5s38 12 60 12s42 -4 60 -12s33.667 -18.833 47 -32.5s23.666 -29.667 30.999 -48s11 -38.166 11 -59.499zM249 559c0 23.333 -6.83301 42.333 -20.5 57s-31.167 22 -52.5 22s-38.833 -7.33301 -52.5 -22s-20.5 -33.667 -20.5 -57s6.83301 -42.833 20.5 -58.5
s31.167 -23.5 52.5 -23.5s38.833 7.83301 52.5 23.5s20.5 35.167 20.5 58.5z" />
    <glyph glyph-name="plusminus" unicode="&#xb1;" 
d="M444 233c-10 -8 -18.999 -10.0029 -26.999 -6.00293c-7.33301 6.66699 -9.33301 16.334 -6 29.001l15 47h-79v-162l47 15c13.333 3.33301 22.666 1.33301 27.999 -6c4.66699 -8 3 -17 -5 -27l-118 -144l-118 144c-7.33301 10 -9 19 -5 27c3.33301 4 7 6.5 11 7.5
s10 0.5 18 -1.5l47 -15v162h-79l14 -47c2.66699 -7.33301 3.5 -13.166 2.5 -17.499s-3.83301 -8.16602 -8.5 -11.499c-8 -4.66699 -17 -2.66699 -27 6l-144 118l144 118c10.667 7.33301 19.667 9 27 5c8.66699 -6 10.667 -15.667 6 -29l-14 -47h79v161l-47 -15
c-8 -2 -14 -2.5 -18 -1.5s-7.66699 3.5 -11 7.5c-4 8 -2.33301 17 5 27l118 144l118 -144c8 -10 9.66699 -19 5 -27c-6 -8 -15.333 -10 -28 -6l-47 15v-161h79l-15 47c-3.33301 13.333 -1.33301 23 6 29c8 4 17 2.33301 27 -5l144 -118z" />
    <glyph glyph-name="twosuperior" unicode="&#xb2;" 
d="M444 233c-10 -8 -18.999 -10.0029 -26.999 -6.00293c-7.33301 6.66699 -9.33301 16.334 -6 29.001l15 47h-79v-162l47 15c13.333 3.33301 22.666 1.33301 27.999 -6c4.66699 -8 3 -17 -5 -27l-118 -144l-118 144c-7.33301 10 -9 19 -5 27c3.33301 4 7 6.5 11 7.5
s10 0.5 18 -1.5l47 -15v162h-79l14 -47c2.66699 -7.33301 3.5 -13.166 2.5 -17.499s-3.83301 -8.16602 -8.5 -11.499c-8 -4.66699 -17 -2.66699 -27 6l-144 118l144 118c10.667 7.33301 19.667 9 27 5c8.66699 -6 10.667 -15.667 6 -29l-14 -47h79v161l-47 -15
c-8 -2 -14 -2.5 -18 -1.5s-7.66699 3.5 -11 7.5c-4 8 -2.33301 17 5 27l118 144l118 -144c8 -10 9.66699 -19 5 -27c-6 -8 -15.333 -10 -28 -6l-47 15v-161h79l-15 47c-3.33301 13.333 -1.33301 23 6 29c8 4 17 2.33301 27 -5l144 -118z" />
    <glyph glyph-name="threesuperior" unicode="&#xb3;" 
d="M444 233c-10 -8 -18.999 -10.0029 -26.999 -6.00293c-7.33301 6.66699 -9.33301 16.334 -6 29.001l15 47h-79v-162l47 15c13.333 3.33301 22.666 1.33301 27.999 -6c4.66699 -8 3 -17 -5 -27l-118 -144l-118 144c-7.33301 10 -9 19 -5 27c3.33301 4 7 6.5 11 7.5
s10 0.5 18 -1.5l47 -15v162h-79l14 -47c2.66699 -7.33301 3.5 -13.166 2.5 -17.499s-3.83301 -8.16602 -8.5 -11.499c-8 -4.66699 -17 -2.66699 -27 6l-144 118l144 118c10.667 7.33301 19.667 9 27 5c8.66699 -6 10.667 -15.667 6 -29l-14 -47h79v161l-47 -15
c-8 -2 -14 -2.5 -18 -1.5s-7.66699 3.5 -11 7.5c-4 8 -2.33301 17 5 27l118 144l118 -144c8 -10 9.66699 -19 5 -27c-6 -8 -15.333 -10 -28 -6l-47 15v-161h79l-15 47c-3.33301 13.333 -1.33301 23 6 29c8 4 17 2.33301 27 -5l144 -118z" />
    <glyph glyph-name="acute" unicode="&#xb4;" horiz-adv-x="330" 
d="M157 589h-73l73 160h123z" />
    <glyph glyph-name="mu" unicode="&#xb5;" horiz-adv-x="535" 
d="M380 233c-9.33301 -8.66699 -18.333 -10.667 -27 -6c-4 3.33301 -6.5 7.16602 -7.5 11.499s-0.5 10.166 1.5 17.499l14 45h-187l13 -45c2.66699 -7.33301 3.5 -13.166 2.5 -17.499s-3.83301 -8.16602 -8.5 -11.499c-8 -4.66699 -17 -2.66699 -27 6l-144 118l144 118
c10.667 7.33301 19.667 9 27 5c8.66699 -6 10.667 -15.667 6 -29l-13 -45h187l-14 45c-3.33301 13.333 -1.33301 23 6 29c8.66699 4 17.667 2.33301 27 -5l145 -118z" />
    <glyph glyph-name="paragraph" unicode="&#xb6;" horiz-adv-x="491" 
d="M358 -185l-0.000976562 808.002h-54v-808h-85v493h-16c-24.667 0 -47.667 4.16699 -69 12.5s-40 20.666 -56 36.999s-28.5 36.833 -37.5 61.5s-13.5 53.334 -13.5 86.001c0 32 4.83301 60.167 14.5 84.5s22.834 44.666 39.501 60.999s36.167 28.666 58.5 36.999
s45.833 12.5 70.5 12.5h234v-885h-86z" />
    <glyph glyph-name="periodcentered" unicode="&#xb7;" horiz-adv-x="205" 
d="M171 367c0 -19.333 -6.33301 -35.333 -19 -48s-28.667 -19 -48 -19s-35.333 6.33301 -48 19s-19 28.667 -19 48s6.33301 35.5 19 48.5s28.667 19.5 48 19.5s35.333 -6.5 48 -19.5s19 -29.167 19 -48.5z" />
    <glyph glyph-name="periodcentered" unicode="&#x2219;" horiz-adv-x="205" 
d="M171 367c0 -19.333 -6.33301 -35.333 -19 -48s-28.667 -19 -48 -19s-35.333 6.33301 -48 19s-19 28.667 -19 48s6.33301 35.5 19 48.5s28.667 19.5 48 19.5s35.333 -6.5 48 -19.5s19 -29.167 19 -48.5z" />
    <glyph glyph-name="cedilla" unicode="&#xb8;" horiz-adv-x="330" 
d="M254 -113c0 -28 -9.16602 -48.3359 -27.499 -61.0029s-40.5 -19 -66.5 -19c-16 0 -32 2.83301 -48 8.5s-30 12.834 -42 21.501l19 33c12.667 -7.33301 23.667 -12.833 33 -16.5s19.333 -5.5 30 -5.5c11.333 0 20.5 3.5 27.5 10.5s10.5 16.167 10.5 27.5
c0 10.667 -2.5 18.167 -7.5 22.5s-10.833 6.5 -17.5 6.5c-11.333 0 -21 -3.66699 -29 -11l-33 19l28 77h42l-18 -50c4.66699 2.66699 10.167 4.83398 16.5 6.50098s13.833 2.5 22.5 2.5c15.333 0 29.166 -6.16699 41.499 -18.5s18.5 -30.166 18.5 -53.499z" />
    <glyph glyph-name="onesuperior" unicode="&#xb9;" 
d="M444 233c-10 -8 -18.999 -10.0029 -26.999 -6.00293c-7.33301 6.66699 -9.33301 16.334 -6 29.001l15 47h-79v-162l47 15c13.333 3.33301 22.666 1.33301 27.999 -6c4.66699 -8 3 -17 -5 -27l-118 -144l-118 144c-7.33301 10 -9 19 -5 27c3.33301 4 7 6.5 11 7.5
s10 0.5 18 -1.5l47 -15v162h-79l14 -47c2.66699 -7.33301 3.5 -13.166 2.5 -17.499s-3.83301 -8.16602 -8.5 -11.499c-8 -4.66699 -17 -2.66699 -27 6l-144 118l144 118c10.667 7.33301 19.667 9 27 5c8.66699 -6 10.667 -15.667 6 -29l-14 -47h79v161l-47 -15
c-8 -2 -14 -2.5 -18 -1.5s-7.66699 3.5 -11 7.5c-4 8 -2.33301 17 5 27l118 144l118 -144c8 -10 9.66699 -19 5 -27c-6 -8 -15.333 -10 -28 -6l-47 15v-161h79l-15 47c-3.33301 13.333 -1.33301 23 6 29c8 4 17 2.33301 27 -5l144 -118z" />
    <glyph glyph-name="ordmasculine" unicode="&#xba;" horiz-adv-x="317" 
d="M280 494c0 -33.333 -2.16797 -63.6641 -6.50098 -90.9971s-11.333 -50.5 -21 -69.5s-22.334 -33.667 -38.001 -44s-35.167 -15.5 -58.5 -15.5c-21.333 0 -39.666 5 -54.999 15s-27.666 24.5 -36.999 43.5s-16.166 41.667 -20.499 68s-6.5 56.166 -6.5 89.499
c0 32 1.83301 61.667 5.5 89s10.167 50.666 19.5 69.999s21.833 34.5 37.5 45.5s35.834 16.5 60.501 16.5c22 0 40.667 -5.16699 56 -15.5s27.666 -25 36.999 -44s16.166 -41.833 20.499 -68.5s6.5 -56.334 6.5 -89.001zM191.999 491.002
c0 46.667 -2.16699 82.167 -6.5 106.5s-13.5 36.5 -27.5 36.5c-14.667 0 -23.834 -12.333 -27.501 -37s-5.5 -59 -5.5 -103c0 -46 1.66699 -81.333 5 -106s13 -37 29 -37c14.667 0 23.834 12.333 27.501 37s5.5 59 5.5 103z" />
    <glyph glyph-name="guillemotright" unicode="&#xbb;" horiz-adv-x="425" 
d="M300 0h-102l109 262l-109 263h102l112 -262zM128 0h-102l109 262l-109 263h102l112 -262z" />
    <glyph glyph-name="onequarter" unicode="&#xbc;" 
d="M444 233c-10 -8 -18.999 -10.0029 -26.999 -6.00293c-7.33301 6.66699 -9.33301 16.334 -6 29.001l15 47h-79v-162l47 15c13.333 3.33301 22.666 1.33301 27.999 -6c4.66699 -8 3 -17 -5 -27l-118 -144l-118 144c-7.33301 10 -9 19 -5 27c3.33301 4 7 6.5 11 7.5
s10 0.5 18 -1.5l47 -15v162h-79l14 -47c2.66699 -7.33301 3.5 -13.166 2.5 -17.499s-3.83301 -8.16602 -8.5 -11.499c-8 -4.66699 -17 -2.66699 -27 6l-144 118l144 118c10.667 7.33301 19.667 9 27 5c8.66699 -6 10.667 -15.667 6 -29l-14 -47h79v161l-47 -15
c-8 -2 -14 -2.5 -18 -1.5s-7.66699 3.5 -11 7.5c-4 8 -2.33301 17 5 27l118 144l118 -144c8 -10 9.66699 -19 5 -27c-6 -8 -15.333 -10 -28 -6l-47 15v-161h79l-15 47c-3.33301 13.333 -1.33301 23 6 29c8 4 17 2.33301 27 -5l144 -118z" />
    <glyph glyph-name="onehalf" unicode="&#xbd;" 
d="M444 233c-10 -8 -18.999 -10.0029 -26.999 -6.00293c-7.33301 6.66699 -9.33301 16.334 -6 29.001l15 47h-79v-162l47 15c13.333 3.33301 22.666 1.33301 27.999 -6c4.66699 -8 3 -17 -5 -27l-118 -144l-118 144c-7.33301 10 -9 19 -5 27c3.33301 4 7 6.5 11 7.5
s10 0.5 18 -1.5l47 -15v162h-79l14 -47c2.66699 -7.33301 3.5 -13.166 2.5 -17.499s-3.83301 -8.16602 -8.5 -11.499c-8 -4.66699 -17 -2.66699 -27 6l-144 118l144 118c10.667 7.33301 19.667 9 27 5c8.66699 -6 10.667 -15.667 6 -29l-14 -47h79v161l-47 -15
c-8 -2 -14 -2.5 -18 -1.5s-7.66699 3.5 -11 7.5c-4 8 -2.33301 17 5 27l118 144l118 -144c8 -10 9.66699 -19 5 -27c-6 -8 -15.333 -10 -28 -6l-47 15v-161h79l-15 47c-3.33301 13.333 -1.33301 23 6 29c8 4 17 2.33301 27 -5l144 -118z" />
    <glyph glyph-name="threequarters" unicode="&#xbe;" 
d="M444 233c-10 -8 -18.999 -10.0029 -26.999 -6.00293c-7.33301 6.66699 -9.33301 16.334 -6 29.001l15 47h-79v-162l47 15c13.333 3.33301 22.666 1.33301 27.999 -6c4.66699 -8 3 -17 -5 -27l-118 -144l-118 144c-7.33301 10 -9 19 -5 27c3.33301 4 7 6.5 11 7.5
s10 0.5 18 -1.5l47 -15v162h-79l14 -47c2.66699 -7.33301 3.5 -13.166 2.5 -17.499s-3.83301 -8.16602 -8.5 -11.499c-8 -4.66699 -17 -2.66699 -27 6l-144 118l144 118c10.667 7.33301 19.667 9 27 5c8.66699 -6 10.667 -15.667 6 -29l-14 -47h79v161l-47 -15
c-8 -2 -14 -2.5 -18 -1.5s-7.66699 3.5 -11 7.5c-4 8 -2.33301 17 5 27l118 144l118 -144c8 -10 9.66699 -19 5 -27c-6 -8 -15.333 -10 -28 -6l-47 15v-161h79l-15 47c-3.33301 13.333 -1.33301 23 6 29c8 4 17 2.33301 27 -5l144 -118z" />
    <glyph glyph-name="questiondown" unicode="&#xbf;" horiz-adv-x="327" 
d="M249 645c0 -19.333 -6 -35.166 -18 -47.499s-27.667 -18.5 -47 -18.5s-35.166 6.16699 -47.499 18.5s-18.5 28.166 -18.5 47.499s6.16699 35.166 18.5 47.499s28.166 18.5 47.499 18.5s35 -6.16699 47 -18.5s18 -28.166 18 -47.499zM317 147
c-9.33301 -49.333 -26.165 -88 -50.498 -116s-59.5 -42 -105.5 -42c-48 0 -83.833 15.167 -107.5 45.5s-35.5 69.5 -35.5 117.5c0 36.667 5.16699 68.167 15.5 94.5s26.166 53.5 47.499 81.5c11.333 16 20.5 30.333 27.5 43s12.5 25.834 16.5 39.501
s6.66699 28.834 8 45.501s2 36.667 2 60h98c0 -29.333 -0.833008 -54.833 -2.5 -76.5s-5 -41.334 -10 -59.001s-11.667 -34.334 -20 -50.001s-18.833 -32.5 -31.5 -50.5c-16 -22 -27.667 -42.167 -35 -60.5s-11 -38.833 -11 -61.5c0 -45.333 13.333 -68 40 -68
c8 0 14.667 1.5 20 4.5s10 7.83301 14 14.5s7.66699 15.5 11 26.5s6.66602 24.167 9.99902 39.5l99 -28v0z" />
    <glyph glyph-name="Agrave" unicode="&#xc0;" horiz-adv-x="367" 
d="M243 0l-19 154h-82l-18 -154h-111l111 700h120l111 -700h-112zM197 383c-3.33301 25.333 -6.5 51.667 -9.5 79s-5.16699 55 -6.5 83c-1.33301 -28 -3.33301 -55.833 -6 -83.5s-5.66699 -54.167 -9 -79.5l-15 -127h62zM152 739.001l-123 160h123l73 -160h-73z" />
    <glyph glyph-name="Aacute" unicode="&#xc1;" horiz-adv-x="367" 
d="M243 0l-19 154h-82l-18 -154h-111l111 700h120l111 -700h-112zM197 383c-3.33301 25.333 -6.5 51.667 -9.5 79s-5.16699 55 -6.5 83c-1.33301 -28 -3.33301 -55.833 -6 -83.5s-5.66699 -54.167 -9 -79.5l-15 -127h62zM216 739.001h-73l73 160h123z" />
    <glyph glyph-name="Acircumflex" unicode="&#xc2;" horiz-adv-x="367" 
d="M243 0l-19 154h-82l-18 -154h-111l111 700h120l111 -700h-112zM197 383c-3.33301 25.333 -6.5 51.667 -9.5 79s-5.16699 55 -6.5 83c-1.33301 -28 -3.33301 -55.833 -6 -83.5s-5.66699 -54.167 -9 -79.5l-15 -127h62zM233 730.001l-50 78l-50 -78h-75l87 160h78l87 -160
h-77z" />
    <glyph glyph-name="Atilde" unicode="&#xc3;" horiz-adv-x="367" 
d="M243 0l-19 154h-82l-18 -154h-111l111 700h120l111 -700h-112zM197 383c-3.33301 25.333 -6.5 51.667 -9.5 79s-5.16699 55 -6.5 83c-1.33301 -28 -3.33301 -55.833 -6 -83.5s-5.66699 -54.167 -9 -79.5l-15 -127h62zM328 865.001
c0 -45.333 -8.16699 -77.835 -24.5 -97.502s-35.833 -29.5 -58.5 -29.5c-13.333 0 -25.166 2.16699 -35.499 6.5s-21.5 11.166 -33.5 20.499c-10 8.66699 -17.667 14.834 -23 18.501s-11 5.5 -17 5.5c-7.33301 0 -13 -3.16699 -17 -9.5s-6.66699 -19.166 -8 -38.499h-71
c0 45.333 8.16699 77.833 24.5 97.5s35.833 29.5 58.5 29.5c13.333 0 25.166 -2.16699 35.499 -6.5s21.5 -11.166 33.5 -20.499c10 -8.66699 17.833 -14.834 23.5 -18.501s11.167 -5.5 16.5 -5.5c7.33301 0 13 3.33301 17 10s6.66699 19.334 8 38.001h71v0z" />
    <glyph glyph-name="Adieresis" unicode="&#xc4;" horiz-adv-x="367" 
d="M243 0l-19 154h-82l-18 -154h-111l111 700h120l111 -700h-112zM197 383c-3.33301 25.333 -6.5 51.667 -9.5 79s-5.16699 55 -6.5 83c-1.33301 -28 -3.33301 -55.833 -6 -83.5s-5.66699 -54.167 -9 -79.5l-15 -127h62zM324 801.001c0 -17.333 -6 -32 -18 -44
s-26.333 -18 -43 -18c-17.333 0 -32 6 -44 18s-18 26.667 -18 44c0 16.667 6 31 18 43s26.667 18 44 18c16.667 0 31 -6 43 -18s18 -26.333 18 -43zM167 801.001c0 -17.333 -6 -32 -18 -44s-26.333 -18 -43 -18c-17.333 0 -32 6 -44 18s-18 26.667 -18 44
c0 16.667 6 31 18 43s26.667 18 44 18c16.667 0 31 -6 43 -18s18 -26.333 18 -43z" />
    <glyph glyph-name="Aring" unicode="&#xc5;" horiz-adv-x="367" 
d="M243 0l-19 154h-82l-18 -154h-111l104 654c-22 18.667 -33 44 -33 76c0 28.667 9.33301 52.5 28 71.5s42.667 28.5 72 28.5s53.333 -9.5 72 -28.5s28 -42.833 28 -71.5c0 -32 -11 -57.333 -33 -76l104 -654h-112zM228 730c0 13.333 -4.16699 24.333 -12.5 33
s-18.833 13 -31.5 13s-23.167 -4.33301 -31.5 -13s-12.5 -19.667 -12.5 -33s4.16699 -24.5 12.5 -33.5s18.833 -13.5 31.5 -13.5s23.167 4.5 31.5 13.5s12.5 20.167 12.5 33.5zM197 383c-3.33301 25.333 -6.5 51.667 -9.5 79s-5.16699 55 -6.5 83
c-1.33301 -28 -3.33301 -55.833 -6 -83.5s-5.66699 -54.167 -9 -79.5l-15 -127h62z" />
    <glyph glyph-name="AE" unicode="&#xc6;" horiz-adv-x="522" 
d="M236 0v154h-87l-33 -154h-110l167 700h320v-104h-150v-175h115v-104h-115v-213h159v-104h-266zM238 589l-11.999 -61.5c-4.66699 -23.667 -9.33398 -46.167 -14.001 -67.5l-42 -205h66v213c0 21.333 0.166992 43.333 0.5 66s0.833008 41 1.5 55z" />
    <glyph glyph-name="Ccedilla" unicode="&#xc7;" horiz-adv-x="371" 
d="M346 199c-3.33301 -32 -7.99707 -60.6719 -13.9971 -86.0049s-14.5 -47 -25.5 -65s-24.833 -32 -41.5 -42s-37.334 -15.667 -62.001 -17l-13 -39c9.33301 6 22 9 38 9c15.333 0 29.166 -6.16699 41.499 -18.5s18.5 -30.166 18.5 -53.499
c0 -28 -9.16699 -48.333 -27.5 -61s-40.166 -19 -65.499 -19c-16.667 0 -33 2.83301 -49 8.5s-30 12.834 -42 21.501l19 33c12.667 -7.33301 23.667 -12.833 33 -16.5s19.333 -5.5 30 -5.5c12 0 21.333 3.5 28 10.5s10 16.167 10 27.5c0 10.667 -2.33301 18.167 -7 22.5
s-10.667 6.5 -18 6.5c-11.333 0 -21 -3.66699 -29 -11l-32 19l24 68c-48.667 8.66699 -82.834 41.834 -102.501 99.501s-29.5 143.5 -29.5 257.5c0 62 2.66699 115.833 8 161.5s14.333 83.5 27 113.5s29.5 52.167 50.5 66.5s46.833 21.5 77.5 21.5
c27.333 0 50.333 -5.16699 69 -15.5s33.834 -25 45.501 -44s20.334 -41.5 26.001 -67.5s9.16699 -54.667 10.5 -86l-110 -16c-2.66699 44.667 -6.66699 76.834 -12 96.501s-15.333 29.5 -30 29.5c-8.66699 0 -16 -3.16699 -22 -9.5s-10.833 -18.666 -14.5 -36.999
s-6.33398 -44.333 -8.00098 -78s-2.5 -77.5 -2.5 -131.5c0 -54.667 0.833008 -98.834 2.5 -132.501s4.5 -60 8.5 -79s9.16699 -31.833 15.5 -38.5s14.166 -10 23.499 -10c6 0 11.333 1.83301 16 5.5s8.66699 10.167 12 19.5s6.16602 21.833 8.49902 37.5
s4.5 35.834 6.5 60.501l108 -16v0z" />
    <glyph glyph-name="Egrave" unicode="&#xc8;" horiz-adv-x="336" 
d="M45 0v700h262v-104h-150v-175h115v-104h-115v-213h159v-104h-271zM153 739l-123 160h123l73 -160h-73z" />
    <glyph glyph-name="Eacute" unicode="&#xc9;" horiz-adv-x="336" 
d="M45 0v700h262v-104h-150v-175h115v-104h-115v-213h159v-104h-271zM197 739h-73l73 160h123z" />
    <glyph glyph-name="Ecircumflex" unicode="&#xca;" horiz-adv-x="336" 
d="M45 0v700h262v-104h-150v-175h115v-104h-115v-213h159v-104h-271zM224 739l-50 78l-50 -78h-75l87 160h78l87 -160h-77z" />
    <glyph glyph-name="Edieresis" unicode="&#xcb;" horiz-adv-x="336" 
d="M45 0v700h262v-104h-150v-175h115v-104h-115v-213h159v-104h-271zM315 801c0 -17.333 -6 -32 -18 -44s-26.333 -18 -43 -18c-17.333 0 -32 6 -44 18s-18 26.667 -18 44c0 16.667 6 31 18 43s26.667 18 44 18c16.667 0 31 -6 43 -18s18 -26.333 18 -43zM158 801
c0 -17.333 -6 -32 -18 -44s-26.333 -18 -43 -18c-17.333 0 -32 6 -44 18s-18 26.667 -18 44c0 16.667 6 31 18 43s26.667 18 44 18c16.667 0 31 -6 43 -18s18 -26.333 18 -43z" />
    <glyph glyph-name="Igrave" unicode="&#xcc;" horiz-adv-x="206" 
d="M47 0v700h112v-700h-112zM69 739l-123 160h123l73 -160h-73z" />
    <glyph glyph-name="Iacute" unicode="&#xcd;" horiz-adv-x="206" 
d="M47 0v700h112v-700h-112zM139 739h-73l73 160h123z" />
    <glyph glyph-name="Icircumflex" unicode="&#xce;" horiz-adv-x="206" 
d="M47 0v700h112v-700h-112zM153 736l-50 78l-50 -78h-75l87 160h78l87 -160h-77z" />
    <glyph glyph-name="Idieresis" unicode="&#xcf;" horiz-adv-x="206" 
d="M47 0v700h112v-700h-112zM244 805c0 -17.333 -6 -32 -18 -44s-26.333 -18 -43 -18c-17.333 0 -32 6 -44 18s-18 26.667 -18 44c0 16.667 6 31 18 43s26.667 18 44 18c16.667 0 31 -6 43 -18s18 -26.333 18 -43zM87 805c0 -17.333 -6 -32 -18 -44s-26.333 -18 -43 -18
c-17.333 0 -32 6 -44 18s-18 26.667 -18 44c0 16.667 6 31 18 43s26.667 18 44 18c16.667 0 31 -6 43 -18s18 -26.333 18 -43z" />
    <glyph glyph-name="Eth" unicode="&#xd0;" horiz-adv-x="398" 
d="M369 355c0 -120.667 -14.667 -210 -44 -268s-76 -87 -140 -87h-128v319h-36v94h36v287h139c34 0 62.167 -7.83301 84.5 -23.5s40 -38.167 53 -67.5s22.167 -65.5 27.5 -108.5s8 -91.5 8 -145.5zM254 354c0 51.333 -1.33691 93.168 -4.00391 125.501
s-6.66699 57.5 -12 75.5s-12.166 30.333 -20.499 37s-18.166 10 -29.499 10h-24v-189h45v-94h-45v-222h22c10.667 0 20.334 3.5 29.001 10.5s15.834 19.833 21.501 38.5s10 44.667 13 78s4.5 76.666 4.5 129.999z" />
    <glyph glyph-name="Ntilde" unicode="&#xd1;" horiz-adv-x="406" 
d="M276 0l-68 215.001l-17 56c-6 20 -11.667 40 -17 60l-15.5 56.5c-5 17.667 -9.16699 33.167 -12.5 46.5c0 -12.667 0.166992 -27.667 0.5 -45l1 -54.5l1 -57c0.333008 -19 0.5 -36.167 0.5 -51.5v-226h-104v700h101l55 -171l15.5 -48l16.5 -54
c5.33301 -18 10.333 -35.667 15 -53l12 -46c0 12 -0.166992 26.5 -0.5 43.5l-1 53l-1 53.5c-0.333008 17.333 -0.5 32.666 -0.5 45.999v176h104v-700h-85zM352 867.001c0 -45.333 -8.16699 -77.835 -24.5 -97.502s-35.833 -29.5 -58.5 -29.5
c-13.333 0 -25.166 2.16699 -35.499 6.5s-21.5 11.166 -33.5 20.499c-10 8.66699 -17.667 14.834 -23 18.501s-11 5.5 -17 5.5c-7.33301 0 -13 -3.16699 -17 -9.5s-6.66699 -19.166 -8 -38.499h-71c0 45.333 8.16699 77.833 24.5 97.5s35.833 29.5 58.5 29.5
c13.333 0 25.166 -2.16699 35.499 -6.5s21.5 -11.166 33.5 -20.499c10 -8.66699 17.833 -14.834 23.5 -18.501s11.167 -5.5 16.5 -5.5c7.33301 0 13 3.33301 17 10s6.66699 19.334 8 38.001h71v0z" />
    <glyph glyph-name="Ograve" unicode="&#xd2;" horiz-adv-x="386" 
d="M357 352c0 -61.333 -2.66895 -114.669 -8.00195 -160.002s-14.5 -83 -27.5 -113s-30.167 -52.5 -51.5 -67.5s-47.666 -22.5 -78.999 -22.5c-30.667 0 -56.334 7.33301 -77.001 22s-37.167 36.834 -49.5 66.501s-21.166 67 -26.499 112s-8 97.833 -8 158.5
s2.66699 113.834 8 159.501s14.333 83.5 27 113.5s29.334 52.5 50.001 67.5s46.667 22.5 78 22.5c62 0 104.833 -30 128.5 -90s35.5 -149.667 35.5 -269zM240.998 347.997c0 53.333 -0.833984 97 -2.50098 131s-4.5 60.5 -8.5 79.5s-9.16699 32 -15.5 39
s-13.833 10.5 -22.5 10.5c-9.33301 0 -17 -3.33301 -23 -10s-10.833 -19.5 -14.5 -38.5s-6.16699 -45.167 -7.5 -78.5s-2 -76.333 -2 -129c0 -53.333 0.833008 -97 2.5 -131s4.5 -60.5 8.5 -79.5s9 -32 15 -39s13.333 -10.5 22 -10.5s16.167 3.33301 22.5 10
s11.333 19.5 15 38.5s6.33398 45 8.00098 78s2.5 76.167 2.5 129.5zM159.997 740.997l-123 160h123l73 -160h-73z" />
    <glyph glyph-name="Oacute" unicode="&#xd3;" horiz-adv-x="386" 
d="M357 352c0 -61.333 -2.66895 -114.669 -8.00195 -160.002s-14.5 -83 -27.5 -113s-30.167 -52.5 -51.5 -67.5s-47.666 -22.5 -78.999 -22.5c-30.667 0 -56.334 7.33301 -77.001 22s-37.167 36.834 -49.5 66.501s-21.166 67 -26.499 112s-8 97.833 -8 158.5
s2.66699 113.834 8 159.501s14.333 83.5 27 113.5s29.334 52.5 50.001 67.5s46.667 22.5 78 22.5c62 0 104.833 -30 128.5 -90s35.5 -149.667 35.5 -269zM240.998 347.997c0 53.333 -0.833984 97 -2.50098 131s-4.5 60.5 -8.5 79.5s-9.16699 32 -15.5 39
s-13.833 10.5 -22.5 10.5c-9.33301 0 -17 -3.33301 -23 -10s-10.833 -19.5 -14.5 -38.5s-6.16699 -45.167 -7.5 -78.5s-2 -76.333 -2 -129c0 -53.333 0.833008 -97 2.5 -131s4.5 -60.5 8.5 -79.5s9 -32 15 -39s13.333 -10.5 22 -10.5s16.167 3.33301 22.5 10
s11.333 19.5 15 38.5s6.33398 45 8.00098 78s2.5 76.167 2.5 129.5zM222.997 740.997h-73l73 160h123z" />
    <glyph glyph-name="Ocircumflex" unicode="&#xd4;" horiz-adv-x="386" 
d="M357 352c0 -61.333 -2.66895 -114.669 -8.00195 -160.002s-14.5 -83 -27.5 -113s-30.167 -52.5 -51.5 -67.5s-47.666 -22.5 -78.999 -22.5c-30.667 0 -56.334 7.33301 -77.001 22s-37.167 36.834 -49.5 66.501s-21.166 67 -26.499 112s-8 97.833 -8 158.5
s2.66699 113.834 8 159.501s14.333 83.5 27 113.5s29.334 52.5 50.001 67.5s46.667 22.5 78 22.5c62 0 104.833 -30 128.5 -90s35.5 -149.667 35.5 -269zM240.998 347.997c0 53.333 -0.833984 97 -2.50098 131s-4.5 60.5 -8.5 79.5s-9.16699 32 -15.5 39
s-13.833 10.5 -22.5 10.5c-9.33301 0 -17 -3.33301 -23 -10s-10.833 -19.5 -14.5 -38.5s-6.16699 -45.167 -7.5 -78.5s-2 -76.333 -2 -129c0 -53.333 0.833008 -97 2.5 -131s4.5 -60.5 8.5 -79.5s9 -32 15 -39s13.333 -10.5 22 -10.5s16.167 3.33301 22.5 10
s11.333 19.5 15 38.5s6.33398 45 8.00098 78s2.5 76.167 2.5 129.5zM241.997 737.997l-50 78l-50 -78h-75l87 160h78l87 -160h-77z" />
    <glyph glyph-name="Otilde" unicode="&#xd5;" horiz-adv-x="386" 
d="M357 352c0 -61.333 -2.66895 -114.669 -8.00195 -160.002s-14.5 -83 -27.5 -113s-30.167 -52.5 -51.5 -67.5s-47.666 -22.5 -78.999 -22.5c-30.667 0 -56.334 7.33301 -77.001 22s-37.167 36.834 -49.5 66.501s-21.166 67 -26.499 112s-8 97.833 -8 158.5
s2.66699 113.834 8 159.501s14.333 83.5 27 113.5s29.334 52.5 50.001 67.5s46.667 22.5 78 22.5c62 0 104.833 -30 128.5 -90s35.5 -149.667 35.5 -269zM240.998 347.997c0 53.333 -0.833984 97 -2.50098 131s-4.5 60.5 -8.5 79.5s-9.16699 32 -15.5 39
s-13.833 10.5 -22.5 10.5c-9.33301 0 -17 -3.33301 -23 -10s-10.833 -19.5 -14.5 -38.5s-6.16699 -45.167 -7.5 -78.5s-2 -76.333 -2 -129c0 -53.333 0.833008 -97 2.5 -131s4.5 -60.5 8.5 -79.5s9 -32 15 -39s13.333 -10.5 22 -10.5s16.167 3.33301 22.5 10
s11.333 19.5 15 38.5s6.33398 45 8.00098 78s2.5 76.167 2.5 129.5zM336.997 864.997c0 -45.333 -8.16699 -77.835 -24.5 -97.502s-35.833 -29.5 -58.5 -29.5c-13.333 0 -25.166 2.16699 -35.499 6.5s-21.5 11.166 -33.5 20.499c-10 8.66699 -17.667 14.834 -23 18.501
s-11 5.5 -17 5.5c-7.33301 0 -13 -3.16699 -17 -9.5s-6.66699 -19.166 -8 -38.499h-71c0 45.333 8.16699 77.833 24.5 97.5s35.833 29.5 58.5 29.5c13.333 0 25.166 -2.16699 35.499 -6.5s21.5 -11.166 33.5 -20.499c10 -8.66699 17.833 -14.834 23.5 -18.501
s11.167 -5.5 16.5 -5.5c7.33301 0 13 3.33301 17 10s6.66699 19.334 8 38.001h71v0z" />
    <glyph glyph-name="Odieresis" unicode="&#xd6;" horiz-adv-x="386" 
d="M357 352c0 -61.333 -2.66895 -114.669 -8.00195 -160.002s-14.5 -83 -27.5 -113s-30.167 -52.5 -51.5 -67.5s-47.666 -22.5 -78.999 -22.5c-30.667 0 -56.334 7.33301 -77.001 22s-37.167 36.834 -49.5 66.501s-21.166 67 -26.499 112s-8 97.833 -8 158.5
s2.66699 113.834 8 159.501s14.333 83.5 27 113.5s29.334 52.5 50.001 67.5s46.667 22.5 78 22.5c62 0 104.833 -30 128.5 -90s35.5 -149.667 35.5 -269zM240.998 347.997c0 53.333 -0.833984 97 -2.50098 131s-4.5 60.5 -8.5 79.5s-9.16699 32 -15.5 39
s-13.833 10.5 -22.5 10.5c-9.33301 0 -17 -3.33301 -23 -10s-10.833 -19.5 -14.5 -38.5s-6.16699 -45.167 -7.5 -78.5s-2 -76.333 -2 -129c0 -53.333 0.833008 -97 2.5 -131s4.5 -60.5 8.5 -79.5s9 -32 15 -39s13.333 -10.5 22 -10.5s16.167 3.33301 22.5 10
s11.333 19.5 15 38.5s6.33398 45 8.00098 78s2.5 76.167 2.5 129.5zM332.997 800.997c0 -17.333 -6 -32 -18 -44s-26.333 -18 -43 -18c-17.333 0 -32 6 -44 18s-18 26.667 -18 44c0 16.667 6 31 18 43s26.667 18 44 18c16.667 0 31 -6 43 -18s18 -26.333 18 -43z
M175.997 800.997c0 -17.333 -6 -32 -18 -44s-26.333 -18 -43 -18c-17.333 0 -32 6 -44 18s-18 26.667 -18 44c0 16.667 6 31 18 43s26.667 18 44 18c16.667 0 31 -6 43 -18s18 -26.333 18 -43z" />
    <glyph glyph-name="multiply" unicode="&#xd7;" 
d="M444 233c-10 -8 -18.999 -10.0029 -26.999 -6.00293c-7.33301 6.66699 -9.33301 16.334 -6 29.001l15 47h-79v-162l47 15c13.333 3.33301 22.666 1.33301 27.999 -6c4.66699 -8 3 -17 -5 -27l-118 -144l-118 144c-7.33301 10 -9 19 -5 27c3.33301 4 7 6.5 11 7.5
s10 0.5 18 -1.5l47 -15v162h-79l14 -47c2.66699 -7.33301 3.5 -13.166 2.5 -17.499s-3.83301 -8.16602 -8.5 -11.499c-8 -4.66699 -17 -2.66699 -27 6l-144 118l144 118c10.667 7.33301 19.667 9 27 5c8.66699 -6 10.667 -15.667 6 -29l-14 -47h79v161l-47 -15
c-8 -2 -14 -2.5 -18 -1.5s-7.66699 3.5 -11 7.5c-4 8 -2.33301 17 5 27l118 144l118 -144c8 -10 9.66699 -19 5 -27c-6 -8 -15.333 -10 -28 -6l-47 15v-161h79l-15 47c-3.33301 13.333 -1.33301 23 6 29c8 4 17 2.33301 27 -5l144 -118z" />
    <glyph glyph-name="Oslash" unicode="&#xd8;" horiz-adv-x="386" 
d="M325 613c11.333 -30 19.498 -66.6699 24.498 -110.003s7.5 -93.666 7.5 -150.999c0 -61.333 -2.66699 -114.666 -8 -159.999s-14.5 -83 -27.5 -113s-30.167 -52.5 -51.5 -67.5s-47.666 -22.5 -78.999 -22.5c-20.667 0 -38.667 3.33301 -54 10l-15 -49h-102l41 135
c-11.333 30 -19.333 66.667 -24 110s-7 94.333 -7 153c0 60.667 2.66699 113.834 8 159.501s14.333 83.5 27 113.5s29.334 52.5 50.001 67.5s46.667 22.5 78 22.5c20 0 39 -3.66699 57 -11l15 50h102zM240.998 347.997c0 53.333 -0.833984 97 -2.50098 131
s-4.5 60.5 -8.5 79.5s-9.16699 32 -15.5 39s-13.833 10.5 -22.5 10.5c-9.33301 0 -17 -3.33301 -23 -10s-10.833 -19.5 -14.5 -38.5s-6.16699 -45.167 -7.5 -78.5s-2 -76.333 -2 -129c0 -53.333 0.833008 -97 2.5 -131s4.5 -60.5 8.5 -79.5s9 -32 15 -39
s13.333 -10.5 22 -10.5s16.167 3.33301 22.5 10s11.333 19.5 15 38.5s6.33398 45 8.00098 78s2.5 76.167 2.5 129.5z" />
    <glyph glyph-name="Ugrave" unicode="&#xd9;" horiz-adv-x="402" 
d="M359 179c0 -61.333 -12.833 -108.335 -38.5 -141.002s-65.834 -49 -120.501 -49c-50.667 0 -89.5 16.333 -116.5 49s-40.5 77.334 -40.5 134.001v528h112v-529c0 -29.333 4 -49.833 12 -61.5s19.667 -17.5 35 -17.5c16.667 0 28.334 5.83301 35.001 17.5
s10 31.834 10 60.501v530h112v-521v0zM171 736.998l-123 160h123l73 -160h-73z" />
    <glyph glyph-name="Uacute" unicode="&#xda;" horiz-adv-x="402" 
d="M359 179c0 -61.333 -12.833 -108.335 -38.5 -141.002s-65.834 -49 -120.501 -49c-50.667 0 -89.5 16.333 -116.5 49s-40.5 77.334 -40.5 134.001v528h112v-529c0 -29.333 4 -49.833 12 -61.5s19.667 -17.5 35 -17.5c16.667 0 28.334 5.83301 35.001 17.5
s10 31.834 10 60.501v530h112v-521v0zM232 736.998h-73l73 160h123z" />
    <glyph glyph-name="Ucircumflex" unicode="&#xdb;" horiz-adv-x="402" 
d="M359 179c0 -61.333 -12.833 -108.335 -38.5 -141.002s-65.834 -49 -120.501 -49c-50.667 0 -89.5 16.333 -116.5 49s-40.5 77.334 -40.5 134.001v528h112v-529c0 -29.333 4 -49.833 12 -61.5s19.667 -17.5 35 -17.5c16.667 0 28.334 5.83301 35.001 17.5
s10 31.834 10 60.501v530h112v-521v0zM250 738.998l-50 78l-50 -78h-75l87 160h78l87 -160h-77z" />
    <glyph glyph-name="Udieresis" unicode="&#xdc;" horiz-adv-x="402" 
d="M359 179c0 -61.333 -12.833 -108.335 -38.5 -141.002s-65.834 -49 -120.501 -49c-50.667 0 -89.5 16.333 -116.5 49s-40.5 77.334 -40.5 134.001v528h112v-529c0 -29.333 4 -49.833 12 -61.5s19.667 -17.5 35 -17.5c16.667 0 28.334 5.83301 35.001 17.5
s10 31.834 10 60.501v530h112v-521v0zM341 800.998c0 -17.333 -6 -32 -18 -44s-26.333 -18 -43 -18c-17.333 0 -32 6 -44 18s-18 26.667 -18 44c0 16.667 6 31 18 43s26.667 18 44 18c16.667 0 31 -6 43 -18s18 -26.333 18 -43zM184 800.998c0 -17.333 -6 -32 -18 -44
s-26.333 -18 -43 -18c-17.333 0 -32 6 -44 18s-18 26.667 -18 44c0 16.667 6 31 18 43s26.667 18 44 18c16.667 0 31 -6 43 -18s18 -26.333 18 -43z" />
    <glyph glyph-name="Yacute" unicode="&#xdd;" horiz-adv-x="368" 
d="M244 296l-0.00195312 -296h-113v291l-124 409h122l29 -133c7.33301 -33.333 13.5 -64.5 18.5 -93.5s9.16699 -56.5 12.5 -82.5c2.66699 26 6.33398 53.5 11.001 82.5s10.334 60.167 17.001 93.5l27 133h117zM220.998 743h-73l73 160h123z" />
    <glyph glyph-name="Thorn" unicode="&#xde;" horiz-adv-x="366" 
d="M349 368c0 -37.333 -4.33105 -69.1689 -12.998 -95.502s-20.334 -48 -35.001 -65s-32 -29.5 -52 -37.5s-41.333 -12 -64 -12h-29v-158h-111v700h111v-134h36c21.333 0 41.5 -3.33301 60.5 -10s35.667 -17.667 50 -33s25.666 -35.666 33.999 -60.999
s12.5 -56.666 12.5 -93.999zM236.002 362.997c0 40 -4.16699 68 -12.5 84s-22.166 24 -41.499 24h-26v-217h23c19.333 0 33.666 8.5 42.999 25.5s14 44.833 14 83.5z" />
    <glyph glyph-name="germandbls" unicode="&#xdf;" horiz-adv-x="379" 
d="M354 226c0 -39.333 -3 -73.334 -9 -102.001s-15.833 -52.167 -29.5 -70.5s-31.5 -31.833 -53.5 -40.5s-49 -13 -81 -13h-7v95h7c12 0 21.667 2 29 6s13.333 10.667 18 20s7.83398 22 9.50098 38s2.5 36 2.5 60c0 26.667 -1.16699 48.5 -3.5 65.5
s-5.83301 30.333 -10.5 40s-10.834 16.334 -18.501 20.001s-16.5 5.5 -26.5 5.5h-7v95h7c12 0 20.667 6 26 18s8 37 8 75c0 34 -2.66699 58.333 -8 73s-15.333 22 -30 22c-14 0 -23.5 -6 -28.5 -18s-7.5 -32 -7.5 -60v-700l-106 -48v743c0 60.667 13.667 105.167 41 133.5
s63 42.5 107 42.5c46 0 81.167 -15.5 105.5 -46.5s36.5 -74.5 36.5 -130.5c0 -42 -5.16699 -73.667 -15.5 -95s-22.833 -38.333 -37.5 -51c12 -5.33301 23 -12.333 33 -21s18.667 -19.667 26 -33s13 -30 17 -50s6 -44.333 6 -73z" />
    <glyph glyph-name="agrave" unicode="&#xe0;" horiz-adv-x="339" 
d="M198 0l0.000976562 25c-10.667 -12 -21.5 -21 -32.5 -27s-24.5 -9 -40.5 -9c-70.667 0 -106 57.667 -106 173c0 58 9.83301 101.833 29.5 131.5s49.834 44.5 90.501 44.5c13.333 0 24.666 -1.5 33.999 -4.5s17.666 -6.83301 24.999 -11.5v63c0 19.333 -3 32.833 -9 40.5
s-16.333 11.5 -31 11.5c-13.333 0 -26 -3.33301 -38 -10s-25.667 -16.667 -41 -30l-44 78c18.667 17.333 40 31.833 64 43.5s48.667 17.5 74 17.5c44.667 0 78.167 -10.5 100.5 -31.5s33.5 -57.167 33.5 -108.5v-396h-109zM198.001 239
c-5.33301 3.33301 -10.668 5.83203 -16.001 7.49902s-12.666 2.5 -21.999 2.5c-13.333 0 -23 -6.33301 -29 -19s-9 -34.667 -9 -66c0 -29.333 3 -50.666 9 -63.999s16.333 -20 31 -20c15.333 0 27.333 5.33301 36 16v143zM159.999 588.999l-123 160h123l73 -160h-73z" />
    <glyph glyph-name="aacute" unicode="&#xe1;" horiz-adv-x="339" 
d="M198 0l0.000976562 25c-10.667 -12 -21.5 -21 -32.5 -27s-24.5 -9 -40.5 -9c-70.667 0 -106 57.667 -106 173c0 58 9.83301 101.833 29.5 131.5s49.834 44.5 90.501 44.5c13.333 0 24.666 -1.5 33.999 -4.5s17.666 -6.83301 24.999 -11.5v63c0 19.333 -3 32.833 -9 40.5
s-16.333 11.5 -31 11.5c-13.333 0 -26 -3.33301 -38 -10s-25.667 -16.667 -41 -30l-44 78c18.667 17.333 40 31.833 64 43.5s48.667 17.5 74 17.5c44.667 0 78.167 -10.5 100.5 -31.5s33.5 -57.167 33.5 -108.5v-396h-109zM198.001 239
c-5.33301 3.33301 -10.668 5.83203 -16.001 7.49902s-12.666 2.5 -21.999 2.5c-13.333 0 -23 -6.33301 -29 -19s-9 -34.667 -9 -66c0 -29.333 3 -50.666 9 -63.999s16.333 -20 31 -20c15.333 0 27.333 5.33301 36 16v143zM192.999 588.999h-73l73 160h123z" />
    <glyph glyph-name="acircumflex" unicode="&#xe2;" horiz-adv-x="339" 
d="M198 0l0.000976562 25c-10.667 -12 -21.5 -21 -32.5 -27s-24.5 -9 -40.5 -9c-70.667 0 -106 57.667 -106 173c0 58 9.83301 101.833 29.5 131.5s49.834 44.5 90.501 44.5c13.333 0 24.666 -1.5 33.999 -4.5s17.666 -6.83301 24.999 -11.5v63c0 19.333 -3 32.833 -9 40.5
s-16.333 11.5 -31 11.5c-13.333 0 -26 -3.33301 -38 -10s-25.667 -16.667 -41 -30l-44 78c18.667 17.333 40 31.833 64 43.5s48.667 17.5 74 17.5c44.667 0 78.167 -10.5 100.5 -31.5s33.5 -57.167 33.5 -108.5v-396h-109zM198.001 239
c-5.33301 3.33301 -10.668 5.83203 -16.001 7.49902s-12.666 2.5 -21.999 2.5c-13.333 0 -23 -6.33301 -29 -19s-9 -34.667 -9 -66c0 -29.333 3 -50.666 9 -63.999s16.333 -20 31 -20c15.333 0 27.333 5.33301 36 16v143zM219.999 584.999l-50 78l-50 -78h-75l87 160h78
l87 -160h-77z" />
    <glyph glyph-name="atilde" unicode="&#xe3;" horiz-adv-x="339" 
d="M198 0l0.000976562 25c-10.667 -12 -21.5 -21 -32.5 -27s-24.5 -9 -40.5 -9c-70.667 0 -106 57.667 -106 173c0 58 9.83301 101.833 29.5 131.5s49.834 44.5 90.501 44.5c13.333 0 24.666 -1.5 33.999 -4.5s17.666 -6.83301 24.999 -11.5v63c0 19.333 -3 32.833 -9 40.5
s-16.333 11.5 -31 11.5c-13.333 0 -26 -3.33301 -38 -10s-25.667 -16.667 -41 -30l-44 78c18.667 17.333 40 31.833 64 43.5s48.667 17.5 74 17.5c44.667 0 78.167 -10.5 100.5 -31.5s33.5 -57.167 33.5 -108.5v-396h-109zM198.001 239
c-5.33301 3.33301 -10.668 5.83203 -16.001 7.49902s-12.666 2.5 -21.999 2.5c-13.333 0 -23 -6.33301 -29 -19s-9 -34.667 -9 -66c0 -29.333 3 -50.666 9 -63.999s16.333 -20 31 -20c15.333 0 27.333 5.33301 36 16v143zM317.999 714.999
c0 -45.333 -8.16699 -77.835 -24.5 -97.502s-35.833 -29.5 -58.5 -29.5c-13.333 0 -25.166 2.16699 -35.499 6.5s-21.5 11.166 -33.5 20.499c-10 8.66699 -17.667 14.834 -23 18.501s-11 5.5 -17 5.5c-7.33301 0 -13 -3.16699 -17 -9.5s-6.66699 -19.166 -8 -38.499h-71
c0 45.333 8.16699 77.833 24.5 97.5s35.833 29.5 58.5 29.5c13.333 0 25.166 -2.16699 35.499 -6.5s21.5 -11.166 33.5 -20.499c10 -8.66699 17.833 -14.834 23.5 -18.501s11.167 -5.5 16.5 -5.5c7.33301 0 13 3.33301 17 10s6.66699 19.334 8 38.001h71v0z" />
    <glyph glyph-name="adieresis" unicode="&#xe4;" horiz-adv-x="339" 
d="M198 0l0.000976562 25c-10.667 -12 -21.5 -21 -32.5 -27s-24.5 -9 -40.5 -9c-70.667 0 -106 57.667 -106 173c0 58 9.83301 101.833 29.5 131.5s49.834 44.5 90.501 44.5c13.333 0 24.666 -1.5 33.999 -4.5s17.666 -6.83301 24.999 -11.5v63c0 19.333 -3 32.833 -9 40.5
s-16.333 11.5 -31 11.5c-13.333 0 -26 -3.33301 -38 -10s-25.667 -16.667 -41 -30l-44 78c18.667 17.333 40 31.833 64 43.5s48.667 17.5 74 17.5c44.667 0 78.167 -10.5 100.5 -31.5s33.5 -57.167 33.5 -108.5v-396h-109zM198.001 239
c-5.33301 3.33301 -10.668 5.83203 -16.001 7.49902s-12.666 2.5 -21.999 2.5c-13.333 0 -23 -6.33301 -29 -19s-9 -34.667 -9 -66c0 -29.333 3 -50.666 9 -63.999s16.333 -20 31 -20c15.333 0 27.333 5.33301 36 16v143zM312.999 646.999c0 -17.333 -6 -32 -18 -44
s-26.333 -18 -43 -18c-17.333 0 -32 6 -44 18s-18 26.667 -18 44c0 16.667 6 31 18 43s26.667 18 44 18c16.667 0 31 -6 43 -18s18 -26.333 18 -43zM155.999 646.999c0 -17.333 -6 -32 -18 -44s-26.333 -18 -43 -18c-17.333 0 -32 6 -44 18s-18 26.667 -18 44
c0 16.667 6 31 18 43s26.667 18 44 18c16.667 0 31 -6 43 -18s18 -26.333 18 -43z" />
    <glyph glyph-name="aring" unicode="&#xe5;" horiz-adv-x="339" 
d="M198 0l0.000976562 25c-10.667 -12 -21.5 -21 -32.5 -27s-24.5 -9 -40.5 -9c-70.667 0 -106 57.667 -106 173c0 58 9.83301 101.833 29.5 131.5s49.834 44.5 90.501 44.5c13.333 0 24.666 -1.5 33.999 -4.5s17.666 -6.83301 24.999 -11.5v63c0 19.333 -3 32.833 -9 40.5
s-16.333 11.5 -31 11.5c-13.333 0 -26 -3.33301 -38 -10s-25.667 -16.667 -41 -30l-44 78c18.667 17.333 40 31.833 64 43.5s48.667 17.5 74 17.5c44.667 0 78.167 -10.5 100.5 -31.5s33.5 -57.167 33.5 -108.5v-396h-109zM198.001 239
c-5.33301 3.33301 -10.668 5.83203 -16.001 7.49902s-12.666 2.5 -21.999 2.5c-13.333 0 -23 -6.33301 -29 -19s-9 -34.667 -9 -66c0 -29.333 3 -50.666 9 -63.999s16.333 -20 31 -20c15.333 0 27.333 5.33301 36 16v143zM272.999 689.999
c0 -28.667 -9.33301 -52.5 -28 -71.5s-42.667 -28.5 -72 -28.5s-53.333 9.5 -72 28.5s-28 42.833 -28 71.5s9.33301 52.5 28 71.5s42.667 28.5 72 28.5s53.333 -9.5 72 -28.5s28 -42.833 28 -71.5zM216.999 689.999c0 13.333 -4.16699 24.333 -12.5 33s-18.833 13 -31.5 13
s-23.167 -4.33301 -31.5 -13s-12.5 -19.667 -12.5 -33s4.16699 -24.5 12.5 -33.5s18.833 -13.5 31.5 -13.5s23.167 4.5 31.5 13.5s12.5 20.167 12.5 33.5z" />
    <glyph glyph-name="ae" unicode="&#xe6;" horiz-adv-x="506" 
d="M296 229c0.666992 -27.333 1.99902 -50.332 3.99902 -68.999s4.83301 -33.667 8.5 -45s8.33398 -19.333 14.001 -24s12.167 -7 19.5 -7c11.333 0 19.833 5 25.5 15s12.167 28.667 19.5 56l92 -31c-6 -20 -12.833 -38.333 -20.5 -55s-16.834 -30.834 -27.501 -42.501
s-23.667 -20.834 -39 -27.501s-33.666 -10 -54.999 -10s-39.5 4.33301 -54.5 13s-27.167 20.334 -36.5 35.001c-12 -13.333 -27 -24.666 -45 -33.999s-36.667 -14 -56 -14c-46 0 -78.5 14.167 -97.5 42.5s-28.5 71.833 -28.5 130.5c0 58 9.83301 101.833 29.5 131.5
s49.834 44.5 90.501 44.5c13.333 0 24.666 -1.5 33.999 -4.5s17.666 -6.83301 24.999 -11.5v63c0 19.333 -3 32.833 -9 40.5s-16.333 11.5 -31 11.5c-13.333 0 -26 -3.33301 -38 -10s-25.667 -16.667 -41 -30l-44 78c18.667 17.333 40 31.833 64 43.5s48.667 17.5 74 17.5
c24.667 0 43.5 -4.83301 56.5 -14.5s22.5 -21.834 28.5 -36.501c8 14 19 26 33 36s31.667 15 53 15c46.667 0 81.334 -23.333 104.001 -70s34 -115 34 -205v-32h-186zM379.999 313.001c-2 88.667 -15.667 133 -41 133c-13.333 0 -23.333 -9.83301 -30 -29.5
s-10.667 -54.167 -12 -103.5h83v0zM210.999 103.001c-4.66699 18 -8.16699 38.834 -10.5 62.501s-3.83301 48.5 -4.5 74.5c-5.33301 3.33301 -10.5 5.66602 -15.5 6.99902s-11.833 2 -20.5 2c-13.333 0 -23 -6.33301 -29 -19s-9 -34.667 -9 -66
c0 -30 3.33301 -51.5 10 -64.5s17.667 -19.5 33 -19.5c8 0 16 2.33301 24 7s15.333 10 22 16z" />
    <glyph glyph-name="ccedilla" unicode="&#xe7;" horiz-adv-x="329" 
d="M310 148c-8.66699 -50 -23.1641 -88.5 -43.4971 -115.5s-48.5 -41.5 -84.5 -43.5l-14 -38c4.66699 2.66699 10.167 4.83398 16.5 6.50098s13.833 2.5 22.5 2.5c15.333 0 29.166 -6.33301 41.499 -19s18.5 -30.667 18.5 -54c0 -27.333 -9.16699 -47.5 -27.5 -60.5
s-40.5 -19.5 -66.5 -19.5c-16.667 0 -33 3 -49 9s-30 13.333 -42 22l19 33c12.667 -8 23.667 -13.667 33 -17s19.333 -5 30 -5c11.333 0 20.5 3.33301 27.5 10s10.5 15.667 10.5 27c0 10.667 -2.5 18.167 -7.5 22.5s-10.833 6.5 -17.5 6.5
c-9.33301 0 -18.666 -3.66699 -27.999 -11l-34 20l25 69c-18 4 -34 12 -48 24s-26 28.833 -36 50.5s-17.667 48.167 -23 79.5s-8 68.666 -8 111.999c0 50 3.16699 92.5 9.5 127.5s15.666 63.667 27.999 86s28 38.5 47 48.5s41.5 15 67.5 15
c21.333 0 39.666 -4.16699 54.999 -12.5s28.166 -19.833 38.499 -34.5s18.5 -31.834 24.5 -51.501s10.333 -40.5 13 -62.5l-98 -27c-3.33301 30 -7.33301 52.333 -12 67s-12.667 22 -24 22c-18 0 -29.5 -14.167 -34.5 -42.5s-7.5 -72.833 -7.5 -133.5
c0 -62 2.5 -106.333 7.5 -133s16.833 -40 35.5 -40c10 0 17.833 6.33301 23.5 19s11.167 36.334 16.5 71.001l95 -30v0z" />
    <glyph glyph-name="egrave" unicode="&#xe8;" horiz-adv-x="337" 
d="M127 229c0.666992 -27.333 2 -50.3311 4 -68.998s4.83301 -33.667 8.5 -45s8.33398 -19.333 14.001 -24s12.167 -7 19.5 -7c11.333 0 19.833 5 25.5 15s12.167 28.667 19.5 56l92 -31c-6 -20 -12.833 -38.333 -20.5 -55s-16.834 -30.834 -27.501 -42.501
s-23.5 -20.834 -38.5 -27.501s-33.167 -10 -54.5 -10c-26 0 -48.167 6.5 -66.5 19.5s-33.333 31.333 -45 55s-20 52 -25 85s-7.5 69.833 -7.5 110.5c0 89.333 11.167 157.833 33.5 205.5s60.5 71.5 114.5 71.5c48 0 83.333 -23.333 106 -70s34 -115 34 -205v-32h-186z
M211 313.002c-2 88.667 -15.667 133 -41 133c-13.333 0 -23.333 -9.83301 -30 -29.5s-10.667 -54.167 -12 -103.5h83v0zM146 589.002l-123 160h123l73 -160h-73z" />
    <glyph glyph-name="eacute" unicode="&#xe9;" horiz-adv-x="337" 
d="M127 229c0.666992 -27.333 2 -50.3311 4 -68.998s4.83301 -33.667 8.5 -45s8.33398 -19.333 14.001 -24s12.167 -7 19.5 -7c11.333 0 19.833 5 25.5 15s12.167 28.667 19.5 56l92 -31c-6 -20 -12.833 -38.333 -20.5 -55s-16.834 -30.834 -27.501 -42.501
s-23.5 -20.834 -38.5 -27.501s-33.167 -10 -54.5 -10c-26 0 -48.167 6.5 -66.5 19.5s-33.333 31.333 -45 55s-20 52 -25 85s-7.5 69.833 -7.5 110.5c0 89.333 11.167 157.833 33.5 205.5s60.5 71.5 114.5 71.5c48 0 83.333 -23.333 106 -70s34 -115 34 -205v-32h-186z
M211 313.002c-2 88.667 -15.667 133 -41 133c-13.333 0 -23.333 -9.83301 -30 -29.5s-10.667 -54.167 -12 -103.5h83v0zM193 589.002h-73l73 160h123z" />
    <glyph glyph-name="ecircumflex" unicode="&#xea;" horiz-adv-x="337" 
d="M127 229c0.666992 -27.333 2 -50.3311 4 -68.998s4.83301 -33.667 8.5 -45s8.33398 -19.333 14.001 -24s12.167 -7 19.5 -7c11.333 0 19.833 5 25.5 15s12.167 28.667 19.5 56l92 -31c-6 -20 -12.833 -38.333 -20.5 -55s-16.834 -30.834 -27.501 -42.501
s-23.5 -20.834 -38.5 -27.501s-33.167 -10 -54.5 -10c-26 0 -48.167 6.5 -66.5 19.5s-33.333 31.333 -45 55s-20 52 -25 85s-7.5 69.833 -7.5 110.5c0 89.333 11.167 157.833 33.5 205.5s60.5 71.5 114.5 71.5c48 0 83.333 -23.333 106 -70s34 -115 34 -205v-32h-186z
M211 313.002c-2 88.667 -15.667 133 -41 133c-13.333 0 -23.333 -9.83301 -30 -29.5s-10.667 -54.167 -12 -103.5h83v0zM219 580.002l-50 78l-50 -78h-75l87 160h78l87 -160h-77z" />
    <glyph glyph-name="edieresis" unicode="&#xeb;" horiz-adv-x="337" 
d="M127 229c0.666992 -27.333 2 -50.3311 4 -68.998s4.83301 -33.667 8.5 -45s8.33398 -19.333 14.001 -24s12.167 -7 19.5 -7c11.333 0 19.833 5 25.5 15s12.167 28.667 19.5 56l92 -31c-6 -20 -12.833 -38.333 -20.5 -55s-16.834 -30.834 -27.501 -42.501
s-23.5 -20.834 -38.5 -27.501s-33.167 -10 -54.5 -10c-26 0 -48.167 6.5 -66.5 19.5s-33.333 31.333 -45 55s-20 52 -25 85s-7.5 69.833 -7.5 110.5c0 89.333 11.167 157.833 33.5 205.5s60.5 71.5 114.5 71.5c48 0 83.333 -23.333 106 -70s34 -115 34 -205v-32h-186z
M211 313.002c-2 88.667 -15.667 133 -41 133c-13.333 0 -23.333 -9.83301 -30 -29.5s-10.667 -54.167 -12 -103.5h83v0zM310 647.002c0 -17.333 -6 -32 -18 -44s-26.333 -18 -43 -18c-17.333 0 -32 6 -44 18s-18 26.667 -18 44c0 16.667 6 31 18 43s26.667 18 44 18
c16.667 0 31 -6 43 -18s18 -26.333 18 -43zM153 647.002c0 -17.333 -6 -32 -18 -44s-26.333 -18 -43 -18c-17.333 0 -32 6 -44 18s-18 26.667 -18 44c0 16.667 6 31 18 43s26.667 18 44 18c16.667 0 31 -6 43 -18s18 -26.333 18 -43z" />
    <glyph glyph-name="igrave" unicode="&#xec;" horiz-adv-x="182" 
d="M37 0v525h107v-525h-107zM57 589l-123 160h123l73 -160h-73z" />
    <glyph glyph-name="iacute" unicode="&#xed;" horiz-adv-x="182" 
d="M37 0v525h107v-525h-107zM127 589h-73l73 160h123z" />
    <glyph glyph-name="icircumflex" unicode="&#xee;" horiz-adv-x="182" 
d="M37 0v525h107v-525h-107zM141 575l-50 78l-50 -78h-75l87 160h78l87 -160h-77z" />
    <glyph glyph-name="idieresis" unicode="&#xef;" horiz-adv-x="182" 
d="M37 0v525h107v-525h-107zM232 658c0 -17.333 -6 -32 -18 -44s-26.333 -18 -43 -18c-17.333 0 -32 6 -44 18s-18 26.667 -18 44c0 16.667 6 31 18 43s26.667 18 44 18c16.667 0 31 -6 43 -18s18 -26.333 18 -43zM75 658c0 -17.333 -6 -32 -18 -44s-26.333 -18 -43 -18
c-17.333 0 -32 6 -44 18s-18 26.667 -18 44c0 16.667 6 31 18 43s26.667 18 44 18c16.667 0 31 -6 43 -18s18 -26.333 18 -43z" />
    <glyph glyph-name="eth" unicode="&#xf0;" horiz-adv-x="349" 
d="M326 277c0 -51.333 -2.83301 -95.1699 -8.5 -131.503s-14.5 -66.166 -26.5 -89.499s-27.667 -40.333 -47 -51s-42.666 -16 -69.999 -16c-51.333 0 -89 22 -113 66s-36 104 -36 180c0 36.667 2.83301 70.5 8.5 101.5s14 57.5 25 79.5s25 39.167 42 51.5
s37.167 18.5 60.5 18.5c20 0 36.333 -4.16699 49 -12.5s23.667 -21.5 33 -39.5c-6 48.667 -20 89.334 -42 122.001l-40 -42l-49 47l40 42c-9.33301 6 -19.5 11.167 -30.5 15.5s-23.167 7.5 -36.5 9.5v83c50.667 -4.66699 92.667 -19.667 126 -45l43 45l48 -47l-45 -48
c25.333 -36 43.166 -82.167 53.499 -138.5s15.5 -123.166 15.5 -200.499zM220 235.996c0 57.333 -3.49902 97 -10.499 119s-18.5 33 -34.5 33c-16.667 0 -28 -11.167 -34 -33.5s-9 -61.166 -9 -116.499c0 -56.667 3.16699 -96.167 9.5 -118.5s18.166 -33.5 35.499 -33.5
c15.333 0 26.333 11.167 33 33.5s10 61.166 10 116.499z" />
    <glyph glyph-name="ntilde" unicode="&#xf1;" horiz-adv-x="349" 
d="M210 0l-0.00195312 387.999c0 16.667 -1.83301 29.167 -5.5 37.5s-10.5 12.5 -20.5 12.5c-8.66699 0 -16.167 -1.5 -22.5 -4.5s-13.166 -7.16699 -20.499 -12.5v-421h-106v525h106v-26c10.667 10.667 22.334 19.5 35.001 26.5s28.667 10.5 48 10.5
c32 0 55.333 -9.66699 70 -29s22 -53.666 22 -102.999v-404h-106zM321.998 714.999c0 -45.333 -8.16699 -77.835 -24.5 -97.502s-35.833 -29.5 -58.5 -29.5c-13.333 0 -25.166 2.16699 -35.499 6.5s-21.5 11.166 -33.5 20.499c-10 8.66699 -17.667 14.834 -23 18.501
s-11 5.5 -17 5.5c-7.33301 0 -13 -3.16699 -17 -9.5s-6.66699 -19.166 -8 -38.499h-71c0 45.333 8.16699 77.833 24.5 97.5s35.833 29.5 58.5 29.5c13.333 0 25.166 -2.16699 35.499 -6.5s21.5 -11.166 33.5 -20.499c10 -8.66699 17.833 -14.834 23.5 -18.501
s11.167 -5.5 16.5 -5.5c7.33301 0 13 3.33301 17 10s6.66699 19.334 8 38.001h71v0z" />
    <glyph glyph-name="ograve" unicode="&#xf2;" horiz-adv-x="351" 
d="M326 264c0 -41.333 -2.33105 -79 -6.99805 -113s-12.834 -63 -24.501 -87s-27.334 -42.5 -47.001 -55.5s-44.167 -19.5 -73.5 -19.5c-27.333 0 -50.5 6.33301 -69.5 19s-34.333 30.834 -46 54.501s-20.167 52.167 -25.5 85.5s-8 70.666 -8 111.999
c0 40 2.16699 77 6.5 111s12.166 63.167 23.499 87.5s26.833 43.333 46.5 57s45.167 20.5 76.5 20.5c28 0 51.5 -6.5 70.5 -19.5s34.333 -31.5 46 -55.5s19.834 -52.667 24.501 -86s7 -70.333 7 -111zM220.002 261c0 58.667 -2.66699 103 -8 133s-17.333 45 -36 45
c-19.333 0 -31.5 -15.167 -36.5 -45.5s-7.5 -73.5 -7.5 -129.5c0 -28.667 0.333008 -54 1 -76s2.5 -40.5 5.5 -55.5s7.5 -26.5 13.5 -34.5s14.333 -12 25 -12c18.667 0 30.5 15.333 35.5 46s7.5 73.667 7.5 129zM145.002 589l-123 160h123l73 -160h-73z" />
    <glyph glyph-name="oacute" unicode="&#xf3;" horiz-adv-x="351" 
d="M326 264c0 -41.333 -2.33105 -79 -6.99805 -113s-12.834 -63 -24.501 -87s-27.334 -42.5 -47.001 -55.5s-44.167 -19.5 -73.5 -19.5c-27.333 0 -50.5 6.33301 -69.5 19s-34.333 30.834 -46 54.501s-20.167 52.167 -25.5 85.5s-8 70.666 -8 111.999
c0 40 2.16699 77 6.5 111s12.166 63.167 23.499 87.5s26.833 43.333 46.5 57s45.167 20.5 76.5 20.5c28 0 51.5 -6.5 70.5 -19.5s34.333 -31.5 46 -55.5s19.834 -52.667 24.501 -86s7 -70.333 7 -111zM220.002 261c0 58.667 -2.66699 103 -8 133s-17.333 45 -36 45
c-19.333 0 -31.5 -15.167 -36.5 -45.5s-7.5 -73.5 -7.5 -129.5c0 -28.667 0.333008 -54 1 -76s2.5 -40.5 5.5 -55.5s7.5 -26.5 13.5 -34.5s14.333 -12 25 -12c18.667 0 30.5 15.333 35.5 46s7.5 73.667 7.5 129zM206.002 589h-73l73 160h123z" />
    <glyph glyph-name="ocircumflex" unicode="&#xf4;" horiz-adv-x="351" 
d="M326 264c0 -41.333 -2.33105 -79 -6.99805 -113s-12.834 -63 -24.501 -87s-27.334 -42.5 -47.001 -55.5s-44.167 -19.5 -73.5 -19.5c-27.333 0 -50.5 6.33301 -69.5 19s-34.333 30.834 -46 54.501s-20.167 52.167 -25.5 85.5s-8 70.666 -8 111.999
c0 40 2.16699 77 6.5 111s12.166 63.167 23.499 87.5s26.833 43.333 46.5 57s45.167 20.5 76.5 20.5c28 0 51.5 -6.5 70.5 -19.5s34.333 -31.5 46 -55.5s19.834 -52.667 24.501 -86s7 -70.333 7 -111zM220.002 261c0 58.667 -2.66699 103 -8 133s-17.333 45 -36 45
c-19.333 0 -31.5 -15.167 -36.5 -45.5s-7.5 -73.5 -7.5 -129.5c0 -28.667 0.333008 -54 1 -76s2.5 -40.5 5.5 -55.5s7.5 -26.5 13.5 -34.5s14.333 -12 25 -12c18.667 0 30.5 15.333 35.5 46s7.5 73.667 7.5 129zM224.002 580l-50 78l-50 -78h-75l87 160h78l87 -160h-77z" />
    <glyph glyph-name="otilde" unicode="&#xf5;" horiz-adv-x="351" 
d="M326 264c0 -41.333 -2.33105 -79 -6.99805 -113s-12.834 -63 -24.501 -87s-27.334 -42.5 -47.001 -55.5s-44.167 -19.5 -73.5 -19.5c-27.333 0 -50.5 6.33301 -69.5 19s-34.333 30.834 -46 54.501s-20.167 52.167 -25.5 85.5s-8 70.666 -8 111.999
c0 40 2.16699 77 6.5 111s12.166 63.167 23.499 87.5s26.833 43.333 46.5 57s45.167 20.5 76.5 20.5c28 0 51.5 -6.5 70.5 -19.5s34.333 -31.5 46 -55.5s19.834 -52.667 24.501 -86s7 -70.333 7 -111zM220.002 261c0 58.667 -2.66699 103 -8 133s-17.333 45 -36 45
c-19.333 0 -31.5 -15.167 -36.5 -45.5s-7.5 -73.5 -7.5 -129.5c0 -28.667 0.333008 -54 1 -76s2.5 -40.5 5.5 -55.5s7.5 -26.5 13.5 -34.5s14.333 -12 25 -12c18.667 0 30.5 15.333 35.5 46s7.5 73.667 7.5 129zM320.002 715c0 -45.333 -8.16699 -77.835 -24.5 -97.502
s-35.833 -29.5 -58.5 -29.5c-13.333 0 -25.166 2.16699 -35.499 6.5s-21.5 11.166 -33.5 20.499c-10 8.66699 -17.667 14.834 -23 18.501s-11 5.5 -17 5.5c-7.33301 0 -13 -3.16699 -17 -9.5s-6.66699 -19.166 -8 -38.499h-71c0 45.333 8.16699 77.833 24.5 97.5
s35.833 29.5 58.5 29.5c13.333 0 25.166 -2.16699 35.499 -6.5s21.5 -11.166 33.5 -20.499c10 -8.66699 17.833 -14.834 23.5 -18.501s11.167 -5.5 16.5 -5.5c7.33301 0 13 3.33301 17 10s6.66699 19.334 8 38.001h71v0z" />
    <glyph glyph-name="odieresis" unicode="&#xf6;" horiz-adv-x="351" 
d="M326 264c0 -41.333 -2.33105 -79 -6.99805 -113s-12.834 -63 -24.501 -87s-27.334 -42.5 -47.001 -55.5s-44.167 -19.5 -73.5 -19.5c-27.333 0 -50.5 6.33301 -69.5 19s-34.333 30.834 -46 54.501s-20.167 52.167 -25.5 85.5s-8 70.666 -8 111.999
c0 40 2.16699 77 6.5 111s12.166 63.167 23.499 87.5s26.833 43.333 46.5 57s45.167 20.5 76.5 20.5c28 0 51.5 -6.5 70.5 -19.5s34.333 -31.5 46 -55.5s19.834 -52.667 24.501 -86s7 -70.333 7 -111zM220.002 261c0 58.667 -2.66699 103 -8 133s-17.333 45 -36 45
c-19.333 0 -31.5 -15.167 -36.5 -45.5s-7.5 -73.5 -7.5 -129.5c0 -28.667 0.333008 -54 1 -76s2.5 -40.5 5.5 -55.5s7.5 -26.5 13.5 -34.5s14.333 -12 25 -12c18.667 0 30.5 15.333 35.5 46s7.5 73.667 7.5 129zM316.002 642c0 -17.333 -6 -32 -18 -44s-26.333 -18 -43 -18
c-17.333 0 -32 6 -44 18s-18 26.667 -18 44c0 16.667 6 31 18 43s26.667 18 44 18c16.667 0 31 -6 43 -18s18 -26.333 18 -43zM159.002 642c0 -17.333 -6 -32 -18 -44s-26.333 -18 -43 -18c-17.333 0 -32 6 -44 18s-18 26.667 -18 44c0 16.667 6 31 18 43s26.667 18 44 18
c16.667 0 31 -6 43 -18s18 -26.333 18 -43z" />
    <glyph glyph-name="divide" unicode="&#xf7;" 
d="M444 233c-10 -8 -18.999 -10.0029 -26.999 -6.00293c-7.33301 6.66699 -9.33301 16.334 -6 29.001l15 47h-79v-162l47 15c13.333 3.33301 22.666 1.33301 27.999 -6c4.66699 -8 3 -17 -5 -27l-118 -144l-118 144c-7.33301 10 -9 19 -5 27c3.33301 4 7 6.5 11 7.5
s10 0.5 18 -1.5l47 -15v162h-79l14 -47c2.66699 -7.33301 3.5 -13.166 2.5 -17.499s-3.83301 -8.16602 -8.5 -11.499c-8 -4.66699 -17 -2.66699 -27 6l-144 118l144 118c10.667 7.33301 19.667 9 27 5c8.66699 -6 10.667 -15.667 6 -29l-14 -47h79v161l-47 -15
c-8 -2 -14 -2.5 -18 -1.5s-7.66699 3.5 -11 7.5c-4 8 -2.33301 17 5 27l118 144l118 -144c8 -10 9.66699 -19 5 -27c-6 -8 -15.333 -10 -28 -6l-47 15v-161h79l-15 47c-3.33301 13.333 -1.33301 23 6 29c8 4 17 2.33301 27 -5l144 -118z" />
    <glyph glyph-name="oslash" unicode="&#xf8;" horiz-adv-x="349" 
d="M295 461c11.333 -24 19.335 -52.668 24.002 -86.001s7 -70.333 7 -111c0 -41.333 -2.33301 -79 -7 -113s-12.834 -63 -24.501 -87s-27.334 -42.5 -47.001 -55.5s-44.167 -19.5 -73.5 -19.5c-17.333 0 -33.333 2.66699 -48 8l-17 -47h-94l42 115
c-11.333 24 -19.5 52.333 -24.5 85s-7.5 69.334 -7.5 110.001c0 40 2.16699 77 6.5 111s12.166 63.167 23.499 87.5s26.833 43.333 46.5 57s45.167 20.5 76.5 20.5c16.667 0 32.334 -2.66699 47.001 -8l17 47h94zM220.002 260.999c0 58.667 -2.66699 103 -8 133
s-17.333 45 -36 45c-19.333 0 -31.5 -15.167 -36.5 -45.5s-7.5 -73.5 -7.5 -129.5c0 -28.667 0.333008 -54 1 -76s2.5 -40.5 5.5 -55.5s7.5 -26.5 13.5 -34.5s14.333 -12 25 -12c18.667 0 30.5 15.333 35.5 46s7.5 73.667 7.5 129z" />
    <glyph glyph-name="ugrave" unicode="&#xf9;" horiz-adv-x="349" 
d="M208 0l0.00195312 26.001c-10.667 -10.667 -22.334 -19.5 -35.001 -26.5s-28.667 -10.5 -48 -10.5c-32 0 -55.5 9.66699 -70.5 29s-22.5 53.666 -22.5 102.999v404h106v-388c0 -16.667 2 -29.167 6 -37.5s11 -12.5 21 -12.5c8.66699 0 16.167 1.5 22.5 4.5
s13.166 7.16699 20.499 12.5v421h106v-525h-106zM145.002 589.001l-123 160h123l73 -160h-73z" />
    <glyph glyph-name="uacute" unicode="&#xfa;" horiz-adv-x="349" 
d="M208 0l0.00195312 26.001c-10.667 -10.667 -22.334 -19.5 -35.001 -26.5s-28.667 -10.5 -48 -10.5c-32 0 -55.5 9.66699 -70.5 29s-22.5 53.666 -22.5 102.999v404h106v-388c0 -16.667 2 -29.167 6 -37.5s11 -12.5 21 -12.5c8.66699 0 16.167 1.5 22.5 4.5
s13.166 7.16699 20.499 12.5v421h106v-525h-106zM206.002 589.001h-73l73 160h123z" />
    <glyph glyph-name="ucircumflex" unicode="&#xfb;" horiz-adv-x="349" 
d="M208 0l0.00195312 26.001c-10.667 -10.667 -22.334 -19.5 -35.001 -26.5s-28.667 -10.5 -48 -10.5c-32 0 -55.5 9.66699 -70.5 29s-22.5 53.666 -22.5 102.999v404h106v-388c0 -16.667 2 -29.167 6 -37.5s11 -12.5 21 -12.5c8.66699 0 16.167 1.5 22.5 4.5
s13.166 7.16699 20.499 12.5v421h106v-525h-106zM222.002 589.001l-50 78l-50 -78h-75l87 160h78l87 -160h-77z" />
    <glyph glyph-name="udieresis" unicode="&#xfc;" horiz-adv-x="349" 
d="M208 0l0.00195312 26.001c-10.667 -10.667 -22.334 -19.5 -35.001 -26.5s-28.667 -10.5 -48 -10.5c-32 0 -55.5 9.66699 -70.5 29s-22.5 53.666 -22.5 102.999v404h106v-388c0 -16.667 2 -29.167 6 -37.5s11 -12.5 21 -12.5c8.66699 0 16.167 1.5 22.5 4.5
s13.166 7.16699 20.499 12.5v421h106v-525h-106zM313.002 651.001c0 -17.333 -6 -32 -18 -44s-26.333 -18 -43 -18c-17.333 0 -32 6 -44 18s-18 26.667 -18 44c0 16.667 6 31 18 43s26.667 18 44 18c16.667 0 31 -6 43 -18s18 -26.333 18 -43zM156.002 651.001
c0 -17.333 -6 -32 -18 -44s-26.333 -18 -43 -18c-17.333 0 -32 6 -44 18s-18 26.667 -18 44c0 16.667 6 31 18 43s26.667 18 44 18c16.667 0 31 -6 43 -18s18 -26.333 18 -43z" />
    <glyph glyph-name="yacute" unicode="&#xfd;" horiz-adv-x="338" 
d="M179 -185h-105.001l45 178l-109 532h110l20 -141c2.66699 -18 5.33398 -38.167 8.00098 -60.5l8 -67.5c2.66699 -22.667 5 -45 7 -67s3.66699 -42 5 -60c0.666992 18 2.16699 38 4.5 60s5 44.5 8 67.5l9 67.5l8.5 60l21 141h109zM201.999 580h-73l73 160h123z" />
    <glyph glyph-name="thorn" unicode="&#xfe;" horiz-adv-x="352" 
d="M325 266c0 -94 -9.00195 -163.667 -27.002 -209s-46.667 -68 -86 -68c-13.333 0 -26.166 3.16699 -38.499 9.5s-23.166 14.5 -32.499 24.5v-168l-106 -48v875l106 47v-229c8 10 18 18.5 30 25.5s26 10.5 42 10.5c22 0 40.167 -6.16699 54.5 -18.5s25.833 -30 34.5 -53
s14.667 -51.333 18 -85s5 -71.5 5 -113.5zM217.998 262c0 34 -0.668945 62.3301 -2.00195 84.9971s-3.5 40.834 -6.5 54.501s-7 23.334 -12 29.001s-11.167 8.5 -18.5 8.5s-14.166 -1.66699 -20.499 -5s-12.166 -7.66602 -17.499 -12.999v-315
c5.33301 -5.33301 11 -9.66602 17 -12.999s13.333 -5 22 -5c6.66699 0 12.5 2.5 17.5 7.5s9 14 12 27s5.16699 30.667 6.5 53s2 51.166 2 86.499z" />
    <glyph glyph-name="ydieresis" unicode="&#xff;" horiz-adv-x="338" 
d="M179 -185h-105.001l45 178l-109 532h110l20 -141c2.66699 -18 5.33398 -38.167 8.00098 -60.5l8 -67.5c2.66699 -22.667 5 -45 7 -67s3.66699 -42 5 -60c0.666992 18 2.16699 38 4.5 60s5 44.5 8 67.5l9 67.5l8.5 60l21 141h109zM308.999 647c0 -17.333 -6 -32 -18 -44
s-26.333 -18 -43 -18c-17.333 0 -32 6 -44 18s-18 26.667 -18 44c0 16.667 6 31 18 43s26.667 18 44 18c16.667 0 31 -6 43 -18s18 -26.333 18 -43zM151.999 647c0 -17.333 -6 -32 -18 -44s-26.333 -18 -43 -18c-17.333 0 -32 6 -44 18s-18 26.667 -18 44
c0 16.667 6 31 18 43s26.667 18 44 18c16.667 0 31 -6 43 -18s18 -26.333 18 -43z" />
    <glyph glyph-name="OE" unicode="&#x152;" horiz-adv-x="530" 
d="M278 0l-0.000976562 49c-9.33301 -20.667 -21.166 -35.834 -35.499 -45.501s-32.833 -14.5 -55.5 -14.5c-58.667 0 -99.5 29.5 -122.5 88.5s-34.5 149.167 -34.5 270.5c0 122.667 11.667 213.834 35 273.501s64.333 89.5 123 89.5c42 0 72 -19.667 90 -59v48h223v-104
h-150v-175h115v-104h-115v-213h159v-104h-232zM240.999 348c0 53.333 -0.833984 97 -2.50098 131s-4.5 60.5 -8.5 79.5s-9.16699 32 -15.5 39s-13.833 10.5 -22.5 10.5c-9.33301 0 -17 -3.33301 -23 -10s-10.833 -19.5 -14.5 -38.5s-6.16699 -45.167 -7.5 -78.5
s-2 -76.333 -2 -129c0 -53.333 0.833008 -97 2.5 -131s4.5 -60.5 8.5 -79.5s9 -32 15 -39s13.333 -10.5 22 -10.5s16.167 3.33301 22.5 10s11.333 19.5 15 38.5s6.33398 45 8.00098 78s2.5 76.167 2.5 129.5z" />
    <glyph glyph-name="oe" unicode="&#x153;" horiz-adv-x="529" 
d="M318 229c0.666992 -27.333 2.00195 -50.3311 4.00195 -68.998s5 -33.667 9 -45s8.66699 -19.333 14 -24s11.666 -7 18.999 -7c11.333 0 19.833 5 25.5 15s12.167 28.667 19.5 56l92 -31c-6 -20 -12.667 -38.333 -20 -55s-16.5 -30.834 -27.5 -42.501
s-24 -20.834 -39 -27.501s-33.167 -10 -54.5 -10c-22.667 0 -41.667 6.16699 -57 18.5s-26.666 27.166 -33.999 44.499c-7.33301 -17.333 -18.833 -32.166 -34.5 -44.499s-35.834 -18.5 -60.501 -18.5c-27.333 0 -50.5 6.33301 -69.5 19s-34.333 30.834 -46 54.501
s-20.167 52.167 -25.5 85.5s-8 70.666 -8 111.999c0 40 2.16699 77 6.5 111s12.166 63.167 23.499 87.5s26.833 43.333 46.5 57s45.167 20.5 76.5 20.5c23.333 0 42.833 -6.16699 58.5 -18.5s27.167 -27.166 34.5 -44.499c8 17.333 19.5 32.166 34.5 44.499
s34.5 18.5 58.5 18.5c48 0 83.5 -23.333 106.5 -70s34.5 -115 34.5 -205v-32h-187zM402.002 313.002c-2 88.667 -15.667 133 -41 133c-13.333 0 -23.333 -9.83301 -30 -29.5s-10.667 -54.167 -12 -103.5h83v0zM219.002 261.002c0 58.667 -2.50098 103 -7.50098 133
s-16.833 45 -35.5 45c-19.333 0 -31.5 -15.167 -36.5 -45.5s-7.5 -73.5 -7.5 -129.5c0 -28.667 0.333008 -54 1 -76s2.5 -40.5 5.5 -55.5s7.5 -26.5 13.5 -34.5s14.333 -12 25 -12c18.667 0 30.334 15.333 35.001 46s7 73.667 7 129z" />
    <glyph glyph-name="Scaron" unicode="&#x160;" horiz-adv-x="349" 
d="M326 164c0 -26 -3.33105 -49.6689 -9.99805 -71.002s-16.334 -39.666 -29.001 -54.999s-28.167 -27.333 -46.5 -36s-39.5 -13 -63.5 -13c-50 0 -87 16.5 -111 49.5s-38.667 79.5 -44 139.5l107 19c2 -21.333 4.5 -38.833 7.5 -52.5s6.5 -24.5 10.5 -32.5
s8.5 -13.5 13.5 -16.5s10.5 -4.5 16.5 -4.5c14 0 24.167 4.83301 30.5 14.5s9.5 25.834 9.5 48.501c0 16.667 -1.5 31.5 -4.5 44.5s-7.66699 25.833 -14 38.5s-14.833 25.667 -25.5 39s-24 28.666 -40 45.999c-36 36 -62.667 71.333 -80 106s-26 72 -26 112
c0 24.667 3 47.334 9 68.001s15 38.667 27 54s27 27.333 45 36s39 13 63 13c24.667 0 45.667 -4 63 -12s32 -19.333 44 -34s21.333 -32.334 28 -53.001s11.667 -44 15 -70l-105 -22c-4 34.667 -9.33301 58.334 -16 71.001s-16.334 19 -29.001 19c-12 0 -21 -4.66699 -27 -14
s-9 -25 -9 -47c0 -12 1.16699 -23.167 3.5 -33.5s6.33301 -20.666 12 -30.999s13 -21.333 22 -33s20.5 -24.834 34.5 -39.501c20 -20.667 37.5 -40.667 52.5 -60s27.5 -39 37.5 -59s17.333 -40.5 22 -61.5s7 -43.5 7 -67.5zM209.002 742.998h-78l-87 160h77l50 -79l50 79h75
z" />
    <glyph glyph-name="scaron" unicode="&#x161;" horiz-adv-x="314" 
d="M293 130c0 -45.333 -13.165 -80.1631 -39.498 -104.496s-60.166 -36.5 -101.499 -36.5c-20 0 -37.333 3.16699 -52 9.5s-27.334 15.333 -38.001 27s-19.334 25.5 -26.001 41.5s-12.334 33.667 -17.001 53l91 34c6 -24.667 12.5 -43.334 19.5 -56.001s16.167 -19 27.5 -19
s20.333 3.66699 27 11s10 17.666 10 30.999c0 10.667 -1 20.167 -3 28.5s-5.33301 16.333 -10 24s-11 15.167 -19 22.5s-18 15.666 -30 24.999c-20.667 14.667 -38 29 -52 43s-25.167 28 -33.5 42s-14.166 28.333 -17.499 43s-5 30.667 -5 48
c0 41.333 11.5 74.833 34.5 100.5s55.5 38.5 97.5 38.5c37.333 0 65.666 -10.5 84.999 -31.5s34.333 -49.833 45 -86.5l-90 -34c-5.33301 19.333 -11.333 34.5 -18 45.5s-15 16.5 -25 16.5s-17.833 -3.5 -23.5 -10.5s-8.5 -16.167 -8.5 -27.5
c0 -9.33301 1 -17.666 3 -24.999s5.5 -14.5 10.5 -21.5s11.667 -14 20 -21s18.833 -15.167 31.5 -24.5c22 -16 39.833 -31.333 53.5 -46s24.5 -29.334 32.5 -44.001s13.5 -29.834 16.5 -45.501s4.5 -32.5 4.5 -50.5zM192.002 589.003h-78l-87 160h77l50 -79l50 79h75z" />
    <glyph glyph-name="Ydieresis" unicode="&#x178;" horiz-adv-x="368" 
d="M244 296l-0.00195312 -296h-113v291l-124 409h122l29 -133c7.33301 -33.333 13.5 -64.5 18.5 -93.5s9.16699 -56.5 12.5 -82.5c2.66699 26 6.33398 53.5 11.001 82.5s10.334 60.167 17.001 93.5l27 133h117zM324.998 801c0 -17.333 -6 -32 -18 -44s-26.333 -18 -43 -18
c-17.333 0 -32 6 -44 18s-18 26.667 -18 44c0 16.667 6 31 18 43s26.667 18 44 18c16.667 0 31 -6 43 -18s18 -26.333 18 -43zM167.998 801c0 -17.333 -6 -32 -18 -44s-26.333 -18 -43 -18c-17.333 0 -32 6 -44 18s-18 26.667 -18 44c0 16.667 6 31 18 43s26.667 18 44 18
c16.667 0 31 -6 43 -18s18 -26.333 18 -43z" />
    <glyph glyph-name="florin" unicode="&#x192;" horiz-adv-x="265" 
d="M246 612c-6 2.66699 -12.834 4.33301 -20.501 5s-14.834 1 -21.501 1c-24.667 0 -37 -13.333 -37 -40v-53h64v-96h-64v-574l-103 -48v622h-40v96h40v63c0 41.333 9.83301 72.166 29.5 92.499s47.167 30.5 82.5 30.5c16.667 0 29.834 -0.666992 39.501 -2
s19.834 -3.66602 30.501 -6.99902v-90v0z" />
    <glyph glyph-name="circumflex" unicode="&#x2c6;" horiz-adv-x="330" 
d="M214 589l-50 78l-50 -78h-75l87 160h78l87 -160h-77z" />
    <glyph glyph-name="tilde" unicode="&#x2dc;" horiz-adv-x="330" 
d="M309 715c0 -45.333 -8.16699 -77.835 -24.5 -97.502s-35.833 -29.5 -58.5 -29.5c-13.333 0 -25.166 2.16699 -35.499 6.5s-21.5 11.166 -33.5 20.499c-10 8.66699 -17.667 14.834 -23 18.501s-11 5.5 -17 5.5c-7.33301 0 -13 -3.16699 -17 -9.5
s-6.66699 -19.166 -8 -38.499h-71c0 45.333 8.16699 77.833 24.5 97.5s35.833 29.5 58.5 29.5c13.333 0 25.166 -2.16699 35.499 -6.5s21.5 -11.166 33.5 -20.499c10 -8.66699 17.833 -14.834 23.5 -18.501s11.167 -5.5 16.5 -5.5c7.33301 0 13 3.33301 17 10
s6.66699 19.334 8 38.001h71v0z" />
    <glyph glyph-name="endash" unicode="&#x2013;" horiz-adv-x="317" 
d="M32 316v100h253v-100h-253z" />
    <glyph glyph-name="emdash" unicode="&#x2014;" horiz-adv-x="391" 
d="M32 316v100h327v-100h-327z" />
    <glyph glyph-name="quoteleft" unicode="&#x2018;" horiz-adv-x="211" 
d="M151 487h-115l63 213h65z" />
    <glyph glyph-name="quoteright" unicode="&#x2019;" horiz-adv-x="211" 
d="M112 487h-65l13 213h115z" />
    <glyph glyph-name="quotesinglbase" unicode="&#x201a;" horiz-adv-x="211" 
d="M112 -95h-65l13 213h115z" />
    <glyph glyph-name="quotedblleft" unicode="&#x201c;" horiz-adv-x="385" 
d="M324 487h-115l64 213h65zM151 487h-115l63 213h65z" />
    <glyph glyph-name="quotedblright" unicode="&#x201d;" horiz-adv-x="385" 
d="M285 487h-65l13 213h116zM112 487h-65l13 213h115z" />
    <glyph glyph-name="quotedblbase" unicode="&#x201e;" horiz-adv-x="385" 
d="M285 -95h-65l13 213h116zM112 -95h-65l13 213h115z" />
    <glyph glyph-name="dagger" unicode="&#x2020;" horiz-adv-x="358" 
d="M231 380v-480h-105v480h-108v101h108v219h105v-219h109v-101h-109z" />
    <glyph glyph-name="daggerdbl" unicode="&#x2021;" horiz-adv-x="358" 
d="M228 120v-220h-99v220h-111v98h111v166h-111v97h111v219h99v-219h112v-97h-112v-166h112v-98h-112z" />
    <glyph glyph-name="bullet" unicode="&#x2022;" horiz-adv-x="337" 
d="M285 366c0 -16 -3 -31.167 -9 -45.5s-14.333 -26.666 -25 -36.999s-23 -18.5 -37 -24.5s-29.333 -9 -46 -9c-16 0 -31.167 3 -45.5 9s-26.666 14.167 -36.999 24.5s-18.5 22.666 -24.5 36.999s-9 29.5 -9 45.5c0 16.667 3 32.167 9 46.5s14.167 26.833 24.5 37.5
s22.666 19 36.999 25s29.5 9 45.5 9c16.667 0 32 -3 46 -9s26.333 -14.333 37 -25s19 -23.167 25 -37.5s9 -29.833 9 -46.5z" />
    <glyph glyph-name="ellipsis" unicode="&#x2026;" horiz-adv-x="614" 
d="M580 56c0 -19.333 -6.16699 -35.333 -18.5 -48s-28.5 -19 -48.5 -19c-19.333 0 -35.333 6.33301 -48 19s-19 28.667 -19 48s6.33301 35.5 19 48.5s28.667 19.5 48 19.5c20 0 36.167 -6.5 48.5 -19.5s18.5 -29.167 18.5 -48.5zM376 56c0 -19.333 -6.33301 -35.333 -19 -48
s-28.667 -19 -48 -19s-35.333 6.33301 -48 19s-19 28.667 -19 48s6.33301 35.5 19 48.5s28.667 19.5 48 19.5s35.333 -6.5 48 -19.5s19 -29.167 19 -48.5zM171 56c0 -19.333 -6.33301 -35.333 -19 -48s-28.667 -19 -48 -19s-35.333 6.33301 -48 19s-19 28.667 -19 48
s6.33301 35.5 19 48.5s28.667 19.5 48 19.5s35.333 -6.5 48 -19.5s19 -29.167 19 -48.5z" />
    <glyph glyph-name="perthousand" unicode="&#x2030;" horiz-adv-x="1002" 
d="M979 208c0 -68 -9.83301 -121.5 -29.5 -160.5s-52.5 -58.5 -98.5 -58.5s-78.5 19.167 -97.5 57.5s-28.5 91.5 -28.5 159.5s9.83301 121.5 29.5 160.5s52.5 58.5 98.5 58.5s78.5 -19.167 97.5 -57.5s28.5 -91.5 28.5 -159.5zM685 208c0 -68 -9.83301 -121.5 -29.5 -160.5
s-52.5 -58.5 -98.5 -58.5s-78.5 19.167 -97.5 57.5s-28.5 91.5 -28.5 159.5s9.83301 121.5 29.5 160.5s52.5 58.5 98.5 58.5s78.5 -19.167 97.5 -57.5s28.5 -91.5 28.5 -159.5zM247 0h-97l318 700h97zM284 494c0 -68 -9.83301 -121.5 -29.5 -160.5s-52.5 -58.5 -98.5 -58.5
s-78.5 19.167 -97.5 57.5s-28.5 91.5 -28.5 159.5s9.83301 121.5 29.5 160.5s52.5 58.5 98.5 58.5s78.5 -19.167 97.5 -57.5s28.5 -91.5 28.5 -159.5zM884 206c0 48 -2 82.333 -6 103s-12.667 31 -26 31s-21.833 -10 -25.5 -30s-5.5 -54 -5.5 -102s2 -82.333 6 -103
s12.667 -31 26 -31s21.833 10 25.5 30s5.5 54 5.5 102zM590 206c0 48 -2 82.333 -6 103s-12.667 31 -26 31s-21.833 -10 -25.5 -30s-5.5 -54 -5.5 -102s2 -82.333 6 -103s12.667 -31 26 -31s21.833 10 25.5 30s5.5 54 5.5 102zM189 492c0 48 -2 82.333 -6 103
s-12.667 31 -26 31s-21.833 -10 -25.5 -30s-5.5 -54 -5.5 -102s2 -82.333 6 -103s12.667 -31 26 -31s21.833 10 25.5 30s5.5 54 5.5 102z" />
    <glyph glyph-name="guilsinglleft" unicode="&#x2039;" horiz-adv-x="253" 
d="M125 0l-112 262l112 263h102l-109 -262l109 -263h-102z" />
    <glyph glyph-name="guilsinglright" unicode="&#x203a;" horiz-adv-x="253" 
d="M128 0h-102l109 262l-109 263h102l112 -262z" />
    <glyph glyph-name="trademark" unicode="&#x2122;" horiz-adv-x="469" 
d="M384 303l-0.000976562 128.998c0 18 0.166992 35 0.5 51s0.833008 31 1.5 45l-10 -46c-4 -18 -8.33301 -35.667 -13 -53l-32 -137l-33 137l-12.5 52.5c-4.33301 17.667 -7.5 32.834 -9.5 45.501c0 -13.333 0.333008 -28.166 1 -44.499s1 -33.166 1 -50.499v-129h-59v397
h62l29 -125l12 -56.5c4 -18.333 7 -35.166 9 -50.499c2 15.333 4.83301 32.166 8.5 50.499s7.83398 37.166 12.501 56.499l28 125h62v-397h-58zM129.999 640.998v-338h-65v338h-53v59h171v-59h-53z" />
    <glyph glyph-name="NUL" horiz-adv-x="0" 
 />
    <glyph glyph-name="nonmarkingreturn" horiz-adv-x="187" 
 />
    <glyph glyph-name="notequal" 
d="M444 233c-10 -8 -18.999 -10.0029 -26.999 -6.00293c-7.33301 6.66699 -9.33301 16.334 -6 29.001l15 47h-79v-162l47 15c13.333 3.33301 22.666 1.33301 27.999 -6c4.66699 -8 3 -17 -5 -27l-118 -144l-118 144c-7.33301 10 -9 19 -5 27c3.33301 4 7 6.5 11 7.5
s10 0.5 18 -1.5l47 -15v162h-79l14 -47c2.66699 -7.33301 3.5 -13.166 2.5 -17.499s-3.83301 -8.16602 -8.5 -11.499c-8 -4.66699 -17 -2.66699 -27 6l-144 118l144 118c10.667 7.33301 19.667 9 27 5c8.66699 -6 10.667 -15.667 6 -29l-14 -47h79v161l-47 -15
c-8 -2 -14 -2.5 -18 -1.5s-7.66699 3.5 -11 7.5c-4 8 -2.33301 17 5 27l118 144l118 -144c8 -10 9.66699 -19 5 -27c-6 -8 -15.333 -10 -28 -6l-47 15v-161h79l-15 47c-3.33301 13.333 -1.33301 23 6 29c8 4 17 2.33301 27 -5l144 -118z" />
    <glyph glyph-name="infinity" 
d="M444 233c-10 -8 -18.999 -10.0029 -26.999 -6.00293c-7.33301 6.66699 -9.33301 16.334 -6 29.001l15 47h-79v-162l47 15c13.333 3.33301 22.666 1.33301 27.999 -6c4.66699 -8 3 -17 -5 -27l-118 -144l-118 144c-7.33301 10 -9 19 -5 27c3.33301 4 7 6.5 11 7.5
s10 0.5 18 -1.5l47 -15v162h-79l14 -47c2.66699 -7.33301 3.5 -13.166 2.5 -17.499s-3.83301 -8.16602 -8.5 -11.499c-8 -4.66699 -17 -2.66699 -27 6l-144 118l144 118c10.667 7.33301 19.667 9 27 5c8.66699 -6 10.667 -15.667 6 -29l-14 -47h79v161l-47 -15
c-8 -2 -14 -2.5 -18 -1.5s-7.66699 3.5 -11 7.5c-4 8 -2.33301 17 5 27l118 144l118 -144c8 -10 9.66699 -19 5 -27c-6 -8 -15.333 -10 -28 -6l-47 15v-161h79l-15 47c-3.33301 13.333 -1.33301 23 6 29c8 4 17 2.33301 27 -5l144 -118z" />
    <glyph glyph-name="lessequal" 
d="M444 233c-10 -8 -18.999 -10.0029 -26.999 -6.00293c-7.33301 6.66699 -9.33301 16.334 -6 29.001l15 47h-79v-162l47 15c13.333 3.33301 22.666 1.33301 27.999 -6c4.66699 -8 3 -17 -5 -27l-118 -144l-118 144c-7.33301 10 -9 19 -5 27c3.33301 4 7 6.5 11 7.5
s10 0.5 18 -1.5l47 -15v162h-79l14 -47c2.66699 -7.33301 3.5 -13.166 2.5 -17.499s-3.83301 -8.16602 -8.5 -11.499c-8 -4.66699 -17 -2.66699 -27 6l-144 118l144 118c10.667 7.33301 19.667 9 27 5c8.66699 -6 10.667 -15.667 6 -29l-14 -47h79v161l-47 -15
c-8 -2 -14 -2.5 -18 -1.5s-7.66699 3.5 -11 7.5c-4 8 -2.33301 17 5 27l118 144l118 -144c8 -10 9.66699 -19 5 -27c-6 -8 -15.333 -10 -28 -6l-47 15v-161h79l-15 47c-3.33301 13.333 -1.33301 23 6 29c8 4 17 2.33301 27 -5l144 -118z" />
    <glyph glyph-name="greaterequal" 
d="M444 233c-10 -8 -18.999 -10.0029 -26.999 -6.00293c-7.33301 6.66699 -9.33301 16.334 -6 29.001l15 47h-79v-162l47 15c13.333 3.33301 22.666 1.33301 27.999 -6c4.66699 -8 3 -17 -5 -27l-118 -144l-118 144c-7.33301 10 -9 19 -5 27c3.33301 4 7 6.5 11 7.5
s10 0.5 18 -1.5l47 -15v162h-79l14 -47c2.66699 -7.33301 3.5 -13.166 2.5 -17.499s-3.83301 -8.16602 -8.5 -11.499c-8 -4.66699 -17 -2.66699 -27 6l-144 118l144 118c10.667 7.33301 19.667 9 27 5c8.66699 -6 10.667 -15.667 6 -29l-14 -47h79v161l-47 -15
c-8 -2 -14 -2.5 -18 -1.5s-7.66699 3.5 -11 7.5c-4 8 -2.33301 17 5 27l118 144l118 -144c8 -10 9.66699 -19 5 -27c-6 -8 -15.333 -10 -28 -6l-47 15v-161h79l-15 47c-3.33301 13.333 -1.33301 23 6 29c8 4 17 2.33301 27 -5l144 -118z" />
    <glyph glyph-name="partialdiff" horiz-adv-x="303" 
d="M275 156c4.66699 -8 2.66699 -17 -6 -27l-118 -144l-117 144c-8.66699 10 -10.667 19 -6 27c3.33301 4.66699 7.16602 7.5 11.499 8.5s10.166 0.166992 17.499 -2.5l45 -13v402l-45 -13c-7.33301 -2.66699 -13.166 -3.5 -17.499 -2.5s-8.16602 3.83301 -11.499 8.5
c-4.66699 8 -2.66699 17 6 27l117 144l118 -144c8.66699 -10 10.667 -19 6 -27c-3.33301 -4.66699 -7.16602 -7.5 -11.499 -8.5s-10.166 -0.166992 -17.499 2.5l-45 13v-402l45 13c7.33301 2.66699 13.166 3.5 17.499 2.5s8.16602 -3.83301 11.499 -8.5z" />
    <glyph glyph-name="summation" 
d="M444 233c-10 -8 -18.999 -10.0029 -26.999 -6.00293c-7.33301 6.66699 -9.33301 16.334 -6 29.001l15 47h-79v-162l47 15c13.333 3.33301 22.666 1.33301 27.999 -6c4.66699 -8 3 -17 -5 -27l-118 -144l-118 144c-7.33301 10 -9 19 -5 27c3.33301 4 7 6.5 11 7.5
s10 0.5 18 -1.5l47 -15v162h-79l14 -47c2.66699 -7.33301 3.5 -13.166 2.5 -17.499s-3.83301 -8.16602 -8.5 -11.499c-8 -4.66699 -17 -2.66699 -27 6l-144 118l144 118c10.667 7.33301 19.667 9 27 5c8.66699 -6 10.667 -15.667 6 -29l-14 -47h79v161l-47 -15
c-8 -2 -14 -2.5 -18 -1.5s-7.66699 3.5 -11 7.5c-4 8 -2.33301 17 5 27l118 144l118 -144c8 -10 9.66699 -19 5 -27c-6 -8 -15.333 -10 -28 -6l-47 15v-161h79l-15 47c-3.33301 13.333 -1.33301 23 6 29c8 4 17 2.33301 27 -5l144 -118z" />
    <glyph glyph-name="product" 
d="M444 233c-10 -8 -18.999 -10.0029 -26.999 -6.00293c-7.33301 6.66699 -9.33301 16.334 -6 29.001l15 47h-79v-162l47 15c13.333 3.33301 22.666 1.33301 27.999 -6c4.66699 -8 3 -17 -5 -27l-118 -144l-118 144c-7.33301 10 -9 19 -5 27c3.33301 4 7 6.5 11 7.5
s10 0.5 18 -1.5l47 -15v162h-79l14 -47c2.66699 -7.33301 3.5 -13.166 2.5 -17.499s-3.83301 -8.16602 -8.5 -11.499c-8 -4.66699 -17 -2.66699 -27 6l-144 118l144 118c10.667 7.33301 19.667 9 27 5c8.66699 -6 10.667 -15.667 6 -29l-14 -47h79v161l-47 -15
c-8 -2 -14 -2.5 -18 -1.5s-7.66699 3.5 -11 7.5c-4 8 -2.33301 17 5 27l118 144l118 -144c8 -10 9.66699 -19 5 -27c-6 -8 -15.333 -10 -28 -6l-47 15v-161h79l-15 47c-3.33301 13.333 -1.33301 23 6 29c8 4 17 2.33301 27 -5l144 -118z" />
    <glyph glyph-name="pi" horiz-adv-x="483" 
d="M455 350c0 -54 -4.5 -103.167 -13.5 -147.5s-22.5 -82.333 -40.5 -114s-40.333 -56.167 -67 -73.5s-57.667 -26 -93 -26s-66.333 8.66699 -93 26s-48.834 41.833 -66.501 73.5s-31 69.667 -40 114s-13.5 93.5 -13.5 147.5s4.5 103.167 13.5 147.5s22.333 82.333 40 114
s39.834 56.167 66.501 73.5s57.667 26 93 26s66.333 -8.66699 93 -26s49 -41.833 67 -73.5s31.5 -69.667 40.5 -114s13.5 -93.5 13.5 -147.5zM400 350c0 45.333 -3 86.833 -9 124.5s-15.333 70.167 -28 97.5s-29.167 48.666 -49.5 63.999s-44.5 23 -72.5 23
s-52 -7.66699 -72 -23s-36.333 -36.666 -49 -63.999s-22 -59.833 -28 -97.5s-9 -79.167 -9 -124.5s3 -86.833 9 -124.5s15.333 -70.167 28 -97.5s29 -48.666 49 -63.999s44 -23 72 -23s52.167 7.66699 72.5 23s36.833 36.666 49.5 63.999s22 59.833 28 97.5
s9 79.167 9 124.5zM341 435c0 -42.667 -9.33301 -73.333 -28 -92s-41.667 -28 -69 -28h-12v-164h-66v396h83c12.667 0 24.5 -2 35.5 -6s20.667 -10.5 29 -19.5s15 -20.5 20 -34.5s7.5 -31.333 7.5 -52zM274 433.001c0 22.667 -2.49902 38.167 -7.49902 46.5
s-13.167 12.5 -24.5 12.5h-10v-121h9c11.333 0 19.666 4.83301 24.999 14.5s8 25.5 8 47.5z" />
    <glyph glyph-name="integral" horiz-adv-x="352" 
d="M211 0l0.00195312 25c-8 -10 -18 -18.5 -30 -25.5s-26 -10.5 -42 -10.5c-22 0 -40.167 6.16699 -54.5 18.5s-25.833 30 -34.5 53s-14.667 51.333 -18 85s-5 71.5 -5 113.5c0 94 8.83301 163.667 26.5 209s46.5 68 86.5 68c13.333 0 26.166 -3.16699 38.499 -9.5
s23.166 -14.5 32.499 -24.5v23h106v-525h-106zM211.002 419c-5.33301 5.33301 -11 9.66895 -17 13.002s-13.333 5 -22 5c-7.33301 0 -13.333 -2.5 -18 -7.5s-8.5 -14 -11.5 -27s-5.16699 -30.667 -6.5 -53s-2 -51.166 -2 -86.499c0 -34 0.5 -62.333 1.5 -85
s3 -40.834 6 -54.501s7.16699 -23.334 12.5 -29.001s12 -8.5 20 -8.5c7.33301 0 14 1.66699 20 5s11.667 7.66602 17 12.999v315z" />
    <glyph glyph-name="Omega" horiz-adv-x="303" 
d="M275 544c-3.33301 -4.66699 -7.16992 -7.5 -11.5029 -8.5s-10.166 -0.166992 -17.499 2.5l-45 13v-551h-99v551l-45 -13c-7.33301 -2.66699 -13.166 -3.5 -17.499 -2.5s-8.16602 3.83301 -11.499 8.5c-4.66699 8 -2.66699 17 6 27l117 144l118 -144
c8.66699 -10 10.667 -19 6 -27z" />
    <glyph glyph-name="radical" horiz-adv-x="369" 
d="M225 0l-113.001 0.000976562l-102 340h110l18 -75c4 -19.333 8.5 -42.5 13.5 -69.5s9.16699 -53.167 12.5 -78.5c0.666992 12.667 1.83398 26.667 3.50098 42s3.5 30.666 5.5 45.999l6 45c2 14.667 4 27.667 6 39l68 411h111z" />
    <glyph glyph-name="approxequal" horiz-adv-x="303" 
d="M275 156c4.66699 -8 2.6709 -17 -5.99609 -27l-118 -144l-117 144c-8.66699 10 -10.667 19 -6 27c3.33301 4.66699 7.16602 7.5 11.499 8.5s10.166 0.166992 17.499 -2.5l45 -13v551h99v-551l45 13c7.33301 2.66699 13.166 3.5 17.499 2.5s8.16602 -3.83301 11.499 -8.5z
" />
    <glyph glyph-name="Delta" horiz-adv-x="371" 
d="M174 301l13 -45.002c2.66699 -7.33301 3.5 -13.166 2.5 -17.499s-3.83301 -8.16602 -8.5 -11.499c-8 -4.66699 -17 -2.66699 -27 6l-144 118l144 118c10.667 7.33301 19.667 9 27 5c8.66699 -6 10.667 -15.667 6 -29l-13 -45h175v-99h-175z" />
    <glyph glyph-name="nonbreakingspace" horiz-adv-x="93" 
 />
    <glyph glyph-name="lozenge" 
d="M444 233c-10 -8 -18.999 -10.0029 -26.999 -6.00293c-7.33301 6.66699 -9.33301 16.334 -6 29.001l15 47h-79v-162l47 15c13.333 3.33301 22.666 1.33301 27.999 -6c4.66699 -8 3 -17 -5 -27l-118 -144l-118 144c-7.33301 10 -9 19 -5 27c3.33301 4 7 6.5 11 7.5
s10 0.5 18 -1.5l47 -15v162h-79l14 -47c2.66699 -7.33301 3.5 -13.166 2.5 -17.499s-3.83301 -8.16602 -8.5 -11.499c-8 -4.66699 -17 -2.66699 -27 6l-144 118l144 118c10.667 7.33301 19.667 9 27 5c8.66699 -6 10.667 -15.667 6 -29l-14 -47h79v161l-47 -15
c-8 -2 -14 -2.5 -18 -1.5s-7.66699 3.5 -11 7.5c-4 8 -2.33301 17 5 27l118 144l118 -144c8 -10 9.66699 -19 5 -27c-6 -8 -15.333 -10 -28 -6l-47 15v-161h79l-15 47c-3.33301 13.333 -1.33301 23 6 29c8 4 17 2.33301 27 -5l144 -118z" />
    <glyph glyph-name="apple" 
d="M444 233c-10 -8 -18.999 -10.0029 -26.999 -6.00293c-7.33301 6.66699 -9.33301 16.334 -6 29.001l15 47h-79v-162l47 15c13.333 3.33301 22.666 1.33301 27.999 -6c4.66699 -8 3 -17 -5 -27l-118 -144l-118 144c-7.33301 10 -9 19 -5 27c3.33301 4 7 6.5 11 7.5
s10 0.5 18 -1.5l47 -15v162h-79l14 -47c2.66699 -7.33301 3.5 -13.166 2.5 -17.499s-3.83301 -8.16602 -8.5 -11.499c-8 -4.66699 -17 -2.66699 -27 6l-144 118l144 118c10.667 7.33301 19.667 9 27 5c8.66699 -6 10.667 -15.667 6 -29l-14 -47h79v161l-47 -15
c-8 -2 -14 -2.5 -18 -1.5s-7.66699 3.5 -11 7.5c-4 8 -2.33301 17 5 27l118 144l118 -144c8 -10 9.66699 -19 5 -27c-6 -8 -15.333 -10 -28 -6l-47 15v-161h79l-15 47c-3.33301 13.333 -1.33301 23 6 29c8 4 17 2.33301 27 -5l144 -118z" />
    </font>
</defs>
</svg>
