<?xml version="1.0" standalone="no"?>
<!DOCTYPE svg PUBLIC "-//W3C//DTD SVG 1.1//EN" "http://www.w3.org/Graphics/SVG/1.1/DTD/svg11.dtd" >
<svg xmlns="http://www.w3.org/2000/svg">
<metadata>
Created by FontPrep 20130207 at Tue Nov  4 15:29:45 2014
 By Mauricio Duran
Copyright (c) 2010 by Miles Newlyn. All rights reserved.
</metadata>
<defs>
<font id="996a84e9f10dce635e8b75ef525d2e2c" horiz-adv-x='1024' >
  <font-face 
    font-family="Rubrik-SemiBoldItalic"
    font-weight="600"
    font-style="italic"
    font-stretch="normal"
    units-per-em="2048"
    panose-1="2 0 5 3 0 0 0 2 0 4"
    ascent="1536"
    descent="-512"
    x-height="1081"
    cap-height="1448"
    bbox="-236 -586 2378 1987.02"
    underline-thickness="143"
    underline-position="-62"
    unicode-range="U+0020-FB02"
  />
<missing-glyph horiz-adv-x="616" 
 />
    <glyph glyph-name="fi" unicode="fi" horiz-adv-x="1464" 
d="M1054 -8q-60 0 -98 47q-36 47 -24 121l137 815q19 129 143 129q62 0 99 -48t24 -122l-135 -815q-10 -61 -48 -94t-98 -33zM1126 1367q0 63 45 109t107 46t102 -40q39 -40 39 -101q0 -60 -44 -108t-106 -48t-103 40q-40 40 -40 102zM723 1489q115 0 209 -47q70 -42 70 -98
t-32 -95q-30 -39 -71 -39t-92 14t-92 15q-125 0 -150 -145l-8 -58h197q57 0 92 -35t35 -86t-38 -85t-93 -33h-226l-112 -678q-21 -127 -145 -127q-61 0 -97 47t-25 121l105 637h-29q-61 -1 -94 33t-33 86t38 86t91 34h68l12 72q63 381 420 381z" />
    <glyph glyph-name=".notdef" horiz-adv-x="616" 
 />
    <glyph glyph-name=".null" horiz-adv-x="0" 
 />
    <glyph glyph-name="nonmarkingreturn" horiz-adv-x="681" 
 />
    <glyph glyph-name="space" unicode=" " horiz-adv-x="501" 
 />
    <glyph glyph-name="exclam" unicode="!" horiz-adv-x="505" 
d="M138 -14q-54 0 -89 39t-24 90l18 104q8 53 43 87t90 34t88 -38t23 -91l-19 -105q-8 -52 -42 -86t-88 -34zM227 477q-55 0 -88 38t-26 87l98 701q10 71 52 107q41 36 101 36t97 -45t22 -117l-131 -692q-23 -115 -125 -115z" />
    <glyph glyph-name="quotedbl" unicode="&#x22;" horiz-adv-x="856" 
d="M706 1448q54 0 88 -38t25 -89l-55 -322q-10 -53 -43 -85t-88 -32t-89 41q-34 40 -26 91l53 315q8 53 44 86q37 33 91 33zM344 1448q55 0 89 -38t24 -89l-56 -322q-10 -53 -43 -85t-87 -32t-89 41q-35 40 -26 91l53 315q8 53 44 86t91 33z" />
    <glyph glyph-name="numbersign" unicode="#" horiz-adv-x="1415" 
d="M561 606h174l121 246h-174zM181 -18q-73 0 -103 53t2 115l106 210h-71q-49 0 -84 36t-35 86t42 87t112 37h155l123 246h-72q-49 0 -84 35q-34 35 -34 86t41 87t110 36h160l131 270q45 88 117 88q73 0 101 -50t-3 -116l-96 -192h180l131 270q45 88 117 88q73 0 101 -50
t-3 -116l-96 -192h57q61 0 97 -34t36 -84t-39 -88t-112 -38h-154l-123 -246h58q61 0 96 -33t35 -85t-40 -90t-114 -38h-156l-145 -288q-43 -90 -111 -90t-105 50q-36 50 -1 118l106 210h-174l-143 -288q-43 -90 -116 -90z" />
    <glyph glyph-name="dollar" unicode="$" horiz-adv-x="1208" 
d="M471 -182q-49 0 -86 36t-25 93l19 98q-76 12 -174 56q-201 90 -201 202q0 53 40 94t90 41t118 -45q156 -104 338 -104q94 2 155 41t61 102t-54 96q-56 33 -226 85q-170 51 -275 143t-105 256t140 278q142 113 316 119l14 80q23 129 129 129q61 0 93 -37t22 -92l-14 -78
q178 -41 260 -119q41 -41 41 -94t-35 -93t-94 -40q-27 0 -96 31q-118 61 -234 61t-183 -37t-67 -104q0 -37 14 -51q14 -13 21 -23t27 -21t31 -17t47 -21q36 -14 79 -29q42 -14 91 -32q256 -91 320 -221q34 -67 34 -152q0 -176 -136 -292t-350 -128l-16 -103q-8 -52 -44 -80
t-85 -28z" />
    <glyph glyph-name="percent" unicode="%" horiz-adv-x="1708" 
d="M1266 182q98 0 131 121q14 57 14 105q0 121 -117 120q-47 0 -85 -34t-52 -94t-14 -106t32 -79t91 -33zM1254 -16q-142 0 -228 88t-86 225q0 238 132 351q96 81 234 81t226 -85t88 -222q0 -63 -16 -137q-31 -145 -120 -223q-88 -78 -230 -78zM410 170q-49 0 -84 35t-35 85
t47 97l860 846q45 45 95 45t85 -34t35 -85t-45 -96l-862 -846q-47 -47 -96 -47zM397 907q98 0 131 121q14 57 15 105q0 121 -117 120q-47 1 -85 -33t-52 -94q-15 -60 -15 -107q0 -46 32 -79t91 -33zM384 709q-142 0 -226 88q-86 88 -86 225q0 238 132 351q95 81 233 81
q139 0 227 -85t88 -222q0 -63 -17 -137q-31 -145 -120 -223t-231 -78z" />
    <glyph glyph-name="ampersand" unicode="&#x26;" horiz-adv-x="1425" 
d="M854 1060q0 58 -43 94t-127 36t-140 -39t-56 -113t112 -176q129 45 192 93q62 47 62 105zM580 244q132 0 241 82l-291 270q-205 -80 -204 -203q0 -149 254 -149zM555 -18q-207 0 -357 110t-151 291q0 252 309 389q-150 150 -149 293q0 179 133 281t336 102t332 -101
t129 -262q0 -242 -342 -391l196 -170q42 90 79 131q38 41 96 41t98 -54q41 -54 4 -138t-78 -154l137 -119q43 -37 50 -93t-29 -100t-94 -50q-56 -6 -101 32l-133 123q-191 -161 -465 -161z" />
    <glyph glyph-name="quotesingle" unicode="'" horiz-adv-x="499" 
d="M350 1448q55 0 89 -38t24 -89l-55 -322q-8 -51 -42 -84t-88 -33t-90 41q-35 40 -26 91l53 315q8 53 44 86t91 33z" />
    <glyph glyph-name="parenleft" unicode="(" horiz-adv-x="716" 
d="M584 -236q0 -52 -42 -91q-42 -38 -102 -38q-62 0 -102 58q-248 350 -248 825q0 307 127 586t365 477q51 43 105 43t96 -36t42 -91t-60 -111t-94 -91t-100 -121q-67 -86 -107 -172t-74 -221t-34 -297t62 -334t135 -287q31 -47 31 -99z" />
    <glyph glyph-name="parenright" unicode=")" horiz-adv-x="749" 
d="M16 -365q-53 0 -95 37t-42 92q1 56 61 112t94 90t99 121q66 87 107 173t74 220q34 134 34 297t-61 335t-135 287q-33 51 -33 101t42 87q43 37 105 37t101 -55q248 -350 247 -826q0 -307 -127 -585t-364 -477q-54 -46 -107 -46z" />
    <glyph glyph-name="asterisk" unicode="*" horiz-adv-x="815" 
d="M418 692q-45 0 -74 36t-10 87l49 158l-139 -99q-31 -26 -78 -22t-69 43t0 82t73 57l160 58l-142 69q-41 19 -54 61q-12 42 14 78t70 40q44 3 77 -29l121 -103l-2 162q-2 53 24 87q27 34 75 34t74 -37t7 -92l-45 -154l141 103q39 31 85 23q45 -8 63 -48q18 -41 -4 -81
t-74 -58l-160 -64l137 -59q45 -16 59 -56t-10 -78q-26 -38 -68 -43t-77 25l-125 101l-2 -158q4 -59 -24 -91t-72 -32z" />
    <glyph glyph-name="plus" unicode="+" horiz-adv-x="1255" 
d="M758 326q0 -55 -38 -94t-92 -39q-54 -1 -92 39t-38 94v260h-260q-55 0 -95 39q-39 39 -39 93t39 92t95 38h260v258q0 55 38 94t92 39t92 -39t38 -94v-258h256q55 0 94 -38t39 -92t-40 -93t-93 -39h-256v-260z" />
    <glyph glyph-name="comma" unicode="," horiz-adv-x="495" 
d="M128 -233q-58 1 -92 31t-34 68t45 86t55 118l25 145q8 55 46 86t86 31t85 -39t25 -100l-19 -113q-27 -147 -96 -234q-68 -79 -126 -79z" />
    <glyph glyph-name="hyphen" unicode="-" horiz-adv-x="684" 
d="M221 451q-71 0 -107 39t-36 98t45 99t108 40h232q67 0 105 -39t38 -97t-46 -99t-109 -41h-230z" />
    <glyph glyph-name="period" unicode="." horiz-adv-x="534" 
d="M204 -18q-54 0 -88 38t-24 91l21 133q10 51 45 84q35 32 89 32t87 -38t24 -91l-22 -131q-10 -54 -44 -86t-88 -32z" />
    <glyph glyph-name="slash" unicode="/" horiz-adv-x="749" 
d="M121 -66q-72 0 -113 58t-12 133l506 1280q14 39 51 67t82 27q73 0 111 -58t10 -134l-502 -1280q-39 -93 -133 -93z" />
    <glyph glyph-name="zero" unicode="0" horiz-adv-x="1394" 
d="M668 240q238 0 297 321q33 171 46 305t-65 225t-213 91q-250 0 -307 -308q-33 -193 -43 -288q-16 -158 63 -252t222 -94zM666 -20q-264 0 -418 177t-135 416q10 156 47 345q102 530 594 530q244 0 395 -175q152 -175 133 -413q-8 -150 -47 -336q-55 -270 -201 -407
t-368 -137z" />
    <glyph glyph-name="one" unicode="1" horiz-adv-x="989" 
d="M493 -10q-58 0 -101 45q-42 45 -30 117l154 913l-209 -109q-37 -18 -82 -18t-82 35t-37 92q0 86 99 137l407 213q62 33 110 33t83 -43t22 -109l-194 -1163q-10 -67 -46 -105t-94 -38z" />
    <glyph glyph-name="two" unicode="2" horiz-adv-x="1212" 
d="M893 274q61 0 97 -38t36 -96t-48 -99t-120 -41h-672q-96 0 -135 66t-18 178t122 222t363 262q262 153 309 228q25 39 25 90q0 50 -46 94t-114 44t-135 -28q-66 -28 -138 -91q-73 -63 -125 -63t-90 34q-38 35 -38 86t47 109q76 90 199 153t270 64q194 0 320 -110t126 -287
t-137 -305q-110 -102 -231 -172q-120 -70 -166 -97q-45 -29 -77 -47t-46 -28t-36 -25q-22 -13 -32 -25t-27 -31t-26 -47h543z" />
    <glyph glyph-name="three" unicode="3" horiz-adv-x="1204" 
d="M301 1167q-67 0 -107 38t-40 95q0 56 45 100t110 44h656q61 0 104 -37t43 -111t-72 -135l-309 -266q152 -23 240 -121t88 -242t-76 -252t-198 -168q-252 -124 -510 -123q-257 1 -257 140q0 55 41 93t109 38l90 -4q168 0 330 58q84 30 139 86t55 131t-53 117t-137 42
l-150 -14q-47 0 -82 29q-34 29 -34 65t13 60q13 25 64 69l308 262l-2 6h-408z" />
    <glyph glyph-name="four" unicode="4" horiz-adv-x="1339" 
d="M731 582l90 485l-444 -485h354zM207 315q-88 0 -138 43q-51 43 -51 116t82 159l643 700q106 119 215 119q82 0 130 -62t32 -151l-116 -647h96q63 0 99 -37t36 -92t-46 -101t-124 -47h-107l-28 -180q-25 -141 -139 -141q-63 0 -104 41q-40 41 -28 112l29 168h-481z" />
    <glyph glyph-name="five" unicode="5" horiz-adv-x="1243" 
d="M854 561q0 76 -60 120t-152 44t-253 -68q-102 -41 -173 5t-54 149l71 451q29 182 213 182h603q57 0 94 -37t37 -96t-52 -101t-124 -43h-510l-45 -258q129 57 253 58q196 0 312 -113q116 -114 116 -272t-74 -272q-134 -204 -471 -284q-148 -36 -306 -36q-254 0 -254 143
q0 59 41 93t102 34l129 -4q223 0 390 88t167 217z" />
    <glyph glyph-name="six" unicode="6" horiz-adv-x="1359" 
d="M387 522q1 -132 69 -202t183 -70t198 74t83 188q0 188 -232 188q-160 0 -293 -79q-8 -51 -8 -99zM1200 522q0 -223 -149 -383q-150 -159 -408 -159t-393 156t-135 435q0 344 189 604q93 127 248 205t341 78t273 -37t87 -121q0 -57 -41 -92t-112 -34l-207 12
q-168 0 -285 -77t-157 -230q141 66 294 65q227 0 341 -119t114 -303z" />
    <glyph glyph-name="seven" unicode="7" horiz-adv-x="1112" 
d="M283 -8q-81 0 -123 56t-8 134q168 399 632 985h-544q-59 0 -96 39q-36 38 -36 98t47 100q46 40 115 40h738q76 0 122 -37t46 -101t-52 -126q-494 -625 -704 -1080q-56 -108 -137 -108z" />
    <glyph glyph-name="eight" unicode="8" horiz-adv-x="1390" 
d="M674 -20q-336 0 -492 186q-82 98 -82 226t72 232q72 103 209 134q-166 92 -166 284t155 299t385 107q231 0 377 -100t146 -267q0 -119 -64 -210t-182 -123q84 -41 146 -125t63 -205q1 -210 -157 -324t-410 -114zM950 438q0 186 -272 187q-129 1 -208 -53t-79 -148
t74 -138t199 -44q126 0 206 51t80 145zM736 854q112 0 192 52t80 131t-68 119t-180 40t-194 -43q-81 -43 -81 -127t70 -128q69 -44 181 -44z" />
    <glyph glyph-name="nine" unicode="9" horiz-adv-x="1353" 
d="M712 1182q-120 0 -196 -70t-76 -166t64 -151t198 -55t273 67q17 197 -76 301q-67 74 -187 74zM162 950q0 231 153 365q154 133 396 133q243 0 395 -153t151 -425q1 -416 -243 -647t-723 -231q-182 0 -182 137q0 55 43 92t104 35q276 -8 454 78t224 235q-104 -68 -283 -67
q-223 0 -356 126t-133 322z" />
    <glyph glyph-name="colon" unicode=":" horiz-adv-x="507" 
d="M163 -14q-54 0 -88 39t-26 90l19 116q8 53 43 87t90 34t88 -39t22 -92l-18 -117q-8 -50 -42 -84t-88 -34zM287 670q-53 0 -88 39t-27 90l18 119q10 50 46 84t90 34q53 0 86 -38t24 -91l-20 -116q-8 -51 -42 -86t-87 -35z" />
    <glyph glyph-name="semicolon" unicode=";" horiz-adv-x="514" 
d="M312 670q-54 0 -88 39t-25 90l18 119q8 50 44 84t90 34t87 -38t23 -91l-19 -116q-8 -51 -42 -86t-88 -35zM100 -233q-58 1 -87 31t-29 68q1 56 49 95q41 47 51 109l22 145q8 57 44 87t84 30q46 0 81 -39t25 -100l-18 -113q-24 -147 -94 -230t-128 -83z" />
    <glyph glyph-name="less" unicode="&#x3c;" horiz-adv-x="1255" 
d="M909 1360q47 0 87 -39t40 -99t-49 -96l-463 -376q-45 -31 0 -66l465 -377q49 -39 49 -96t-38 -97t-88 -40t-89 32l-536 437q-96 78 -97 174q0 96 97 174l536 436q39 33 86 33z" />
    <glyph glyph-name="equal" unicode="=" horiz-adv-x="1255" 
d="M999 371h-745q-55 0 -94 38t-39 92t39 92t94 38h745q57 0 95 -37t39 -92q-1 -55 -41 -93t-93 -38zM999 805h-745q-55 0 -94 39t-39 93t39 92t94 38h745q57 0 95 -38t39 -92q-1 -54 -41 -93t-93 -39z" />
    <glyph glyph-name="greater" unicode="&#x3e;" horiz-adv-x="1255" 
d="M352 74q-47 0 -87 39t-40 99t49 95l463 377q25 18 25 32t-25 34l-463 376q-49 38 -49 96t38 98t87 40t88 -33l537 -436q98 -80 98 -174t-98 -174l-535 -437q-41 -32 -88 -32z" />
    <glyph glyph-name="question" unicode="?" horiz-adv-x="1120" 
d="M451 489q-47 0 -77 35t-30 84q0 82 113 129q13 8 89 40q76 31 132 73t85 88q28 45 29 104q1 60 -42 102t-125 42q-117 0 -240 -113q-55 -55 -113 -55t-90 35t-32 89t49 109q81 87 197 145t241 58q182 0 303 -108t121 -283q0 -354 -516 -555q-47 -19 -94 -19zM386 -14
q-54 0 -89 39t-25 90l19 104q8 53 43 87t89 34t87 -39t25 -92l-19 -105q-8 -50 -42 -84t-88 -34z" />
    <glyph glyph-name="at" unicode="@" horiz-adv-x="1781" 
d="M801 119q-152 0 -241 98t-64 270l20 140q29 201 143 296q115 95 277 95t276 -115t80 -295l-30 -170q-8 -44 16 -70t61 -26q68 0 86 88l41 217q47 252 -105 411q-153 159 -409 159q-210 0 -370 -127t-211 -353q-27 -117 -49 -307q-29 -256 101 -388t368 -132q90 0 219 43
q76 27 120 -6t46 -88q0 -80 -110 -130q-110 -51 -278 -51q-320 -1 -526 183q-100 89 -151 239t-34 329t48 329q51 240 181 400t291 226t351 66q250 0 435 -109t269 -300t46 -423l-33 -190q-25 -150 -120 -228t-228 -77q-133 0 -217 98t-58 228l31 153q18 90 -27 140
q-46 50 -124 51q-154 0 -187 -201l-16 -100q-31 -178 112 -179l78 11q37 0 61 -23t23 -59q0 -123 -192 -123z" />
    <glyph glyph-name="A" unicode="A" horiz-adv-x="1372" 
d="M784 1182q-20 0 -36 -31l-252 -502h397l-84 504q-5 29 -25 29zM84 -6q-82 0 -120 63t1 138l555 1071q57 112 129 156t162 44t158 -55t90 -172l196 -1059q13 -74 -21 -129t-100 -55t-104 34q-39 34 -49 95l-49 281h-553l-166 -322q-47 -90 -129 -90z" />
    <glyph glyph-name="B" unicode="B" horiz-adv-x="1370" 
d="M770 856q94 0 162 48t67 136q0 147 -198 148h-279l-57 -332h305zM702 256q111 0 183 56q71 56 71 144t-50 134q-50 45 -134 45h-344l-63 -379h337zM698 0h-446q-88 0 -132 52t-30 141l176 1054q33 201 228 201h333q215 0 332 -100t117 -254q0 -106 -55 -198t-156 -142v-4
q70 -31 118 -109t48 -184q0 -209 -150 -333t-383 -124z" />
    <glyph glyph-name="C" unicode="C" horiz-adv-x="1355" 
d="M668 244q188 0 297 190q53 90 129 90q55 0 94 -34t39 -81t-19 -94q-63 -145 -200 -242t-349 -98q-259 0 -417 159t-152 431q4 207 81 433t237 348t387 120q182 0 313 -81t186 -214q25 -59 25 -109t-38 -90t-97 -40q-92 0 -131 88q-76 178 -269 178q-270 0 -364 -348
q-43 -154 -47 -290t72 -226t223 -90z" />
    <glyph glyph-name="D" unicode="D" horiz-adv-x="1445" 
d="M565 256q219 0 331 81t159 271q27 104 32 201q14 180 -73 276q-88 96 -266 97h-218l-153 -926h188zM250 0q-84 0 -129 55t-31 142l178 1054q35 197 224 197h253q322 0 482 -168t145 -449q-8 -150 -43 -280q-72 -291 -257 -421t-499 -130h-323z" />
    <glyph glyph-name="E" unicode="E" horiz-adv-x="1253" 
d="M489 1448h617q63 0 100 -38t37 -93t-41 -91t-98 -36h-578l-57 -342h492q63 0 98 -35t35 -89t-39 -89t-99 -35h-526l-57 -344h561q63 0 100 -37t37 -92t-41 -91t-98 -36h-680q-96 0 -137 56t-25 153l174 1042q32 197 225 197z" />
    <glyph glyph-name="F" unicode="F" horiz-adv-x="1183" 
d="M494 1448h598q63 0 99 -38t36 -93t-40 -91t-97 -36h-555l-66 -391h494q61 0 96 -35t35 -87t-39 -89t-94 -37h-533l-72 -430q-10 -61 -48 -95t-98 -34t-96 48q-38 48 -26 120l182 1093q33 195 224 195z" />
    <glyph glyph-name="G" unicode="G" horiz-adv-x="1404" 
d="M1126 791q74 0 113 -39t33 -122t-22 -164q-34 -180 -158 -325q-66 -76 -172 -121t-242 -45q-272 0 -434 156t-155 410t81 463q160 463 629 462q172 0 304 -80t179 -198q23 -57 23 -106q0 -48 -38 -88t-109 -40t-105 76q-76 168 -273 168q-262 0 -352 -307
q-51 -166 -56 -324q-6 -159 72 -247t215 -89q258 0 320 244l14 64h-170q-55 1 -95 35t-40 88t42 92q42 37 112 37h284z" />
    <glyph glyph-name="H" unicode="H" horiz-adv-x="1523" 
d="M210 -8q-60 0 -96 48q-38 48 -26 120l193 1159q25 129 137 129q70 0 106 -48t25 -122l-74 -434h625l80 475q8 61 46 95t98 34t98 -48q36 -48 24 -122l-193 -1157q-25 -129 -135 -129q-70 0 -108 48t-25 120l74 434h-621l-82 -473q-10 -61 -48 -95t-98 -34z" />
    <glyph glyph-name="I" unicode="I" horiz-adv-x="626" 
d="M210 -8q-60 0 -96 48q-38 48 -26 122l193 1157q23 129 137 129q70 0 106 -48t25 -122l-193 -1157q-10 -61 -48 -95t-98 -34z" />
    <glyph glyph-name="J" unicode="J" horiz-adv-x="1060" 
d="M393 -25q-159 0 -269 71t-155 171q-23 51 -23 107t41 92q40 37 95 37q84 0 117 -78q61 -125 184 -125q168 0 201 211l137 858q21 129 147 129q60 0 96 -48t25 -120l-131 -844q-72 -461 -465 -461z" />
    <glyph glyph-name="K" unicode="K" horiz-adv-x="1351" 
d="M428 1448q60 0 96 -47t25 -121l-68 -408h27q51 0 108 58l478 465q60 53 116 53t92 -35t36 -93t-58 -108l-512 -479l385 -514q35 -51 35 -100t-35 -88t-105 -39t-114 67l-371 502q-37 49 -102 49h-25l-80 -489q-24 -129 -146 -129q-60 0 -98 48q-36 48 -24 120l193 1159
q10 61 48 95q39 34 99 34z" />
    <glyph glyph-name="L" unicode="L" horiz-adv-x="1107" 
d="M932 256q63 0 99 -37t36 -92t-40 -91t-97 -36h-676q-96 0 -138 51t-26 146l186 1122q20 129 146 129q60 0 98 -48t25 -122l-172 -1022h559z" />
    <glyph glyph-name="M" unicode="M" horiz-adv-x="1869" 
d="M144 -6q-62 0 -100 54t-15 128l297 1032q70 248 282 248q94 0 163 -68t73 -188l30 -860q0 -14 12 -14t17 14l320 872q90 244 278 244q105 0 167 -72t58 -188l-40 -1051q-2 -71 -41 -111t-97 -40t-99 40q-42 40 -38 111l55 983q0 16 -12 17q-10 0 -16 -15l-353 -950
q-71 -186 -238 -186q-81 0 -138 59t-62 168l-43 909q0 14 -12 15q-14 0 -19 -17l-278 -1019q-14 -51 -52 -83q-37 -32 -99 -32z" />
    <glyph glyph-name="N" unicode="N" horiz-adv-x="1574" 
d="M1098 -6q-154 0 -215 156l-369 952l-6 -2q-14 -164 -59 -432l-93 -547q-20 -127 -144 -127q-60 0 -98 47t-26 119l178 1061q39 227 230 227q88 0 134 -44t77 -124l370 -926h6q18 205 72 516l74 449q21 129 145 129q60 0 98 -48t25 -122l-180 -1053q-41 -231 -219 -231z
" />
    <glyph glyph-name="O" unicode="O" horiz-adv-x="1464" 
d="M690 244q145 0 238 81q153 135 174 519q12 158 -79 256t-233 98t-243 -85q-100 -85 -133 -223t-49 -296q-16 -156 82 -253t243 -97zM719 -25q-287 -1 -470 179t-161 469q12 152 37 272q49 262 223 417q174 154 450 154t443 -181q168 -181 145 -454q-12 -135 -34 -264
q-49 -281 -217 -437t-416 -155z" />
    <glyph glyph-name="P" unicode="P" horiz-adv-x="1341" 
d="M735 745q131 1 218 63t87 189q0 86 -66 139q-67 52 -175 52h-264l-74 -443h274zM473 1448h338q248 0 381 -124t133 -310q0 -223 -155 -378t-429 -155h-325l-60 -360q-22 -127 -144 -127q-60 0 -98 47t-26 119l184 1110q12 78 64 128t137 50z" />
    <glyph glyph-name="Q" unicode="Q" horiz-adv-x="1470" 
d="M696 244q41 0 88 8l-141 203q-25 35 -25 79t33 78q33 35 90 35t95 -55l147 -213q103 140 125 471q10 152 -81 250t-233 98t-243 -85q-100 -85 -133 -223t-47 -294q-14 -154 83 -253t242 -99zM698 -25q-268 1 -449 179t-159 462q12 145 39 279q49 262 223 417
q174 154 450 154t443 -181q168 -181 146 -454q-12 -135 -35 -264q-51 -276 -205 -422l113 -161q22 -31 22 -76t-34 -80t-90 -35t-93 49l-121 174q-109 -41 -250 -41z" />
    <glyph glyph-name="R" unicode="R" horiz-adv-x="1392" 
d="M743 760q143 0 221 67q76 68 76 163t-65 147q-66 51 -178 51h-265l-71 -428h282zM596 526h-172l-68 -405q-20 -127 -144 -127q-60 0 -98 47t-26 121l184 1108q12 78 66 128t135 50h338q236 0 375 -119t139 -317q0 -162 -95 -283t-276 -172l222 -346q64 -105 -9 -182
q-37 -39 -107 -39t-120 78l-244 393q-23 37 -42 51t-58 14z" />
    <glyph glyph-name="S" unicode="S" horiz-adv-x="1300" 
d="M625 -25q-168 -1 -319 55q-279 103 -279 236q0 55 38 95t94 40q57 0 125 -47t163 -81q95 -33 193 -33t171 49q72 49 72 121q0 106 -219 172q-351 107 -441 278q-39 74 -39 164q0 201 156 322q156 120 390 120t419 -110q92 -55 92 -139q0 -53 -36 -93t-87 -41
q-51 0 -125 39q-127 76 -297 76q-111 0 -170 -48t-59 -112q-1 -64 59 -102q60 -39 187 -76q225 -68 340 -163t114 -267q-1 -203 -151 -329t-391 -126z" />
    <glyph glyph-name="T" unicode="T" horiz-adv-x="1228" 
d="M223 1190q-63 0 -100 37t-37 92t41 92t98 37h955q63 0 100 -38t37 -93t-41 -91t-98 -36h-359l-180 -1067q-19 -129 -143 -129q-60 0 -98 47t-25 119l174 1030h-324z" />
    <glyph glyph-name="U" unicode="U" horiz-adv-x="1472" 
d="M711 -25q-280 0 -450 176q-85 87 -120 230t-4 324l105 614q20 129 144 129q60 0 96 -47q38 -47 26 -121l-102 -618q-35 -210 50 -316t240 -106q289 0 348 368l119 711q20 129 146 129q61 0 97 -48t24 -122l-111 -666q-104 -637 -608 -637z" />
    <glyph glyph-name="V" unicode="V" horiz-adv-x="1392" 
d="M1442 1325q0 -49 -25 -96l-543 -1039q-113 -215 -288 -215q-98 0 -166 65t-88 173l-201 1044q-14 75 23 133t120 58q54 0 92 -32t48 -93l178 -1036q2 -18 14 -19q9 1 19 19l530 1054q53 106 148 107q59 0 99 -37t40 -86z" />
    <glyph glyph-name="W" unicode="W" horiz-adv-x="1933" 
d="M1841 1448q63 0 103 -36t38 -89q0 -14 -12 -63l-409 -1088q-72 -197 -232 -197q-92 1 -160 61t-75 181l-52 913q0 10 -10 7l-360 -965q-72 -197 -236 -197q-94 0 -160 68t-71 164l-62 1069q-4 82 39 127q42 45 102 45t101 -37t43 -100l35 -1024q0 -8 6 -9t8 7l352 966
q70 197 236 197q85 0 141 -58t62 -169l55 -936q0 -10 10 -9q4 2 6 9l357 1038q43 125 145 125z" />
    <glyph glyph-name="X" unicode="X" horiz-adv-x="1413" 
d="M1198 124q0 -50 -38 -90t-114 -40t-122 80l-269 436l-415 -442q-70 -74 -132 -74t-103 39q-40 39 -40 97t51 114l488 512l-289 469q-29 45 -29 93t37 89t101 41q90 0 137 -82l260 -422l430 451q53 53 115 53t100 -35q39 -35 39 -95t-55 -118l-478 -498l299 -481
q27 -47 27 -97z" />
    <glyph glyph-name="Y" unicode="Y" horiz-adv-x="1294" 
d="M224 1448q70 0 122 -80l305 -491l496 518q51 53 115 53t101 -37q38 -37 38 -95t-55 -118l-523 -532q-57 -61 -67 -113l-72 -432q-20 -127 -144 -127q-60 0 -99 47q-38 47 -25 119l67 393q11 64 -26 123l-355 545q-28 45 -28 98t40 91t110 38z" />
    <glyph glyph-name="Z" unicode="Z" horiz-adv-x="1243" 
d="M967 0h-781q-84 0 -130 45t-46 114t86 169l758 862h-524q-63 0 -100 37q-36 37 -36 91t40 92t98 38h747q84 0 127 -42t43 -111t-94 -175l-758 -864h572q63 0 100 -37t37 -92t-41 -91t-98 -36z" />
    <glyph glyph-name="bracketleft" unicode="[" horiz-adv-x="815" 
d="M535 -88q57 0 93 -32t36 -90t-50 -103t-116 -45h-387q-66 0 -98 39t-21 104l272 1694q25 143 160 143h387q55 0 88 -35t33 -94t-46 -100t-112 -41h-250l-239 -1440h250z" />
    <glyph glyph-name="backslash" unicode="\" horiz-adv-x="782" 
d="M562 -115q-60 0 -98 32t-48 81l-328 1386q-16 64 24 120t99 56t97 -30q38 -31 48 -82l328 -1389q16 -70 -24 -122q-38 -52 -98 -52z" />
    <glyph glyph-name="bracketright" unicode="]" horiz-adv-x="792" 
d="M260 1352q-63 0 -102 34t-39 96q0 60 42 100t101 40h412q66 0 98 -39t21 -102l-273 -1696q-25 -143 -160 -143h-376q-61 0 -97 34q-35 34 -35 94t47 101q46 41 111 41h250l238 1440h-238z" />
    <glyph glyph-name="asciicircum" unicode="^" horiz-adv-x="1038" 
d="M516 1450q140 0 207 -166l190 -471q19 -47 -5 -100t-74 -71t-103 4q-51 22 -65 71l-125 387q-9 18 -25 18t-20 -18l-123 -387q-15 -49 -67 -71t-101 -4t-74 70t-4 101l188 477q61 160 201 160z" />
    <glyph glyph-name="underscore" unicode="_" horiz-adv-x="956" 
d="M963 -201v-213h-967v213h967z" />
    <glyph glyph-name="grave" unicode="`" 
d="M780 1661q0 -51 -30 -83t-74 -32q-43 0 -74 19l-268 145q-60 31 -60 86t32 87t70 32t66 -17l279 -155q59 -31 59 -82z" />
    <glyph glyph-name="a" unicode="a" horiz-adv-x="1105" 
d="M497 203q87 0 169 41l32 194q-98 41 -182 41t-145 -37t-61 -104t50 -101t137 -34zM490 -20q-213 0 -327 100t-114 255t121 248t305 93q137 0 256 -49l17 84q16 79 -26 119t-124 40t-145 -18q-64 -18 -70 -21q-76 -18 -121 17t-45 92q0 78 92 121q127 57 315 57t300 -116
q110 -116 73 -324l-88 -504q-12 -68 -65 -102q-141 -92 -354 -92z" />
    <glyph glyph-name="b" unicode="b" horiz-adv-x="1198" 
d="M654 858q-90 0 -193 -59l-86 -510q72 -49 213 -49q174 -1 225 198q29 109 33 207q4 97 -49 155t-143 58zM594 -20q-170 0 -293 44t-180 89q-41 35 -33 98l188 1128q22 131 146 129q60 0 98 -48t25 -122l-39 -227q94 45 188 45q182 0 307 -122t111 -351q-6 -106 -41 -258
q-47 -199 -177 -302t-300 -103z" />
    <glyph glyph-name="c" unicode="c" horiz-adv-x="1114" 
d="M553 240q133 0 199 116q39 70 100 70t98 -35t37 -76q0 -139 -159 -257q-108 -78 -261 -78q-312 1 -435 220q-64 114 -54 248t41 263q45 199 177 303t303 104t281 -70q162 -102 162 -253q0 -47 -36 -86t-105 -39q-70 0 -100 65q-57 123 -199 123q-178 0 -227 -203
q-19 -82 -29 -190t51 -167q62 -58 156 -58z" />
    <glyph glyph-name="d" unicode="d" horiz-adv-x="1218" 
d="M546 240q104 0 183 61l82 496q-82 61 -205 61q-182 0 -231 -203q-23 -99 -31 -203t45 -158t157 -54zM574 1118q158 0 282 -61l47 282q23 129 135 129q70 0 107 -48t24 -122l-186 -1114q-6 -41 -20 -58t-48 -38q-171 -108 -377 -108t-341 129t-117 356q6 99 39 246
q43 203 170 305t285 102z" />
    <glyph glyph-name="e" unicode="e" horiz-adv-x="1124" 
d="M764 649q25 0 31 27q23 104 -27 158t-147 53q-193 0 -240 -238h383zM838 307q40 0 73 -36t33 -85q0 -80 -88 -129q-143 -78 -313 -77q-221 0 -350 124t-115 332q34 434 230 580q138 102 332 102t320 -131t76 -356l-8 -37q-33 -143 -160 -143h-522l-4 -27q-14 -96 44 -145
t143 -49t155 29q69 30 91 39q23 9 63 9z" />
    <glyph glyph-name="f" unicode="f" horiz-adv-x="880" 
d="M723 1489q115 0 209 -47q70 -42 70 -98t-32 -95q-30 -39 -71 -39t-92 14t-92 15q-125 0 -150 -145l-8 -58h197q57 0 92 -35t35 -86t-38 -85t-93 -33h-226l-112 -678q-21 -127 -145 -127q-61 0 -97 47t-25 121l105 637h-29q-61 -1 -94 33t-33 86t38 86t91 34h68l12 72
q63 381 420 381z" />
    <glyph glyph-name="g" unicode="g" horiz-adv-x="1187" 
d="M629 854q-193 0 -238 -199q-25 -115 -32 -207t43 -146t157 -54t189 65l79 486q-75 55 -198 55zM453 -416q-99 0 -195 32t-160 77t-63 119q0 49 33 86q33 36 81 36t91 -26q121 -74 230 -74q108 0 168 62t73 172q-106 -49 -213 -50q-197 0 -307 118t-95 329q6 90 39 246
q43 203 171 305t331 102q141 0 252 -42t172 -88t49 -111l-135 -826q-39 -243 -176 -355t-346 -112z" />
    <glyph glyph-name="h" unicode="h" horiz-adv-x="1228" 
d="M778 1118q162 0 268 -118t70 -341l-90 -538q-20 -129 -144 -129q-60 0 -98 47q-37 47 -24 121l82 485q35 203 -168 203q-54 0 -114 -27t-97 -65l-107 -637q-10 -61 -48 -94t-98 -33t-98 47q-36 47 -24 121l197 1179q21 131 145 129q60 0 96 -48t25 -122l-45 -260
q110 80 272 80z" />
    <glyph glyph-name="i" unicode="i" horiz-adv-x="618" 
d="M368 1104q62 0 99 -48t25 -122l-136 -815q-10 -61 -48 -94t-98 -33t-98 47q-36 47 -24 121l137 815q20 129 143 129zM575 1381q0 -60 -44 -108t-106 -48t-102 40t-40 102q0 63 45 109t107 46t102 -40q38 -41 38 -101z" />
    <glyph glyph-name="j" unicode="j" horiz-adv-x="616" 
d="M582 1381q0 -60 -44 -108t-106 -48t-103 40q-40 40 -40 102q0 63 46 109t108 46t101 -40q38 -41 38 -101zM-59 -383q-53 0 -92 35q-37 36 -37 96t63 105q115 75 163 155t66 193l129 774q21 129 145 129q62 0 98 -48t24 -122l-115 -684q-41 -242 -117 -372t-225 -228
q-49 -33 -102 -33z" />
    <glyph glyph-name="k" unicode="k" horiz-adv-x="1150" 
d="M430 1468q60 0 96 -48t25 -122l-102 -614h28q35 0 49 8t49 41l314 324q49 51 105 51t94 -34t38 -91t-49 -104l-340 -330l252 -338q37 -47 37 -97t-34 -87t-100 -37t-114 67l-246 340q-29 39 -90 39h-32l-54 -317q-10 -61 -48 -94t-98 -33t-98 47q-36 47 -24 121l197 1179
q21 129 145 129z" />
    <glyph glyph-name="l" unicode="l" horiz-adv-x="598" 
d="M210 -8q-60 0 -98 47q-36 47 -24 121l197 1179q21 131 145 129q62 0 98 -48t23 -122l-195 -1179q-10 -61 -48 -94t-98 -33z" />
    <glyph glyph-name="m" unicode="m" horiz-adv-x="1728" 
d="M1209 850q-81 0 -181 -70q0 -68 -10 -129l-86 -530q-20 -129 -146 -129q-60 0 -99 47q-38 47 -23 121l88 504q16 86 -19 136t-118 50t-166 -53l-113 -678q-10 -61 -48 -94t-98 -33t-98 47q-37 47 -24 121l125 747q10 61 69 101q166 110 358 110t291 -123q157 123 345 123
t292 -122t70 -334l-90 -541q-20 -129 -146 -129q-62 0 -98 46q-37 46 -24 122l83 499q14 86 -19 139q-34 52 -115 52z" />
    <glyph glyph-name="n" unicode="n" horiz-adv-x="1206" 
d="M641 850q-92 0 -195 -55l-110 -676q-10 -61 -48 -94t-98 -33t-98 47q-37 47 -24 121l125 745q10 66 67 103q176 110 398 110t350 -120q127 -120 88 -341l-90 -536q-20 -129 -146 -129q-60 0 -96 47t-25 121l82 487q16 103 -36 153t-144 50z" />
    <glyph glyph-name="o" unicode="o" horiz-adv-x="1163" 
d="M614 858q-190 0 -239 -207q-27 -100 -33 -196q-6 -95 56 -155t155 -60q172 0 227 206q21 85 30 188q9 104 -49 164t-147 60zM624 1118q194 0 330 -129q137 -129 123 -352q-8 -109 -41 -254q-45 -197 -171 -300q-127 -103 -321 -103t-338 132t-128 349q8 127 41 254
q47 197 179 300t326 103z" />
    <glyph glyph-name="p" unicode="p" horiz-adv-x="1196" 
d="M646 858q-100 0 -185 -51l-86 -516q82 -51 200 -51q195 0 238 202q23 104 31 206t-45 156t-153 54zM620 -20q-156 0 -288 61l-53 -328q-21 -127 -147 -127q-62 0 -98 47t-24 123l197 1159q6 39 20 57t47 38q172 108 378 108t342 -129t116 -356q-6 -78 -41 -246
q-39 -203 -166 -305t-283 -102z" />
    <glyph glyph-name="q" unicode="q" horiz-adv-x="1175" 
d="M530 240q106 0 191 47l90 522q-78 47 -197 47q-190 0 -245 -207q-27 -100 -31 -198q-12 -211 192 -211zM590 1118q168 0 293 -45t175 -86t38 -102l-195 -1172q-21 -129 -145 -129q-60 0 -97 48t-24 122l41 258q-66 -33 -162 -32q-199 0 -328 120q-128 122 -112 353
q8 109 41 258q45 199 176 303t299 104z" />
    <glyph glyph-name="r" unicode="r" horiz-adv-x="813" 
d="M870 956q0 -53 -36 -91t-97 -38q-20 -1 -72 11t-94 12q-117 0 -139 -141l-96 -590q-26 -129 -146 -129q-60 0 -97 48q-38 48 -25 122l102 608q33 194 126 272t267 78q117 0 212 -37t95 -125z" />
    <glyph glyph-name="s" unicode="s" horiz-adv-x="1046" 
d="M498 -20q-117 0 -233 38t-172 90t-56 105t35 87t80 34t88 -27q135 -90 249 -90q74 0 117 31t43 65t-13 55t-64 44q-50 22 -93 38t-69 29q-250 104 -250 295q0 160 125 252t315 92t318 -100q61 -48 61 -104t-32 -90q-63 -67 -182 -7q-119 61 -185 61t-111 -23
q-45 -24 -45 -66t29 -64t93 -45t102 -37q36 -14 95 -47q175 -98 172 -268q1 -154 -115 -251t-302 -97z" />
    <glyph glyph-name="t" unicode="t" horiz-adv-x="890" 
d="M473 -20q-203 0 -303 118t-66 324l134 776q25 143 145 143q65 0 101 -42t26 -103l-23 -139h242q59 0 93 -34t34 -85t-38 -86t-93 -35h-281l-71 -418q-29 -166 108 -166q43 1 95 19t86 18t67 -32t33 -82q0 -86 -90 -131t-199 -45z" />
    <glyph glyph-name="u" unicode="u" horiz-adv-x="1191" 
d="M326 1104q60 0 97 -47q38 -47 26 -119l-78 -463q-19 -119 31 -173t148 -54t191 59l111 668q10 61 47 95t97 34t97 -48q38 -48 25 -122l-123 -739q-10 -63 -65 -101q-178 -114 -394 -114t-345 138q-130 138 -91 371l80 486q10 61 48 95t98 34z" />
    <glyph glyph-name="v" unicode="v" horiz-adv-x="1089" 
d="M977 1104q86 0 122 -66t-9 -149l-383 -707q-55 -104 -109 -151t-140 -47q-85 0 -145 56q-59 56 -80 157l-145 718q-16 85 26 137t103 52t99 -33t49 -92l73 -414q27 -160 31 -291q0 -8 7 -12q6 -4 14 -1t10 11q72 211 114 293l226 439q51 100 137 100z" />
    <glyph glyph-name="w" unicode="w" horiz-adv-x="1650" 
d="M389 -16q-84 0 -143 57t-68 156l-63 733q-8 82 29 128q38 46 100 46t99 -34q38 -34 42 -99l33 -463q4 -72 -4 -240q0 -12 10 -12t14 10q59 178 76 219l184 457q68 162 207 162q80 0 126 -49t52 -137l29 -418q4 -74 4 -232q2 -12 10 -12t15 10q6 16 24 82t31 98l207 551
q39 106 133 107q74 0 111 -57t2 -146l-295 -725q-78 -193 -240 -192q-88 0 -146 60t-63 153l-35 548q0 12 -10 13q-8 0 -14 -13l-225 -565q-41 -104 -95 -150t-137 -46z" />
    <glyph glyph-name="x" unicode="x" horiz-adv-x="1118" 
d="M115 -16q-53 0 -93 36t-40 94t49 107l354 357l-201 303q-68 107 6 185q37 38 103 38t104 -60l187 -288l293 299q47 49 104 49t95 -37t38 -91t-57 -116l-320 -328l211 -323q33 -51 33 -100t-37 -87q-36 -38 -100 -38t-107 67l-198 305l-322 -323q-49 -49 -102 -49z" />
    <glyph glyph-name="y" unicode="y" horiz-adv-x="1073" 
d="M981 1104q84 0 118 -70t-9 -139l-500 -885q-241 -421 -461 -424q-51 0 -88 34t-37 83q0 78 88 125q133 72 232 242l-213 845q-20 82 17 136q38 53 116 53q104 0 137 -125l78 -320q25 -98 35 -292q0 -14 12 -15q8 0 16 13q61 156 135 290l193 357q47 92 131 92z" />
    <glyph glyph-name="z" unicode="z" horiz-adv-x="1017" 
d="M762 246q61 0 96 -34t35 -87t-39 -89t-96 -36h-594q-72 0 -113 41t-41 103t58 120l546 572h-348q-63 0 -98 34t-35 88q0 52 39 88t96 35h561q80 0 122 -40q42 -39 42 -105t-53 -119l-547 -571h369z" />
    <glyph glyph-name="braceleft" unicode="{" horiz-adv-x="851" 
d="M279 -360q-100 0 -163 71q-62 72 -44 172l80 455q14 82 -1 135t-69 102q-31 23 -31 63t51 75q139 96 160 237l72 486q12 80 74 133t141 53h336q53 0 90 -38t37 -96t-47 -98q-47 -38 -117 -38h-186q-59 0 -74 -62l-51 -340q-31 -223 -199 -307q127 -98 88 -303l-68 -367
q-4 -27 10 -45t40 -18h190q57 0 92 -35t35 -94t-48 -100t-116 -41h-282z" />
    <glyph glyph-name="bar" unicode="|" horiz-adv-x="585" 
d="M426 -145q0 -59 -40 -101t-98 -41q-58 0 -99 41q-40 41 -39 101v1712q0 59 39 101t97 42t99 -42t41 -101v-1712z" />
    <glyph glyph-name="braceright" unicode="}" horiz-adv-x="851" 
d="M309 -360h-336q-53 0 -90 38t-37 96t48 97t116 39h187q27 0 47 17t26 46l52 338q31 223 198 307q-127 98 -88 304l68 368q4 25 -10 43t-39 19h-191q-55 0 -91 34t-36 94t47 101t117 41h283q100 0 162 -72t44 -170l-79 -456q-27 -152 69 -236q29 -30 29 -66t-49 -73
q-139 -96 -160 -238l-72 -483q-12 -82 -74 -135t-141 -53z" />
    <glyph glyph-name="asciitilde" unicode="~" horiz-adv-x="1310" 
d="M859 551q-87 0 -213 51t-191 51t-133 -33q-141 -69 -211 12q-39 44 -39 97q0 102 110 150q176 75 262 75t212 -51q124 -51 197 -51t139 32t117 32q52 0 90 -45q38 -44 38 -95q0 -102 -111 -149q-180 -76 -267 -76z" />
    <glyph glyph-name="exclamdown" unicode="&#xa1;" horiz-adv-x="505" 
d="M402 1446q54 0 90 -39t24 -90l-18 -105q-8 -53 -43 -87q-35 -33 -90 -33t-89 37q-33 38 -22 92l18 104q8 51 42 86t88 35zM313 954q55 0 88 -38t27 -87l-98 -700q-10 -71 -52 -107t-102 -36t-96 45t-23 116l131 693q23 114 125 114z" />
    <glyph glyph-name="cent" unicode="&#xa2;" horiz-adv-x="1114" 
d="M478 -18q-54 0 -89 43t-24 96l24 141q-117 44 -176 144t-45 227t27 184q33 160 123 252q91 92 227 109l22 145q23 131 131 131q57 0 90 -39t23 -92l-27 -154q129 -49 182 -160t-7 -175q-31 -35 -81 -35t-74 18t-42 55q-37 86 -123 86q-152 0 -195 -163q-20 -78 -26 -154
t32 -124t118 -48t129 84q50 84 122 84q43 0 78 -31t35 -76t-33 -102q-90 -160 -268 -182l-23 -135q-10 -55 -43 -92t-87 -37z" />
    <glyph glyph-name="sterling" unicode="&#xa3;" horiz-adv-x="1275" 
d="M1022 276q55 0 93 -38t38 -96t-46 -100t-124 -42h-700q-90 0 -130 62t-6 145q13 25 59 99q89 143 99 243h-96q-53 0 -88 37t-35 93t44 95t114 39h75q-31 362 157 527q130 114 323 114q131 0 237 -49t156 -113t51 -116q0 -51 -37 -87t-89 -36t-101 37q-115 90 -213 90
q-97 0 -147 -50t-61 -112q-11 -63 1 -205h223q57 0 93 -34t36 -91t-45 -98t-123 -41h-198q-17 -150 -107 -273h547z" />
    <glyph glyph-name="currency" unicode="&#xa4;" horiz-adv-x="1234" 
d="M633 508q67 0 113 46t47 110v102q1 66 -47 113t-112 47t-110 -46t-48 -104q-3 -58 0 -118q3 -58 47 -104t110 -46zM633 285q-109 0 -201 61l-131 -129q-39 -37 -89 -37t-85 34t-35 84t39 89l150 152q-35 81 -25 239q2 57 27 119l-150 154q-41 43 -41 90t35 83t84 36
t90 -41l133 -132q92 61 200 61t200 -61l133 132q41 41 89 41t84 -35t36 -84t-41 -90l-148 -150q34 -98 25 -250q-2 -63 -25 -114l150 -150q39 -39 39 -88t-34 -84t-86 -35t-89 37l-131 127q-94 -59 -203 -59z" />
    <glyph glyph-name="yen" unicode="&#xa5;" horiz-adv-x="1310" 
d="M532 -10q-58 0 -96 48q-37 48 -26 122l28 192h-147q-53 0 -88 37t-35 92t47 95t117 40h147l4 15q4 2 0 14t-3 15q3 10 -38 65l-336 496q-34 43 -34 97t40 92t110 38t122 -80l303 -453l488 480q53 53 114 53t99 -37t36 -97q0 -60 -53 -112l-500 -483q-68 -63 -73 -88
l-4 -15h143q61 0 97 -34t36 -91q0 -55 -47 -97t-117 -42h-153l-37 -231q-8 -61 -47 -96t-97 -35z" />
    <glyph glyph-name="brokenbar" unicode="&#xa6;" horiz-adv-x="579" 
d="M424 928q0 -58 -39 -100t-97 -42t-99 41q-40 41 -39 101v639q0 59 39 101t97 42t98 -42t40 -101v-639zM424 -145q0 -59 -39 -101t-97 -41q-58 0 -99 41q-40 41 -39 101v639q0 59 39 101t97 42t98 -42t40 -101v-639z" />
    <glyph glyph-name="section" unicode="&#xa7;" horiz-adv-x="1124" 
d="M805 567q0 41 -48 68q-47 27 -157 59t-174 60q-43 -43 -43 -84t49 -70q50 -28 160 -58t176 -57q37 41 37 82zM512 -211q-110 0 -234 37t-184 81t-59 103q0 60 37 100t89 40t87 -21q127 -78 272 -78q90 0 140 42t50 93t-24 68q-24 18 -38 28q-18 13 -181 60t-239 112
q-75 65 -74 169q0 57 33 120q34 63 87 109q-70 94 -69 203q0 175 131 287t336 112q133 0 237 -39q201 -75 201 -184q0 -59 -39 -96t-87 -37t-93 22q-119 64 -212 64t-141 -41t-48 -99t46 -86q48 -28 196 -68q296 -79 296 -282q0 -111 -119 -209q82 -92 82 -215
q0 -170 -127 -282t-352 -113z" />
    <glyph glyph-name="dieresis" unicode="&#xa8;" 
d="M553 1673q0 57 42 101t99 45q57 0 92 -33t35 -91q0 -57 -42 -101t-99 -44t-92 33t-35 90zM322 1819q57 0 92 -33t35 -91q0 -57 -43 -101q-42 -44 -100 -44t-93 33t-35 90t43 102q44 44 101 44z" />
    <glyph glyph-name="copyright" unicode="&#xa9;" horiz-adv-x="1568" 
d="M768 1147q124 0 204 -50t113 -128q19 -41 19 -69t-26 -50t-66 -21q-40 0 -72 54q-45 92 -152 92q-66 0 -106 -48q-65 -77 -45 -290q2 -76 44 -123t107 -47q109 0 152 90q31 55 72 55q40 0 66 -22t26 -50t-19 -69q-33 -78 -113 -127t-203 -49q-124 0 -217 90t-106 231
q-10 102 0 207q10 143 104 233t218 91zM784 1268q-178 0 -310 -122t-142 -306q-8 -125 0 -244q10 -182 142 -305t310 -123t311 123q132 123 142 305q8 119 0 244q-12 184 -143 306q-132 122 -310 122zM784 1452q260 0 446 -176t197 -449q6 -111 0 -219q-12 -270 -197 -445
q-186 -175 -446 -175t-446 175t-199 445q-4 111 0 219q13 273 199 449t446 176z" />
    <glyph glyph-name="ordfeminine" unicode="&#xaa;" horiz-adv-x="940" 
d="M397 778q82 0 158 60q2 45 27 211l26 149q-53 31 -139 31q-133 0 -164 -129q-23 -84 -29 -172q-14 -150 121 -150zM729 557q-77 0 -125 100q-107 -100 -248 -100t-228 98t-69 267q12 123 29 200q61 330 397 330q103 0 187 -29t129 -63t30 -109l-53 -321q-4 -28 -4 -54
q0 -63 16 -92q47 -81 47 -123q1 -42 -32 -73t-76 -31z" />
    <glyph glyph-name="guillemotleft" unicode="&#xab;" horiz-adv-x="1257" 
d="M49 723q0 113 113 186l289 191q104 60 173 -7q34 -34 34 -87t-66 -99l-213 -143q-29 -18 -29 -36t15 -30l161 -139q41 -33 41 -82q1 -49 -33 -86t-85 -37t-109 45l-213 181q-78 61 -78 143zM590 723q0 113 112 186l289 191q104 60 173 -7q34 -34 34 -87t-65 -99
l-213 -143q-29 -18 -29 -36t14 -30l162 -139q41 -33 41 -82t-34 -86t-85 -37t-108 45l-213 181q-78 61 -78 143z" />
    <glyph glyph-name="logicalnot" unicode="&#xac;" horiz-adv-x="1255" 
d="M874 586h-647q-57 0 -95 38t-38 93t38 93t95 38h750q76 0 117 -45t41 -113v-364q0 -58 -36 -96t-92 -38t-95 40q-38 40 -38 94v260z" />
    <glyph glyph-name="registered" unicode="&#xae;" horiz-adv-x="1232" 
d="M614 301q-211 0 -353 139t-157 355q-6 84 0 170q14 215 156 353t354 138t356 -138t156 -353q4 -86 0 -170q-12 -215 -156 -355q-145 -139 -356 -139zM614 455q150 0 246 88t109 245q28 305 -109 429q-96 88 -246 88t-246 -88q-136 -125 -108 -429q12 -158 108 -246
t246 -87zM551 666q-1 -32 -21 -52t-50 -20t-52 22t-20 50v415q0 33 20 55t55 21h162q82 0 134 -46t52 -122q0 -102 -94 -149l94 -127q17 -23 17 -51t-20 -48t-56 -20q-35 0 -55 33l-103 151q-10 16 -28 17h-35v-129zM545 907h73q78 0 78 66t-73 65h-78v-131z" />
    <glyph glyph-name="macron" unicode="&#xaf;" 
d="M360 1556q-53 0 -85 31q-31 31 -31 76t36 82t99 37h307q51 0 80 -31t29 -76t-35 -82t-92 -37h-308z" />
    <glyph glyph-name="degree" unicode="&#xb0;" 
d="M305 1155q0 -45 26 -73t78 -29q52 0 85 40q32 40 32 85q0 46 -26 74t-76 28q-51 0 -85 -40t-34 -85zM412 881q-127 -1 -204 71t-77 191t83 214t212 95t204 -74t75 -190t-83 -212q-83 -95 -210 -95z" />
    <glyph glyph-name="plusminus" unicode="&#xb1;" horiz-adv-x="1255" 
d="M1014 0h-774q-57 0 -96 38q-38 38 -38 93t38 92t96 37h774q55 0 94 -37t39 -92t-39 -93t-94 -38zM630 307q-54 0 -93 41t-39 94v260h-258q-57 0 -96 38q-38 38 -38 93t38 93t96 37h258v258q0 55 39 94t93 39t91 -39t37 -94v-258h256q55 0 94 -38q39 -39 39 -93t-40 -92
t-93 -38h-256v-260q0 -57 -37 -96t-91 -39z" />
    <glyph glyph-name="twosuperior" unicode="&#xb2;" horiz-adv-x="868" 
d="M326 733h264q57 0 89 -32q32 -31 32 -77t-40 -83t-110 -37h-405q-51 0 -80 28t-29 78q0 209 223 348q167 84 216 125q48 41 48 78t-23 57q-24 20 -60 19q-61 0 -142 -70q-47 -39 -86 -39t-67 27t-29 73q0 46 46 98t126 87t166 35q127 0 213 -76t86 -190q0 -207 -288 -338
q-124 -56 -144 -90q-6 -11 -6 -21z" />
    <glyph glyph-name="threesuperior" unicode="&#xb3;" horiz-adv-x="825" 
d="M579 577q-140 -97 -345 -97q-206 0 -204 117q0 42 36 73q35 31 94 30h71q94 0 178 36q83 36 83 112t-91 76l-84 -9q-35 0 -59 22q-24 21 -25 57q0 36 35 63l164 129h-186q-59 0 -91 33t-32 79t37 85q37 38 100 38h361q125 0 125 -109q0 -56 -76 -122l-129 -109
q80 -19 129 -81t49 -154q0 -172 -140 -269z" />
    <glyph glyph-name="acute" unicode="&#xb4;" 
d="M774 1804q0 -68 -88 -110l-280 -131q-23 -13 -58 -13q-36 0 -68 29t-32 86t67 90l281 135q97 40 148 -13q30 -30 30 -73z" />
    <glyph glyph-name="mu" unicode="&#xb5;" horiz-adv-x="1234" 
d="M164 -412q-61 0 -102 46q-40 46 -27 116l198 1202q25 152 146 152q63 0 100 -42t25 -110l-80 -477q-18 -113 31 -167t153 -54t178 51l113 649q27 150 143 150q62 0 100 -40t25 -110l-129 -759q-12 -66 -69 -104t-161 -74t-208 -35q-150 0 -246 84l-57 -336
q-22 -142 -133 -142z" />
    <glyph glyph-name="mu" unicode="&#x3bc;" horiz-adv-x="1234" 
d="M164 -412q-61 0 -102 46q-40 46 -27 116l198 1202q25 152 146 152q63 0 100 -42t25 -110l-80 -477q-18 -113 31 -167t153 -54t178 51l113 649q27 150 143 150q62 0 100 -40t25 -110l-129 -759q-12 -66 -69 -104t-161 -74t-208 -35q-150 0 -246 84l-57 -336
q-22 -142 -133 -142z" />
    <glyph glyph-name="paragraph" unicode="&#xb6;" horiz-adv-x="1515" 
d="M705 1169q-111 0 -191 -62q-80 -63 -80 -171t69 -158t183 -51h37l76 442h-94zM690 -393q-62 0 -100 43t-29 104l117 705h-35q-225 0 -367 137q-141 137 -141 346q-1 209 147 352t418 144h607q102 0 150 -56t34 -147l-246 -1487q-27 -141 -141 -141q-63 0 -106 43
q-42 43 -31 104l235 1403h-131l-233 -1409q-12 -63 -48 -102q-38 -39 -100 -39z" />
    <glyph glyph-name="periodcentered" unicode="&#xb7;" horiz-adv-x="530" 
d="M251 543q-54 0 -88 39t-24 90l21 133q10 51 45 84t89 33t87 -38t25 -91l-23 -131q-10 -53 -44 -86t-88 -33z" />
    <glyph glyph-name="cedilla" unicode="&#xb8;" 
d="M690 -262q0 -108 -86 -180t-215 -109q-29 -8 -57 -8q-28 1 -52 23t-24 59q0 61 78 90q3 0 36 11q142 47 142 116q0 43 -53 43l-68 -10q-43 0 -65 36t0 74l75 146q35 65 84 65t67 -37t-9 -77l-37 -60q80 -4 132 -54t52 -128z" />
    <glyph glyph-name="onesuperior" unicode="&#xb9;" horiz-adv-x="679" 
d="M365 498q-57 0 -89 41q-31 41 -20 96l80 479l-117 -53q-51 -29 -105 -3t-54 96t71 106l295 155q106 46 156 -18q29 -37 18 -92l-113 -682q-20 -125 -122 -125z" />
    <glyph glyph-name="ordmasculine" unicode="&#xba;" horiz-adv-x="880" 
d="M460 1225q-56 0 -96 -39q-62 -61 -73 -254q-6 -70 31 -111t98 -41q115 0 143 140q13 76 19 150t-30 114t-92 41zM475 1450q164 0 262 -106t84 -275q-6 -63 -22 -164q-33 -162 -130 -255t-254 -93t-261 99t-97 255q6 113 19 183q33 168 134 262t265 94z" />
    <glyph glyph-name="guillemotright" unicode="&#xbb;" horiz-adv-x="1255" 
d="M682 760q0 -111 -113 -185l-288 -190q-51 -29 -95 -29t-77 34t-33 89t63 96l215 146q27 19 27 35t-14 30l-162 140q-41 33 -41 82t35 85q35 35 86 35t106 -43l213 -180q78 -63 78 -145zM1217 760q0 -111 -113 -185l-289 -190q-51 -29 -95 -29t-77 34t-33 89t64 96
l215 146q46 31 12 65l-162 140q-41 33 -41 82t35 85q35 35 86 35t107 -43l213 -180q78 -63 78 -145z" />
    <glyph glyph-name="onequarter" unicode="&#xbc;" horiz-adv-x="2074" 
d="M554 -66q-64 0 -104 35t-40 80t20 80l741 1305q41 72 115 71q51 -1 91 -33t40 -80t-22 -83l-740 -1305q-37 -70 -101 -70zM368 498q-54 0 -85 41t-21 96l80 479l-115 -53q-51 -29 -106 -3t-55 96t71 106l297 155q106 46 156 -18q29 -37 18 -92l-112 -682q-10 -57 -42 -91
t-86 -34zM1616 385l49 283l-274 -283h225zM1661 0q-43 0 -71 29t-19 80l12 69h-346q-59 0 -96 30t-37 92t90 146l426 422q68 68 136 68t102 -40q35 -40 22 -114l-65 -397h55q51 0 79 -27q27 -28 27 -68t-34 -73t-95 -33h-67l-15 -82q-18 -102 -104 -102z" />
    <glyph glyph-name="onehalf" unicode="&#xbd;" horiz-adv-x="2080" 
d="M1743 658q-1 76 -97 75q-48 0 -128 -69q-47 -39 -86 -39q-39 1 -68 27t-29 72t46 98t126 87t166 35q127 0 213 -76t86 -190q0 -207 -288 -338q-96 -44 -123 -68t-27 -43h264q57 1 89 -31t32 -78t-40 -83t-110 -37h-405q-51 0 -80 29t-29 77q0 209 224 349q170 85 217 126
t47 77zM399 498q-57 0 -88 41t-20 96l80 479l-117 -53q-51 -29 -106 -3q-54 26 -54 96t72 106l295 155q104 46 154 -18q30 -37 20 -92l-113 -682q-21 -125 -123 -125zM584 -68q-64 0 -104 36t-40 77t21 82l741 1305q41 72 117 71q51 0 91 -33t40 -80t-23 -83l-741 -1305
q-38 -70 -102 -70z" />
    <glyph glyph-name="threequarters" unicode="&#xbe;" horiz-adv-x="2201" 
d="M612 577q-140 -97 -345 -97q-204 0 -204 117q0 42 35 73t95 30h71q94 0 177 36t83 112t-90 76l-84 -9q-36 0 -60 22q-24 21 -24 57t35 63l164 129h-186q-59 0 -92 33q-31 33 -31 79t37 85q37 38 100 38h360q125 0 125 -109q0 -56 -76 -122l-129 -109q80 -19 129 -81
t50 -154q0 -172 -140 -269zM722 -68q-64 0 -105 36q-67 60 -19 159l741 1305q41 72 117 71q51 0 91 -33t40 -80t-22 -83l-742 -1305q-37 -70 -101 -70zM1751 385l51 283l-276 -283h225zM1796 0q-43 0 -71 29t-19 80l12 69h-346q-59 0 -96 30t-37 92t90 146l426 422
q68 68 135 68q68 0 104 -40t23 -114l-67 -397h55q51 0 80 -27q29 -28 29 -68t-35 -73t-97 -33h-67l-14 -82q-19 -102 -105 -102z" />
    <glyph glyph-name="questiondown" unicode="&#xbf;" horiz-adv-x="1120" 
d="M651 950q47 0 77 -35t30 -84q0 -82 -113 -129q-6 -4 -44 -20q-203 -85 -247 -155t-44 -130q-1 -59 42 -101t125 -42q117 0 240 113q55 55 113 55t90 -35t32 -89t-49 -110q-81 -88 -197 -145t-241 -57q-182 0 -303 108t-121 283q0 354 516 555q47 18 94 18zM716 1454
q54 0 89 -39t24 -90l-18 -104q-8 -53 -43 -87t-89 -34t-87 39t-25 92l19 104q8 51 42 85t88 34z" />
    <glyph glyph-name="Agrave" unicode="&#xc0;" horiz-adv-x="1372" 
d="M866 1546q-43 0 -73 19l-269 145q-59 31 -59 86t32 87q31 32 69 32t67 -17l278 -155q59 -31 59 -82t-30 -83q-31 -32 -74 -32zM784 1182q-20 0 -36 -31l-252 -502h397l-84 504q-5 29 -25 29zM84 -6q-82 0 -120 63t1 138l555 1071q57 112 129 156t162 44t158 -55t90 -172
l196 -1059q13 -74 -21 -129t-100 -55t-104 34q-39 34 -49 95l-49 281h-553l-166 -322q-47 -90 -129 -90z" />
    <glyph glyph-name="Aacute" unicode="&#xc1;" horiz-adv-x="1372" 
d="M1194 1804q0 -68 -88 -110l-281 -131q-67 -35 -125 16q-33 29 -33 86t68 90l281 135q96 39 148 -13q30 -30 30 -73zM784 1182q-20 0 -36 -31l-252 -502h397l-84 504q-5 29 -25 29zM84 -6q-82 0 -120 63t1 138l555 1071q57 112 129 156t162 44t158 -55t90 -172l196 -1059
q13 -74 -21 -129t-100 -55t-104 34q-39 34 -49 95l-49 281h-553l-166 -322q-47 -90 -129 -90z" />
    <glyph glyph-name="Acircumflex" unicode="&#xc2;" horiz-adv-x="1372" 
d="M878 1927q48 0 83 -35l182 -170q43 -43 43 -88q0 -44 -30 -74t-74 -30t-81 37l-141 129l-194 -140q-37 -24 -75 -24t-66 29q-27 29 -27 77t57 91l236 169q39 29 87 29zM784 1182q-20 0 -36 -31l-252 -502h397l-84 504q-5 29 -25 29zM84 -6q-82 0 -120 63t1 138l555 1071
q57 112 129 156t162 44t158 -55t90 -172l196 -1059q13 -74 -21 -129t-100 -55t-104 34q-39 34 -49 95l-49 281h-553l-166 -322q-47 -90 -129 -90z" />
    <glyph glyph-name="Atilde" unicode="&#xc3;" horiz-adv-x="1372" 
d="M971 1536q-55 0 -135 40t-112 40t-74 -33t-76 -33t-65 30q-32 30 -32 71t58 90q98 86 196 86q55 0 139 -41t110 -41t71 40t81 40t65 -29q30 -29 30 -77t-68 -101q-100 -82 -188 -82zM784 1182q-20 0 -36 -31l-252 -502h397l-84 504q-5 29 -25 29zM84 -6q-82 0 -120 63
t1 138l555 1071q57 112 129 156t162 44t158 -55t90 -172l196 -1059q13 -74 -21 -129t-100 -55t-104 34q-39 34 -49 95l-49 281h-553l-166 -322q-47 -90 -129 -90z" />
    <glyph glyph-name="Adieresis" unicode="&#xc4;" horiz-adv-x="1372" 
d="M1051 1819q57 0 92 -33t35 -91q0 -57 -42 -101t-100 -44t-92 33q-35 33 -35 90t42 102q43 44 100 44zM678 1819q57 0 92 -33t35 -91q0 -57 -43 -101q-42 -44 -100 -44t-93 33t-35 90t44 101q43 44 100 45zM784 1182q-20 0 -36 -31l-252 -502h397l-84 504q-5 29 -25 29z
M84 -6q-82 0 -120 63t1 138l555 1071q57 112 129 156t162 44t158 -55t90 -172l196 -1059q13 -74 -21 -129t-100 -55t-104 34q-39 34 -49 95l-49 281h-553l-166 -322q-47 -90 -129 -90z" />
    <glyph glyph-name="Aring" unicode="&#xc5;" horiz-adv-x="1372" 
d="M869 1675q36 0 61 27q24 26 24 62t-21 58q-23 22 -57 22t-60 -28t-26 -63t22 -57q21 -22 57 -21zM867 1536q-99 0 -160 58t-61 152t68 167q69 74 169 74q100 1 159 -59q60 -60 60 -154t-68 -166t-167 -72zM784 1182q-20 0 -36 -31l-252 -502h397l-84 504q-5 29 -25 29z
M84 -6q-82 0 -120 63t1 138l555 1071q57 112 129 156t162 44t158 -55t90 -172l196 -1059q13 -74 -21 -129t-100 -55t-104 34q-39 34 -49 95l-49 281h-553l-166 -322q-47 -90 -129 -90z" />
    <glyph glyph-name="AE" unicode="&#xc6;" horiz-adv-x="2127" 
d="M1122 1186q-43 0 -90 -60l-342 -440h354l84 500h-6zM114 -6q-60 0 -98 35q-37 35 -36 86q0 51 30 88l830 1085q70 92 150 126t214 34h776q62 0 100 -38t38 -93t-41 -91t-99 -36h-577l-58 -346h498q59 0 93 -35t34 -86t-38 -85t-93 -34h-530l-60 -348h561q62 0 100 -37
t38 -92t-41 -91t-99 -36h-680q-96 0 -137 56t-24 153l39 231h-484l-297 -385q-49 -61 -109 -61z" />
    <glyph glyph-name="Ccedilla" unicode="&#xc7;" horiz-adv-x="1355" 
d="M1319 1062q0 -50 -38 -90t-95 -40q-94 0 -133 88q-76 178 -269 178q-270 0 -364 -348q-43 -154 -47 -290q-5 -136 71 -226t224 -90q188 0 297 190q53 90 129 90q55 0 94 -34t39 -81t-19 -94q-59 -137 -186 -233t-324 -105l-34 -57q82 -4 133 -54t51 -128q0 -108 -85 -180
t-214 -109q-28 -8 -57 -8q-29 1 -54 23t-24 59q0 61 80 90q4 2 55 19t79 38q42 33 42 70q0 43 -54 43l-67 -10q-43 0 -65 36t-1 74l54 103q-205 34 -329 188t-118 381t82 448t236 343t387 120q182 0 313 -81t186 -214q25 -59 25 -109z" />
    <glyph glyph-name="Egrave" unicode="&#xc8;" horiz-adv-x="1253" 
d="M870 1546q-43 0 -73 19l-269 145q-59 31 -59 86t32 87t70 32t66 -17l278 -155q59 -31 59 -82t-30 -83q-31 -32 -74 -32zM489 1448h617q63 0 100 -38t37 -93t-41 -91t-98 -36h-578l-57 -342h492q63 0 98 -35t35 -89t-39 -89t-99 -35h-526l-57 -344h561q63 0 100 -37
t37 -92t-41 -91t-98 -36h-680q-96 0 -137 56t-25 153l174 1042q32 197 225 197z" />
    <glyph glyph-name="Eacute" unicode="&#xc9;" horiz-adv-x="1253" 
d="M1147 1804q0 -68 -88 -110l-281 -131q-67 -35 -125 16q-33 29 -33 86t68 90l281 135q96 39 148 -13q30 -30 30 -73zM489 1448h617q63 0 100 -38t37 -93t-41 -91t-98 -36h-578l-57 -342h492q63 0 98 -35t35 -89t-39 -89t-99 -35h-526l-57 -344h561q63 0 100 -37t37 -92
t-41 -91t-98 -36h-680q-96 0 -137 56t-25 153l174 1042q32 197 225 197z" />
    <glyph glyph-name="Ecircumflex" unicode="&#xca;" horiz-adv-x="1253" 
d="M465 1638q0 48 57 91l236 169q39 29 87 29t83 -35l182 -170q43 -43 43 -88q0 -44 -30 -74q-29 -30 -73 -30t-81 37l-142 129l-194 -140q-37 -24 -75 -24t-66 29t-27 77zM489 1448h617q63 0 100 -38t37 -93t-41 -91t-98 -36h-578l-57 -342h492q63 0 98 -35t35 -89t-39 -89
t-99 -35h-526l-57 -344h561q63 0 100 -37t37 -92t-41 -91t-98 -36h-680q-96 0 -137 56t-25 153l174 1042q32 197 225 197z" />
    <glyph glyph-name="Edieresis" unicode="&#xcb;" horiz-adv-x="1253" 
d="M897 1673q0 57 42 101t99 45q57 0 92 -33t35 -91q0 -57 -42 -101t-99 -44t-92 33t-35 90zM666 1819q57 0 92 -33t35 -91q0 -57 -43 -101q-42 -44 -100 -44t-93 33t-35 90t43 102q44 44 101 44zM489 1448h617q63 0 100 -38t37 -93t-41 -91t-98 -36h-578l-57 -342h492
q63 0 98 -35t35 -89t-39 -89t-99 -35h-526l-57 -344h561q63 0 100 -37t37 -92t-41 -91t-98 -36h-680q-96 0 -137 56t-25 153l174 1042q32 197 225 197z" />
    <glyph glyph-name="Igrave" unicode="&#xcc;" horiz-adv-x="634" 
d="M575 1661q-1 -51 -31 -83t-73 -32t-74 19l-268 145q-59 31 -59 86t31 87q32 32 70 32t67 -17l278 -155q59 -31 59 -82zM208 -8q-60 0 -96 48q-38 48 -26 122l193 1157q19 129 145 129q62 0 98 -48t25 -122l-193 -1157q-10 -61 -48 -95t-98 -34z" />
    <glyph glyph-name="Iacute" unicode="&#xcd;" horiz-adv-x="634" 
d="M842 1804q0 -68 -88 -110l-281 -131q-67 -35 -125 16q-33 29 -33 86t68 90l281 135q96 39 148 -13q30 -30 30 -73zM206 -8q-60 0 -96 48q-38 48 -26 122l192 1157q23 129 138 129q70 0 106 -48t25 -122l-193 -1157q-10 -61 -48 -95t-98 -34z" />
    <glyph glyph-name="Icircumflex" unicode="&#xce;" horiz-adv-x="634" 
d="M102 1638q0 48 58 91l235 169q39 29 87 29t83 -35l183 -170q43 -43 43 -88q0 -44 -30 -74t-74 -30t-81 37l-141 129l-195 -140q-82 -55 -140 5q-28 29 -28 77zM206 -8q-60 0 -96 48q-38 48 -26 122l192 1157q23 129 138 129q70 0 106 -48t25 -122l-193 -1157
q-10 -61 -48 -95t-98 -34z" />
    <glyph glyph-name="Idieresis" unicode="&#xcf;" horiz-adv-x="634" 
d="M668 1819q57 0 92 -33t35 -91q0 -57 -42 -101q-41 -44 -99 -44t-93 33t-35 90t42 102q43 44 100 44zM295 1819q57 0 92 -33t35 -91q0 -57 -43 -101t-101 -44t-92 33t-34 90t43 101t100 45zM208 -8q-60 0 -96 48q-38 48 -26 122l193 1157q19 129 145 129q62 0 98 -48
t25 -122l-193 -1157q-10 -61 -48 -95t-98 -34z" />
    <glyph glyph-name="Eth" unicode="&#xd0;" horiz-adv-x="1437" 
d="M557 256q219 0 331 81t159 271q87 336 -42 477q-89 96 -264 97h-219l-55 -338h219q59 0 91 -34t32 -84t-36 -88t-99 -38h-248l-57 -344h188zM242 0q-82 0 -127 55t-31 142l68 403h-50q-59 0 -91 33q-31 33 -31 83t39 89q40 39 108 39h66l69 407q35 197 223 197h263
q311 0 470 -169q229 -243 103 -728q-78 -295 -261 -423t-507 -128h-311z" />
    <glyph glyph-name="Ntilde" unicode="&#xd1;" horiz-adv-x="1574" 
d="M1071 1536q-55 0 -135 40t-112 40t-74 -33t-75 -33q-34 0 -66 30q-77 72 23 160q101 87 199 87q55 0 139 -41t110 -41t71 40t81 40t66 -29t29 -77q0 -48 -67 -101q-101 -82 -189 -82zM1098 -6q-154 0 -215 156l-369 952l-6 -2q-14 -164 -59 -432l-93 -547
q-20 -127 -144 -127q-60 0 -98 47t-26 119l178 1061q39 227 230 227q88 0 134 -44t77 -124l370 -926h6q18 205 72 516l74 449q21 129 145 129q60 0 98 -48t25 -122l-180 -1053q-41 -231 -219 -231z" />
    <glyph glyph-name="Ograve" unicode="&#xd2;" horiz-adv-x="1466" 
d="M913 1546q-43 0 -73 19l-269 145q-59 31 -59 86t32 87t70 32t66 -17l278 -155q60 -31 60 -82t-31 -83t-74 -32zM694 244q145 0 238 81q153 135 174 519q12 158 -79 256t-233 98t-243 -85q-100 -85 -133 -223t-49 -296q-16 -156 82 -253t243 -97zM723 -25
q-287 -1 -470 179t-161 469q12 152 37 272q49 262 223 417q174 154 450 154t443 -181q168 -181 146 -454q-12 -135 -35 -264q-49 -281 -217 -437t-416 -155z" />
    <glyph glyph-name="Oacute" unicode="&#xd3;" horiz-adv-x="1466" 
d="M1237 1804q0 -68 -88 -110l-281 -131q-67 -35 -125 16q-33 29 -33 86t68 90l281 135q96 39 148 -13q30 -30 30 -73zM694 244q145 0 238 81q153 135 174 519q12 158 -79 256t-233 98t-243 -85q-100 -85 -133 -223t-49 -296q-16 -156 82 -253t243 -97zM723 -25
q-287 -1 -470 179t-161 469q12 152 37 272q49 262 223 417q174 154 450 154t443 -181q168 -181 146 -454q-12 -135 -35 -264q-49 -281 -217 -437t-416 -155z" />
    <glyph glyph-name="Ocircumflex" unicode="&#xd4;" horiz-adv-x="1466" 
d="M532 1638q0 48 58 91l235 169q39 29 87 29t83 -35l183 -170q43 -43 43 -88q0 -44 -30 -74t-74 -30t-81 37l-141 129l-195 -140q-82 -55 -140 5q-28 29 -28 77zM694 244q145 0 238 81q153 135 174 519q12 158 -79 256t-233 98t-243 -85q-100 -85 -133 -223t-49 -296
q-16 -156 82 -253t243 -97zM723 -25q-287 -1 -470 179t-161 469q12 152 37 272q49 262 223 417q174 154 450 154t443 -181q168 -181 146 -454q-12 -135 -35 -264q-49 -281 -217 -437t-416 -155z" />
    <glyph glyph-name="Otilde" unicode="&#xd5;" horiz-adv-x="1466" 
d="M987 1536q-55 0 -135 40t-112 40t-74 -33t-75 -33q-34 0 -66 30q-77 72 23 160q101 87 200 87q55 0 139 -41q83 -41 109 -41t71 40t81 40t66 -29t29 -77q0 -48 -67 -101q-101 -82 -189 -82zM694 244q145 0 238 81q153 135 174 519q12 158 -79 256t-233 98t-243 -85
q-100 -85 -133 -223t-49 -296q-16 -156 82 -253t243 -97zM723 -25q-287 -1 -470 179t-161 469q12 152 37 272q49 262 223 417q174 154 450 154t443 -181q168 -181 146 -454q-12 -135 -35 -264q-49 -281 -217 -437t-416 -155z" />
    <glyph glyph-name="Odieresis" unicode="&#xd6;" horiz-adv-x="1466" 
d="M1090 1819q57 0 92 -33t35 -91q0 -57 -42 -101q-41 -44 -99 -44t-93 33t-35 90t42 102q43 44 100 44zM717 1819q57 0 92 -33t35 -91q0 -57 -43 -101t-101 -44t-92 33q-35 33 -35 90t43 102q44 44 101 44zM694 244q145 0 238 81q153 135 174 519q12 158 -79 256t-233 98
t-243 -85q-100 -85 -133 -223t-49 -296q-16 -156 82 -253t243 -97zM723 -25q-287 -1 -470 179t-161 469q12 152 37 272q49 262 223 417q174 154 450 154t443 -181q168 -181 146 -454q-12 -135 -35 -264q-49 -281 -217 -437t-416 -155z" />
    <glyph glyph-name="multiply" unicode="&#xd7;" horiz-adv-x="1255" 
d="M971 1192q55 0 96 -41q35 -41 33 -93t-39 -89l-250 -250l248 -242q39 -39 41 -93t-35 -95t-92 -41t-96 41l-250 248l-252 -254q-41 -39 -93 -40t-92 37t-39 94t39 95l252 250l-254 252q-39 39 -38 95q0 56 40 94t92 37t91 -40l254 -254l250 248q39 41 94 41z" />
    <glyph glyph-name="Oslash" unicode="&#xd8;" horiz-adv-x="1466" 
d="M768 1198q-117 0 -217 -85t-139 -247q-64 -284 -31 -399l582 684q-78 47 -195 47zM716 244q124 0 216 81t125 212q75 297 39 436l-580 -682q76 -47 200 -47zM734 -25q-236 0 -404 117l-62 -67q-47 -49 -95 -49t-79 30q-31 31 -31 73t46 97l67 78q-100 164 -84 364
q12 158 37 277q49 262 223 417t436 154q217 0 369 -106l53 57q44 49 92 49t80 -30t33 -75q0 -44 -43 -93l-61 -70q96 -154 80 -367q-12 -135 -35 -264q-49 -283 -218 -437q-168 -154 -404 -155z" />
    <glyph glyph-name="Ugrave" unicode="&#xd9;" horiz-adv-x="1472" 
d="M1036 1661q0 -51 -30 -83t-74 -32q-43 0 -74 19l-268 145q-60 31 -60 86t32 87t70 32t66 -17l279 -155q59 -31 59 -82zM711 -25q-280 0 -450 176q-85 87 -120 230t-4 324l105 614q20 129 144 129q60 0 96 -47q38 -47 26 -121l-102 -618q-35 -210 50 -316t240 -106
q289 0 348 368l119 711q20 129 146 129q61 0 97 -48t24 -122l-111 -666q-104 -637 -608 -637z" />
    <glyph glyph-name="Uacute" unicode="&#xda;" horiz-adv-x="1472" 
d="M1229 1804q0 -68 -88 -110l-281 -131q-20 -13 -56 -13t-69 29t-33 86t68 90l281 135q96 39 148 -13q30 -30 30 -73zM711 -25q-280 0 -450 176q-85 87 -120 230t-4 324l105 614q20 129 144 129q60 0 96 -47q38 -47 26 -121l-102 -618q-35 -210 50 -316t240 -106
q289 0 348 368l119 711q20 129 146 129q61 0 97 -48t24 -122l-111 -666q-104 -637 -608 -637z" />
    <glyph glyph-name="Ucircumflex" unicode="&#xdb;" horiz-adv-x="1472" 
d="M549 1638q0 48 57 91l236 169q39 29 87 29t83 -35l182 -170q43 -43 43 -88q0 -44 -30 -74q-29 -30 -73 -30t-81 37l-142 129l-194 -140q-37 -24 -75 -24t-66 29t-27 77zM711 -25q-280 0 -450 176q-85 87 -120 230t-4 324l105 614q20 129 144 129q60 0 96 -47
q38 -47 26 -121l-102 -618q-35 -210 50 -316t240 -106q289 0 348 368l119 711q20 129 146 129q61 0 97 -48t24 -122l-111 -666q-104 -637 -608 -637z" />
    <glyph glyph-name="Udieresis" unicode="&#xdc;" horiz-adv-x="1472" 
d="M1104 1819q57 0 92 -33t35 -91q0 -57 -42 -101q-41 -44 -99 -44t-93 33t-35 90t43 101q42 44 99 45zM588 1673q0 57 43 101t100 45q57 0 92 -33t35 -91q0 -57 -43 -101t-100 -44t-92 33t-35 90zM711 -25q-280 0 -450 176q-85 87 -120 230t-4 324l105 614q20 129 144 129
q60 0 96 -47q38 -47 26 -121l-102 -618q-35 -210 50 -316t240 -106q289 0 348 368l119 711q20 129 146 129q61 0 97 -48t24 -122l-111 -666q-104 -637 -608 -637z" />
    <glyph glyph-name="Yacute" unicode="&#xdd;" horiz-adv-x="1294" 
d="M602 1665q0 57 68 90l280 135q96 40 149 -13q30 -30 29 -73q0 -68 -88 -110l-280 -131q-67 -35 -125 16q-33 29 -33 86zM224 1448q70 0 122 -80l305 -491l496 518q51 53 115 53t101 -37q38 -37 38 -95t-55 -118l-523 -532q-57 -61 -67 -113l-72 -432q-20 -127 -144 -127
q-60 0 -99 47q-38 47 -25 119l67 393q11 64 -26 123l-355 545q-28 45 -28 98t40 91t110 38z" />
    <glyph glyph-name="Thorn" unicode="&#xde;" horiz-adv-x="1294" 
d="M653 502q156 0 246 66t90 188q0 201 -252 200h-237l-76 -454h229zM219 -6q-65 0 -103 44t-28 107l188 1143q29 160 150 160q61 0 101 -40t28 -112l-14 -88h207q266 0 398 -126t132 -320t-133 -348q-68 -78 -192 -125t-287 -47h-285l-19 -107q-25 -141 -143 -141z" />
    <glyph glyph-name="germandbls" unicode="&#xdf;" horiz-adv-x="1331" 
d="M725 1483q182 -1 309 -97t127 -237q0 -70 -34 -131q-35 -61 -73 -96t-72 -70t-34 -57q0 -23 18 -41t72 -52q53 -34 74 -49q162 -117 162 -285t-117 -274t-317 -106t-324 110q-55 48 -55 102t34 90t78 36q43 0 123 -46t150 -46t116 38t46 94t-33 89t-111 73
q-184 100 -184 240q0 66 33 124t72 91q106 87 106 138q0 50 -47 80t-119 30q-199 0 -236 -227l-147 -877q-21 -137 -140 -137q-58 0 -98 46q-39 46 -26 118l143 874q74 455 504 455z" />
    <glyph glyph-name="agrave" unicode="&#xe0;" horiz-adv-x="1105" 
d="M739 1208q-43 0 -73 19l-269 145q-59 31 -59 86t32 87t70 32t66 -16l278 -156q60 -31 60 -82t-31 -83t-74 -32zM497 203q87 0 169 41l32 194q-98 41 -182 41t-145 -37t-61 -104t50 -101t137 -34zM490 -20q-213 0 -327 100t-114 255t121 248t305 93q137 0 256 -49l17 84
q16 79 -26 119t-124 40t-145 -18q-64 -18 -70 -21q-76 -18 -121 17t-45 92q0 78 92 121q127 57 315 57t300 -116q110 -116 73 -324l-88 -504q-12 -68 -65 -102q-141 -92 -354 -92z" />
    <glyph glyph-name="aacute" unicode="&#xe1;" horiz-adv-x="1116" 
d="M1010 1468q0 -68 -88 -110l-281 -131q-20 -13 -56 -13t-69 29t-33 86t68 90l280 135q96 40 149 -13q30 -30 30 -73zM497 203q87 0 169 41l32 194q-98 41 -182 41t-145 -37t-61 -104t50 -101t137 -34zM490 -20q-213 0 -327 100t-114 255t121 248t305 93q137 0 256 -49
l17 84q16 79 -26 119t-124 40t-145 -18q-64 -18 -70 -21q-76 -18 -121 17t-45 92q0 78 92 121q127 57 315 57t300 -116q110 -116 73 -324l-88 -504q-12 -68 -65 -102q-141 -92 -354 -92z" />
    <glyph glyph-name="acircumflex" unicode="&#xe2;" horiz-adv-x="1118" 
d="M311 1280q0 49 58 90l235 170q39 29 87 29t83 -35l182 -170q43 -43 43 -88q1 -45 -29 -75t-74 -30t-81 37l-141 129l-195 -139q-81 -56 -140 4q-28 28 -28 78zM497 203q87 0 169 41l32 194q-98 41 -182 41t-145 -37t-61 -104t50 -101t137 -34zM490 -20q-213 0 -327 100
t-114 255t121 248t305 93q137 0 256 -49l17 84q16 79 -26 119t-124 40t-145 -18q-64 -18 -70 -21q-76 -18 -121 17t-45 92q0 78 92 121q127 57 315 57t300 -116q110 -116 73 -324l-88 -504q-12 -68 -65 -102q-141 -92 -354 -92z" />
    <glyph glyph-name="atilde" unicode="&#xe3;" horiz-adv-x="1126" 
d="M799 1212q-55 0 -135 40t-112 40t-74 -32t-76 -33t-65 29q-32 30 -32 71t57 90q98 86 197 86q55 0 139 -41t110 -41t71 40t81 40q36 -1 65 -29q30 -28 30 -76t-68 -102q-100 -82 -188 -82zM497 203q87 0 169 41l32 194q-98 41 -182 41t-145 -37t-61 -104t50 -101t137 -34
zM490 -20q-213 0 -327 100t-114 255t121 248t305 93q137 0 256 -49l17 84q16 79 -26 119t-124 40t-145 -18q-64 -18 -70 -21q-76 -18 -121 17t-45 92q0 78 92 121q127 57 315 57t300 -116q110 -116 73 -324l-88 -504q-12 -68 -65 -102q-141 -92 -354 -92z" />
    <glyph glyph-name="adieresis" unicode="&#xe4;" horiz-adv-x="1112" 
d="M854 1219q-57 1 -92 33t-35 89t42 101t99 45q56 0 92 -33t36 -91t-43 -101q-42 -43 -99 -43zM496 1487q57 0 92 -33t35 -91t-43 -101q-42 -43 -100 -43q-58 1 -93 33t-35 89t43 102q44 44 101 44zM497 203q87 0 169 41l32 194q-98 41 -182 41t-145 -37t-61 -104t50 -101
t137 -34zM490 -20q-213 0 -327 100t-114 255t121 248t305 93q137 0 256 -49l17 84q16 79 -26 119t-124 40t-145 -18q-64 -18 -70 -21q-76 -18 -121 17t-45 92q0 78 92 121q127 57 315 57t300 -116q110 -116 73 -324l-88 -504q-12 -68 -65 -102q-141 -92 -354 -92z" />
    <glyph glyph-name="aring" unicode="&#xe5;" horiz-adv-x="1105" 
d="M687 1309q36 1 61 27q24 26 24 62t-22 58t-56 21q-34 0 -60 -28t-26 -63t22 -56t57 -21zM685 1169q-99 1 -161 59t-61 151q0 93 68 167q69 74 169 74t160 -59t60 -153t-68 -167q-68 -72 -167 -72zM497 203q87 0 169 41l32 194q-98 41 -182 41t-145 -37t-61 -104t50 -101
t137 -34zM490 -20q-213 0 -327 100t-114 255t121 248t305 93q137 0 256 -49l17 84q16 79 -26 119t-124 40t-145 -18q-64 -18 -70 -21q-76 -18 -121 17t-45 92q0 78 92 121q127 57 315 57t300 -116q110 -116 73 -324l-88 -504q-12 -68 -65 -102q-141 -92 -354 -92z" />
    <glyph glyph-name="ae" unicode="&#xe6;" horiz-adv-x="1765" 
d="M1403 649q27 0 33 27q20 106 -31 158t-148 53q-210 0 -247 -238h393zM510 199q106 0 225 84q-20 70 -14 145q-117 51 -203 51t-147 -35t-61 -101t46 -105q48 -39 154 -39zM217 942q0 78 92 119q121 57 299 57q215 0 316 -129q150 129 349 129t329 -129t77 -354l-10 -41
q-35 -143 -158 -143h-524l-4 -27q-16 -100 45 -148t144 -47q83 0 152 30q70 30 92 39t64 9t73 -38q32 -38 32 -83q0 -80 -88 -129q-139 -78 -313 -77q-215 0 -340 120q-168 -120 -370 -120t-314 100t-111 255q0 155 121 248t305 93q135 0 264 -51l17 84q16 77 -30 119
t-130 42t-213 -39q-76 -18 -121 17t-45 94z" />
    <glyph glyph-name="ccedilla" unicode="&#xe7;" horiz-adv-x="1114" 
d="M599 1118q171 0 282 -70q161 -102 161 -255q0 -47 -36 -85t-104 -38t-101 63q-51 125 -199 125q-178 0 -227 -203q-19 -88 -29 -193q-10 -106 51 -164t156 -58q133 0 199 116q39 70 100 70t98 -35t37 -76q0 -134 -144 -247q-97 -76 -255 -86l-39 -62q82 -4 133 -54
t51 -128q0 -108 -85 -180t-214 -109q-28 -8 -56 -8q-28 1 -52 23t-25 59q0 61 80 90q32 1 81 27q48 26 60 36q33 28 33 64q0 43 -53 43l-68 -10q-42 0 -64 36t-1 74l57 109q-166 37 -263 160t-83 313q8 117 39 246q45 199 177 303t303 104z" />
    <glyph glyph-name="egrave" unicode="&#xe8;" horiz-adv-x="1124" 
d="M858 1325q0 -51 -30 -83t-74 -32q-43 0 -74 19l-268 145q-60 31 -60 86t32 87t70 32t66 -16l279 -156q59 -31 59 -82zM764 649q25 0 31 27q23 104 -27 158t-147 53q-193 0 -240 -238h383zM838 307q40 0 73 -36t33 -85q0 -80 -88 -129q-143 -78 -313 -77q-221 0 -350 124
t-115 332q34 434 230 580q138 102 332 102t320 -131t76 -356l-8 -37q-33 -143 -160 -143h-522l-4 -27q-14 -96 44 -145t143 -49t155 29q69 30 91 39q23 9 63 9z" />
    <glyph glyph-name="eacute" unicode="&#xe9;" horiz-adv-x="1124" 
d="M510 1327q0 57 68 90l280 135q96 40 149 -13q30 -30 29 -73q0 -68 -88 -110l-280 -131q-20 -13 -56 -13t-70 29q-32 29 -32 86zM764 649q25 0 31 27q23 104 -27 158t-147 53q-193 0 -240 -238h383zM838 307q40 0 73 -36t33 -85q0 -80 -88 -129q-143 -78 -313 -77
q-221 0 -350 124t-115 332q34 434 230 580q138 102 332 102t320 -131t76 -356l-8 -37q-33 -143 -160 -143h-522l-4 -27q-14 -96 44 -145t143 -49t155 29q69 30 91 39q23 9 63 9z" />
    <glyph glyph-name="ecircumflex" unicode="&#xea;" horiz-adv-x="1130" 
d="M441 1200q-37 0 -65 29t-28 77t58 91l235 170q39 29 87 29t83 -35l182 -170q43 -43 43 -89t-30 -74q-30 -30 -73 -30q-44 0 -81 37l-141 129l-195 -139q-37 -25 -75 -25zM764 649q25 0 31 27q23 104 -27 158t-147 53q-193 0 -240 -238h383zM838 307q40 0 73 -36t33 -85
q0 -80 -88 -129q-143 -78 -313 -77q-221 0 -350 124t-115 332q34 434 230 580q138 102 332 102t320 -131t76 -356l-8 -37q-33 -143 -160 -143h-522l-4 -27q-14 -96 44 -145t143 -49t155 29q69 30 91 39q23 9 63 9z" />
    <glyph glyph-name="edieresis" unicode="&#xeb;" horiz-adv-x="1124" 
d="M883 1219q-57 1 -92 33t-35 89t42 101t99 45q57 0 92 -33t35 -91t-42 -101t-99 -43zM508 1219q-57 1 -92 33t-35 89t43 101t100 45q57 0 92 -33t35 -91t-43 -101t-100 -43zM764 649q25 0 31 27q23 104 -27 158t-147 53q-193 0 -240 -238h383zM838 307q40 0 73 -36t33 -85
q0 -80 -88 -129q-143 -78 -313 -77q-221 0 -350 124t-115 332q34 434 230 580q138 102 332 102t320 -131t76 -356l-8 -37q-33 -143 -160 -143h-522l-4 -27q-14 -96 44 -145t143 -49t155 29q69 30 91 39q23 9 63 9z" />
    <glyph glyph-name="igrave" unicode="&#xec;" horiz-adv-x="618" 
d="M366 1104q60 0 98 -48t25 -122l-137 -815q-10 -61 -48 -95t-98 -34t-96 48t-24 122l135 815q21 129 145 129zM430 1208q-43 0 -74 19l-268 145q-59 31 -59 86t31 87q32 32 70 32t67 -16l278 -156q59 -31 59 -82t-30 -83q-31 -32 -74 -32z" />
    <glyph glyph-name="iacute" unicode="&#xed;" horiz-adv-x="618" 
d="M366 1104q60 0 98 -48t25 -122l-137 -815q-10 -61 -48 -95t-98 -34t-96 48t-24 122l135 815q21 129 145 129zM797 1466q0 -68 -88 -110l-281 -131q-20 -13 -56 -13t-69 29t-33 86t68 90l280 135q96 40 149 -13q30 -30 30 -73z" />
    <glyph glyph-name="icircumflex" unicode="&#xee;" horiz-adv-x="618" 
d="M156 1200q-38 0 -65 29q-28 29 -28 77t58 91l235 170q39 29 87 29t83 -35l183 -170q43 -43 43 -89t-30 -74q-30 -30 -74 -30t-81 37l-141 129l-195 -139q-37 -25 -75 -25zM366 1104q60 0 98 -48t25 -122l-137 -815q-10 -61 -48 -95t-98 -34t-96 48t-24 122l135 815
q21 129 145 129z" />
    <glyph glyph-name="idieresis" unicode="&#xef;" horiz-adv-x="618" 
d="M366 1104q60 0 98 -48t25 -122l-137 -815q-10 -61 -48 -95t-98 -34t-96 48t-24 122l135 815q21 129 145 129zM619 1487q57 0 92 -33t35 -91t-43 -101q-42 -43 -99 -43q-57 1 -92 33t-35 89t42 102q43 44 100 44zM246 1487q57 0 92 -33t35 -91t-43 -101q-42 -43 -100 -43
q-58 1 -93 33t-35 89t43 102q44 44 101 44z" />
    <glyph glyph-name="eth" unicode="&#xf0;" horiz-adv-x="1220" 
d="M596 791q-180 0 -225 -187q-11 -51 -21 -148q-10 -98 47 -154t148 -56q166 0 215 192q16 70 24 154t-46 142t-142 57zM840 1561q84 0 153 -107l82 35q51 23 99 -4t49 -85q0 -58 -78 -95l-74 -33q57 -229 12 -537q-16 -121 -47 -291q-36 -215 -158 -340
q-122 -124 -336 -124t-345 138t-117 345q10 106 26 180q41 205 165 311t303 107q179 0 300 -113q8 164 -14 240l-123 -51q-51 -19 -100 5t-49 86t67 89l113 47q-20 25 -32 43t-11 53q0 35 33 68t82 33z" />
    <glyph glyph-name="ntilde" unicode="&#xf1;" horiz-adv-x="1210" 
d="M825 1212q-55 0 -135 40t-112 40t-73 -32q-42 -32 -76 -33q-33 -1 -65 29t-32 71t57 90q98 86 197 86q57 0 139 -41t109 -41q28 0 72 40t80 40q36 -1 66 -29t30 -76t-68 -102q-101 -82 -189 -82zM641 850q-92 0 -195 -55l-110 -676q-10 -61 -48 -94t-98 -33t-98 47
q-37 47 -24 121l125 745q10 66 67 103q176 110 398 110t350 -120q127 -120 88 -341l-90 -536q-20 -129 -146 -129q-60 0 -96 47t-25 121l82 487q16 103 -36 153t-144 50z" />
    <glyph glyph-name="ograve" unicode="&#xf2;" horiz-adv-x="1163" 
d="M866 1323q0 -51 -30 -83t-74 -32q-43 0 -74 19l-268 145q-60 31 -60 86t32 87t70 32t66 -16l279 -156q59 -31 59 -82zM614 858q-190 0 -239 -207q-27 -100 -33 -196q-6 -95 56 -155t155 -60q172 0 227 206q21 85 30 188q9 104 -49 164t-147 60zM624 1118q194 0 330 -129
q137 -129 123 -352q-8 -109 -41 -254q-45 -197 -171 -300q-127 -103 -321 -103t-338 132t-128 349q8 127 41 254q47 197 179 300t326 103z" />
    <glyph glyph-name="oacute" unicode="&#xf3;" horiz-adv-x="1163" 
d="M514 1327q0 57 68 90l280 135q96 40 149 -13q30 -30 29 -73q0 -68 -88 -110l-280 -131q-20 -13 -56 -13t-70 29q-32 29 -32 86zM614 858q-190 0 -239 -207q-27 -100 -33 -196q-6 -95 56 -155t155 -60q172 0 227 206q21 85 30 188q9 104 -49 164t-147 60zM624 1118
q194 0 330 -129q137 -129 123 -352q-8 -109 -41 -254q-45 -197 -171 -300q-127 -103 -321 -103t-338 132t-128 349q8 127 41 254q47 197 179 300t326 103z" />
    <glyph glyph-name="ocircumflex" unicode="&#xf4;" horiz-adv-x="1163" 
d="M437 1198q-37 0 -65 29t-28 77t57 91l236 170q39 29 87 29t83 -35l182 -170q43 -43 43 -89t-30 -74q-30 -30 -74 -30t-80 37l-141 129l-195 -139q-37 -25 -75 -25zM614 858q-190 0 -239 -207q-27 -100 -33 -196q-6 -95 56 -155t155 -60q172 0 227 206q21 85 30 188
q9 104 -49 164t-147 60zM624 1118q194 0 330 -129q137 -129 123 -352q-8 -109 -41 -254q-45 -197 -171 -300q-127 -103 -321 -103t-338 132t-128 349q8 127 41 254q47 197 179 300t326 103z" />
    <glyph glyph-name="otilde" unicode="&#xf5;" horiz-adv-x="1165" 
d="M807 1212q-55 0 -135 40t-112 40t-74 -32t-76 -33t-65 29q-32 30 -32 71t58 90q98 86 196 86q55 0 139 -41t110 -41t71 40t81 40q36 -1 66 -29t29 -76q0 -48 -68 -102q-100 -82 -188 -82zM614 858q-190 0 -239 -207q-27 -100 -33 -196q-6 -95 56 -155t155 -60
q172 0 227 206q21 85 30 188q9 104 -49 164t-147 60zM624 1118q194 0 330 -129q137 -129 123 -352q-8 -109 -41 -254q-45 -197 -171 -300q-127 -103 -321 -103t-338 132t-128 349q8 127 41 254q47 197 179 300t326 103z" />
    <glyph glyph-name="odieresis" unicode="&#xf6;" horiz-adv-x="1163" 
d="M887 1219q-57 1 -92 33t-35 89t42 101t99 45q57 0 92 -33t35 -91t-42 -101t-99 -43zM512 1219q-57 1 -92 33t-35 89t43 101t100 45q56 0 92 -33t36 -91t-44 -101q-43 -43 -100 -43zM614 858q-190 0 -239 -207q-27 -100 -33 -196q-6 -95 56 -155t155 -60q172 0 227 206
q21 85 30 188q9 104 -49 164t-147 60zM624 1118q194 0 330 -129q137 -129 123 -352q-8 -109 -41 -254q-45 -197 -171 -300q-127 -103 -321 -103t-338 132t-128 349q8 127 41 254q47 197 179 300t326 103z" />
    <glyph glyph-name="divide" unicode="&#xf7;" horiz-adv-x="1255" 
d="M1014 586h-774q-57 0 -96 38q-38 38 -38 93t38 92t96 37h774q55 0 94 -38t39 -92t-40 -92t-93 -38zM489 272q-8 56 28 102t92 53q57 7 103 -28t53 -92t-29 -102t-92 -52t-102 29t-53 90zM489 1128q-8 54 28 102t92 55q57 7 103 -30t53 -92t-29 -101t-92 -53t-102 29
t-53 90z" />
    <glyph glyph-name="oslash" unicode="&#xf8;" horiz-adv-x="1173" 
d="M614 858q-190 0 -239 -207q-31 -132 -31 -202l385 376q-55 33 -115 33zM553 240q174 0 227 206q4 12 16 83t17 128l-387 -378q51 -39 127 -39zM550 -20q-190 0 -319 110l-63 -63q-39 -39 -80 -39q-40 0 -64 22t-24 63q0 40 41 79l78 75q-51 115 -40 242t40 246
q49 203 182 303t315 100t308 -104l61 59q41 39 81 39t62 -22t23 -61q0 -40 -45 -87l-72 -68q55 -114 43 -242t-41 -249q-47 -199 -172 -301q-124 -102 -314 -102z" />
    <glyph glyph-name="ugrave" unicode="&#xf9;" horiz-adv-x="1191" 
d="M870 1323q0 -51 -30 -83t-74 -32q-43 0 -74 19l-268 145q-59 31 -59 86t31 87q32 32 70 32t66 -16l279 -156q59 -31 59 -82zM326 1104q60 0 97 -47q38 -47 26 -119l-78 -463q-19 -119 31 -173t148 -54t191 59l111 668q10 61 47 95t97 34t97 -48q38 -48 25 -122l-123 -739
q-10 -63 -65 -101q-178 -114 -394 -114t-345 138q-130 138 -91 371l80 486q10 61 48 95t98 34z" />
    <glyph glyph-name="uacute" unicode="&#xfa;" horiz-adv-x="1191" 
d="M553 1327q0 57 68 90l280 135q96 40 149 -13q30 -30 29 -73q0 -68 -88 -110l-280 -131q-23 -13 -58 -13t-67 29t-33 86zM326 1104q60 0 97 -47q38 -47 26 -119l-78 -463q-19 -119 31 -173t148 -54t191 59l111 668q10 61 47 95t97 34t97 -48q38 -48 25 -122l-123 -739
q-10 -63 -65 -101q-178 -114 -394 -114t-345 138q-130 138 -91 371l80 486q10 61 48 95t98 34z" />
    <glyph glyph-name="ucircumflex" unicode="&#xfb;" horiz-adv-x="1191" 
d="M450 1200q-38 0 -66 29t-28 77t58 91l235 170q39 29 87 29t83 -35l182 -170q43 -43 43 -89t-30 -74q-30 -30 -73 -30q-44 0 -81 37l-141 129l-195 -139q-36 -25 -74 -25zM326 1104q60 0 97 -47q38 -47 26 -119l-78 -463q-19 -119 31 -173t148 -54t191 59l111 668
q10 61 47 95t97 34t97 -48q38 -48 25 -122l-123 -739q-10 -63 -65 -101q-178 -114 -394 -114t-345 138q-130 138 -91 371l80 486q10 61 48 95t98 34z" />
    <glyph glyph-name="udieresis" unicode="&#xfc;" horiz-adv-x="1191" 
d="M893 1219q-57 1 -92 33t-35 89t42 101t99 45q57 0 92 -33t35 -91t-42 -101t-99 -43zM535 1487q57 0 92 -33t35 -91t-44 -101t-100 -43q-57 1 -92 33t-35 89t43 102q44 44 101 44zM326 1104q60 0 97 -47q38 -47 26 -119l-78 -463q-19 -119 31 -173t148 -54t191 59l111 668
q10 61 47 95t97 34t97 -48q38 -48 25 -122l-123 -739q-10 -63 -65 -101q-178 -114 -394 -114t-345 138q-130 138 -91 371l80 486q10 61 48 95t98 34z" />
    <glyph glyph-name="yacute" unicode="&#xfd;" horiz-adv-x="1073" 
d="M1016 1468q0 -68 -88 -110l-281 -131q-20 -13 -56 -13t-69 29t-33 86t68 90l281 135q96 39 148 -13q30 -30 30 -73zM981 1104q84 0 118 -70t-9 -139l-500 -885q-241 -421 -461 -424q-51 0 -88 34t-37 83q0 78 88 125q133 72 232 242l-213 845q-20 82 17 136q38 53 116 53
q104 0 137 -125l78 -320q25 -98 35 -292q0 -14 12 -15q8 0 16 13q61 156 135 290l193 357q47 92 131 92z" />
    <glyph glyph-name="thorn" unicode="&#xfe;" horiz-adv-x="1193" 
d="M139 -416q-67 0 -103 47t-26 109l262 1583q25 145 146 145q68 0 98 -47t21 -104l-37 -223q94 25 168 24q204 0 322 -119t118 -299q0 -108 -41 -302t-163 -306t-308 -112q-120 0 -270 61l-52 -303q-27 -154 -135 -154zM554 240q204 0 249 206q23 117 31 177
q16 109 -37 172t-147 63t-195 -53l-84 -506q74 -59 183 -59z" />
    <glyph glyph-name="ydieresis" unicode="&#xff;" horiz-adv-x="1073" 
d="M840 1219q-57 1 -92 33t-35 89t42 101t99 45q57 0 92 -33t35 -91t-42 -101t-99 -43zM465 1219q-57 1 -92 33t-35 89t43 101t100 45q57 0 92 -33t35 -91t-43 -101t-100 -43zM981 1104q84 0 118 -70t-9 -139l-500 -885q-241 -421 -461 -424q-51 0 -88 34t-37 83
q0 78 88 125q133 72 232 242l-213 845q-20 82 17 136q38 53 116 53q104 0 137 -125l78 -320q25 -98 35 -292q0 -14 12 -15q8 0 16 13q61 156 135 290l193 357q47 92 131 92z" />
    <glyph glyph-name="Amacron" unicode="&#x100;" horiz-adv-x="1372" 
d="M709 1556q-53 0 -85 31t-32 76t36 82t99 37h307q51 0 80 -31t29 -76t-35 -82t-92 -37h-307zM784 1182q-20 0 -36 -31l-252 -502h397l-84 504q-5 29 -25 29zM84 -6q-82 0 -120 63t1 138l555 1071q57 112 129 156t162 44t158 -55t90 -172l196 -1059q13 -74 -21 -129
t-100 -55t-104 34q-39 34 -49 95l-49 281h-553l-166 -322q-47 -90 -129 -90z" />
    <glyph glyph-name="amacron" unicode="&#x101;" horiz-adv-x="1105" 
d="M522 1231q-53 0 -85 31q-31 30 -31 76t36 82q37 36 99 36h307q51 0 80 -31q28 -31 28 -75t-34 -82q-34 -37 -93 -37h-307zM497 203q87 0 169 41l32 194q-98 41 -182 41t-145 -37t-61 -104t50 -101t137 -34zM490 -20q-213 0 -327 100t-114 255t121 248t305 93
q137 0 256 -49l17 84q16 79 -26 119t-124 40t-145 -18q-64 -18 -70 -21q-76 -18 -121 17t-45 92q0 78 92 121q127 57 315 57t300 -116q110 -116 73 -324l-88 -504q-12 -68 -65 -102q-141 -92 -354 -92z" />
    <glyph glyph-name="Abreve" unicode="&#x102;" horiz-adv-x="1372" 
d="M874 1540q-106 0 -180 47t-106 131q-14 35 -14 81t31 72q32 26 73 25q72 0 94 -88q8 -25 15 -39q19 -38 88 -38t108 83t104 82q45 0 72 -26t27 -61q0 -34 -17 -74q-35 -82 -112 -139q-77 -56 -183 -56zM784 1182q-20 0 -36 -31l-252 -502h397l-84 504q-5 29 -25 29z
M84 -6q-82 0 -120 63t1 138l555 1071q57 112 129 156t162 44t158 -55t90 -172l196 -1059q13 -74 -21 -129t-100 -55t-104 34q-39 34 -49 95l-49 281h-553l-166 -322q-47 -90 -129 -90z" />
    <glyph glyph-name="abreve" unicode="&#x103;" horiz-adv-x="1112" 
d="M690 1200q-106 0 -180 47t-107 131q-14 35 -14 81t32 72t73 25q72 0 94 -88q8 -24 15 -38q21 -39 89 -39t107 83t104 82q45 0 72 -26q46 -45 10 -131q-35 -87 -113 -143q-76 -56 -182 -56zM497 203q87 0 169 41l32 194q-98 41 -182 41t-145 -37t-61 -104t50 -101t137 -34
zM490 -20q-213 0 -327 100t-114 255t121 248t305 93q137 0 256 -49l17 84q16 79 -26 119t-124 40t-145 -18q-64 -18 -70 -21q-76 -18 -121 17t-45 92q0 78 92 121q127 57 315 57t300 -116q110 -116 73 -324l-88 -504q-12 -68 -65 -102q-141 -92 -354 -92z" />
    <glyph glyph-name="Aogonek" unicode="&#x104;" horiz-adv-x="1351" 
d="M991 -453q-96 1 -165 61t-68 167q0 186 231 305l-57 326h-553l-166 -322q-47 -90 -129 -90t-120 63t1 138l555 1071q57 112 129 156t162 44t158 -55t90 -172l196 -1059q23 -131 -79 -176q-221 -100 -222 -199q0 -76 76 -75q31 0 64 17q34 17 56 17t41 -20t19 -62t-62 -88
t-157 -47zM784 1182q-20 0 -36 -31l-256 -510h403l-86 512q-5 29 -25 29z" />
    <glyph glyph-name="aogonek" unicode="&#x105;" horiz-adv-x="1105" 
d="M497 203q87 0 169 41l32 194q-98 41 -182 41t-145 -37t-61 -104t50 -101t137 -34zM628 -440q-95 0 -166 61t-71 168t84 193h-24q-154 0 -278 90t-124 254t121 257t305 93q137 0 256 -49l17 84q16 79 -26 119t-126 40t-213 -39q-76 -18 -121 17t-45 94q0 78 92 119
q127 57 319 57t298 -117t71 -323l-88 -504q-7 -53 -33 -78t-92 -55q-197 -90 -196 -223q0 -37 22 -58q24 -20 44 -20t61 20t65 19q24 0 43 -23q21 -24 21 -64t-60 -86t-156 -46z" />
    <glyph glyph-name="Cacute" unicode="&#x106;" horiz-adv-x="1355" 
d="M1200 1804q0 -68 -88 -110l-281 -131q-20 -13 -56 -13q-37 0 -69 29t-32 86t67 90l281 135q97 40 148 -13q30 -30 30 -73zM668 244q188 0 297 190q53 90 129 90q55 0 94 -34t39 -81t-19 -94q-63 -145 -200 -242t-349 -98q-259 0 -417 159t-152 431q4 207 81 433t237 348
t387 120q182 0 313 -81t186 -214q25 -59 25 -109t-38 -90t-97 -40q-92 0 -131 88q-76 178 -269 178q-270 0 -364 -348q-43 -154 -47 -290t72 -226t223 -90z" />
    <glyph glyph-name="cacute" unicode="&#x107;" horiz-adv-x="1114" 
d="M1012 1466q0 -68 -88 -110l-281 -131q-20 -13 -56 -13t-69 29t-33 86t68 90l281 135q96 39 148 -13q30 -30 30 -73zM553 240q133 0 199 116q39 70 100 70t98 -35t37 -76q0 -139 -159 -257q-108 -78 -261 -78q-312 1 -435 220q-64 114 -54 248t41 263q45 199 177 303
t303 104t281 -70q162 -102 162 -253q0 -47 -36 -86t-105 -39q-70 0 -100 65q-57 123 -199 123q-178 0 -227 -203q-19 -82 -29 -190t51 -167q62 -58 156 -58z" />
    <glyph glyph-name="Cdotaccent" unicode="&#x10a;" horiz-adv-x="1355" 
d="M873 1819q57 0 92 -33t35 -91q0 -57 -44 -101q-43 -44 -100 -44t-91 33t-34 90t42 102q43 44 100 44zM668 244q188 0 297 190q53 90 129 90q55 0 94 -34t39 -81t-19 -94q-63 -145 -200 -242t-349 -98q-259 0 -417 159t-152 431q4 207 81 433t237 348t387 120
q182 0 313 -81t186 -214q25 -59 25 -109t-38 -90t-97 -40q-92 0 -131 88q-76 178 -269 178q-270 0 -364 -348q-43 -154 -47 -290t72 -226t223 -90z" />
    <glyph glyph-name="cdotaccent" unicode="&#x10b;" horiz-adv-x="1114" 
d="M674 1219q-57 1 -91 33t-34 89t42 101t99 45q57 0 92 -33t35 -91t-43 -101t-100 -43zM553 240q133 0 199 116q39 70 100 70t98 -35t37 -76q0 -139 -159 -257q-108 -78 -261 -78q-312 1 -435 220q-64 114 -54 248t41 263q45 199 177 303t303 104t281 -70
q162 -102 162 -253q0 -47 -36 -86t-105 -39q-70 0 -100 65q-57 123 -199 123q-178 0 -227 -203q-19 -82 -29 -190t51 -167q62 -58 156 -58z" />
    <glyph glyph-name="Ccaron" unicode="&#x10c;" horiz-adv-x="1355" 
d="M840 1546q-37 0 -74 31l-191 164q-35 33 -34 78t31 77t72 31q42 0 75 -26l139 -123l178 127q31 23 74 23t72 -31q28 -29 28 -77t-63 -94l-225 -149q-45 -31 -82 -31zM668 244q188 0 297 190q53 90 129 90q55 0 94 -34t39 -81t-19 -94q-63 -145 -200 -242t-349 -98
q-259 0 -417 159t-152 431q4 207 81 433t237 348t387 120q182 0 313 -81t186 -214q25 -59 25 -109t-38 -90t-97 -40q-92 0 -131 88q-76 178 -269 178q-270 0 -364 -348q-43 -154 -47 -290t72 -226t223 -90z" />
    <glyph glyph-name="ccaron" unicode="&#x10d;" horiz-adv-x="1122" 
d="M657 1214q-37 0 -73 31l-191 164q-35 33 -35 78t31 77t73 32t75 -27l139 -123l178 127q31 23 74 23q44 0 72 -30t28 -78t-63 -93l-226 -150q-45 -31 -82 -31zM553 240q133 0 199 116q39 70 100 70t98 -35t37 -76q0 -139 -159 -257q-108 -78 -261 -78q-312 1 -435 220
q-64 114 -54 248t41 263q45 199 177 303t303 104t281 -70q162 -102 162 -253q0 -47 -36 -86t-105 -39q-70 0 -100 65q-57 123 -199 123q-178 0 -227 -203q-19 -82 -29 -190t51 -167q62 -58 156 -58z" />
    <glyph glyph-name="Dcaron" unicode="&#x10e;" horiz-adv-x="1445" 
d="M817 1546q-37 0 -74 31l-190 164q-35 33 -35 78t31 77t73 31q42 0 74 -26l140 -123l178 127q32 23 74 23t71 -31q29 -29 29 -77t-64 -94l-225 -149q-45 -31 -82 -31zM565 256q219 0 331 81t159 271q27 104 32 201q14 180 -73 276q-88 96 -266 97h-218l-153 -926h188z
M250 0q-84 0 -129 55t-31 142l178 1054q35 197 224 197h253q322 0 482 -168t145 -449q-8 -150 -43 -280q-72 -291 -257 -421t-499 -130h-323z" />
    <glyph glyph-name="dcaron" unicode="&#x10f;" horiz-adv-x="1378" 
d="M1345 1118q-53 0 -79 26t-25 60q0 34 39 86q39 45 49 101l23 125q8 44 39 72t77 28t74 -36q29 -36 19 -85l-23 -106q-28 -133 -84 -202t-109 -69zM546 240q104 0 183 61l82 496q-82 61 -205 61q-182 0 -231 -203q-23 -99 -31 -203t45 -158t157 -54zM574 1118
q158 0 282 -61l47 282q23 129 135 129q70 0 107 -48t24 -122l-186 -1114q-6 -41 -20 -58t-48 -38q-171 -108 -377 -108t-341 129t-117 356q6 99 39 246q43 203 170 305t285 102z" />
    <glyph glyph-name="Dcroat" unicode="&#x110;" horiz-adv-x="1437" 
d="M557 256q219 0 331 81t159 271q87 336 -42 477q-89 96 -264 97h-219l-55 -338h219q59 0 91 -34t32 -84t-36 -88t-99 -38h-248l-57 -344h188zM242 0q-82 0 -127 55t-31 142l68 403h-50q-59 0 -91 33q-31 33 -31 83t39 89q40 39 108 39h66l69 407q35 197 223 197h263
q311 0 470 -169q229 -243 103 -728q-78 -295 -261 -423t-507 -128h-311z" />
    <glyph glyph-name="dcroat" unicode="&#x111;" horiz-adv-x="1218" 
d="M606 858q-182 0 -231 -203q-23 -99 -31 -203t45 -158t157 -54t183 61l82 496q-82 61 -205 61zM737 1180q-45 0 -73 26t-29 71q0 44 36 81t91 37h151l9 43q10 46 48 70t85 24t85 -28t38 -72l-7 -37h31q47 0 76 -28t29 -72t-35 -80t-90 -35h-33l-166 -996q-10 -61 -68 -96
q-175 -108 -379 -108t-339 129t-117 356q6 98 39 246q45 209 172 308t285 99t280 -61l18 123h-137z" />
    <glyph glyph-name="Emacron" unicode="&#x112;" horiz-adv-x="1253" 
d="M664 1556q-53 0 -85 31t-32 76t36 82t99 37h307q51 0 80 -31t29 -76t-35 -82t-92 -37h-307zM489 1448h617q63 0 100 -38t37 -93t-41 -91t-98 -36h-578l-57 -342h492q63 0 98 -35t35 -89t-39 -89t-99 -35h-526l-57 -344h561q63 0 100 -37t37 -92t-41 -91t-98 -36h-680
q-96 0 -137 56t-25 153l174 1042q32 197 225 197z" />
    <glyph glyph-name="emacron" unicode="&#x113;" horiz-adv-x="1124" 
d="M549 1233q-53 0 -85 31q-32 32 -32 76t36 81t99 37h307q51 0 80 -31t29 -75t-35 -82q-35 -37 -92 -37h-307zM764 649q25 0 31 27q23 104 -27 158t-147 53q-193 0 -240 -238h383zM838 307q40 0 73 -36t33 -85q0 -80 -88 -129q-143 -78 -313 -77q-221 0 -350 124t-115 332
q34 434 230 580q138 102 332 102t320 -131t76 -356l-8 -37q-33 -143 -160 -143h-522l-4 -27q-14 -96 44 -145t143 -49t155 29q69 30 91 39q23 9 63 9z" />
    <glyph glyph-name="Edotaccent" unicode="&#x116;" horiz-adv-x="1253" 
d="M838 1819q57 0 92 -33t35 -91q0 -57 -43 -101q-42 -44 -100 -44t-92 33t-34 90t42 102q43 44 100 44zM489 1448h617q63 0 100 -38t37 -93t-41 -91t-98 -36h-578l-57 -342h492q63 0 98 -35t35 -89t-39 -89t-99 -35h-526l-57 -344h561q63 0 100 -37t37 -92t-41 -91t-98 -36
h-680q-96 0 -137 56t-25 153l174 1042q32 197 225 197z" />
    <glyph glyph-name="edotaccent" unicode="&#x117;" horiz-adv-x="1124" 
d="M709 1485q57 0 92 -33t35 -91t-43 -101t-101 -43q-58 1 -91 33q-34 32 -34 89t42 102q43 44 100 44zM764 649q25 0 31 27q23 104 -27 158t-147 53q-193 0 -240 -238h383zM838 307q40 0 73 -36t33 -85q0 -80 -88 -129q-143 -78 -313 -77q-221 0 -350 124t-115 332
q34 434 230 580q138 102 332 102t320 -131t76 -356l-8 -37q-33 -143 -160 -143h-522l-4 -27q-14 -96 44 -145t143 -49t155 29q69 30 91 39q23 9 63 9z" />
    <glyph glyph-name="Eogonek" unicode="&#x118;" horiz-adv-x="1241" 
d="M802 -453q-95 1 -164 61t-69 179t115 213h-432q-96 0 -137 56t-25 153l174 1042q33 197 225 197h617q63 0 100 -38t37 -93t-41 -91t-98 -36h-578l-57 -346h498q59 0 93 -35t34 -86t-38 -85t-93 -34h-531l-59 -348h561q63 0 100 -37t37 -92q0 -86 -100 -123
q-205 -76 -205 -199q0 -76 76 -75q32 0 64 17t54 17t42 -20t20 -62t-62 -88t-158 -47z" />
    <glyph glyph-name="eogonek" unicode="&#x119;" horiz-adv-x="1124" 
d="M760 635q25 0 31 27q29 112 -21 168t-149 57q-203 0 -244 -252h383zM811 -301q-1 -51 -63 -97t-157 -46t-164 60t-69 170t86 202q-178 26 -278 144t-88 304q8 98 41 256q43 211 185 319q142 107 334 107t320 -127q127 -127 80 -356l-10 -41q-33 -143 -160 -143h-522
l-4 -27q-14 -94 42 -144t143 -50t156 29q70 30 92 39q23 9 63 9t73 -36t33 -83q0 -94 -145 -157q-246 -106 -246 -215q0 -39 22 -59q23 -19 53 -19t64 17t56 17t42 -21q20 -22 21 -52z" />
    <glyph glyph-name="Ecaron" unicode="&#x11a;" horiz-adv-x="1253" 
d="M809 1546q-37 0 -74 31l-190 164q-35 33 -35 78t31 77t73 31q42 0 74 -26l139 -123l179 127q32 23 74 23t71 -31q29 -29 29 -77t-64 -94l-225 -149q-45 -31 -82 -31zM489 1448h617q63 0 100 -38t37 -93t-41 -91t-98 -36h-578l-57 -342h492q63 0 98 -35t35 -89t-39 -89
t-99 -35h-526l-57 -344h561q63 0 100 -37t37 -92t-41 -91t-98 -36h-680q-96 0 -137 56t-25 153l174 1042q32 197 225 197z" />
    <glyph glyph-name="ecaron" unicode="&#x11b;" horiz-adv-x="1140" 
d="M686 1212q-37 0 -74 31l-190 164q-35 33 -35 78t31 77t73 32t74 -27l140 -123l178 127q31 23 73 23t72 -30q29 -30 29 -78t-64 -93l-225 -150q-45 -31 -82 -31zM764 649q25 0 31 27q23 104 -27 158t-147 53q-193 0 -240 -238h383zM838 307q40 0 73 -36t33 -85
q0 -80 -88 -129q-143 -78 -313 -77q-221 0 -350 124t-115 332q34 434 230 580q138 102 332 102t320 -131t76 -356l-8 -37q-33 -143 -160 -143h-522l-4 -27q-14 -96 44 -145t143 -49t155 29q69 30 91 39q23 9 63 9z" />
    <glyph glyph-name="Gbreve" unicode="&#x11e;" horiz-adv-x="1404" 
d="M870 1536q-106 0 -180 47t-106 131q-14 35 -14 81t31 72q32 26 73 25q72 0 94 -88q8 -25 15 -39q19 -38 88 -38q69 -1 112 92q35 74 100 73q45 0 72 -26t27 -61q0 -34 -17 -74q-35 -82 -112 -139q-77 -56 -183 -56zM1126 791q74 0 113 -39t33 -122t-22 -164
q-34 -180 -158 -325q-66 -76 -172 -121t-242 -45q-272 0 -434 156t-155 410t81 463q160 463 629 462q172 0 304 -80t179 -198q23 -57 23 -106q0 -48 -38 -88t-109 -40t-105 76q-76 168 -273 168q-262 0 -352 -307q-51 -166 -56 -324q-6 -159 72 -247t215 -89q258 0 320 244
l14 64h-170q-55 1 -95 35t-40 88t42 92q42 37 112 37h284z" />
    <glyph glyph-name="gbreve" unicode="&#x11f;" horiz-adv-x="1187" 
d="M766 1200q-106 0 -180 47t-107 131q-14 35 -14 81t32 72t72 25q72 0 95 -88q8 -24 15 -38t29 -26t60 -13q38 1 62 23q26 22 49 69q35 74 100 73q45 0 72 -26q46 -45 10 -131q-35 -87 -113 -143q-76 -56 -182 -56zM623 854q-193 0 -238 -199q-25 -115 -32 -207t43 -146
t157 -54t188 65l80 486q-75 55 -198 55zM446 -416q-98 0 -194 32t-160 77t-63 119q0 49 32 86q33 36 81 36t91 -26q121 -74 231 -74t168 62q60 62 73 172q-106 -49 -213 -50q-197 0 -307 118t-95 329q6 90 39 246q43 203 171 305t331 102q141 0 252 -42t172 -88t49 -111
l-135 -826q-39 -243 -176 -355t-347 -112z" />
    <glyph glyph-name="Gdotaccent" unicode="&#x120;" horiz-adv-x="1404" 
d="M729 1673q0 57 42 101t99 45q56 0 92 -33t36 -91q0 -57 -44 -101q-43 -44 -100 -44t-91 33t-34 90zM1126 791q74 0 113 -39t33 -122t-22 -164q-34 -180 -158 -325q-66 -76 -172 -121t-242 -45q-272 0 -434 156t-155 410t81 463q160 463 629 462q172 0 304 -80t179 -198
q23 -57 23 -106q0 -48 -38 -88t-109 -40t-105 76q-76 168 -273 168q-262 0 -352 -307q-51 -166 -56 -324q-6 -159 72 -247t215 -89q258 0 320 244l14 64h-170q-55 1 -95 35t-40 88t42 92q42 37 112 37h284z" />
    <glyph glyph-name="gdotaccent" unicode="&#x121;" horiz-adv-x="1187" 
d="M760 1487q57 0 92 -33t35 -91t-43 -101q-42 -43 -100 -43q-58 1 -92 33t-34 89t42 102q43 44 100 44zM623 854q-193 0 -238 -199q-25 -115 -32 -207t43 -146t157 -54t188 65l80 486q-75 55 -198 55zM446 -416q-98 0 -194 32t-160 77t-63 119q0 49 32 86q33 36 81 36
t91 -26q121 -74 231 -74t168 62q60 62 73 172q-106 -49 -213 -50q-197 0 -307 118t-95 329q6 90 39 246q43 203 171 305t331 102q141 0 252 -42t172 -88t49 -111l-135 -826q-39 -243 -176 -355t-347 -112z" />
    <glyph glyph-name="Gcommaaccent" unicode="&#x122;" horiz-adv-x="1404" 
d="M505 -553q-52 0 -78 25q-26 26 -26 60t39 82t49 110l21 116q8 47 40 75t78 28t74 -37t19 -86l-21 -99q-31 -143 -87 -209t-108 -65zM1126 791q74 0 113 -39t33 -122t-22 -164q-34 -180 -158 -325q-66 -76 -172 -121t-242 -45q-272 0 -434 156t-155 410t81 463
q160 463 629 462q172 0 304 -80t179 -198q23 -57 23 -106q0 -48 -38 -88t-109 -40t-105 76q-76 168 -273 168q-262 0 -352 -307q-51 -166 -56 -324q-6 -159 72 -247t215 -89q258 0 320 244l14 64h-170q-55 1 -95 35t-40 88t42 92q42 37 112 37h284z" />
    <glyph glyph-name="gcommaaccent" unicode="&#x123;" horiz-adv-x="1187" 
d="M722 1202q-52 0 -78 25t-26 59t39 83q39 48 50 110l20 116q8 47 40 75t78 28t75 -37t18 -86l-20 -98q-32 -143 -88 -209t-108 -66zM623 854q-193 0 -238 -199q-25 -115 -32 -207t43 -146t157 -54t188 65l80 486q-75 55 -198 55zM446 -416q-98 0 -194 32t-160 77t-63 119
q0 49 32 86q33 36 81 36t91 -26q121 -74 231 -74t168 62q60 62 73 172q-106 -49 -213 -50q-197 0 -307 118t-95 329q6 90 39 246q43 203 171 305t331 102q141 0 252 -42t172 -88t49 -111l-135 -826q-39 -243 -176 -355t-347 -112z" />
    <glyph glyph-name="imacron" unicode="&#x12b;" horiz-adv-x="618" 
d="M366 1104q60 0 98 -48t25 -122l-137 -815q-10 -61 -48 -95t-98 -34t-96 48t-24 122l135 815q21 129 145 129zM246 1233q-53 0 -85 31q-32 32 -32 76t36 81t99 37h307q51 0 80 -31t29 -75t-35 -82q-35 -37 -92 -37h-307z" />
    <glyph glyph-name="Iogonek" unicode="&#x12e;" horiz-adv-x="634" 
d="M162 -453q-94 1 -156 57t-61 152q0 176 184 291q-37 47 -25 125l191 1147q21 129 145 129q60 0 98 -48t25 -122l-194 -1157q-7 -45 -23 -70t-55 -47q-172 -88 -172 -194q0 -43 23 -62q24 -18 54 -18t64 17t58 17t43 -20t19 -62t-62 -88t-156 -47z" />
    <glyph glyph-name="iogonek" unicode="&#x12f;" horiz-adv-x="624" 
d="M293 1367q0 63 45 109q46 46 108 46t100 -40t38 -101q0 -60 -43 -108t-107 -48t-102 40q-39 40 -39 102zM160 -453q-94 1 -156 57t-63 152q0 170 182 289q-37 51 -23 125l133 805q19 129 145 129q60 0 98 -48t26 -122l-137 -815q-12 -82 -91 -123q-158 -74 -157 -186
q0 -80 80 -80q31 0 63 17t56 17q22 0 42 -22t20 -62t-54 -79q-70 -54 -164 -54z" />
    <glyph glyph-name="Idotaccent" unicode="&#x130;" horiz-adv-x="634" 
d="M336 1673q0 57 42 101t99 45q57 0 92 -33t35 -91q0 -57 -43 -101t-100 -44t-91 33t-34 90zM210 -8q-60 0 -96 48q-38 48 -26 122l193 1157q23 129 137 129q70 0 106 -48t25 -122l-193 -1157q-10 -61 -48 -95t-98 -34z" />
    <glyph glyph-name="dotlessi" unicode="&#x131;" horiz-adv-x="602" 
d="M366 1104q60 0 98 -48t25 -122l-137 -815q-10 -61 -48 -95t-98 -34t-96 48t-24 122l135 815q21 129 145 129z" />
    <glyph glyph-name="Kcommaaccent" unicode="&#x136;" horiz-adv-x="1351" 
d="M472 -553q-52 0 -78 25q-56 54 -2 122t65 130l20 116q8 47 40 75t78 28t75 -37t18 -86l-20 -99q-32 -143 -88 -209t-108 -65zM428 1448q60 0 96 -47t25 -121l-68 -408h27q51 0 108 58l478 465q60 53 116 53t92 -35t36 -93t-58 -108l-512 -479l385 -514q35 -51 35 -100
t-35 -88t-105 -39t-114 67l-371 502q-37 49 -102 49h-25l-80 -489q-24 -129 -146 -129q-60 0 -98 48q-36 48 -24 120l193 1159q10 61 48 95q39 34 99 34z" />
    <glyph glyph-name="kcommaaccent" unicode="&#x137;" horiz-adv-x="1150" 
d="M416 -553q-53 0 -79 25q-26 26 -26 60t39 82t49 110l21 116q8 47 40 75t78 28t74 -37q29 -37 19 -86l-21 -99q-31 -143 -86 -206q-55 -68 -108 -68zM430 1468q60 0 96 -48t25 -122l-102 -614h28q35 0 49 8t49 41l314 324q49 51 105 51t94 -34t38 -91t-49 -104l-340 -330
l252 -338q37 -47 37 -97t-34 -87t-100 -37t-114 67l-246 340q-29 39 -90 39h-32l-54 -317q-10 -61 -48 -94t-98 -33t-98 47q-36 47 -24 121l197 1179q21 129 145 129z" />
    <glyph glyph-name="Lacute" unicode="&#x139;" horiz-adv-x="1107" 
d="M342 1665q0 57 68 90l280 135q96 40 149 -13q30 -30 29 -73q0 -68 -88 -110l-280 -131q-20 -13 -56 -13t-70 29q-32 29 -32 86zM932 256q63 0 99 -37t36 -92t-40 -91t-97 -36h-676q-96 0 -138 51t-26 146l186 1122q20 129 146 129q60 0 98 -48t25 -122l-172 -1022h559z
" />
    <glyph glyph-name="lacute" unicode="&#x13a;" horiz-adv-x="593" 
d="M852 1804q0 -68 -88 -110l-281 -131q-20 -13 -56 -13t-69 29t-33 86t68 90l281 135q96 39 148 -13q30 -30 30 -73zM204 -8q-60 0 -98 47q-36 47 -24 121l197 1179q21 131 145 129q62 0 98 -48t23 -122l-195 -1179q-10 -61 -48 -94t-98 -33z" />
    <glyph glyph-name="Lcommaaccent" unicode="&#x13b;" horiz-adv-x="1107" 
d="M462 -553q-52 0 -78 25q-26 26 -26 60t39 82t49 110l21 116q8 47 40 75t78 28q47 0 75 -37t18 -86l-21 -99q-31 -143 -87 -209t-108 -65zM932 256q63 0 99 -37t36 -92t-40 -91t-97 -36h-676q-96 0 -138 51t-26 146l186 1122q20 129 146 129q60 0 98 -48t25 -122
l-172 -1022h559z" />
    <glyph glyph-name="lcommaaccent" unicode="&#x13c;" horiz-adv-x="593" 
d="M71 -553q-53 0 -79 25q-26 26 -25 60q0 34 39 82t49 110l21 116q8 47 40 75t78 28t74 -37q29 -37 19 -86l-21 -99q-30 -143 -86 -209t-109 -65zM204 -8q-60 0 -98 47q-36 47 -24 121l197 1179q21 131 145 129q62 0 98 -48t23 -122l-195 -1179q-10 -61 -48 -94t-98 -33z
" />
    <glyph glyph-name="Lcaron" unicode="&#x13d;" horiz-adv-x="1107" 
d="M790 1118q-52 0 -78 26t-26 60t39 86q39 45 49 101l23 125q8 44 39 72q30 28 76 28t75 -36t19 -85l-23 -106q-27 -133 -83 -202t-110 -69zM932 256q63 0 99 -37t36 -92t-40 -91t-97 -36h-676q-96 0 -138 51t-26 146l186 1122q20 129 146 129q60 0 98 -48t25 -122
l-172 -1022h559z" />
    <glyph glyph-name="lcaron" unicode="&#x13e;" horiz-adv-x="808" 
d="M741 1118q-53 0 -79 26t-25 60q0 34 39 86q39 45 49 101l23 125q8 44 38 72t77 28q46 0 75 -36t18 -85l-22 -106q-28 -133 -84 -202t-109 -69zM210 -8q-60 0 -98 47q-36 47 -24 121l197 1179q21 131 145 129q62 0 98 -48t23 -122l-195 -1179q-10 -61 -48 -94t-98 -33z
" />
    <glyph glyph-name="Lslash" unicode="&#x141;" horiz-adv-x="1167" 
d="M987 256q63 0 99 -37t36 -92t-40 -91t-99 -36h-676q-94 0 -135 51t-27 146l43 268l-43 -23q-25 -12 -63 -12t-75 33q-36 33 -36 84q0 80 78 119l191 102l92 551q20 129 144 129q60 0 98 -48q36 -48 24 -122l-59 -354l137 75q32 17 74 17t78 -31t36 -80q0 -86 -82 -127
l-293 -155l-61 -367h559z" />
    <glyph glyph-name="lslash" unicode="&#x142;" horiz-adv-x="712" 
d="M82 506q-37 0 -67 31t-29 75q0 66 67 101l172 92l90 534q25 129 136 129q69 0 107 -48t26 -122l-58 -335l54 28q83 40 135 -12q29 -29 28 -72q0 -68 -71 -108l-189 -101l-96 -579q-10 -61 -48 -95q-37 -34 -97 -34t-98 48q-37 48 -25 122l63 383l-43 -25q-20 -12 -57 -12
z" />
    <glyph glyph-name="Nacute" unicode="&#x143;" horiz-adv-x="1574" 
d="M1278 1804q0 -68 -88 -110l-281 -131q-67 -35 -125 16q-33 29 -33 86t68 90l281 135q96 39 148 -13q30 -30 30 -73zM1098 -6q-154 0 -215 156l-369 952l-6 -2q-14 -164 -59 -432l-93 -547q-20 -127 -144 -127q-60 0 -98 47t-26 119l178 1061q39 227 230 227q88 0 134 -44
t77 -124l370 -926h6q18 205 72 516l74 449q21 129 145 129q60 0 98 -48t25 -122l-180 -1053q-41 -231 -219 -231z" />
    <glyph glyph-name="nacute" unicode="&#x144;" horiz-adv-x="1206" 
d="M1057 1466q0 -68 -88 -110l-281 -131q-20 -13 -56 -13t-69 29t-33 86t68 90l281 135q96 39 148 -13q30 -30 30 -73zM641 850q-92 0 -195 -55l-110 -676q-10 -61 -48 -94t-98 -33t-98 47q-37 47 -24 121l125 745q10 66 67 103q176 110 398 110t350 -120q127 -120 88 -341
l-90 -536q-20 -129 -146 -129q-60 0 -96 47t-25 121l82 487q16 103 -36 153t-144 50z" />
    <glyph glyph-name="Ncommaaccent" unicode="&#x145;" horiz-adv-x="1574" 
d="M557 -553q-53 0 -79 25q-56 54 -2 122t65 130l20 116q8 47 40 75t78 28t75 -37t18 -86l-20 -99q-30 -143 -86 -209t-109 -65zM1098 -6q-154 0 -215 156l-369 952l-6 -2q-14 -164 -59 -432l-93 -547q-20 -127 -144 -127q-60 0 -98 47t-26 119l178 1061q39 227 230 227
q88 0 134 -44t77 -124l370 -926h6q18 205 72 516l74 449q21 129 145 129q60 0 98 -48t25 -122l-180 -1053q-41 -231 -219 -231z" />
    <glyph glyph-name="ncommaaccent" unicode="&#x146;" horiz-adv-x="1206" 
d="M405 -553q-53 0 -79 25q-26 26 -25 60q0 34 39 82t49 110l21 116q8 47 40 75t78 28t74 -37q29 -37 19 -86l-21 -99q-30 -143 -86 -209t-109 -65zM641 850q-92 0 -195 -55l-110 -676q-10 -61 -48 -94t-98 -33t-98 47q-37 47 -24 121l125 745q10 66 67 103q176 110 398 110
t350 -120q127 -120 88 -341l-90 -536q-20 -129 -146 -129q-60 0 -96 47t-25 121l82 487q16 103 -36 153t-144 50z" />
    <glyph glyph-name="Ncaron" unicode="&#x147;" horiz-adv-x="1574" 
d="M934 1546q-37 0 -74 31l-190 164q-35 33 -35 78t31 77q30 32 72 31q42 0 75 -26l139 -123l178 127q31 23 74 23t72 -31q29 -29 29 -77t-64 -94l-225 -149q-45 -31 -82 -31zM1098 -6q-154 0 -215 156l-369 952l-6 -2q-14 -164 -59 -432l-93 -547q-20 -127 -144 -127
q-60 0 -98 47t-26 119l178 1061q39 227 230 227q88 0 134 -44t77 -124l370 -926h6q18 205 72 516l74 449q21 129 145 129q60 0 98 -48t25 -122l-180 -1053q-41 -231 -219 -231z" />
    <glyph glyph-name="ncaron" unicode="&#x148;" horiz-adv-x="1206" 
d="M694 1214q-37 0 -73 31l-191 164q-35 33 -35 78t31 77t73 32t74 -27l140 -123l178 127q31 23 74 23t71 -30t29 -78q0 -48 -64 -93l-225 -150q-45 -31 -82 -31zM641 850q-92 0 -195 -55l-110 -676q-10 -61 -48 -94t-98 -33t-98 47q-37 47 -24 121l125 745q10 66 67 103
q176 110 398 110t350 -120q127 -120 88 -341l-90 -536q-20 -129 -146 -129q-60 0 -96 47t-25 121l82 487q16 103 -36 153t-144 50z" />
    <glyph glyph-name="Omacron" unicode="&#x14c;" horiz-adv-x="1466" 
d="M731 1556q-53 0 -85 31t-32 76t37 82t99 37h307q51 0 80 -31t29 -76t-36 -82q-35 -37 -92 -37h-307zM694 244q145 0 238 81q153 135 174 519q12 158 -79 256t-233 98t-243 -85q-100 -85 -133 -223t-49 -296q-16 -156 82 -253t243 -97zM723 -25q-287 -1 -470 179t-161 469
q12 152 37 272q49 262 223 417q174 154 450 154t443 -181q168 -181 146 -454q-12 -135 -35 -264q-49 -281 -217 -437t-416 -155z" />
    <glyph glyph-name="omacron" unicode="&#x14d;" horiz-adv-x="1163" 
d="M545 1233q-53 0 -85 31q-32 32 -32 76t36 81t99 37h307q51 0 80 -31t29 -75t-35 -82q-35 -37 -92 -37h-307zM614 858q-190 0 -239 -207q-27 -100 -33 -196q-6 -95 56 -155t155 -60q172 0 227 206q21 85 30 188q9 104 -49 164t-147 60zM624 1118q194 0 330 -129
q137 -129 123 -352q-8 -109 -41 -254q-45 -197 -171 -300q-127 -103 -321 -103t-338 132t-128 349q8 127 41 254q47 197 179 300t326 103z" />
    <glyph glyph-name="Ohungarumlaut" unicode="&#x150;" horiz-adv-x="1466" 
d="M1063 1544q-47 0 -78 29t-31 80t43 88l197 182q45 41 92 41t78 -32t31 -82t-41 -85l-201 -182q-43 -39 -90 -39zM662 1544q-48 0 -78 29t-31 80q0 51 41 88l199 182q45 41 92 41t77 -31t30 -83t-40 -85l-200 -182q-42 -39 -90 -39zM694 244q145 0 238 81q153 135 174 519
q12 158 -79 256t-233 98t-243 -85q-100 -85 -133 -223t-49 -296q-16 -156 82 -253t243 -97zM723 -25q-287 -1 -470 179t-161 469q12 152 37 272q49 262 223 417q174 154 450 154t443 -181q168 -181 146 -454q-12 -135 -35 -264q-49 -281 -217 -437t-416 -155z" />
    <glyph glyph-name="ohungarumlaut" unicode="&#x151;" horiz-adv-x="1161" 
d="M891 1208q-47 0 -78 29t-31 80t43 88l197 182q45 41 92 41t78 -32t31 -82t-41 -84l-201 -183q-43 -39 -90 -39zM490 1208q-48 0 -78 29t-31 80q0 51 41 88l199 182q45 41 92 41t77 -31t30 -83t-40 -84l-200 -183q-42 -39 -90 -39zM614 858q-190 0 -239 -207
q-27 -100 -33 -196q-6 -95 56 -155t155 -60q172 0 227 206q21 85 30 188q9 104 -49 164t-147 60zM624 1118q194 0 330 -129q137 -129 123 -352q-8 -109 -41 -254q-45 -197 -171 -300q-127 -103 -321 -103t-338 132t-128 349q8 127 41 254q47 197 179 300t326 103z" />
    <glyph glyph-name="OE" unicode="&#x152;" horiz-adv-x="2148" 
d="M846 1198q-371 0 -436 -350q-20 -104 -37 -221q-19 -162 73 -273t304 -110q130 -1 245 26l150 901q-141 27 -299 27zM2001 1446q63 0 100 -37t37 -92t-41 -91t-98 -36h-578l-57 -346h498q57 0 92 -35t35 -86t-38 -85t-93 -34h-531l-61 -348h563q63 0 100 -37t37 -92
t-41 -91t-98 -36h-674l-446 -25q-287 -1 -462 177t-155 466q14 154 39 277q111 571 729 571l563 -20h580z" />
    <glyph glyph-name="oe" unicode="&#x153;" horiz-adv-x="1806" 
d="M552 -20q-192 0 -340 128t-132 353q6 111 41 254q49 203 182 303t331 100t324 -145q140 145 348 145t336 -130t78 -357l-8 -37q-31 -143 -160 -143h-522l-4 -27q-14 -94 42 -144t138 -50t116 12l71 28q35 14 61 26t68 11q40 0 73 -36t33 -83q0 -80 -88 -131
q-136 -77 -322 -77t-335 129q-139 -129 -331 -129zM555 240q174 0 227 206q20 84 30 186t-49 164q-58 62 -147 62q-188 0 -239 -207q-27 -100 -33 -196t56 -156q63 -59 155 -59zM1448 649q25 0 31 27q23 102 -27 156t-147 55q-197 0 -242 -238h385z" />
    <glyph glyph-name="Racute" unicode="&#x154;" horiz-adv-x="1392" 
d="M641 1665q0 57 68 90l280 135q96 40 149 -13q30 -30 29 -73q0 -68 -88 -110l-280 -131q-21 -13 -57 -13t-68 29t-33 86zM743 760q143 0 221 67q76 68 76 163t-65 147q-66 51 -178 51h-265l-71 -428h282zM596 526h-172l-68 -405q-20 -127 -144 -127q-60 0 -98 47t-26 121
l184 1108q12 78 66 128t135 50h338q236 0 375 -119t139 -317q0 -162 -95 -283t-276 -172l222 -346q64 -105 -9 -182q-37 -39 -107 -39t-120 78l-244 393q-23 37 -42 51t-58 14z" />
    <glyph glyph-name="racute" unicode="&#x155;" horiz-adv-x="813" 
d="M891 1464q0 -68 -88 -110l-281 -131q-67 -35 -125 16q-33 29 -33 86t68 90l281 135q96 39 148 -13q30 -30 30 -73zM862 956q0 -53 -36 -91t-97 -38q-20 -1 -72 11t-94 12q-117 0 -139 -141l-96 -590q-26 -129 -146 -129q-60 0 -97 48q-38 48 -26 122l103 608
q33 194 126 272t267 78q117 0 212 -37t95 -125z" />
    <glyph glyph-name="Rcommaaccent" unicode="&#x156;" horiz-adv-x="1392" 
d="M479 -553q-53 0 -79 25q-57 54 -2 122t65 130l20 116q8 47 40 75t78 28t75 -37t18 -86l-20 -99q-30 -143 -86 -209t-109 -65zM743 760q143 0 221 67q76 68 76 163t-65 147q-66 51 -178 51h-265l-71 -428h282zM596 526h-172l-68 -405q-20 -127 -144 -127q-60 0 -98 47
t-26 121l184 1108q12 78 66 128t135 50h338q236 0 375 -119t139 -317q0 -162 -95 -283t-276 -172l222 -346q64 -105 -9 -182q-37 -39 -107 -39t-120 78l-244 393q-23 37 -42 51t-58 14z" />
    <glyph glyph-name="rcommaaccent" unicode="&#x157;" horiz-adv-x="813" 
d="M51 -553q-53 0 -79 25q-56 54 -2 122t65 130l20 116q8 47 40 75t78 28t75 -37t18 -86l-20 -99q-30 -143 -86 -209t-109 -65zM870 956q0 -53 -36 -91t-97 -38q-20 -1 -72 11t-94 12q-117 0 -139 -141l-96 -590q-26 -129 -146 -129q-60 0 -97 48q-38 48 -25 122l102 608
q33 194 126 272t267 78q117 0 212 -37t95 -125z" />
    <glyph glyph-name="Rcaron" unicode="&#x158;" horiz-adv-x="1392" 
d="M797 1546q-37 0 -74 31l-191 164q-35 33 -34 78q0 45 30 77t73 31q42 0 75 -26l139 -123l178 127q31 23 74 23t72 -31q29 -29 29 -77t-64 -94l-225 -149q-45 -31 -82 -31zM743 760q143 0 221 67q76 68 76 163t-65 147q-66 51 -178 51h-265l-71 -428h282zM596 526h-172
l-68 -405q-20 -127 -144 -127q-60 0 -98 47t-26 121l184 1108q12 78 66 128t135 50h338q236 0 375 -119t139 -317q0 -162 -95 -283t-276 -172l222 -346q64 -105 -9 -182q-37 -39 -107 -39t-120 78l-244 393q-23 37 -42 51t-58 14z" />
    <glyph glyph-name="rcaron" unicode="&#x159;" horiz-adv-x="813" 
d="M559 1212q-37 0 -74 31l-190 164q-35 33 -35 78t31 77t73 32t74 -27l140 -123l178 127q32 23 74 23t71 -30t29 -78t-64 -93l-225 -150q-45 -31 -82 -31zM862 956q0 -53 -36 -91t-97 -38q-20 -1 -72 11t-94 12q-117 0 -139 -141l-96 -590q-26 -129 -146 -129q-60 0 -97 48
q-38 48 -26 122l103 608q33 194 126 272t267 78q117 0 212 -37t95 -125z" />
    <glyph glyph-name="Sacute" unicode="&#x15a;" horiz-adv-x="1300" 
d="M1147 1804q0 -68 -88 -110l-281 -131q-67 -35 -125 16q-33 29 -33 86t68 90l281 135q96 39 148 -13q30 -30 30 -73zM623 -25q-168 -1 -319 55q-279 103 -279 236q0 55 37 95q38 40 94 40t126 -47q68 -47 163 -81q95 -33 193 -33t171 49q72 49 72 121q0 106 -219 172
q-351 107 -441 278q-39 74 -39 164q0 201 156 322q156 120 390 120t419 -110q92 -55 92 -139q0 -53 -36 -93t-87 -41q-51 0 -125 39q-127 76 -297 76q-111 0 -170 -48t-59 -112q-1 -64 59 -102q60 -39 187 -76q225 -68 340 -163t114 -267q-1 -203 -151 -329t-391 -126z" />
    <glyph glyph-name="sacute" unicode="&#x15b;" horiz-adv-x="1054" 
d="M1004 1466q0 -68 -89 -110l-280 -131q-67 -35 -125 16q-33 29 -33 86t68 90l280 135q96 40 149 -13q30 -30 30 -73zM920 328q0 -154 -116 -251t-302 -97q-117 0 -233 38t-172 90t-56 105t35 87t80 34t88 -27q135 -90 250 -90q74 0 116 31t43 65q0 34 -13 55t-64 44
q-50 22 -93 38t-69 29q-250 104 -250 295q0 160 125 252t315 92t318 -100q61 -48 61 -104t-32 -90q-63 -67 -182 -7q-119 61 -185 61t-111 -23q-45 -24 -45 -66t29 -64t93 -45q219 -78 295 -156q75 -78 75 -196z" />
    <glyph glyph-name="Scedilla" unicode="&#x15e;" horiz-adv-x="1300" 
d="M29 263q0 58 38 98t93 40q16 0 31 -3l25 -5q24 -5 48 -23q79 -59 180 -95q100 -35 200 -35t170 49t71 117q-1 68 -59 106q-58 39 -159 70q-352 108 -442 277q-39 73 -39 165q0 201 156 322q156 120 390 120t419 -110q92 -55 92 -139q0 -53 -36 -93t-85 -41q-49 0 -127 39
q-127 76 -297 76q-111 0 -170 -48t-59 -112t59 -102q59 -39 187 -76q223 -66 339 -161t116 -281t-145 -315q-144 -128 -370 -128h-24l-29 -55q80 -4 132 -54t52 -128q0 -108 -86 -180t-215 -109q-29 -8 -57 -8q-28 1 -52 23t-24 59q0 61 80 90q4 2 53 18t67 28q16 13 36 30
t20 51q0 43 -53 43l-68 -10q-43 0 -65 36t0 74l53 105q-125 20 -230 67t-161 99t-55 109z" />
    <glyph glyph-name="scedilla" unicode="&#x15f;" horiz-adv-x="1048" 
d="M41 212q0 54 35 88t79 34t87 -27q139 -90 252 -90q74 0 116 32t43 65q0 33 -15 55t-64 44q-50 21 -93 37t-69 29q-250 106 -250 295q0 160 125 252t315 92t318 -100q61 -48 61 -104t-32 -90q-60 -64 -179 -5q-182 97 -298 36q-46 -24 -46 -66q0 -43 30 -65t94 -44
t102 -37q36 -14 94 -47t90 -66q82 -83 82 -215q0 -131 -104 -227t-275 -106l-37 -62q80 -4 132 -54t52 -128q0 -108 -86 -180t-215 -109q-29 -8 -57 -8q-28 1 -52 23q-25 22 -24 59q0 61 80 90q4 2 54 18t78 38q44 33 44 73q0 41 -53 41l-68 -10q-43 0 -65 36t0 74l57 109
q-186 29 -287 121q-51 45 -51 99z" />
    <glyph glyph-name="Scaron" unicode="&#x160;" horiz-adv-x="1300" 
d="M795 1546q-37 0 -74 31l-191 164q-35 33 -34 78q0 45 30 77t73 31q42 0 75 -26l139 -123l178 127q31 23 74 23t72 -31q29 -29 29 -77t-64 -94l-225 -149q-45 -31 -82 -31zM625 -25q-168 -1 -319 55q-279 103 -279 236q0 55 38 95t94 40q57 0 125 -47t163 -81
q95 -33 193 -33t171 49q72 49 72 121q0 106 -219 172q-351 107 -441 278q-39 74 -39 164q0 201 156 322q156 120 390 120t419 -110q92 -55 92 -139q0 -53 -36 -93t-87 -41q-51 0 -125 39q-127 76 -297 76q-111 0 -170 -48t-59 -112q-1 -64 59 -102q60 -39 187 -76
q225 -68 340 -163t114 -267q-1 -203 -151 -329t-391 -126z" />
    <glyph glyph-name="scaron" unicode="&#x161;" horiz-adv-x="1054" 
d="M659 1190q-37 0 -73 31l-191 163q-35 33 -35 78t31 77t73 32t75 -27l139 -123l178 127q31 23 74 23q44 0 72 -30t28 -78t-63 -93l-226 -149q-45 -31 -82 -31zM920 328q0 -154 -116 -251t-302 -97q-117 0 -233 38t-172 90t-56 105t35 87t80 34t88 -27q135 -90 250 -90
q74 0 116 31t43 65q0 34 -13 55t-64 44q-50 22 -93 38t-69 29q-250 104 -250 295q0 160 125 252t315 92t318 -100q61 -48 61 -104t-32 -90q-63 -67 -182 -7q-119 61 -185 61t-111 -23q-45 -24 -45 -66t29 -64t93 -45q219 -78 295 -156q75 -78 75 -196z" />
    <glyph glyph-name="Tcommaaccent" unicode="&#x162;" horiz-adv-x="1228" 
d="M329 -586q-53 0 -79 25t-25 59q0 34 39 83q39 48 49 110l21 116q8 47 40 75t78 28t74 -37q29 -37 19 -86l-21 -98q-30 -143 -86 -209t-109 -66zM223 1190q-63 0 -100 37t-37 92t41 92t98 37h955q63 0 100 -38t37 -93t-41 -91t-98 -36h-359l-180 -1067q-19 -129 -143 -129
q-60 0 -98 47t-25 119l174 1030h-324z" />
    <glyph glyph-name="tcommaaccent" unicode="&#x163;" horiz-adv-x="892" 
d="M283 -553q-51 0 -77 25q-26 26 -26 60t39 82t49 110l21 116q8 47 40 75q31 28 77 28t75 -37t19 -86l-21 -99q-31 -143 -87 -209t-109 -65zM475 -20q-203 0 -303 118t-66 324l134 776q27 143 145 143q65 0 101 -42t26 -103l-23 -139h242q59 0 93 -34t34 -85t-38 -86
t-93 -35h-281l-71 -418q-29 -166 108 -166q43 1 95 19t86 18t67 -32t33 -82q0 -86 -90 -131t-199 -45z" />
    <glyph glyph-name="Tcaron" unicode="&#x164;" horiz-adv-x="1228" 
d="M725 1546q-37 0 -74 31l-190 164q-35 33 -35 78t31 77t73 31q42 0 74 -26l139 -123l179 127q32 23 74 23t71 -31q29 -29 29 -77t-64 -94l-225 -149q-45 -31 -82 -31zM223 1190q-63 0 -100 37t-37 92t41 92t98 37h955q63 0 100 -38t37 -93t-41 -91t-98 -36h-359
l-180 -1067q-19 -129 -143 -129q-60 0 -98 47t-25 119l174 1030h-324z" />
    <glyph glyph-name="tcaron" unicode="&#x165;" horiz-adv-x="894" 
d="M733 1118q-53 0 -79 26q-55 55 14 146q39 45 49 101l22 125q8 44 39 72t77 28t75 -36t18 -85l-22 -106q-28 -133 -84 -202t-109 -69zM475 -20q-203 0 -303 118t-66 324l134 776q27 143 145 143q65 0 101 -42t26 -103l-23 -139h242q59 0 93 -34t34 -85t-38 -86t-93 -35
h-281l-71 -418q-29 -166 108 -166q43 1 95 19t86 18t67 -32t33 -82q0 -86 -90 -131t-199 -45z" />
    <glyph glyph-name="Umacron" unicode="&#x16a;" horiz-adv-x="1472" 
d="M731 1556q-53 0 -85 31t-32 76t37 82t99 37h307q51 0 80 -31t29 -76t-36 -82q-35 -37 -92 -37h-307zM711 -25q-280 0 -450 176q-85 87 -120 230t-4 324l105 614q20 129 144 129q60 0 96 -47q38 -47 26 -121l-102 -618q-35 -210 50 -316t240 -106q289 0 348 368l119 711
q20 129 146 129q61 0 97 -48t24 -122l-111 -666q-104 -637 -608 -637z" />
    <glyph glyph-name="umacron" unicode="&#x16b;" horiz-adv-x="1191" 
d="M553 1233q-53 0 -85 31q-32 32 -32 76t36 81t99 37h308q51 0 79 -31t29 -75q0 -44 -35 -82q-35 -37 -92 -37h-307zM326 1104q60 0 97 -47q38 -47 26 -119l-78 -463q-19 -119 31 -173t148 -54t191 59l111 668q10 61 47 95t97 34t97 -48q38 -48 25 -122l-123 -739
q-10 -63 -65 -101q-178 -114 -394 -114t-345 138q-130 138 -91 371l80 486q10 61 48 95t98 34z" />
    <glyph glyph-name="Uring" unicode="&#x16e;" horiz-adv-x="1472" 
d="M829 1753q-1 -35 21 -57t58 -21q36 0 61 27q25 26 25 62t-22 58t-56 22t-61 -28q-26 -28 -26 -63zM906 1536q-99 0 -161 58q-61 58 -61 152t69 167q69 74 169 74q100 1 159 -59t59 -154t-67 -166q-68 -72 -167 -72zM711 -25q-280 0 -450 176q-85 87 -120 230t-4 324
l105 614q20 129 144 129q60 0 96 -47q38 -47 26 -121l-102 -618q-35 -210 50 -316t240 -106q289 0 348 368l119 711q20 129 146 129q61 0 97 -48t24 -122l-111 -666q-104 -637 -608 -637z" />
    <glyph glyph-name="uring" unicode="&#x16f;" horiz-adv-x="1191" 
d="M720 1350q36 0 60 26t25 63q0 35 -22 57q-23 22 -57 22t-60 -28t-25 -63q-1 -35 21 -56t58 -21zM733 1661q99 0 159 -59q60 -60 60 -154t-68 -166t-166 -72t-160 58t-62 152q0 93 68 167q69 74 169 74zM326 1104q60 0 97 -47q38 -47 26 -119l-78 -463q-19 -119 31 -173
t148 -54t191 59l111 668q10 61 47 95t97 34t97 -48q38 -48 25 -122l-123 -739q-10 -63 -65 -101q-178 -114 -394 -114t-345 138q-130 138 -91 371l80 486q10 61 48 95t98 34z" />
    <glyph glyph-name="Uhungarumlaut" unicode="&#x170;" horiz-adv-x="1472" 
d="M1100 1544q-47 0 -78 29t-31 80t43 88l197 182q45 41 92 41t78 -32t31 -82t-41 -85l-201 -182q-43 -39 -90 -39zM698 1544q-48 0 -78 29t-30 80t41 88l198 182q45 41 93 41t76 -31q30 -31 30 -83t-39 -85l-201 -182q-43 -39 -90 -39zM711 -25q-280 0 -450 176
q-85 87 -120 230t-4 324l105 614q20 129 144 129q60 0 96 -47q38 -47 26 -121l-102 -618q-35 -210 50 -316t240 -106q289 0 348 368l119 711q20 129 146 129q61 0 97 -48t24 -122l-111 -666q-104 -637 -608 -637z" />
    <glyph glyph-name="uhungarumlaut" unicode="&#x171;" horiz-adv-x="1191" 
d="M893 1210q-47 0 -78 29t-31 80t43 88l197 182q45 41 92 41t78 -32t31 -82t-41 -84l-201 -183q-43 -39 -90 -39zM492 1210q-48 0 -78 29t-31 80q0 51 41 88l199 182q45 41 92 41t77 -31t30 -83t-40 -84l-200 -183q-42 -39 -90 -39zM326 1104q60 0 97 -47q38 -47 26 -119
l-78 -463q-19 -119 31 -173t148 -54t191 59l111 668q10 61 47 95t97 34t97 -48q38 -48 25 -122l-123 -739q-10 -63 -65 -101q-178 -114 -394 -114t-345 138q-130 138 -91 371l80 486q10 61 48 95t98 34z" />
    <glyph glyph-name="Uogonek" unicode="&#x172;" horiz-adv-x="1472" 
d="M659 -453q-97 1 -167 61t-70 174t113 214q-213 51 -331 232t-67 477l105 614q20 129 144 129q60 0 98 -48q36 -48 24 -120l-102 -618q-35 -210 50 -316t240 -106q289 0 348 368l119 711q10 61 48 95q37 34 97 34t97 -48t25 -122l-111 -666q-47 -292 -172 -444t-352 -184
q-61 -10 -119 -54t-58 -100q0 -55 24 -78q24 -22 52 -22t64 17t58 17t41 -20t19 -62t-59 -88q-60 -46 -158 -47z" />
    <glyph glyph-name="uogonek" unicode="&#x173;" horiz-adv-x="1191" 
d="M679 -440q-95 0 -165 61t-70 165t88 196h-20q-190 0 -316 132q-60 62 -87 160t-9 215l80 486q23 129 139 129q68 0 105 -47t25 -119l-78 -463q-19 -117 31 -172t148 -55t191 59l111 668q20 129 137 129q68 0 105 -48t24 -122l-123 -735q-10 -70 -69 -107q-20 -12 -82 -43
t-98 -53q-38 -22 -72 -68q-34 -45 -33 -93q0 -48 23 -72q42 -44 120 -1q59 28 95 -8q20 -20 20 -59t-55 -84q-70 -51 -165 -51z" />
    <glyph glyph-name="Wcircumflex" unicode="&#x174;" horiz-adv-x="1933" 
d="M739 1638q0 48 58 91l235 169q39 29 87 29t83 -35l182 -170q43 -43 43 -88q1 -44 -29 -74t-74 -30t-81 37l-141 129l-195 -140q-82 -55 -140 5q-28 29 -28 77zM1841 1448q63 0 103 -36t38 -89q0 -14 -12 -63l-409 -1088q-72 -197 -232 -197q-92 1 -160 61t-75 181
l-52 913q0 10 -10 7l-360 -965q-72 -197 -236 -197q-94 0 -160 68t-71 164l-62 1069q-4 82 39 127q42 45 102 45t101 -37t43 -100l35 -1024q0 -8 6 -9t8 7l352 966q70 197 236 197q85 0 141 -58t62 -169l55 -936q0 -10 10 -9q4 2 6 9l357 1038q43 125 145 125z" />
    <glyph glyph-name="wcircumflex" unicode="&#x175;" horiz-adv-x="1650" 
d="M687 1198q-37 0 -65 29t-28 77t57 91l236 170q39 29 87 29t83 -35l182 -170q43 -43 43 -89t-30 -74q-30 -30 -74 -30t-80 37l-142 129l-194 -139q-37 -25 -75 -25zM389 -16q-84 0 -143 57t-68 156l-63 733q-8 82 29 128q38 46 100 46t99 -34q38 -34 42 -99l33 -463
q4 -72 -4 -240q0 -12 10 -12t14 10q59 178 76 219l184 457q68 162 207 162q80 0 126 -49t52 -137l29 -418q4 -74 4 -232q2 -12 10 -12t15 10q6 16 24 82t31 98l207 551q39 106 133 107q74 0 111 -57t2 -146l-295 -725q-78 -193 -240 -192q-88 0 -146 60t-63 153l-35 548
q0 12 -10 13q-8 0 -14 -13l-225 -565q-41 -104 -95 -150t-137 -46z" />
    <glyph glyph-name="Ycircumflex" unicode="&#x176;" horiz-adv-x="1294" 
d="M438 1638q0 48 58 91l235 169q39 29 87 29t83 -35l182 -170q43 -43 43 -88q0 -44 -30 -74t-73 -30q-44 0 -81 37l-141 129l-195 -140q-37 -24 -75 -24q-37 0 -65 29t-28 77zM224 1448q70 0 122 -80l305 -491l496 518q51 53 115 53t101 -37q38 -37 38 -95t-55 -118
l-523 -532q-57 -61 -67 -113l-72 -432q-20 -127 -144 -127q-60 0 -99 47q-38 47 -25 119l67 393q11 64 -26 123l-355 545q-28 45 -28 98t40 91t110 38z" />
    <glyph glyph-name="ycircumflex" unicode="&#x177;" horiz-adv-x="1073" 
d="M402 1200q-38 0 -66 29t-27 77q0 48 58 91l235 170q39 29 87 29t83 -35l182 -170q43 -43 43 -89q1 -46 -29 -74q-30 -30 -74 -30t-81 37l-141 129l-195 -139q-37 -25 -75 -25zM981 1104q84 0 118 -70t-9 -139l-500 -885q-241 -421 -461 -424q-51 0 -88 34t-37 83
q0 78 88 125q133 72 232 242l-213 845q-20 82 17 136q38 53 116 53q104 0 137 -125l78 -320q25 -98 35 -292q0 -14 12 -15q8 0 16 13q61 156 135 290l193 357q47 92 131 92z" />
    <glyph glyph-name="Ydieresis" unicode="&#x178;" horiz-adv-x="1294" 
d="M975 1714q57 0 92 -33t35 -91t-42 -101t-100 -43t-92 33t-34 90t42 101t99 44zM602 1714q57 0 92 -33t35 -91t-43 -101t-100 -43t-92 33t-35 90t43 101t100 44zM224 1448q70 0 122 -80l305 -491l496 518q51 53 115 53t101 -37q38 -37 38 -95t-55 -118l-523 -532
q-57 -61 -67 -113l-72 -432q-20 -127 -144 -127q-60 0 -99 47q-38 47 -25 119l67 393q11 64 -26 123l-355 545q-28 45 -28 98t40 91t110 38z" />
    <glyph glyph-name="Zacute" unicode="&#x179;" horiz-adv-x="1243" 
d="M1153 1804q0 -68 -88 -110l-281 -131q-20 -13 -56 -13t-69 29t-33 86t68 90l281 135q96 39 148 -13q30 -30 30 -73zM967 0h-781q-84 0 -130 45t-46 114t86 169l758 862h-524q-63 0 -100 37q-36 37 -36 91t40 92t98 38h747q84 0 127 -42t43 -111t-94 -175l-758 -864h572
q63 0 100 -37t37 -92t-41 -91t-98 -36z" />
    <glyph glyph-name="zacute" unicode="&#x17a;" horiz-adv-x="1017" 
d="M977 1466q0 -68 -88 -110l-281 -131q-67 -35 -125 16q-33 29 -33 86t68 90l281 135q96 39 148 -13q30 -30 30 -73zM762 246q61 0 96 -34t35 -87t-39 -89t-96 -36h-594q-72 0 -113 41t-41 103t58 120l546 572h-348q-63 0 -98 34t-35 88q0 52 39 88t96 35h561q80 0 122 -40
q42 -39 42 -105t-53 -119l-547 -571h369z" />
    <glyph glyph-name="Zdotaccent" unicode="&#x17b;" horiz-adv-x="1243" 
d="M809 1819q57 0 92 -33t35 -91q0 -57 -43 -101t-100 -44t-92 33q-33 33 -33 90t42 101t99 45zM967 0h-781q-84 0 -130 45t-46 114t86 169l758 862h-524q-63 0 -100 37q-36 37 -36 91t40 92t98 38h747q84 0 127 -42t43 -111t-94 -175l-758 -864h572q63 0 100 -37t37 -92
t-41 -91t-98 -36z" />
    <glyph glyph-name="zdotaccent" unicode="&#x17c;" horiz-adv-x="1017" 
d="M637 1217q-57 1 -91 33t-34 89t42 101t99 45q57 0 92 -33t35 -91t-43 -101t-100 -43zM762 246q61 0 96 -34t35 -87t-39 -89t-96 -36h-594q-72 0 -113 41t-41 103t58 120l546 572h-348q-63 0 -98 34t-35 88q0 52 39 88t96 35h561q80 0 122 -40q42 -39 42 -105t-53 -119
l-547 -571h369z" />
    <glyph glyph-name="Zcaron" unicode="&#x17d;" horiz-adv-x="1243" 
d="M748 1546q-37 0 -74 31l-191 164q-35 33 -34 78t31 77t72 31q42 0 75 -26l139 -123l178 127q31 23 74 23t72 -31q28 -29 28 -77t-63 -94l-226 -149q-44 -31 -81 -31zM967 0h-781q-84 0 -130 45t-46 114t86 169l758 862h-524q-63 0 -100 37q-36 37 -36 91t40 92t98 38h747
q84 0 127 -42t43 -111t-94 -175l-758 -864h572q63 0 100 -37t37 -92t-41 -91t-98 -36z" />
    <glyph glyph-name="zcaron" unicode="&#x17e;" horiz-adv-x="1017" 
d="M606 1214q-37 0 -74 31l-190 164q-35 33 -35 78t31 77t73 32t74 -27l140 -123l178 127q31 23 73 23t72 -30q29 -30 29 -78t-64 -93l-225 -150q-45 -31 -82 -31zM762 246q61 0 96 -34t35 -87t-39 -89t-96 -36h-594q-72 0 -113 41t-41 103t58 120l546 572h-348
q-63 0 -98 34t-35 88q0 52 39 88t96 35h561q80 0 122 -40q42 -39 42 -105t-53 -119l-547 -571h369z" />
    <glyph glyph-name="florin" unicode="&#x192;" horiz-adv-x="1189" 
d="M150 -418q-80 0 -120 60t-16 133l246 798h-53q-59 0 -101 36q-40 37 -40 95t39 95q40 37 102 37h133l106 346q44 132 142 202t229 70q213 0 342 -133q39 -39 39 -99t-38 -98t-95 -39q-57 0 -109 43q-48 46 -130 46t-111 -89l-76 -249h215q61 0 101 -36t40 -93t-41 -95
t-100 -39h-295l-270 -888q-14 -45 -52 -74t-87 -29z" />
    <glyph glyph-name="Scommaaccent" unicode="&#x218;" horiz-adv-x="1300" 
d="M488 -553q-52 0 -78 25q-26 26 -25 60q0 34 39 82t49 110l21 116q8 47 40 75t78 28t74 -37q29 -37 19 -86l-21 -99q-32 -143 -88 -209t-108 -65zM625 -25q-168 -1 -319 55q-279 103 -279 236q0 55 38 95t94 40q57 0 125 -47t163 -81q95 -33 193 -33t171 49q72 49 72 121
q0 106 -219 172q-351 107 -441 278q-39 74 -39 164q0 201 156 322q156 120 390 120t419 -110q92 -55 92 -139q0 -53 -36 -93t-87 -41q-51 0 -125 39q-127 76 -297 76q-111 0 -170 -48t-59 -112q-1 -64 59 -102q60 -39 187 -76q225 -68 340 -163t114 -267q-1 -203 -151 -329
t-391 -126z" />
    <glyph glyph-name="scommaaccent" unicode="&#x219;" horiz-adv-x="1048" 
d="M345 -553q-52 0 -78 25q-56 54 -2 122t65 130l20 116q8 47 40 75t78 28t75 -37t18 -86l-20 -99q-31 -143 -87 -209t-109 -65zM920 328q0 -154 -116 -251t-302 -97q-117 0 -233 38t-172 90t-56 105t35 87t80 34t88 -27q135 -90 250 -90q74 0 116 31t43 65q0 34 -13 55
t-64 44q-50 22 -93 38t-69 29q-250 104 -250 295q0 160 125 252t315 92t318 -100q61 -48 61 -104t-32 -90q-63 -67 -182 -7q-119 61 -185 61t-111 -23q-45 -24 -45 -66t29 -64t93 -45q219 -78 295 -156q75 -78 75 -196z" />
    <glyph glyph-name="circumflex" unicode="&#x2c6;" 
d="M540 1927q48 0 83 -35l182 -170q43 -43 43 -88q0 -44 -30 -74t-74 -30t-80 37l-142 129l-194 -140q-37 -24 -75 -24t-66 29q-27 29 -27 77t57 91l236 169q39 29 87 29z" />
    <glyph glyph-name="caron" unicode="&#x2c7;" 
d="M496 1546q-37 0 -74 31l-191 164q-35 33 -34 78t31 77t72 31q42 0 75 -26l139 -123l178 127q31 23 74 23t72 -31q28 -29 28 -77t-63 -94l-225 -149q-45 -31 -82 -31z" />
    <glyph glyph-name="breve" unicode="&#x2d8;" 
d="M562 1546q-106 0 -179 47q-74 47 -107 131q-14 37 -14 82t32 71t73 26q72 0 94 -88q8 -25 15 -39q20 -39 88 -39q69 0 108 83t104 83q45 0 72 -27q46 -46 10 -131q-34 -87 -112 -143t-184 -56z" />
    <glyph glyph-name="dotaccent" unicode="&#x2d9;" 
d="M535 1819q57 0 92 -33t35 -91q0 -57 -44 -101t-100 -44q-57 0 -91 33t-34 90t42 102q43 44 100 44z" />
    <glyph glyph-name="ring" unicode="&#x2da;" 
d="M542 1675q36 0 60 27q24 26 25 62q0 36 -22 58q-23 22 -57 22t-60 -28t-26 -63t22 -57t58 -21zM555 1987q99 1 159 -59t60 -154t-68 -166t-166 -72q-99 0 -161 58q-61 58 -61 152t68 167q69 74 169 74z" />
    <glyph glyph-name="ogonek" unicode="&#x2db;" 
d="M498 -451q-96 -1 -164 59t-68 167q0 227 326 354q32 12 58 12t48 -20q22 -19 21 -65t-59 -68t-92 -38t-70 -56q-36 -38 -37 -82t21 -63t53 -19t61 17t56 17q24 0 44 -22t20 -62t-60 -86q-62 -46 -158 -45z" />
    <glyph glyph-name="tilde" unicode="&#x2dc;" 
d="M629 1536q-55 0 -135 40t-112 40t-74 -33t-76 -33t-65 30q-32 30 -32 71t58 90q98 86 196 86q57 0 139 -41t109 -41t72 40t81 40t65 -29q30 -29 30 -77t-68 -101q-100 -82 -188 -82z" />
    <glyph glyph-name="hungarumlaut" unicode="&#x2dd;" 
d="M608 1544q-47 0 -78 29q-30 29 -30 80t43 88l196 182q45 41 92 41t78 -32t31 -82t-41 -85l-201 -182q-43 -39 -90 -39zM207 1544q-47 0 -78 29t-31 80t41 88l199 182q45 41 92 41t77 -31t30 -83t-39 -85l-201 -182q-43 -39 -90 -39z" />
    <glyph glyph-name="Wgrave" unicode="&#x1e80;" horiz-adv-x="1933" 
d="M1130 1546q-43 0 -73 19l-269 145q-59 31 -59 86t32 87t70 32t66 -17l279 -155q59 -31 59 -82t-31 -83t-74 -32zM1841 1448q63 0 103 -36t38 -89q0 -14 -12 -63l-409 -1088q-72 -197 -232 -197q-92 1 -160 61t-75 181l-52 913q0 10 -10 7l-360 -965q-72 -197 -236 -197
q-94 0 -160 68t-71 164l-62 1069q-4 82 39 127q42 45 102 45t101 -37t43 -100l35 -1024q0 -8 6 -9t8 7l352 966q70 197 236 197q85 0 141 -58t62 -169l55 -936q0 -10 10 -9q4 2 6 9l357 1038q43 125 145 125z" />
    <glyph glyph-name="wgrave" unicode="&#x1e81;" horiz-adv-x="1650" 
d="M991 1212q-43 0 -73 19l-269 145q-59 31 -59 86t32 87t70 32t66 -16l278 -156q60 -31 60 -82t-31 -83t-74 -32zM389 -16q-84 0 -143 57t-68 156l-63 733q-8 82 29 128q38 46 100 46t99 -34q38 -34 42 -99l33 -463q4 -72 -4 -240q0 -12 10 -12t14 10q59 178 76 219
l184 457q68 162 207 162q80 0 126 -49t52 -137l29 -418q4 -74 4 -232q2 -12 10 -12t15 10q6 16 24 82t31 98l207 551q39 106 133 107q74 0 111 -57t2 -146l-295 -725q-78 -193 -240 -192q-88 0 -146 60t-63 153l-35 548q0 12 -10 13q-8 0 -14 -13l-225 -565
q-41 -104 -95 -150t-137 -46z" />
    <glyph glyph-name="Wacute" unicode="&#x1e82;" horiz-adv-x="1933" 
d="M1458 1804q0 -68 -88 -110l-280 -131q-20 -13 -56 -13t-70 29q-32 29 -32 86t67 90l281 135q97 40 148 -13q30 -30 30 -73zM1841 1448q63 0 103 -36t38 -89q0 -14 -12 -63l-409 -1088q-72 -197 -232 -197q-92 1 -160 61t-75 181l-52 913q0 10 -10 7l-360 -965
q-72 -197 -236 -197q-94 0 -160 68t-71 164l-62 1069q-4 82 39 127q42 45 102 45t101 -37t43 -100l35 -1024q0 -8 6 -9t8 7l352 966q70 197 236 197q85 0 141 -58t62 -169l55 -936q0 -10 10 -9q4 2 6 9l357 1038q43 125 145 125z" />
    <glyph glyph-name="wacute" unicode="&#x1e83;" horiz-adv-x="1650" 
d="M1286 1468q0 -68 -88 -110l-280 -131q-20 -13 -56 -13t-70 29q-32 29 -32 86t67 90l281 135q97 40 148 -13q30 -30 30 -73zM389 -16q-84 0 -143 57t-68 156l-63 733q-8 82 29 128q38 46 100 46t99 -34q38 -34 42 -99l33 -463q4 -72 -4 -240q0 -12 10 -12t14 10
q59 178 76 219l184 457q68 162 207 162q80 0 126 -49t52 -137l29 -418q4 -74 4 -232q2 -12 10 -12t15 10q6 16 24 82t31 98l207 551q39 106 133 107q74 0 111 -57t2 -146l-295 -725q-78 -193 -240 -192q-88 0 -146 60t-63 153l-35 548q0 12 -10 13q-8 0 -14 -13l-225 -565
q-41 -104 -95 -150t-137 -46z" />
    <glyph glyph-name="Wdieresis" unicode="&#x1e84;" horiz-adv-x="1933" 
d="M1303 1819q57 0 92 -33t35 -91q0 -57 -42 -101t-100 -44t-92 33q-35 33 -35 90t42 102q43 44 100 44zM930 1819q57 0 92 -33t35 -91q0 -57 -43 -101q-42 -44 -100 -44t-93 33t-35 90t43 102q44 44 101 44zM1841 1448q63 0 103 -36t38 -89q0 -14 -12 -63l-409 -1088
q-72 -197 -232 -197q-92 1 -160 61t-75 181l-52 913q0 10 -10 7l-360 -965q-72 -197 -236 -197q-94 0 -160 68t-71 164l-62 1069q-4 82 39 127q42 45 102 45t101 -37t43 -100l35 -1024q0 -8 6 -9t8 7l352 966q70 197 236 197q85 0 141 -58t62 -169l55 -936q0 -10 10 -9
q4 2 6 9l357 1038q43 125 145 125z" />
    <glyph glyph-name="wdieresis" unicode="&#x1e85;" horiz-adv-x="1650" 
d="M1151 1487q57 0 92 -33t35 -91t-42 -101t-99 -43t-93 32q-34 33 -34 90t42 101t99 45zM762 1219q-57 1 -92 33t-35 89t43 101t100 45q57 0 92 -33t35 -91t-43 -101t-100 -43zM389 -16q-84 0 -143 57t-68 156l-63 733q-8 82 29 128q38 46 100 46t99 -34q38 -34 42 -99
l33 -463q4 -72 -4 -240q0 -12 10 -12t14 10q59 178 76 219l184 457q68 162 207 162q80 0 126 -49t52 -137l29 -418q4 -74 4 -232q2 -12 10 -12t15 10q6 16 24 82t31 98l207 551q39 106 133 107q74 0 111 -57t2 -146l-295 -725q-78 -193 -240 -192q-88 0 -146 60t-63 153
l-35 548q0 12 -10 13q-8 0 -14 -13l-225 -565q-41 -104 -95 -150t-137 -46z" />
    <glyph glyph-name="Ygrave" unicode="&#x1ef2;" horiz-adv-x="1294" 
d="M817 1546q-43 0 -74 19l-268 145q-59 31 -59 86t31 87q32 32 70 32t67 -17l278 -155q60 -31 60 -82t-31 -83t-74 -32zM224 1448q70 0 122 -80l305 -491l496 518q51 53 115 53t101 -37q38 -37 38 -95t-55 -118l-523 -532q-57 -61 -67 -113l-72 -432q-20 -127 -144 -127
q-60 0 -99 47q-38 47 -25 119l67 393q11 64 -26 123l-355 545q-28 45 -28 98t40 91t110 38z" />
    <glyph glyph-name="ygrave" unicode="&#x1ef3;" horiz-adv-x="1073" 
d="M786 1323q0 -51 -30 -83t-74 -32q-43 0 -74 19l-268 145q-59 31 -59 86t31 87q32 32 70 32t67 -16l278 -156q59 -31 59 -82zM981 1104q84 0 118 -70t-9 -139l-500 -885q-241 -421 -461 -424q-51 0 -88 34t-37 83q0 78 88 125q133 72 232 242l-213 845q-20 82 17 136
q38 53 116 53q104 0 137 -125l78 -320q25 -98 35 -292q0 -14 12 -15q8 0 16 13q61 156 135 290l193 357q47 92 131 92z" />
    <glyph glyph-name="endash" unicode="&#x2013;" horiz-adv-x="1159" 
d="M221 451q-71 0 -107 39t-36 98t45 99t108 40h705q66 0 106 -39t39 -97q0 -58 -46 -99t-111 -41h-703z" />
    <glyph glyph-name="emdash" unicode="&#x2014;" horiz-adv-x="1906" 
d="M221 451q-71 0 -107 39t-36 98t45 99t108 40h1452q66 0 105 -39t39 -97t-45 -99t-111 -41h-1450z" />
    <glyph glyph-name="quoteleft" unicode="&#x2018;" horiz-adv-x="499" 
d="M256 883q-53 0 -84 42t-20 97l18 113q27 152 96 231q61 80 137 80q51 0 80 -28t29 -69t-46 -99t-56 -120l-23 -131q-8 -53 -43 -85t-88 -31z" />
    <glyph glyph-name="quoteright" unicode="&#x2019;" horiz-adv-x="497" 
d="M236 883q-49 1 -79 29t-30 68t46 98t56 120l23 133q8 53 44 84t88 31t84 -42t21 -97l-20 -111q-23 -147 -91 -230t-142 -83z" />
    <glyph glyph-name="quotesinglbase" unicode="&#x201a;" horiz-adv-x="434" 
d="M133 -231q-49 1 -79 29t-30 68t46 98t57 120l23 133q8 53 44 84t88 31t84 -42t21 -97l-20 -111q-23 -147 -91 -230t-143 -83z" />
    <glyph glyph-name="quotedblleft" unicode="&#x201c;" horiz-adv-x="860" 
d="M256 883q-53 0 -84 42t-20 97l18 113q27 152 96 231q61 80 137 80q51 0 80 -28t29 -69t-46 -99t-56 -120l-23 -131q-8 -53 -43 -85t-88 -31zM617 883q-53 0 -85 42q-31 42 -20 97l18 113q27 152 97 231q61 80 137 80q51 0 80 -28q28 -28 28 -69t-46 -99t-56 -120
l-22 -131q-8 -53 -43 -85t-88 -31z" />
    <glyph glyph-name="quotedblright" unicode="&#x201d;" horiz-adv-x="858" 
d="M236 883q-49 1 -79 29t-30 68t46 98t56 120l23 133q8 53 44 84t88 31t84 -42t21 -97l-20 -111q-23 -147 -91 -230t-142 -83zM596 883q-49 1 -79 29t-30 68t46 98t57 120l22 133q8 53 44 84t88 31t84 -42t22 -97l-21 -111q-23 -147 -91 -230t-142 -83z" />
    <glyph glyph-name="quotedblbase" unicode="&#x201e;" horiz-adv-x="847" 
d="M170 -231q-49 1 -79 29t-30 68t46 98t57 120l22 133q8 53 44 84t88 31t84 -42t22 -97l-21 -111q-23 -147 -91 -230t-142 -83zM535 -233q-49 1 -79 29t-30 68t46 98t56 120l23 133q8 53 44 84t88 31t84 -42t21 -98l-20 -110q-23 -147 -91 -230t-142 -83z" />
    <glyph glyph-name="dagger" unicode="&#x2020;" horiz-adv-x="1150" 
d="M223 778q-55 0 -93 38t-38 95t48 99t114 43h254l43 258q12 63 51 103t101 40q63 0 99 -43t25 -102l-43 -256h244q55 0 95 -39q40 -40 40 -98t-47 -98t-117 -40h-256l-151 -923q-28 -142 -146 -142q-64 0 -102 44q-39 44 -29 104l152 917h-244z" />
    <glyph glyph-name="daggerdbl" unicode="&#x2021;" horiz-adv-x="1150" 
d="M215 778q-55 0 -90 36t-35 95t48 101t116 43h252l43 258q10 61 50 102t101 41q60 0 98 -43t27 -102l-43 -256h256q57 0 91 -37t34 -94q0 -56 -46 -100t-118 -44h-262l-63 -391h256q57 0 91 -38t34 -95t-46 -99t-118 -42h-260l-43 -258q-10 -63 -46 -103t-98 -39
q-62 0 -103 43q-40 43 -30 105l41 252h-246q-55 -1 -90 35q-34 36 -34 96t48 101q48 42 115 42h252l64 391h-246z" />
    <glyph glyph-name="bullet" unicode="&#x2022;" horiz-adv-x="935" 
d="M209 717q0 106 76 182t182 76t182 -76t76 -182t-76 -182t-182 -76t-182 76t-76 182z" />
    <glyph glyph-name="ellipsis" unicode="&#x2026;" horiz-adv-x="1417" 
d="M200 -18q-54 0 -88 38t-24 91l21 133q10 51 45 84q35 32 89 32t87 -38t24 -91l-22 -131q-10 -54 -44 -86t-88 -32zM677 -18q-54 0 -88 38t-24 91l21 133q10 51 45 84q35 32 89 32t87 -38t24 -91l-22 -131q-10 -54 -44 -86t-88 -32zM1140 -18q-54 0 -88 38t-24 91l21 133
q10 51 45 84q35 32 89 32t87 -38t24 -91l-22 -131q-10 -54 -44 -86t-88 -32z" />
    <glyph glyph-name="perthousand" unicode="&#x2030;" horiz-adv-x="2465" 
d="M2023 182q98 0 131 121q14 57 15 105q0 121 -117 120q-47 0 -85 -34t-52 -94t-14 -106q-1 -46 31 -79t91 -33zM1698 297q0 238 132 351q95 81 233 81q139 0 227 -85t88 -222q0 -63 -17 -137q-65 -301 -351 -301q-142 0 -226 88q-86 88 -86 225zM1266 182q98 0 131 121
q14 57 14 105q0 121 -117 120q-47 0 -85 -34t-52 -94t-14 -106t32 -79t91 -33zM1254 -16q-142 0 -228 88t-86 225q0 238 132 351q96 81 234 81t226 -85t88 -222q0 -63 -16 -137q-31 -145 -120 -223q-88 -78 -230 -78zM410 170q-49 0 -84 35t-35 85t47 97l860 846
q45 45 95 45t85 -34t35 -85t-45 -96l-862 -846q-47 -47 -96 -47zM397 907q98 0 131 121q14 57 15 105q0 121 -117 120q-47 1 -85 -33t-52 -94q-15 -60 -15 -107q0 -46 32 -79t91 -33zM384 709q-142 0 -226 88q-86 88 -86 225q0 238 132 351q95 81 233 81q139 0 227 -85
t88 -222q0 -63 -17 -137q-31 -145 -120 -223t-231 -78z" />
    <glyph glyph-name="guilsinglleft" unicode="&#x2039;" horiz-adv-x="698" 
d="M49 723q0 113 113 186l289 191q104 60 173 -7q34 -34 34 -87t-66 -99l-213 -143q-29 -18 -29 -36t15 -30l161 -139q41 -33 41 -82q1 -49 -33 -86t-85 -37t-109 45l-213 181q-78 61 -78 143z" />
    <glyph glyph-name="guilsinglright" unicode="&#x203a;" horiz-adv-x="710" 
d="M672 760q0 -111 -113 -185l-289 -190q-51 -29 -95 -29t-77 34q-32 34 -32 89t63 96l215 146q27 19 27 35t-15 30l-161 140q-41 33 -41 82t34 85q35 35 86 35t107 -43l213 -180q78 -63 78 -145z" />
    <glyph glyph-name="fraction" unicode="&#x2044;" horiz-adv-x="575" 
d="M-92 -68q-64 0 -104 36t-40 77t21 82l741 1305q41 72 117 71q51 0 91 -33t40 -80t-22 -83l-742 -1305q-38 -70 -102 -70z" />
    <glyph glyph-name="Euro" unicode="&#x20ac;" horiz-adv-x="1286" 
d="M868 1454q129 0 237 -43t171 -119q37 -43 37 -90t-35 -83t-84 -36t-117 52q-90 75 -204 75q-113 0 -197 -59t-115 -168h234q57 0 88 -30q31 -29 31 -73t-34 -80t-92 -36h-288l-17 -90h275q53 0 82 -31q28 -31 28 -77t-36 -82t-103 -35h-270q5 -113 69 -171t174 -58
t250 104q47 30 92 30t76 -34t31 -76q0 -70 -88 -135q-160 -127 -367 -127t-347 118t-148 349h-62q-41 1 -73 33t-31 79q0 47 37 80t86 33h67l15 90h-43q-47 0 -77 32t-30 78t38 77q38 32 89 32h66q59 219 212 345t373 126z" />
    <glyph glyph-name="trademark" unicode="&#x2122;" horiz-adv-x="1288" 
d="M622 868q-49 0 -69 29t-6 72l123 372q39 115 133 115q43 0 73 -29t31 -77l13 -246q0 -16 6 -17q4 0 10 15l94 250q39 104 127 104q45 0 77 -29t32 -86l-2 -385q0 -40 -20 -64t-56 -24q-34 0 -56 22t-20 52l14 289q0 14 -5 14t-9 -14l-108 -275q-37 -88 -105 -88
q-33 0 -59 25t-27 65l-16 273q0 14 -6 14t-9 -14l-90 -295q-21 -68 -70 -68zM285 866q-33 0 -56 25t-18 57l59 350h-116q-27 0 -45 22q-19 22 -19 52t26 52q26 24 60 24h373q31 0 50 -22t19 -52t-26 -52q-26 -24 -62 -24h-106l-57 -352q-12 -80 -82 -80z" />
    <glyph glyph-name="minus" unicode="&#x2212;" horiz-adv-x="1255" 
d="M1014 586h-774q-55 0 -95 39q-39 39 -39 93t38 92t96 38h774q55 0 94 -38t39 -92t-40 -93t-93 -39z" />
    <glyph glyph-name="lessequal" unicode="&#x2264;" horiz-adv-x="1255" 
d="M915 -6h-579q-55 0 -93 39t-38 94t38 92t93 37h579q55 0 95 -38t39 -92t-41 -93t-93 -39zM548 858q0 -15 27 -31l404 -233q45 -27 59 -81t-14 -101q-29 -46 -79 -58t-97 15l-529 309q-115 68 -115 180t115 180l529 310q47 26 97 14t79 -58q30 -46 16 -100t-61 -80
l-404 -235q-27 -16 -27 -31z" />
    <glyph glyph-name="greaterequal" unicode="&#x2265;" horiz-adv-x="1255" 
d="M918 -6h-578q-55 0 -95 39t-40 94t39 92t96 37h578q55 0 93 -37t38 -92t-38 -94t-93 -39zM705 858q0 16 -25 31l-406 235q-45 27 -58 80t15 101q29 45 78 57t97 -14l528 -310q115 -66 115 -180t-115 -180l-528 -309q-46 -27 -96 -15t-79 58q-27 47 -14 101q12 54 57 81
l406 233q25 15 25 31z" />
    <glyph glyph-name="fl" unicode="&#xfb02;" horiz-adv-x="1492" 
d="M1108 -8q-60 0 -96 47t-25 121l197 1179q22 131 146 129q62 0 98 -48t22 -122l-195 -1179q-10 -61 -48 -94q-39 -33 -99 -33zM723 1489q115 0 209 -47q70 -42 70 -98t-32 -95q-30 -39 -71 -39t-92 14t-92 15q-125 0 -150 -145l-8 -58h197q57 0 92 -35t35 -86t-38 -85
t-93 -33h-226l-112 -678q-21 -127 -145 -127q-61 0 -97 47t-25 121l105 637h-29q-61 -1 -94 33t-33 86t38 86t91 34h68l12 72q63 381 420 381z" />
    <glyph glyph-name="Imacron" horiz-adv-x="634" 
d="M303 1556q-53 0 -85 31t-32 76t36 82t100 37h307q51 0 80 -31t29 -76t-36 -82q-35 -37 -92 -37h-307zM210 -8q-60 0 -96 48q-38 48 -26 122l193 1157q23 129 137 129q70 0 106 -48t25 -122l-193 -1157q-10 -61 -48 -95t-98 -34z" />
    <glyph glyph-name="ampersand.alt" horiz-adv-x="1425" 
d="M687 1190q-87 0 -148 -43t-61 -129t100 -154q287 70 286 201q0 55 -45 90t-132 35zM551 -20q-217 0 -370 105t-152 302q0 127 81 225t224 150q-139 118 -139 292t142 284t346 110t335 -97t131 -271t-150 -278t-381 -173q-224 -71 -278 -147q-27 -38 -27 -83
q0 -71 65 -115q66 -44 186 -44t214 84t123 192q31 96 72 143t131 48h141q70 0 107 -38t37 -93q0 -54 -41 -100t-109 -46h-96q-68 -221 -221 -336q-154 -114 -371 -114z" />
    <glyph glyph-name="Q.alt" horiz-adv-x="1470" 
d="M790 1198q-142 0 -243 -85q-100 -85 -133 -223t-46 -273q-13 -134 38 -221t145 -126l37 211q10 61 46 94t91 33t85 -48t21 -116l-30 -188q195 55 256 299q37 143 47 295t-81 250t-233 98zM723 -215q-21 -117 -133 -117q-54 0 -88 47t-23 121l27 160q-195 53 -316 222
t-102 405q12 152 37 272q49 262 223 417q174 154 450 154t443 -181q168 -181 145 -454q-12 -135 -34 -264q-45 -259 -198 -411t-400 -176z" />
    <glyph glyph-name="r.alt" horiz-adv-x="776" 
d="M188 -6q-63 0 -102 47t-27 115l131 792q6 43 50 74q129 96 333 96q125 0 203 -39q70 -41 70 -105t-38 -104t-106 -41l-139 17q-72 0 -121 -33l-114 -678q-25 -141 -140 -141z" />
    <glyph glyph-name="zero.onum" horiz-adv-x="1267" 
d="M658 856q-108 0 -189 -64q-106 -85 -119 -286q-8 -133 69 -200q77 -66 183 -66t184 56t105 175q10 49 16 107q11 126 -65 202t-184 76zM669 1118q215 0 368 -145t139 -371q-10 -145 -35 -223q-53 -187 -183 -293t-351 -106q-222 0 -375 137t-148 358q13 367 222 529
q148 114 363 114z" />
    <glyph glyph-name="one.onum" horiz-adv-x="958" 
d="M522 -10q-61 0 -101 43t-28 112l107 641l-205 -77q-68 -25 -128 7q-61 32 -61 90q-1 110 125 155l365 133q31 10 61 10q68 0 110 -41t30 -115l-135 -811q-23 -147 -140 -147z" />
    <glyph glyph-name="two.onum" horiz-adv-x="1214" 
d="M301 0q-217 0 -217 204q0 100 80 196q80 95 217 149q49 20 125 44t173 56t135 66q38 33 38 65t-41 57q-41 24 -117 23q-129 0 -278 -92q-55 -33 -101 -33t-81 39q-34 39 -33 84q0 70 96 135q162 111 366 111q205 0 331 -89t126 -242t-135 -245q-109 -71 -285 -122
q-33 -10 -147 -42t-149 -68q-17 -17 -29 -40h543q68 0 104 -35t35 -87q0 -52 -45 -93t-123 -41h-588z" />
    <glyph glyph-name="three.onum" horiz-adv-x="1181" 
d="M307 396q0 40 16 64q15 24 54 58l305 281l-2 6h-422q-57 0 -94 40t-37 95t45 98t111 43h655q59 1 102 -35t43 -112t-71 -133l-316 -297q146 -35 226 -133t79 -215q0 -260 -217 -416t-645 -156q-92 0 -135 38t-43 97t41 99t113 39l78 -2q244 -1 388 79t144 209
q0 70 -52 116t-141 46l-112 -8q-45 0 -79 29q-34 30 -34 70z" />
    <glyph glyph-name="four.onum" horiz-adv-x="1337" 
d="M727 272l80 443l-434 -443h354zM203 4q-88 0 -138 44q-51 44 -51 119t82 157l635 657q39 41 62 60q76 63 156 63q79 0 126 -65t33 -152l-107 -606h95q63 0 99 -37t36 -92q0 -56 -46 -102t-124 -46h-105l-43 -283q-20 -141 -141 -141q-61 0 -100 41t-29 113l41 270h-481z
" />
    <glyph glyph-name="five.onum" horiz-adv-x="1253" 
d="M854 152q0 78 -61 131t-151 53t-251 -68q-102 -41 -173 5t-54 149l78 477q29 182 213 182h602q57 0 94 -37t37 -96t-51 -101t-125 -42h-510l-51 -285q127 51 237 51q199 0 321 -116q121 -117 121 -301t-128 -318q-237 -249 -723 -252q-254 0 -254 144q0 59 41 93t102 34
l129 -5q225 0 391 88t166 214z" />
    <glyph glyph-name="six.onum" horiz-adv-x="1361" 
d="M387 522q1 -132 69 -202t183 -70t198 74t83 188q0 188 -232 188q-160 0 -293 -79q-8 -51 -8 -99zM1200 522q0 -223 -149 -383q-150 -159 -408 -159t-393 156t-135 435q0 344 189 604q93 127 248 205t341 78t273 -37t87 -121q0 -57 -41 -92t-112 -34l-207 12
q-168 0 -285 -77t-157 -230q141 66 294 65q227 0 341 -119t114 -303z" />
    <glyph glyph-name="seven.onum" horiz-adv-x="1105" 
d="M244 -416q-82 0 -124 56t-9 135q176 434 649 1032h-545q-57 0 -93 38t-36 97t46 99t114 40h737q76 0 122 -37q46 -36 46 -100t-49 -125q-506 -639 -725 -1124q-51 -111 -133 -111z" />
    <glyph glyph-name="eight.onum" horiz-adv-x="1411" 
d="M686 -20q-337 0 -491 186q-82 98 -82 226t71 232q72 103 209 134q-166 92 -166 284t155 299q156 107 386 107t376 -100t146 -267q0 -119 -63 -210t-183 -123q84 -41 146 -125t63 -205q0 -209 -157 -324q-158 -114 -410 -114zM963 438q0 186 -273 187q-129 1 -208 -53
t-79 -148t74 -138t199 -44t206 51t81 145zM772 1196q-112 0 -194 -43q-80 -43 -80 -127t70 -128t180 -44q112 0 192 52t80 131t-68 119t-180 40z" />
    <glyph glyph-name="nine.onum" horiz-adv-x="1349" 
d="M704 844q-116 0 -196 -73t-80 -174t60 -159t196 -59q136 0 270 70q12 66 13 129q0 118 -73 192q-74 74 -190 74zM150 598q0 233 158 377q160 143 398 143t389 -147t150 -385q0 -465 -251 -732t-736 -268q-182 0 -182 138q0 57 43 94t104 32q271 -12 451 88t233 267
q-41 -27 -115 -45t-130 -19q-246 0 -379 133t-133 324z" />
    <glyph glyph-name="sterling.alt" horiz-adv-x="1157" 
d="M874 276q70 0 110 -38t40 -94t-43 -100t-121 -44h-651q-92 0 -135 68t-17 157q13 47 69 140t101 192h-41q-63 0 -97 35t-34 90t42 99t118 44h121q8 23 51 146q82 235 198 359t310 124q156 0 246 -78q51 -51 51 -110q0 -60 -38 -96t-90 -36t-91 24q-39 22 -99 22t-105 -44
t-79 -120t-78 -191h207q70 1 105 -35q34 -36 34 -92t-40 -98q-40 -43 -115 -43h-295q-55 -133 -94 -197t-39 -74q0 -9 20 -10h479z" />
    <glyph glyph-name="commaaccent" 
d="M337 -553q-52 0 -78 25q-26 26 -26 60t39 82t50 110l20 116q8 47 40 75t78 28t75 -37t18 -86l-21 -99q-31 -143 -87 -209t-108 -65z" />
    <glyph glyph-name="caronSlovak" 
d="M338 1118q-53 0 -79 26t-26 60t39 86q39 45 50 101l22 125q8 44 39 72t77 28t75 -36t18 -85l-23 -106q-27 -133 -83 -202t-109 -69z" />
    <glyph glyph-name="g.alt" horiz-adv-x="1179" 
d="M589 889q-83 0 -145 -52q-62 -51 -63 -133q0 -82 48 -124t136 -43q88 0 146 54q57 54 57 133t-48 122t-131 43zM494 -414q-158 0 -293 45t-195 107t-61 116q0 56 38 94t89 38t118 -47q50 -45 134 -75t163 -30t149 27t69 82q0 74 -134 73h-143q-145 0 -217 58t-72 133
q0 129 156 201q-166 113 -166 313q0 165 124 281t325 116q143 0 258 -63h237q66 0 103 -32q36 -32 36 -80t-36 -84t-107 -36h-84q20 -47 21 -118q0 -155 -118 -261t-304 -106h-90q-100 0 -101 -47q0 -37 88 -37h146q162 0 254 -82t92 -232t-128 -252t-351 -102z" />
    <glyph glyph-name="gbreve.alt" horiz-adv-x="1179" 
d="M722 1198q-106 0 -179 47q-74 47 -107 131q-14 37 -14 82t32 71t72 25q72 0 95 -88q8 -25 15 -39t29 -26q21 -12 59 -12q38 1 64 23t48 69q35 74 100 73q45 0 72 -26q46 -45 10 -131q-34 -87 -112 -143t-184 -56zM589 889q-83 0 -145 -52q-62 -51 -63 -133q0 -82 48 -124
t136 -43q88 0 146 54q57 54 57 133t-48 122t-131 43zM494 -414q-158 0 -293 45t-195 107t-61 116q0 56 38 94t89 38t118 -47q50 -45 134 -75t163 -30t149 27t69 82q0 74 -134 73h-143q-145 0 -217 58t-72 133q0 129 156 201q-166 113 -166 313q0 165 124 281t325 116
q143 0 258 -63h237q66 0 103 -32q36 -32 36 -80t-36 -84t-107 -36h-84q20 -47 21 -118q0 -155 -118 -261t-304 -106h-90q-100 0 -101 -47q0 -37 88 -37h146q162 0 254 -82t92 -232t-128 -252t-351 -102z" />
    <glyph glyph-name="gdotaccent.alt" horiz-adv-x="1177" 
d="M711 1489q57 0 92 -33t35 -91t-43 -101t-101 -43q-58 1 -91 33q-34 32 -34 89t42 102q43 44 100 44zM589 889q-83 0 -145 -52q-62 -51 -63 -133q0 -82 48 -124t136 -43q88 0 146 54q57 54 57 133t-48 122t-131 43zM494 -414q-158 0 -293 45t-195 107t-61 116q0 56 38 94
t89 38t118 -47q50 -45 134 -75t163 -30t149 27t69 82q0 74 -134 73h-143q-145 0 -217 58t-72 133q0 129 156 201q-166 113 -166 313q0 165 124 281t325 116q143 0 258 -63h237q66 0 103 -32q36 -32 36 -80t-36 -84t-107 -36h-84q20 -47 21 -118q0 -155 -118 -261t-304 -106
h-90q-100 0 -101 -47q0 -37 88 -37h146q162 0 254 -82t92 -232t-128 -252t-351 -102z" />
    <glyph glyph-name="gcommaaccent.alt" horiz-adv-x="1179" 
d="M663 1190q-53 0 -79 24t-25 60q0 35 39 83t49 109l21 117q8 47 40 75t78 28t74 -37q29 -37 19 -86l-21 -99q-30 -142 -86 -208t-109 -66zM589 889q-83 0 -145 -52q-62 -51 -63 -133q0 -82 48 -124t136 -43q88 0 146 54q57 54 57 133t-48 122t-131 43zM494 -414
q-158 0 -293 45t-195 107t-61 116q0 56 38 94t89 38t118 -47q50 -45 134 -75t163 -30t149 27t69 82q0 74 -134 73h-143q-145 0 -217 58t-72 133q0 129 156 201q-166 113 -166 313q0 165 124 281t325 116q143 0 258 -63h237q66 0 103 -32q36 -32 36 -80t-36 -84t-107 -36h-84
q20 -47 21 -118q0 -155 -118 -261t-304 -106h-90q-100 0 -101 -47q0 -37 88 -37h146q162 0 254 -82t92 -232t-128 -252t-351 -102z" />
    <glyph glyph-name="racute.alt" horiz-adv-x="776" 
d="M897 1470q0 -68 -88 -110l-281 -131q-20 -12 -56 -12q-36 1 -69 29t-33 85t68 90l281 135q96 39 148 -13q30 -30 30 -73zM188 -6q-63 0 -102 47t-27 115l131 792q6 43 50 74q129 96 333 96q125 0 203 -39q70 -41 70 -105t-38 -104t-106 -41l-139 17q-72 0 -121 -33
l-114 -678q-25 -141 -140 -141z" />
    <glyph glyph-name="rcaron.alt" horiz-adv-x="776" 
d="M551 1229q-37 0 -74 31l-190 163q-35 33 -35 78t31 77t73 32t74 -27l139 -123l179 127q32 23 74 23t71 -30t29 -78t-64 -93l-225 -149q-45 -31 -82 -31zM188 -6q-63 0 -102 47t-27 115l131 792q6 43 50 74q129 96 333 96q125 0 203 -39q70 -41 70 -105t-38 -104t-106 -41
l-139 17q-72 0 -121 -33l-114 -678q-25 -141 -140 -141z" />
    <glyph glyph-name="rcommaaccent.alt" horiz-adv-x="776" 
d="M27 -553q-51 0 -77 25q-26 26 -26 60t39 82t49 110l21 116q8 47 40 75q31 28 77 28t75 -37t19 -86l-21 -99q-31 -143 -87 -209t-109 -65zM188 -6q-63 0 -102 47t-27 115l131 792q6 43 50 74q129 96 333 96q125 0 203 -39q70 -41 70 -105t-38 -104t-106 -41l-139 17
q-72 0 -121 -33l-114 -678q-25 -141 -140 -141z" />
    </font>
</defs>
</svg>
