<?xml version="1.0" standalone="no"?>
<!DOCTYPE svg PUBLIC "-//W3C//DTD SVG 1.1//EN" "http://www.w3.org/Graphics/SVG/1.1/DTD/svg11.dtd" >
<svg xmlns="http://www.w3.org/2000/svg">
<metadata>
Created by FontPrep 20130207 at Tue Nov  4 15:29:43 2014
 By Mauricio Duran
Copyright (c) 2010 by Miles Newlyn. All rights reserved.
</metadata>
<defs>
<font id="6606f9668f502ec986aaf832786ca291" horiz-adv-x='1024' >
  <font-face 
    font-family="Rubrik-RegularItalic"
    font-weight="400"
    font-style="italic"
    font-stretch="normal"
    units-per-em="2048"
    panose-1="2 0 5 3 0 0 0 2 0 4"
    ascent="1536"
    descent="-512"
    x-height="1057"
    cap-height="1442"
    bbox="-199 -584 2103.89 1919"
    underline-thickness="143"
    underline-position="-62"
    unicode-range="U+0020-FB02"
  />
<missing-glyph horiz-adv-x="616" 
 />
    <glyph glyph-name="fi" unicode="fi" horiz-adv-x="1351" 
d="M1133 1077q41 -1 63 -29t14 -73l-149 -905q-12 -78 -82 -78q-41 0 -65 28q-23 29 -15 74l152 905q12 78 82 78zM1296 1371q0 -42 -28 -76q-28 -33 -74 -33q-45 0 -72 28q-26 28 -26 71q0 42 29 75q30 32 75 32t71 -27q25 -28 25 -70zM686 1470q86 0 178 -36
q47 -25 47 -62q0 -38 -19 -60q-20 -22 -44 -22t-74 12t-98 13q-174 0 -205 -199l-14 -82h268q35 0 57 -22t21 -54q0 -33 -23 -53t-57 -20h-287l-135 -815q-12 -78 -82 -78q-43 0 -65 28t-15 74l131 791h-61q-39 -1 -59 21t-20 54t23 54q24 22 56 20h88l14 94q59 342 375 342
z" />
    <glyph glyph-name=".notdef" horiz-adv-x="616" 
 />
    <glyph glyph-name=".null" horiz-adv-x="0" 
 />
    <glyph glyph-name="nonmarkingreturn" horiz-adv-x="681" 
 />
    <glyph glyph-name="space" unicode=" " horiz-adv-x="522" 
 />
    <glyph glyph-name="exclam" unicode="!" horiz-adv-x="466" 
d="M133 -20q-35 0 -57 24t-15 57l27 168q4 33 26 53t54 21q32 0 54 -27t16 -61l-27 -158q-15 -77 -78 -77zM215 467q-33 -1 -52 23t-16 55l121 803q6 44 32 66t62 22t58 -27q23 -27 14 -70l-145 -798q-13 -74 -74 -74z" />
    <glyph glyph-name="quotedbl" unicode="&#x22;" horiz-adv-x="727" 
d="M549 973q-35 -1 -57 23t-15 59l51 311q4 33 27 53q23 21 57 21t54 -24t14 -56l-51 -313q-14 -74 -80 -74zM262 973q-34 -1 -56 23t-16 59l52 311q4 33 26 53q23 21 57 21t54 -24t14 -56l-51 -313q-14 -74 -80 -74z" />
    <glyph glyph-name="numbersign" unicode="#" horiz-adv-x="1275" 
d="M449 575h227l153 310h-229zM109 -18q-43 0 -62 31q-18 32 2 73l166 338h-109q-30 0 -52 22t-22 52t28 54q26 24 69 23h160l153 310h-112q-30 0 -52 20t-22 53t27 56t69 22h166l176 361q29 55 73 55t62 -31t-2 -73l-153 -312h231l176 361q29 55 73 55t62 -31t-2 -73
l-153 -312h104q37 0 59 -22t22 -52t-26 -54q-24 -24 -69 -23h-162l-153 -310h108q36 0 58 -20t22 -53t-26 -56t-70 -22h-168l-193 -389q-27 -53 -69 -53t-64 32q-23 32 0 72l168 338h-227l-193 -389q-30 -53 -73 -53z" />
    <glyph glyph-name="dollar" unicode="$" horiz-adv-x="1206" 
d="M465 -182q-33 0 -55 22t-17 60l27 141q-90 12 -194 54t-158 91q-29 27 -29 62q-1 36 23 60t58 24t68 -27q152 -115 381 -115q133 0 225 60t93 164q0 102 -71 144t-246 93q-174 51 -284 136t-110 229q0 180 141 280t326 105l21 133q12 80 79 80q39 0 59 -25t13 -65
l-20 -127q81 -14 157 -46q138 -58 135 -124q1 -33 -21 -57q-42 -46 -118 -3q-123 78 -266 78q-144 0 -238 -59t-94 -164q0 -62 45 -108t85 -62q92 -37 165 -55q179 -56 282 -121q134 -86 134 -256t-135 -278t-359 -109l-24 -144q-12 -71 -78 -71z" />
    <glyph glyph-name="percent" unicode="%" horiz-adv-x="1507" 
d="M1046 115q73 0 128 47q55 46 69 112q15 66 21 130t-38 111q-44 48 -117 48t-128 -47q-55 -48 -69 -108t-20 -128q-7 -68 37 -117q44 -48 117 -48zM1048 -12q-128 0 -212 86t-74 213q8 220 130 326q89 77 219 77t211 -82t73 -209q-16 -230 -135 -337q-84 -74 -212 -74z
M388 877q73 0 128 47q54 48 68 108t21 128t-36 117q-43 48 -115 48t-129 -48q-57 -49 -71 -113t-20 -128t38 -111q44 -48 116 -48zM386 750q-128 0 -210 85t-72 214q8 68 17 114q25 135 113 212q90 77 220 77t211 -82t72 -209q-13 -235 -135 -337q-88 -74 -216 -74zM270 182
q-31 0 -51 22t-20 52t28 59l951 922q30 29 60 29t52 -20t21 -52q0 -31 -29 -59l-952 -924q-29 -29 -60 -29z" />
    <glyph glyph-name="ampersand" unicode="&#x26;" horiz-adv-x="1382" 
d="M666 1284q-120 0 -197 -62q-78 -62 -78 -163q0 -68 43 -129t129 -139q76 29 114 43t95 44t85 56q71 65 71 150q0 84 -71 142t-191 58zM535 139q215 0 356 146l-373 344q-291 -96 -291 -267q1 -104 83 -164t225 -59zM537 -20q-197 0 -336 104t-139 262t98 250
q98 94 246 145q-84 84 -131 161q-46 77 -46 175q0 162 121 261q121 100 308 100q186 0 310 -96t124 -250q0 -264 -408 -410l303 -272q8 14 45 84q38 70 58 93q20 21 56 21t60 -33t-8 -111q-33 -78 -90 -163l184 -164q27 -25 32 -57t-15 -62q-25 -24 -59 -28t-62 20l-180 166
q-192 -196 -471 -196z" />
    <glyph glyph-name="quotesingle" unicode="'" horiz-adv-x="458" 
d="M279 973q-35 0 -56 23q-20 24 -16 59l53 311q4 33 27 53q23 21 57 21t54 -24t14 -56l-54 -313q-10 -74 -79 -74z" />
    <glyph glyph-name="parenleft" unicode="(" horiz-adv-x="686" 
d="M456 -362q-38 0 -63 34q-250 352 -250 832q0 322 124 604t378 491q29 27 62 27t59 -22t25 -56q0 -35 -43 -71q-2 -2 -39 -36q-37 -35 -55 -55t-67 -72q-48 -52 -106 -150q-59 -97 -84 -163q-25 -67 -49 -145q-46 -152 -45 -357q-1 -207 61 -395t158 -325q42 -75 -4 -118
q-24 -23 -62 -23z" />
    <glyph glyph-name="parenright" unicode=")" horiz-adv-x="700" 
d="M-23 -362q-31 0 -57 22q-60 51 19 129q2 2 80 76t108 118q96 137 143 235t80 240t33 327q0 186 -61 375t-158 327q-42 73 5 116q27 23 63 23t63 -35q250 -354 250 -831q0 -319 -125 -602t-377 -492q-35 -28 -66 -28z" />
    <glyph glyph-name="asterisk" unicode="*" horiz-adv-x="755" 
d="M353 727q-28 0 -46 23t-8 55l45 201l-184 -111q-25 -16 -55 -12q-30 3 -42 27q-13 24 1 51t45 38l198 95l-164 94q-27 14 -32 42q-6 28 10 50t44 25q28 2 50 -17l154 -112l22 202q-1 35 17 57q18 21 49 21t47 -24t6 -60l-43 -196l184 112q27 18 56 12t39 -30t-3 -50
q-12 -26 -45 -38l-198 -97l164 -92q30 -14 36 -40t-9 -48t-42 -26t-51 14l-156 113l-24 -203q0 -37 -18 -57t-47 -19z" />
    <glyph glyph-name="plus" unicode="+" horiz-adv-x="1271" 
d="M715 276q-1 -35 -23 -58t-56 -23q-34 -1 -56 23t-23 58v363h-360q-35 0 -60 23q-25 22 -25 56t26 56q24 22 59 23h360v358q0 35 23 59q22 24 56 25q34 0 56 -25t23 -59v-358h354q35 0 59 -23q24 -22 25 -56q0 -34 -26 -56t-58 -23h-354v-363z" />
    <glyph glyph-name="comma" unicode="," horiz-adv-x="450" 
d="M111 -211q-36 -1 -55 19t-19 45t41 71t59 133l21 127q6 33 29 53q24 19 54 19q31 0 53 -25t13 -63l-20 -111q-12 -80 -34 -126t-64 -94t-78 -48z" />
    <glyph glyph-name="hyphen" unicode="-" horiz-adv-x="667" 
d="M176 506q-42 0 -64 24t-22 59q0 37 27 59t65 22h307q41 0 65 -24t24 -58t-28 -59q-28 -24 -67 -23h-307z" />
    <glyph glyph-name="period" unicode="." horiz-adv-x="503" 
d="M182 -20q-35 0 -55 24t-16 57l28 177q14 74 82 73q35 1 55 -23t15 -57l-29 -178q-14 -73 -80 -73z" />
    <glyph glyph-name="slash" unicode="/" horiz-adv-x="673" 
d="M66 -66q-48 0 -72 35t-6 80l547 1393q23 57 76 56t75 -37t2 -79l-547 -1392q-27 -56 -75 -56z" />
    <glyph glyph-name="zero" unicode="0" horiz-adv-x="1353" 
d="M639 139q307 0 381 377q41 202 56 372t-79 288t-268 118q-307 0 -379 -376q-45 -223 -57 -359q-16 -193 77 -307t269 -113zM649 -20q-258 0 -398 166t-120 405q10 115 52 368q43 253 187 395t376 142t373 -167q140 -167 122 -400q-12 -149 -59 -391q-48 -242 -184 -380
t-349 -138z" />
    <glyph glyph-name="one" unicode="1" horiz-adv-x="903" 
d="M428 -8q-38 0 -64 26t-18 68l189 1133l-273 -146q-22 -12 -50 -12t-50 20q-22 19 -23 63q0 44 62 75l372 200q45 23 78 23t55 -28t13 -75l-209 -1261q-16 -86 -82 -86z" />
    <glyph glyph-name="two" unicode="2" horiz-adv-x="1181" 
d="M877 166q37 0 61 -23t23 -59q0 -36 -30 -60t-75 -24h-727q-61 0 -88 43t-14 102q29 135 121 237t361 272q269 169 340 252t71 176q0 92 -68 152t-182 60q-162 0 -322 -155q-41 -37 -73 -37q-33 0 -55 22q-54 54 19 134q73 78 187 138t242 60q178 0 299 -104t120 -265
q0 -60 -19 -121t-46 -97t-45 -61t-97 -91q-79 -67 -126 -95q-48 -28 -108 -66t-73 -46q-201 -126 -279 -196t-85 -148h668z" />
    <glyph glyph-name="three" unicode="3" horiz-adv-x="1169" 
d="M264 1274q-38 0 -62 22t-24 55q0 35 27 59t67 24h674q49 0 78 -24t29 -70t-54 -97l-381 -348q168 -7 279 -111t111 -236t-54 -230t-141 -158q-245 -168 -670 -168q-57 0 -85 24t-28 61t26 59t69 22l92 -2q209 0 399 76q100 40 164 116t64 177t-81 169t-212 68l-94 -6
q-33 0 -58 19t-25 54t50 74l393 365l-2 6h-551z" />
    <glyph glyph-name="four" unicode="4" horiz-adv-x="1320" 
d="M803 508l121 709l-674 -709h553zM168 346q-59 0 -93 29t-34 79t53 103l762 805q41 43 70 61q28 19 76 19t79 -38t21 -95l-135 -797h143q36 0 58 -22t22 -56t-28 -62q-28 -26 -75 -26h-147l-45 -268q-14 -86 -84 -86q-37 0 -63 26t-17 66l45 262h-608z" />
    <glyph glyph-name="five" unicode="5" horiz-adv-x="1206" 
d="M637 793q-123 0 -307 -95q-59 -33 -110 -2q-50 31 -38 101l86 516q18 121 142 121h630q35 0 58 -22q22 -22 22 -58t-30 -58q-30 -23 -74 -22h-590l-68 -408q138 76 314 76t288 -103t113 -245q0 -379 -416 -522q-229 -80 -505 -80q-45 0 -85 18t-40 60q1 42 27 66t63 24
l90 -4q240 0 458 93q109 46 177 129t68 184t-75 166t-198 65z" />
    <glyph glyph-name="six" unicode="6" horiz-adv-x="1329" 
d="M285 526q0 -184 94 -286q93 -102 245 -101t252 105t99 260q0 120 -81 190q-82 70 -246 70t-353 -102q-10 -88 -10 -136zM909 1456q289 0 289 -104q0 -33 -22 -56q-22 -22 -50 -22t-100 10t-121 10q-221 0 -371 -116t-204 -347q180 87 372 87t315 -113q124 -113 124 -289
q-1 -228 -143 -382t-370 -154t-368 148q-139 148 -139 425t117 503q128 252 375 348q134 52 296 52z" />
    <glyph glyph-name="seven" unicode="7" horiz-adv-x="1054" 
d="M224 -8q-50 0 -74 36t-5 83q98 247 256 487t490 672h-678q-35 0 -57 22t-21 59q0 35 27 59t69 24h783q109 0 108 -86q0 -45 -37 -91q-331 -426 -503 -687t-275 -509q-33 -69 -83 -69z" />
    <glyph glyph-name="eight" unicode="8" horiz-adv-x="1357" 
d="M1184 428q0 -212 -150 -330t-386 -118q-234 0 -383 108q-148 109 -148 291q0 141 84 251t229 134q-84 41 -135 116t-51 162q0 199 145 307q145 107 364 107t351 -102t133 -256q0 -125 -71 -221t-205 -132q223 -104 223 -317zM641 139q162 0 265 71t104 218q0 118 -92 182
t-255 64t-267 -75t-105 -228q0 -106 94 -169t256 -63zM408 1036q0 -100 88 -160t238 -59q150 0 245 73q94 73 94 177t-84 170t-227 66q-142 0 -248 -69t-106 -198z" />
    <glyph glyph-name="nine" unicode="9" horiz-adv-x="1314" 
d="M682 1294q-150 0 -247 -95t-97 -247q0 -112 85 -198t252 -86t343 94q41 300 -92 436q-94 96 -244 96zM670 520q-227 0 -364 125q-136 125 -136 330t141 343t363 138t370 -141q147 -141 148 -395q0 -426 -245 -678t-707 -252q-127 0 -127 82q1 36 27 58t67 20
q305 -8 505 107q199 116 271 341q-143 -78 -313 -78z" />
    <glyph glyph-name="colon" unicode=":" horiz-adv-x="526" 
d="M180 -20q-32 0 -54 24t-17 57l28 172q4 33 27 53q24 20 56 21t52 -23t17 -57l-29 -172q-4 -33 -26 -54t-54 -21zM300 696q-34 0 -54 24t-17 56l29 172q4 33 27 53q23 21 55 21t53 -24q20 -24 17 -56l-29 -172q-3 -34 -25 -54t-56 -20z" />
    <glyph glyph-name="semicolon" unicode=";" horiz-adv-x="546" 
d="M118 -211q-36 -1 -56 19t-19 45q0 25 41 71t59 133l21 127q6 32 30 52t54 20t52 -25t13 -63l-20 -111q-12 -80 -34 -126q-21 -46 -63 -94t-78 -48zM329 696q-34 0 -55 24q-20 24 -16 56l29 172q4 33 26 53q23 21 56 21t53 -24t16 -56l-28 -172q-4 -34 -26 -54t-55 -20z
" />
    <glyph glyph-name="less" unicode="&#x3c;" horiz-adv-x="1271" 
d="M922 1343q30 1 54 -23t24 -60t-31 -60l-543 -440q-31 -27 -31 -43t31 -43l543 -441q33 -27 33 -61t-24 -58t-54 -24t-54 21l-579 471q-78 63 -78 135t78 135l577 471q23 20 54 20z" />
    <glyph glyph-name="equal" unicode="=" horiz-adv-x="1271" 
d="M1057 449h-844q-35 1 -59 23t-23 56q0 34 24 57q24 24 58 23h844q37 0 61 -24t25 -57q1 -34 -25 -56t-61 -22zM1057 827h-844q-35 0 -59 23q-24 24 -23 58q0 34 24 57t58 22h844q35 1 61 -23t25 -57q1 -33 -25 -57t-61 -23z" />
    <glyph glyph-name="greater" unicode="&#x3e;" horiz-adv-x="1271" 
d="M358 90q-28 0 -52 23t-24 59t31 61l541 441q31 25 31 43t-31 43l-543 440q-31 25 -31 61q0 35 24 59q22 24 54 24t54 -21l579 -471q76 -61 76 -135t-76 -135l-577 -471q-27 -21 -56 -21z" />
    <glyph glyph-name="question" unicode="?" horiz-adv-x="1169" 
d="M486 526q-26 0 -47 23q-19 23 -19 63t74 74q221 88 298 158t95 122t18 101q0 100 -64 162q-65 61 -184 61q-68 0 -129 -24t-97 -50t-81 -66t-77 -40t-51 20t-19 54t30 69q70 83 187 141t239 58q176 0 293 -100t117 -280t-134 -309q-134 -128 -388 -224q-35 -13 -61 -13z
M408 -20q-33 0 -56 24t-16 57l29 166q4 33 26 55q23 22 55 22t54 -25q20 -25 14 -58l-27 -166q-4 -33 -25 -54t-54 -21z" />
    <glyph glyph-name="at" unicode="@" horiz-adv-x="1728" 
d="M797 127q-160 0 -244 96t-59 266l18 132q27 182 129 277t268 95q166 1 263 -109t69 -272l-35 -202q-10 -64 22 -100t85 -36q98 0 117 115l53 316q43 259 -116 425t-414 166t-421 -140t-227 -398q-39 -168 -57 -389q-24 -261 120 -405t384 -144q86 0 237 49q49 16 80 -3
t31 -62t-62 -70q-126 -58 -280 -58t-273 43q-268 97 -355 348q-82 235 24 697q72 332 283 505q212 173 481 173q362 0 563 -216t147 -540l-49 -293q-20 -127 -92 -193q-73 -66 -185 -65q-112 0 -185 82t-50 201l33 190q18 112 -40 178t-160 66q-214 0 -249 -248l-18 -115
q-39 -233 174 -233q35 0 71 12t56 12t36 -16q17 -16 17 -49t-46 -61t-144 -27z" />
    <glyph glyph-name="A" unicode="A" horiz-adv-x="1345" 
d="M786 1288q-38 0 -61 -45l-322 -618h543l-117 618q-5 45 -43 45zM27 -8q-49 0 -72 39t4 90l619 1175q47 90 99 125t122 35t120 -43t66 -129l227 -1173q10 -51 -12 -85t-65 -34q-72 0 -88 84l-76 403h-639l-223 -426q-33 -61 -82 -61z" />
    <glyph glyph-name="B" unicode="B" horiz-adv-x="1357" 
d="M766 817q139 0 231 67t93 187q0 209 -293 209h-330l-78 -463h377zM678 156q160 0 260 74t100 214q0 106 -67 171q-68 65 -178 65h-426l-86 -524h397zM221 0q-59 0 -88 36t-18 93l196 1178q20 131 152 131h315q238 0 358 -93t119 -255q0 -109 -56 -201t-169 -137v-4
q174 -90 174 -302t-142 -328q-142 -118 -386 -118h-455z" />
    <glyph glyph-name="C" unicode="C" horiz-adv-x="1327" 
d="M639 141q266 0 385 244q33 61 74 61q86 0 86 -73q0 -23 -17 -64q-61 -135 -188 -232t-332 -97q-257 0 -407 162t-134 429q12 193 66 377q72 242 228 375q157 133 391 133q180 0 306 -88t173 -225q16 -41 16 -72t-22 -55t-56 -23q-55 0 -78 62q-84 240 -348 239
q-170 0 -286 -110t-164 -288q-46 -177 -60 -354t84 -289t283 -112z" />
    <glyph glyph-name="D" unicode="D" horiz-adv-x="1415" 
d="M571 156q244 0 380 103t192 341q20 82 33 209q26 221 -90 346t-347 125h-268l-186 -1124h286zM219 0q-55 0 -85 36t-19 95l196 1176q10 61 50 96t102 35h276q309 0 469 -170t138 -443q-12 -133 -39 -260q-70 -307 -253 -436t-519 -129h-316z" />
    <glyph glyph-name="E" unicode="E" horiz-adv-x="1247" 
d="M461 1438h686q39 0 61 -24t23 -58q0 -34 -25 -54q-25 -22 -61 -22h-674l-80 -483h619q36 0 58 -22q22 -23 22 -55t-24 -52t-58 -21h-641l-82 -491h665q39 0 62 -23q22 -23 22 -57t-24 -54q-24 -22 -62 -22h-725q-131 0 -106 135l194 1172q21 131 150 131z" />
    <glyph glyph-name="F" unicode="F" horiz-adv-x="1185" 
d="M467 1438h682q39 0 61 -24t23 -58q0 -34 -25 -54q-25 -22 -59 -22h-672l-86 -514h613q36 0 58 -23t22 -55t-24 -54t-59 -22h-634l-91 -540q-12 -80 -81 -80q-41 0 -65 27q-23 28 -15 71l202 1219q20 129 150 129z" />
    <glyph glyph-name="G" unicode="G" horiz-adv-x="1392" 
d="M1143 756q57 0 83 -29t19 -80q-14 -113 -24 -172q-39 -213 -181 -354t-395 -141q-251 0 -403 162t-137 398q15 238 67 412q68 244 222 374q155 130 392 130q172 0 301 -82t177 -217q14 -39 14 -71t-23 -54q-23 -23 -57 -22q-57 0 -74 51q-33 111 -124 172q-92 61 -240 61
t-264 -102t-166 -297q-38 -145 -56 -331t83 -305q101 -118 277 -118t286 93q109 93 137 253l20 113h-280q-35 0 -60 22t-25 56t26 56t67 22h338z" />
    <glyph glyph-name="H" unicode="H" horiz-adv-x="1531" 
d="M195 -8q-41 0 -65 28t-15 70l211 1274q12 78 82 78q40 0 64 -28t15 -73l-90 -542h787l94 565q12 78 82 78q40 0 64 -28t16 -73l-213 -1269q-12 -80 -82 -80q-39 0 -63 27q-23 28 -17 69l92 551h-786l-95 -567q-12 -80 -81 -80z" />
    <glyph glyph-name="I" unicode="I" horiz-adv-x="579" 
d="M408 1442q41 0 64 -28t15 -73l-211 -1271q-12 -78 -86 -78q-36 0 -60 28t-15 74l211 1270q12 78 82 78z" />
    <glyph glyph-name="J" unicode="J" horiz-adv-x="985" 
d="M-39 259q0 29 24 53q23 24 65 24t65 -49q72 -145 229 -146q188 0 234 271l155 952q12 78 84 78q39 0 61 -28t17 -68l-154 -949q-68 -418 -399 -417q-131 0 -228 62t-137 148q-16 39 -16 69z" />
    <glyph glyph-name="K" unicode="K" horiz-adv-x="1296" 
d="M193 -8q-39 0 -62 28t-16 68l211 1276q12 78 84 78q42 0 64 -28t13 -68l-88 -531h50q35 0 57 8t57 43l576 545q35 31 69 31t56 -20t22 -56q0 -35 -37 -70l-612 -567l479 -600q23 -27 23 -59t-23 -55q-24 -23 -64 -23t-69 39l-451 571q-27 33 -47 41t-59 8h-55l-95 -579
q-12 -80 -83 -80z" />
    <glyph glyph-name="L" unicode="L" horiz-adv-x="1099" 
d="M946 156q39 0 62 -23q22 -23 22 -57t-24 -54q-24 -22 -60 -22h-723q-131 0 -108 131l207 1233q12 78 81 78q41 0 64 -28t14 -73l-198 -1185h663z" />
    <glyph glyph-name="M" unicode="M" horiz-adv-x="1824" 
d="M1481 1280q-12 0 -27 -31l-457 -1118q-55 -139 -166 -139q-61 0 -103 45t-48 117l-90 1095q-4 31 -22 31t-29 -33l-359 -1190q-20 -66 -82 -65q-44 0 -68 32t-10 74l365 1190q51 168 188 168q68 0 113 -45t51 -121l88 -1085q0 -20 19 -21q18 0 24 21l443 1089
q68 162 188 162q72 0 117 -47t43 -127l-27 -1202q-4 -88 -80 -88q-36 0 -62 24t-24 64l33 1167q0 33 -18 33z" />
    <glyph glyph-name="N" unicode="N" horiz-adv-x="1566" 
d="M1395 1442q43 0 65 -29t15 -74l-203 -1198q-27 -150 -144 -149q-90 0 -133 98l-524 1153l-4 -2q-16 -115 -66 -418l-125 -751q-12 -80 -81 -80q-41 0 -65 28t-15 70l200 1208q25 143 146 144q39 0 67 -18t39 -34q12 -17 27 -49l528 -1140h2q14 109 66 426l123 737
q12 78 82 78z" />
    <glyph glyph-name="O" unicode="O" horiz-adv-x="1413" 
d="M779 1294q-183 0 -305 -114t-165 -308q-21 -96 -39 -240q-34 -261 104 -376q137 -115 301 -115q165 1 281 103t158 273q41 171 55 351t-96 303q-111 123 -294 123zM674 -20q-244 0 -421 160q-85 77 -128 202q-43 126 -26 272t40 265q49 265 215 421t428 156t421 -179
t132 -439q-23 -190 -43 -297q-50 -269 -212 -415t-406 -146z" />
    <glyph glyph-name="P" unicode="P" horiz-adv-x="1304" 
d="M692 700q194 0 308 82t114 240q0 118 -78 188t-229 70h-330l-96 -580h311zM195 -8q-41 0 -65 28t-15 70l204 1225q20 123 136 123h364q213 0 340 -115t127 -291q0 -219 -154 -355t-434 -136h-344l-78 -469q-12 -80 -81 -80z" />
    <glyph glyph-name="Q" unicode="Q" horiz-adv-x="1427" 
d="M678 141q88 0 158 29l-174 264q-39 63 4 103q22 20 56 20t62 -41l181 -274q115 100 157 273t54 355q14 182 -97 302q-111 122 -293 122t-304 -114t-165 -308q-75 -347 -25 -485q58 -158 224 -219q74 -27 162 -27zM676 -20q-250 0 -424 168t-146 452q16 150 41 279
q51 265 217 421t426 156t420 -180t133 -434q-23 -199 -43 -301q-59 -293 -241 -432l137 -207q16 -22 16 -50t-22 -50t-56 -22q-36 0 -59 34l-145 219q-119 -53 -254 -53z" />
    <glyph glyph-name="R" unicode="R" horiz-adv-x="1382" 
d="M690 721q213 0 320 83q106 83 106 214q0 130 -85 196t-232 66h-324l-92 -559h307zM614 573h-256l-82 -501q-12 -80 -81 -80q-41 0 -65 28t-15 72l202 1223q20 123 142 123h338q227 0 359 -109t132 -290t-112 -301t-318 -146l293 -465q18 -27 18 -59q-1 -32 -23 -54
t-64 -22t-74 49l-293 467q-23 37 -41 51q-19 14 -60 14z" />
    <glyph glyph-name="S" unicode="S" horiz-adv-x="1275" 
d="M1114 395q0 -182 -142 -299t-362 -116q-164 0 -316 54t-224 124q-35 32 -35 68t27 65t80 12q15 -5 35 -19l28 -20q67 -45 175 -84t239 -39t229 69t98 177t-89 164q-65 42 -184 84q-120 43 -185 74q-185 88 -238 193q-35 67 -35 153q0 186 140 294t352 107q129 0 251 -38
q240 -74 240 -171q0 -31 -22 -55t-58 -25q-37 0 -76 27q-164 100 -328 100t-247 -70q-84 -70 -84 -165q-1 -95 75 -147t202 -97t188 -74q181 -84 233 -191q33 -67 33 -155z" />
    <glyph glyph-name="T" unicode="T" horiz-adv-x="1159" 
d="M176 1280q-40 0 -62 22t-22 56t25 58q25 22 59 22h989q39 0 62 -24t23 -58t-26 -54q-24 -22 -59 -22h-422l-204 -1206q-12 -82 -82 -82q-39 0 -63 28t-15 70l199 1190h-402z" />
    <glyph glyph-name="U" unicode="U" horiz-adv-x="1452" 
d="M356 1442q39 0 63 -28t15 -73l-121 -714q-23 -131 4 -231t89 -151q123 -104 289 -104q167 0 277 111t144 319l133 793q12 78 84 78q41 0 63 -30t15 -71l-131 -786q-49 -295 -204 -435t-391 -140t-402 155q-84 78 -121 211t-8 305l118 713q12 78 84 78z" />
    <glyph glyph-name="V" unicode="V" horiz-adv-x="1337" 
d="M1393 1366q0 -30 -15 -55l-635 -1182q-80 -150 -190 -149q-141 0 -174 159l-242 1186q-10 47 14 82t70 35q70 0 84 -74l234 -1194q3 -20 19 -20t26 20l635 1204q33 63 90 64q35 0 59 -23t25 -53z" />
    <glyph glyph-name="W" unicode="W" horiz-adv-x="1878" 
d="M1864 1442q34 0 60 -23t26 -51t-8 -45l-476 -1217q-47 -127 -157 -126q-59 0 -103 37q-43 38 -51 112l-104 1124q1 7 -7 6q-8 -2 -10 -6l-481 -1147q-53 -127 -158 -126q-61 0 -106 40t-47 105l-72 1214q-2 47 23 75t61 28t62 -20q24 -20 26 -58l57 -1194q0 -19 16 -11
q5 3 7 9l479 1143q55 131 158 131q55 0 93 -39t44 -111l102 -1124q0 -6 9 -11t14 11l455 1202q27 72 88 72z" />
    <glyph glyph-name="X" unicode="X" horiz-adv-x="1347" 
d="M51 -8q-37 0 -61 22t-25 59q0 36 35 72l555 594l-342 566q-16 25 -16 57q1 32 23 56t66 24t72 -49l326 -539l520 553q35 35 71 35q35 0 59 -22t24 -58t-35 -72l-549 -581l352 -578q43 -68 -5 -116q-25 -23 -67 -23t-75 51l-334 547l-518 -555q-39 -43 -76 -43z" />
    <glyph glyph-name="Y" unicode="Y" horiz-adv-x="1269" 
d="M184 1442q42 0 70 -47l373 -594l583 610q31 31 68 31q38 0 62 -20t24 -59q0 -38 -33 -69l-583 -602q-53 -55 -60 -100l-86 -520q-12 -80 -82 -80q-40 0 -64 28t-16 70l84 502q9 51 -26 106l-385 607q-43 69 5 115q24 22 66 22z" />
    <glyph glyph-name="Z" unicode="Z" horiz-adv-x="1193" 
d="M946 0h-819q-57 0 -88 29t-31 75t55 107l922 1069h-688q-39 0 -61 23t-23 55q0 32 26 56t60 24h799q57 0 86 -28q69 -67 -29 -185l-922 -1069h715q39 0 62 -23q22 -23 22 -57t-24 -54q-24 -22 -62 -22z" />
    <glyph glyph-name="bracketleft" unicode="[" horiz-adv-x="724" 
d="M489 -195q35 0 57 -20t22 -55t-30 -62q-28 -27 -71 -26h-354q-49 0 -71 30t-13 76l290 1770q6 46 36 76t79 30h354q35 0 55 -21q19 -22 19 -57q0 -34 -28 -60t-68 -26h-289l-276 -1655h288z" />
    <glyph glyph-name="backslash" unicode="\" horiz-adv-x="679" 
d="M504 -88q-68 0 -82 70l-332 1437q-10 41 13 75q24 34 69 34q63 0 80 -70l332 -1440q10 -42 -14 -74t-66 -32z" />
    <glyph glyph-name="bracketright" unicode="]" horiz-adv-x="716" 
d="M227 1460q-39 0 -61 22t-23 58q0 36 26 60t64 24h367q47 0 70 -30t14 -76l-291 -1772q-18 -104 -114 -104h-351q-36 0 -58 22t-22 56t28 60t71 25h289l274 1655h-283z" />
    <glyph glyph-name="asciicircum" unicode="^" horiz-adv-x="1206" 
d="M604 1460q100 0 152 -129l217 -524q12 -33 -5 -66t-49 -41t-61 6t-37 42l-192 503q-8 21 -28 21t-23 -21l-193 -503q-9 -28 -37 -42t-60 -6t-49 41t-6 66l218 528q53 125 153 125z" />
    <glyph glyph-name="underscore" unicode="_" horiz-adv-x="940" 
d="M952 -264v-137h-966v137h966z" />
    <glyph glyph-name="grave" unicode="`" horiz-adv-x="698" 
d="M680 1615q0 -35 -20 -53t-47 -18q-28 0 -48 12l-258 142q-39 18 -39 55t20 56q36 35 93 8l262 -148q37 -20 37 -54z" />
    <glyph glyph-name="a" unicode="a" 
d="M502 123q137 0 237 76l43 254q-137 67 -263 67t-207 -49t-81 -160q0 -80 67 -134t204 -54zM486 -20q-192 0 -305 97q-111 97 -111 247t115 243q116 92 287 92t333 -71l20 112q23 120 -39 180t-170 60q-110 0 -256 -57q-40 -15 -72 9t-32 66t51 69q51 26 134 45t153 20
q200 0 310 -104t75 -300l-90 -520q-10 -59 -45 -82q-166 -106 -358 -106z" />
    <glyph glyph-name="b" unicode="b" horiz-adv-x="1173" 
d="M662 932q-124 0 -269 -78l-110 -649q115 -70 290 -70q241 0 304 266q33 121 40 254t-62 205t-193 72zM395 1454q41 0 65 -28t15 -72l-53 -330q139 68 258 68q180 0 296 -114t101 -327q-6 -115 -39 -266q-90 -406 -473 -405q-139 0 -262 44t-160 76t-28 82l198 1194
q12 78 82 78z" />
    <glyph glyph-name="c" unicode="c" 
d="M545 139q190 0 258 178q18 49 76 50q31 0 60 -30t7 -95q-37 -96 -133 -180t-262 -82q-201 0 -334 124t-111 347q12 113 37 231q41 203 165 306q124 104 293 104t270 -71t135 -165q14 -38 14 -68t-23 -54t-53 -24q-61 1 -80 54q-47 168 -258 168q-246 0 -305 -275
q-27 -119 -35 -219q-16 -143 66 -221t213 -78z" />
    <glyph glyph-name="d" unicode="d" horiz-adv-x="1214" 
d="M538 139q140 0 248 76l105 633q-119 84 -283 84q-248 0 -307 -275q-17 -77 -34 -223t57 -220t214 -75zM1061 1454q41 0 65 -28t15 -72l-199 -1194q-4 -29 -14 -44t-39 -32q-165 -104 -361 -104t-320 122t-102 349q8 79 43 255t156 281t292 105t323 -82l59 366
q16 78 82 78z" />
    <glyph glyph-name="e" unicode="e" 
d="M819 606q29 0 37 29q39 153 -31 229q-71 76 -207 76t-213 -82t-108 -252h522zM538 139q128 0 257 62q25 10 47 10t44 -23q22 -22 22 -62t-60 -71q-137 -76 -285 -75q-227 0 -352 129t-105 340q8 88 39 223q47 221 175 320q128 100 314 100q184 0 306 -123t70 -342l-9 -35
q-31 -119 -139 -119h-588l-6 -47q-18 -133 62 -210t208 -77z" />
    <glyph glyph-name="f" unicode="f" horiz-adv-x="806" 
d="M686 1470q86 0 178 -36q47 -25 47 -62q0 -38 -19 -60q-20 -22 -44 -22t-74 12t-98 13q-174 0 -205 -199l-14 -82h268q35 0 57 -22t21 -54q0 -33 -23 -53t-57 -20h-287l-135 -815q-12 -78 -82 -78q-43 0 -65 28t-15 74l131 791h-61q-39 -1 -59 21t-20 54t23 54
q24 22 56 20h88l14 94q59 342 375 342z" />
    <glyph glyph-name="g" unicode="g" horiz-adv-x="1185" 
d="M647 932q-264 0 -321 -275q-25 -137 -33 -219q-25 -283 262 -282q139 0 264 92l103 616q-123 68 -275 68zM70 -214q0 34 22 58t52 23q32 0 61 -21q139 -94 267 -94t214 78t109 244q-102 -63 -240 -64q-217 0 -329 119t-93 324q6 70 37 229q80 410 477 410q244 0 406 -121
q42 -29 34 -82l-137 -842q-40 -253 -185 -357q-67 -48 -135 -70t-166 -22t-197 38q-99 36 -148 76t-49 74z" />
    <glyph glyph-name="h" unicode="h" horiz-adv-x="1232" 
d="M909 -8q-39 0 -61 28t-14 70l92 549q49 293 -205 293q-72 0 -164 -39t-160 -100l-121 -723q-12 -78 -81 -78q-43 0 -66 28t-14 74l213 1282q12 78 82 78q41 0 64 -28t15 -72l-61 -365q150 103 322 103t276 -109t66 -336l-97 -575q-12 -80 -86 -80z" />
    <glyph glyph-name="i" unicode="i" horiz-adv-x="577" 
d="M348 1077q41 -1 64 -29t14 -73l-150 -905q-12 -78 -81 -78q-43 0 -66 28q-22 29 -14 74l151 905q12 78 82 78zM512 1371q0 -42 -29 -76q-29 -33 -73 -33t-72 28q-27 28 -27 71q0 42 30 75q30 32 75 32q44 0 70 -28t26 -69z" />
    <glyph glyph-name="j" unicode="j" horiz-adv-x="575" 
d="M514 1371q0 -42 -30 -76q-30 -33 -74 -33t-72 28q-27 28 -27 71q0 42 31 75q31 32 76 32q44 0 70 -28t26 -69zM356 1077q41 -1 64 -29t14 -73l-133 -805q-46 -277 -168 -413q-53 -58 -143 -124q-31 -23 -64 -23q-34 0 -56 21t-22 59t39 64q115 78 168 167t76 220l143 858
q12 78 82 78z" />
    <glyph glyph-name="k" unicode="k" horiz-adv-x="1093" 
d="M410 1454q40 0 64 -28t15 -72l-120 -725h49q41 0 61 9t56 42l372 367q31 31 65 31t56 -21q22 -20 23 -55q0 -35 -31 -68l-408 -387l310 -418q51 -63 3 -115q-22 -22 -62 -22t-68 41l-289 395q-20 29 -40 38t-63 9h-59l-68 -405q-12 -78 -81 -78q-43 0 -66 28t-14 74
l213 1282q12 78 82 78z" />
    <glyph glyph-name="l" unicode="l" horiz-adv-x="557" 
d="M410 1454q40 0 64 -28t15 -72l-213 -1284q-12 -78 -81 -78q-43 0 -66 28q-22 29 -14 74l213 1282q12 78 82 78z" />
    <glyph glyph-name="m" unicode="m" horiz-adv-x="1751" 
d="M1432 -8q-41 0 -64 28t-14 70l94 563q24 135 -28 206t-174 71t-259 -113q8 -84 -6 -164l-96 -581q-12 -80 -84 -80q-39 0 -63 28t-15 70l98 578q45 262 -205 262q-124 0 -231 -72l-129 -788q-12 -78 -82 -78q-44 0 -66 28t-14 74l135 815q16 88 208 152q93 31 190 31
q213 0 293 -140q170 140 355 140t279 -117t58 -322l-96 -581q-12 -80 -84 -80z" />
    <glyph glyph-name="n" unicode="n" horiz-adv-x="1210" 
d="M889 -8q-39 0 -62 28t-14 70l92 549q28 174 -59 239q-71 52 -200 52q-128 0 -261 -80l-129 -780q-12 -78 -82 -78q-44 0 -66 28t-14 74l135 813q8 49 56 78q176 107 377 107t318 -98q60 -50 86 -140t5 -209l-96 -573q-14 -80 -86 -80z" />
    <glyph glyph-name="o" unicode="o" horiz-adv-x="1146" 
d="M614 932q-254 0 -317 -283q-19 -93 -33 -225t74 -208t209 -77q248 0 311 283q21 101 31 205q16 147 -70 226t-205 79zM620 1092q184 0 316 -123t115 -336q-29 -404 -202 -551q-121 -102 -305 -102t-320 122t-120 336q29 410 208 554q124 100 308 100z" />
    <glyph glyph-name="p" unicode="p" horiz-adv-x="1159" 
d="M631 932q-139 0 -250 -74l-107 -643q147 -76 285 -76q250 0 307 277q25 127 33 219q15 153 -57 225t-211 72zM575 -20q-168 0 -327 81l-64 -385q-12 -77 -87 -77q-37 1 -59 29t-15 73l202 1212q10 47 56 76q159 103 357 103t322 -123t101 -346q-8 -80 -37 -232
q-39 -203 -160 -307t-289 -104z" />
    <glyph glyph-name="q" unicode="q" horiz-adv-x="1153" 
d="M592 932q-233 0 -299 -262q-35 -131 -39 -258q-12 -272 256 -273q117 0 266 78l111 645q-143 70 -295 70zM502 -12q-190 0 -306 114t-104 328q8 121 39 256q43 203 163 304q120 102 280 102t287 -44q126 -44 163 -76t29 -83l-201 -1215q-12 -77 -88 -77q-36 1 -58 29
q-24 28 -16 73l58 344q-113 -55 -246 -55z" />
    <glyph glyph-name="r" unicode="r" horiz-adv-x="770" 
d="M754 901q-24 0 -84 14q-59 15 -124 15t-115 -44t-66 -155l-109 -661q-12 -78 -82 -78q-44 0 -66 28t-14 74l113 672q55 326 360 326q101 0 193 -31q66 -23 65 -82q1 -35 -23 -57t-48 -21z" />
    <glyph glyph-name="s" unicode="s" horiz-adv-x="1017" 
d="M487 -20q-125 0 -239 47t-157 88q-42 41 -42 73t23 55q45 47 112 -1q156 -113 299 -113q98 0 161 47q62 47 62 116t-55 105q-56 36 -119 61q-193 76 -270 148q-78 72 -78 180q0 146 112 226t240 80t220 -33q174 -63 174 -139q0 -31 -20 -53q-20 -21 -51 -21q-32 0 -62 20
q-121 74 -223 74t-165 -42t-63 -104t44 -98q44 -34 127 -68t114 -47t87 -45q153 -87 151 -233q-1 -145 -107 -234t-275 -89z" />
    <glyph glyph-name="t" unicode="t" horiz-adv-x="851" 
d="M442 -20q-170 0 -252 98t-49 293l140 839q14 86 90 86q39 0 59 -26t14 -62l-26 -166h293q37 0 59 -20t21 -53q0 -33 -24 -53t-58 -21h-316l-92 -539q-39 -217 141 -217q48 -1 102 23t82 24t48 -22t20 -53q0 -53 -59 -84q-90 -47 -193 -47z" />
    <glyph glyph-name="u" unicode="u" horiz-adv-x="1183" 
d="M301 1077q39 1 63 -27t15 -71l-84 -516q-29 -172 43 -248t214 -76t255 74l129 786q12 78 84 78q38 -1 62 -29t16 -73l-135 -813q-8 -45 -50 -74q-151 -108 -367 -108t-335 132t-80 369l86 514q12 82 84 82z" />
    <glyph glyph-name="v" unicode="v" horiz-adv-x="1058" 
d="M987 1077q49 0 73 -37t-1 -90l-457 -835q-39 -70 -75 -103t-89 -32q-117 0 -149 147l-176 838q-10 51 14 82q25 31 66 30q70 0 83 -76l132 -641q20 -106 24 -190q2 -16 18 -18t21 12q53 141 84 196l350 656q33 61 82 61z" />
    <glyph glyph-name="w" unicode="w" horiz-adv-x="1644" 
d="M1568 1077q48 0 72 -35t2 -86l-378 -854q-53 -123 -152 -122q-59 0 -98 36t-45 103l-78 745q-2 18 -14 19q-8 0 -15 -15l-336 -764q-30 -68 -64 -96t-87 -28t-93 36t-49 105l-98 852q-6 49 18 77t66 27q72 0 80 -80l70 -649q0 -6 6 -188q2 -18 18 -19q11 -1 19 17t26 75
t41 101l279 631q47 113 141 112q111 0 125 -129l66 -608q4 -34 6 -98t4 -82t14 -19q12 0 21 24t29 78q19 54 30 76l301 697q25 61 73 61z" />
    <glyph glyph-name="x" unicode="x" horiz-adv-x="1085" 
d="M967 1077q33 1 55 -23q51 -54 -10 -124l-373 -395l252 -410q20 -25 20 -57q1 -32 -21 -55q-22 -21 -62 -21t-66 43l-240 389l-385 -406q-27 -26 -61 -26t-58 20q-22 20 -22 56t31 65l407 428l-235 383q-40 64 4 110q23 24 63 24t62 -40l223 -366l350 372q33 33 66 33z
" />
    <glyph glyph-name="y" unicode="y" horiz-adv-x="1042" 
d="M471 250q8 0 14 12q59 125 93 187l317 569q33 59 83 59t70 -41t-8 -86l-524 -927q-162 -289 -336 -392q-95 -61 -149 -12q-23 20 -23 58t53 67q164 86 299 324l-239 893q-13 51 11 83t67 33q64 0 84 -78l145 -542q18 -76 31 -191q4 -16 12 -16z" />
    <glyph glyph-name="z" unicode="z" horiz-adv-x="1007" 
d="M772 156q37 0 56 -23q20 -23 20 -55t-24 -56q-24 -22 -58 -22h-623q-51 0 -80 28t-29 68t42 86l682 719h-490q-38 0 -60 23q-22 24 -22 56t24 54t58 23h592q59 0 89 -29t30 -71t-39 -85l-678 -716h510z" />
    <glyph glyph-name="braceleft" unicode="{" horiz-adv-x="739" 
d="M223 -358q-76 0 -124 53t-33 133l88 512q27 152 -72 242q-29 20 -29 57t47 68q68 43 107 99t51 144l82 516q12 74 62 115t124 41h289q35 0 57 -23t21 -57q0 -34 -29 -60q-29 -24 -69 -24h-226q-61 0 -73 -61l-72 -447q-35 -225 -195 -309q123 -98 88 -301l-81 -473
q-8 -60 51 -62h225q37 1 57 -21q21 -22 21 -56t-29 -61q-29 -26 -69 -25h-269z" />
    <glyph glyph-name="bar" unicode="|" horiz-adv-x="598" 
d="M371 -201q1 -37 -23 -61t-60 -25q-36 0 -60 26t-23 60v1825q-1 34 23 60t59 26t59 -26t25 -60v-1825z" />
    <glyph glyph-name="braceright" unicode="}" horiz-adv-x="739" 
d="M213 -358h-289q-34 0 -56 22t-22 58q0 34 29 59t70 24h225q61 0 74 62l71 446q35 227 195 310q-123 98 -90 301l84 473q4 29 -10 45t-41 16h-226q-35 0 -57 22t-20 56q0 34 28 60t70 26h266q78 0 126 -52t34 -132l-88 -514q-27 -154 71 -240q29 -24 29 -60t-47 -67
q-68 -43 -107 -99t-51 -145l-82 -514q-12 -73 -62 -115t-124 -42z" />
    <glyph glyph-name="asciitilde" unicode="~" horiz-adv-x="1282" 
d="M835 586q-77 0 -203 53t-198 53t-162 -49q-32 -14 -64 -14q-32 -1 -54 25t-23 55q0 66 68 92q159 69 237 69t203 -53t199 -53t170 49q26 14 58 14q32 -1 56 -27t23 -55q0 -57 -68 -90q-165 -69 -242 -69z" />
    <glyph glyph-name="exclamdown" unicode="&#xa1;" horiz-adv-x="473" 
d="M387 1438q35 0 57 -25t15 -57l-27 -168q-4 -33 -26 -53q-22 -21 -54 -21t-54 27t-15 61l26 158q15 78 78 78zM305 950q33 0 52 -24t16 -54l-121 -802q-6 -43 -32 -66q-26 -22 -62 -22t-58 26q-23 26 -14 70l145 799q13 73 74 73z" />
    <glyph glyph-name="cent" unicode="&#xa2;" horiz-adv-x="1069" 
d="M483 -18q-35 0 -57 26t-14 62l30 176q-132 33 -200 133q-68 101 -54 237t31 209q76 338 381 371l29 174q12 82 82 82q35 0 57 -25t14 -57l-32 -186q168 -47 225 -195q12 -29 12 -55q-1 -26 -23 -48q-22 -24 -65 -24t-68 58q-57 127 -190 127q-90 1 -163 -61
q-114 -96 -133 -349q-19 -252 216 -252q125 0 193 123q0 2 5 9t10 17t11 17q6 8 11 11q6 2 15 10t37 8q27 0 49 -23q40 -42 2 -121q-38 -78 -119 -137t-183 -63l-29 -175q-14 -79 -80 -79z" />
    <glyph glyph-name="sterling" unicode="&#xa3;" horiz-adv-x="1236" 
d="M993 166q35 0 58 -24t23 -58t-28 -58q-28 -26 -75 -26h-764q-71 0 -95 52t11 106q176 250 188 436h-129q-35 0 -55 22q-21 22 -21 55q0 35 27 59t70 24h112q-14 176 0 290q25 186 147 297t310 111q111 0 215 -51t158 -119q50 -72 1 -120t-116 3q-129 123 -260 123
t-203 -76t-86 -162t2 -296h299q35 0 57 -22q21 -22 21 -54t-26 -58t-72 -26h-285q-18 -229 -176 -428h692z" />
    <glyph glyph-name="currency" unicode="&#xa4;" horiz-adv-x="1259" 
d="M636 1006q-93 0 -159 -64t-72 -144q-6 -82 -2 -160t72 -144q68 -64 161 -64t160 65t72 158q6 61 0 142t-72 146q-67 65 -160 65zM637 289q-131 0 -236 90l-168 -168q-27 -25 -57 -25t-52 22t-22 52t25 55l178 183q-39 80 -41 149t0 141t41 152l-178 182q-25 29 -25 58
q0 30 22 52t52 22t57 -27l168 -168q107 88 235 88t236 -88l168 168q27 27 57 27q31 0 53 -24q48 -48 -3 -108l-180 -180q39 -76 42 -150t1 -147q-2 -72 -41 -147l178 -183q25 -25 25 -55t-22 -52t-56 -22t-54 25l-168 168q-104 -90 -235 -90z" />
    <glyph glyph-name="yen" unicode="&#xa5;" horiz-adv-x="1284" 
d="M526 -8q-42 0 -64 28t-13 70l57 352h-230q-34 0 -56 23t-22 57t27 57q27 24 68 23h237l5 25q6 37 -31 94l-379 584q-43 69 5 115q24 24 64 24t72 -47l371 -576l580 590q33 33 69 33t60 -23q22 -23 22 -59t-31 -68l-575 -577q-53 -53 -62 -90l-6 -25h246q34 0 58 -22
t24 -55q0 -35 -28 -59t-68 -24h-256l-60 -370q-12 -80 -84 -80z" />
    <glyph glyph-name="brokenbar" unicode="&#xa6;" horiz-adv-x="583" 
d="M369 872q1 -38 -23 -62t-59 -24t-59 26t-23 60v752q-1 34 23 60t59 26t59 -24t23 -62v-752zM369 -201q1 -37 -23 -61t-59 -25q-35 0 -59 26t-23 60v752q-1 35 23 61t59 25q35 0 59 -25t23 -61v-752z" />
    <glyph glyph-name="section" unicode="&#xa7;" horiz-adv-x="1146" 
d="M336 680q0 -60 52 -96q52 -35 188 -73t208 -71q62 60 62 118t-50 88t-174 69t-212 86q-74 -61 -74 -121zM489 -211q-123 0 -243 41t-158 77q-37 36 -37 72q0 37 26 61q50 47 116 5q59 -41 148 -65t163 -25q127 -1 202 65t74 166q0 62 -22 83t-34 33t-46 24q-33 12 -48 18
q-14 6 -60 18q-228 60 -304 126q-76 65 -76 151q0 123 117 227q-66 76 -65 185q0 177 132 289t331 112q121 0 226 -42q169 -68 169 -140q0 -37 -24 -60q-24 -22 -46 -22t-69 20q-127 80 -257 80t-210 -63q-82 -63 -82 -153t61 -134q61 -43 216 -90q155 -48 227 -108t73 -164
q0 -104 -102 -197q66 -72 65 -184q0 -172 -125 -289t-338 -117z" />
    <glyph glyph-name="dieresis" unicode="&#xa8;" horiz-adv-x="698" 
d="M520 1645q0 39 30 69t70 31q40 0 64 -24q24 -23 25 -63q0 -40 -30 -70t-70 -30q-41 0 -65 24t-24 63zM292 1745q40 0 64 -24q24 -23 25 -63q0 -40 -30 -70q-29 -30 -69 -30t-65 24t-24 63q-1 39 29 69t70 31z" />
    <glyph glyph-name="copyright" unicode="&#xa9;" horiz-adv-x="1609" 
d="M805 1149q100 0 184 -50t119 -132q14 -29 14 -51t-18 -37q-18 -17 -48 -17t-48 41q-55 127 -203 127q-91 0 -149 -62t-64 -161q-8 -70 -1 -170q7 -101 65 -163t140 -62q157 0 212 129q20 39 50 39q64 0 64 -60q0 -16 -14 -45q-35 -82 -119 -132t-184 -50q-141 0 -236 94
q-94 94 -104 238q-8 79 1 207t103 223q95 94 236 94zM803 1325q-193 0 -336 -131t-158 -326q-14 -152 0 -307q13 -193 157 -323t337 -129q193 0 337 129t158 323q14 156 0 307q-14 195 -158 326t-337 131zM803 1448q248 0 429 -169t195 -421q10 -143 0 -283
q-14 -257 -195 -423t-429 -166t-428 167t-195 422q-10 141 0 283q14 254 194 422t429 168z" />
    <glyph glyph-name="ordfeminine" unicode="&#xaa;" horiz-adv-x="942" 
d="M377 700q125 0 237 107q2 70 35 254l33 194q-78 51 -205 52q-197 0 -241 -201q-23 -114 -31 -202t36 -146t136 -58zM360 563q-136 0 -223 93q-86 93 -71 257q8 88 32 209q70 326 385 326q99 0 185 -28t125 -58t30 -84l-59 -356q-12 -117 -5 -153q7 -37 27 -77t21 -65
q-1 -25 -21 -44t-49 -20q-62 0 -94 109q-147 -109 -283 -109z" />
    <glyph glyph-name="guillemotleft" unicode="&#xab;" horiz-adv-x="1124" 
d="M74 707q0 88 90 147l297 217q27 19 57 19t49 -20q21 -20 21 -55q0 -34 -41 -63l-260 -192q-37 -27 -37 -47t20 -41l193 -191q25 -18 25 -49q0 -32 -22 -54t-54 -22t-62 29l-219 209q-57 50 -57 113zM498 707q0 88 90 147l297 217q65 41 106 -2q21 -20 21 -54t-41 -63
l-260 -192q-37 -27 -37 -47t20 -41l193 -191q25 -18 25 -49q0 -32 -22 -54t-54 -22t-62 29l-219 209q-57 50 -57 113z" />
    <glyph glyph-name="logicalnot" unicode="&#xac;" horiz-adv-x="1271" 
d="M991 641h-798q-35 0 -59 23q-24 22 -24 56t24 56t59 23h849q51 0 80 -30t29 -75v-415q0 -37 -22 -61q-23 -24 -57 -24t-58 26q-24 24 -23 59v362z" />
    <glyph glyph-name="registered" unicode="&#xae;" horiz-adv-x="1220" 
d="M606 365q-194 1 -324 123q-177 168 -147 511q17 209 147 332t324 123t325 -123q175 -166 144 -510q-14 -209 -144 -333t-325 -123zM605 469q153 0 251 90q140 128 113 445q-15 166 -113 257t-250 91t-251 -91q-140 -128 -113 -446q14 -166 112 -256t251 -90zM457 629
q-20 0 -34 14q-13 14 -13 35v446q0 27 17 46t48 20h162q78 0 130 -45t52 -121q0 -121 -121 -158l129 -157q30 -39 -2 -69q-13 -13 -37 -13t-40 24l-136 174q-12 18 -34 19h-72v-166q0 -49 -49 -49zM504 926h117q102 0 102 88t-98 88h-121v-176z" />
    <glyph glyph-name="macron" unicode="&#xaf;" horiz-adv-x="698" 
d="M307 1571q-33 0 -53 19t-21 48q0 29 23 52t59 22h330q33 0 51 -19t18 -48t-21 -52q-22 -23 -56 -22h-330z" />
    <glyph glyph-name="degree" unicode="&#xb0;" horiz-adv-x="731" 
d="M256 1174q0 -56 32 -92t96 -35q64 0 106 48t42 104t-32 92q-34 36 -98 36t-105 -48q-41 -49 -41 -105zM388 932q-114 0 -182 66q-67 66 -67 172t74 190q75 84 191 84t181 -67t65 -171t-74 -190q-74 -84 -188 -84z" />
    <glyph glyph-name="plusminus" unicode="&#xb1;" horiz-adv-x="1271" 
d="M1071 0h-872q-35 0 -60 23t-25 57t26 56q24 22 59 22h872q37 0 62 -23t25 -57t-26 -56t-61 -22zM717 330q-1 -36 -23 -60t-56 -24t-56 24t-23 60v360h-360q-35 0 -60 23t-25 57t26 56q24 22 59 22h360v358q0 35 23 60q22 24 56 24t56 -24t23 -60v-358h354q37 0 62 -23
t25 -57t-26 -56t-61 -22h-354v-360z" />
    <glyph glyph-name="twosuperior" unicode="&#xb2;" horiz-adv-x="894" 
d="M225 647h393q36 0 56 -19t20 -49t-24 -53t-68 -22h-452q-78 0 -78 76q0 119 75 205t246 174q171 89 212 160q19 34 19 82t-37 84q-38 36 -106 36q-98 0 -190 -96q-31 -31 -60 -31t-47 16t-18 42t36 74t116 89q78 41 180 41t185 -68t83 -184q0 -114 -75 -192t-208 -148
t-195 -120t-63 -97z" />
    <glyph glyph-name="threesuperior" unicode="&#xb3;" horiz-adv-x="843" 
d="M662 1421q90 0 90 -82q0 -42 -58 -90l-209 -174q101 -4 165 -64t65 -169q0 -174 -155 -268t-365 -93q-57 0 -78 4q-57 12 -58 64q0 66 82 65h64q191 0 306 93q69 55 69 123q0 138 -150 139l-82 -6q-27 0 -44 18t-17 46t26 48l248 205h-311q-39 0 -62 17q-22 17 -22 47
t22 54q23 24 62 23h412z" />
    <glyph glyph-name="acute" unicode="&#xb4;" horiz-adv-x="698" 
d="M630 1827q28 -1 46 -19t18 -45q0 -45 -57 -71l-291 -138q-14 -8 -39 -8t-44 18t-19 56q0 37 45 55l295 142q18 10 46 10z" />
    <glyph glyph-name="mu" unicode="&#xb5;" horiz-adv-x="1236" 
d="M129 -401q-37 1 -59 27t-15 67l213 1290q12 94 88 94q39 1 61 -25t13 -71l-86 -518q-27 -164 44 -244t210 -80t262 86l129 760q14 92 86 92q37 -1 61 -25t15 -67l-137 -815q-8 -45 -59 -80t-153 -73t-210 -37q-213 0 -305 153l-74 -448q-12 -86 -84 -86z" />
    <glyph glyph-name="mu" unicode="&#x3bc;" horiz-adv-x="1236" 
d="M129 -401q-37 1 -59 27t-15 67l213 1290q12 94 88 94q39 1 61 -25t13 -71l-86 -518q-27 -164 44 -244t210 -80t262 86l129 760q14 92 86 92q37 -1 61 -25t15 -67l-137 -815q-8 -45 -59 -80t-153 -73t-210 -37q-213 0 -305 153l-74 -448q-12 -86 -84 -86z" />
    <glyph glyph-name="paragraph" unicode="&#xb6;" horiz-adv-x="1394" 
d="M748 1270q-144 0 -246 -83t-102 -223t84 -206q85 -66 221 -66h38l97 578h-92zM655 -393q-37 1 -61 27t-16 63l137 833h-31q-203 0 -334 121t-131 299q0 215 138 348t364 134h496q141 0 120 -132l-266 -1607q-6 -39 -30 -63q-23 -24 -59 -24t-60 26t-17 65l260 1567h-161
l-263 -1571q-14 -86 -86 -86z" />
    <glyph glyph-name="periodcentered" unicode="&#xb7;" horiz-adv-x="501" 
d="M236 580q-35 0 -56 24q-20 25 -16 58l29 176q14 74 81 73q35 0 56 -23q20 -24 14 -57l-29 -178q-13 -73 -79 -73z" />
    <glyph glyph-name="cedilla" unicode="&#xb8;" horiz-adv-x="698" 
d="M412 63q36 -1 49 -27q12 -26 -8 -59l-45 -79q72 0 118 -43t47 -125q0 -82 -80 -146q-81 -63 -188 -92q-37 -6 -51 -6t-31 15q-16 15 -16 38q0 43 52 61t82 27q30 10 71 43t41 72q0 55 -64 55l-67 -12q-31 0 -44 25t1 55l77 153q20 45 56 45z" />
    <glyph glyph-name="onesuperior" unicode="&#xb9;" horiz-adv-x="643" 
d="M315 498q-35 0 -54 26t-15 58l110 653l-149 -72q-33 -18 -69 -3q-36 14 -36 58t48 68l245 127q78 38 112 -4q19 -23 13 -61l-129 -773q-15 -77 -76 -77z" />
    <glyph glyph-name="ordmasculine" unicode="&#xba;" horiz-adv-x="917" 
d="M484 1298q-89 0 -148 -56q-60 -56 -76 -147t-22 -159q-8 -115 49 -171t145 -56q174 0 215 204q15 92 21 175t-44 147q-51 63 -140 63zM494 1442q150 0 241 -104q90 -104 80 -263q-4 -70 -20 -166q-25 -153 -117 -247t-242 -94t-251 96q-101 98 -91 268q8 104 19 168
q31 166 131 254t250 88z" />
    <glyph glyph-name="guillemotright" unicode="&#xbb;" horiz-adv-x="1122" 
d="M633 728q0 -74 -90 -136l-295 -215q-69 -40 -108 1q-19 19 -19 55t39 61l260 192q37 27 37 47t-21 41l-192 191q-25 23 -25 51t22 52q23 22 53 22t64 -27l220 -211q55 -50 55 -124zM1055 728q0 -74 -90 -136l-295 -215q-69 -40 -108 1q-19 19 -19 55t39 61l260 192
q37 27 37 47t-21 41l-192 191q-25 23 -25 51t22 52q23 22 53 22t64 -27l219 -211q56 -50 56 -124z" />
    <glyph glyph-name="onequarter" unicode="&#xbc;" horiz-adv-x="2013" 
d="M489 -61q-37 -1 -61 21t-25 46q0 24 15 53l790 1401q27 47 66 47q40 0 62 -19t22 -49t-15 -57l-790 -1398q-27 -45 -64 -45zM336 498q-35 0 -54 26t-16 58l111 653l-150 -72q-33 -18 -67 -3q-34 14 -35 58q0 44 45 68l246 127q77 37 111 -4q19 -23 14 -61l-129 -773
q-15 -77 -76 -77zM1620 338l72 430l-422 -430h350zM1634 0q-29 0 -47 19t-12 53l22 133h-415q-41 -1 -65 21q-23 22 -23 62t57 97l491 496q60 55 104 55t68 -29t15 -76l-82 -493h82q33 0 50 -17t17 -44t-22 -49t-62 -21h-88l-24 -137q-11 -70 -66 -70z" />
    <glyph glyph-name="onehalf" unicode="&#xbd;" horiz-adv-x="2035" 
d="M1366 143h393q37 0 57 -19t19 -49q0 -31 -25 -53t-67 -22h-453q-78 0 -78 76q0 119 77 206t246 175q170 87 211 158q19 34 19 82t-38 84t-105 36q-98 0 -190 -96q-31 -31 -60 -31t-47 16t-18 43q1 25 37 73t115 89t181 41t184 -68q83 -68 83 -184q0 -114 -75 -192
t-208 -148t-196 -120q-62 -50 -62 -97zM348 498q-35 0 -54 26t-15 58l110 653l-149 -72q-33 -18 -69 -3q-36 14 -36 58t47 68l246 127q76 37 112 -4q19 -23 13 -61l-129 -773q-15 -77 -76 -77zM505 -66q-38 0 -63 20q-41 34 -10 99l791 1403q27 45 67 45t62 -19
q45 -38 6 -104l-791 -1398q-24 -46 -62 -46z" />
    <glyph glyph-name="threequarters" unicode="&#xbe;" horiz-adv-x="2129" 
d="M684 1421q90 0 90 -82q0 -42 -57 -90l-209 -174q102 -4 166 -64t63 -169q0 -174 -154 -268q-155 -93 -366 -93q-57 0 -78 4q-57 12 -57 64q0 66 82 65h63q192 0 307 93q68 55 68 123q-1 138 -149 139l-82 -6q-27 0 -44 18t-17 46t26 48l248 205h-312q-40 0 -62 17t-22 47
t23 54t61 23h412zM662 -66q-38 0 -62 20t-25 46q0 24 15 53l790 1403q27 45 66 45q40 0 62 -19t22 -50t-14 -54l-791 -1398q-25 -46 -63 -46zM1741 338l74 430l-422 -430h348zM1303 205q-89 0 -87 84q0 41 56 96l493 496q55 55 101 55t70 -30q22 -30 14 -75l-82 -493h82
q33 0 50 -17t17 -44q1 -27 -21 -49t-61 -21h-90l-22 -137q-13 -70 -68 -70q-29 0 -46 19t-11 53l22 133h-417z" />
    <glyph glyph-name="questiondown" unicode="&#xbf;" horiz-adv-x="1169" 
d="M676 909q26 -1 46 -23q19 -22 19 -62t-73 -74q-219 -87 -268 -131q-50 -44 -82 -78q-62 -68 -62 -170q0 -101 65 -163t183 -63q68 0 129 24q61 25 97 51t81 66t77 40t51 -20t19 -54q0 -33 -30 -70q-70 -84 -187 -141t-239 -57q-176 0 -293 100t-117 280t134 308t388 225
q36 12 62 12zM754 1456q34 0 56 -24t15 -58l-28 -166q-4 -32 -27 -54q-24 -22 -56 -22t-52 26q-20 24 -15 56l27 166q4 33 25 55q22 21 55 21z" />
    <glyph glyph-name="Agrave" unicode="&#xc0;" horiz-adv-x="1345" 
d="M922 1615q0 -35 -20 -53t-47 -18q-28 0 -48 12l-258 142q-39 18 -39 55t19 56q36 36 94 8l262 -148q37 -20 37 -54zM786 1288q-38 0 -61 -45l-322 -618h543l-117 618q-5 45 -43 45zM27 -8q-49 0 -72 39t4 90l619 1175q47 90 99 125t122 35t120 -43t66 -129l227 -1173
q10 -51 -12 -85t-65 -34q-72 0 -88 84l-76 403h-639l-223 -426q-33 -61 -82 -61z" />
    <glyph glyph-name="Aacute" unicode="&#xc1;" horiz-adv-x="1345" 
d="M1086 1827q28 -1 46 -19t19 -45q0 -45 -57 -71l-291 -138q-14 -8 -39 -8t-44 18q-20 18 -20 56q0 37 45 55l295 142q18 10 46 10zM786 1288q-38 0 -61 -45l-322 -618h543l-117 618q-5 45 -43 45zM27 -8q-49 0 -72 39t4 90l619 1175q47 90 99 125t122 35t120 -43t66 -129
l227 -1173q10 -51 -12 -85t-65 -34q-72 0 -88 84l-76 403h-639l-223 -426q-33 -61 -82 -61z" />
    <glyph glyph-name="Acircumflex" unicode="&#xc2;" horiz-adv-x="1345" 
d="M604 1536q-24 0 -42 17q-17 17 -17 49t39 59l213 143q35 23 69 23t62 -27l153 -143q29 -29 29 -57t-18 -47t-45 -19t-56 22l-135 127l-201 -133q-27 -14 -51 -14zM786 1288q-38 0 -61 -45l-322 -618h543l-117 618q-5 45 -43 45zM27 -8q-49 0 -72 39t4 90l619 1175
q47 90 99 125t122 35t120 -43t66 -129l227 -1173q10 -51 -12 -85t-65 -34q-72 0 -88 84l-76 403h-639l-223 -426q-33 -61 -82 -61z" />
    <glyph glyph-name="Atilde" unicode="&#xc3;" horiz-adv-x="1345" 
d="M962 1540q-60 0 -134 39t-102 39t-64 -30t-62 -30q-25 0 -44 20q-19 19 -19 48t36 57q74 70 160 70q53 0 125 -39t100 -39t67 31q40 31 65 31q25 -1 44 -19t19 -48t-43 -66q-88 -64 -148 -64zM786 1288q-38 0 -61 -45l-322 -618h543l-117 618q-5 45 -43 45zM27 -8
q-49 0 -72 39t4 90l619 1175q47 90 99 125t122 35t120 -43t66 -129l227 -1173q10 -51 -12 -85t-65 -34q-72 0 -88 84l-76 403h-639l-223 -426q-33 -61 -82 -61z" />
    <glyph glyph-name="Adieresis" unicode="&#xc4;" horiz-adv-x="1345" 
d="M1017 1745q41 0 65 -24q24 -23 24 -63t-30 -70t-70 -30t-64 24q-25 24 -24 63q0 39 30 69t69 31zM689 1745q40 0 65 -24q24 -23 24 -63t-30 -70t-69 -30q-40 0 -65 24t-24 63q0 39 30 69t69 31zM786 1288q-38 0 -61 -45l-322 -618h543l-117 618q-5 45 -43 45zM27 -8
q-49 0 -72 39t4 90l619 1175q47 90 99 125t122 35t120 -43t66 -129l227 -1173q10 -51 -12 -85t-65 -34q-72 0 -88 84l-76 403h-639l-223 -426q-33 -61 -82 -61z" />
    <glyph glyph-name="Aring" unicode="&#xc5;" horiz-adv-x="1345" 
d="M869 1823q-43 0 -73 -33t-30 -73q0 -41 24 -65t68 -24q45 0 73 32q27 32 27 73t-22 65t-67 25zM1055 1739q-1 -81 -57 -143t-141 -62t-136 51t-51 130t56 141t144 63q88 0 137 -50q48 -50 48 -130zM786 1288q-38 0 -61 -45l-322 -618h543l-117 618q-5 45 -43 45zM27 -8
q-49 0 -72 39t4 90l619 1175q47 90 99 125t122 35t120 -43t66 -129l227 -1173q10 -51 -12 -85t-65 -34q-72 0 -88 84l-76 403h-639l-223 -426q-33 -61 -82 -61z" />
    <glyph glyph-name="AE" unicode="&#xc6;" horiz-adv-x="2078" 
d="M1128 1278q-47 0 -84 -45l-442 -576h432l103 621h-9zM63 -8q-37 0 -59 19t-20 50q0 31 20 62l920 1196q53 71 115 95t167 24h772q39 0 62 -24q22 -24 22 -58t-24 -54q-24 -22 -62 -22h-678l-77 -483h620q37 0 59 -22q22 -23 22 -55t-25 -52q-24 -20 -58 -21h-641
l-82 -491h666q40 0 62 -23t22 -57t-25 -54q-25 -22 -61 -22h-725q-131 0 -107 135l62 373h-512l-367 -475q-31 -41 -68 -41z" />
    <glyph glyph-name="Ccedilla" unicode="&#xc7;" horiz-adv-x="1327" 
d="M791 1456q180 0 306 -88t173 -225q16 -41 16 -72t-22 -55t-56 -23q-55 0 -78 62q-84 240 -348 239q-170 0 -286 -110t-164 -288q-46 -177 -60 -351t82 -289t285 -115q266 0 385 244q33 61 74 61q86 0 86 -73q0 -23 -17 -64q-57 -129 -180 -225t-315 -102l-47 -84
q73 0 119 -43t47 -111q0 -170 -269 -252q-18 -6 -42 -6t-40 15t-16 38q0 39 53 60q140 43 174 90q18 25 19 53q0 55 -64 55l-67 -12q-31 0 -44 25t1 55l61 121q-217 24 -341 184t-110 401q12 193 66 377q72 242 228 375q157 133 391 133z" />
    <glyph glyph-name="Egrave" unicode="&#xc8;" horiz-adv-x="1247" 
d="M944 1615q0 -35 -19 -53t-47 -18t-49 12l-258 142q-39 18 -39 55t20 56q36 35 93 8l262 -148q37 -20 37 -54zM461 1438h686q39 0 61 -24t23 -58q0 -34 -25 -54q-25 -22 -61 -22h-674l-80 -483h619q36 0 58 -22q22 -23 22 -55t-24 -52t-58 -21h-641l-82 -491h665
q39 0 62 -23q22 -23 22 -57t-24 -54q-24 -22 -62 -22h-725q-131 0 -106 135l194 1172q21 131 150 131z" />
    <glyph glyph-name="Eacute" unicode="&#xc9;" horiz-adv-x="1247" 
d="M1033 1827q28 -1 46 -19q19 -18 19 -54t-58 -62l-290 -138q-14 -8 -39 -8t-44 18t-19 56q0 37 44 55l295 142q18 10 46 10zM461 1438h686q39 0 61 -24t23 -58q0 -34 -25 -54q-25 -22 -61 -22h-674l-80 -483h619q36 0 58 -22q22 -23 22 -55t-24 -52t-58 -21h-641l-82 -491
h665q39 0 62 -23q22 -23 22 -57t-24 -54q-24 -22 -62 -22h-725q-131 0 -106 135l194 1172q21 131 150 131z" />
    <glyph glyph-name="Ecircumflex" unicode="&#xca;" horiz-adv-x="1247" 
d="M592 1536q-24 0 -42 17t-18 49t39 59l213 143q35 23 70 23t61 -27l154 -143q29 -29 29 -57t-18 -47t-46 -19q-27 0 -55 22l-135 127l-201 -133q-27 -14 -51 -14zM461 1438h686q39 0 61 -24t23 -58q0 -34 -25 -54q-25 -22 -61 -22h-674l-80 -483h619q36 0 58 -22
q22 -23 22 -55t-24 -52t-58 -21h-641l-82 -491h665q39 0 62 -23q22 -23 22 -57t-24 -54q-24 -22 -62 -22h-725q-131 0 -106 135l194 1172q21 131 150 131z" />
    <glyph glyph-name="Edieresis" unicode="&#xcb;" horiz-adv-x="1247" 
d="M909 1645q0 39 30 69t70 31q41 0 65 -24q24 -23 24 -63t-30 -70t-70 -30t-64 24t-25 63zM681 1745q41 0 65 -24q24 -23 24 -63t-30 -70t-70 -30t-64 24q-25 24 -24 63q0 39 30 69t69 31zM461 1438h686q39 0 61 -24t23 -58q0 -34 -25 -54q-25 -22 -61 -22h-674l-80 -483
h619q36 0 58 -22q22 -23 22 -55t-24 -52t-58 -21h-641l-82 -491h665q39 0 62 -23q22 -23 22 -57t-24 -54q-24 -22 -62 -22h-725q-131 0 -106 135l194 1172q21 131 150 131z" />
    <glyph glyph-name="Igrave" unicode="&#xcc;" horiz-adv-x="583" 
d="M506 1615q0 -35 -20 -53t-47 -18q-28 0 -48 12l-258 142q-39 18 -39 55t20 56q36 35 93 8l262 -148q37 -20 37 -54zM401 1442q41 0 65 -28t15 -73l-211 -1271q-13 -78 -87 -78q-35 0 -59 28t-15 74l210 1270q12 78 82 78z" />
    <glyph glyph-name="Iacute" unicode="&#xcd;" horiz-adv-x="583" 
d="M718 1827q28 -1 46 -19t18 -45q0 -45 -57 -71l-291 -138q-14 -8 -39 -8t-44 18t-19 56q0 37 45 55l295 142q18 10 46 10zM397 1442q41 0 65 -28t15 -73l-211 -1271q-13 -78 -87 -78q-35 0 -59 28t-16 74l211 1270q12 78 82 78z" />
    <glyph glyph-name="Icircumflex" unicode="&#xce;" horiz-adv-x="583" 
d="M194 1536q-24 0 -41 17t-17 49t38 59l213 143q35 23 70 23t61 -27l154 -143q28 -29 28 -57t-18 -47t-45 -19t-55 22l-136 127l-200 -133q-28 -14 -52 -14zM397 1442q41 0 65 -28t15 -73l-211 -1271q-13 -78 -87 -78q-35 0 -59 28t-16 74l211 1270q12 78 82 78z" />
    <glyph glyph-name="Idieresis" unicode="&#xcf;" horiz-adv-x="583" 
d="M522 1645q0 39 30 69t70 31q40 0 64 -24q24 -23 25 -63q0 -40 -30 -70t-70 -30q-41 0 -65 24t-24 63zM294 1745q40 0 64 -24q24 -23 25 -63q0 -40 -30 -70q-29 -30 -69 -30t-65 24t-24 63q-1 39 29 69t70 31zM401 1442q41 0 65 -28t15 -73l-211 -1271q-13 -78 -87 -78
q-35 0 -59 28t-15 74l210 1270q12 78 82 78z" />
    <glyph glyph-name="Eth" unicode="&#xd0;" horiz-adv-x="1400" 
d="M557 156q244 0 380 103t191 341q20 82 33 209q27 221 -89 346t-347 125h-268l-82 -492h319q35 0 57 -22q21 -22 21 -52t-22 -54t-62 -23h-338l-80 -481h287zM205 0q-55 0 -85 36t-20 95l84 506h-116q-37 0 -58 20q-20 21 -20 53t24 56t64 22h133l86 519q23 131 149 131
h279q309 0 469 -170t137 -443q-12 -133 -39 -260q-70 -307 -253 -436t-519 -129h-315z" />
    <glyph glyph-name="Ntilde" unicode="&#xd1;" horiz-adv-x="1566" 
d="M1070 1540q-60 0 -133 39t-101 39t-66 -30t-62 -30t-43 20q-19 19 -19 48t36 57q74 70 160 70q51 0 125 -39q75 -39 101 -39t66 31t64 31q24 -1 44 -19t20 -48t-43 -66q-89 -64 -149 -64zM1395 1442q43 0 65 -29t15 -74l-203 -1198q-27 -150 -144 -149q-90 0 -133 98
l-524 1153l-4 -2q-16 -115 -66 -418l-125 -751q-12 -80 -81 -80q-41 0 -65 28t-15 70l200 1208q25 143 146 144q39 0 67 -18t39 -34q12 -17 27 -49l528 -1140h2q14 109 66 426l123 737q12 78 82 78z" />
    <glyph glyph-name="Ograve" unicode="&#xd2;" horiz-adv-x="1413" 
d="M977 1615q1 -35 -19 -53t-48 -18t-48 12l-258 142q-39 18 -39 55q-1 37 19 56q36 35 94 8l262 -148q37 -20 37 -54zM787 1294q-183 0 -305 -114t-165 -308q-21 -96 -39 -240q-34 -261 104 -376q137 -115 301 -115q165 1 282 103t157 273t56 351q14 180 -97 303t-294 123z
M790 1456q262 0 421 -179t132 -439q-23 -190 -43 -297q-50 -269 -212 -415t-405 -146t-422 160q-85 77 -128 202q-43 126 -25 272t39 265q49 265 215 421t428 156z" />
    <glyph glyph-name="Oacute" unicode="&#xd3;" horiz-adv-x="1413" 
d="M1138 1827q28 -1 46 -19t18 -45q0 -45 -57 -71l-291 -138q-14 -8 -39 -8t-44 18t-19 56q0 37 45 55l295 142q18 10 46 10zM787 1294q-183 0 -305 -114t-165 -308q-21 -96 -39 -240q-34 -261 104 -376q137 -115 301 -115q165 1 282 103t157 273t56 351q14 180 -97 303
t-294 123zM790 1456q262 0 421 -179t132 -439q-23 -190 -43 -297q-50 -269 -212 -415t-405 -146t-422 160q-85 77 -128 202q-43 126 -25 272t39 265q49 265 215 421t428 156z" />
    <glyph glyph-name="Ocircumflex" unicode="&#xd4;" horiz-adv-x="1413" 
d="M644 1536q-24 0 -41 17t-17 49t39 59l213 143q36 23 70 23t61 -27l153 -143q29 -29 29 -57t-18 -47q-17 -19 -45 -19t-56 22l-135 127l-201 -133q-28 -14 -52 -14zM787 1294q-183 0 -305 -114t-165 -308q-21 -96 -39 -240q-34 -261 104 -376q137 -115 301 -115
q165 1 282 103t157 273t56 351q14 180 -97 303t-294 123zM790 1456q262 0 421 -179t132 -439q-23 -190 -43 -297q-50 -269 -212 -415t-405 -146t-422 160q-85 77 -128 202q-43 126 -25 272t39 265q49 265 215 421t428 156z" />
    <glyph glyph-name="Otilde" unicode="&#xd5;" horiz-adv-x="1413" 
d="M980 1540q-60 0 -133 39t-101 39t-66 -30q-63 -51 -106 -10q-19 19 -19 48t37 57q74 70 160 70q51 0 125 -39q75 -39 101 -39t66 31t64 31q25 -1 44 -19t19 -48t-43 -66q-88 -64 -148 -64zM787 1294q-183 0 -305 -114t-165 -308q-21 -96 -39 -240q-34 -261 104 -376
q137 -115 301 -115q165 1 282 103t157 273t56 351q14 180 -97 303t-294 123zM790 1456q262 0 421 -179t132 -439q-23 -190 -43 -297q-50 -269 -212 -415t-405 -146t-422 160q-85 77 -128 202q-43 126 -25 272t39 265q49 265 215 421t428 156z" />
    <glyph glyph-name="Odieresis" unicode="&#xd6;" horiz-adv-x="1413" 
d="M1062 1745q40 0 64 -24q24 -23 25 -63q0 -40 -30 -70q-29 -30 -69 -30t-65 24t-24 63q-1 39 29 69t70 31zM734 1745q40 0 65 -24q25 -23 25 -63t-30 -70t-70 -30t-65 24t-24 63q-1 39 29 69t70 31zM787 1294q-183 0 -305 -114t-165 -308q-21 -96 -39 -240
q-34 -261 104 -376q137 -115 301 -115q165 1 282 103t157 273t56 351q14 180 -97 303t-294 123zM790 1456q262 0 421 -179t132 -439q-23 -190 -43 -297q-50 -269 -212 -415t-405 -146t-422 160q-85 77 -128 202q-43 126 -25 272t39 265q49 265 215 421t428 156z" />
    <glyph glyph-name="multiply" unicode="&#xd7;" horiz-adv-x="1271" 
d="M637 608l-332 -332q-59 -55 -115 -4q-27 23 -25 58q1 35 28 59l331 330l-334 332q-26 25 -26 59t22 55q55 55 117 -2l334 -332l328 326q25 25 59 26t57 -24t21 -57t-25 -58l-327 -325l329 -322q53 -61 4 -116q-25 -27 -57 -26t-59 28z" />
    <glyph glyph-name="Oslash" unicode="&#xd8;" horiz-adv-x="1413" 
d="M760 1294q-156 0 -278 -114t-165 -308q-21 -94 -43 -280t60 -289l680 928q-98 63 -254 63zM690 141q160 1 275 103t153 264t56 333q18 172 -62 294l-676 -924q94 -70 254 -70zM684 -20q-195 0 -356 108l-56 -74q-26 -34 -60 -34t-53 19t-20 46q0 27 27 59l57 78
q-147 170 -114 439q23 172 38 258q51 265 217 421t422 156q186 0 336 -102l49 65q29 37 60 37t53 -18t21 -47q0 -29 -25 -60l-57 -74q151 -163 116 -455q-19 -156 -39 -261q-50 -269 -212 -415t-404 -146z" />
    <glyph glyph-name="Ugrave" unicode="&#xd9;" horiz-adv-x="1452" 
d="M935 1544q-28 0 -48 12l-258 142q-39 18 -39 55t19 56q36 36 93 8l263 -148q37 -20 37 -54q0 -35 -20 -53q-19 -18 -47 -18zM356 1442q39 0 63 -28t15 -73l-121 -714q-23 -131 4 -231t89 -151q123 -104 289 -104q167 0 277 111t144 319l133 793q12 78 84 78q41 0 63 -30
t15 -71l-131 -786q-49 -295 -204 -435t-391 -140t-402 155q-84 78 -121 211t-8 305l118 713q12 78 84 78z" />
    <glyph glyph-name="Uacute" unicode="&#xda;" horiz-adv-x="1452" 
d="M1111 1827q28 -1 46 -19q19 -18 19 -54t-58 -62l-291 -138q-15 -8 -39 -8t-44 18t-19 56q0 37 45 55l295 142q18 10 46 10zM356 1442q39 0 63 -28t15 -73l-121 -714q-23 -131 4 -231t89 -151q123 -104 289 -104q167 0 277 111t144 319l133 793q12 78 84 78q41 0 63 -30
t15 -71l-131 -786q-49 -295 -204 -435t-391 -140t-402 155q-84 78 -121 211t-8 305l118 713q12 78 84 78z" />
    <glyph glyph-name="Ucircumflex" unicode="&#xdb;" horiz-adv-x="1452" 
d="M660 1536q-24 0 -43 17q-17 17 -17 49t39 59l213 143q35 23 70 23t61 -27l154 -143q29 -29 29 -57t-19 -47q-18 -19 -45 -19t-55 22l-136 127l-200 -133q-27 -14 -51 -14zM356 1442q39 0 63 -28t15 -73l-121 -714q-23 -131 4 -231t89 -151q123 -104 289 -104
q167 0 277 111t144 319l133 793q12 78 84 78q41 0 63 -30t15 -71l-131 -786q-49 -295 -204 -435t-391 -140t-402 155q-84 78 -121 211t-8 305l118 713q12 78 84 78z" />
    <glyph glyph-name="Udieresis" unicode="&#xdc;" horiz-adv-x="1452" 
d="M1074 1745q40 0 65 -24q25 -23 25 -63t-30 -70t-70 -30t-65 24t-24 63q-1 39 29 69t70 31zM647 1645q0 39 30 69t70 31q41 0 65 -24q24 -23 24 -63t-30 -70t-70 -30t-64 24t-25 63zM356 1442q39 0 63 -28t15 -73l-121 -714q-23 -131 4 -231t89 -151q123 -104 289 -104
q167 0 277 111t144 319l133 793q12 78 84 78q41 0 63 -30t15 -71l-131 -786q-49 -295 -204 -435t-391 -140t-402 155q-84 78 -121 211t-8 305l118 713q12 78 84 78z" />
    <glyph glyph-name="Yacute" unicode="&#xdd;" horiz-adv-x="1269" 
d="M1013 1827q28 -1 46 -19t18 -45q0 -45 -57 -71l-291 -138q-14 -8 -39 -8t-44 18t-19 56q0 37 45 55l295 142q18 10 46 10zM184 1442q42 0 70 -47l373 -594l583 610q31 31 68 31q38 0 62 -20t24 -59q0 -38 -33 -69l-583 -602q-53 -55 -60 -100l-86 -520q-12 -80 -82 -80
q-40 0 -64 28t-16 70l84 502q9 51 -26 106l-385 607q-43 69 5 115q24 22 66 22z" />
    <glyph glyph-name="Thorn" unicode="&#xde;" horiz-adv-x="1257" 
d="M682 432q172 0 279 83q106 83 106 237q0 120 -83 194t-265 74h-285l-98 -588h346zM416 1456q36 0 60 -26t16 -66l-31 -190h274q229 0 367 -114t137 -318q0 -204 -157 -338q-157 -132 -441 -132h-330l-32 -194q-6 -39 -31 -63q-25 -23 -60 -23q-36 0 -58 28t-15 66
l211 1274q14 96 90 96z" />
    <glyph glyph-name="germandbls" unicode="&#xdf;" horiz-adv-x="1255" 
d="M162 -8q-39 0 -63 28t-15 68l154 932q37 229 161 333q125 103 296 103t277 -81t105 -212q0 -68 -37 -130q-38 -62 -80 -101q-116 -107 -116 -147q0 -39 28 -67t82 -67q55 -39 82 -59t68 -62q76 -79 77 -213q1 -133 -101 -235t-269 -102q-103 0 -197 34t-149 86
q-37 31 -37 66q0 34 22 56t52 22t49 -12q107 -74 162 -86q55 -11 92 -11q94 -1 154 57q61 58 61 128t-32 106q-32 37 -102 86t-102 76q-33 27 -69 79q-37 52 -37 108q0 57 37 115t81 95q119 100 118 170t-61 110t-163 40q-242 0 -291 -295l-155 -934q-14 -84 -82 -84z" />
    <glyph glyph-name="agrave" unicode="&#xe0;" 
d="M815 1277q0 -35 -19 -53t-47 -18t-49 13l-258 141q-39 20 -39 56q-1 36 19 55q36 35 94 8l262 -148q37 -20 37 -54zM502 123q137 0 237 76l43 254q-137 67 -263 67t-207 -49t-81 -160q0 -80 67 -134t204 -54zM486 -20q-192 0 -305 97q-111 97 -111 247t115 243
q116 92 287 92t333 -71l20 112q23 120 -39 180t-170 60q-110 0 -256 -57q-40 -15 -72 9t-32 66t51 69q51 26 134 45t153 20q200 0 310 -104t75 -300l-90 -520q-10 -59 -45 -82q-166 -106 -358 -106z" />
    <glyph glyph-name="aacute" unicode="&#xe1;" horiz-adv-x="1116" 
d="M906 1489q28 -1 46 -19t18 -54t-57 -62l-290 -137q-14 -9 -39 -9t-44 18q-20 18 -20 56q0 37 45 55l295 142q18 10 46 10zM502 123q137 0 237 76l43 254q-137 67 -263 67t-207 -49t-81 -160q0 -80 67 -134t204 -54zM486 -20q-192 0 -305 97q-111 97 -111 247t115 243
q116 92 287 92t333 -71l20 112q23 120 -39 180t-170 60q-110 0 -256 -57q-40 -15 -72 9t-32 66t51 69q51 26 134 45t153 20q200 0 310 -104t75 -300l-90 -520q-10 -59 -45 -82q-166 -106 -358 -106z" />
    <glyph glyph-name="acircumflex" unicode="&#xe2;" horiz-adv-x="1116" 
d="M438 1176q-24 0 -42 17q-17 17 -17 49t39 58l213 144q75 50 131 -4l153 -144q29 -28 29 -56t-18 -47t-45 -19t-56 22l-135 127l-201 -133q-27 -14 -51 -14zM502 123q137 0 237 76l43 254q-137 67 -263 67t-207 -49t-81 -160q0 -80 67 -134t204 -54zM486 -20
q-192 0 -305 97q-111 97 -111 247t115 243q116 92 287 92t333 -71l20 112q23 120 -39 180t-170 60q-110 0 -256 -57q-40 -15 -72 9t-32 66t51 69q51 26 134 45t153 20q200 0 310 -104t75 -300l-90 -520q-10 -59 -45 -82q-166 -106 -358 -106z" />
    <glyph glyph-name="atilde" unicode="&#xe3;" horiz-adv-x="1120" 
d="M804 1217q-60 1 -133 39t-102 38t-65 -30t-62 -29q-25 0 -44 19t-19 48t37 58q74 70 159 70q51 0 125 -39t101 -39t67 30t64 31q25 0 44 -18t19 -48t-43 -67q-88 -63 -148 -63zM502 123q137 0 237 76l43 254q-137 67 -263 67t-207 -49t-81 -160q0 -80 67 -134t204 -54z
M486 -20q-192 0 -305 97q-111 97 -111 247t115 243q116 92 287 92t333 -71l20 112q23 120 -39 180t-170 60q-110 0 -256 -57q-40 -15 -72 9t-32 66t51 69q51 26 134 45t153 20q200 0 310 -104t75 -300l-90 -520q-10 -59 -45 -82q-166 -106 -358 -106z" />
    <glyph glyph-name="adieresis" unicode="&#xe4;" horiz-adv-x="1114" 
d="M855 1413q40 1 65 -23q24 -24 24 -64t-30 -70t-70 -30t-64 24q-25 24 -24 63q0 39 30 69t69 31zM428 1313q0 39 30 69t69 31q40 1 65 -23q24 -24 24 -64t-30 -70t-69 -30q-41 0 -65 24t-24 63zM502 123q137 0 237 76l43 254q-137 67 -263 67t-207 -49t-81 -160
q0 -80 67 -134t204 -54zM486 -20q-192 0 -305 97q-111 97 -111 247t115 243q116 92 287 92t333 -71l20 112q23 120 -39 180t-170 60q-110 0 -256 -57q-40 -15 -72 9t-32 66t51 69q51 26 134 45t153 20q200 0 310 -104t75 -300l-90 -520q-10 -59 -45 -82q-166 -106 -358 -106
z" />
    <glyph glyph-name="aring" unicode="&#xe5;" 
d="M600 1346q0 -40 24 -64t68 -25q45 0 73 32t28 73q0 42 -23 66q-22 24 -66 24t-74 -33t-30 -73zM889 1368q-1 -80 -57 -142t-141 -63q-85 0 -136 51t-51 130q0 80 56 142t144 62t137 -50q48 -50 48 -130zM502 123q137 0 237 76l43 254q-137 67 -263 67t-207 -49t-81 -160
q0 -80 67 -134t204 -54zM486 -20q-192 0 -305 97q-111 97 -111 247t115 243q116 92 287 92t333 -71l20 112q23 120 -39 180t-170 60q-110 0 -256 -57q-40 -15 -72 9t-32 66t51 69q51 26 134 45t153 20q200 0 310 -104t75 -300l-90 -520q-10 -59 -45 -82q-166 -106 -358 -106
z" />
    <glyph glyph-name="ae" unicode="&#xe6;" horiz-adv-x="1794" 
d="M1495 606q23 0 31 7t12 30q35 153 -37 225q-73 72 -207 72q-273 0 -325 -334h526zM489 123q174 0 320 113q-33 82 -18 213q-150 71 -274 71t-205 -49t-81 -145q-1 -96 65 -149q66 -54 193 -54zM616 940q-110 0 -256 -57q-40 -15 -72 9t-32 66t50 68q50 27 134 46t154 20
q262 0 348 -166q143 166 365 166q177 0 304 -116t79 -349l-9 -35q-27 -119 -139 -119h-588q-10 -47 -10 -90q0 -117 81 -180t202 -63t248 61q20 10 46 10t46 -24q20 -23 20 -61t-59 -71q-137 -76 -285 -75q-242 0 -362 141q-180 -141 -380 -141t-316 94q-115 94 -115 248
t116 245q117 93 290 93t333 -74l20 112q23 122 -41 182q-62 60 -172 60z" />
    <glyph glyph-name="ccedilla" unicode="&#xe7;" 
d="M1020 788q0 -30 -22 -54t-69 -23q-48 0 -65 53q-47 168 -258 168q-246 0 -305 -275q-25 -104 -35 -219q-16 -143 66 -221t213 -78q190 0 258 178q18 49 76 50q31 0 60 -30t7 -95q-37 -94 -130 -175t-255 -85l-47 -84q72 0 119 -43t47 -111q0 -96 -81 -160t-187 -92
q-38 -6 -52 -6t-30 15t-16 46t48 49t65 23q83 29 108 62q24 33 24 61q0 55 -63 55l-68 -12q-31 0 -44 25t1 55l61 125q-162 32 -261 150t-79 311q12 113 37 231q41 203 165 306q124 104 293 104t270 -71t135 -165q14 -38 14 -68z" />
    <glyph glyph-name="egrave" unicode="&#xe8;" 
d="M825 1277q0 -35 -19 -53t-47 -18t-48 13l-258 141q-39 20 -39 56t19 55q36 36 93 8l262 -148q37 -20 37 -54zM819 606q29 0 37 29q39 153 -31 229q-71 76 -207 76t-213 -82t-108 -252h522zM538 139q128 0 257 62q25 10 47 10t44 -23q22 -22 22 -62t-60 -71
q-137 -76 -285 -75q-227 0 -352 129t-105 340q8 88 39 223q47 221 175 320q128 100 314 100q184 0 306 -123t70 -342l-9 -35q-31 -119 -139 -119h-588l-6 -47q-18 -133 62 -210t208 -77z" />
    <glyph glyph-name="eacute" unicode="&#xe9;" 
d="M933 1491q28 0 46 -18q18 -19 18 -55t-57 -62l-291 -137q-14 -9 -39 -9t-44 18t-19 56q0 37 45 55l295 142q18 10 46 10zM819 606q29 0 37 29q39 153 -31 229q-71 76 -207 76t-213 -82t-108 -252h522zM538 139q128 0 257 62q25 10 47 10t44 -23q22 -22 22 -62t-60 -71
q-137 -76 -285 -75q-227 0 -352 129t-105 340q8 88 39 223q47 221 175 320q128 100 314 100q184 0 306 -123t70 -342l-9 -35q-31 -119 -139 -119h-588l-6 -47q-18 -133 62 -210t208 -77z" />
    <glyph glyph-name="ecircumflex" unicode="&#xea;" horiz-adv-x="1116" 
d="M967 1268q-1 -28 -19 -46q-43 -44 -100 3l-135 127l-201 -133q-61 -31 -93 3q-17 17 -17 49t38 58l213 144q77 51 131 -5l154 -143q29 -29 29 -57zM819 606q29 0 37 29q39 153 -31 229q-71 76 -207 76t-213 -82t-108 -252h522zM538 139q128 0 257 62q25 10 47 10t44 -23
q22 -22 22 -62t-60 -71q-137 -76 -285 -75q-227 0 -352 129t-105 340q8 88 39 223q47 221 175 320q128 100 314 100q184 0 306 -123t70 -342l-9 -35q-31 -119 -139 -119h-588l-6 -47q-18 -133 62 -210t208 -77z" />
    <glyph glyph-name="edieresis" unicode="&#xeb;" 
d="M768 1313q0 39 30 69t69 31q40 1 65 -23q24 -24 24 -64t-30 -70t-69 -30q-41 0 -65 24t-24 63zM440 1313q0 39 30 69t70 31t64 -23t25 -64q0 -40 -30 -70t-70 -30q-41 0 -65 24t-24 63zM819 606q29 0 37 29q39 153 -31 229q-71 76 -207 76t-213 -82t-108 -252h522z
M538 139q128 0 257 62q25 10 47 10t44 -23q22 -22 22 -62t-60 -71q-137 -76 -285 -75q-227 0 -352 129t-105 340q8 88 39 223q47 221 175 320q128 100 314 100q184 0 306 -123t70 -342l-9 -35q-31 -119 -139 -119h-588l-6 -47q-18 -133 62 -210t208 -77z" />
    <glyph glyph-name="igrave" unicode="&#xec;" horiz-adv-x="577" 
d="M348 1077q36 -1 59 -29q24 -28 15 -73l-152 -905q-12 -78 -82 -78q-41 0 -64 28t-15 74l151 905q13 78 88 78zM471 1277q1 -35 -19 -53t-48 -18t-48 13l-258 141q-39 20 -39 56q-1 36 19 55q36 35 94 8l262 -148q37 -20 37 -54z" />
    <glyph glyph-name="iacute" unicode="&#xed;" horiz-adv-x="577" 
d="M348 1077q36 -1 59 -29q24 -28 15 -73l-152 -905q-12 -78 -82 -78q-41 0 -64 28t-15 74l151 905q13 78 88 78zM687 1489q28 -1 46 -19q19 -18 19 -54t-58 -62l-291 -137q-15 -9 -39 -9t-43 18t-19 56q0 37 44 55l295 142q18 10 46 10z" />
    <glyph glyph-name="icircumflex" unicode="&#xee;" horiz-adv-x="577" 
d="M662 1268q0 -28 -18 -46q-43 -44 -101 3l-135 127l-201 -133q-61 -31 -93 3q-18 17 -18 49t39 58l213 144q77 51 131 -5l154 -143q29 -29 29 -57zM348 1077q36 -1 59 -29q24 -28 15 -73l-152 -905q-12 -78 -82 -78q-41 0 -64 28t-15 74l151 905q13 78 88 78z" />
    <glyph glyph-name="idieresis" unicode="&#xef;" horiz-adv-x="577" 
d="M348 1077q36 -1 59 -29q24 -28 15 -73l-152 -905q-12 -78 -82 -78q-41 0 -64 28t-15 74l151 905q13 78 88 78zM467 1313q-1 39 29 69t70 31t65 -23t25 -64t-30 -70t-70 -30t-64 24t-25 63zM139 1313q0 39 30 69t70 31q41 1 65 -23t24 -64t-30 -70t-70 -30t-64 24t-25 63z
" />
    <glyph glyph-name="eth" unicode="&#xf0;" horiz-adv-x="1193" 
d="M597 866q-115 0 -191 -64t-103 -174q-27 -108 -35 -220t68 -191q76 -78 194 -78t189 72q72 72 100 186q14 59 35 219q12 104 -64 178q-77 72 -193 72zM586 1026q92 0 182 -40t147 -116q29 190 -43 330l-161 -70q-33 -14 -66 2t-33 58q0 41 50 61l129 56l-56 55
q-25 26 -25 54t22 48q50 45 111 -2q30 -23 93 -94l129 55q39 16 69 -3t30 -57t-52 -60l-106 -48q94 -190 47 -467q-23 -135 -61 -354t-154 -337q-116 -117 -308 -117t-316 126t-110 322q6 82 33 201q41 197 160 297t289 100z" />
    <glyph glyph-name="ntilde" unicode="&#xf1;" horiz-adv-x="1212" 
d="M818 1217q-60 1 -133 39t-101 38t-66 -30t-62 -29q-24 0 -43 19t-19 48t36 58q74 70 160 70q53 0 125 -39q71 -39 99 -39t68 30t64 31q24 0 44 -18t20 -48t-43 -67q-89 -63 -149 -63zM889 -8q-39 0 -62 28t-14 70l92 549q28 174 -59 239q-71 52 -200 52q-128 0 -261 -80
l-129 -780q-12 -78 -82 -78q-44 0 -66 28t-14 74l135 813q8 49 56 78q176 107 377 107t318 -98q60 -50 86 -140t5 -209l-96 -573q-14 -80 -86 -80z" />
    <glyph glyph-name="ograve" unicode="&#xf2;" horiz-adv-x="1146" 
d="M763 1206q-28 0 -48 13l-258 141q-39 20 -39 56t19 55q36 36 93 8l263 -148q37 -20 37 -54q0 -35 -20 -53q-19 -18 -47 -18zM614 932q-254 0 -317 -283q-19 -93 -33 -225t74 -208t209 -77q248 0 311 283q21 101 31 205q16 147 -70 226t-205 79zM620 1092q184 0 316 -123
t115 -336q-29 -404 -202 -551q-121 -102 -305 -102t-320 122t-120 336q29 410 208 554q124 100 308 100z" />
    <glyph glyph-name="oacute" unicode="&#xf3;" horiz-adv-x="1146" 
d="M949 1489q28 -1 46 -19q19 -18 19 -54t-58 -62l-290 -137q-14 -9 -39 -9t-44 18t-19 56q0 37 44 55l295 142q18 10 46 10zM614 932q-254 0 -317 -283q-19 -93 -33 -225t74 -208t209 -77q248 0 311 283q21 101 31 205q16 147 -70 226t-205 79zM620 1092q184 0 316 -123
t115 -336q-29 -404 -202 -551q-121 -102 -305 -102t-320 122t-120 336q29 410 208 554q124 100 308 100z" />
    <glyph glyph-name="ocircumflex" unicode="&#xf4;" horiz-adv-x="1146" 
d="M717 1493q35 0 61 -27l154 -143q29 -29 29 -57q-1 -28 -19 -46q-43 -44 -100 3l-135 127l-201 -133q-61 -31 -93 3q-17 17 -17 49t38 58l213 143q35 23 70 23zM614 932q-254 0 -317 -283q-19 -93 -33 -225t74 -208t209 -77q248 0 311 283q21 101 31 205q16 147 -70 226
t-205 79zM620 1092q184 0 316 -123t115 -336q-29 -404 -202 -551q-121 -102 -305 -102t-320 122t-120 336q29 410 208 554q124 100 308 100z" />
    <glyph glyph-name="otilde" unicode="&#xf5;" horiz-adv-x="1148" 
d="M812 1217q-60 1 -133 39t-101 38t-66 -30t-62 -29q-24 0 -43 19t-19 48t36 58q74 70 160 70q51 0 125 -39q75 -39 101 -39t66 30t64 31q24 0 44 -18t20 -48t-43 -67q-89 -63 -149 -63zM614 932q-254 0 -317 -283q-19 -93 -33 -225t74 -208t209 -77q248 0 311 283
q21 101 31 205q16 147 -70 226t-205 79zM620 1092q184 0 316 -123t115 -336q-29 -404 -202 -551q-121 -102 -305 -102t-320 122t-120 336q29 410 208 554q124 100 308 100z" />
    <glyph glyph-name="odieresis" unicode="&#xf6;" horiz-adv-x="1146" 
d="M774 1313q0 39 30 69t70 31t64 -23t25 -64q0 -40 -30 -70t-70 -30q-41 0 -65 24t-24 63zM446 1313q0 39 30 69t70 31t64 -23t25 -64q0 -40 -30 -70q-29 -30 -69 -30t-65 24t-25 63zM614 932q-254 0 -317 -283q-19 -93 -33 -225t74 -208t209 -77q248 0 311 283
q21 101 31 205q16 147 -70 226t-205 79zM620 1092q184 0 316 -123t115 -336q-29 -404 -202 -551q-121 -102 -305 -102t-320 122t-120 336q29 410 208 554q124 100 308 100z" />
    <glyph glyph-name="divide" unicode="&#xf7;" horiz-adv-x="1271" 
d="M1071 637h-872q-35 -1 -60 23t-25 58t26 56q24 22 59 23h872q37 0 62 -23q25 -22 25 -56t-26 -58q-26 -23 -61 -23zM698 383q18 -27 14 -59t-29 -50q-25 -20 -57 -16t-52 30t-15 58q4 32 29 50q26 20 58 16t52 -29zM573 1053q-18 27 -14 59t29 50q26 18 58 14t51 -30
t15 -56t-29 -50t-57 -16t-53 29z" />
    <glyph glyph-name="oslash" unicode="&#xf8;" horiz-adv-x="1159" 
d="M610 932q-125 0 -207 -74t-110 -209q-9 -43 -25 -155t0 -170l547 530q-80 78 -205 78zM543 139q246 0 309 275q55 259 22 336l-546 -533q80 -78 215 -78zM536 -20q-190 0 -321 126l-84 -81q-37 -33 -59 -33t-39 15t-17 42t31 57l96 97q-59 111 -43 244t37 233
q41 203 167 307q126 105 316 105t312 -123l88 84q53 53 97 12q44 -42 -15 -96l-98 -95q58 -111 42 -248t-36 -235q-41 -203 -163 -307q-121 -104 -311 -104z" />
    <glyph glyph-name="ugrave" unicode="&#xf9;" horiz-adv-x="1183" 
d="M834 1277q0 -35 -20 -53t-47 -18q-28 0 -48 13l-258 141q-39 20 -39 56t19 55q35 35 94 8l262 -148q37 -20 37 -54zM301 1077q39 1 63 -27t15 -71l-84 -516q-29 -172 43 -248t214 -76t255 74l129 786q12 78 84 78q38 -1 62 -29t16 -73l-135 -813q-8 -45 -50 -74
q-151 -108 -367 -108t-335 132t-80 369l86 514q12 82 84 82z" />
    <glyph glyph-name="uacute" unicode="&#xfa;" horiz-adv-x="1183" 
d="M964 1489q28 -1 46 -19t18 -45q0 -45 -57 -71l-291 -137q-14 -9 -39 -9t-44 18t-19 56q0 37 45 55l295 142q18 10 46 10zM301 1077q39 1 63 -27t15 -71l-84 -516q-29 -172 43 -248t214 -76t255 74l129 786q12 78 84 78q38 -1 62 -29t16 -73l-135 -813q-8 -45 -50 -74
q-151 -108 -367 -108t-335 132t-80 369l86 514q12 82 84 82z" />
    <glyph glyph-name="ucircumflex" unicode="&#xfb;" horiz-adv-x="1183" 
d="M410 1271q0 32 39 58l213 144q76 50 131 -5l153 -143q29 -29 29 -57q-1 -28 -19 -46q-43 -44 -100 3l-135 127l-201 -133q-60 -31 -93 3q-17 18 -17 49zM301 1077q39 1 63 -27t15 -71l-84 -516q-29 -172 43 -248t214 -76t255 74l129 786q12 78 84 78q38 -1 62 -29t16 -73
l-135 -813q-8 -45 -50 -74q-151 -108 -367 -108t-335 132t-80 369l86 514q12 82 84 82z" />
    <glyph glyph-name="udieresis" unicode="&#xfc;" horiz-adv-x="1183" 
d="M780 1313q0 39 30 69t70 31t64 -23t25 -64q0 -40 -30 -70t-70 -30q-41 0 -65 24t-24 63zM552 1413q40 1 64 -23t25 -64q0 -40 -30 -70q-29 -30 -69 -30t-65 24t-24 63q-1 39 29 69t70 31zM301 1077q39 1 63 -27t15 -71l-84 -516q-29 -172 43 -248t214 -76t255 74l129 786
q12 78 84 78q38 -1 62 -29t16 -73l-135 -813q-8 -45 -50 -74q-151 -108 -367 -108t-335 132t-80 369l86 514q12 82 84 82z" />
    <glyph glyph-name="yacute" unicode="&#xfd;" horiz-adv-x="1042" 
d="M882 1491q28 0 46 -18q18 -19 18 -55t-57 -62l-291 -137q-14 -9 -39 -9t-44 18t-19 56q0 37 45 55l295 142q18 10 46 10zM471 250q8 0 14 12q59 125 93 187l317 569q33 59 83 59t70 -41t-8 -86l-524 -927q-162 -289 -336 -392q-95 -61 -149 -12q-23 20 -23 58t53 67
q164 86 299 324l-239 893q-13 51 11 83t67 33q64 0 84 -78l145 -542q18 -76 31 -191q4 -16 12 -16z" />
    <glyph glyph-name="thorn" unicode="&#xfe;" horiz-adv-x="1163" 
d="M100 -403q-40 -1 -62 27t-15 65l278 1679q14 88 88 88q41 0 61 -28t13 -62l-55 -324q121 49 235 50q205 0 320 -119t104 -303q-6 -114 -48 -300t-163 -288q-122 -102 -286 -102t-326 73l-62 -364q-14 -92 -82 -92zM547 139q246 0 311 260q33 133 44 255t-56 200
q-68 78 -193 78t-270 -53l-111 -666q41 -29 119 -51t156 -23z" />
    <glyph glyph-name="ydieresis" unicode="&#xff;" horiz-adv-x="1042" 
d="M806 1413q40 1 64 -23t25 -64q0 -40 -30 -70q-29 -30 -69 -30t-65 24t-24 63q-1 39 29 69t70 31zM478 1413q40 1 65 -23t25 -64t-30 -70t-70 -30t-65 24t-24 63q-1 39 29 69t70 31zM471 250q8 0 14 12q59 125 93 187l317 569q33 59 83 59t70 -41t-8 -86l-524 -927
q-162 -289 -336 -392q-95 -61 -149 -12q-23 20 -23 58t53 67q164 86 299 324l-239 893q-13 51 11 83t67 33q64 0 84 -78l145 -542q18 -76 31 -191q4 -16 12 -16z" />
    <glyph glyph-name="Amacron" unicode="&#x100;" horiz-adv-x="1345" 
d="M682 1571q-35 0 -54 19t-20 48q0 29 23 52t59 22h330q33 0 51 -19q19 -19 19 -48t-22 -52t-56 -22h-330zM786 1288q-38 0 -61 -45l-322 -618h543l-117 618q-5 45 -43 45zM27 -8q-49 0 -72 39t4 90l619 1175q47 90 99 125t122 35t120 -43t66 -129l227 -1173
q10 -51 -12 -85t-65 -34q-72 0 -88 84l-76 403h-639l-223 -426q-33 -61 -82 -61z" />
    <glyph glyph-name="amacron" unicode="&#x101;" 
d="M520 1245q-33 1 -53 21q-21 20 -21 48t23 50t59 22h330q33 0 51 -19q19 -19 19 -48t-22 -51t-56 -23h-330zM502 123q137 0 237 76l43 254q-137 67 -263 67t-207 -49t-81 -160q0 -80 67 -134t204 -54zM486 -20q-192 0 -305 97q-111 97 -111 247t115 243q116 92 287 92
t333 -71l20 112q23 120 -39 180t-170 60q-110 0 -256 -57q-40 -15 -72 9t-32 66t51 69q51 26 134 45t153 20q200 0 310 -104t75 -300l-90 -520q-10 -59 -45 -82q-166 -106 -358 -106z" />
    <glyph glyph-name="Abreve" unicode="&#x102;" horiz-adv-x="1345" 
d="M853 1542q-85 0 -146 39t-79 95t-18 84t20 45t48 18q47 0 59 -64q15 -50 50 -76q24 -16 61 -16q92 0 135 102q20 53 68 54q27 -1 44 -17t17 -42t-14 -54q-28 -70 -94 -119t-151 -49zM786 1288q-38 0 -61 -45l-322 -618h543l-117 618q-5 45 -43 45zM27 -8q-49 0 -72 39
t4 90l619 1175q47 90 99 125t122 35t120 -43t66 -129l227 -1173q10 -51 -12 -85t-65 -34q-72 0 -88 84l-76 403h-639l-223 -426q-33 -61 -82 -61z" />
    <glyph glyph-name="abreve" unicode="&#x103;" horiz-adv-x="1114" 
d="M695 1204q-85 0 -146 39t-79 95t-17 84q0 28 20 45t47 18q47 0 60 -64q8 -27 17 -43t33 -32t60 -17q92 0 135 103q20 53 68 53q27 -1 44 -17t17 -42t-14 -54q-28 -70 -94 -119t-151 -49zM502 123q137 0 237 76l43 254q-137 67 -263 67t-207 -49t-81 -160q0 -80 67 -134
t204 -54zM486 -20q-192 0 -305 97q-111 97 -111 247t115 243q116 92 287 92t333 -71l20 112q23 120 -39 180t-170 60q-110 0 -256 -57q-40 -15 -72 9t-32 66t51 69q51 26 134 45t153 20q200 0 310 -104t75 -300l-90 -520q-10 -59 -45 -82q-166 -106 -358 -106z" />
    <glyph glyph-name="Aogonek" unicode="&#x104;" horiz-adv-x="1314" 
d="M1020 -422q-88 0 -153 51t-64 146q0 178 246 288l-78 416h-639l-223 -426q-33 -61 -82 -61t-72 39t4 90l619 1175q47 90 99 125t122 35t120 -43t66 -129l227 -1173q8 -45 -5 -71t-58 -44q-219 -86 -219 -207q0 -45 26 -68t67 -23q40 0 71 22q30 20 52 20t38 -15t16 -44
t-46 -66t-134 -37zM785 1288q-38 0 -60 -45l-322 -618h543l-117 618q-6 45 -44 45z" />
    <glyph glyph-name="aogonek" unicode="&#x105;" 
d="M502 123q137 0 237 76l43 254q-137 67 -263 67t-207 -49t-81 -160q0 -80 67 -134t204 -54zM831 -288q0 -30 -53 -64q-53 -33 -134 -33q-80 0 -146 53q-66 52 -66 146t80 170q-12 -2 -27 -2q-184 0 -300 92q-115 92 -115 246t115 247q116 92 287 92t333 -71l20 112
q23 120 -39 180t-170 60q-110 0 -256 -57q-40 -15 -72 9t-32 66t53 70q123 64 305 64t290 -104q110 -104 75 -300l-90 -520q-5 -39 -21 -58q-16 -20 -42 -34t-66 -36q-73 -41 -107 -67q-92 -70 -92 -155q0 -35 26 -60q27 -24 65 -24t85 29t78 -3q16 -18 16 -48z" />
    <glyph glyph-name="Cacute" unicode="&#x106;" horiz-adv-x="1327" 
d="M1066 1827q28 -1 46 -19t18 -45q0 -45 -57 -71l-291 -138q-14 -8 -39 -8t-44 18t-19 56q0 37 45 55l295 142q18 10 46 10zM639 141q266 0 385 244q33 61 74 61q86 0 86 -73q0 -23 -17 -64q-61 -135 -188 -232t-332 -97q-257 0 -407 162t-134 429q12 193 66 377
q72 242 228 375q157 133 391 133q180 0 306 -88t173 -225q16 -41 16 -72t-22 -55t-56 -23q-55 0 -78 62q-84 240 -348 239q-170 0 -286 -110t-164 -288q-46 -177 -60 -354t84 -289t283 -112z" />
    <glyph glyph-name="cacute" unicode="&#x107;" 
d="M898 1489q28 -1 46 -19t18 -54t-57 -62l-291 -137q-14 -9 -38 -9t-44 18t-20 56q0 37 45 55l295 142q18 10 46 10zM545 139q190 0 258 178q18 49 76 50q31 0 60 -30t7 -95q-37 -96 -133 -180t-262 -82q-201 0 -334 124t-111 347q12 113 37 231q41 203 165 306
q124 104 293 104t270 -71t135 -165q14 -38 14 -68t-23 -54t-53 -24q-61 1 -80 54q-47 168 -258 168q-246 0 -305 -275q-27 -119 -35 -219q-16 -143 66 -221t213 -78z" />
    <glyph glyph-name="Cdotaccent" unicode="&#x10a;" horiz-adv-x="1327" 
d="M861 1745q40 0 65 -24q24 -23 24 -63t-30 -70t-69 -30q-40 0 -65 24t-24 63q0 39 30 69t69 31zM639 141q266 0 385 244q33 61 74 61q86 0 86 -73q0 -23 -17 -64q-61 -135 -188 -232t-332 -97q-257 0 -407 162t-134 429q12 193 66 377q72 242 228 375q157 133 391 133
q180 0 306 -88t173 -225q16 -41 16 -72t-22 -55t-56 -23q-55 0 -78 62q-84 240 -348 239q-170 0 -286 -110t-164 -288q-46 -177 -60 -354t84 -289t283 -112z" />
    <glyph glyph-name="cdotaccent" unicode="&#x10b;" 
d="M679 1413q41 1 65 -23t24 -64t-30 -70t-70 -30t-64 24q-25 24 -24 63q0 39 30 69t69 31zM545 139q190 0 258 178q18 49 76 50q31 0 60 -30t7 -95q-37 -96 -133 -180t-262 -82q-201 0 -334 124t-111 347q12 113 37 231q41 203 165 306q124 104 293 104t270 -71t135 -165
q14 -38 14 -68t-23 -54t-53 -24q-61 1 -80 54q-47 168 -258 168q-246 0 -305 -275q-27 -119 -35 -219q-16 -143 66 -221t213 -78z" />
    <glyph glyph-name="Ccaron" unicode="&#x10c;" horiz-adv-x="1327" 
d="M835 1538q-28 0 -57 25l-166 141q-24 18 -24 49t19 51t46 20t52 -20l141 -121l184 125q54 38 92 -2q18 -18 18 -51t-38 -59l-201 -133q-38 -25 -66 -25zM639 141q266 0 385 244q33 61 74 61q86 0 86 -73q0 -23 -17 -64q-61 -135 -188 -232t-332 -97q-257 0 -407 162
t-134 429q12 193 66 377q72 242 228 375q157 133 391 133q180 0 306 -88t173 -225q16 -41 16 -72t-22 -55t-56 -23q-55 0 -78 62q-84 240 -348 239q-170 0 -286 -110t-164 -288q-46 -177 -60 -354t84 -289t283 -112z" />
    <glyph glyph-name="ccaron" unicode="&#x10d;" horiz-adv-x="1116" 
d="M654 1206q-28 0 -56 25l-166 141q-24 18 -24 49t19 51t46 21q27 0 51 -20l142 -121l184 125q22 16 48 16t44 -18t18 -51t-38 -60l-201 -133q-39 -25 -67 -25zM545 139q190 0 258 178q18 49 76 50q31 0 60 -30t7 -95q-37 -96 -133 -180t-262 -82q-201 0 -334 124t-111 347
q12 113 37 231q41 203 165 306q124 104 293 104t270 -71t135 -165q14 -38 14 -68t-23 -54t-53 -24q-61 1 -80 54q-47 168 -258 168q-246 0 -305 -275q-27 -119 -35 -219q-16 -143 66 -221t213 -78z" />
    <glyph glyph-name="Dcaron" unicode="&#x10e;" horiz-adv-x="1415" 
d="M837 1538q-28 0 -57 25l-166 141q-24 18 -24 49t19 51t46 20t52 -20l141 -121l184 125q54 38 92 -2q18 -18 18 -51t-38 -59l-201 -133q-38 -25 -66 -25zM571 156q244 0 380 103t192 341q20 82 33 209q26 221 -90 346t-347 125h-268l-186 -1124h286zM219 0q-55 0 -85 36
t-19 95l196 1176q10 61 50 96t102 35h276q309 0 469 -170t138 -443q-12 -133 -39 -260q-70 -307 -253 -436t-519 -129h-316z" />
    <glyph glyph-name="dcaron" unicode="&#x10f;" horiz-adv-x="1290" 
d="M1291 1116q-34 0 -51 16t-17 41q0 24 28 56q51 55 64 125l20 102q10 66 72 66q33 0 50 -23t11 -57l-18 -94q-25 -116 -75 -174t-84 -58zM538 139q140 0 248 76l105 633q-119 84 -283 84q-248 0 -307 -275q-17 -77 -34 -223t57 -220t214 -75zM1061 1454q41 0 65 -28
t15 -72l-199 -1194q-4 -29 -14 -44t-39 -32q-165 -104 -361 -104t-320 122t-102 349q8 79 43 255t156 281t292 105t323 -82l59 366q16 78 82 78z" />
    <glyph glyph-name="Dcroat" unicode="&#x110;" horiz-adv-x="1400" 
d="M557 156q244 0 380 103t191 341q20 82 33 209q27 221 -89 346t-347 125h-268l-82 -492h319q35 0 57 -22q21 -22 21 -52t-22 -54t-62 -23h-338l-80 -481h287zM205 0q-55 0 -85 36t-20 95l84 506h-116q-37 0 -58 20q-20 21 -20 53t24 56t64 22h133l86 519q23 131 149 131
h279q309 0 469 -170t137 -443q-12 -133 -39 -260q-70 -307 -253 -436t-519 -129h-315z" />
    <glyph glyph-name="dcroat" unicode="&#x111;" horiz-adv-x="1214" 
d="M608 932q-248 0 -307 -275q-15 -77 -33 -223t56 -220t214 -75q140 0 248 76l105 633q-119 84 -283 84zM684 1257q0 29 23 51t57 21h209l12 84q4 33 28 51q23 18 55 18t56 -26q24 -27 17 -63l-11 -64h54q33 0 52 -17t19 -46q-1 -29 -23 -52t-61 -22h-57l-172 -1032
q-4 -29 -14 -44t-39 -32q-165 -104 -361 -104t-320 122t-102 349q8 80 43 256t156 280q121 105 292 105t323 -82l28 182h-194q-31 0 -51 18q-19 18 -19 47z" />
    <glyph glyph-name="Emacron" unicode="&#x112;" horiz-adv-x="1247" 
d="M666 1571q-35 0 -55 19q-19 19 -19 48t22 52q23 23 60 22h330q33 0 51 -19t18 -48q1 -29 -21 -52t-57 -22h-329zM461 1438h686q39 0 61 -24t23 -58q0 -34 -25 -54q-25 -22 -61 -22h-674l-80 -483h619q36 0 58 -22q22 -23 22 -55t-24 -52t-58 -21h-641l-82 -491h665
q39 0 62 -23q22 -23 22 -57t-24 -54q-24 -22 -62 -22h-725q-131 0 -106 135l194 1172q21 131 150 131z" />
    <glyph glyph-name="emacron" unicode="&#x113;" 
d="M545 1247q-33 -1 -53 19t-21 49q0 29 23 51t59 23h330q33 1 51 -19t18 -49t-22 -51t-56 -23h-329zM819 606q29 0 37 29q39 153 -31 229q-71 76 -207 76t-213 -82t-108 -252h522zM538 139q128 0 257 62q25 10 47 10t44 -23q22 -22 22 -62t-60 -71q-137 -76 -285 -75
q-227 0 -352 129t-105 340q8 88 39 223q47 221 175 320q128 100 314 100q184 0 306 -123t70 -342l-9 -35q-31 -119 -139 -119h-588l-6 -47q-18 -133 62 -210t208 -77z" />
    <glyph glyph-name="Edotaccent" unicode="&#x116;" horiz-adv-x="1247" 
d="M743 1645q0 39 30 69t70 31q41 0 65 -24q24 -23 24 -63t-30 -70t-70 -30t-64 24t-25 63zM461 1438h686q39 0 61 -24t23 -58q0 -34 -25 -54q-25 -22 -61 -22h-674l-80 -483h619q36 0 58 -22q22 -23 22 -55t-24 -52t-58 -21h-641l-82 -491h665q39 0 62 -23q22 -23 22 -57
t-24 -54q-24 -22 -62 -22h-725q-131 0 -106 135l194 1172q21 131 150 131z" />
    <glyph glyph-name="edotaccent" unicode="&#x117;" 
d="M604 1311q0 39 30 69t70 31t64 -23t25 -64q0 -40 -30 -70t-70 -30q-41 0 -65 24t-24 63zM819 606q29 0 37 29q39 153 -31 229q-71 76 -207 76t-213 -82t-108 -252h522zM538 139q128 0 257 62q25 10 47 10t44 -23q22 -22 22 -62t-60 -71q-137 -76 -285 -75
q-227 0 -352 129t-105 340q8 88 39 223q47 221 175 320q128 100 314 100q184 0 306 -123t70 -342l-9 -35q-31 -119 -139 -119h-588l-6 -47q-18 -133 62 -210t208 -77z" />
    <glyph glyph-name="Eogonek" unicode="&#x118;" horiz-adv-x="1234" 
d="M966 -260q20 0 36 -15t16 -45t-49 -66t-134 -36t-150 53t-65 131q1 157 140 238h-537q-131 0 -106 135l194 1172q20 131 150 131h686q39 0 61 -24t23 -58q0 -34 -25 -54q-25 -22 -61 -22h-674l-80 -483h619q36 0 58 -22q22 -23 22 -55t-24 -52t-58 -21h-641l-82 -491h665
q39 0 62 -23t22 -55q0 -51 -67 -80q-219 -90 -219 -209q0 -45 26 -68t67 -23q40 0 77 26q28 16 48 16z" />
    <glyph glyph-name="eogonek" unicode="&#x119;" 
d="M817 606q18 0 27 5q8 5 12 24q39 153 -31 229q-71 76 -207 76t-213 -82t-108 -252h520zM649 -397q-83 0 -149 52t-66 145t88 182q-208 10 -322 138t-94 329q8 88 39 223q47 217 173 318q126 102 311 102t309 -121t72 -344l-9 -35q-31 -119 -139 -119h-588l-6 -47
q-18 -133 62 -210t208 -77t257 62q25 10 49 10t43 -23q20 -23 20 -51q0 -59 -100 -102q-244 -102 -244 -230q0 -35 26 -59q25 -24 65 -25t73 21t53 22t36 -16q18 -16 18 -47t-50 -65t-135 -33z" />
    <glyph glyph-name="Ecaron" unicode="&#x11a;" horiz-adv-x="1247" 
d="M824 1538q-28 0 -56 25l-166 141q-24 18 -24 49t19 51t46 20t51 -20l142 -121l184 125q54 38 92 -2q18 -18 18 -51t-38 -59l-201 -133q-39 -25 -67 -25zM461 1438h686q39 0 61 -24t23 -58q0 -34 -25 -54q-25 -22 -61 -22h-674l-80 -483h619q36 0 58 -22q22 -23 22 -55
t-24 -52t-58 -21h-641l-82 -491h665q39 0 62 -23q22 -23 22 -57t-24 -54q-24 -22 -62 -22h-725q-131 0 -106 135l194 1172q21 131 150 131z" />
    <glyph glyph-name="ecaron" unicode="&#x11b;" horiz-adv-x="1120" 
d="M687 1204q-28 0 -56 25l-166 141q-25 18 -25 49t20 51t46 20q27 0 51 -20l141 -120l185 125q23 16 49 16t43 -18q18 -17 18 -51t-39 -60l-200 -133q-39 -25 -67 -25zM819 606q29 0 37 29q39 153 -31 229q-71 76 -207 76t-213 -82t-108 -252h522zM538 139q128 0 257 62
q25 10 47 10t44 -23q22 -22 22 -62t-60 -71q-137 -76 -285 -75q-227 0 -352 129t-105 340q8 88 39 223q47 221 175 320q128 100 314 100q184 0 306 -123t70 -342l-9 -35q-31 -119 -139 -119h-588l-6 -47q-18 -133 62 -210t208 -77z" />
    <glyph glyph-name="Gbreve" unicode="&#x11e;" horiz-adv-x="1392" 
d="M867 1540q-85 0 -146 39t-86 115q-10 36 -10 64t20 45t47 18q47 0 60 -64q8 -27 17 -43t33 -32t60 -17q92 0 135 102q20 53 68 54q27 -1 44 -17t17 -42t-14 -54q-28 -70 -94 -119t-151 -49zM1143 756q57 0 83 -29t19 -80q-14 -113 -24 -172q-39 -213 -181 -354t-395 -141
q-251 0 -403 162t-137 398q15 238 67 412q68 244 222 374q155 130 392 130q172 0 301 -82t177 -217q14 -39 14 -71t-23 -54q-23 -23 -57 -22q-57 0 -74 51q-33 111 -124 172q-92 61 -240 61t-264 -102t-166 -297q-38 -145 -56 -331t83 -305q101 -118 277 -118t286 93
q109 93 137 253l20 113h-280q-35 0 -60 22t-25 56t26 56t67 22h338z" />
    <glyph glyph-name="gbreve" unicode="&#x11f;" horiz-adv-x="1185" 
d="M793 1204q-85 0 -146 39t-79 95t-17 84q0 28 20 45t47 18q47 0 60 -64q8 -27 17 -43t33 -32t60 -17q92 0 136 103q20 53 67 53q27 -1 44 -17q36 -35 3 -96q-28 -70 -94 -119t-151 -49zM645 932q-264 0 -321 -275q-25 -137 -33 -219q-25 -283 262 -282q139 0 264 92
l103 616q-123 68 -275 68zM68 -214q0 34 22 58t52 23q32 0 61 -21q139 -94 267 -94t214 78t109 244q-102 -63 -240 -64q-217 0 -329 119t-93 324q6 70 37 229q80 410 477 410q244 0 406 -121q42 -29 34 -82l-137 -842q-40 -253 -185 -357q-67 -48 -135 -70t-166 -22t-197 38
q-99 36 -148 76t-49 74z" />
    <glyph glyph-name="Gdotaccent" unicode="&#x120;" horiz-adv-x="1392" 
d="M768 1645q0 39 30 69t69 31q40 0 65 -24q24 -23 24 -63t-30 -70t-69 -30q-41 0 -65 24t-24 63zM1143 756q57 0 83 -29t19 -80q-14 -113 -24 -172q-39 -213 -181 -354t-395 -141q-251 0 -403 162t-137 398q15 238 67 412q68 244 222 374q155 130 392 130q172 0 301 -82
t177 -217q14 -39 14 -71t-23 -54q-23 -23 -57 -22q-57 0 -74 51q-33 111 -124 172q-92 61 -240 61t-264 -102t-166 -297q-38 -145 -56 -331t83 -305q101 -118 277 -118t286 93q109 93 137 253l20 113h-280q-35 0 -60 22t-25 56t26 56t67 22h338z" />
    <glyph glyph-name="gdotaccent" unicode="&#x121;" horiz-adv-x="1185" 
d="M696 1313q0 39 30 69t70 31t64 -23t25 -64q0 -40 -30 -70t-70 -30q-41 0 -65 24t-24 63zM645 932q-264 0 -321 -275q-25 -137 -33 -219q-25 -283 262 -282q139 0 264 92l103 616q-123 68 -275 68zM68 -214q0 34 22 58t52 23q32 0 61 -21q139 -94 267 -94t214 78t109 244
q-102 -63 -240 -64q-217 0 -329 119t-93 324q6 70 37 229q80 410 477 410q244 0 406 -121q42 -29 34 -82l-137 -842q-40 -253 -185 -357q-67 -48 -135 -70t-166 -22t-197 38q-99 36 -148 76t-49 74z" />
    <glyph glyph-name="Gcommaaccent" unicode="&#x122;" horiz-adv-x="1392" 
d="M481 -494q-33 0 -50 16t-17 40q0 23 24 51q57 63 72 147l20 115q12 63 78 65q31 0 47 -26q16 -27 11 -61l-21 -99q-27 -131 -94 -207q-37 -41 -70 -41zM1143 756q57 0 83 -29t19 -80q-14 -113 -24 -172q-39 -213 -181 -354t-395 -141q-251 0 -403 162t-137 398
q15 238 67 412q68 244 222 374q155 130 392 130q172 0 301 -82t177 -217q14 -39 14 -71t-23 -54q-23 -23 -57 -22q-57 0 -74 51q-33 111 -124 172q-92 61 -240 61t-264 -102t-166 -297q-38 -145 -56 -331t83 -305q101 -118 277 -118t286 93q109 93 137 253l20 113h-280
q-35 0 -60 22t-25 56t26 56t67 22h338z" />
    <glyph glyph-name="gcommaaccent" unicode="&#x123;" horiz-adv-x="1185" 
d="M760 1157q-33 1 -50 17q-39 38 13 95q51 58 65 142l21 115q13 65 78 65q31 -1 47 -27t10 -61l-20 -98q-27 -131 -95 -207q-36 -41 -69 -41zM645 932q-264 0 -321 -275q-25 -137 -33 -219q-25 -283 262 -282q139 0 264 92l103 616q-123 68 -275 68zM68 -214q0 34 22 58
t52 23q32 0 61 -21q139 -94 267 -94t214 78t109 244q-102 -63 -240 -64q-217 0 -329 119t-93 324q6 70 37 229q80 410 477 410q244 0 406 -121q42 -29 34 -82l-137 -842q-40 -253 -185 -357q-67 -48 -135 -70t-166 -22t-197 38q-99 36 -148 76t-49 74z" />
    <glyph glyph-name="imacron" unicode="&#x12b;" horiz-adv-x="577" 
d="M348 1077q36 -1 59 -29q24 -28 15 -73l-152 -905q-12 -78 -82 -78q-41 0 -64 28t-15 74l151 905q13 78 88 78zM221 1247q-33 -1 -53 19t-21 49q0 29 23 51t59 23h330q33 1 51 -19t18 -49t-21 -51q-22 -22 -56 -23h-330z" />
    <glyph glyph-name="Iogonek" unicode="&#x12e;" horiz-adv-x="583" 
d="M35 -217q-1 -41 27 -63t68 -22t70 22q30 20 50 20q22 0 38 -15t17 -45q0 -30 -49 -66t-134 -36t-149 50q-63 50 -63 139q0 158 231 288q-10 25 -4 66l209 1243q12 78 82 78q41 0 64 -28t16 -73l-213 -1271q-8 -51 -57 -76q-203 -90 -203 -211z" />
    <glyph glyph-name="iogonek" unicode="&#x12f;" horiz-adv-x="579" 
d="M514 1371q0 -42 -30 -76q-30 -33 -74 -33t-72 28q-27 28 -27 71q0 42 31 75q31 32 76 32q44 0 70 -28t26 -69zM106 -420q-82 0 -150 51t-67 142q0 176 240 272q-18 27 -10 76l147 878q14 78 88 78q36 -1 59 -29q24 -28 15 -73l-152 -905q-8 -53 -63 -80
q-197 -82 -197 -201q0 -90 93 -90q41 -1 70 21t51 22t38 -15q18 -15 18 -47t-48 -66q-50 -34 -132 -34z" />
    <glyph glyph-name="Idotaccent" unicode="&#x130;" horiz-adv-x="583" 
d="M354 1645q0 39 30 69t70 31q40 0 64 -24q24 -23 25 -63q0 -40 -30 -70t-70 -30q-41 0 -65 24t-24 63zM408 1442q41 0 64 -28t15 -73l-211 -1271q-12 -78 -86 -78q-36 0 -60 28t-15 74l211 1270q12 78 82 78z" />
    <glyph glyph-name="dotlessi" unicode="&#x131;" horiz-adv-x="530" 
d="M346 1077q36 -1 58 -29q24 -28 16 -73l-152 -905q-12 -78 -82 -78q-44 0 -66 28t-14 74l152 905q13 78 88 78z" />
    <glyph glyph-name="Kcommaaccent" unicode="&#x136;" horiz-adv-x="1296" 
d="M438 -494q-33 0 -50 16t-17 40q0 23 24 51q57 63 72 147l20 115q12 63 78 65q31 0 47 -26q16 -27 11 -61l-21 -99q-27 -131 -94 -207q-37 -41 -70 -41zM193 -8q-39 0 -62 28t-16 68l211 1276q12 78 84 78q42 0 64 -28t13 -68l-88 -531h50q35 0 57 8t57 43l576 545
q35 31 69 31t56 -20t22 -56q0 -35 -37 -70l-612 -567l479 -600q23 -27 23 -59t-23 -55q-24 -23 -64 -23t-69 39l-451 571q-27 33 -47 41t-59 8h-55l-95 -579q-12 -80 -83 -80z" />
    <glyph glyph-name="kcommaaccent" unicode="&#x137;" horiz-adv-x="1093" 
d="M364 -494q-33 0 -50 16t-17 40q0 23 25 51q57 63 71 147l21 115q12 63 77 65q31 0 47 -26q16 -27 11 -61l-21 -99q-27 -131 -94 -207q-37 -41 -70 -41zM410 1454q40 0 64 -28t15 -72l-120 -725h49q41 0 61 9t56 42l372 367q31 31 65 31t56 -21q22 -20 23 -55
q0 -35 -31 -68l-408 -387l310 -418q51 -63 3 -115q-22 -22 -62 -22t-68 41l-289 395q-20 29 -40 38t-63 9h-59l-68 -405q-12 -78 -81 -78q-43 0 -66 28t-14 74l213 1282q12 78 82 78z" />
    <glyph glyph-name="Lacute" unicode="&#x139;" horiz-adv-x="1099" 
d="M736 1827q28 -1 46 -19t18 -54t-57 -62l-290 -138q-14 -8 -39 -8t-44 18q-20 18 -20 56q0 37 45 55l295 142q18 10 46 10zM946 156q39 0 62 -23q22 -23 22 -57t-24 -54q-24 -22 -60 -22h-723q-131 0 -108 131l207 1233q12 78 81 78q41 0 64 -28t14 -73l-198 -1185h663z
" />
    <glyph glyph-name="lacute" unicode="&#x13a;" horiz-adv-x="544" 
d="M726 1827q28 -1 46 -19t18 -54t-57 -62l-291 -138q-14 -8 -38 -8t-44 18t-20 56q0 37 45 55l295 142q18 10 46 10zM395 1454q41 0 65 -28t15 -72l-213 -1284q-12 -78 -82 -78q-40 0 -64 28t-16 74l213 1282q12 78 82 78z" />
    <glyph glyph-name="Lcommaaccent" unicode="&#x13b;" horiz-adv-x="1099" 
d="M455 -494q-33 0 -51 16t-17 40q0 23 25 51q57 63 71 147l21 115q12 63 77 65q31 0 47 -26q16 -27 11 -61l-21 -99q-27 -131 -94 -207q-36 -41 -69 -41zM946 156q39 0 62 -23q22 -23 22 -57t-24 -54q-24 -22 -60 -22h-723q-131 0 -108 131l207 1233q12 78 81 78
q41 0 64 -28t14 -73l-198 -1185h663z" />
    <glyph glyph-name="lcommaaccent" unicode="&#x13c;" horiz-adv-x="544" 
d="M35 -494q-33 0 -50 16t-18 40q0 23 25 51q57 63 71 147l21 115q12 63 78 65q31 0 47 -26q16 -27 10 -61l-20 -99q-27 -131 -95 -207q-36 -41 -69 -41zM395 1454q41 0 65 -28t15 -72l-213 -1284q-12 -78 -82 -78q-40 0 -64 28t-16 74l213 1282q12 78 82 78z" />
    <glyph glyph-name="Lcaron" unicode="&#x13d;" horiz-adv-x="1099" 
d="M691 1116q-34 0 -51 16t-17 41q0 24 28 56q51 55 64 125l20 102q10 66 72 66q33 0 50 -23t11 -57l-18 -94q-25 -116 -75 -174t-84 -58zM946 156q39 0 62 -23q22 -23 22 -57t-24 -54q-24 -22 -60 -22h-723q-131 0 -108 131l207 1233q12 78 81 78q41 0 64 -28t14 -73
l-198 -1185h663z" />
    <glyph glyph-name="lcaron" unicode="&#x13e;" horiz-adv-x="686" 
d="M613 1116q-34 0 -51 16t-17 41q0 24 28 56q51 55 64 125l20 102q10 66 72 66q33 0 50 -23t12 -57l-19 -94q-25 -116 -75 -174t-84 -58zM410 1454q40 0 64 -28t15 -72l-213 -1284q-12 -78 -81 -78q-43 0 -66 28q-22 29 -14 74l213 1282q12 78 82 78z" />
    <glyph glyph-name="Lslash" unicode="&#x141;" horiz-adv-x="1144" 
d="M989 156q39 0 62 -23t23 -57t-26 -54q-24 -22 -61 -22h-721q-131 0 -108 131l69 426l-94 -53q-20 -10 -44 -10t-44 19t-20 58t47 68l188 102l102 623q16 78 82 78q41 0 65 -28t15 -73l-84 -503l205 116q60 29 96 -7q21 -19 21 -58t-51 -68l-301 -168l-84 -497h663z" />
    <glyph glyph-name="lslash" unicode="&#x142;" horiz-adv-x="624" 
d="M62 541q-22 0 -38 18q-18 18 -18 53t43 60l184 102l103 602q12 78 82 78q42 0 64 -28t14 -72l-80 -482l110 62q24 12 48 12t42 -17t18 -52t-46 -62l-201 -110l-104 -635q-12 -78 -82 -78q-41 0 -65 28q-23 29 -15 74l86 512l-103 -57q-20 -8 -42 -8z" />
    <glyph glyph-name="Nacute" unicode="&#x143;" horiz-adv-x="1566" 
d="M1172 1827q28 -1 46 -19t19 -45q0 -45 -57 -71l-291 -138q-14 -8 -39 -8t-44 18q-20 18 -20 56q0 37 45 55l295 142q18 10 46 10zM1395 1442q43 0 65 -29t15 -74l-203 -1198q-27 -150 -144 -149q-90 0 -133 98l-524 1153l-4 -2q-16 -115 -66 -418l-125 -751
q-12 -80 -81 -80q-41 0 -65 28t-15 70l200 1208q25 143 146 144q39 0 67 -18t39 -34q12 -17 27 -49l528 -1140h2q14 109 66 426l123 737q12 78 82 78z" />
    <glyph glyph-name="nacute" unicode="&#x144;" horiz-adv-x="1210" 
d="M957 1489q29 -1 47 -19t18 -45q0 -45 -57 -71l-291 -137q-14 -9 -39 -9t-44 18t-19 56q0 37 44 55l295 142q18 10 46 10zM889 -8q-39 0 -62 28t-14 70l92 549q28 174 -59 239q-71 52 -200 52q-128 0 -261 -80l-129 -780q-12 -78 -82 -78q-44 0 -66 28t-14 74l135 813
q8 49 56 78q176 107 377 107t318 -98q60 -50 86 -140t5 -209l-96 -573q-14 -80 -86 -80z" />
    <glyph glyph-name="Ncommaaccent" unicode="&#x145;" horiz-adv-x="1566" 
d="M551 -494q-33 0 -50 16t-18 40q0 23 25 51q57 63 72 147l20 115q12 63 78 65q31 0 47 -26q16 -27 10 -61l-20 -99q-27 -131 -94 -207q-37 -41 -70 -41zM1395 1442q43 0 65 -29t15 -74l-203 -1198q-27 -150 -144 -149q-90 0 -133 98l-524 1153l-4 -2q-16 -115 -66 -418
l-125 -751q-12 -80 -81 -80q-41 0 -65 28t-15 70l200 1208q25 143 146 144q39 0 67 -18t39 -34q12 -17 27 -49l528 -1140h2q14 109 66 426l123 737q12 78 82 78z" />
    <glyph glyph-name="ncommaaccent" unicode="&#x146;" horiz-adv-x="1210" 
d="M412 -494q-32 0 -50 16t-18 40q0 23 25 51q57 63 71 147l21 115q12 63 77 65q32 0 48 -26q16 -27 10 -61l-21 -99q-27 -131 -94 -207q-36 -41 -69 -41zM889 -8q-39 0 -62 28t-14 70l92 549q28 174 -59 239q-71 52 -200 52q-128 0 -261 -80l-129 -780q-12 -78 -82 -78
q-44 0 -66 28t-14 74l135 813q8 49 56 78q176 107 377 107t318 -98q60 -50 86 -140t5 -209l-96 -573q-14 -80 -86 -80z" />
    <glyph glyph-name="Ncaron" unicode="&#x147;" horiz-adv-x="1566" 
d="M935 1538q-28 0 -56 25l-166 141q-25 18 -25 49t20 51t46 20q27 0 51 -20l141 -121l184 125q23 16 49 16t44 -18t18 -51t-39 -59l-201 -133q-38 -25 -66 -25zM1395 1442q43 0 65 -29t15 -74l-203 -1198q-27 -150 -144 -149q-90 0 -133 98l-524 1153l-4 -2
q-16 -115 -66 -418l-125 -751q-12 -80 -81 -80q-41 0 -65 28t-15 70l200 1208q25 143 146 144q39 0 67 -18t39 -34q12 -17 27 -49l528 -1140h2q14 109 66 426l123 737q12 78 82 78z" />
    <glyph glyph-name="ncaron" unicode="&#x148;" horiz-adv-x="1210" 
d="M702 1206q-28 0 -57 25l-166 141q-25 18 -25 49t20 51q19 20 46 21q27 0 51 -20l142 -121l184 125q23 16 49 16t43 -18q19 -18 19 -51t-39 -60l-201 -133q-38 -25 -66 -25zM889 -8q-39 0 -62 28t-14 70l92 549q28 174 -59 239q-71 52 -200 52q-128 0 -261 -80l-129 -780
q-12 -78 -82 -78q-44 0 -66 28t-14 74l135 813q8 49 56 78q176 107 377 107t318 -98q60 -50 86 -140t5 -209l-96 -573q-14 -80 -86 -80z" />
    <glyph glyph-name="Omacron" unicode="&#x14c;" horiz-adv-x="1413" 
d="M719 1571q-35 0 -54 19t-20 48q0 29 23 52t59 22h330q33 0 51 -19t18 -48t-22 -52t-55 -22h-330zM787 1294q-183 0 -305 -114t-165 -308q-21 -96 -39 -240q-34 -261 104 -376q137 -115 301 -115q165 1 282 103t157 273t56 351q14 180 -97 303t-294 123zM790 1456
q262 0 421 -179t132 -439q-23 -190 -43 -297q-50 -269 -212 -415t-405 -146t-422 160q-85 77 -128 202q-43 126 -25 272t39 265q49 265 215 421t428 156z" />
    <glyph glyph-name="omacron" unicode="&#x14d;" horiz-adv-x="1146" 
d="M532 1247q-33 -1 -53 19t-20 49q1 29 23 51t59 23h329q34 1 52 -19t18 -49t-22 -51t-56 -23h-330zM614 932q-254 0 -317 -283q-19 -93 -33 -225t74 -208t209 -77q248 0 311 283q21 101 31 205q16 147 -70 226t-205 79zM620 1092q184 0 316 -123t115 -336
q-29 -404 -202 -551q-121 -102 -305 -102t-320 122t-120 336q29 410 208 554q124 100 308 100z" />
    <glyph glyph-name="Ohungarumlaut" unicode="&#x150;" horiz-adv-x="1413" 
d="M1010 1542q-30 0 -48 18q-20 18 -20 51q0 32 33 60l205 162q28 27 58 27t50 -20t20 -52q0 -30 -30 -57l-209 -164q-29 -25 -59 -25zM674 1542q-30 0 -50 18t-20 51q0 32 33 60l203 162q30 27 60 27t49 -20t19 -52t-28 -57l-209 -164q-27 -25 -57 -25zM787 1294
q-183 0 -305 -114t-165 -308q-21 -96 -39 -240q-34 -261 104 -376q137 -115 301 -115q165 1 282 103t157 273t56 351q14 180 -97 303t-294 123zM790 1456q262 0 421 -179t132 -439q-23 -190 -43 -297q-50 -269 -212 -415t-405 -146t-422 160q-85 77 -128 202
q-43 126 -25 272t39 265q49 265 215 421t428 156z" />
    <glyph glyph-name="ohungarumlaut" unicode="&#x151;" horiz-adv-x="1146" 
d="M866 1206q-31 0 -50 18t-19 51q0 32 32 60l205 162q27 27 58 27t51 -20q21 -20 21 -52q0 -30 -31 -57l-209 -164q-27 -25 -58 -25zM527 1206q-30 0 -49 18t-19 51q0 32 33 60l202 162q31 27 61 27t49 -20q20 -20 20 -52t-29 -57l-209 -164q-29 -25 -59 -25zM614 932
q-254 0 -317 -283q-19 -93 -33 -225t74 -208t209 -77q248 0 311 283q21 101 31 205q16 147 -70 226t-205 79zM620 1092q184 0 316 -123t115 -336q-29 -404 -202 -551q-121 -102 -305 -102t-320 122t-120 336q29 410 208 554q124 100 308 100z" />
    <glyph glyph-name="OE" unicode="&#x152;" horiz-adv-x="2109" 
d="M821 1294q-416 0 -508 -434q-25 -135 -41 -258q-23 -203 89 -332t350 -129q168 1 272 21l182 1116q-145 16 -344 16zM2009 1438q39 0 62 -24t23 -58t-26 -54q-25 -22 -61 -22h-676l-80 -483h621q36 0 58 -22q22 -23 22 -55t-24 -52t-58 -21h-641l-82 -491h665
q39 0 62 -23q22 -23 22 -57t-24 -54q-24 -22 -62 -22h-723q-14 0 -156 -10t-241 -10q-284 0 -448 175t-136 453q10 113 39 269q119 580 689 579l499 -18h676z" />
    <glyph glyph-name="oe" unicode="&#x153;" horiz-adv-x="1855" 
d="M557 -20q-184 0 -320 111q-67 55 -103 145t-29 189t44 279t162 284q125 103 305 104q128 0 224 -54t149 -141q135 195 379 195q179 0 305 -116t78 -349l-8 -35q-27 -119 -139 -119h-588l-6 -47q-18 -137 62 -212t208 -75q127 0 256 62q24 10 48 10t44 -24t21 -50
q0 -51 -64 -84q-139 -73 -277 -73t-241 48q-102 48 -149 138q-135 -186 -361 -186zM549 139q244 0 309 275q14 68 32 207t-63 225q-82 86 -212 86q-131 0 -209 -74t-102 -192t-38 -243q-14 -126 72 -205t211 -79zM1556 606q33 0 41 31q39 155 -31 229t-207 74
q-136 0 -215 -81t-108 -253h520z" />
    <glyph glyph-name="Racute" unicode="&#x154;" horiz-adv-x="1382" 
d="M1041 1827q28 -1 46 -19q19 -18 19 -54t-57 -62l-291 -138q-14 -8 -39 -8t-44 18t-19 56q0 37 44 55l295 142q18 10 46 10zM690 721q213 0 320 83q106 83 106 214q0 130 -85 196t-232 66h-324l-92 -559h307zM614 573h-256l-82 -501q-12 -80 -81 -80q-41 0 -65 28t-15 72
l202 1223q20 123 142 123h338q227 0 359 -109t132 -290t-112 -301t-318 -146l293 -465q18 -27 18 -59q-1 -32 -23 -54t-64 -22t-74 49l-293 467q-23 37 -41 51q-19 14 -60 14z" />
    <glyph glyph-name="racute" unicode="&#x155;" horiz-adv-x="772" 
d="M779 1487q28 -1 46 -19q19 -18 19 -54t-58 -62l-290 -138q-14 -8 -39 -8t-44 18t-19 56q0 37 44 55l295 142q18 10 46 10zM750 901q-24 0 -84 14q-59 15 -124 15t-115 -44t-67 -155l-108 -661q-12 -78 -82 -78q-43 0 -66 28t-14 74l113 672q55 326 360 326q101 0 193 -31
q66 -23 65 -82q1 -35 -23 -57t-48 -21z" />
    <glyph glyph-name="Rcommaaccent" unicode="&#x156;" horiz-adv-x="1382" 
d="M455 -494q-33 0 -51 16t-17 40q0 23 25 51q57 63 71 147l21 115q12 63 77 65q31 0 47 -26q16 -27 11 -61l-21 -99q-27 -131 -94 -207q-36 -41 -69 -41zM690 721q213 0 320 83q106 83 106 214q0 130 -85 196t-232 66h-324l-92 -559h307zM614 573h-256l-82 -501
q-12 -80 -81 -80q-41 0 -65 28t-15 72l202 1223q20 123 142 123h338q227 0 359 -109t132 -290t-112 -301t-318 -146l293 -465q18 -27 18 -59q-1 -32 -23 -54t-64 -22t-74 49l-293 467q-23 37 -41 51q-19 14 -60 14z" />
    <glyph glyph-name="rcommaaccent" unicode="&#x157;" horiz-adv-x="772" 
d="M31 -494q-33 0 -50 16t-18 40q0 23 25 51q57 63 71 147l21 115q12 64 72 66q37 0 53 -27t10 -61l-20 -99q-27 -131 -95 -207q-36 -41 -69 -41zM754 901q-24 0 -84 14q-59 15 -124 15t-115 -44t-66 -155l-109 -661q-12 -78 -82 -78q-44 0 -66 28t-14 74l113 672
q55 326 360 326q101 0 193 -31q66 -23 65 -82q1 -35 -23 -57t-48 -21z" />
    <glyph glyph-name="Rcaron" unicode="&#x158;" horiz-adv-x="1382" 
d="M788 1538q-28 0 -57 25l-166 141q-25 18 -25 49t20 51q19 20 46 20t51 -20l142 -121l184 125q54 38 92 -2q19 -18 19 -51t-39 -59l-201 -133q-38 -25 -66 -25zM690 721q213 0 320 83q106 83 106 214q0 130 -85 196t-232 66h-324l-92 -559h307zM614 573h-256l-82 -501
q-12 -80 -81 -80q-41 0 -65 28t-15 72l202 1223q20 123 142 123h338q227 0 359 -109t132 -290t-112 -301t-318 -146l293 -465q18 -27 18 -59q-1 -32 -23 -54t-64 -22t-74 49l-293 467q-23 37 -41 51q-19 14 -60 14z" />
    <glyph glyph-name="rcaron" unicode="&#x159;" horiz-adv-x="772" 
d="M566 1204q-28 0 -56 25l-166 141q-25 18 -25 49q-1 31 19 51t47 20t51 -20l142 -120l184 125q22 16 48 16t44 -18q18 -17 18 -51t-38 -60l-201 -133q-39 -25 -67 -25zM750 901q-24 0 -84 14q-59 15 -124 15t-115 -44t-67 -155l-108 -661q-12 -78 -82 -78q-43 0 -66 28
t-14 74l113 672q55 326 360 326q101 0 193 -31q66 -23 65 -82q1 -35 -23 -57t-48 -21z" />
    <glyph glyph-name="Sacute" unicode="&#x15a;" horiz-adv-x="1275" 
d="M1033 1827q28 -1 46 -19q19 -18 19 -54t-58 -62l-290 -138q-14 -8 -39 -8t-44 18t-19 56q0 37 44 55l295 142q18 10 46 10zM1110 395q0 -182 -142 -299t-362 -116q-164 0 -316 54t-224 124q-35 32 -35 68t27 65t80 12q15 -5 35 -19l28 -20q67 -45 175 -84t239 -39t229 69
t98 177t-89 164q-65 42 -184 84q-120 43 -185 74q-185 88 -238 193q-35 67 -35 153q0 186 140 294t351 107q129 0 252 -38q240 -74 240 -171q0 -31 -22 -55t-58 -25q-36 0 -76 27q-164 100 -328 100t-248 -70t-83 -165q-1 -95 75 -147t202 -97t188 -74q181 -84 233 -191
q33 -67 33 -155z" />
    <glyph glyph-name="sacute" unicode="&#x15b;" horiz-adv-x="1032" 
d="M888 1489q28 -1 46 -19t18 -45q0 -45 -57 -71l-291 -137q-14 -9 -39 -9t-44 18t-19 56q0 37 45 55l295 142q18 10 46 10zM489 -20q-125 0 -239 47t-157 88q-42 41 -42 73t23 55q45 47 112 -1q156 -113 299 -113q98 0 161 47q62 47 62 116t-55 105q-56 36 -119 61
q-193 76 -270 148q-78 72 -78 180q0 146 112 226t240 80t220 -33q174 -63 174 -139q0 -31 -20 -53q-20 -21 -51 -21q-32 0 -62 20q-121 74 -223 74t-165 -42t-63 -104t44 -98q44 -34 127 -68t114 -47t87 -45q153 -87 151 -233q-1 -145 -107 -234t-275 -89z" />
    <glyph glyph-name="Scedilla" unicode="&#x15e;" horiz-adv-x="1275" 
d="M41 226q0 36 27 65t80 12q15 -5 35 -19l28 -20q67 -45 175 -84t239 -39t229 69t98 177t-89 164q-65 42 -184 84q-121 43 -185 74q-186 89 -238 193q-35 67 -35 153q0 186 140 294t352 107q129 0 252 -38q239 -74 239 -171q0 -31 -22 -55t-57 -25q-36 0 -76 27
q-164 100 -328 100t-248 -70t-84 -165t76 -147q75 -52 201 -97t188 -74q181 -84 233 -191q33 -67 33 -155q0 -182 -142 -299t-362 -116h-14v-3l-45 -79q72 0 119 -43t47 -111q0 -96 -81 -160t-187 -92q-37 -6 -51 -6t-31 15q-16 15 -17 38q0 43 52 61t82 27q30 10 71 43
t41 72q0 55 -63 55l-68 -12q-31 0 -44 25t1 55l61 125q-131 18 -243 65t-170 103q-35 32 -35 68z" />
    <glyph glyph-name="scedilla" unicode="&#x15f;" horiz-adv-x="1017" 
d="M49 188q0 31 23 55q45 47 112 -1q147 -106 299 -107q100 0 162 44q61 44 61 113t-55 105q-56 36 -119 61q-193 76 -270 148q-78 72 -78 180q0 146 112 226t240 80t220 -33q174 -63 174 -139q0 -31 -20 -53q-20 -21 -51 -21q-32 0 -62 20q-121 74 -223 74t-165 -42
t-63 -104t44 -98q44 -34 127 -68t114 -47t87 -45q153 -87 150 -239q0 -135 -101 -223t-261 -94v-3l-45 -79q72 0 119 -43t47 -111q0 -96 -81 -160t-188 -92q-38 -6 -52 -6t-30 15t-16 38q0 43 52 61t82 27q30 10 71 43t41 72q0 55 -64 55l-67 -12q-31 0 -44 25t1 55l63 125
q-100 14 -187 54q-159 73 -159 144z" />
    <glyph glyph-name="Scaron" unicode="&#x160;" horiz-adv-x="1275" 
d="M785 1538q-28 0 -56 25l-166 141q-25 18 -25 49t20 51q19 20 46 20t51 -20l142 -121l184 125q54 38 92 -2q19 -18 19 -51t-39 -59l-201 -133q-39 -25 -67 -25zM1112 395q0 -182 -142 -299t-362 -116q-164 0 -316 54t-224 124q-35 32 -35 68t27 65t80 12q15 -5 35 -19
l28 -20q67 -45 175 -84t239 -39t229 69t98 177t-89 164q-65 42 -184 84q-120 43 -185 74q-185 88 -238 193q-35 67 -35 153q0 186 140 294t352 107q129 0 251 -38q240 -74 240 -171q0 -31 -22 -55t-57 -25q-36 0 -77 27q-164 100 -328 100t-247 -70q-84 -70 -84 -165
q-1 -95 75 -147t202 -97t188 -74q181 -84 233 -191q33 -67 33 -155z" />
    <glyph glyph-name="scaron" unicode="&#x161;" horiz-adv-x="1030" 
d="M656 1182q-28 0 -56 24l-166 142q-24 18 -24 49t19 51t46 20t51 -20l142 -121l184 125q22 16 48 16t44 -18t18 -51t-38 -60l-201 -133q-39 -24 -67 -24zM489 -20q-125 0 -239 47t-157 88q-42 41 -42 73t23 55q45 47 112 -1q156 -113 299 -113q98 0 161 47q62 47 62 116
t-55 105q-56 36 -119 61q-193 76 -270 148q-78 72 -78 180q0 146 112 226t240 80t220 -33q174 -63 174 -139q0 -31 -20 -53q-20 -21 -51 -21q-32 0 -62 20q-121 74 -223 74t-165 -42t-63 -104t44 -98q44 -34 127 -68t114 -47t87 -45q153 -87 151 -233q-1 -145 -107 -234
t-275 -89z" />
    <glyph glyph-name="Tcommaaccent" unicode="&#x162;" horiz-adv-x="1159" 
d="M287 -584q-33 0 -50 16t-18 40q0 23 25 51q57 63 71 147l21 115q14 65 78 65q32 0 47 -26q16 -26 10 -62l-20 -98q-27 -131 -95 -207q-36 -41 -69 -41zM176 1280q-40 0 -62 22t-22 56t25 58q25 22 59 22h989q39 0 62 -24t23 -58t-26 -54q-24 -22 -59 -22h-422l-204 -1206
q-12 -82 -82 -82q-39 0 -63 28t-15 70l199 1190h-402z" />
    <glyph glyph-name="tcommaaccent" unicode="&#x163;" horiz-adv-x="856" 
d="M280 -494q-33 0 -50 16t-17 40q0 23 25 51q57 63 71 147l21 115q12 63 77 65q31 0 47 -26q16 -27 11 -61l-21 -99q-27 -131 -94 -207q-37 -41 -70 -41zM449 -20q-170 0 -252 98t-50 293l140 839q14 86 90 86q39 0 59 -26t15 -62l-27 -166h293q37 0 59 -20t21 -53
q0 -33 -24 -53t-58 -21h-316l-92 -539q-39 -217 142 -217q47 -1 101 23t82 24t48 -22t20 -53q0 -53 -59 -84q-90 -47 -192 -47z" />
    <glyph glyph-name="Tcaron" unicode="&#x164;" horiz-adv-x="1159" 
d="M697 1538q-28 0 -56 25l-166 141q-25 18 -25 49t20 51q19 20 46 20t51 -20l142 -121l184 125q54 38 92 -2q19 -18 19 -51t-39 -59l-201 -133q-39 -25 -67 -25zM176 1280q-40 0 -62 22t-22 56t25 58q25 22 59 22h989q39 0 62 -24t23 -58t-26 -54q-24 -22 -59 -22h-422
l-204 -1206q-12 -82 -82 -82q-39 0 -63 28t-15 70l199 1190h-402z" />
    <glyph glyph-name="tcaron" unicode="&#x165;" horiz-adv-x="858" 
d="M638 1116q-34 0 -51 16q-41 39 11 96q51 56 64 126l20 102q10 66 72 66q33 0 50 -23t11 -57l-18 -94q-25 -116 -75 -174t-84 -58zM449 -20q-170 0 -252 98t-50 293l140 839q14 86 90 86q39 0 59 -26t15 -62l-27 -166h293q37 0 59 -20t21 -53q0 -33 -24 -53t-58 -21h-316
l-92 -539q-39 -217 142 -217q47 -1 101 23t82 24t48 -22t20 -53q0 -53 -59 -84q-90 -47 -192 -47z" />
    <glyph glyph-name="Umacron" unicode="&#x16a;" horiz-adv-x="1452" 
d="M719 1571q-35 0 -54 19t-20 48q0 29 23 52t59 22h330q33 0 51 -19t18 -48t-22 -52t-55 -22h-330zM356 1442q39 0 63 -28t15 -73l-121 -714q-23 -131 4 -231t89 -151q123 -104 289 -104q167 0 277 111t144 319l133 793q12 78 84 78q41 0 63 -30t15 -71l-131 -786
q-49 -295 -204 -435t-391 -140t-402 155q-84 78 -121 211t-8 305l118 713q12 78 84 78z" />
    <glyph glyph-name="umacron" unicode="&#x16b;" horiz-adv-x="1183" 
d="M541 1247q-33 -1 -53 19t-21 49q1 29 23 51t59 23h330q33 1 51 -19t18 -49t-22 -51t-56 -23h-329zM301 1077q39 1 63 -27t15 -71l-84 -516q-29 -172 43 -248t214 -76t255 74l129 786q12 78 84 78q38 -1 62 -29t16 -73l-135 -813q-8 -45 -50 -74q-151 -108 -367 -108
t-335 132t-80 369l86 514q12 82 84 82z" />
    <glyph glyph-name="Uring" unicode="&#x16e;" horiz-adv-x="1452" 
d="M910 1823q-44 0 -74 -33t-29 -73q-1 -41 23 -65t69 -24t73 32t28 73t-24 65q-22 24 -66 25zM1096 1739q0 -81 -56 -143t-142 -62q-85 0 -136 51t-51 130t56 141q57 62 145 63q88 0 136 -50t48 -130zM356 1442q39 0 63 -28t15 -73l-121 -714q-23 -131 4 -231t89 -151
q123 -104 289 -104q167 0 277 111t144 319l133 793q12 78 84 78q41 0 63 -30t15 -71l-131 -786q-49 -295 -204 -435t-391 -140t-402 155q-84 78 -121 211t-8 305l118 713q12 78 84 78z" />
    <glyph glyph-name="uring" unicode="&#x16f;" horiz-adv-x="1183" 
d="M715 1303q45 -1 73 31t27 73q0 41 -22 66q-23 25 -67 25t-74 -34q-30 -32 -30 -72t24 -65q24 -24 69 -24zM911 1413q0 -81 -56 -143t-141 -62t-136 52q-52 52 -52 130t56 140t145 63q88 0 136 -50t48 -130zM301 1077q39 1 63 -27t15 -71l-84 -516q-29 -172 43 -248
t214 -76t255 74l129 786q12 78 84 78q38 -1 62 -29t16 -73l-135 -813q-8 -45 -50 -74q-151 -108 -367 -108t-335 132t-80 369l86 514q12 82 84 82z" />
    <glyph glyph-name="Uhungarumlaut" unicode="&#x170;" horiz-adv-x="1452" 
d="M1039 1542q-30 0 -49 18t-19 51q0 32 33 60l204 162q27 27 58 27t51 -20q21 -20 21 -52q0 -30 -31 -57l-209 -164q-29 -25 -59 -25zM702 1542q-31 0 -50 18t-19 51q0 32 33 60l202 162q31 27 61 27t49 -20q20 -20 20 -52t-29 -57l-209 -164q-27 -25 -58 -25zM356 1442
q39 0 63 -28t15 -73l-121 -714q-23 -131 4 -231t89 -151q123 -104 289 -104q167 0 277 111t144 319l133 793q12 78 84 78q41 0 63 -30t15 -71l-131 -786q-49 -295 -204 -435t-391 -140t-402 155q-84 78 -121 211t-8 305l118 713q12 78 84 78z" />
    <glyph glyph-name="uhungarumlaut" unicode="&#x171;" horiz-adv-x="1183" 
d="M859 1208q-30 0 -49 18t-19 51q0 32 32 60l205 162q28 27 58 27t50 -20t21 -52q0 -30 -31 -57l-208 -164q-29 -25 -59 -25zM522 1208q-31 0 -50 18t-19 51q0 32 32 60l203 162q31 27 61 27t49 -20t19 -52t-29 -57l-208 -164q-27 -25 -58 -25zM301 1077q39 1 63 -27
t15 -71l-84 -516q-29 -172 43 -248t214 -76t255 74l129 786q12 78 84 78q38 -1 62 -29t16 -73l-135 -813q-8 -45 -50 -74q-151 -108 -367 -108t-335 132t-80 369l86 514q12 82 84 82z" />
    <glyph glyph-name="Uogonek" unicode="&#x172;" horiz-adv-x="1452" 
d="M684 -301q38 1 68 21t52 20t38 -15t16 -44t-48 -66t-136 -37t-150 53q-61 53 -61 136q0 135 131 223q-207 32 -342 181q-70 77 -97 201q-28 124 -1 279l118 713q12 78 82 78q41 0 65 -28t15 -73l-121 -714q-56 -360 223 -459q75 -27 162 -27q164 0 274 110t144 320
l133 793q11 76 87 78q36 0 60 -28t15 -73l-127 -761q-45 -274 -159 -408t-308 -180q-73 -16 -151 -72t-78 -133q0 -88 96 -88z" />
    <glyph glyph-name="uogonek" unicode="&#x173;" horiz-adv-x="1183" 
d="M695 -385q-83 0 -147 54q-64 53 -65 145q0 92 82 170h-41q-200 0 -316 132t-77 365l86 514q12 82 86 82q37 1 61 -27t15 -71l-84 -516q-27 -170 43 -247t212 -77t257 74l129 786q12 78 84 78q42 -1 64 -29t14 -73l-133 -801q-11 -62 -61 -90q-28 -16 -89 -47t-98 -53
t-71 -63q-34 -42 -34 -88t27 -73q27 -26 65 -26t85 29t77 -3q16 -18 16 -49t-52 -63t-135 -33z" />
    <glyph glyph-name="Wcircumflex" unicode="&#x174;" horiz-adv-x="1878" 
d="M852 1536q-24 0 -42 17q-17 17 -17 49t38 59l213 143q35 23 70 23t62 -27l153 -143q29 -29 29 -57t-18 -47t-46 -19q-27 0 -55 22l-135 127l-201 -133q-27 -14 -51 -14zM1864 1442q34 0 60 -23t26 -51t-8 -45l-476 -1217q-47 -127 -157 -126q-59 0 -103 37
q-43 38 -51 112l-104 1124q1 7 -7 6q-8 -2 -10 -6l-481 -1147q-53 -127 -158 -126q-61 0 -106 40t-47 105l-72 1214q-2 47 23 75t61 28t62 -20q24 -20 26 -58l57 -1194q0 -19 16 -11q5 3 7 9l479 1143q55 131 158 131q55 0 93 -39t44 -111l102 -1124q0 -6 9 -11t14 11
l455 1202q27 72 88 72z" />
    <glyph glyph-name="wcircumflex" unicode="&#x175;" horiz-adv-x="1644" 
d="M641 1269q0 32 39 58l213 143q35 23 70 23t61 -27l154 -143q55 -55 12 -101t-103 1l-135 127l-200 -133q-61 -31 -94 3q-17 18 -17 49zM1568 1077q48 0 72 -35t2 -86l-378 -854q-53 -123 -152 -122q-59 0 -98 36t-45 103l-78 745q-2 18 -14 19q-8 0 -15 -15l-336 -764
q-30 -68 -64 -96t-87 -28t-93 36t-49 105l-98 852q-6 49 18 77t66 27q72 0 80 -80l70 -649q0 -6 6 -188q2 -18 18 -19q11 -1 19 17t26 75t41 101l279 631q47 113 141 112q111 0 125 -129l66 -608q4 -34 6 -98t4 -82t14 -19q12 0 21 24t29 78q19 54 30 76l301 697
q25 61 73 61z" />
    <glyph glyph-name="Ycircumflex" unicode="&#x176;" horiz-adv-x="1269" 
d="M538 1536q-24 0 -41 17t-17 49t38 59l213 143q35 23 70 23t61 -27l154 -143q28 -29 28 -57t-18 -47t-45 -19t-55 22l-135 127l-201 -133q-28 -14 -52 -14zM184 1442q42 0 70 -47l373 -594l583 610q31 31 68 31q38 0 62 -20t24 -59q0 -38 -33 -69l-583 -602
q-53 -55 -60 -100l-86 -520q-12 -80 -82 -80q-40 0 -64 28t-16 70l84 502q9 51 -26 106l-385 607q-43 69 5 115q24 22 66 22z" />
    <glyph glyph-name="ycircumflex" unicode="&#x177;" horiz-adv-x="1042" 
d="M338 1271q0 32 39 58l213 144q76 50 131 -5l153 -143q29 -29 29 -57t-18 -46q-42 -44 -101 3l-135 127l-200 -133q-61 -31 -94 3q-17 18 -17 49zM471 250q8 0 14 12q59 125 93 187l317 569q33 59 83 59t70 -41t-8 -86l-524 -927q-162 -289 -336 -392q-95 -61 -149 -12
q-23 20 -23 58t53 67q164 86 299 324l-239 893q-13 51 11 83t67 33q64 0 84 -78l145 -542q18 -76 31 -191q4 -16 12 -16z" />
    <glyph glyph-name="Ydieresis" unicode="&#x178;" horiz-adv-x="1269" 
d="M923 1640q41 0 65 -24t24 -63t-30 -69t-70 -30t-64 24t-25 62q0 38 30 70q30 30 70 30zM595 1640q41 0 65 -24t24 -63t-30 -69t-70 -30t-64 24t-24 62t29 70q30 30 70 30zM184 1442q42 0 70 -47l373 -594l583 610q31 31 68 31q38 0 62 -20t24 -59q0 -38 -33 -69
l-583 -602q-53 -55 -60 -100l-86 -520q-12 -80 -82 -80q-40 0 -64 28t-16 70l84 502q9 51 -26 106l-385 607q-43 69 5 115q24 22 66 22z" />
    <glyph glyph-name="Zacute" unicode="&#x179;" horiz-adv-x="1193" 
d="M1017 1827q28 -1 46 -19t18 -45q0 -45 -57 -71l-291 -138q-14 -8 -39 -8t-44 18t-19 56q0 37 45 55l295 142q18 10 46 10zM946 0h-819q-57 0 -88 29t-31 75t55 107l922 1069h-688q-39 0 -61 23t-23 55q0 32 26 56t60 24h799q57 0 86 -28q69 -67 -29 -185l-922 -1069h715
q39 0 62 -23q22 -23 22 -57t-24 -54q-24 -22 -62 -22z" />
    <glyph glyph-name="zacute" unicode="&#x17a;" horiz-adv-x="1007" 
d="M865 1489q28 -1 46 -19q19 -18 19 -54t-58 -62l-290 -137q-14 -9 -39 -9t-44 18t-19 56q0 37 44 55l295 142q18 10 46 10zM772 156q37 0 56 -23q20 -23 20 -55t-24 -56q-24 -22 -58 -22h-623q-51 0 -80 28t-29 68t42 86l682 719h-490q-38 0 -60 23q-22 24 -22 56t24 54
t58 23h592q59 0 89 -29t30 -71t-39 -85l-678 -716h510z" />
    <glyph glyph-name="Zdotaccent" unicode="&#x17b;" horiz-adv-x="1193" 
d="M773 1745q40 0 65 -24q24 -23 24 -63t-30 -70t-69 -30q-40 0 -65 24t-24 63q0 39 30 69t69 31zM946 0h-819q-57 0 -88 29t-31 75t55 107l922 1069h-688q-39 0 -61 23t-23 55q0 32 26 56t60 24h799q57 0 86 -28q69 -67 -29 -185l-922 -1069h715q39 0 62 -23q22 -23 22 -57
t-24 -54q-24 -22 -62 -22z" />
    <glyph glyph-name="zdotaccent" unicode="&#x17c;" horiz-adv-x="1007" 
d="M648 1411q40 1 65 -23t25 -64t-30 -70t-70 -30t-65 24t-24 63q-1 39 29 69t70 31zM772 156q37 0 56 -23q20 -23 20 -55t-24 -56q-24 -22 -58 -22h-623q-51 0 -80 28t-29 68t42 86l682 719h-490q-38 0 -60 23q-22 24 -22 56t24 54t58 23h592q59 0 89 -29t30 -71t-39 -85
l-678 -716h510z" />
    <glyph glyph-name="Zcaron" unicode="&#x17d;" horiz-adv-x="1193" 
d="M732 1538q-28 0 -56 25l-166 141q-25 18 -25 49q-1 31 19 51t47 20t51 -20l141 -121l185 125q54 38 92 -2q18 -18 18 -51t-39 -59l-200 -133q-39 -25 -67 -25zM946 0h-819q-57 0 -88 29t-31 75t55 107l922 1069h-688q-39 0 -61 23t-23 55q0 32 26 56t60 24h799
q57 0 86 -28q69 -67 -29 -185l-922 -1069h715q39 0 62 -23q22 -23 22 -57t-24 -54q-24 -22 -62 -22z" />
    <glyph glyph-name="zcaron" unicode="&#x17e;" horiz-adv-x="1007" 
d="M622 1206q-28 0 -57 25l-166 141q-25 18 -25 49t20 51q19 20 46 21q27 0 52 -20l141 -121l184 125q23 16 49 16t43 -18q19 -18 19 -51t-39 -60l-201 -133q-38 -25 -66 -25zM772 156q37 0 56 -23q20 -23 20 -55t-24 -56q-24 -22 -58 -22h-623q-51 0 -80 28t-29 68t42 86
l682 719h-490q-38 0 -60 23q-22 24 -22 56t24 54t58 23h592q59 0 89 -29t30 -71t-39 -85l-678 -716h510z" />
    <glyph glyph-name="florin" unicode="&#x192;" horiz-adv-x="1136" 
d="M94 -416q-58 0 -80 36q-23 36 -8 81l287 940h-90q-35 0 -59 22q-24 23 -24 57t24 56t59 21h139l129 413q37 118 125 180t205 62q203 0 317 -119q25 -29 25 -63t-23 -56q-22 -22 -56 -22t-67 29q-74 66 -184 65q-141 0 -188 -143l-105 -346h299q37 0 61 -22q24 -21 24 -55
t-24 -56t-61 -23h-348l-303 -995q-16 -62 -74 -62z" />
    <glyph glyph-name="Scommaaccent" unicode="&#x218;" horiz-adv-x="1275" 
d="M444 -494q-33 0 -50 16t-17 40q0 23 24 51q57 63 72 147l21 115q12 63 77 65q31 0 47 -26q16 -27 11 -61l-21 -99q-27 -131 -94 -207q-37 -41 -70 -41zM1112 395q0 -182 -142 -299t-362 -116q-164 0 -316 54t-224 124q-35 32 -35 68t27 65t80 12q15 -5 35 -19l28 -20
q67 -45 175 -84t239 -39t229 69t98 177t-89 164q-65 42 -184 84q-120 43 -185 74q-185 88 -238 193q-35 67 -35 153q0 186 140 294t352 107q129 0 251 -38q240 -74 240 -171q0 -31 -22 -55t-57 -25q-36 0 -77 27q-164 100 -328 100t-247 -70q-84 -70 -84 -165
q-1 -95 75 -147t202 -97t188 -74q181 -84 233 -191q33 -67 33 -155z" />
    <glyph glyph-name="scommaaccent" unicode="&#x219;" horiz-adv-x="1017" 
d="M338 -494q-33 0 -50 16t-18 40q0 23 25 51q57 63 72 147l20 115q12 63 78 65q31 0 47 -26q16 -27 10 -61l-20 -99q-27 -131 -94 -207q-37 -41 -70 -41zM489 -20q-125 0 -239 47t-157 88q-42 41 -42 73t23 55q45 47 112 -1q156 -113 299 -113q98 0 161 47q62 47 62 116
t-55 105q-56 36 -119 61q-193 76 -270 148q-78 72 -78 180q0 146 112 226t240 80t220 -33q174 -63 174 -139q0 -31 -20 -53q-20 -21 -51 -21q-32 0 -62 20q-121 74 -223 74t-165 -42t-63 -104t44 -98q44 -34 127 -68t114 -47t87 -45q153 -87 151 -233q-1 -145 -107 -234
t-275 -89z" />
    <glyph glyph-name="circumflex" unicode="&#x2c6;" horiz-adv-x="698" 
d="M236 1536q-24 0 -42 17t-18 49t39 59l213 143q35 23 70 23t61 -27l154 -143q29 -29 29 -57t-19 -47q-18 -19 -45 -19t-55 22l-136 127l-200 -133q-27 -14 -51 -14z" />
    <glyph glyph-name="caron" unicode="&#x2c7;" horiz-adv-x="698" 
d="M470 1538q-28 0 -56 25l-166 141q-25 18 -25 49q-1 31 19 51t47 20t51 -20l141 -121l185 125q54 38 92 -2q18 -18 18 -51t-39 -59l-200 -133q-39 -25 -67 -25z" />
    <glyph glyph-name="breve" unicode="&#x2d8;" horiz-adv-x="698" 
d="M503 1550q-85 0 -147 39q-61 39 -86 115q-10 36 -10 64t20 46t48 17q47 0 59 -64q27 -92 115 -92t131 103q20 53 67 53q27 0 44 -16q35 -33 4 -97q-28 -70 -94 -119t-151 -49z" />
    <glyph glyph-name="dotaccent" unicode="&#x2d9;" horiz-adv-x="698" 
d="M391 1645q0 39 30 69t70 31q41 0 65 -24q24 -23 24 -63t-30 -70t-70 -30t-64 24t-25 63z" />
    <glyph glyph-name="ring" unicode="&#x2da;" horiz-adv-x="702" 
d="M500 1628q44 0 72 32t28 73t-22 65t-67 25q-44 0 -74 -33q-29 -33 -29 -73q0 -41 24 -65t68 -24zM696 1739q0 -81 -56 -143t-141 -62t-137 51q-51 51 -51 130q1 79 57 141t144 63q88 0 136 -50t48 -130z" />
    <glyph glyph-name="ogonek" unicode="&#x2db;" horiz-adv-x="698" 
d="M383 -213q0 -45 28 -65q29 -20 65 -21t70 21t53 22t37 -16t17 -48q0 -32 -52 -65t-133 -33q-82 0 -146 51t-64 144q0 205 297 317q20 10 41 10t35 -15t14 -38q0 -37 -49 -55q-213 -90 -213 -209z" />
    <glyph glyph-name="tilde" unicode="&#x2dc;" horiz-adv-x="698" 
d="M592 1540q-60 0 -134 39q-73 39 -102 39q-30 0 -66 -30t-61 -30t-44 20q-19 19 -19 48t37 57q74 70 159 70q51 0 125 -39t101 -39q26 0 66 31t65 31q25 -1 44 -19t19 -48t-43 -66q-87 -64 -147 -64z" />
    <glyph glyph-name="hungarumlaut" unicode="&#x2dd;" horiz-adv-x="698" 
d="M530 1542q-31 0 -50 18t-19 51q0 32 33 60l204 162q27 27 58 27t51 -20q21 -20 21 -52q0 -30 -31 -57l-209 -164q-27 -25 -58 -25zM192 1542q-31 0 -50 18t-19 51q0 32 33 60l202 162q31 27 61 27t49 -20q20 -20 20 -52t-29 -57l-209 -164q-27 -25 -58 -25z" />
    <glyph glyph-name="Wgrave" unicode="&#x1e80;" horiz-adv-x="1878" 
d="M1190 1615q0 -35 -20 -53t-47 -18q-28 0 -48 12l-258 142q-39 18 -39 55t20 56q36 35 93 8l262 -148q37 -20 37 -54zM1864 1442q34 0 60 -23t26 -51t-8 -45l-476 -1217q-47 -127 -157 -126q-59 0 -103 37q-43 38 -51 112l-104 1124q1 7 -7 6q-8 -2 -10 -6l-481 -1147
q-53 -127 -158 -126q-61 0 -106 40t-47 105l-72 1214q-2 47 23 75t61 28t62 -20q24 -20 26 -58l57 -1194q0 -19 16 -11q5 3 7 9l479 1143q55 131 158 131q55 0 93 -39t44 -111l102 -1124q0 -6 9 -11t14 11l455 1202q27 72 88 72z" />
    <glyph glyph-name="wgrave" unicode="&#x1e81;" horiz-adv-x="1644" 
d="M1051 1277q1 -35 -19 -53t-48 -18t-48 13l-258 141q-39 20 -39 56t19 55q36 36 94 8l262 -148q37 -20 37 -54zM1568 1077q48 0 72 -35t2 -86l-378 -854q-53 -123 -152 -122q-59 0 -98 36t-45 103l-78 745q-2 18 -14 19q-8 0 -15 -15l-336 -764q-30 -68 -64 -96t-87 -28
t-93 36t-49 105l-98 852q-6 49 18 77t66 27q72 0 80 -80l70 -649q0 -6 6 -188q2 -18 18 -19q11 -1 19 17t26 75t41 101l279 631q47 113 141 112q111 0 125 -129l66 -608q4 -34 6 -98t4 -82t14 -19q12 0 21 24t29 78q19 54 30 76l301 697q25 61 73 61z" />
    <glyph glyph-name="Wacute" unicode="&#x1e82;" horiz-adv-x="1878" 
d="M1346 1827q28 -1 46 -19t19 -45q0 -45 -57 -71l-291 -138q-14 -8 -39 -8t-44 18t-19 56q0 37 45 55l294 142q18 10 46 10zM1864 1442q34 0 60 -23t26 -51t-8 -45l-476 -1217q-47 -127 -157 -126q-59 0 -103 37q-43 38 -51 112l-104 1124q1 7 -7 6q-8 -2 -10 -6
l-481 -1147q-53 -127 -158 -126q-61 0 -106 40t-47 105l-72 1214q-2 47 23 75t61 28t62 -20q24 -20 26 -58l57 -1194q0 -19 16 -11q5 3 7 9l479 1143q55 131 158 131q55 0 93 -39t44 -111l102 -1124q0 -6 9 -11t14 11l455 1202q27 72 88 72z" />
    <glyph glyph-name="wacute" unicode="&#x1e83;" horiz-adv-x="1644" 
d="M1170 1489q28 -1 46 -19t19 -45q0 -45 -57 -71l-291 -137q-14 -9 -39 -9t-44 18q-20 18 -20 56q0 37 45 55l295 142q18 10 46 10zM1568 1077q48 0 72 -35t2 -86l-378 -854q-53 -123 -152 -122q-59 0 -98 36t-45 103l-78 745q-2 18 -14 19q-8 0 -15 -15l-336 -764
q-30 -68 -64 -96t-87 -28t-93 36t-49 105l-98 852q-6 49 18 77t66 27q72 0 80 -80l70 -649q0 -6 6 -188q2 -18 18 -19q11 -1 19 17t26 75t41 101l279 631q47 113 141 112q111 0 125 -129l66 -608q4 -34 6 -98t4 -82t14 -19q12 0 21 24t29 78q19 54 30 76l301 697
q25 61 73 61z" />
    <glyph glyph-name="Wdieresis" unicode="&#x1e84;" horiz-adv-x="1878" 
d="M1275 1745q41 0 65 -24q24 -23 24 -63t-30 -70t-70 -30t-64 24q-25 24 -24 63q0 39 30 69t69 31zM947 1745q40 0 65 -24q24 -23 24 -63t-30 -70t-69 -30q-40 0 -65 24t-24 63q0 39 30 69t69 31zM1864 1442q34 0 60 -23t26 -51t-8 -45l-476 -1217q-47 -127 -157 -126
q-59 0 -103 37q-43 38 -51 112l-104 1124q1 7 -7 6q-8 -2 -10 -6l-481 -1147q-53 -127 -158 -126q-61 0 -106 40t-47 105l-72 1214q-2 47 23 75t61 28t62 -20q24 -20 26 -58l57 -1194q0 -19 16 -11q5 3 7 9l479 1143q55 131 158 131q55 0 93 -39t44 -111l102 -1124
q0 -6 9 -11t14 11l455 1202q27 72 88 72z" />
    <glyph glyph-name="wdieresis" unicode="&#x1e85;" horiz-adv-x="1644" 
d="M1119 1413q40 1 65 -23q24 -24 24 -64t-30 -70t-69 -30q-40 0 -65 24t-24 63q0 39 30 69t69 31zM692 1313q0 39 30 69t70 31t64 -23t25 -64q0 -40 -30 -70t-70 -30q-41 0 -65 24t-24 63zM1568 1077q48 0 72 -35t2 -86l-378 -854q-53 -123 -152 -122q-59 0 -98 36t-45 103
l-78 745q-2 18 -14 19q-8 0 -15 -15l-336 -764q-30 -68 -64 -96t-87 -28t-93 36t-49 105l-98 852q-6 49 18 77t66 27q72 0 80 -80l70 -649q0 -6 6 -188q2 -18 18 -19q11 -1 19 17t26 75t41 101l279 631q47 113 141 112q111 0 125 -129l66 -608q4 -34 6 -98t4 -82t14 -19
q12 0 21 24t29 78q19 54 30 76l301 697q25 61 73 61z" />
    <glyph glyph-name="Ygrave" unicode="&#x1ef2;" horiz-adv-x="1269" 
d="M808 1544q-28 0 -48 12l-258 142q-39 18 -39 55t19 56q36 36 93 8l263 -148q36 -20 36 -54q0 -35 -19 -53t-47 -18zM184 1442q42 0 70 -47l373 -594l583 610q31 31 68 31q38 0 62 -20t24 -59q0 -38 -33 -69l-583 -602q-53 -55 -60 -100l-86 -520q-12 -80 -82 -80
q-40 0 -64 28t-16 70l84 502q9 51 -26 106l-385 607q-43 69 5 115q24 22 66 22z" />
    <glyph glyph-name="ygrave" unicode="&#x1ef3;" horiz-adv-x="1042" 
d="M677 1206q-28 0 -48 13l-258 141q-39 20 -39 56t19 55q36 36 93 8l263 -148q37 -20 37 -54q0 -35 -20 -53q-19 -18 -47 -18zM471 250q8 0 14 12q59 125 93 187l317 569q33 59 83 59t70 -41t-8 -86l-524 -927q-162 -289 -336 -392q-95 -61 -149 -12q-23 20 -23 58t53 67
q164 86 299 324l-239 893q-13 51 11 83t67 33q64 0 84 -78l145 -542q18 -76 31 -191q4 -16 12 -16z" />
    <glyph glyph-name="endash" unicode="&#x2013;" horiz-adv-x="1183" 
d="M176 504q-42 0 -64 24t-22 59t27 59t65 24h824q40 0 64 -24t24 -60t-27 -59q-27 -24 -66 -23h-825z" />
    <glyph glyph-name="emdash" unicode="&#x2014;" horiz-adv-x="1929" 
d="M176 504q-42 0 -64 24t-22 59t27 59t65 24h1571q39 0 63 -24t24 -60t-28 -59q-27 -24 -65 -23h-1571z" />
    <glyph glyph-name="quoteleft" unicode="&#x2018;" horiz-adv-x="434" 
d="M243 973q-32 0 -52 25q-19 26 -13 61l21 112q25 143 94 220q39 47 79 47q75 0 77 -64q0 -27 -27 -53q-59 -72 -76 -156l-20 -121q-12 -71 -83 -71z" />
    <glyph glyph-name="quoteright" unicode="&#x2019;" horiz-adv-x="428" 
d="M227 973q-75 0 -75 61q0 27 42 74t60 137l20 119q6 35 29 54q23 20 55 20t50 -26q20 -26 14 -62l-19 -113q-25 -139 -94 -217q-43 -47 -82 -47z" />
    <glyph glyph-name="quotesinglbase" unicode="&#x201a;" horiz-adv-x="395" 
d="M119 -209q-39 -1 -57 17t-19 45q0 27 27 53q59 68 75 157l21 119q6 34 29 54t55 20t50 -26q19 -26 13 -62l-18 -113q-25 -139 -94 -217q-43 -47 -82 -47z" />
    <glyph glyph-name="quotedblleft" unicode="&#x201c;" horiz-adv-x="716" 
d="M243 973q-32 0 -52 25q-19 26 -13 61l21 112q25 143 94 220q39 47 79 47q75 0 77 -64q0 -27 -27 -53q-59 -72 -76 -156l-20 -121q-12 -71 -83 -71zM525 973q-32 -1 -51 25t-13 61l20 112q25 143 94 220q39 47 79 47q76 0 77 -64q0 -27 -26 -53q-59 -72 -76 -156l-21 -121
q-12 -71 -83 -71z" />
    <glyph glyph-name="quotedblright" unicode="&#x201d;" horiz-adv-x="710" 
d="M227 973q-75 0 -75 61q0 27 42 74t60 137l20 119q6 35 29 54q23 20 55 20t50 -26q20 -26 14 -62l-19 -113q-25 -139 -94 -217q-43 -47 -82 -47zM512 973q-74 0 -76 61q0 27 27 53q59 68 76 158l20 119q6 35 29 54q22 20 54 20t51 -26t14 -62l-19 -113q-25 -139 -94 -217
q-43 -47 -82 -47z" />
    <glyph glyph-name="quotedblbase" unicode="&#x201e;" horiz-adv-x="690" 
d="M151 -209q-39 -1 -57 17t-18 45t42 74t60 136l21 119q6 35 28 55q23 19 55 19t51 -26t13 -62l-18 -113q-25 -139 -95 -217q-43 -47 -82 -47zM436 -209q-74 0 -76 62q0 27 27 53q59 68 76 157l20 119q6 34 29 54q22 20 54 20t51 -26t14 -62l-19 -113q-25 -139 -94 -217
q-43 -47 -82 -47z" />
    <glyph glyph-name="dagger" unicode="&#x2020;" horiz-adv-x="980" 
d="M158 840q-37 0 -59 22q-21 22 -21 57q0 33 28 59t68 26h299l62 362q7 38 31 62t60 24t58 -26t16 -62l-61 -360h291q34 0 58 -23t24 -57t-27 -60q-27 -25 -70 -24h-303l-172 -1045q-14 -82 -84 -82q-42 0 -64 27t-16 65l170 1035h-288z" />
    <glyph glyph-name="daggerdbl" unicode="&#x2021;" horiz-adv-x="980" 
d="M152 840q-35 0 -56 21q-20 23 -20 57t27 60q28 26 71 26h299l59 362q6 38 32 62t62 24t58 -25t14 -63l-59 -360h297q35 0 55 -22q21 -22 21 -56t-27 -61q-27 -26 -70 -25h-305l-84 -514h297q35 0 55 -22t21 -56q0 -34 -27 -61q-27 -26 -69 -25h-303l-62 -367
q-14 -82 -84 -82q-40 0 -64 27t-16 65l60 357h-293q-35 0 -55 22t-20 56t27 60q28 26 68 26h299l84 514h-292z" />
    <glyph glyph-name="bullet" unicode="&#x2022;" horiz-adv-x="952" 
d="M219 717q0 106 76 182t182 76t182 -76t76 -182t-76 -182t-182 -76t-182 76t-76 182z" />
    <glyph glyph-name="ellipsis" unicode="&#x2026;" horiz-adv-x="1318" 
d="M182 -20q-35 0 -55 24t-16 57l28 177q14 74 82 73q35 1 55 -23t15 -57l-29 -178q-14 -73 -80 -73zM625 -20q-35 0 -56 24q-20 25 -16 57l29 177q14 74 82 73q35 1 55 -23t14 -57l-28 -178q-14 -73 -80 -73zM1059 -20q-35 0 -55 24t-17 57l29 177q14 74 82 73q35 1 55 -23
t14 -57l-28 -178q-14 -73 -80 -73z" />
    <glyph glyph-name="perthousand" unicode="&#x2030;" horiz-adv-x="2215" 
d="M1753 115q74 0 129 47q56 46 70 112t19 130t-38 111q-43 48 -115 48t-129 -48q-55 -48 -71 -126t-19 -102q-8 -76 36 -124t118 -48zM1754 -12q-128 0 -212 86t-72 213q8 220 131 326q89 77 218 77t211 -83t73 -208q-10 -84 -18 -123q-33 -140 -118 -214t-213 -74z
M1047 115q74 0 128 47t70 125q10 43 19 104q6 76 -37 124t-116 48t-129 -48q-75 -65 -89 -228q-8 -76 36 -124t118 -48zM1112 690q129 0 211 -82t74 -209q-10 -84 -19 -123q-67 -288 -330 -288q-128 0 -212 86t-72 213q8 220 130 326q89 77 218 77zM390 877q73 0 128 47
q56 46 70 112t20 130t-37 111q-43 48 -117 48t-128 -47q-54 -48 -68 -108t-21 -128t37 -117q44 -48 116 -48zM392 750q-128 0 -212 86t-74 213q8 220 131 326q89 77 219 77t211 -82t72 -209q-16 -231 -135 -337q-84 -74 -212 -74zM272 182q-30 0 -52 22t-22 52t31 59
l951 922q28 29 58 29t52 -20t21 -52q0 -31 -27 -59l-954 -924q-27 -29 -58 -29z" />
    <glyph glyph-name="guilsinglleft" unicode="&#x2039;" horiz-adv-x="692" 
d="M74 707q0 88 90 147l297 217q27 19 57 19t49 -20q21 -20 21 -55q0 -34 -41 -63l-260 -192q-37 -27 -37 -47t20 -41l193 -191q25 -18 25 -49q0 -32 -22 -54t-54 -22t-62 29l-219 209q-57 50 -57 113z" />
    <glyph glyph-name="guilsinglright" unicode="&#x203a;" horiz-adv-x="698" 
d="M627 728q0 -74 -90 -136l-295 -215q-69 -40 -108 1q-19 19 -19 55t39 61l260 192q37 27 37 47t-21 41l-192 191q-25 23 -25 51q-1 28 21 52q22 22 53 22t65 -27l219 -211q56 -50 56 -124z" />
    <glyph glyph-name="fraction" unicode="&#x2044;" horiz-adv-x="577" 
d="M-112 -66q-38 0 -62 20t-25 46q0 24 15 53l790 1403q27 45 67 45q41 0 63 -19t22 -48t-17 -56l-790 -1398q-25 -46 -63 -46z" />
    <glyph glyph-name="Euro" unicode="&#x20ac;" horiz-adv-x="1292" 
d="M893 1452q121 0 227 -42t172 -120q23 -26 23 -54t-23 -50q-24 -22 -54 -23q-30 0 -71 33q-111 104 -279 104t-280 -101q-113 -101 -151 -284h360q37 0 55 -19t18 -48q0 -28 -21 -50q-22 -22 -60 -22h-389l-19 -114h379q36 0 54 -20t18 -49q0 -31 -24 -53t-66 -22h-379
q-16 -182 69 -284t246 -103q161 0 314 119q30 22 60 22t48 -20t18 -53t-44 -72q-176 -143 -394 -143t-354 134q-137 134 -121 400h-96q-27 0 -47 20t-20 49q0 31 23 53q24 22 58 22h101l16 114h-86q-31 0 -49 20q-19 20 -19 48t24 50t60 21h99q53 249 211 393t393 144z" />
    <glyph glyph-name="trademark" unicode="&#x2122;" horiz-adv-x="1126" 
d="M553 913q-25 1 -38 19t-5 47l121 387q25 80 94 80q33 0 53 -20t23 -56l20 -315q0 -12 6 -13q4 0 11 11l123 319q27 74 90 74q78 0 77 -80l-6 -397q0 -55 -47 -56q-23 1 -36 15t-13 35l12 348q0 10 -4 10t-10 -8l-129 -330q-29 -68 -80 -68q-27 1 -47 21t-23 51l-22 324
q0 10 -6 10t-8 -10l-107 -355q-10 -43 -49 -43zM262 911q-23 1 -36 17t-11 37l64 378h-127q-41 0 -41 46q0 20 15 36t38 17h346q45 0 45 -45q0 -23 -15 -38t-40 -16h-121l-64 -380q-8 -52 -53 -52z" />
    <glyph glyph-name="minus" unicode="&#x2212;" horiz-adv-x="1271" 
d="M1071 639h-872q-35 0 -60 23q-25 22 -25 56t26 56q24 22 59 23h872q37 0 62 -23q25 -22 25 -56t-26 -56t-61 -23z" />
    <glyph glyph-name="lessequal" unicode="&#x2264;" horiz-adv-x="1271" 
d="M961 -12h-652q-35 0 -59 22t-25 57q0 35 25 57t59 21h652q35 -1 59 -23t24 -56t-24 -56t-59 -22zM225 742q0 77 84 128l613 369q28 14 60 7t48 -35q16 -27 8 -61t-34 -48l-555 -328q-27 -16 -27 -30t27 -31l555 -328q26 -14 34 -48t-8 -63q-16 -30 -48 -36t-60 10
l-613 368q-84 49 -84 126z" />
    <glyph glyph-name="greaterequal" unicode="&#x2265;" horiz-adv-x="1271" 
d="M965 -12h-652q-35 0 -61 22t-25 57q0 35 25 57t61 21h652q35 -1 59 -23t23 -56q1 -34 -23 -56t-59 -22zM852 743q0 14 -27 31l-555 328q-27 14 -34 48q-8 34 8 62t47 34q31 7 59 -7l613 -369q84 -49 84 -127t-84 -127l-613 -368q-30 -16 -60 -9t-46 35t-8 63q7 34 34 48
l555 328q27 16 27 30z" />
    <glyph glyph-name="fl" unicode="&#xfb02;" horiz-adv-x="1349" 
d="M1217 1454q41 0 65 -28t14 -72l-213 -1284q-12 -78 -82 -78q-43 0 -65 28t-14 74l213 1282q12 78 82 78zM686 1470q86 0 178 -36q47 -25 47 -62q0 -38 -19 -60q-20 -22 -44 -22t-74 12t-98 13q-174 0 -205 -199l-14 -82h268q35 0 57 -22t21 -54q0 -33 -23 -53t-57 -20
h-287l-135 -815q-12 -78 -82 -78q-43 0 -65 28t-15 74l131 791h-61q-39 -1 -59 21t-20 54t23 54q24 22 56 20h88l14 94q59 342 375 342z" />
    <glyph glyph-name="Imacron" horiz-adv-x="583" 
d="M283 1571q-33 0 -54 19q-20 19 -20 48t22 52q23 23 60 22h330q33 0 51 -19t18 -48t-22 -52t-56 -22h-329zM406 1442q41 0 64 -28t15 -73l-211 -1271q-12 -78 -86 -78q-36 0 -60 28t-15 74l211 1270q12 78 82 78z" />
    <glyph glyph-name="ampersand.alt" horiz-adv-x="1382" 
d="M688 1284q-125 0 -213 -69t-88 -187q0 -141 154 -235q210 45 256 72q45 27 84 57q71 56 71 149q0 92 -69 153q-70 60 -195 60zM526 -16q-207 0 -346 104t-139 266q0 264 330 389q-66 49 -109 128t-43 171q0 176 132 286t328 110q197 0 319 -100t122 -260t-127 -260
t-359 -151q-232 -52 -322 -120q-40 -31 -70 -81t-31 -112q0 -100 88 -156t219 -57q178 1 296 103t149 250q16 76 47 108t98 31h166q44 0 66 -23q22 -22 22 -56t-25 -60t-67 -27h-152q-49 -231 -217 -357t-375 -126z" />
    <glyph glyph-name="Q.alt" horiz-adv-x="1429" 
d="M785 1294q-183 0 -304 -112t-164 -301q-29 -135 -48 -308t75 -283t234 -140l43 260q12 78 77 77q37 0 59 -26q21 -27 13 -72l-43 -246q150 11 253 115t142 267q38 163 52 345t-96 302q-110 122 -293 122zM588 -334q-39 0 -62 29t-14 72l39 227q-205 37 -339 201t-106 423
q14 131 39 261q51 265 216 421t427 156t422 -182t131 -440q-20 -180 -43 -293q-51 -260 -203 -405q-153 -144 -393 -156l-40 -242q-13 -72 -74 -72z" />
    <glyph glyph-name="r.alt" horiz-adv-x="739" 
d="M164 -2q-37 0 -61 28t-17 68l137 832q6 43 47 69q127 96 312 97q115 0 178 -29q49 -21 49 -63t-23 -66t-50 -25t-74 9t-80 10q-117 -1 -203 -64l-131 -780q-14 -86 -84 -86z" />
    <glyph glyph-name="zero.onum" horiz-adv-x="1255" 
d="M662 932q-146 0 -242 -78t-131 -229q-12 -53 -23 -142q-16 -164 83 -254t241 -90q302 0 371 291q12 53 22 139q18 167 -78 265q-97 98 -243 98zM670 1092q208 0 352 -138t125 -364q-10 -123 -33 -211q-47 -187 -178 -293t-341 -106t-357 131t-132 360q20 367 216 515
q140 106 348 106z" />
    <glyph glyph-name="one.onum" horiz-adv-x="888" 
d="M461 -8q-37 0 -62 24t-16 66l135 811l-295 -125q-43 -16 -80 1t-37 69t72 77l377 158q94 38 129 -11q20 -28 12 -75l-151 -907q-12 -88 -84 -88z" />
    <glyph glyph-name="two.onum" horiz-adv-x="1185" 
d="M920 156q40 0 62 -20t22 -55q0 -33 -29 -57t-74 -24h-708q-55 0 -85 30t-30 81q0 170 107 265t378 175q194 54 269 107t74 122q-1 68 -64 114t-172 46q-150 0 -326 -145q-36 -27 -68 -27t-54 26t-22 58t52 78q180 162 420 162q170 0 282 -85t113 -221q0 -165 -135 -250
q-109 -67 -308 -123q-198 -57 -286 -111t-90 -146h672z" />
    <glyph glyph-name="three.onum" horiz-adv-x="1140" 
d="M342 438q0 31 45 76l395 373l-2 6h-553q-35 -1 -59 21t-25 57q0 35 27 59t68 25h671q49 0 79 -25q30 -26 30 -72t-55 -96l-383 -360q172 -6 276 -112t105 -251q1 -241 -223 -391t-648 -149q-111 0 -110 82q0 78 94 77l88 -2q279 0 458 102t179 275q0 100 -76 170t-203 70
l-96 -6q-34 0 -58 20t-24 51z" />
    <glyph glyph-name="four.onum" horiz-adv-x="1318" 
d="M801 164l117 684l-670 -684h553zM166 2q-57 0 -91 29t-34 75t51 105l758 780q82 82 139 82t86 -39t21 -96l-131 -770h143q38 0 60 -23t22 -57t-29 -60t-74 -26h-149l-51 -319q-14 -86 -84 -86q-37 1 -62 25t-16 65l49 315h-608z" />
    <glyph glyph-name="five.onum" horiz-adv-x="1224" 
d="M641 399q-123 0 -307 -94q-59 -33 -110 -2q-50 31 -38 100l90 535q18 117 142 117h631q37 1 59 -19t20 -56q0 -36 -30 -60t-74 -23h-590l-72 -424q138 76 312 76q174 -1 288 -105t115 -258q0 -154 -80 -269t-214 -183q-271 -137 -627 -135q-45 0 -85 18q-40 19 -40 61
q1 42 27 64t63 22l90 -4q242 0 458 96q109 48 177 133t68 185t-75 163q-75 62 -198 62z" />
    <glyph glyph-name="six.onum" horiz-adv-x="1351" 
d="M285 526q0 -184 94 -286q93 -102 245 -101t252 105t99 260q0 120 -81 190q-82 70 -246 70t-353 -102q-10 -88 -10 -136zM909 1456q289 0 289 -104q0 -33 -22 -56q-22 -22 -50 -22t-100 10t-121 10q-221 0 -371 -116t-204 -347q180 87 372 87t315 -113q124 -113 124 -289
q-1 -228 -143 -382t-370 -154t-368 148q-139 148 -139 425t117 503q128 252 375 348q134 52 296 52z" />
    <glyph glyph-name="seven.onum" horiz-adv-x="1044" 
d="M180 -403q-51 -1 -76 35t-4 83q102 254 266 505q163 251 492 677h-678q-38 1 -62 21t-24 54t28 58t68 25h783q49 0 80 -24q31 -25 31 -65t-37 -87q-332 -427 -507 -693t-278 -518q-31 -71 -82 -71z" />
    <glyph glyph-name="eight.onum" horiz-adv-x="1388" 
d="M1190 428q0 -212 -150 -330t-386 -118q-234 0 -383 108q-148 109 -148 291q0 141 84 251t229 134q-84 41 -135 116t-51 162q0 199 145 307q145 107 365 107t351 -102q132 -102 132 -256q0 -125 -71 -221t-205 -132q223 -104 223 -317zM647 139q162 0 265 71t104 218
q0 118 -92 182t-255 64t-267 -75t-105 -228q0 -106 94 -169t256 -63zM414 1036q0 -100 88 -160t238 -59q150 0 245 73q94 73 94 177t-84 170t-228 66q-145 0 -249 -69t-104 -198z" />
    <glyph glyph-name="nine.onum" horiz-adv-x="1337" 
d="M670 930q-148 0 -244 -95t-96 -247q0 -113 85 -199t252 -86t343 94q42 301 -94 437q-98 96 -246 96zM162 610q0 204 141 343t363 139t370 -142q147 -142 148 -395q0 -430 -246 -689t-707 -259q-127 0 -127 82q0 37 27 59t68 19q303 -7 503 115t273 351q-143 -78 -313 -77
q-227 0 -364 125q-136 125 -136 329z" />
    <glyph glyph-name="sterling.alt" horiz-adv-x="1163" 
d="M246 156h637q45 0 69 -22t23 -54q0 -32 -26 -56t-70 -24h-727q-80 0 -109 57t6 127q5 12 75 135t136 277h-98q-39 0 -60 21q-20 22 -20 55q0 34 26 60t68 26h150q39 91 82 219q90 251 206 365t295 114q125 0 217 -63q45 -33 45 -69q1 -36 -21 -58t-52 -23q-30 0 -82 26
t-113 25q-106 0 -181 -72t-144 -251l-48 -120q-29 -75 -34 -93h311q43 0 65 -22t21 -56q0 -34 -25 -58q-25 -26 -69 -26h-367q-117 -279 -188 -391q-16 -25 -17 -35q0 -14 19 -14z" />
    <glyph glyph-name="commaaccent" horiz-adv-x="698" 
d="M280 -494q-33 0 -50 16t-17 40q0 23 25 51q57 63 71 147l21 115q12 63 77 65q31 0 47 -26q16 -27 11 -61l-21 -99q-27 -131 -94 -207q-37 -41 -70 -41z" />
    <glyph glyph-name="caronSlovak" horiz-adv-x="698" 
d="M292 1116q-34 0 -51 16q-41 39 11 96q51 56 63 126l21 102q10 66 72 66q33 0 50 -23t11 -57l-18 -94q-25 -116 -75 -174t-84 -58z" />
    <glyph glyph-name="g.alt" horiz-adv-x="1177" 
d="M846 722q0 108 -68 166t-184 58t-195 -64q-80 -64 -80 -176q-1 -110 65 -172t187 -63q121 0 198 72t77 179zM521 -397q-169 0 -301 57t-202 138t-15 134q23 23 57 23t73 -43q66 -74 164 -114t206 -40q107 0 187 48t80 128q0 123 -192 123h-127q-147 1 -217 53t-70 122
t42 116q42 47 113 66q-72 43 -114 123q-43 80 -43 172q0 163 120 273t310 110q131 0 229 -50h271q42 0 64 -20t22 -50t-23 -52t-68 -23h-135q47 -70 47 -178q-1 -157 -113 -267t-319 -110h-106q-145 0 -146 -72q0 -61 117 -61h152q172 0 262 -74t90 -211t-123 -229t-292 -92
z" />
    <glyph glyph-name="gbreve.alt" horiz-adv-x="1177" 
d="M701 1200q-85 0 -146 39t-86 115q-10 36 -10 64t20 45t47 18q47 0 60 -64q8 -27 17 -43t33 -32t60 -17q92 0 135 102q20 53 68 54q27 -1 44 -17q36 -35 3 -96q-28 -70 -94 -119t-151 -49zM846 722q0 108 -68 166t-184 58t-195 -64q-80 -64 -80 -176q-1 -110 65 -172
t187 -63q121 0 198 72t77 179zM521 -397q-169 0 -301 57t-202 138t-15 134q23 23 57 23t73 -43q66 -74 164 -114t206 -40q107 0 187 48t80 128q0 123 -192 123h-127q-147 1 -217 53t-70 122t42 116q42 47 113 66q-72 43 -114 123q-43 80 -43 172q0 163 120 273t310 110
q131 0 229 -50h271q42 0 64 -20t22 -50t-23 -52t-68 -23h-135q47 -70 47 -178q-1 -157 -113 -267t-319 -110h-106q-145 0 -146 -72q0 -61 117 -61h152q172 0 262 -74t90 -211t-123 -229t-292 -92z" />
    <glyph glyph-name="gdotaccent.alt" horiz-adv-x="1177" 
d="M608 1315q0 39 30 69t70 31t64 -23t25 -64q0 -40 -30 -70t-70 -30q-41 0 -65 24t-24 63zM846 722q0 108 -68 166t-184 58t-195 -64q-80 -64 -80 -176q-1 -110 65 -172t187 -63q121 0 198 72t77 179zM521 -397q-169 0 -301 57t-202 138t-15 134q23 23 57 23t73 -43
q66 -74 164 -114t206 -40q107 0 187 48t80 128q0 123 -192 123h-127q-147 1 -217 53t-70 122t42 116q42 47 113 66q-72 43 -114 123q-43 80 -43 172q0 163 120 273t310 110q131 0 229 -50h271q42 0 64 -20t22 -50t-23 -52t-68 -23h-135q47 -70 47 -178q-1 -157 -113 -267
t-319 -110h-106q-145 0 -146 -72q0 -61 117 -61h152q172 0 262 -74t90 -211t-123 -229t-292 -92z" />
    <glyph glyph-name="gcommaaccent.alt" horiz-adv-x="1177" 
d="M647 1157q-33 1 -50 17t-17 38t24 52q57 63 72 147l20 115q13 65 78 65q31 -1 47 -27t10 -61l-20 -98q-27 -131 -94 -207q-37 -41 -70 -41zM846 722q0 108 -68 166t-184 58t-195 -64q-80 -64 -80 -176q-1 -110 65 -172t187 -63q121 0 198 72t77 179zM521 -397
q-169 0 -301 57t-202 138t-15 134q23 23 57 23t73 -43q66 -74 164 -114t206 -40q107 0 187 48t80 128q0 123 -192 123h-127q-147 1 -217 53t-70 122t42 116q42 47 113 66q-72 43 -114 123q-43 80 -43 172q0 163 120 273t310 110q131 0 229 -50h271q42 0 64 -20t22 -50
t-23 -52t-68 -23h-135q47 -70 47 -178q-1 -157 -113 -267t-319 -110h-106q-145 0 -146 -72q0 -61 117 -61h152q172 0 262 -74t90 -211t-123 -229t-292 -92z" />
    <glyph glyph-name="racute.alt" horiz-adv-x="739" 
d="M771 1489q28 -1 46 -19q19 -18 19 -54t-58 -62l-291 -137q-15 -9 -39 -9t-44 18t-19 56q0 37 45 55l295 142q18 10 46 10zM164 -2q-37 0 -61 28t-17 68l137 832q6 43 47 69q127 96 312 97q115 0 178 -29q49 -21 49 -63t-23 -66t-50 -25t-74 9t-80 10q-117 -1 -203 -64
l-131 -780q-14 -86 -84 -86z" />
    <glyph glyph-name="rcaron.alt" horiz-adv-x="739" 
d="M562 1196q-28 0 -56 25l-166 141q-25 18 -25 49q-1 31 19 51t47 20t51 -20l141 -121l185 125q54 38 92 -2q18 -18 18 -51t-39 -59l-200 -133q-39 -25 -67 -25zM164 -2q-37 0 -61 28t-17 68l137 832q6 43 47 69q127 96 312 97q115 0 178 -29q49 -21 49 -63t-23 -66
t-50 -25t-74 9t-80 10q-117 -1 -203 -64l-131 -780q-14 -86 -84 -86z" />
    <glyph glyph-name="rcommaaccent.alt" horiz-adv-x="739" 
d="M8 -494q-33 0 -50 16t-17 40q0 23 24 51q57 63 72 147l20 115q12 63 78 65q31 0 47 -26q16 -27 11 -61l-21 -99q-27 -131 -94 -207q-37 -41 -70 -41zM164 -2q-37 0 -61 28t-17 68l137 832q6 43 47 69q127 96 312 97q115 0 178 -29q49 -21 49 -63t-23 -66t-50 -25t-74 9
t-80 10q-117 -1 -203 -64l-131 -780q-14 -86 -84 -86z" />
    </font>
</defs>
</svg>
