<?xml version="1.0" standalone="no"?>
<!DOCTYPE svg PUBLIC "-//W3C//DTD SVG 1.1//EN" "http://www.w3.org/Graphics/SVG/1.1/DTD/svg11.dtd" >
<svg xmlns="http://www.w3.org/2000/svg">
<metadata>
Created by FontPrep 20130207 at Tue Nov  4 15:29:41 2014
 By Mauricio Duran
Copyright (c) 2010 by Miles Newlyn. All rights reserved.
</metadata>
<defs>
<font id="fafc31f09b1dfa44ab887207cf45fdfd" horiz-adv-x='1024' >
  <font-face 
    font-family="Rubrik-MediumItalic"
    font-weight="500"
    font-style="italic"
    font-stretch="normal"
    units-per-em="2048"
    panose-1="2 0 5 3 0 0 0 2 0 4"
    ascent="1536"
    descent="-512"
    x-height="1067"
    cap-height="1448"
    bbox="-215.03 -586 2224.4 1948"
    underline-thickness="143"
    underline-position="-62"
    unicode-range="U+0020-FB02"
  />
<missing-glyph horiz-adv-x="616" 
 />
    <glyph glyph-name="fi" unicode="fi" horiz-adv-x="1400" 
d="M1016 -8q-53 0 -82 37t-21 94l146 866q16 100 104 101q53 0 82 -38t21 -96l-144 -866q-16 -98 -106 -98zM1352 1375q0 -50 -36 -90t-89 -40t-85 34t-32 85t36 89t89 38t85 -33t32 -83zM952 1360q0 -45 -24 -75t-58 -30q-33 -1 -83 13t-93 14q-152 0 -182 -176l-10 -72
h235q45 0 73 -28t28 -67q0 -40 -30 -67t-73 -26h-260l-125 -756q-16 -100 -112 -98q-46 0 -76 37q-29 37 -21 94l121 723h-49q-47 0 -74 28t-27 67q0 40 30 67t73 26h78l14 84q61 360 395 361q94 0 191 -41q59 -33 59 -78z" />
    <glyph glyph-name=".notdef" horiz-adv-x="616" 
 />
    <glyph glyph-name=".null" horiz-adv-x="0" 
 />
    <glyph glyph-name="nonmarkingreturn" horiz-adv-x="681" 
 />
    <glyph glyph-name="space" unicode=" " horiz-adv-x="512" 
 />
    <glyph glyph-name="exclam" unicode="!" horiz-adv-x="485" 
d="M134 -16q-42 0 -68 30t-21 70l23 141q6 41 34 68q29 27 71 27t68 -30t19 -71l-22 -141q-6 -42 -34 -68t-70 -26zM221 471q-43 0 -69 30t-21 68l113 760q8 53 41 82t79 29t74 -35q29 -35 19 -90l-140 -752q-16 -92 -96 -92z" />
    <glyph glyph-name="quotedbl" unicode="&#x22;" horiz-adv-x="784" 
d="M588 932q-45 0 -72 31t-20 73l51 314q6 42 35 68q30 26 72 26t68 -30t19 -71l-53 -317q-18 -94 -100 -94zM266 932q-46 0 -72 32t-18 72l51 314q6 42 35 68t71 26q43 0 69 -30t20 -71l-53 -317q-18 -94 -103 -94z" />
    <glyph glyph-name="numbersign" unicode="#" horiz-adv-x="1337" 
d="M498 588h204l140 282h-205zM142 -18q-56 0 -81 42t0 91l142 280h-92q-39 0 -67 28q-28 27 -28 67t34 69t89 29h158l139 282h-96q-37 0 -65 27q-27 27 -27 68t33 69t88 29h161l158 319q35 70 91 70t79 -39t-2 -92l-127 -258h209l156 319q35 70 92 70t80 -39t-2 -92
l-129 -258h84q47 0 75 -27q28 -26 27 -66q0 -40 -31 -70t-88 -30h-158l-139 -282h86q47 0 74 -25t27 -67t-32 -71q-32 -30 -89 -30h-162l-172 -344q-33 -69 -87 -69t-82 40t-1 93l141 280h-205l-172 -344q-33 -69 -89 -69z" />
    <glyph glyph-name="dollar" unicode="$" horiz-adv-x="1208" 
d="M124 379q40 0 93 -35q162 -111 363 -111q116 1 194 53t78 142q0 51 -41 89t-88 56t-156 56q-188 61 -296 150q-107 89 -107 251t143 270t320 111l18 102q16 102 100 103q47 0 73 -29t18 -74l-19 -108q188 -37 266 -115q35 -34 35 -74t-30 -72t-65 -32q-36 0 -85 25
q-121 69 -252 69t-214 -52t-83 -134t87 -127q60 -33 164 -66t151 -53q138 -57 201 -124q89 -94 87 -224q0 -168 -139 -281t-352 -118l-19 -121q-16 -88 -102 -88q-39 0 -68 28t-20 74l22 123q-86 12 -185 55t-157 95q-35 35 -35 79t30 75q30 32 70 32z" />
    <glyph glyph-name="percent" unicode="%" horiz-adv-x="1595" 
d="M396 889q68 0 110 41q41 41 54 102q12 61 18 120q6 58 -31 100t-101 42t-113 -41q-48 -41 -65 -108q-14 -71 -17 -123t37 -92t108 -41zM448 1454q134 0 219 -84t78 -215q-2 -59 -18 -129q-65 -295 -333 -295q-138 0 -225 87t-79 220q4 59 14 119q27 137 119 217
q91 80 225 80zM1146 143q68 0 109 41q60 60 72 215q6 66 -31 108t-101 42q-65 0 -113 -41t-63 -111t-19 -121t38 -92q40 -41 108 -41zM1198 709q133 0 218 -84t79 -215q-2 -59 -18 -129q-65 -295 -333 -295q-138 0 -226 87q-86 87 -78 220q4 59 14 119q27 137 119 217
t225 80zM332 178q-39 0 -66 27q-26 27 -26 67t36 76l912 887q37 35 75 35q37 0 65 -26t28 -66t-37 -74l-911 -891q-37 -35 -76 -35z" />
    <glyph glyph-name="ampersand" unicode="&#x26;" horiz-adv-x="1400" 
d="M666 1249q-106 0 -168 -57q-64 -58 -64 -146t139 -217q317 106 318 254q1 61 -59 113t-166 53zM547 182q178 0 313 121l-332 305q-74 -26 -122 -52t-92 -77t-44 -123t76 -124q76 -50 201 -50zM545 -20q-199 0 -344 106t-145 265t84 252q85 93 241 157q-53 55 -80 87
q-27 33 -57 97t-29 131q0 157 123 265q124 108 316 108t320 -101t128 -257q0 -124 -87 -222t-282 -182l256 -227l33 59q39 76 62 103q24 27 70 27t77 -43q50 -68 -88 -283l164 -144q35 -31 41 -73q6 -43 -23 -77t-73 -39t-78 25l-160 148q-188 -182 -469 -182z" />
    <glyph glyph-name="quotesingle" unicode="'" horiz-adv-x="477" 
d="M281 932q-45 0 -72 31t-21 73l52 314q6 42 34 68t72 26t70 -30t18 -71l-53 -317q-18 -94 -100 -94z" />
    <glyph glyph-name="parenleft" unicode="(" horiz-adv-x="698" 
d="M448 -362q-48 0 -79 45q-250 352 -250 827q0 315 126 596t371 485q45 35 85 35t72 -28t32 -72t-55 -94q-129 -123 -191 -207q-231 -309 -231 -725q0 -195 62 -378t147 -306q53 -92 -9 -148q-32 -30 -80 -30z" />
    <glyph glyph-name="parenright" unicode=")" horiz-adv-x="720" 
d="M-7 -362q-40 0 -72 28t-32 72q0 45 56 94q129 123 190 207q231 309 232 725q0 195 -63 378q-62 183 -146 306q-25 43 -25 81q0 37 33 67t81 30t79 -45q250 -352 249 -829q1 -313 -125 -594t-372 -486q-45 -34 -85 -34z" />
    <glyph glyph-name="asterisk" unicode="*" horiz-adv-x="782" 
d="M381 713q-37 1 -59 27t-7 69l45 182l-163 -106q-27 -19 -65 -15t-54 35t1 64t56 47l182 78l-153 84q-33 14 -43 49t11 63t55 31q34 2 63 -23l139 -108l12 184q-2 45 21 72q22 27 60 27t58 -30t7 -75l-45 -178l166 108q32 25 68 18t50 -39t-3 -64t-58 -46l-180 -84
l151 -77q35 -14 45 -46t-9 -62q-19 -28 -52 -33t-64 20l-141 106l-14 -184q1 -47 -21 -71t-59 -23z" />
    <glyph glyph-name="plus" unicode="+" horiz-adv-x="1263" 
d="M633 193q-43 -1 -73 31t-30 75v315h-315q-45 0 -76 30t-31 74t31 73t76 28h315v316q0 43 30 73t73 31q43 0 72 -31t28 -73v-316h311q45 -1 76 -29t31 -72t-32 -74t-75 -30h-311v-315q0 -45 -28 -76q-29 -30 -72 -30z" />
    <glyph glyph-name="comma" unicode="," horiz-adv-x="468" 
d="M120 -221q-46 -1 -72 23q-58 52 1 118q59 65 74 143l22 134q8 45 37 69t67 23q37 0 65 -30t20 -81l-19 -110q-13 -82 -35 -130t-68 -104t-92 -55z" />
    <glyph glyph-name="hyphen" unicode="-" horiz-adv-x="673" 
d="M84 587q0 46 35 78t84 31h274q51 0 82 -30t31 -76q0 -45 -36 -77t-85 -32h-272q-53 0 -83 30t-30 76z" />
    <glyph glyph-name="period" unicode="." horiz-adv-x="518" 
d="M191 -20q-41 0 -68 30t-21 72l27 158q6 42 35 68q28 26 70 26t68 -30t17 -73l-24 -157q-7 -42 -35 -68t-69 -26z" />
    <glyph glyph-name="slash" unicode="/" horiz-adv-x="706" 
d="M96 -66q-64 0 -95 44q-32 44 -9 104l528 1343q30 74 96 74t95 -46t6 -103l-527 -1344q-30 -72 -94 -72z" />
    <glyph glyph-name="zero" unicode="0" horiz-adv-x="1372" 
d="M647 182q145 0 232 94q85 94 121 276t48 331t-74 258q-87 109 -243 108q-279 0 -348 -350q-39 -195 -49 -328q-16 -181 76 -285t237 -104zM662 -18q-264 0 -409 173q-144 173 -126 425q12 170 47 344q46 254 192 391t367 137q261 0 403 -168t124 -407q-14 -166 -56 -367
q-49 -254 -189 -391t-353 -137z" />
    <glyph glyph-name="one" unicode="1" horiz-adv-x="940" 
d="M459 -8q-49 0 -82 35t-25 88l174 1036l-243 -129q-29 -16 -64 -16t-65 28t-29 70q0 70 78 106l389 207q53 31 92 31t67 -34t17 -93l-205 -1219q-20 -110 -104 -110z" />
    <glyph glyph-name="two" unicode="2" horiz-adv-x="1193" 
d="M883 213q47 0 77 -29q30 -28 29 -74q0 -46 -38 -78t-93 -32h-704q-66 0 -98 40t-31 99q0 139 100 253t268 224q51 33 181 113t198 134q67 55 93 99t26 93q0 84 -58 137t-161 53q-143 0 -293 -137q-55 -49 -99 -49q-44 1 -73 27t-29 70t39 89q74 87 196 149t261 62
q192 0 312 -110t120 -281q0 -125 -86 -248q-67 -93 -310 -242t-334 -221q-90 -71 -110 -141h617z" />
    <glyph glyph-name="three" unicode="3" horiz-adv-x="1183" 
d="M348 807q0 39 60 94l354 318l-2 6h-490q-46 -1 -74 29t-28 74t35 77t86 33h665q53 0 89 -30t36 -90t-61 -112l-342 -303q160 -13 257 -115t97 -237q0 -253 -191 -388q-239 -169 -671 -169q-141 0 -141 104q0 47 31 79q32 32 87 32l91 -2q191 0 368 64q94 34 154 101
q59 66 59 156t-65 147q-66 56 -174 56l-129 -10q-39 -1 -70 23t-31 63z" />
    <glyph glyph-name="four" unicode="4" horiz-adv-x="1329" 
d="M770 541l109 610l-574 -610h465zM184 334q-72 0 -112 35t-41 93q0 58 65 128l711 760q90 98 166 98q77 0 113 -49t24 -121l-127 -737h123q49 0 77 -26q27 -27 27 -69t-36 -77t-97 -35h-129l-37 -230q-18 -113 -110 -112q-47 0 -78 34t-23 87l37 221h-553z" />
    <glyph glyph-name="five" unicode="5" horiz-adv-x="1222" 
d="M650 764q-114 0 -294 -84q-78 -37 -137 1t-45 122l80 487q25 147 172 148h618q45 0 74 -29t29 -74t-39 -78t-96 -32h-557l-56 -334q145 61 310 61t278 -104t113 -264t-79 -277q-141 -209 -499 -282q-156 -33 -327 -33q-83 0 -126 33t-43 79t33 76q33 31 76 31l109 -4
q346 0 538 158q102 84 102 187q0 104 -60 158t-174 54z" />
    <glyph glyph-name="six" unicode="6" horiz-adv-x="1341" 
d="M649 188q139 0 220 81t81 205t-70 193q-72 69 -224 69t-316 -93q-10 -57 -10 -119q4 -172 92 -254t227 -82zM698 926q211 0 340 -125t129 -309q0 -224 -138 -368q-137 -144 -373 -144t-387 148t-150 407q0 382 184 642q92 131 247 205t339 74t268 -33q66 -27 66 -80
t-32 -83t-85 -29l-205 14q-199 0 -335 -96t-187 -293q154 70 319 70z" />
    <glyph glyph-name="seven" unicode="7" horiz-adv-x="1079" 
d="M252 -8q-66 0 -96 44q-31 44 -6 105q100 235 256 477t438 607h-619q-45 1 -73 31t-29 75q0 45 36 76t89 31h762q61 0 98 -29t37 -81t-41 -105q-295 -375 -465 -636t-283 -507q-38 -88 -104 -88z" />
    <glyph glyph-name="eight" unicode="8" horiz-adv-x="1372" 
d="M656 -20q-236 0 -392 112q-154 112 -153 303q0 123 76 229q77 105 223 138q-86 41 -132 116t-47 160q-1 199 147 309q148 109 370 109t365 -105q142 -105 142 -261q0 -123 -66 -217q-67 -93 -196 -128q93 -45 153 -129t60 -196q0 -205 -156 -323q-158 -117 -394 -117z
M334 404q0 -116 87 -168q87 -54 228 -54t237 64t97 178q0 116 -83 172t-229 57q-146 0 -242 -66q-95 -67 -95 -183zM736 834q134 0 221 61t87 157t-77 151q-78 57 -208 57t-223 -56t-94 -176q0 -90 80 -142t214 -52z" />
    <glyph glyph-name="nine" unicode="9" horiz-adv-x="1333" 
d="M1010 879q0 188 -87 278t-227 90t-227 -82q-86 -82 -86 -203q0 -122 81 -192t241 -70t299 84q6 45 6 95zM652 512q-202 0 -344 126t-142 334t146 346t381 138t382 -144t148 -401q0 -444 -244 -682t-729 -237q-139 0 -139 106q0 43 33 72q34 29 83 27q289 -10 475 86
t252 282q-100 -53 -302 -53z" />
    <glyph glyph-name="colon" unicode=":" horiz-adv-x="518" 
d="M172 -16q-43 0 -70 30t-20 70l24 147q6 41 35 69t71 28t68 -30t19 -73l-25 -147q-6 -41 -32 -68q-27 -26 -70 -26zM294 684q-42 0 -69 31t-20 71l24 148q6 42 34 68t70 26q43 0 69 -30t18 -72l-23 -146q-9 -40 -35 -68t-68 -28z" />
    <glyph glyph-name="semicolon" unicode=";" horiz-adv-x="532" 
d="M109 -221q-45 -1 -71 23t-26 57t43 79t58 125l22 134q8 45 37 69t67 23q37 0 65 -30t20 -81l-19 -110q-14 -82 -36 -130t-68 -104t-92 -55zM322 684q-43 0 -70 31t-21 71l25 148q6 42 35 68t71 26t67 -30q26 -30 20 -72l-25 -146q-6 -40 -32 -68t-70 -28z" />
    <glyph glyph-name="less" unicode="&#x3c;" horiz-adv-x="1263" 
d="M916 1350q38 0 69 -30t31 -75t-39 -78l-508 -411q-27 -23 -27 -39t27 -39l510 -412q39 -33 39 -78q0 -44 -30 -74t-68 -30t-70 25l-561 456q-86 70 -86 152t86 151l559 457q30 25 68 25z" />
    <glyph glyph-name="equal" unicode="=" horiz-adv-x="1263" 
d="M1032 414h-801q-45 0 -75 30t-29 73q0 44 30 73t74 28h801q47 0 77 -28t30 -73q0 -43 -32 -73t-75 -30zM1032 817h-801q-45 0 -75 30t-29 74q0 45 30 73t74 28h801q45 0 76 -29t31 -73t-32 -73q-32 -30 -75 -30z" />
    <glyph glyph-name="greater" unicode="&#x3e;" horiz-adv-x="1263" 
d="M356 84q-36 0 -68 30t-32 74t39 78l508 412q50 37 0 78l-508 411q-39 33 -39 78t30 75t66 30t72 -25l561 -457q84 -68 84 -152t-84 -151l-561 -456q-31 -25 -68 -25z" />
    <glyph glyph-name="question" unicode="?" horiz-adv-x="1148" 
d="M469 512q-35 0 -61 30t-25 68q0 68 94 109q9 4 57 23t114 51t95 58q29 27 59 57q56 57 56 145t-52 143t-153 55q-129 0 -286 -139q-51 -45 -95 -45t-68 28q-26 29 -26 69t39 87q74 85 191 143t241 58q174 0 295 -111t121 -285t-134 -304q-134 -129 -386 -226
q-41 -14 -76 -14zM398 -16q-42 0 -70 30t-19 70l23 139q6 43 34 70t70 27t69 -32q26 -30 19 -71l-24 -139q-6 -42 -33 -68t-69 -26z" />
    <glyph glyph-name="at" unicode="@" horiz-adv-x="1753" 
d="M989 227q0 -104 -194 -104q-154 0 -240 97t-61 269l20 134q59 381 397 381q175 0 279 -112t74 -282l-33 -188q-11 -59 17 -89t69 -30q92 0 110 105l48 270q45 258 -111 421t-422 163q-223 0 -388 -136t-220 -378q-37 -158 -53 -353q-27 -268 103 -400t384 -132
q102 0 233 45q61 20 98 -6q36 -27 36 -72q0 -63 -78 -98q-113 -54 -311 -54t-355 80q-158 80 -240 246q-83 166 -63 402q12 172 51 354q72 346 288 516t513 170q358 0 567 -227t152 -562l-43 -247q-23 -137 -104 -208q-80 -71 -202 -71t-199 88t-54 211l30 176
q18 100 -34 160q-53 59 -143 59q-185 0 -222 -227l-16 -109q-16 -117 22 -161t123 -43l103 12q31 -1 50 -21t19 -49z" />
    <glyph glyph-name="A" unicode="A" horiz-adv-x="1357" 
d="M783 1241q-30 0 -48 -39l-293 -571h482l-105 573q-6 37 -36 37zM52 -8q-64 0 -93 51t2 111l590 1128q92 178 254 178q78 0 136 -48t77 -146l213 -1125q13 -59 -13 -104t-85 -45q-95 0 -115 104l-66 350h-600l-196 -380q-40 -74 -104 -74z" />
    <glyph glyph-name="B" unicode="B" horiz-adv-x="1361" 
d="M745 834q133 0 219 59q85 59 85 166q0 180 -250 180h-307l-70 -405h323zM688 201q135 1 225 67q91 66 91 174t-60 164q-60 57 -160 58h-391l-76 -463h371zM233 0q-73 0 -107 43t-22 115l187 1124q27 158 184 158h346q209 0 327 -91t118 -249q0 -117 -56 -210t-170 -138
v-4q174 -82 174 -293t-147 -333t-381 -122h-453z" />
    <glyph glyph-name="C" unicode="C" horiz-adv-x="1339" 
d="M657 186q223 0 332 220q39 76 105 75q42 -1 74 -27t32 -61t-16 -80q-60 -139 -190 -237t-324 -99q-270 0 -427 161t-145 431q6 195 77 417t227 348t386 126q180 0 314 -86t180 -219q20 -55 20 -91t-28 -68q-29 -32 -76 -31q-78 0 -111 77q-41 104 -120 158
q-80 53 -183 53q-160 0 -264 -104q-104 -105 -151 -277t-53 -326t80 -256q85 -104 261 -104z" />
    <glyph glyph-name="D" unicode="D" horiz-adv-x="1427" 
d="M569 201q233 0 359 93q174 129 209 515q23 201 -83 315t-311 115h-245l-172 -1038h243zM231 0q-67 0 -103 44t-24 116l189 1122q25 158 180 158h272q315 0 473 -168t138 -445q-8 -131 -39 -268q-72 -297 -259 -428t-497 -131h-330z" />
    <glyph glyph-name="E" unicode="E" horiz-adv-x="1251" 
d="M473 1440h655q51 0 79 -29t28 -72t-31 -71t-78 -29h-630l-72 -422h567q45 1 73 -27t28 -68t-30 -67t-73 -26h-594l-71 -428h620q49 0 78 -29t29 -73q0 -43 -32 -71t-79 -28h-704q-158 0 -132 168l187 1114q22 158 182 158z" />
    <glyph glyph-name="F" unicode="F" horiz-adv-x="1185" 
d="M479 1440h645q49 0 78 -29t29 -72t-33 -73t-78 -31h-618l-76 -455h559q47 0 75 -28t28 -70q0 -41 -30 -69t-75 -27h-590l-82 -492q-18 -102 -106 -102q-53 0 -82 36t-21 93l195 1163q27 156 182 156z" />
    <glyph glyph-name="G" unicode="G" horiz-adv-x="1398" 
d="M1135 772q67 0 97 -34t25 -91q-10 -100 -22 -170q-39 -211 -180 -355t-397 -144t-413 159t-147 397t77 458t223 344t380 124q178 0 309 -80t185 -209q18 -47 18 -85t-28 -70q-28 -31 -74 -31q-68 0 -94 64q-84 203 -314 202q-307 0 -407 -358q-43 -145 -57 -325t79 -285
q95 -105 251 -105t252 76q95 76 124 219l20 100h-233q-45 0 -76 27t-31 70q0 42 33 72t86 30h314z" />
    <glyph glyph-name="H" unicode="H" horiz-adv-x="1527" 
d="M205 -8q-53 0 -82 36t-21 93l205 1225q8 46 37 74t75 28t76 -38t19 -97l-82 -490h717l86 523q8 46 37 74q28 28 74 28t76 -38t20 -97l-203 -1221q-16 -100 -106 -100q-53 0 -82 37t-21 92l84 493h-715l-88 -520q-16 -102 -106 -102z" />
    <glyph glyph-name="I" unicode="I" horiz-adv-x="600" 
d="M419 1448q45 0 75 -38t20 -97l-203 -1221q-8 -47 -38 -74q-29 -26 -75 -26t-76 37t-20 94l205 1223q8 46 37 74t75 28z" />
    <glyph glyph-name="J" unicode="J" horiz-adv-x="1017" 
d="M372 -23q-160 0 -256 66q-97 66 -143 160q-18 45 -18 85t31 70t71 29q66 0 95 -61q66 -133 200 -133q188 0 230 239l147 911q16 104 107 105q50 0 80 -38t20 -93l-143 -903q-33 -217 -147 -327t-274 -110z" />
    <glyph glyph-name="K" unicode="K" horiz-adv-x="1320" 
d="M419 1448q46 0 76 -38t19 -93l-80 -475h41q33 0 55 9t58 44l530 508q45 43 89 43t73 -27t29 -73t-47 -86l-568 -529l439 -561q57 -82 -1 -147q-28 -31 -81 -31t-88 51l-416 541q-25 33 -47 41t-58 8h-43l-88 -541q-8 -47 -38 -74q-29 -26 -75 -26t-75 37t-21 92l205 1222
q8 49 37 77t75 28z" />
    <glyph glyph-name="L" unicode="L" horiz-adv-x="1103" 
d="M940 201q51 0 79 -29t28 -73q0 -43 -32 -71t-77 -28h-702q-76 0 -110 42t-22 118l197 1183q18 104 107 105q52 0 82 -38t20 -97l-186 -1112h616z" />
    <glyph glyph-name="M" unicode="M" horiz-adv-x="1843" 
d="M1470 1217q-16 0 -24 -21l-412 -1044q-61 -160 -200 -160q-70 0 -116 50t-52 138l-70 1016q-4 20 -18 21q-18 0 -23 -23l-326 -1116q-10 -39 -40 -63q-29 -23 -77 -23t-77 40t-12 97l335 1122q61 209 230 209q80 0 135 -57t61 -154l62 -985q2 -18 17 -18t22 18l387 993
q80 203 229 203q84 0 136 -60t51 -157l-31 -1137q-4 -115 -113 -114q-44 0 -74 32t-28 82l43 1088q1 23 -15 23z" />
    <glyph glyph-name="N" unicode="N" horiz-adv-x="1570" 
d="M1114 -8q-115 0 -168 125l-457 1063h-4q-14 -111 -63 -424l-111 -662q-18 -102 -106 -102q-53 0 -82 36t-21 93l193 1143q16 94 64 139q49 45 107 45t93 -23t50 -47t34 -63l459 -1047h4q20 188 68 467l102 611q16 102 112 102q46 0 77 -38q30 -38 20 -97l-193 -1135
q-33 -186 -178 -186z" />
    <glyph glyph-name="O" unicode="O" horiz-adv-x="1435" 
d="M672 186q164 0 270 94t144 246q38 154 53 328q14 174 -88 286q-101 112 -267 112t-278 -102t-150 -268q-37 -166 -47 -286q-17 -202 91 -306t272 -104zM676 -23q-256 1 -432 173t-150 456q16 166 39 281q51 262 220 418q169 155 437 155t430 -177t138 -441
q-12 -154 -39 -289q-51 -274 -219 -425t-424 -151z" />
    <glyph glyph-name="P" unicode="P" horiz-adv-x="1320" 
d="M737 721q152 0 248 75t96 218q0 102 -72 164q-73 61 -206 61h-299l-88 -518h321zM205 -8q-53 0 -82 36t-21 93l197 1173q12 66 53 106t111 40h350q231 0 361 -119t131 -293q0 -217 -151 -365t-415 -149h-358l-70 -420q-18 -102 -106 -102z" />
    <glyph glyph-name="Q" unicode="Q" horiz-adv-x="1445" 
d="M680 186q78 0 131 19l-158 239q-20 31 -20 65q-1 33 25 61t73 28t76 -45l166 -252q90 99 124 239t48 314t-88 286q-101 112 -267 112t-278 -102q-112 -101 -148 -258q-35 -157 -49 -296q-19 -206 93 -308t272 -102zM684 -23q-256 0 -432 171t-152 458q12 139 37 271
q51 268 220 426q169 157 438 157t431 -177t138 -441q-16 -160 -39 -289q-53 -281 -225 -426l125 -190q20 -31 20 -63q-1 -32 -27 -60t-71 -27q-45 0 -74 39l-137 201q-113 -50 -252 -50z" />
    <glyph glyph-name="R" unicode="R" horiz-adv-x="1386" 
d="M739 737q164 0 254 77t90 193t-75 174q-76 58 -211 58h-295l-84 -502h321zM205 -8q-53 0 -82 37t-21 94l197 1171q10 66 55 106t115 40h342q225 0 359 -115t134 -290t-98 -297q-100 -122 -303 -169l258 -405q23 -33 23 -73t-29 -71q-29 -30 -82 -30t-94 63l-272 434
q-17 27 -27 37q-28 29 -74 29h-219l-76 -459q-18 -102 -106 -102z" />
    <glyph glyph-name="S" unicode="S" horiz-adv-x="1286" 
d="M720 1251q-156 0 -228 -60t-72 -141q0 -80 70 -128t245 -106q176 -58 289 -148t113 -270q1 -180 -143 -300q-144 -121 -382 -121q-164 -1 -316 55t-220 124q-45 41 -45 87q-1 45 29 75t74 30t108 -46t166 -82q104 -36 220 -36t202 60q88 60 88 148q0 89 -67 135t-181 84
t-182 69q-190 85 -250 205q-37 72 -37 164q0 188 145 300t359 111q264 0 442 -119q70 -43 70 -96t-28 -84t-73 -31t-94 31q-147 90 -302 90z" />
    <glyph glyph-name="T" unicode="T" horiz-adv-x="1189" 
d="M197 1239q-49 0 -78 30q-29 31 -29 73t32 70t77 28h972q51 0 79 -29t28 -72t-31 -71t-78 -29h-393l-192 -1145q-18 -102 -107 -102q-53 0 -82 36t-20 93l190 1118h-368z" />
    <glyph glyph-name="U" unicode="U" horiz-adv-x="1462" 
d="M365 1448q53 0 83 -38t19 -95l-113 -672q-42 -243 60 -351t288 -108q146 0 248 106t135 298l125 758q8 46 38 74t76 28t76 -38t19 -97l-123 -744q-50 -309 -206 -450t-385 -142q-266 0 -435 163q-84 81 -119 219q-36 138 -6 315l115 672q16 102 105 102z" />
    <glyph glyph-name="V" unicode="V" horiz-adv-x="1361" 
d="M1305 1448q47 0 77 -30t31 -70q0 -40 -18 -74l-594 -1118q-49 -94 -105 -136t-133 -43q-78 -1 -132 51t-73 144l-223 1124q-12 60 17 106t81 46q104 0 121 -100l209 -1125q3 -18 17 -18t22 18l590 1139q45 86 113 86z" />
    <glyph glyph-name="W" unicode="W" horiz-adv-x="1902" 
d="M1319 209q8 0 10 10l412 1131q35 98 112 98q49 0 79 -29t30 -63t-10 -60l-445 -1161q-59 -158 -188 -158q-76 1 -129 49t-62 142l-81 1030q1 6 -5 7t-10 -5l-428 -1065q-63 -158 -190 -158q-78 -1 -131 53t-58 130l-65 1151q-2 63 30 100q33 37 78 37t77 -30t34 -79
l49 -1118q0 -10 7 -11t11 9l422 1065q66 164 193 164q68 0 113 -49t53 -139l82 -1041q2 -10 10 -10z" />
    <glyph glyph-name="X" unicode="X" horiz-adv-x="1376" 
d="M1167 94q1 -38 -29 -70t-87 -32t-97 65l-305 498l-473 -506q-53 -57 -100 -57t-79 31t-32 75t43 90l524 557l-319 525q-20 32 -20 72t28 73q29 33 85 33t97 -66l297 -487l480 508q47 45 93 45t76 -29q29 -29 29 -76t-43 -92l-518 -546l330 -535q20 -37 20 -76z" />
    <glyph glyph-name="Y" unicode="Y" horiz-adv-x="1280" 
d="M86 1344q0 40 32 72t85 32t94 -64l342 -548l543 569q43 43 91 43t78 -30q29 -30 29 -76t-43 -91l-557 -571q-53 -57 -63 -105l-80 -481q-16 -102 -105 -102q-52 0 -82 37t-20 92l76 454q8 58 -27 113l-370 580q-23 36 -23 76z" />
    <glyph glyph-name="Z" unicode="Z" horiz-adv-x="1214" 
d="M956 0h-802q-70 0 -107 36t-37 92t68 134l850 977h-617q-49 0 -78 30q-29 29 -29 71t33 71q32 29 76 29h777q70 0 104 -33t35 -88q0 -55 -74 -141l-850 -977h653q49 0 78 -29t29 -73q0 -43 -32 -71t-77 -28z" />
    <glyph glyph-name="bracketleft" unicode="[" horiz-adv-x="765" 
d="M510 -147q45 0 73 -26q27 -26 27 -71t-38 -80t-91 -34h-370q-55 0 -82 34t-17 88l283 1737q20 121 135 121h369q43 0 69 -27t25 -73q0 -46 -35 -77q-35 -32 -88 -32h-272l-260 -1560h272z" />
    <glyph glyph-name="backslash" unicode="\" horiz-adv-x="724" 
d="M532 -98q-46 0 -76 24t-38 64l-330 1413q-12 51 18 95t78 44t78 -24t37 -64l328 -1417q14 -53 -17 -94t-78 -41z" />
    <glyph glyph-name="bracketright" unicode="]" horiz-adv-x="749" 
d="M242 1413q-49 0 -79 27q-30 28 -30 74t33 77t80 31h387q55 0 82 -33t16 -88l-282 -1737q-18 -123 -136 -122h-360q-47 0 -75 28t-28 72q0 45 35 78t88 33h273l260 1560h-264z" />
    <glyph glyph-name="asciicircum" unicode="^" horiz-adv-x="1132" 
d="M565 1456q117 0 176 -145l205 -502q16 -39 -4 -80t-60 -54t-79 4t-49 56l-164 451q-8 20 -24 20t-25 -20l-162 -451q-10 -39 -49 -56t-79 -4t-61 54q-20 41 -4 80l205 506q57 141 174 141z" />
    <glyph glyph-name="underscore" unicode="_" horiz-adv-x="946" 
d="M956 -236v-172h-966v172h966z" />
    <glyph glyph-name="grave" unicode="`" 
d="M725 1634q-1 -40 -25 -64t-59 -24t-59 15l-265 143q-47 27 -47 70q0 44 25 68t57 24t56 -13l270 -151q47 -27 47 -68z" />
    <glyph glyph-name="a" unicode="a" horiz-adv-x="1110" 
d="M266 334q0 -172 238 -172q122 0 205 55l36 229q-119 56 -226 56t-180 -43t-73 -125zM492 -20q-206 0 -318 100t-113 252q0 152 116 245t280 93t317 -62l17 97q16 100 -35 153t-154 53t-225 -51q-59 -14 -97 12t-38 80q0 53 67 88q113 62 304 62t300 -110t74 -308
l-90 -518q-10 -59 -53 -88q-146 -98 -352 -98z" />
    <glyph glyph-name="b" unicode="b" horiz-adv-x="1183" 
d="M850 418q31 124 35 236q5 112 -55 179t-170 67t-238 -71l-100 -593q113 -53 247 -54q224 0 281 236zM403 1460q53 0 82 -37t21 -94l-47 -285q119 57 227 58q182 0 302 -117t104 -338q-8 -123 -39 -262q-90 -406 -486 -405q-145 0 -267 44t-164 79t-32 92l193 1165
q16 100 106 100z" />
    <glyph glyph-name="c" unicode="c" horiz-adv-x="1114" 
d="M549 182q172 0 231 150q25 59 90 59q41 -1 70 -27t29 -58q0 -129 -146 -245q-103 -81 -291 -81t-323 126t-115 351q12 106 39 237q41 201 169 304q128 104 298 104t276 -71q154 -105 154 -241q0 -38 -28 -68t-86 -30t-76 58q-47 150 -236 149q-215 0 -270 -244
q-23 -96 -34 -215q-10 -118 60 -188t189 -70z" />
    <glyph glyph-name="d" unicode="d" horiz-adv-x="1216" 
d="M539 182q121 0 223 70l94 573q-38 27 -106 51t-142 23q-219 0 -274 -244q-19 -76 -33 -208q-15 -133 51 -199t187 -66zM1051 1460q53 0 82 -37t20 -94l-192 -1159q-7 -33 -19 -49t-43 -35q-163 -106 -365 -106t-331 124t-109 353q8 81 44 259t160 281q124 105 293 105
t300 -72l55 330q16 100 105 100z" />
    <glyph glyph-name="e" unicode="e" horiz-adv-x="1118" 
d="M795 629q31 0 36 28q27 137 -34 199t-180 64q-119 0 -189 -72t-96 -219h463zM846 250q30 0 56 -28t26 -68q0 -61 -72 -101q-135 -74 -309 -73q-221 0 -346 124t-107 330q4 39 43 251t174 314q135 103 323 103t312 -121q125 -121 76 -350l-8 -37q-33 -131 -150 -131h-559
l-6 -37q-19 -121 51 -183q70 -63 193 -63t239 56q33 14 64 14z" />
    <glyph glyph-name="f" unicode="f" horiz-adv-x="839" 
d="M952 1360q0 -45 -24 -75t-58 -30q-33 -1 -83 13t-93 14q-152 0 -182 -176l-10 -72h235q45 0 73 -28t28 -67q0 -40 -30 -67t-73 -26h-260l-125 -756q-16 -100 -112 -98q-46 0 -76 37q-29 37 -21 94l121 723h-49q-47 0 -74 28t-27 67q0 40 30 67t73 26h78l14 84
q61 360 395 361q94 0 191 -41q59 -33 59 -78z" />
    <glyph glyph-name="g" unicode="g" horiz-adv-x="1185" 
d="M639 899q-229 0 -285 -244q-27 -129 -32 -209q-14 -120 46 -190t178 -70t240 74l97 584q-103 55 -244 55zM146 -104q37 0 75 -23q121 -86 245 -86q249 0 290 274q-117 -59 -248 -59q-190 0 -300 119t-93 319q10 117 39 254q41 203 167 305t322 103q135 0 245 -39t165 -81
t45 -97l-137 -836q-39 -246 -167 -351t-335 -106q-103 0 -199 35t-149 78q-55 39 -55 86t26 76q27 29 64 29z" />
    <glyph glyph-name="h" unicode="h" horiz-adv-x="1230" 
d="M762 1102q162 0 270 -113t70 -336l-94 -561q-14 -100 -107 -100q-51 0 -80 36t-20 93l88 522q40 248 -195 250q-63 0 -140 -31t-128 -86l-115 -686q-16 -98 -106 -98q-53 0 -82 37t-21 94l207 1237q16 100 105 100q56 0 84 -37t18 -94l-53 -309q137 82 299 82z" />
    <glyph glyph-name="i" unicode="i" horiz-adv-x="595" 
d="M205 -8q-53 0 -82 37t-21 94l146 866q16 100 104 101q53 0 82 -38t21 -96l-144 -866q-16 -98 -106 -98zM541 1375q0 -50 -36 -90t-89 -40t-85 34t-32 85t36 89t89 38t85 -33t32 -83z" />
    <glyph glyph-name="j" unicode="j" horiz-adv-x="593" 
d="M543 1375q0 -50 -35 -90t-88 -40t-86 34t-33 85t37 89t90 38t84 -33t31 -83zM-71 -387q-39 0 -67 27q-28 26 -28 74t49 83q115 78 167 164t71 207l135 821q16 100 104 101q53 0 82 -38t21 -96l-125 -751q-39 -227 -112 -347t-212 -218q-45 -27 -85 -27z" />
    <glyph glyph-name="k" unicode="k" horiz-adv-x="1118" 
d="M414 1460q53 0 82 -37t20 -94l-113 -676h41q36 -1 56 9t53 43l350 350q39 39 83 39t73 -26t29 -71t-39 -84l-381 -364l282 -385q31 -37 31 -76t-27 -68q-26 -28 -78 -28t-90 51l-268 371q-31 43 -98 43h-47l-62 -367q-18 -98 -106 -98q-53 0 -82 37t-21 94l207 1237
q17 100 105 100z" />
    <glyph glyph-name="l" unicode="l" horiz-adv-x="575" 
d="M414 1460q53 0 82 -37t20 -94l-205 -1239q-16 -98 -106 -98q-53 0 -82 37t-21 94l207 1237q16 100 105 100z" />
    <glyph glyph-name="m" unicode="m" horiz-adv-x="1740" 
d="M1413 -8q-53 0 -81 36t-19 93l88 534q37 237 -175 237q-106 0 -220 -91q4 -76 -9 -150l-92 -557q-15 -104 -113 -102q-46 0 -75 36t-21 93l95 545q41 227 -177 227q-108 0 -200 -62l-123 -741q-16 -98 -107 -98q-53 0 -82 37t-20 94l131 784q8 49 61 90q58 41 154 73
t197 32q203 0 290 -131q161 131 349 131t286 -119t64 -326l-94 -565q-16 -100 -107 -100z" />
    <glyph glyph-name="n" unicode="n" horiz-adv-x="1208" 
d="M881 -8q-51 0 -80 36t-21 93l88 522q32 195 -125 239q-39 11 -86 11q-131 0 -245 -68l-121 -735q-16 -98 -107 -98q-53 0 -82 37t-20 94l131 782q10 57 61 90q180 107 392 107t332 -113t83 -338l-94 -559q-14 -100 -106 -100z" />
    <glyph glyph-name="o" unicode="o" horiz-adv-x="1153" 
d="M610 899q-223 0 -278 -248q-18 -81 -32 -205t60 -194t191 -70q211 0 272 250q21 96 32 210t-63 186t-182 71zM624 1102q190 0 322 -125t117 -342q-8 -117 -41 -252q-43 -197 -167 -300q-123 -103 -313 -103t-328 124t-122 345q8 117 41 251q43 198 173 300
q128 102 318 102z" />
    <glyph glyph-name="p" unicode="p" horiz-adv-x="1175" 
d="M569 182q219 0 275 246q23 108 34 224t-54 182q-64 66 -186 66t-222 -69l-99 -579q98 -70 252 -70zM594 -20q-162 0 -309 73l-60 -360q-16 -100 -104 -101q-53 0 -83 38t-20 96l199 1187q6 35 17 51t42 35q164 103 367 103t332 -125t106 -350q-10 -101 -37 -238
q-40 -201 -164 -305t-286 -104z" />
    <glyph glyph-name="q" unicode="q" horiz-adv-x="1163" 
d="M604 899q-221 0 -278 -233q-79 -320 18 -420q61 -64 177 -64t229 64l104 596q-109 57 -250 57zM604 1102q139 0 267 -45q127 -45 169 -78t31 -92l-199 -1194q-16 -100 -106 -101q-53 0 -82 38t-18 94l49 296q-92 -40 -214 -40q-252 1 -368 201q-61 108 -52 243t42 272
q96 406 481 406z" />
    <glyph glyph-name="r" unicode="r" horiz-adv-x="790" 
d="M844 971q0 -43 -28 -73t-64 -30t-84 14t-101 13q-147 0 -174 -174l-102 -631q-18 -98 -107 -98q-53 0 -82 37t-20 94l108 645q31 184 124 259q92 75 228 75q302 0 302 -131z" />
    <glyph glyph-name="s" unicode="s" horiz-adv-x="1030" 
d="M889 308q0 -144 -111 -236t-289 -92q-125 0 -239 44q-206 80 -205 177q0 39 28 65q27 26 63 27q36 0 73 -25q143 -94 274 -94q92 0 146 37q53 37 53 96t-50 90q-54 32 -189 88q-133 55 -201 122t-68 181q0 146 118 230t302 84t309 -103q47 -39 47 -82t-24 -71t-61 -29
q-38 0 -83 25q-123 68 -210 68t-139 -34t-52 -84t38 -82q38 -30 165 -82t180 -89q125 -87 125 -231z" />
    <glyph glyph-name="t" unicode="t" horiz-adv-x="868" 
d="M723 129q0 -65 -80 -107q-81 -42 -227 -42t-233 105t-54 308l135 811q18 111 115 111q51 0 77 -32t17 -81l-24 -153h270q47 0 74 -27t27 -68q0 -42 -30 -68t-73 -26h-301l-82 -485q-35 -197 127 -197q39 0 99 22t86 21t52 -27t25 -65z" />
    <glyph glyph-name="u" unicode="u" horiz-adv-x="1187" 
d="M549 188q121 0 231 74l119 727q16 100 105 101q55 0 85 -37t19 -97l-131 -776q-8 -53 -55 -84q-176 -116 -386 -116t-334 133t-85 366l84 508q18 102 108 103q51 0 80 -37t21 -92l-82 -494q-24 -145 38 -212t183 -67z" />
    <glyph glyph-name="v" unicode="v" horiz-adv-x="1071" 
d="M984 1090q66 0 94 -50t-7 -116l-422 -781q-45 -84 -92 -124t-111 -39q-145 0 -182 178l-162 786q-12 62 20 104t85 42q88 0 108 -99l105 -540q25 -139 29 -234q2 -16 15 -17t19 13q57 162 99 238l295 559q41 80 107 80z" />
    <glyph glyph-name="w" unicode="w" horiz-adv-x="1646" 
d="M870 827q-10 0 -14 -12l-289 -678q-37 -84 -78 -121q-41 -36 -107 -36t-116 46q-49 46 -57 128l-82 800q-6 64 23 100q28 36 76 36q102 0 110 -105l53 -567q4 -43 4 -209q0 -18 15 -19q10 0 16 15q53 154 72 196l235 553q57 135 172 136q131 0 148 -154l49 -524
q4 -70 8 -205q0 -16 12 -17q11 0 38 79t38 106l258 633q29 82 105 82q57 0 87 -46t1 -112l-342 -797q-66 -156 -193 -155q-70 0 -117 48t-55 126l-59 657q-1 16 -11 16z" />
    <glyph glyph-name="x" unicode="x" horiz-adv-x="1099" 
d="M96 -8q-47 0 -77 28q-29 28 -29 71q0 42 39 81l383 397l-219 346q-23 33 -23 74t28 71t78 30t82 -50l207 -331l326 340q41 41 85 41t72 -29t28 -72t-44 -90l-350 -364l236 -373q22 -33 22 -73t-28 -69q-28 -28 -78 -28t-82 49l-224 354l-350 -364q-35 -39 -82 -39z" />
    <glyph glyph-name="y" unicode="y" horiz-adv-x="1054" 
d="M484 295q9 0 18 12q55 133 110 232l262 477q41 74 105 74q65 0 91 -56t-7 -108l-514 -910q-156 -276 -320 -381q-66 -43 -116 -43q-51 0 -79 27t-28 66q0 61 70 96q150 80 268 289l-227 870q-16 66 13 108q30 42 89 42q80 -1 107 -99l114 -446q23 -88 35 -236
q0 -14 9 -14z" />
    <glyph glyph-name="z" unicode="z" horiz-adv-x="1011" 
d="M764 193q49 0 76 -27q26 -27 26 -68q0 -42 -30 -70t-74 -28h-608q-61 0 -96 34q-34 34 -34 86t48 99l622 653h-428q-49 0 -77 28q-27 28 -27 69t31 69t75 29h576q68 0 104 -34t35 -87q0 -53 -45 -98l-623 -655h449z" />
    <glyph glyph-name="braceleft" unicode="{" horiz-adv-x="788" 
d="M248 -358q-86 0 -140 61t-40 150l84 487q29 152 -70 238q-29 26 -29 62t49 71q133 86 158 239l78 502q12 76 66 123t133 47h309q42 0 70 -30t28 -74t-37 -75q-37 -32 -88 -32h-209q-61 0 -73 -61l-64 -400q-35 -227 -197 -307q127 -98 91 -303l-76 -426q-6 -27 8 -44
t41 -17h209q45 0 73 -28t28 -74t-38 -78q-37 -32 -90 -31h-274z" />
    <glyph glyph-name="bar" unicode="|" horiz-adv-x="591" 
d="M287 -287q-45 0 -76 33t-31 78v1773q0 47 31 80t76 33t77 -33t31 -80v-1773q1 -47 -31 -79t-77 -32z" />
    <glyph glyph-name="braceright" unicode="}" horiz-adv-x="788" 
d="M256 -358h-311q-41 0 -70 30t-29 73q0 44 37 76t90 32h209q61 0 72 61l63 399q35 225 197 308q-125 98 -88 303l76 426q4 27 -10 44t-41 17h-209q-45 0 -73 28q-28 27 -28 73t37 78t92 32h273q88 0 141 -60t39 -151l-84 -487q-26 -155 59 -228t-8 -143
q-135 -88 -160 -240l-75 -501q-11 -76 -67 -123t-132 -47z" />
    <glyph glyph-name="asciitilde" unicode="~" horiz-adv-x="1294" 
d="M847 569q-83 1 -209 53t-194 52t-132 -32t-106 -32t-72 34t-30 75q0 80 86 117q170 72 251 72t206 -53q125 -52 199 -52t162 45q38 18 78 18t70 -35t30 -73q0 -78 -88 -115q-168 -74 -251 -74z" />
    <glyph glyph-name="exclamdown" unicode="&#xa1;" horiz-adv-x="487" 
d="M396 1440q42 0 69 -30t20 -71l-22 -141q-6 -41 -35 -68q-29 -26 -71 -26q-41 0 -67 30t-20 70l23 142q5 42 33 68t70 26zM309 952q43 0 70 -30t20 -68l-112 -760q-8 -53 -41 -82q-33 -28 -79 -28t-75 34t-18 91l139 751q16 92 96 92z" />
    <glyph glyph-name="cent" unicode="&#xa2;" horiz-adv-x="1087" 
d="M481 -18q-45 0 -71 34t-19 76l27 164q-125 37 -189 135q-63 98 -49 242q42 511 395 555l27 162q16 104 103 104q45 0 71 -31t19 -73l-29 -172q72 -20 128 -68q95 -82 95 -176q-1 -41 -27 -70q-26 -28 -76 -28t-85 65q-55 102 -166 103q-178 0 -229 -201
q-23 -104 -29 -183q-6 -80 39 -136t147 -56q51 0 101 29t84 87t82 58t72 -24q26 -24 26 -63q0 -38 -29 -87q-100 -170 -291 -186l-26 -158q-19 -102 -101 -102z" />
    <glyph glyph-name="sterling" unicode="&#xa3;" horiz-adv-x="1255" 
d="M1006 215q46 0 74 -31q28 -30 28 -74t-35 -77t-96 -33h-737q-78 0 -109 57t2 121q6 10 66 105q98 155 108 290h-112q-43 0 -70 29t-27 73t35 75t88 30h96q-12 168 0 258q25 190 150 303t315 113q115 0 226 -51t155 -109q78 -102 13 -164q-31 -28 -73 -28t-79 31
q-124 109 -240 109t-178 -65t-76 -144t2 -253h267q45 0 73 -28t27 -71q0 -44 -35 -76t-94 -32h-246q-18 -194 -145 -358h627z" />
    <glyph glyph-name="currency" unicode="&#xa4;" horiz-adv-x="1249" 
d="M634 465q81 0 139 56q57 57 61 125t1 139t-61 128t-139 57q-80 0 -137 -56t-62 -136q-4 -41 0 -122t60 -136t138 -55zM635 287q-123 0 -221 78l-152 -152q-31 -31 -70 -31q-38 0 -66 28t-28 66t31 72l166 168q-33 72 -36 138t0 128q3 64 36 140l-166 170q-31 32 -31 70
t27 66t67 28t70 -33l154 -152q102 78 221 78t217 -78l154 152q32 33 70 33t67 -28t29 -66t-33 -70l-164 -168q33 -74 36 -140t0 -133q-3 -68 -36 -137l166 -166q31 -35 31 -72q0 -38 -28 -66t-68 -28t-70 31l-152 152q-98 -78 -221 -78z" />
    <glyph glyph-name="yen" unicode="&#xa5;" horiz-adv-x="1296" 
d="M532 -8q-54 0 -82 37t-20 92l47 280h-194q-43 0 -71 30t-28 73t37 74t90 30h197l4 21q6 33 -35 94l-360 545q-25 36 -25 76t31 71t83 31t95 -62l340 -522l539 543q47 41 92 41t75 -29q29 -29 29 -75t-43 -89l-540 -534q-61 -61 -68 -90l-4 -21h201q48 0 76 -26t28 -71
q0 -44 -37 -77t-90 -33h-211l-49 -307q-17 -102 -107 -102z" />
    <glyph glyph-name="brokenbar" unicode="&#xa6;" horiz-adv-x="581" 
d="M287 786q-45 0 -76 33t-31 78v700q0 47 31 80t76 33t75 -33t31 -80v-700q-1 -47 -31 -79t-75 -32zM287 -287q-45 0 -76 33t-31 78v700q0 47 31 80t76 33t75 -33t31 -80v-700q-1 -47 -31 -79t-75 -32z" />
    <glyph glyph-name="section" unicode="&#xa7;" horiz-adv-x="1136" 
d="M827 560q0 52 -49 81q-50 29 -164 64t-198 75q-60 -55 -60 -105t52 -83q52 -34 174 -68q124 -34 194 -63q51 47 51 99zM492 -211q-127 0 -246 39t-161 81t-42 85t34 77q34 33 75 33t67 -18q127 -84 289 -84q110 0 174 54t63 139q0 37 -12 54t-22 31t-60 33
q-60 23 -106 35q-219 57 -295 122q-76 66 -76 157q0 125 113 229q-61 78 -62 184q0 180 132 297t339 117q122 0 226 -41q182 -72 182 -162q0 -45 -30 -75t-65 -29q-35 0 -79 20q-125 74 -238 74q-114 0 -180 -52t-66 -129t56 -113t204 -80q150 -45 226 -109t76 -172
t-105 -197q61 -72 62 -184q0 -174 -128 -295t-345 -121z" />
    <glyph glyph-name="dieresis" unicode="&#xa8;" 
d="M653 1778q47 0 76 -28t29 -77t-35 -84t-83 -35t-77 29t-29 76t36 83t83 36zM305 1778q47 0 76 -28t29 -77t-35 -84t-83 -35t-77 29t-29 76t36 83t83 36z" />
    <glyph glyph-name="copyright" unicode="&#xa9;" horiz-adv-x="1591" 
d="M797 1147q104 0 185 -50t116 -128q16 -41 16 -63t-21 -40q-22 -18 -56 -18t-58 45q-53 113 -182 113q-80 0 -130 -56q-49 -56 -55 -128q-6 -74 -2 -174t56 -156q52 -55 131 -56q129 0 182 111q25 47 59 47t55 -18t21 -40t-16 -63q-35 -78 -116 -128t-185 -50
q-141 0 -236 92q-94 92 -104 234q-10 100 0 200q10 141 104 234q95 92 236 92zM795 1298q-185 0 -323 -126t-153 -316q-14 -139 0 -281q13 -188 151 -314t324 -126t325 126q138 126 153 314q10 141 0 281q-14 190 -152 316t-325 126zM795 1450q254 0 436 -171t196 -433
q6 -129 0 -256q-14 -262 -196 -433t-436 -171t-437 171q-182 171 -196 433q-6 127 0 256q14 260 196 432q183 172 437 172z" />
    <glyph glyph-name="ordfeminine" unicode="&#xaa;" horiz-adv-x="940" 
d="M395 735q109 0 193 84q2 43 33 236l28 174q-61 43 -176 43q-164 0 -205 -170q-25 -106 -30 -174q-19 -193 157 -193zM373 563q-143 0 -235 94q-91 94 -75 261q8 98 31 204q68 328 379 328q109 0 195 -28t129 -60t30 -96l-57 -340q-14 -50 -7 -100t14 -68t25 -54t19 -66
q-1 -30 -27 -54t-62 -23q-36 -1 -56 19t-49 82q-111 -99 -254 -99z" />
    <glyph glyph-name="guillemotleft" unicode="&#xab;" horiz-adv-x="1181" 
d="M63 715q0 98 99 164l295 204q33 23 71 23t64 -27t26 -69t-51 -76l-239 -172q-33 -23 -33 -42t16 -36l181 -168q30 -30 30 -66t-26 -65t-68 -29q-41 0 -82 35l-217 197q-66 53 -66 127zM539 715q0 98 98 164l295 204q36 23 72 23t63 -27t27 -69t-52 -76l-239 -172
q-33 -23 -33 -42t16 -36l181 -168q31 -30 31 -66t-28 -65q-26 -29 -67 -29t-82 35l-217 197q-65 53 -65 127z" />
    <glyph glyph-name="logicalnot" unicode="&#xac;" horiz-adv-x="1263" 
d="M940 616h-733q-43 0 -74 30t-31 72t31 72t74 29h807q61 0 96 -36t35 -91v-393q0 -45 -29 -76t-73 -31q-43 0 -73 32t-30 75v317z" />
    <glyph glyph-name="registered" unicode="&#xae;" horiz-adv-x="1226" 
d="M609 336q-202 0 -337 130t-149 343q-6 88 0 174q14 213 149 343t337 130t338 -131t151 -342q4 -86 0 -174q-14 -211 -150 -342t-339 -131zM610 463q152 0 249 89q138 126 110 437q-11 162 -109 252t-250 90t-250 -90t-110 -252q-28 -312 110 -437q98 -89 250 -89z
M526 672q0 -26 -16 -42t-42 -16t-43 16t-17 42v434q0 29 19 49t52 21h162q78 0 130 -46t52 -120q0 -113 -108 -156l114 -143q31 -51 -3 -82q-17 -17 -46 -17t-45 29l-121 164q-12 18 -32 18h-56v-151zM522 918h99q90 0 90 78t-86 77h-103v-155z" />
    <glyph glyph-name="macron" unicode="&#xaf;" 
d="M332 1565q-43 1 -69 25q-25 24 -25 60t28 64t78 29h320q42 0 64 -25q22 -24 22 -60t-27 -65t-72 -28h-319z" />
    <glyph glyph-name="degree" unicode="&#xb0;" horiz-adv-x="759" 
d="M413 1307q-61 0 -99 -45q-38 -44 -38 -96t30 -84t89 -33q59 0 98 45q37 45 37 97t-28 84q-29 32 -89 32zM401 909q-119 0 -193 70q-74 69 -73 179q0 110 79 200t200 90q120 0 190 -70t70 -180t-77 -199q-77 -90 -196 -90z" />
    <glyph glyph-name="plusminus" unicode="&#xb1;" horiz-adv-x="1263" 
d="M1047 0h-830q-45 0 -76 30t-31 72t31 72q31 29 76 29h830q45 0 75 -29t31 -72q1 -42 -31 -72t-75 -30zM735 379q-1 -45 -29 -76t-72 -31t-73 32t-29 75v315h-315q-45 0 -76 30t-31 74t32 72q30 28 75 29h315v313q0 45 30 76t73 31t72 -31t28 -76v-313h312q45 0 75 -29
q30 -28 31 -72q0 -44 -32 -74t-74 -30h-312v-315z" />
    <glyph glyph-name="twosuperior" unicode="&#xb2;" horiz-adv-x="884" 
d="M266 684h340q45 0 70 -25q24 -25 24 -61t-30 -66q-30 -29 -86 -28h-430q-92 0 -93 88q0 207 236 348q17 10 79 42t101 54t74 62q35 39 35 84q0 44 -29 72t-82 28q-90 0 -176 -82q-39 -35 -71 -35t-56 23q-53 51 10 131q47 57 128 93q82 36 186 36t187 -69t83 -189
q0 -188 -277 -330q-223 -112 -223 -176z" />
    <glyph glyph-name="threesuperior" unicode="&#xb3;" horiz-adv-x="835" 
d="M246 1235q-47 0 -73 26q-26 25 -26 63t29 68t78 29h395q45 -1 72 -25t27 -73t-64 -100l-174 -146q94 -10 154 -67t61 -166q0 -174 -152 -270t-362 -95q-47 0 -92 8q-74 18 -74 82q0 37 28 64t77 26h65q104 -1 180 27q144 52 144 160q0 102 -117 102l-98 -6q-25 0 -45 17
q-21 17 -21 49t31 57l211 170h-254z" />
    <glyph glyph-name="acute" unicode="&#xb4;" 
d="M299 1710l289 139q79 31 119 -11q23 -24 22 -56q0 -57 -70 -88l-286 -135q-58 -29 -103 12q-24 23 -24 69t53 70z" />
    <glyph glyph-name="mu" unicode="&#xb5;" horiz-adv-x="1234" 
d="M143 -406q-47 0 -77 35t-21 90l209 1252q18 119 113 119q49 0 77 -33t19 -88l-84 -500q-23 -143 39 -215t185 -72q122 0 222 70l123 721q20 117 113 117q47 0 77 -32t19 -85l-133 -793q-8 -51 -62 -89t-156 -74t-210 -35q-186 0 -281 122l-65 -401q-19 -109 -107 -109z
" />
    <glyph glyph-name="mu" unicode="&#x3bc;" horiz-adv-x="1234" 
d="M143 -406q-47 0 -77 35t-21 90l209 1252q18 119 113 119q49 0 77 -33t19 -88l-84 -500q-23 -143 39 -215t185 -72q122 0 222 70l123 721q20 117 113 117q47 0 77 -32t19 -85l-133 -793q-8 -51 -62 -89t-156 -74t-210 -35q-186 0 -281 122l-65 -401q-19 -109 -107 -109z
" />
    <glyph glyph-name="paragraph" unicode="&#xb6;" horiz-adv-x="1447" 
d="M721 1227q-125 0 -215 -76t-90 -202t68 -183t178 -57h71l88 518h-100zM671 -393q-48 0 -79 34t-23 80l129 777h-45q-217 0 -344 125t-127 323t148 342q148 143 393 144h534q86 0 123 -43t25 -117l-258 -1555q-8 -49 -37 -79t-76 -31q-47 0 -79 33t-23 81l250 1496h-150
l-248 -1500q-17 -110 -113 -110z" />
    <glyph glyph-name="periodcentered" unicode="&#xb7;" horiz-adv-x="514" 
d="M240 561q-41 0 -68 31t-20 72l26 157q6 41 35 68t71 27t68 -30t17 -73l-25 -158q-8 -43 -36 -69t-68 -25z" />
    <glyph glyph-name="cedilla" unicode="&#xb8;" 
d="M445 76q41 0 56 -31t-7 -65l-43 -72q77 -2 125 -48t48 -133t-82 -154q-83 -67 -200 -99q-18 -6 -46 -6t-48 17t-21 46q0 53 64 74q14 7 57 20q78 24 105 57q26 32 26 58q0 51 -59 51l-68 -10q-37 0 -54 29t1 63l78 150q27 53 68 53z" />
    <glyph glyph-name="onesuperior" unicode="&#xb9;" horiz-adv-x="659" 
d="M336 498q-45 0 -69 32t-17 74l96 578l-133 -64q-41 -24 -85 -4t-44 74t57 86l269 139q44 25 78 25t54 -29t13 -80l-121 -733q-18 -98 -98 -98z" />
    <glyph glyph-name="ordmasculine" unicode="&#xba;" horiz-adv-x="901" 
d="M472 1266q-75 0 -125 -48t-66 -136q-17 -88 -23 -164t44 -126t126 -51q145 0 182 174q12 68 18 156q6 87 -37 141q-44 54 -119 54zM486 1446q157 0 250 -106t81 -267q-9 -287 -144 -418q-95 -92 -249 -92q-154 -1 -254 101t-92 266q6 94 18 168q33 168 133 258t257 90z
" />
    <glyph glyph-name="guillemotright" unicode="&#xbb;" horiz-adv-x="1181" 
d="M655 750q0 -96 -100 -166l-293 -203q-41 -25 -75 -25q-35 0 -61 27t-26 69t52 78l239 170q33 25 33 43t-18 37l-179 168q-33 25 -33 64q0 40 28 68q26 28 65 28t86 -35l217 -199q65 -54 65 -124zM1126 750q0 -96 -100 -166l-293 -203q-41 -25 -75 -25t-60 27
q-27 27 -27 69t52 78l239 170q33 25 33 43t-18 37l-179 168q-32 25 -32 64q0 40 26 68t66 28q39 0 86 -35l217 -199q65 -54 65 -124z" />
    <glyph glyph-name="onequarter" unicode="&#xbc;" horiz-adv-x="2039" 
d="M518 -63q-49 -1 -81 27q-54 47 -15 126l770 1360q33 55 83 55q50 1 80 -25q55 -47 11 -130l-768 -1356q-31 -57 -80 -57zM352 498q-46 0 -70 32t-18 74l98 578l-135 -64q-41 -24 -85 -4t-44 74t58 86l268 139q34 19 70 19t60 -28t15 -75l-120 -733q-19 -98 -97 -98z
M1618 358l63 367l-358 -367h295zM1206 195q-108 0 -108 99q0 50 71 118l463 462q60 62 116 62t85 -34t18 -91l-75 -453h71q39 0 62 -22t23 -54t-28 -59t-77 -26h-78l-20 -113q-12 -84 -84 -84q-35 0 -58 24t-14 64l18 107h-385z" />
    <glyph glyph-name="onehalf" unicode="&#xbd;" horiz-adv-x="2054" 
d="M1436 180h340q46 0 70 -24t24 -62t-31 -66t-86 -28h-430q-92 0 -92 88q0 207 235 348q18 10 80 42t100 54q40 22 74 62q34 39 35 84q0 45 -29 73t-81 27q-90 0 -177 -82q-70 -63 -126 -12q-54 52 10 131q47 57 128 93q82 36 186 36t186 -68t83 -190q0 -188 -276 -330
q-223 -112 -223 -176zM371 498q-45 0 -69 32t-17 74l96 578l-133 -64q-41 -24 -85 -4t-44 74t57 86l268 139q45 25 79 25q35 0 55 -29t12 -80l-121 -733q-18 -98 -98 -98zM540 -68q-48 0 -80 28t-32 62t18 64l768 1360q34 57 84 57q50 1 80 -25t29 -62q0 -36 -18 -70
l-768 -1356q-32 -58 -81 -58z" />
    <glyph glyph-name="threequarters" unicode="&#xbe;" horiz-adv-x="2160" 
d="M285 1008q0 32 30 57l211 170h-254q-46 0 -72 26q-26 25 -26 63t29 68t78 29h395q45 -1 72 -25q26 -24 26 -73t-63 -100l-174 -146q94 -10 154 -67t61 -166q0 -174 -152 -270t-362 -95q-47 0 -93 8q-74 18 -73 82q0 37 27 64q28 27 77 26h66q104 -1 180 27
q143 52 143 160q0 102 -116 102l-99 -6q-25 0 -45 17t-20 49zM688 -68q-49 0 -80 28q-53 48 -14 126l768 1360q37 57 85 57q48 1 79 -25q30 -26 30 -63t-20 -69l-768 -1356q-31 -58 -80 -58zM1745 358l63 367l-358 -367h295zM1333 195q-107 0 -107 99q0 50 72 118l463 462
q57 62 113 62t86 -34q29 -34 18 -91l-73 -453h69q41 0 64 -22q22 -22 22 -54t-28 -59t-76 -26h-80l-18 -113q-16 -84 -84 -84q-35 0 -58 24t-14 64l16 107h-385z" />
    <glyph glyph-name="questiondown" unicode="&#xbf;" horiz-adv-x="1148" 
d="M665 926q35 0 61 -30t26 -69q0 -68 -95 -108q-8 -4 -110 -45t-144 -77q-41 -36 -71 -67q-54 -57 -55 -145t51 -143q52 -56 168 -56q114 0 272 140q51 45 94 45t69 -28q25 -28 25 -69t-38 -88q-74 -86 -191 -143t-242 -57q-174 0 -295 110q-120 110 -120 286
q0 175 134 304t386 225q40 15 75 15zM736 1454q42 0 70 -30t19 -70l-22 -140q-6 -44 -34 -70t-71 -26q-42 0 -68 31t-20 72l25 139q7 42 33 68t68 26z" />
    <glyph glyph-name="Agrave" unicode="&#xc0;" horiz-adv-x="1357" 
d="M944 1634q0 -40 -24 -64t-60 -24q-35 0 -59 15l-264 143q-47 27 -47 70q0 44 24 68t56 24t57 -13l270 -151q47 -27 47 -68zM783 1241q-30 0 -48 -39l-293 -571h482l-105 573q-6 37 -36 37zM52 -8q-64 0 -93 51t2 111l590 1128q92 178 254 178q78 0 136 -48t77 -146
l213 -1125q13 -59 -13 -104t-85 -45q-95 0 -115 104l-66 350h-600l-196 -380q-40 -74 -104 -74z" />
    <glyph glyph-name="Aacute" unicode="&#xc1;" horiz-adv-x="1357" 
d="M686 1640q0 46 53 70l289 139q79 31 119 -11q23 -24 22 -56q0 -57 -69 -88l-287 -135q-59 -29 -103 12q-24 23 -24 69zM783 1241q-30 0 -48 -39l-293 -571h482l-105 573q-6 37 -36 37zM52 -8q-64 0 -93 51t2 111l590 1128q92 178 254 178q78 0 136 -48t77 -146l213 -1125
q13 -59 -13 -104t-85 -45q-95 0 -115 104l-66 350h-600l-196 -380q-40 -74 -104 -74z" />
    <glyph glyph-name="Acircumflex" unicode="&#xc2;" horiz-adv-x="1357" 
d="M599 1534q-31 0 -53 22t-22 62q0 39 47 72l224 155q39 27 77 27t72 -31l166 -155q35 -35 35 -71t-24 -60q-23 -23 -59 -23t-65 29l-137 127l-198 -134q-33 -20 -63 -20zM783 1241q-30 0 -48 -39l-293 -571h482l-105 573q-6 37 -36 37zM52 -8q-64 0 -93 51t2 111l590 1128
q92 178 254 178q78 0 136 -48t77 -146l213 -1125q13 -59 -13 -104t-85 -45q-95 0 -115 104l-66 350h-600l-196 -380q-40 -74 -104 -74z" />
    <glyph glyph-name="Atilde" unicode="&#xc3;" horiz-adv-x="1357" 
d="M974 1538q-66 0 -142 39t-106 39t-69 -31t-67 -31t-54 24q-24 24 -24 58t45 74q90 76 176 76q53 0 130 -40t105 -40t68 35t71 35t55 -23t24 -59t-53 -84q-93 -72 -159 -72zM783 1241q-30 0 -48 -39l-293 -571h482l-105 573q-6 37 -36 37zM52 -8q-64 0 -93 51t2 111
l590 1128q92 178 254 178q78 0 136 -48t77 -146l213 -1125q13 -59 -13 -104t-85 -45q-95 0 -115 104l-66 350h-600l-196 -380q-40 -74 -104 -74z" />
    <glyph glyph-name="Adieresis" unicode="&#xc4;" horiz-adv-x="1357" 
d="M1032 1778q47 0 76 -28t29 -77t-35 -84t-83 -35t-77 29t-29 76t36 83t83 36zM684 1778q47 0 76 -28q28 -28 28 -77t-34 -84t-83 -35q-48 0 -77 29t-29 76t36 83t83 36zM783 1241q-30 0 -48 -39l-293 -571h482l-105 573q-6 37 -36 37zM52 -8q-64 0 -93 51t2 111l590 1128
q92 178 254 178q78 0 136 -48t77 -146l213 -1125q13 -59 -13 -104t-85 -45q-95 0 -115 104l-66 350h-600l-196 -380q-40 -74 -104 -74z" />
    <glyph glyph-name="Aring" unicode="&#xc5;" horiz-adv-x="1357" 
d="M862 1649q41 -1 68 29q26 30 26 69t-22 63t-63 23q-39 0 -67 -31q-28 -30 -28 -68t22 -62t64 -23zM874 1948q92 0 147 -54q54 -54 54 -139q-1 -85 -61 -153t-152 -68t-147 55t-55 140t60 152q62 67 154 67zM783 1241q-30 0 -48 -39l-293 -571h482l-105 573q-6 37 -36 37z
M52 -8q-64 0 -93 51t2 111l590 1128q92 178 254 178q78 0 136 -48t77 -146l213 -1125q13 -59 -13 -104t-85 -45q-95 0 -115 104l-66 350h-600l-196 -380q-40 -74 -104 -74z" />
    <glyph glyph-name="AE" unicode="&#xc6;" horiz-adv-x="2101" 
d="M1126 1237q-47 0 -86 -51l-399 -516h397l95 567h-7zM84 -8q-47 0 -75 28q-58 57 -1 138l879 1147q61 79 131 107t186 28h776q49 0 78 -29t29 -72t-32 -71t-77 -29h-632l-70 -422h565q47 1 74 -27t27 -68t-30 -67t-73 -26h-594l-71 -428h620q49 0 78 -29t29 -73
q0 -43 -32 -71t-77 -28h-707q-158 0 -131 168l52 311h-498l-336 -436q-41 -51 -88 -51z" />
    <glyph glyph-name="Ccedilla" unicode="&#xc7;" horiz-adv-x="1339" 
d="M764 1460q206 0 336 -86t182 -219q20 -55 20 -93t-30 -68q-31 -30 -76 -29q-76 0 -109 77q-41 104 -121 158q-81 53 -182 53q-160 0 -264 -104q-104 -103 -149 -269t-53 -328t78 -263q85 -102 261 -103q223 0 332 220q39 76 105 75q42 -1 74 -27t32 -61t-16 -80
q-55 -135 -180 -232t-322 -104l-41 -69q76 -2 125 -48t49 -118q0 -102 -83 -169t-200 -99q-18 -6 -46 -6t-47 17t-19 46q0 49 65 74q147 47 177 100q8 16 8 35q0 51 -60 51l-67 -10q-37 0 -55 29q-17 29 1 63l60 115q-213 30 -338 186t-114 377t79 437t226 344
q156 128 362 128z" />
    <glyph glyph-name="Egrave" unicode="&#xc8;" horiz-adv-x="1251" 
d="M958 1634q0 -40 -24 -64t-60 -24q-35 0 -59 15l-264 143q-47 27 -47 70q0 44 24 68t57 24q32 0 56 -13l270 -151q47 -27 47 -68zM473 1440h655q51 0 79 -29t28 -72t-31 -71t-78 -29h-630l-72 -422h567q45 1 73 -27t28 -68t-30 -67t-73 -26h-594l-71 -428h620q49 0 78 -29
t29 -73q0 -43 -32 -71t-79 -28h-704q-158 0 -132 168l187 1114q22 158 182 158z" />
    <glyph glyph-name="Eacute" unicode="&#xc9;" horiz-adv-x="1251" 
d="M688 1710l289 139q79 31 119 -11q23 -24 22 -56q0 -57 -69 -88l-287 -135q-58 -29 -103 12q-25 23 -25 69t54 70zM473 1440h655q51 0 79 -29t28 -72t-31 -71t-78 -29h-630l-72 -422h567q45 1 73 -27t28 -68t-30 -67t-73 -26h-594l-71 -428h620q49 0 78 -29t29 -73
q0 -43 -32 -71t-79 -28h-704q-158 0 -132 168l187 1114q22 158 182 158z" />
    <glyph glyph-name="Ecircumflex" unicode="&#xca;" horiz-adv-x="1251" 
d="M576 1534q-30 0 -52 22t-22 62q0 39 47 72l223 155q39 27 78 27t72 -31l165 -155q35 -35 35 -71t-24 -60q-24 -23 -59 -23q-36 0 -64 29l-137 127l-199 -134q-33 -20 -63 -20zM473 1440h655q51 0 79 -29t28 -72t-31 -71t-78 -29h-630l-72 -422h567q45 1 73 -27t28 -68
t-30 -67t-73 -26h-594l-71 -428h620q49 0 78 -29t29 -73q0 -43 -32 -71t-79 -28h-704q-158 0 -132 168l187 1114q22 158 182 158z" />
    <glyph glyph-name="Edieresis" unicode="&#xcb;" horiz-adv-x="1251" 
d="M1022 1778q47 0 76 -28q28 -28 28 -77t-34 -84t-83 -35q-48 0 -77 29t-29 76t36 83t83 36zM674 1778q47 0 76 -28q28 -28 28 -77t-35 -84t-83 -35t-76 29t-29 76q0 47 36 83t83 36zM473 1440h655q51 0 79 -29t28 -72t-31 -71t-78 -29h-630l-72 -422h567q45 1 73 -27
t28 -68t-30 -67t-73 -26h-594l-71 -428h620q49 0 78 -29t29 -73q0 -43 -32 -71t-79 -28h-704q-158 0 -132 168l187 1114q22 158 182 158z" />
    <glyph glyph-name="Igrave" unicode="&#xcc;" horiz-adv-x="606" 
d="M539 1634q-1 -40 -25 -64t-59 -24t-60 15l-264 143q-47 27 -47 70q0 44 25 68t57 24t55 -13l271 -151q47 -27 47 -68zM415 1448q45 0 75 -38t20 -97l-203 -1221q-8 -47 -38 -74q-29 -26 -75 -26t-76 37t-20 94l205 1223q8 46 37 74t75 28z" />
    <glyph glyph-name="Iacute" unicode="&#xcd;" horiz-adv-x="606" 
d="M807 1782q0 -57 -70 -88l-286 -135q-58 -29 -103 12q-24 23 -24 69t53 70l289 139q80 31 118 -11q23 -24 23 -56zM410 1448q46 0 76 -38t20 -97l-203 -1221q-8 -47 -38 -74q-29 -26 -75 -26t-76 37t-20 94l205 1223q8 46 37 74q28 28 74 28z" />
    <glyph glyph-name="Icircumflex" unicode="&#xce;" horiz-adv-x="606" 
d="M196 1534q-30 0 -53 22t-23 62q0 39 48 72l223 155q41 27 79 27t71 -31l166 -155q35 -35 35 -71t-24 -60q-24 -23 -60 -23t-64 29l-137 127l-199 -134q-32 -20 -62 -20zM410 1448q46 0 76 -38t20 -97l-203 -1221q-8 -47 -38 -74q-29 -26 -75 -26t-76 37t-20 94l205 1223
q8 46 37 74q28 28 74 28z" />
    <glyph glyph-name="Idieresis" unicode="&#xcf;" horiz-adv-x="606" 
d="M643 1778q47 0 76 -28t29 -77t-35 -84t-83 -35t-77 29t-29 76t36 83t83 36zM295 1778q47 0 76 -28t29 -77t-36 -84q-34 -35 -82 -35t-77 29t-29 76t36 83t83 36zM415 1448q45 0 75 -38t20 -97l-203 -1221q-8 -47 -38 -74q-29 -26 -75 -26t-76 37t-20 94l205 1223
q8 46 37 74t75 28z" />
    <glyph glyph-name="Eth" unicode="&#xd0;" horiz-adv-x="1417" 
d="M559 201q233 0 357 93q176 132 208 515q23 201 -86 315t-307 115h-246l-69 -426h274q45 0 72 -28q26 -27 26 -65t-28 -69t-78 -30h-297l-70 -420h244zM221 0q-69 0 -105 44t-24 116l78 461h-86q-47 -1 -73 25q-25 26 -25 66t30 70t82 31h105l78 469q29 158 182 158h278
q307 0 464 -169t138 -444q-33 -513 -295 -696q-187 -131 -497 -131h-330z" />
    <glyph glyph-name="Ntilde" unicode="&#xd1;" horiz-adv-x="1570" 
d="M1078 1538q-66 0 -142 39t-107 39t-69 -31t-67 -31t-53 24t-24 58t46 74q90 76 176 76q53 0 130 -40q76 -40 104 -40t69 35t71 35t54 -23t24 -59t-53 -84q-93 -72 -159 -72zM1114 -8q-115 0 -168 125l-457 1063h-4q-14 -111 -63 -424l-111 -662q-18 -102 -106 -102
q-53 0 -82 36t-21 93l193 1143q16 94 64 139q49 45 107 45t93 -23t50 -47t34 -63l459 -1047h4q20 188 68 467l102 611q16 102 112 102q46 0 77 -38q30 -38 20 -97l-193 -1135q-33 -186 -178 -186z" />
    <glyph glyph-name="Ograve" unicode="&#xd2;" horiz-adv-x="1435" 
d="M995 1634q-1 -40 -25 -64t-59 -24t-59 15l-264 143q-47 27 -47 70q1 44 25 68t56 24t56 -13l270 -151q47 -27 47 -68zM678 186q164 0 270 94t144 246q38 154 53 328q14 174 -88 286q-101 112 -267 112t-278 -102t-150 -268q-37 -166 -47 -286q-17 -202 91 -306t272 -104z
M682 -23q-256 1 -432 173t-150 456q16 166 39 281q51 262 220 418q169 155 437 155t430 -177t138 -441q-12 -154 -39 -289q-51 -274 -219 -425t-424 -151z" />
    <glyph glyph-name="Oacute" unicode="&#xd3;" horiz-adv-x="1435" 
d="M1217 1782q0 -57 -70 -88l-287 -135q-59 -29 -102 12q-25 23 -25 69t53 70l289 139q80 31 119 -11q23 -24 23 -56zM678 186q164 0 270 94t144 246q38 154 53 328q14 174 -88 286q-101 112 -267 112t-278 -102t-150 -268q-37 -166 -47 -286q-17 -202 91 -306t272 -104z
M682 -23q-256 1 -432 173t-150 456q16 166 39 281q51 262 220 418q169 155 437 155t430 -177t138 -441q-12 -154 -39 -289q-51 -274 -219 -425t-424 -151z" />
    <glyph glyph-name="Ocircumflex" unicode="&#xd4;" horiz-adv-x="1435" 
d="M636 1534q-30 0 -52 22t-23 62q0 39 47 72l223 155q39 27 77 27t73 -31l166 -155q35 -35 35 -71t-24 -60q-24 -23 -60 -23t-64 29l-137 127l-199 -134q-32 -20 -62 -20zM678 186q164 0 270 94t144 246q38 154 53 328q14 174 -88 286q-101 112 -267 112t-278 -102
t-150 -268q-37 -166 -47 -286q-17 -202 91 -306t272 -104zM682 -23q-256 1 -432 173t-150 456q16 166 39 281q51 262 220 418q169 155 437 155t430 -177t138 -441q-12 -154 -39 -289q-51 -274 -219 -425t-424 -151z" />
    <glyph glyph-name="Otilde" unicode="&#xd5;" horiz-adv-x="1435" 
d="M990 1538q-66 0 -142 39t-106 39t-68 -31t-68 -31t-54 24t-24 58t45 74q90 76 177 76q53 0 130 -40q76 -40 104 -40t69 35t71 35t54 -23t24 -59t-53 -84q-93 -72 -159 -72zM678 186q164 0 270 94t144 246q38 154 53 328q14 174 -88 286q-101 112 -267 112t-278 -102
t-150 -268q-37 -166 -47 -286q-17 -202 91 -306t272 -104zM682 -23q-256 1 -432 173t-150 456q16 166 39 281q51 262 220 418q169 155 437 155t430 -177t138 -441q-12 -154 -39 -289q-51 -274 -219 -425t-424 -151z" />
    <glyph glyph-name="Odieresis" unicode="&#xd6;" horiz-adv-x="1435" 
d="M1075 1778q47 0 76 -28t29 -77t-35 -84t-83 -35t-77 29t-29 76t36 83t83 36zM727 1778q47 0 76 -28t29 -77t-36 -84q-34 -35 -82 -35t-77 29t-29 76t36 83t83 36zM678 186q164 0 270 94t144 246q38 154 53 328q14 174 -88 286q-101 112 -267 112t-278 -102t-150 -268
q-37 -166 -47 -286q-17 -202 91 -306t272 -104zM682 -23q-256 1 -432 173t-150 456q16 166 39 281q51 262 220 418q169 155 437 155t430 -177t138 -441q-12 -154 -39 -289q-51 -274 -219 -425t-424 -151z" />
    <glyph glyph-name="multiply" unicode="&#xd7;" horiz-adv-x="1263" 
d="M1001 252q-43 0 -75 33l-293 290l-297 -294q-33 -33 -73 -34t-73 29t-31 73q1 44 31 75l299 295l-299 297q-33 31 -32 75q0 43 32 73t71 29q40 -1 73 -32l299 -297l293 291q30 31 74 32t74 -31t28 -74t-31 -70l-295 -293l293 -287q33 -31 34 -73q1 -43 -29 -75t-73 -32z
" />
    <glyph glyph-name="Oslash" unicode="&#xd8;" horiz-adv-x="1435" 
d="M762 1251q-138 0 -250 -101q-112 -102 -150 -268q-37 -166 -45 -264q-16 -151 33 -249l639 825q-89 57 -227 57zM700 186q142 0 248 94t144 246q98 389 14 541l-641 -825q93 -56 235 -56zM684 -23q-203 0 -358 109l-56 -68q-35 -41 -76 -41q-40 0 -64 24q-24 25 -24 61
t33 75l60 72q-119 168 -99 397q16 170 37 273q51 268 220 425t431 156q203 0 351 -102l49 59q35 43 75 43q39 0 65 -24t26 -62q0 -37 -33 -71l-57 -68q123 -156 100 -393q-16 -160 -39 -289q-51 -276 -218 -426t-423 -150z" />
    <glyph glyph-name="Ugrave" unicode="&#xd9;" horiz-adv-x="1462" 
d="M1018 1634q0 -40 -24 -64t-60 -24q-35 0 -60 15l-264 143q-47 27 -47 70q0 44 25 68q24 24 56 24t56 -13l271 -151q47 -27 47 -68zM365 1448q53 0 83 -38t19 -95l-113 -672q-42 -243 60 -351t288 -108q146 0 248 106t135 298l125 758q8 46 38 74t76 28t76 -38t19 -97
l-123 -744q-50 -309 -206 -450t-385 -142q-266 0 -435 163q-84 81 -119 219q-36 138 -6 315l115 672q16 102 105 102z" />
    <glyph glyph-name="Uacute" unicode="&#xda;" horiz-adv-x="1462" 
d="M768 1710l289 139q79 31 119 -11q23 -24 22 -56q0 -57 -70 -88l-286 -135q-58 -29 -103 12q-25 23 -25 69t54 70zM365 1448q53 0 83 -38t19 -95l-113 -672q-42 -243 60 -351t288 -108q146 0 248 106t135 298l125 758q8 46 38 74t76 28t76 -38t19 -97l-123 -744
q-50 -309 -206 -450t-385 -142q-266 0 -435 163q-84 81 -119 219q-36 138 -6 315l115 672q16 102 105 102z" />
    <glyph glyph-name="Ucircumflex" unicode="&#xdb;" horiz-adv-x="1462" 
d="M652 1534q-30 0 -52 22t-22 62q0 39 47 72l223 155q41 27 78 27t71 -31l166 -155q35 -35 35 -71t-24 -60q-24 -23 -59 -23q-36 0 -64 29l-138 127l-198 -134q-33 -20 -63 -20zM365 1448q53 0 83 -38t19 -95l-113 -672q-42 -243 60 -351t288 -108q146 0 248 106t135 298
l125 758q8 46 38 74t76 28t76 -38t19 -97l-123 -744q-50 -309 -206 -450t-385 -142q-266 0 -435 163q-84 81 -119 219q-36 138 -6 315l115 672q16 102 105 102z" />
    <glyph glyph-name="Udieresis" unicode="&#xdc;" horiz-adv-x="1462" 
d="M1090 1778q48 0 76 -28t28 -77t-35 -84t-83 -35t-77 29t-29 76t37 83q36 36 83 36zM741 1778q47 0 76 -28t29 -77t-35 -84t-83 -35t-77 29t-29 76t36 83t83 36zM365 1448q53 0 83 -38t19 -95l-113 -672q-42 -243 60 -351t288 -108q146 0 248 106t135 298l125 758
q8 46 38 74t76 28t76 -38t19 -97l-123 -744q-50 -309 -206 -450t-385 -142q-266 0 -435 163q-84 81 -119 219q-36 138 -6 315l115 672q16 102 105 102z" />
    <glyph glyph-name="Yacute" unicode="&#xdd;" horiz-adv-x="1280" 
d="M1100 1782q0 -57 -70 -88l-287 -135q-59 -29 -102 12q-25 23 -25 69t54 70l288 139q80 31 119 -11q23 -24 23 -56zM86 1344q0 40 32 72t85 32t94 -64l342 -548l543 569q43 43 91 43t78 -30q29 -30 29 -76t-43 -91l-557 -571q-53 -57 -63 -105l-80 -481
q-16 -102 -105 -102q-52 0 -82 37t-20 92l76 454q8 58 -27 113l-370 580q-23 36 -23 76z" />
    <glyph glyph-name="Thorn" unicode="&#xde;" horiz-adv-x="1273" 
d="M684 463q168 0 258 76t90 219q0 233 -297 233h-272l-88 -528h309zM201 -8q-47 0 -77 35t-22 86l203 1220q18 115 117 115q45 0 75 -33t21 -86l-22 -139h215q260 0 403 -113t143 -325t-154 -353q-155 -139 -421 -139h-340l-27 -158q-7 -50 -37 -80t-77 -30z" />
    <glyph glyph-name="germandbls" unicode="&#xdf;" horiz-adv-x="1288" 
d="M180 -8q-49 0 -79 36t-21 89l151 913q72 434 480 434q175 0 289 -87t114 -230q0 -68 -34 -129t-74 -97q-108 -96 -109 -139q0 -18 7 -29t11 -19q5 -8 15 -15q10 -8 16 -14t28 -21t58 -43q88 -61 139 -128t52 -169q0 -154 -111 -259q-112 -105 -300 -105t-325 118
q-45 39 -45 83t27 71t64 27t83 -29q111 -74 201 -74t145 50q54 50 54 114t-33 98q-33 35 -117 86q-84 50 -134 108q-52 58 -52 130t35 130q35 56 78 91q112 91 112 154t-52 97t-142 34q-229 0 -271 -254l-153 -916q-17 -106 -107 -106z" />
    <glyph glyph-name="agrave" unicode="&#xe0;" horiz-adv-x="1110" 
d="M827 1296q-1 -40 -25 -64t-59 -24t-59 15l-264 143q-47 27 -47 70q1 44 25 68t56 24t56 -12l270 -152q47 -27 47 -68zM266 334q0 -172 238 -172q122 0 205 55l36 229q-119 56 -226 56t-180 -43t-73 -125zM492 -20q-206 0 -318 100t-113 252q0 152 116 245t280 93t317 -62
l17 97q16 100 -35 153t-154 53t-225 -51q-59 -14 -97 12t-38 80q0 53 67 88q113 62 304 62t300 -110t74 -308l-90 -518q-10 -59 -53 -88q-146 -98 -352 -98z" />
    <glyph glyph-name="aacute" unicode="&#xe1;" horiz-adv-x="1116" 
d="M557 1374l289 139q79 31 119 -11q23 -24 22 -56q0 -57 -69 -88l-287 -135q-58 -29 -103 12q-24 23 -24 69t53 70zM266 334q0 -172 238 -172q122 0 205 55l36 229q-119 56 -226 56t-180 -43t-73 -125zM492 -20q-206 0 -318 100t-113 252q0 152 116 245t280 93t317 -62
l17 97q16 100 -35 153t-154 53t-225 -51q-59 -14 -97 12t-38 80q0 53 67 88q113 62 304 62t300 -110t74 -308l-90 -518q-10 -59 -53 -88q-146 -98 -352 -98z" />
    <glyph glyph-name="acircumflex" unicode="&#xe2;" horiz-adv-x="1118" 
d="M422 1174q-30 0 -52 22t-22 62q0 38 47 71l223 156q80 56 150 -4l166 -156q35 -35 35 -71t-24 -60q-23 -24 -59 -23q-36 0 -65 29l-137 127l-199 -133q-33 -20 -63 -20zM266 334q0 -172 238 -172q122 0 205 55l36 229q-119 56 -226 56t-180 -43t-73 -125zM492 -20
q-206 0 -318 100t-113 252q0 152 116 245t280 93t317 -62l17 97q16 100 -35 153t-154 53t-225 -51q-59 -14 -97 12t-38 80q0 53 67 88q113 62 304 62t300 -110t74 -308l-90 -518q-10 -59 -53 -88q-146 -98 -352 -98z" />
    <glyph glyph-name="atilde" unicode="&#xe3;" horiz-adv-x="1124" 
d="M810 1214q-66 0 -142 39t-106 39t-68 -30t-68 -31t-54 23t-24 59t45 73q90 76 176 76q53 0 130 -40t105 -40t68 35t71 35t55 -22t24 -60q0 -37 -53 -84q-93 -72 -159 -72zM266 334q0 -172 238 -172q122 0 205 55l36 229q-119 56 -226 56t-180 -43t-73 -125zM492 -20
q-206 0 -318 100t-113 252q0 152 116 245t280 93t317 -62l17 97q16 100 -35 153t-154 53t-225 -51q-59 -14 -97 12t-38 80q0 53 67 88q113 62 304 62t300 -110t74 -308l-90 -518q-10 -59 -53 -88q-146 -98 -352 -98z" />
    <glyph glyph-name="adieresis" unicode="&#xe4;" horiz-adv-x="1114" 
d="M862 1446q47 0 76 -28t29 -77t-35 -84t-83 -35t-77 30q-29 28 -29 75t36 83t83 36zM514 1446q47 0 76 -28q28 -28 28 -77t-34 -84t-83 -35q-48 0 -77 30q-29 28 -29 75t36 83t83 36zM266 334q0 -172 238 -172q122 0 205 55l36 229q-119 56 -226 56t-180 -43t-73 -125z
M492 -20q-206 0 -318 100t-113 252q0 152 116 245t280 93t317 -62l17 97q16 100 -35 153t-154 53t-225 -51q-59 -14 -97 12t-38 80q0 53 67 88q113 62 304 62t300 -110t74 -308l-90 -518q-10 -59 -53 -88q-146 -98 -352 -98z" />
    <glyph glyph-name="aring" unicode="&#xe5;" horiz-adv-x="1110" 
d="M604 1365q0 -37 22 -61t64 -24q41 0 68 30q26 30 26 68t-22 63q-23 23 -63 23q-39 0 -67 -30t-28 -69zM903 1387q-1 -86 -61 -154t-152 -68q-92 -1 -147 55t-55 141t60 151q62 66 154 67q92 0 147 -53q54 -53 54 -139zM266 334q0 -172 238 -172q122 0 205 55l36 229
q-119 56 -226 56t-180 -43t-73 -125zM492 -20q-206 0 -318 100t-113 252q0 152 116 245t280 93t317 -62l17 97q16 100 -35 153t-154 53t-225 -51q-59 -14 -97 12t-38 80q0 53 67 88q113 62 304 62t300 -110t74 -308l-90 -518q-10 -59 -53 -88q-146 -98 -352 -98z" />
    <glyph glyph-name="ae" unicode="&#xe6;" horiz-adv-x="1781" 
d="M1456 629q33 0 39 28q27 135 -33 199t-176 64q-254 0 -301 -291h471zM485 162q164 0 291 92q-27 86 -16 186q-128 62 -238 62t-183 -43t-73 -125t56 -127t163 -45zM242 952q0 53 67 88q119 61 303 62q219 0 326 -156q135 156 365 156q184 0 308 -123t75 -348l-9 -37
q-29 -131 -147 -131h-561q-10 -55 -11 -80q0 -105 72 -153t186 -48t234 56q30 12 60 12t56 -29t25 -63q0 -63 -71 -105q-127 -73 -329 -73t-327 131q-166 -131 -372 -131t-318 100t-113 255q0 155 119 245q120 90 282 90t318 -64l17 96q20 102 -34 156t-159 53
q-105 0 -227 -51q-61 -14 -98 12t-37 80z" />
    <glyph glyph-name="ccedilla" unicode="&#xe7;" horiz-adv-x="1114" 
d="M1030 790q0 -38 -28 -68t-86 -30t-76 58q-53 150 -236 149q-215 0 -270 -244q-23 -94 -34 -214q-10 -119 60 -189t189 -70q170 0 231 150q25 59 90 59q41 -1 70 -27t29 -62t-11 -62q-33 -94 -128 -173t-257 -85l-43 -74q76 -2 125 -48t49 -133t-82 -154q-83 -67 -200 -99
q-18 -6 -46 -6t-48 17t-21 46q0 49 66 74q2 0 21 7t38 12t35 15q15 9 31 18q58 34 59 84q0 50 -57 50l-68 -10q-37 0 -54 29t1 63l59 119q-164 32 -263 152t-81 313q12 106 39 237q41 201 169 304q128 104 298 104t274 -70t142 -166q14 -38 14 -76z" />
    <glyph glyph-name="egrave" unicode="&#xe8;" horiz-adv-x="1118" 
d="M842 1298q0 -40 -24 -64t-60 -24q-35 0 -60 15l-264 143q-47 27 -47 70q0 44 25 68q24 24 56 24t56 -12l271 -152q47 -27 47 -68zM795 629q31 0 36 28q27 137 -34 199t-180 64q-119 0 -189 -72t-96 -219h463zM846 250q30 0 56 -28t26 -68q0 -61 -72 -101
q-135 -74 -309 -73q-221 0 -346 124t-107 330q4 39 43 251t174 314q135 103 323 103t312 -121q125 -121 76 -350l-8 -37q-33 -131 -150 -131h-559l-6 -37q-19 -121 51 -183q70 -63 193 -63t239 56q33 14 64 14z" />
    <glyph glyph-name="eacute" unicode="&#xe9;" horiz-adv-x="1118" 
d="M1014 1444q0 -57 -70 -88l-287 -135q-59 -29 -102 12q-25 23 -25 69t54 70l288 139q80 31 119 -11q23 -24 23 -56zM795 629q31 0 36 28q27 137 -34 199t-180 64q-119 0 -189 -72t-96 -219h463zM846 250q30 0 56 -28t26 -68q0 -61 -72 -101q-135 -74 -309 -73
q-221 0 -346 124t-107 330q4 39 43 251t174 314q135 103 323 103t312 -121q125 -121 76 -350l-8 -37q-33 -131 -150 -131h-559l-6 -37q-19 -121 51 -183q70 -63 193 -63t239 56q33 14 64 14z" />
    <glyph glyph-name="ecircumflex" unicode="&#xea;" horiz-adv-x="1122" 
d="M724 1540q38 0 73 -31l166 -155q35 -35 35 -71q0 -35 -24 -59t-60 -24t-64 29l-137 127l-199 -133q-70 -43 -115 2q-23 23 -23 61t48 72l223 155q39 27 77 27zM795 629q31 0 36 28q27 137 -34 199t-180 64q-119 0 -189 -72t-96 -219h463zM846 250q30 0 56 -28t26 -68
q0 -61 -72 -101q-135 -74 -309 -73q-221 0 -346 124t-107 330q4 39 43 251t174 314q135 103 323 103t312 -121q125 -121 76 -350l-8 -37q-33 -131 -150 -131h-559l-6 -37q-19 -121 51 -183q70 -63 193 -63t239 56q33 14 64 14z" />
    <glyph glyph-name="edieresis" unicode="&#xeb;" horiz-adv-x="1118" 
d="M883 1446q47 0 75 -28t29 -77q0 -49 -35 -84t-83 -35q-49 0 -77 30q-28 28 -28 75t36 83t83 36zM535 1446q47 0 75 -28t29 -77q0 -49 -35 -84t-83 -35t-77 30q-28 28 -28 75t36 83t83 36zM795 629q31 0 36 28q27 137 -34 199t-180 64q-119 0 -189 -72t-96 -219h463z
M846 250q30 0 56 -28t26 -68q0 -61 -72 -101q-135 -74 -309 -73q-221 0 -346 124t-107 330q4 39 43 251t174 314q135 103 323 103t312 -121q125 -121 76 -350l-8 -37q-33 -131 -150 -131h-559l-6 -37q-19 -121 51 -183q70 -63 193 -63t239 56q33 14 64 14z" />
    <glyph glyph-name="igrave" unicode="&#xec;" horiz-adv-x="595" 
d="M203 -8q-53 0 -82 37t-21 94l144 866q16 100 106 101q53 0 82 -38t21 -96l-146 -866q-16 -98 -104 -98zM500 1296q0 -40 -24 -64t-60 -24q-35 0 -60 15l-264 143q-47 27 -47 70q0 44 25 68q24 24 56 24t56 -12l271 -152q47 -27 47 -68z" />
    <glyph glyph-name="iacute" unicode="&#xed;" horiz-adv-x="595" 
d="M203 -8q-53 0 -82 37t-21 94l144 866q16 100 106 101q53 0 82 -38t21 -96l-146 -866q-16 -98 -104 -98zM342 1372l289 139q79 31 119 -11q23 -24 22 -56q0 -57 -70 -88l-286 -135q-58 -29 -103 12q-25 23 -25 69t54 70z" />
    <glyph glyph-name="icircumflex" unicode="&#xee;" horiz-adv-x="595" 
d="M428 1540q39 0 72 -31l166 -155q34 -35 34 -71q0 -35 -24 -59t-58 -24q-36 0 -65 29l-137 127l-199 -133q-70 -43 -115 2q-22 23 -22 61t47 72l223 155q39 27 78 27zM203 -8q-53 0 -82 37t-21 94l144 866q16 100 106 101q53 0 82 -38t21 -96l-146 -866q-16 -98 -104 -98z
" />
    <glyph glyph-name="idieresis" unicode="&#xef;" horiz-adv-x="595" 
d="M203 -8q-53 0 -82 37t-21 94l144 866q16 100 106 101q53 0 82 -38t21 -96l-146 -866q-16 -98 -104 -98zM590 1446q47 0 76 -28q28 -28 28 -77t-35 -84t-83 -35t-76 30q-28 28 -29 75q0 47 36 83t83 36zM242 1446q48 0 76 -28t28 -77t-35 -84t-83 -35t-76 30
q-28 28 -29 75q0 47 36 83t83 36z" />
    <glyph glyph-name="eth" unicode="&#xf0;" horiz-adv-x="1204" 
d="M600 836q-102 0 -172 -60t-96 -158q-73 -277 26 -372q63 -62 172 -62q201 -1 263 232q20 74 30 181t-55 173q-66 66 -168 66zM805 1520q65 0 160 -113l104 45q41 20 81 1t40 -71t-64 -79l-92 -41q82 -174 35 -482q-4 -20 -22 -134t-37 -218q-35 -205 -156 -324
q-120 -118 -324 -118t-328 127t-110 325q6 80 31 197q41 201 163 302t296 101q84 0 170 -32t145 -97q14 182 -37 283l-137 -59q-41 -16 -81 3t-40 70t55 74l123 51q-68 68 -68 103q0 34 26 60t67 26z" />
    <glyph glyph-name="ntilde" unicode="&#xf1;" horiz-adv-x="1212" 
d="M830 1214q-66 0 -142 39t-106 39t-68 -30q-40 -30 -68 -31t-53 23t-25 59t46 73q90 76 176 76q53 0 130 -40q76 -40 104 -40t69 35t71 35t54 -22t24 -60q0 -37 -53 -84q-93 -72 -159 -72zM881 -8q-51 0 -80 36t-21 93l88 522q32 195 -125 239q-39 11 -86 11
q-131 0 -245 -68l-121 -735q-16 -98 -107 -98q-53 0 -82 37t-20 94l131 782q10 57 61 90q180 107 392 107t332 -113t83 -338l-94 -559q-14 -100 -106 -100z" />
    <glyph glyph-name="ograve" unicode="&#xf2;" horiz-adv-x="1153" 
d="M848 1296q0 -40 -24 -64t-60 -24q-35 0 -59 15l-265 143q-47 27 -47 70q0 44 25 68q24 24 56 24t56 -12l271 -152q47 -27 47 -68zM610 899q-223 0 -278 -248q-18 -81 -32 -205t60 -194t191 -70q211 0 272 250q21 96 32 210t-63 186t-182 71zM624 1102q190 0 322 -125
t117 -342q-8 -117 -41 -252q-43 -197 -167 -300q-123 -103 -313 -103t-328 124t-122 345q8 117 41 251q43 198 173 300q128 102 318 102z" />
    <glyph glyph-name="oacute" unicode="&#xf3;" horiz-adv-x="1153" 
d="M1024 1444q0 -57 -70 -88l-286 -135q-58 -29 -103 12q-25 23 -25 69t54 70l289 139q80 31 118 -11q23 -24 23 -56zM610 899q-223 0 -278 -248q-18 -81 -32 -205t60 -194t191 -70q211 0 272 250q21 96 32 210t-63 186t-182 71zM624 1102q190 0 322 -125t117 -342
q-8 -117 -41 -252q-43 -197 -167 -300q-123 -103 -313 -103t-328 124t-122 345q8 117 41 251q43 198 173 300q128 102 318 102z" />
    <glyph glyph-name="ocircumflex" unicode="&#xf4;" horiz-adv-x="1153" 
d="M719 1538q39 0 72 -31l165 -155q35 -35 35 -71q1 -35 -23 -59t-60 -24t-64 29l-137 127l-199 -133q-72 -43 -115 2q-23 23 -23 61t48 72l223 155q39 27 78 27zM610 899q-223 0 -278 -248q-18 -81 -32 -205t60 -194t191 -70q211 0 272 250q21 96 32 210t-63 186t-182 71z
M624 1102q190 0 322 -125t117 -342q-8 -117 -41 -252q-43 -197 -167 -300q-123 -103 -313 -103t-328 124t-122 345q8 117 41 251q43 198 173 300q128 102 318 102z" />
    <glyph glyph-name="otilde" unicode="&#xf5;" horiz-adv-x="1155" 
d="M818 1214q-66 0 -142 39t-106 39t-68 -30t-68 -31t-54 23t-24 59t45 73q90 76 177 76q53 0 130 -40q76 -40 104 -40t69 35t71 35t54 -22t24 -60q0 -37 -53 -84q-93 -72 -159 -72zM610 899q-223 0 -278 -248q-18 -81 -32 -205t60 -194t191 -70q211 0 272 250q21 96 32 210
t-63 186t-182 71zM624 1102q190 0 322 -125t117 -342q-8 -117 -41 -252q-43 -197 -167 -300q-123 -103 -313 -103t-328 124t-122 345q8 117 41 251q43 198 173 300q128 102 318 102z" />
    <glyph glyph-name="odieresis" unicode="&#xf6;" horiz-adv-x="1153" 
d="M887 1446q47 0 76 -28t29 -77t-36 -84q-35 -35 -83 -35q-49 0 -77 30q-28 28 -28 75t36 83t83 36zM539 1446q47 0 75 -28t29 -77q0 -49 -35 -84t-83 -35q-49 0 -77 30q-28 28 -28 75t36 83t83 36zM610 899q-223 0 -278 -248q-18 -81 -32 -205t60 -194t191 -70
q211 0 272 250q21 96 32 210t-63 186t-182 71zM624 1102q190 0 322 -125t117 -342q-8 -117 -41 -252q-43 -197 -167 -300q-123 -103 -313 -103t-328 124t-122 345q8 117 41 251q43 198 173 300q128 102 318 102z" />
    <glyph glyph-name="divide" unicode="&#xf7;" horiz-adv-x="1263" 
d="M1047 614h-830q-45 0 -76 30t-31 73t32 71q30 28 75 29h830q45 0 75 -29q30 -30 31 -72t-31 -72t-75 -30zM598 410q39 14 77 -3t52 -57t-4 -78q-18 -39 -57 -53t-77 5q-38 18 -52 58t4 77t57 51zM598 1217q39 15 77 -5t52 -59t-4 -76t-57 -51t-77 4t-52 56t4 78t57 53z
" />
    <glyph glyph-name="oslash" unicode="&#xf8;" horiz-adv-x="1165" 
d="M606 899q-219 0 -276 -248q-8 -39 -22 -139t-9 -137l477 467q-68 57 -170 57zM551 182q213 0 270 250q13 53 25 146t4 133l-483 -471q69 -58 184 -58zM559 -20q-213 0 -340 118l-72 -71q-33 -33 -65 -33t-52 18t-20 49t33 66l88 86q-55 106 -42 232t40 247
q43 201 173 305q130 105 316 105t312 -113l74 74q30 31 64 31t53 -18t19 -49q0 -32 -36 -69l-86 -81q53 -113 43 -236t-39 -250q-43 -201 -168 -306t-295 -105z" />
    <glyph glyph-name="ugrave" unicode="&#xf9;" horiz-adv-x="1187" 
d="M850 1296q0 -40 -24 -64t-60 -24q-35 0 -59 15l-265 143q-47 27 -47 70q0 44 25 68q24 24 56 24t56 -12l271 -152q47 -27 47 -68zM549 188q121 0 231 74l119 727q16 100 105 101q55 0 85 -37t19 -97l-131 -776q-8 -53 -55 -84q-176 -116 -386 -116t-334 133t-85 366
l84 508q18 102 108 103q51 0 80 -37t21 -92l-82 -494q-24 -145 38 -212t183 -67z" />
    <glyph glyph-name="uacute" unicode="&#xfa;" horiz-adv-x="1187" 
d="M1051 1444q0 -57 -70 -88l-287 -135q-59 -29 -102 12q-24 23 -24 69t53 70l288 139q80 31 119 -11q23 -24 23 -56zM549 188q121 0 231 74l119 727q16 100 105 101q55 0 85 -37t19 -97l-131 -776q-8 -53 -55 -84q-176 -116 -386 -116t-334 133t-85 366l84 508
q18 102 108 103q51 0 80 -37t21 -92l-82 -494q-24 -145 38 -212t183 -67z" />
    <glyph glyph-name="ucircumflex" unicode="&#xfb;" horiz-adv-x="1187" 
d="M385 1286q0 38 47 72l223 155q39 27 77 27t73 -31l166 -155q35 -35 35 -71q0 -35 -24 -59t-60 -24t-64 29l-137 127l-199 -133q-70 -43 -114 2q-22 23 -23 61zM549 188q121 0 231 74l119 727q16 100 105 101q55 0 85 -37t19 -97l-131 -776q-8 -53 -55 -84
q-176 -116 -386 -116t-334 133t-85 366l84 508q18 102 108 103q51 0 80 -37t21 -92l-82 -494q-24 -145 38 -212t183 -67z" />
    <glyph glyph-name="udieresis" unicode="&#xfc;" horiz-adv-x="1187" 
d="M893 1446q47 0 76 -28t29 -77t-36 -84q-34 -35 -82 -35t-77 30q-29 28 -29 75t36 83t83 36zM545 1446q47 0 76 -28t29 -77t-36 -84q-35 -35 -83 -35q-49 0 -77 30q-28 28 -28 75t36 83t83 36zM549 188q121 0 231 74l119 727q16 100 105 101q55 0 85 -37t19 -97l-131 -776
q-8 -53 -55 -84q-176 -116 -386 -116t-334 133t-85 366l84 508q18 102 108 103q51 0 80 -37t21 -92l-82 -494q-24 -145 38 -212t183 -67z" />
    <glyph glyph-name="yacute" unicode="&#xfd;" horiz-adv-x="1054" 
d="M977 1446q0 -57 -70 -88l-286 -135q-59 -30 -103 12q-24 23 -24 69t53 70l289 139q80 31 118 -11q23 -24 23 -56zM484 295q9 0 18 12q55 133 110 232l262 477q41 74 105 74q65 0 91 -56t-7 -108l-514 -910q-156 -276 -320 -381q-66 -43 -116 -43q-51 0 -79 27t-28 66
q0 61 70 96q150 80 268 289l-227 870q-16 66 13 108q30 42 89 42q80 -1 107 -99l114 -446q23 -88 35 -236q0 -14 9 -14z" />
    <glyph glyph-name="thorn" unicode="&#xfe;" horiz-adv-x="1175" 
d="M119 -408q-53 0 -82 36t-21 83l273 1639q20 113 112 112q51 0 77 -37t18 -79l-47 -281q106 37 210 37q205 0 320 -119t106 -301q-8 -137 -43 -289q-94 -414 -473 -413q-134 -1 -288 67l-58 -338q-20 -117 -104 -117zM553 182q221 0 281 238q31 141 38 213q14 123 -48 195
t-179 71q-117 0 -231 -59l-99 -590q35 -24 104 -46t134 -22z" />
    <glyph glyph-name="ydieresis" unicode="&#xff;" horiz-adv-x="1054" 
d="M827 1446q47 0 76 -28t29 -77t-35 -84t-83 -35t-77 30q-29 28 -29 75t36 83t83 36zM479 1446q47 0 76 -28t29 -77t-35 -84t-83 -35t-77 30q-29 28 -29 75t36 83t83 36zM484 295q9 0 18 12q55 133 110 232l262 477q41 74 105 74q65 0 91 -56t-7 -108l-514 -910
q-156 -276 -320 -381q-66 -43 -116 -43q-51 0 -79 27t-28 66q0 61 70 96q150 80 268 289l-227 870q-16 66 13 108q30 42 89 42q80 -1 107 -99l114 -446q23 -88 35 -236q0 -14 9 -14z" />
    <glyph glyph-name="Amacron" unicode="&#x100;" horiz-adv-x="1357" 
d="M694 1565q-42 1 -68 25t-26 60t29 64t78 29h319q41 0 64 -25q22 -24 22 -60t-28 -65t-70 -28h-320zM783 1241q-30 0 -48 -39l-293 -571h482l-105 573q-6 37 -36 37zM52 -8q-64 0 -93 51t2 111l590 1128q92 178 254 178q78 0 136 -48t77 -146l213 -1125q13 -59 -13 -104
t-85 -45q-95 0 -115 104l-66 350h-600l-196 -380q-40 -74 -104 -74z" />
    <glyph glyph-name="amacron" unicode="&#x101;" horiz-adv-x="1110" 
d="M522 1239q-42 0 -68 25q-26 24 -26 60t29 65t78 28h319q41 -1 64 -25q22 -24 22 -60t-28 -64t-70 -29h-320zM266 334q0 -172 238 -172q122 0 205 55l36 229q-119 56 -226 56t-180 -43t-73 -125zM492 -20q-206 0 -318 100t-113 252q0 152 116 245t280 93t317 -62l17 97
q16 100 -35 153t-154 53t-225 -51q-59 -14 -97 12t-38 80q0 53 67 88q113 62 304 62t300 -110t74 -308l-90 -518q-10 -59 -53 -88q-146 -98 -352 -98z" />
    <glyph glyph-name="Abreve" unicode="&#x102;" horiz-adv-x="1357" 
d="M863 1540q-95 0 -162 43t-93 123q-12 29 -12 68t25 59t57 20q59 0 76 -73q8 -27 16 -42q8 -16 31 -30t57 -14q84 0 127 98q25 61 82 61q35 0 57 -20t21 -50q0 -30 -15 -63q-32 -76 -102 -128t-165 -52zM783 1241q-30 0 -48 -39l-293 -571h482l-105 573q-6 37 -36 37z
M52 -8q-64 0 -93 51t2 111l590 1128q92 178 254 178q78 0 136 -48t77 -146l213 -1125q13 -59 -13 -104t-85 -45q-95 0 -115 104l-66 350h-600l-196 -380q-40 -74 -104 -74z" />
    <glyph glyph-name="abreve" unicode="&#x103;" horiz-adv-x="1114" 
d="M693 1202q-95 0 -162 43t-93 123q-12 29 -12 68t25 59t57 21q59 0 76 -74q8 -27 16 -42q8 -16 31 -30t57 -14q84 0 127 98q25 61 82 62q35 0 57 -20t21 -51q0 -30 -14 -63q-31 -76 -102 -128t-166 -52zM266 334q0 -172 238 -172q122 0 205 55l36 229q-119 56 -226 56
t-180 -43t-73 -125zM492 -20q-206 0 -318 100t-113 252q0 152 116 245t280 93t317 -62l17 97q16 100 -35 153t-154 53t-225 -51q-59 -14 -97 12t-38 80q0 53 67 88q113 62 304 62t300 -110t74 -308l-90 -518q-10 -59 -53 -88q-146 -98 -352 -98z" />
    <glyph glyph-name="Aogonek" unicode="&#x104;" horiz-adv-x="1331" 
d="M1208 -321q0 -35 -54 -74t-146 -39t-159 56t-67 153q0 193 240 297l-70 374h-600l-196 -380q-38 -74 -104 -74t-94 51t3 111l590 1128q92 178 254 178q78 0 136 -48t77 -146l213 -1125q20 -104 -70 -141q-221 -92 -221 -211q0 -37 25 -57q55 -44 131 6q30 16 52 16
t41 -20t19 -55zM783 1241q-30 0 -48 -39l-293 -571h482l-105 573q-6 37 -36 37z" />
    <glyph glyph-name="aogonek" unicode="&#x105;" horiz-adv-x="1110" 
d="M266 334q0 -172 238 -172q122 0 205 55l36 229q-119 56 -226 56t-180 -43t-73 -125zM640 -410q-93 0 -160 56q-66 56 -66 156q0 99 82 182q-10 -2 -37 -2q-166 0 -282 96t-116 251t116 248t280 93t317 -62l17 97q35 207 -201 206q-91 0 -213 -51q-59 -14 -97 12t-38 79
q0 94 203 133q89 17 167 18q197 0 303 -110t72 -308l-90 -520q-8 -43 -31 -68q-22 -26 -74 -50q-170 -81 -199 -139q-21 -42 -21 -84t25 -64q52 -44 116 -2q65 41 104 2q21 -19 21 -55t-43 -66q-62 -48 -155 -48z" />
    <glyph glyph-name="Cacute" unicode="&#x106;" horiz-adv-x="1339" 
d="M731 1710l289 139q79 31 119 -11q23 -24 22 -56q0 -57 -69 -88l-287 -135q-58 -29 -103 12q-24 23 -24 69t53 70zM657 186q223 0 332 220q39 76 105 75q42 -1 74 -27t32 -61t-16 -80q-60 -139 -190 -237t-324 -99q-270 0 -427 161t-145 431q6 195 77 417t227 348t386 126
q180 0 314 -86t180 -219q20 -55 20 -91t-28 -68q-29 -32 -76 -31q-78 0 -111 77q-41 104 -120 158q-80 53 -183 53q-160 0 -264 -104q-104 -105 -151 -277t-53 -326t80 -256q85 -104 261 -104z" />
    <glyph glyph-name="cacute" unicode="&#x107;" horiz-adv-x="1114" 
d="M555 1372l289 139q79 31 119 -11q23 -24 22 -56q0 -57 -70 -88l-286 -135q-58 -29 -103 12q-24 23 -24 69t53 70zM549 182q172 0 231 150q25 59 90 59q41 -1 70 -27t29 -58q0 -129 -146 -245q-103 -81 -291 -81t-323 126t-115 351q12 106 39 237q41 201 169 304
q128 104 298 104t276 -71q154 -105 154 -241q0 -38 -28 -68t-86 -30t-76 58q-47 150 -236 149q-215 0 -270 -244q-23 -96 -34 -215q-10 -118 60 -188t189 -70z" />
    <glyph glyph-name="Cdotaccent" unicode="&#x10a;" horiz-adv-x="1339" 
d="M867 1778q48 0 77 -28t29 -77t-36 -84t-83 -35t-76 28q-28 28 -28 76t34 84q35 36 83 36zM657 186q223 0 332 220q39 76 105 75q42 -1 74 -27t32 -61t-16 -80q-60 -139 -190 -237t-324 -99q-270 0 -427 161t-145 431q6 195 77 417t227 348t386 126q180 0 314 -86
t180 -219q20 -55 20 -91t-28 -68q-29 -32 -76 -31q-78 0 -111 77q-41 104 -120 158q-80 53 -183 53q-160 0 -264 -104q-104 -105 -151 -277t-53 -326t80 -256q85 -104 261 -104z" />
    <glyph glyph-name="cdotaccent" unicode="&#x10b;" horiz-adv-x="1114" 
d="M685 1446q48 0 77 -28t29 -77t-36 -84t-84 -35t-76 28t-28 76t35 84t83 36zM549 182q172 0 231 150q25 59 90 59q41 -1 70 -27t29 -58q0 -129 -146 -245q-103 -81 -291 -81t-323 126t-115 351q12 106 39 237q41 201 169 304q128 104 298 104t276 -71q154 -105 154 -241
q0 -38 -28 -68t-86 -30t-76 58q-47 150 -236 149q-215 0 -270 -244q-23 -96 -34 -215q-10 -118 60 -188t189 -70z" />
    <glyph glyph-name="Ccaron" unicode="&#x10c;" horiz-adv-x="1339" 
d="M838 1542q-33 0 -64 27l-176 151q-31 25 -31 62q0 36 26 62q27 26 59 26t61 -23l139 -123l182 127q27 19 60 19q32 0 56 -24t24 -60t-52 -78l-211 -139q-40 -27 -73 -27zM657 186q223 0 332 220q39 76 105 75q42 -1 74 -27t32 -61t-16 -80q-60 -139 -190 -237t-324 -99
q-270 0 -427 161t-145 431q6 195 77 417t227 348t386 126q180 0 314 -86t180 -219q20 -55 20 -91t-28 -68q-29 -32 -76 -31q-78 0 -111 77q-41 104 -120 158q-80 53 -183 53q-160 0 -264 -104q-104 -105 -151 -277t-53 -326t80 -256q85 -104 261 -104z" />
    <glyph glyph-name="ccaron" unicode="&#x10d;" horiz-adv-x="1118" 
d="M655 1210q-33 0 -63 27l-176 152q-31 25 -31 61t26 62q27 26 59 26t60 -22l140 -123l182 127q28 18 60 18t56 -24t24 -60t-52 -78l-211 -139q-41 -27 -74 -27zM549 182q172 0 231 150q25 59 90 59q41 -1 70 -27t29 -58q0 -129 -146 -245q-103 -81 -291 -81t-323 126
t-115 351q12 106 39 237q41 201 169 304q128 104 298 104t276 -71q154 -105 154 -241q0 -38 -28 -68t-86 -30t-76 58q-47 150 -236 149q-215 0 -270 -244q-23 -96 -34 -215q-10 -118 60 -188t189 -70z" />
    <glyph glyph-name="Dcaron" unicode="&#x10e;" horiz-adv-x="1427" 
d="M830 1542q-34 0 -64 27l-176 151q-31 25 -31 62q0 36 26 62q27 26 59 26t61 -23l139 -123l182 127q28 19 60 19t56 -24t24 -60t-52 -78l-211 -139q-39 -27 -73 -27zM569 201q233 0 359 93q174 129 209 515q23 201 -83 315t-311 115h-245l-172 -1038h243zM231 0
q-67 0 -103 44t-24 116l189 1122q25 158 180 158h272q315 0 473 -168t138 -445q-8 -131 -39 -268q-72 -297 -259 -428t-497 -131h-330z" />
    <glyph glyph-name="dcaron" unicode="&#x10f;" horiz-adv-x="1329" 
d="M1317 1118q-43 0 -65 20q-52 46 14 117q45 53 55 115l22 113q6 37 31 59t62 21q38 0 60 -29t13 -68l-20 -100q-25 -125 -82 -190q-47 -58 -90 -58zM539 182q121 0 223 70l94 573q-38 27 -106 51t-142 23q-219 0 -274 -244q-19 -76 -33 -208q-15 -133 51 -199t187 -66z
M1051 1460q53 0 82 -37t20 -94l-192 -1159q-7 -33 -19 -49t-43 -35q-163 -106 -365 -106t-331 124t-109 353q8 81 44 259t160 281q124 105 293 105t300 -72l55 330q16 100 105 100z" />
    <glyph glyph-name="Dcroat" unicode="&#x110;" horiz-adv-x="1417" 
d="M559 201q233 0 357 93q176 132 208 515q23 201 -86 315t-307 115h-246l-69 -426h274q45 0 72 -28q26 -27 26 -65t-28 -69t-78 -30h-297l-70 -420h244zM221 0q-69 0 -105 44t-24 116l78 461h-86q-47 -1 -73 25q-25 26 -25 66t30 70t82 31h105l78 469q29 158 182 158h278
q307 0 464 -169t138 -444q-33 -513 -295 -696q-187 -131 -497 -131h-330z" />
    <glyph glyph-name="dcroat" unicode="&#x111;" horiz-adv-x="1216" 
d="M539 182q121 0 223 70l94 573q-38 27 -106 51t-142 23q-219 0 -274 -244q-18 -76 -32 -208q-14 -133 50 -199q66 -66 187 -66zM664 1266q0 36 28 64t70 28h184l12 69q18 76 105 76q39 -1 69 -23t27 -59l-10 -63h43q42 0 64 -23t22 -57t-29 -64q-29 -29 -73 -28h-46
l-169 -1016q-10 -53 -62 -84q-169 -106 -369 -106t-329 126t-107 351q10 106 39 237q45 205 168 306q123 102 291 102t299 -72l24 156h-167q-37 0 -61 21q-23 22 -23 59z" />
    <glyph glyph-name="Emacron" unicode="&#x112;" horiz-adv-x="1251" 
d="M666 1565q-43 1 -69 25t-26 60t29 64t78 29h319q41 0 64 -25q23 -24 23 -60t-28 -65q-26 -29 -71 -28h-319zM473 1440h655q51 0 79 -29t28 -72t-31 -71t-78 -29h-630l-72 -422h567q45 1 73 -27t28 -68t-30 -67t-73 -26h-594l-71 -428h620q49 0 78 -29t29 -73
q0 -43 -32 -71t-79 -28h-704q-158 0 -132 168l187 1114q22 158 182 158z" />
    <glyph glyph-name="emacron" unicode="&#x113;" horiz-adv-x="1118" 
d="M549 1241q-43 0 -69 25q-26 24 -26 60t29 65t78 28h320q41 -1 63 -25t23 -60q0 -36 -27 -64t-72 -29h-319zM795 629q31 0 36 28q27 137 -34 199t-180 64q-119 0 -189 -72t-96 -219h463zM846 250q30 0 56 -28t26 -68q0 -61 -72 -101q-135 -74 -309 -73q-221 0 -346 124
t-107 330q4 39 43 251t174 314q135 103 323 103t312 -121q125 -121 76 -350l-8 -37q-33 -131 -150 -131h-559l-6 -37q-19 -121 51 -183q70 -63 193 -63t239 56q33 14 64 14z" />
    <glyph glyph-name="Edotaccent" unicode="&#x116;" horiz-adv-x="1251" 
d="M843 1778q48 0 77 -28q28 -28 28 -77t-36 -84t-83 -35t-75 28t-29 76q0 48 35 84t83 36zM473 1440h655q51 0 79 -29t28 -72t-31 -71t-78 -29h-630l-72 -422h567q45 1 73 -27t28 -68t-30 -67t-73 -26h-594l-71 -428h620q49 0 78 -29t29 -73q0 -43 -32 -71t-79 -28h-704
q-158 0 -132 168l187 1114q22 158 182 158z" />
    <glyph glyph-name="edotaccent" unicode="&#x117;" horiz-adv-x="1118" 
d="M708 1444q48 0 76 -28t29 -77q0 -49 -36 -84t-83 -35t-76 30q-28 28 -28 75t35 83t83 36zM795 629q31 0 36 28q27 137 -34 199t-180 64q-119 0 -189 -72t-96 -219h463zM846 250q30 0 56 -28t26 -68q0 -61 -72 -101q-135 -74 -309 -73q-221 0 -346 124t-107 330
q4 39 43 251t174 314q135 103 323 103t312 -121q125 -121 76 -350l-8 -37q-33 -131 -150 -131h-559l-6 -37q-19 -121 51 -183q70 -63 193 -63t239 56q33 14 64 14z" />
    <glyph glyph-name="Eogonek" unicode="&#x118;" horiz-adv-x="1239" 
d="M756 -211q0 -76 84 -78q30 -1 64 21t56 22t44 -20q20 -20 20 -55t-54 -74t-145 -39t-159 55t-68 154q0 131 129 225h-491q-158 0 -132 168l187 1114q27 158 182 158h655q51 0 79 -29t28 -72t-31 -71t-78 -29h-630l-72 -422h567q45 1 73 -27t28 -68t-30 -67t-73 -26h-594
l-71 -428h620q49 0 78 -29t29 -72q0 -70 -82 -102q-213 -86 -213 -209z" />
    <glyph glyph-name="eogonek" unicode="&#x119;" horiz-adv-x="1118" 
d="M795 629q31 0 36 28q27 133 -32 198t-180 65t-191 -72t-96 -219h463zM825 -304q0 -34 -51 -74t-143 -40t-161 56t-69 162q0 104 91 190q-195 10 -306 131t-92 313q6 88 41 248q45 219 179 319q134 101 322 101t312 -122t74 -349l-8 -37q-33 -131 -150 -131h-559l-6 -37
q-19 -119 51 -181q70 -63 195 -63t237 54q33 14 64 14q30 0 56 -29t26 -67q0 -74 -125 -123q-244 -94 -244 -215q0 -43 26 -65q27 -21 59 -21t77 30t84 -10q20 -20 20 -54z" />
    <glyph glyph-name="Ecaron" unicode="&#x11a;" horiz-adv-x="1251" 
d="M818 1542q-34 0 -64 27l-176 151q-31 25 -31 62q-1 36 25 62t59 26t61 -23l139 -123l183 127q28 19 60 19t56 -24t23 -60q0 -36 -51 -78l-211 -139q-39 -27 -73 -27zM473 1440h655q51 0 79 -29t28 -72t-31 -71t-78 -29h-630l-72 -422h567q45 1 73 -27t28 -68t-30 -67
t-73 -26h-594l-71 -428h620q49 0 78 -29t29 -73q0 -43 -32 -71t-79 -28h-704q-158 0 -132 168l187 1114q22 158 182 158z" />
    <glyph glyph-name="ecaron" unicode="&#x11b;" horiz-adv-x="1130" 
d="M687 1208q-34 0 -64 27l-177 151q-30 25 -30 62q0 36 26 62t58 26q33 0 61 -23l139 -122l183 127q27 18 59 18t56 -24t24 -60t-51 -78l-211 -139q-39 -27 -73 -27zM795 629q31 0 36 28q27 137 -34 199t-180 64q-119 0 -189 -72t-96 -219h463zM846 250q30 0 56 -28t26 -68
q0 -61 -72 -101q-135 -74 -309 -73q-221 0 -346 124t-107 330q4 39 43 251t174 314q135 103 323 103t312 -121q125 -121 76 -350l-8 -37q-33 -131 -150 -131h-559l-6 -37q-19 -121 51 -183q70 -63 193 -63t239 56q33 14 64 14z" />
    <glyph glyph-name="Gbreve" unicode="&#x11e;" horiz-adv-x="1398" 
d="M867 1538q-95 0 -161 43t-94 123q-12 30 -12 68t25 58t57 21q59 0 76 -73q8 -27 16 -42q8 -16 31 -30t57 -14q84 0 127 98q27 61 82 61q35 0 57 -20t21 -50q0 -30 -14 -63q-31 -76 -102 -128t-166 -52zM1135 772q67 0 97 -34t25 -91q-10 -100 -22 -170
q-39 -211 -180 -355t-397 -144t-413 159t-147 397t77 458t223 344t380 124q178 0 309 -80t185 -209q18 -47 18 -85t-28 -70q-28 -31 -74 -31q-68 0 -94 64q-84 203 -314 202q-307 0 -407 -358q-43 -145 -57 -325t79 -285q95 -105 251 -105t252 76q95 76 124 219l20 100h-233
q-45 0 -76 27t-31 70q0 42 33 72t86 30h314z" />
    <glyph glyph-name="gbreve" unicode="&#x11f;" horiz-adv-x="1185" 
d="M781 1202q-95 0 -161 43t-94 123q-12 29 -12 68t25 59t57 21q59 0 76 -74q8 -27 16 -42q8 -16 31 -30t57 -14q84 0 127 98q25 61 82 62q35 0 57 -20t21 -51q0 -30 -14 -63q-31 -76 -102 -128t-166 -52zM635 899q-229 0 -285 -244q-27 -129 -33 -209q-13 -120 47 -190
t178 -70t240 74l97 584q-103 55 -244 55zM51 -209q0 47 27 76q28 29 64 29t75 -23q121 -86 245 -86q247 0 290 274q-117 -59 -248 -59q-190 0 -300 119t-93 319q10 117 39 254q41 203 166 305q126 102 323 103q135 0 245 -39t165 -81t45 -97l-138 -836q-38 -246 -166 -351
t-335 -106q-103 0 -199 35t-150 78q-55 39 -55 86z" />
    <glyph glyph-name="Gdotaccent" unicode="&#x120;" horiz-adv-x="1398" 
d="M869 1778q48 0 77 -28t29 -77t-36 -84t-84 -35t-76 28q-27 28 -27 76t34 84q35 36 83 36zM1135 772q67 0 97 -34t25 -91q-10 -100 -22 -170q-39 -211 -180 -355t-397 -144t-413 159t-147 397t77 458t223 344t380 124q178 0 309 -80t185 -209q18 -47 18 -85t-28 -70
q-28 -31 -74 -31q-68 0 -94 64q-84 203 -314 202q-307 0 -407 -358q-43 -145 -57 -325t79 -285q95 -105 251 -105t252 76q95 76 124 219l20 100h-233q-45 0 -76 27t-31 70q0 42 33 72t86 30h314z" />
    <glyph glyph-name="gdotaccent" unicode="&#x121;" horiz-adv-x="1185" 
d="M781 1446q48 0 77 -28t29 -77t-36 -84t-83 -35t-76 28q-28 28 -28 76t34 84q35 36 83 36zM635 899q-229 0 -285 -244q-27 -129 -33 -209q-13 -120 47 -190t178 -70t240 74l97 584q-103 55 -244 55zM51 -209q0 47 27 76q28 29 64 29t75 -23q121 -86 245 -86q247 0 290 274
q-117 -59 -248 -59q-190 0 -300 119t-93 319q10 117 39 254q41 203 166 305q126 102 323 103q135 0 245 -39t165 -81t45 -97l-138 -836q-38 -246 -166 -351t-335 -106q-103 0 -199 35t-150 78q-55 39 -55 86z" />
    <glyph glyph-name="Gcommaaccent" unicode="&#x122;" horiz-adv-x="1398" 
d="M492 -520q-82 0 -82 69q0 29 26 60q53 61 66 135l20 117q6 37 31 59t61 21q36 0 60 -29q23 -29 14 -70l-18 -102q-24 -132 -80 -196t-98 -64zM1135 772q67 0 97 -34t25 -91q-10 -100 -22 -170q-39 -211 -180 -355t-397 -144t-413 159t-147 397t77 458t223 344t380 124
q178 0 309 -80t185 -209q18 -47 18 -85t-28 -70q-28 -31 -74 -31q-68 0 -94 64q-84 203 -314 202q-307 0 -407 -358q-43 -145 -57 -325t79 -285q95 -105 251 -105t252 76q95 76 124 219l20 100h-233q-45 0 -76 27t-31 70q0 42 33 72t86 30h314z" />
    <glyph glyph-name="gcommaaccent" unicode="&#x123;" horiz-adv-x="1185" 
d="M744 1178q-82 0 -82 69q0 29 26 60q53 61 66 135l20 117q6 37 31 59t61 20q36 0 60 -28q23 -28 14 -70l-18 -102q-23 -131 -91 -207q-45 -53 -87 -53zM635 899q-229 0 -285 -244q-27 -129 -33 -209q-13 -120 47 -190t178 -70t240 74l97 584q-103 55 -244 55zM51 -209
q0 47 27 76q28 29 64 29t75 -23q121 -86 245 -86q247 0 290 274q-117 -59 -248 -59q-190 0 -300 119t-93 319q10 117 39 254q41 203 166 305q126 102 323 103q135 0 245 -39t165 -81t45 -97l-138 -836q-38 -246 -166 -351t-335 -106q-103 0 -199 35t-150 78q-55 39 -55 86z
" />
    <glyph glyph-name="imacron" unicode="&#x12b;" horiz-adv-x="595" 
d="M203 -8q-53 0 -82 37t-21 94l144 866q16 100 106 101q53 0 82 -38t21 -96l-146 -866q-16 -98 -104 -98zM233 1241q-43 0 -69 25q-26 24 -25 60q0 36 29 65t78 28h319q41 -1 64 -25t23 -60t-28 -64q-26 -28 -71 -29h-320z" />
    <glyph glyph-name="Iogonek" unicode="&#x12e;" horiz-adv-x="606" 
d="M280 -246q22 0 42 -20t20 -54t-49 -74t-141 -40t-162 53t-70 147t57 162q57 66 158 127q-20 41 -12 88l201 1203q17 102 113 102q48 0 76 -39t19 -96l-204 -1221q-10 -63 -66 -94q-190 -86 -190 -201q0 -45 25 -65q55 -42 125 0q36 22 58 22z" />
    <glyph glyph-name="iogonek" unicode="&#x12f;" horiz-adv-x="600" 
d="M132 -436q-89 0 -158 55t-68 148q0 172 211 296q-12 29 -6 80l141 846q16 100 106 101q53 0 82 -38t21 -96l-146 -866q-10 -68 -75 -96q-180 -82 -181 -199q0 -43 26 -63q57 -44 132 6q20 14 44 14t44 -20q21 -20 21 -55t-52 -74t-142 -39z" />
    <glyph glyph-name="Idotaccent" unicode="&#x130;" horiz-adv-x="606" 
d="M464 1778q48 0 77 -28t29 -77t-36 -84t-84 -35t-76 28t-28 76t35 84t83 36zM419 1448q45 0 75 -38t20 -97l-203 -1221q-8 -47 -38 -74q-29 -26 -75 -26t-76 37t-20 94l205 1223q8 46 37 74t75 28z" />
    <glyph glyph-name="dotlessi" unicode="&#x131;" horiz-adv-x="563" 
d="M98 123l144 866q16 100 106 101q53 0 82 -38t21 -96l-146 -866q-17 -100 -111 -98q-46 0 -75 37t-21 94z" />
    <glyph glyph-name="Kcommaaccent" unicode="&#x136;" horiz-adv-x="1320" 
d="M453 -520q-82 0 -82 69q0 29 26 60q53 61 66 135l20 117q6 37 31 59q26 22 62 21q36 0 59 -29t14 -70l-18 -102q-23 -132 -79 -196t-99 -64zM419 1448q46 0 76 -38t19 -93l-80 -475h41q33 0 55 9t58 44l530 508q45 43 89 43t73 -27t29 -73t-47 -86l-568 -529l439 -561
q57 -82 -1 -147q-28 -31 -81 -31t-88 51l-416 541q-25 33 -47 41t-58 8h-43l-88 -541q-8 -47 -38 -74q-29 -26 -75 -26t-75 37t-21 92l205 1222q8 49 37 77t75 28z" />
    <glyph glyph-name="kcommaaccent" unicode="&#x137;" horiz-adv-x="1118" 
d="M388 -520q-81 0 -83 69q0 29 40 75t52 120l21 117q6 37 31 59t61 21q36 0 60 -29q22 -29 14 -70l-19 -102q-23 -131 -90 -207q-45 -53 -87 -53zM414 1460q53 0 82 -37t20 -94l-113 -676h41q36 -1 56 9t53 43l350 350q39 39 83 39t73 -26t29 -71t-39 -84l-381 -364
l282 -385q31 -37 31 -76t-27 -68q-26 -28 -78 -28t-90 51l-268 371q-31 43 -98 43h-47l-62 -367q-18 -98 -106 -98q-53 0 -82 37t-21 94l207 1237q17 100 105 100z" />
    <glyph glyph-name="Lacute" unicode="&#x139;" horiz-adv-x="1103" 
d="M346 1640q0 46 53 70l289 139q79 31 119 -11q23 -24 22 -56q0 -57 -69 -88l-287 -135q-59 -29 -103 12q-24 23 -24 69zM940 201q51 0 79 -29t28 -73q0 -43 -32 -71t-77 -28h-702q-76 0 -110 42t-22 118l197 1183q18 104 107 105q52 0 82 -38t20 -97l-186 -1112h616z" />
    <glyph glyph-name="lacute" unicode="&#x13a;" horiz-adv-x="565" 
d="M387 1710l289 139q79 31 119 -11q23 -24 22 -56q0 -57 -69 -88l-287 -135q-58 -29 -103 12q-24 23 -24 69t53 70zM403 1460q53 0 82 -37t21 -94l-205 -1239q-17 -100 -113 -98q-46 0 -75 37t-21 94l207 1237q16 100 104 100z" />
    <glyph glyph-name="Lcommaaccent" unicode="&#x13b;" horiz-adv-x="1103" 
d="M460 -520q-83 0 -83 69q0 29 26 60q53 61 66 135l20 117q6 37 31 59t62 21q38 0 60 -29t13 -70l-18 -102q-23 -131 -90 -207q-45 -53 -87 -53zM940 201q51 0 79 -29t28 -73q0 -43 -32 -71t-77 -28h-702q-76 0 -110 42t-22 118l197 1183q18 104 107 105q52 0 82 -38
t20 -97l-186 -1112h616z" />
    <glyph glyph-name="lcommaaccent" unicode="&#x13c;" horiz-adv-x="565" 
d="M50 -520q-81 0 -83 69q0 29 40 75t52 120l21 117q6 37 31 59t61 21q36 0 60 -29q22 -29 14 -70l-19 -102q-23 -131 -90 -207q-45 -53 -87 -53zM403 1460q53 0 82 -37t21 -94l-205 -1239q-17 -100 -113 -98q-46 0 -75 37t-21 94l207 1237q16 100 104 100z" />
    <glyph glyph-name="Lcaron" unicode="&#x13d;" horiz-adv-x="1103" 
d="M737 1118q-43 0 -65 20t-21 49q0 29 40 75t50 108l23 113q6 37 31 59t61 21q36 0 60 -29q22 -29 14 -68l-21 -100q-25 -125 -82 -190q-47 -58 -90 -58zM940 201q51 0 79 -29t28 -73q0 -43 -32 -71t-77 -28h-702q-76 0 -110 42t-22 118l197 1183q18 104 107 105
q52 0 82 -38t20 -97l-186 -1112h616z" />
    <glyph glyph-name="lcaron" unicode="&#x13e;" 
d="M672 1118q-43 0 -65 20q-52 46 14 117q45 53 55 115l22 113q6 37 31 59t61 21q36 0 60 -29q23 -29 14 -68l-20 -100q-25 -125 -82 -190q-47 -58 -90 -58zM414 1460q53 0 82 -37t20 -94l-205 -1239q-16 -98 -106 -98q-53 0 -82 37t-21 94l207 1237q16 100 105 100z" />
    <glyph glyph-name="Lslash" unicode="&#x141;" horiz-adv-x="1155" 
d="M987 201q51 0 79 -29t28 -73q0 -43 -31 -71t-78 -28h-700q-78 0 -113 42t-20 118l59 356l-72 -39q-20 -12 -52 -12q-31 -1 -59 25t-28 65q0 63 61 96l189 103l100 589q17 105 111 105q47 0 77 -38t19 -97l-74 -439l174 99q29 14 62 14q33 1 61 -23t27 -61q0 -66 -64 -100
l-299 -162l-73 -440h616z" />
    <glyph glyph-name="lslash" unicode="&#x142;" horiz-adv-x="663" 
d="M432 1460q53 0 82 -37t21 -94l-70 -418l84 50q27 12 57 12t54 -22q22 -22 22 -56q0 -55 -57 -86l-195 -107l-100 -612q-17 -100 -113 -98q-47 0 -76 37q-28 37 -20 94l76 457l-78 -43q-58 -29 -100 13q-23 24 -23 66t55 74l178 96l97 574q18 100 106 100z" />
    <glyph glyph-name="Nacute" unicode="&#x143;" horiz-adv-x="1570" 
d="M772 1640q0 46 53 70l289 139q79 31 119 -11q23 -24 22 -56q0 -57 -69 -88l-287 -135q-59 -29 -103 12q-24 23 -24 69zM1114 -8q-115 0 -168 125l-457 1063h-4q-14 -111 -63 -424l-111 -662q-18 -102 -106 -102q-53 0 -82 36t-21 93l193 1143q16 94 64 139q49 45 107 45
t93 -23t50 -47t34 -63l459 -1047h4q20 188 68 467l102 611q16 102 112 102q46 0 77 -38q30 -38 20 -97l-193 -1135q-33 -186 -178 -186z" />
    <glyph glyph-name="nacute" unicode="&#x144;" horiz-adv-x="1208" 
d="M555 1302q0 46 53 70l289 139q79 31 119 -11q23 -24 22 -56q0 -57 -69 -88l-287 -135q-58 -29 -102 12q-24 23 -25 69zM881 -8q-51 0 -80 36t-21 93l88 522q32 195 -125 239q-39 11 -86 11q-131 0 -245 -68l-121 -735q-16 -98 -107 -98q-53 0 -82 37t-20 94l131 782
q10 57 61 90q180 107 392 107t332 -113t83 -338l-94 -559q-14 -100 -106 -100z" />
    <glyph glyph-name="Ncommaaccent" unicode="&#x145;" horiz-adv-x="1570" 
d="M554 -520q-81 0 -83 69q0 29 40 75t52 120l21 117q6 37 30 59t62 21q38 0 60 -29t14 -70l-19 -102q-23 -131 -90 -207q-45 -53 -87 -53zM1114 -8q-115 0 -168 125l-457 1063h-4q-14 -111 -63 -424l-111 -662q-18 -102 -106 -102q-53 0 -82 36t-21 93l193 1143
q16 94 64 139q49 45 107 45t93 -23t50 -47t34 -63l459 -1047h4q20 188 68 467l102 611q16 102 112 102q46 0 77 -38q30 -38 20 -97l-193 -1135q-33 -186 -178 -186z" />
    <glyph glyph-name="ncommaaccent" unicode="&#x146;" horiz-adv-x="1208" 
d="M408 -520q-82 0 -82 69q0 29 26 60q53 61 66 135l20 117q6 37 31 59t61 21q36 0 60 -29q23 -29 14 -70l-18 -102q-24 -132 -80 -196t-98 -64zM881 -8q-51 0 -80 36t-21 93l88 522q32 195 -125 239q-39 11 -86 11q-131 0 -245 -68l-121 -735q-16 -98 -107 -98
q-53 0 -82 37t-20 94l131 782q10 57 61 90q180 107 392 107t332 -113t83 -338l-94 -559q-14 -100 -106 -100z" />
    <glyph glyph-name="Ncaron" unicode="&#x147;" horiz-adv-x="1570" 
d="M934 1542q-33 0 -64 27l-176 151q-30 25 -30 62q0 36 26 62t58 26q33 0 61 -23l139 -123l182 127q27 19 60 19q32 0 56 -24t24 -60t-51 -78l-211 -139q-41 -27 -74 -27zM1114 -8q-115 0 -168 125l-457 1063h-4q-14 -111 -63 -424l-111 -662q-18 -102 -106 -102
q-53 0 -82 36t-21 93l193 1143q16 94 64 139q49 45 107 45t93 -23t50 -47t34 -63l459 -1047h4q20 188 68 467l102 611q16 102 112 102q46 0 77 -38q30 -38 20 -97l-193 -1135q-33 -186 -178 -186z" />
    <glyph glyph-name="ncaron" unicode="&#x148;" horiz-adv-x="1208" 
d="M699 1210q-34 0 -64 27l-176 152q-31 25 -31 61t26 62t58 26t61 -22l140 -123l182 127q27 18 59 18t57 -24q23 -24 23 -60t-51 -78l-211 -139q-39 -27 -73 -27zM881 -8q-51 0 -80 36t-21 93l88 522q32 195 -125 239q-39 11 -86 11q-131 0 -245 -68l-121 -735
q-16 -98 -107 -98q-53 0 -82 37t-20 94l131 782q10 57 61 90q180 107 392 107t332 -113t83 -338l-94 -559q-14 -100 -106 -100z" />
    <glyph glyph-name="Omacron" unicode="&#x14c;" horiz-adv-x="1435" 
d="M725 1565q-43 1 -69 25t-26 60t30 64q28 28 77 29h320q41 0 63 -25q22 -24 23 -60q0 -36 -27 -65t-72 -28h-319zM678 186q164 0 270 94t144 246q38 154 53 328q14 174 -88 286q-101 112 -267 112t-278 -102t-150 -268q-37 -166 -47 -286q-17 -202 91 -306t272 -104z
M682 -23q-256 1 -432 173t-150 456q16 166 39 281q51 262 220 418q169 155 437 155t430 -177t138 -441q-12 -154 -39 -289q-51 -274 -219 -425t-424 -151z" />
    <glyph glyph-name="omacron" unicode="&#x14d;" horiz-adv-x="1153" 
d="M539 1241q-43 0 -69 25q-26 24 -26 60t29 65t78 28h319q41 -1 64 -25q22 -24 22 -60t-28 -64t-70 -29h-319zM610 899q-223 0 -278 -248q-18 -81 -32 -205t60 -194t191 -70q211 0 272 250q21 96 32 210t-63 186t-182 71zM624 1102q190 0 322 -125t117 -342
q-8 -117 -41 -252q-43 -197 -167 -300q-123 -103 -313 -103t-328 124t-122 345q8 117 41 251q43 198 173 300q128 102 318 102z" />
    <glyph glyph-name="Ohungarumlaut" unicode="&#x150;" horiz-adv-x="1435" 
d="M1033 1542q-37 0 -61 24t-24 64t35 72l203 172q38 33 74 33t61 -26q25 -27 25 -67t-35 -69l-205 -172q-37 -31 -73 -31zM668 1542q-36 0 -62 24q-24 24 -24 64t36 72l201 172q37 33 74 33t61 -26q24 -27 25 -67q0 -40 -35 -69l-205 -172q-35 -31 -71 -31zM678 186
q164 0 270 94t144 246q38 154 53 328q14 174 -88 286q-101 112 -267 112t-278 -102t-150 -268q-37 -166 -47 -286q-17 -202 91 -306t272 -104zM682 -23q-256 1 -432 173t-150 456q16 166 39 281q51 262 220 418q169 155 437 155t430 -177t138 -441q-12 -154 -39 -289
q-51 -274 -219 -425t-424 -151z" />
    <glyph glyph-name="ohungarumlaut" unicode="&#x151;" horiz-adv-x="1153" 
d="M875 1206q-37 0 -61 24t-24 64t35 72l203 172q37 33 74 33q38 0 62 -26q24 -27 24 -67t-35 -69l-205 -172q-37 -31 -73 -31zM510 1206q-38 0 -62 24t-24 64t37 72l201 172q38 33 74 33t61 -26q25 -27 25 -67t-36 -69l-204 -172q-35 -31 -72 -31zM610 899
q-223 0 -278 -248q-18 -81 -32 -205t60 -194t191 -70q211 0 272 250q21 96 32 210t-63 186t-182 71zM624 1102q190 0 322 -125t117 -342q-8 -117 -41 -252q-43 -197 -167 -300q-123 -103 -313 -103t-328 124t-122 345q8 117 41 251q43 198 173 300q128 102 318 102z" />
    <glyph glyph-name="OE" unicode="&#x152;" horiz-adv-x="2127" 
d="M727 186q145 0 262 23l168 1018q-150 25 -326 24q-395 0 -475 -397q-29 -143 -39 -242q-20 -186 80 -306t330 -120zM2005 1440q51 0 79 -29t28 -72t-32 -71q-30 -28 -77 -29h-631l-72 -422h568q44 1 72 -27t28 -68t-30 -67t-72 -26h-594l-74 -428h621q51 0 79 -29t29 -73
q0 -43 -32 -71t-78 -28h-701q-26 0 -178 -11t-242 -12q-284 -1 -450 175t-146 460q12 131 37 273q109 575 707 575l528 -20h633z" />
    <glyph glyph-name="oe" unicode="&#x153;" horiz-adv-x="1835" 
d="M975 920q141 182 348 182q206 0 335 -118t81 -353l-8 -37q-31 -131 -150 -131h-559l-6 -37q-20 -121 52 -182q72 -62 197 -62q124 0 236 54q33 14 61 14t56 -28q27 -28 27 -62q0 -63 -72 -107q-127 -74 -303 -73q-256 0 -365 165q-141 -165 -347 -165t-346 126t-118 363
q8 90 37 225q45 203 174 305t313 103q252 0 357 -182zM551 182q215 0 272 252q19 86 31 203t-60 189t-184 73q-110 -1 -182 -65t-94 -172t-34 -224q-12 -118 60 -187t191 -69zM1511 629q31 0 37 28q27 133 -32 198q-58 65 -180 65t-190 -70t-97 -221h462z" />
    <glyph glyph-name="Racute" unicode="&#x154;" horiz-adv-x="1386" 
d="M1133 1782q0 -57 -70 -88l-287 -135q-59 -29 -102 12q-25 23 -25 69t53 70l289 139q80 31 119 -11q23 -24 23 -56zM739 737q164 0 254 77t90 193t-75 174q-76 58 -211 58h-295l-84 -502h321zM205 -8q-53 0 -82 37t-21 94l197 1171q10 66 55 106t115 40h342
q225 0 359 -115t134 -290t-98 -297q-100 -122 -303 -169l258 -405q23 -33 23 -73t-29 -71q-29 -30 -82 -30t-94 63l-272 434q-17 27 -27 37q-28 29 -74 29h-219l-76 -459q-18 -102 -106 -102z" />
    <glyph glyph-name="racute" unicode="&#x155;" horiz-adv-x="790" 
d="M381 1300q0 46 53 70l289 139q79 31 119 -11q23 -24 22 -56q0 -57 -69 -88l-287 -135q-58 -29 -102 12q-24 23 -25 69zM838 971q0 -43 -28 -73t-63 -30t-83 14t-103 13q-147 0 -174 -174l-102 -631q-18 -98 -107 -98q-53 0 -82 37t-20 94l108 645q31 184 124 259
q92 75 228 75q302 0 302 -131z" />
    <glyph glyph-name="Rcommaaccent" unicode="&#x156;" horiz-adv-x="1386" 
d="M466 -520q-83 0 -83 69q0 29 40 75t52 120l21 117q6 37 30 59t62 21q38 0 60 -29t14 -70l-19 -102q-23 -131 -90 -207q-45 -53 -87 -53zM739 737q164 0 254 77t90 193t-75 174q-76 58 -211 58h-295l-84 -502h321zM205 -8q-53 0 -82 37t-21 94l197 1171q10 66 55 106
t115 40h342q225 0 359 -115t134 -290t-98 -297q-100 -122 -303 -169l258 -405q23 -33 23 -73t-29 -71q-29 -30 -82 -30t-94 63l-272 434q-17 27 -27 37q-28 29 -74 29h-219l-76 -459q-18 -102 -106 -102z" />
    <glyph glyph-name="rcommaaccent" unicode="&#x157;" horiz-adv-x="790" 
d="M40 -520q-83 0 -83 69q0 29 40 75t52 120l21 117q6 37 30 59t62 21q38 0 60 -29t14 -70l-19 -102q-23 -131 -90 -207q-45 -53 -87 -53zM844 971q0 -43 -28 -73t-64 -30t-84 14t-101 13q-147 0 -174 -174l-102 -631q-18 -98 -107 -98q-53 0 -82 37t-20 94l108 645
q31 184 124 259q92 75 228 75q302 0 302 -131z" />
    <glyph glyph-name="Rcaron" unicode="&#x158;" horiz-adv-x="1386" 
d="M791 1542q-33 0 -64 27l-176 151q-31 25 -31 62q0 36 26 62t58 26t62 -23l139 -123l182 127q27 19 59 19t57 -24q23 -24 23 -60t-51 -78l-211 -139q-40 -27 -73 -27zM739 737q164 0 254 77t90 193t-75 174q-76 58 -211 58h-295l-84 -502h321zM205 -8q-53 0 -82 37t-21 94
l197 1171q10 66 55 106t115 40h342q225 0 359 -115t134 -290t-98 -297q-100 -122 -303 -169l258 -405q23 -33 23 -73t-29 -71q-29 -30 -82 -30t-94 63l-272 434q-17 27 -27 37q-28 29 -74 29h-219l-76 -459q-18 -102 -106 -102z" />
    <glyph glyph-name="rcaron" unicode="&#x159;" horiz-adv-x="790" 
d="M564 1208q-34 0 -64 27l-176 151q-31 25 -31 62q-1 36 25 62t59 26t61 -23l140 -122l182 127q28 18 60 18t56 -24t24 -60t-52 -78l-211 -139q-39 -27 -73 -27zM838 971q0 -43 -28 -73t-63 -30t-83 14t-103 13q-147 0 -174 -174l-102 -631q-18 -98 -107 -98q-53 0 -82 37
t-20 94l108 645q31 184 124 259q92 75 228 75q302 0 302 -131z" />
    <glyph glyph-name="Sacute" unicode="&#x15a;" horiz-adv-x="1286" 
d="M637 1640q0 46 53 70l289 139q79 31 119 -11q23 -24 22 -56q0 -57 -69 -88l-287 -135q-58 -29 -102 12q-24 23 -25 69zM1135 398q1 -180 -143 -300q-144 -121 -382 -121q-164 -1 -316 55t-220 124q-45 41 -45 87q-1 45 29 75t74 30t108 -46t166 -82q104 -36 220 -36
t202 60q87 60 87 148q0 89 -66 135q-67 46 -181 84t-182 69q-190 85 -250 205q-37 72 -37 164q0 188 145 300t358 111q264 0 443 -119q70 -43 69 -106q0 -43 -28 -74t-72 -31q-45 0 -94 31q-147 90 -302 90t-228 -60q-72 -60 -72 -141q0 -80 70 -128t245 -106
q176 -58 289 -148t113 -270z" />
    <glyph glyph-name="sacute" unicode="&#x15b;" horiz-adv-x="1042" 
d="M975 1444q0 -57 -70 -88l-287 -135q-59 -29 -102 12q-24 23 -24 69t53 70l289 139q80 31 118 -11q23 -24 23 -56zM891 308q0 -144 -111 -236t-288 -92q-125 0 -239 44q-206 80 -206 177q0 39 28 65q27 26 63 27q36 0 73 -25q143 -94 274 -94q92 0 146 37q53 37 53 96
t-52 91q-52 31 -186 86q-134 56 -202 123t-68 181q0 146 118 230t302 84t309 -103q47 -39 47 -82t-24 -71t-61 -29q-38 0 -83 25q-123 68 -210 68t-139 -34t-52 -84t38 -82q38 -30 165 -82t180 -89q125 -87 125 -231z" />
    <glyph glyph-name="Scedilla" unicode="&#x15e;" horiz-adv-x="1286" 
d="M37 243q0 45 29 75q30 30 74 30t106 -45t168 -82q104 -37 220 -37t203 60t87 149q0 88 -68 135t-180 84t-182 69q-191 88 -250 203q-37 71 -37 160q0 193 145 305t369 111q123 0 240 -35q262 -78 262 -190q0 -43 -28 -74t-71 -31t-96 31q-141 90 -326 90q-132 0 -204 -60
t-72 -141t70 -128q70 -48 189 -88t189 -72q183 -82 236 -195q33 -68 33 -153q-1 -190 -143 -314t-365 -123h-21l-36 -69q76 -2 124 -48t50 -133q0 -87 -83 -154t-200 -99q-18 -6 -46 -6t-48 17t-21 46q0 49 68 74q147 47 176 100q8 16 8 35q0 51 -59 51l-68 -10
q-37 0 -54 29t1 63l57 115q-127 18 -239 68t-159 96q-48 46 -48 91z" />
    <glyph glyph-name="scedilla" unicode="&#x15f;" horiz-adv-x="1032" 
d="M47 197q0 43 28 69q29 26 65 27q36 0 71 -25q139 -94 276 -94q90 0 144 37q53 37 53 96t-52 91q-52 31 -202 91q-118 51 -186 119t-68 180q0 150 119 232t285 82q102 0 190 -31t135 -70t47 -84t-24 -73t-61 -27q-38 0 -83 25q-205 115 -346 36q-55 -32 -55 -84t38 -84
q38 -30 167 -82t188 -96q115 -86 115 -224q-1 -138 -103 -228t-266 -98l-43 -74q76 -2 125 -48t49 -118q0 -102 -83 -169t-199 -99q-18 -6 -46 -6t-49 17q-20 17 -20 46q0 49 66 74q186 57 186 135q0 51 -59 51l-68 -10q-37 0 -54 29t1 63l59 117q-96 14 -178 52t-122 75
t-40 80z" />
    <glyph glyph-name="Scaron" unicode="&#x160;" horiz-adv-x="1286" 
d="M791 1542q-33 0 -64 27l-176 151q-31 25 -31 62q0 36 26 62t58 26t62 -23l139 -123l182 127q27 19 59 19t57 -24q23 -24 23 -60t-51 -78l-211 -139q-40 -27 -73 -27zM1135 398q1 -180 -143 -300q-144 -121 -382 -121q-164 -1 -316 55t-220 124q-45 41 -45 87q-1 45 29 75
t74 30t108 -46t166 -82q104 -36 220 -36t202 60q87 60 87 148q0 89 -66 135q-67 46 -181 84t-182 69q-190 85 -250 205q-37 72 -37 164q0 188 145 300t358 111q264 0 443 -119q70 -43 69 -106q0 -43 -28 -74t-72 -31q-45 0 -94 31q-147 90 -302 90t-228 -60
q-72 -60 -72 -141q0 -80 70 -128t245 -106q176 -58 289 -148t113 -270z" />
    <glyph glyph-name="scaron" unicode="&#x161;" horiz-adv-x="1040" 
d="M658 1186q-34 0 -64 26l-176 152q-31 26 -31 62t26 62q27 26 59 26t60 -23l140 -123l182 127q28 18 60 18q32 1 56 -23t24 -60t-52 -78l-211 -140q-39 -26 -73 -26zM891 308q0 -144 -111 -236t-288 -92q-125 0 -239 44q-206 80 -206 177q0 39 28 65q27 26 63 27
q36 0 73 -25q143 -94 274 -94q92 0 146 37q53 37 53 96t-52 91q-52 31 -186 86q-134 56 -202 123t-68 181q0 146 118 230t302 84t309 -103q47 -39 47 -82t-24 -71t-61 -29q-38 0 -83 25q-123 68 -210 68t-139 -34t-52 -84t38 -82q38 -30 165 -82t180 -89q125 -87 125 -231z
" />
    <glyph glyph-name="Tcommaaccent" unicode="&#x162;" horiz-adv-x="1189" 
d="M306 -586q-81 0 -83 70q0 28 40 74t52 120l21 117q6 37 31 59t61 22t60 -30q22 -29 14 -69l-19 -103q-23 -131 -90 -206q-45 -54 -87 -54zM197 1239q-49 0 -78 30q-29 31 -29 73t32 70t77 28h972q51 0 79 -29t28 -72t-31 -71t-78 -29h-393l-192 -1145q-18 -102 -107 -102
q-53 0 -82 36t-20 93l190 1118h-368z" />
    <glyph glyph-name="tcommaaccent" unicode="&#x163;" horiz-adv-x="872" 
d="M281 -520q-82 0 -82 69q0 29 26 60q53 61 66 135l20 117q6 37 31 59q26 22 62 21q36 0 59 -29t14 -70l-18 -102q-23 -132 -79 -196t-99 -64zM727 129q0 -65 -80 -107q-81 -42 -227 -42t-233 105t-54 308l135 811q18 111 115 111q51 0 77 -32t17 -81l-24 -153h270
q47 0 74 -27t27 -68q0 -42 -30 -68t-73 -26h-301l-82 -485q-35 -197 127 -197q39 0 99 22t86 21t52 -27t25 -65z" />
    <glyph glyph-name="Tcaron" unicode="&#x164;" horiz-adv-x="1189" 
d="M709 1542q-33 0 -64 27l-176 151q-31 25 -31 62q0 36 26 62t58 26t62 -23l139 -123l182 127q27 19 60 19t57 -24t22 -60q0 -36 -51 -78l-211 -139q-40 -27 -73 -27zM197 1239q-49 0 -78 30q-29 31 -29 73t32 70t77 28h972q51 0 79 -29t28 -72t-31 -71t-78 -29h-393
l-192 -1145q-18 -102 -107 -102q-53 0 -82 36t-20 93l190 1118h-368z" />
    <glyph glyph-name="tcaron" unicode="&#x165;" horiz-adv-x="874" 
d="M680 1118q-43 0 -65 20q-52 46 14 117q45 53 55 115l23 113q7 37 31 59t61 21q37 0 59 -29t14 -68l-20 -100q-25 -125 -82 -190q-47 -58 -90 -58zM727 129q0 -65 -80 -107q-81 -42 -227 -42t-233 105t-54 308l135 811q18 111 115 111q51 0 77 -32t17 -81l-24 -153h270
q47 0 74 -27t27 -68q0 -42 -30 -68t-73 -26h-301l-82 -485q-35 -197 127 -197q39 0 99 22t86 21t52 -27t25 -65z" />
    <glyph glyph-name="Umacron" unicode="&#x16a;" horiz-adv-x="1462" 
d="M725 1565q-43 1 -69 25t-26 60t30 64q28 28 77 29h320q41 0 63 -25q22 -24 23 -60q0 -36 -27 -65t-72 -28h-319zM365 1448q53 0 83 -38t19 -95l-113 -672q-42 -243 60 -351t288 -108q146 0 248 106t135 298l125 758q8 46 38 74t76 28t76 -38t19 -97l-123 -744
q-50 -309 -206 -450t-385 -142q-266 0 -435 163q-84 81 -119 219q-36 138 -6 315l115 672q16 102 105 102z" />
    <glyph glyph-name="umacron" unicode="&#x16b;" horiz-adv-x="1187" 
d="M547 1241q-43 0 -69 25q-26 24 -26 60t29 65t78 28h320q41 -1 63 -25t23 -60q0 -36 -28 -64t-71 -29h-319zM549 188q121 0 231 74l119 727q16 100 105 101q55 0 85 -37t19 -97l-131 -776q-8 -53 -55 -84q-176 -116 -386 -116t-334 133t-85 366l84 508q18 102 108 103
q51 0 80 -37t21 -92l-82 -494q-24 -145 38 -212t183 -67z" />
    <glyph glyph-name="Uring" unicode="&#x16e;" horiz-adv-x="1462" 
d="M903 1649q41 -1 68 29t27 69t-24 63q-22 24 -62 23q-40 0 -68 -31q-28 -30 -27 -68t23 -62t63 -23zM916 1948q92 0 146 -54t54 -139t-60 -153t-153 -68q-92 0 -147 55q-56 55 -56 140t62 152t154 67zM365 1448q53 0 83 -38t19 -95l-113 -672q-42 -243 60 -351t288 -108
q146 0 248 106t135 298l125 758q8 46 38 74t76 28t76 -38t19 -97l-123 -744q-50 -309 -206 -450t-385 -142q-266 0 -435 163q-84 81 -119 219q-36 138 -6 315l115 672q16 102 105 102z" />
    <glyph glyph-name="uring" unicode="&#x16f;" horiz-adv-x="1187" 
d="M717 1323q41 0 67 30q26 31 27 69q0 38 -23 62q-22 24 -62 24t-68 -32q-28 -30 -28 -68t24 -62q22 -24 63 -23zM717 1208q-91 0 -147 56t-56 140q0 86 61 152t153 66t148 -53q54 -53 54 -139t-60 -154t-153 -68zM549 188q121 0 231 74l119 727q16 100 105 101
q55 0 85 -37t19 -97l-131 -776q-8 -53 -55 -84q-176 -116 -386 -116t-334 133t-85 366l84 508q18 102 108 103q51 0 80 -37t21 -92l-82 -494q-24 -145 38 -212t183 -67z" />
    <glyph glyph-name="Uhungarumlaut" unicode="&#x170;" horiz-adv-x="1462" 
d="M1066 1542q-36 0 -60 24t-25 64q0 40 35 72l203 172q37 33 73 33t62 -26q24 -27 24 -67t-35 -69l-204 -172q-37 -31 -73 -31zM700 1542q-38 0 -62 24t-24 64t37 72l201 172q37 33 74 33q38 0 62 -26q24 -27 24 -67t-35 -69l-205 -172q-35 -31 -72 -31zM365 1448
q53 0 83 -38t19 -95l-113 -672q-42 -243 60 -351t288 -108q146 0 248 106t135 298l125 758q8 46 38 74t76 28t76 -38t19 -97l-123 -744q-50 -309 -206 -450t-385 -142q-266 0 -435 163q-84 81 -119 219q-36 138 -6 315l115 672q16 102 105 102z" />
    <glyph glyph-name="uhungarumlaut" unicode="&#x171;" horiz-adv-x="1187" 
d="M873 1208q-37 0 -61 24t-24 64t35 72l203 172q37 33 74 33q38 0 62 -26q24 -27 24 -67t-35 -69l-205 -172q-37 -31 -73 -31zM508 1208q-37 0 -62 24q-24 24 -24 64t37 72l200 172q37 33 74 33t62 -26q25 -27 25 -67t-36 -69l-204 -172q-35 -31 -72 -31zM549 188
q121 0 231 74l119 727q16 100 105 101q55 0 85 -37t19 -97l-131 -776q-8 -53 -55 -84q-176 -116 -386 -116t-334 133t-85 366l84 508q18 102 108 103q51 0 80 -37t21 -92l-82 -494q-24 -145 38 -212t183 -67z" />
    <glyph glyph-name="Uogonek" unicode="&#x172;" horiz-adv-x="1462" 
d="M868 -322q0 -36 -52 -75t-145 -39t-161 56t-68 151q0 125 121 221q-219 39 -344 211t-74 471l115 672q16 102 105 102q53 0 83 -38t19 -95l-113 -672q-38 -235 60 -347t267 -112t270 104t134 300l125 758q8 46 38 74t76 28t76 -38t19 -97l-119 -719q-48 -285 -160 -420
t-325 -188q-71 -16 -143 -72t-72 -127q0 -37 25 -57q52 -41 135 8q24 14 46 14t42 -19t20 -55z" />
    <glyph glyph-name="uogonek" unicode="&#x173;" horiz-adv-x="1187" 
d="M694 -410q-92 0 -160 58t-67 152q0 95 84 184q-10 -2 -31 -2q-198 0 -320 133t-83 364l84 508q8 47 37 75q30 28 76 28t75 -37t21 -92l-82 -494q-24 -145 38 -212t183 -67t231 74l119 727q18 100 107 101q54 0 82 -38t20 -96l-129 -766q-10 -68 -68 -100q-19 -12 -81 -43
t-100 -53t-72 -67q-34 -44 -34 -94t26 -73q52 -47 132 4q49 34 88 -5q20 -19 20 -55t-42 -66q-62 -48 -154 -48z" />
    <glyph glyph-name="Wcircumflex" unicode="&#x174;" horiz-adv-x="1902" 
d="M842 1534q-30 0 -52 22t-22 62q0 39 47 72l223 155q39 27 78 27t72 -31l166 -155q35 -35 35 -71t-24 -60q-23 -23 -59 -23t-65 29l-137 127l-199 -134q-33 -20 -63 -20zM1319 209q8 0 10 10l412 1131q35 98 112 98q49 0 79 -29t30 -63t-10 -60l-445 -1161
q-59 -158 -188 -158q-76 1 -129 49t-62 142l-81 1030q1 6 -5 7t-10 -5l-428 -1065q-63 -158 -190 -158q-78 -1 -131 53t-58 130l-65 1151q-2 63 30 100q33 37 78 37t77 -30t34 -79l49 -1118q0 -10 7 -11t11 9l422 1065q66 164 193 164q68 0 113 -49t53 -139l82 -1041
q2 -10 10 -10z" />
    <glyph glyph-name="wcircumflex" unicode="&#x175;" horiz-adv-x="1646" 
d="M969 1538q39 0 71 -31l166 -155q35 -35 35 -71q1 -35 -23 -59t-60 -24t-64 29l-138 127l-198 -133q-72 -43 -115 2q-23 23 -23 61t48 72l223 155q39 27 78 27zM870 827q-10 0 -14 -12l-289 -678q-37 -84 -78 -121q-41 -36 -107 -36t-116 46q-49 46 -57 128l-82 800
q-6 64 23 100q28 36 76 36q102 0 110 -105l53 -567q4 -43 4 -209q0 -18 15 -19q10 0 16 15q53 154 72 196l235 553q57 135 172 136q131 0 148 -154l49 -524q4 -70 8 -205q0 -16 12 -17q11 0 38 79t38 106l258 633q29 82 105 82q57 0 87 -46t1 -112l-342 -797
q-66 -156 -193 -155q-70 0 -117 48t-55 126l-59 657q-1 16 -11 16z" />
    <glyph glyph-name="Ycircumflex" unicode="&#x176;" horiz-adv-x="1280" 
d="M536 1534q-30 0 -53 22t-23 62q0 39 48 72l223 155q39 27 78 27t72 -31l166 -155q35 -35 35 -71t-24 -60q-24 -23 -60 -23t-64 29l-137 127l-199 -134q-32 -20 -62 -20zM86 1344q0 40 32 72t85 32t94 -64l342 -548l543 569q43 43 91 43t78 -30q29 -30 29 -76t-43 -91
l-557 -571q-53 -57 -63 -105l-80 -481q-16 -102 -105 -102q-52 0 -82 37t-20 92l76 454q8 58 -27 113l-370 580q-23 36 -23 76z" />
    <glyph glyph-name="ycircumflex" unicode="&#x177;" horiz-adv-x="1054" 
d="M671 1540q38 0 72 -31l166 -155q35 -35 35 -71q0 -35 -24 -59t-59 -24q-36 0 -64 29l-138 127l-198 -133q-72 -43 -115 2q-22 23 -22 61t47 72l223 155q39 27 77 27zM484 295q9 0 18 12q55 133 110 232l262 477q41 74 105 74q65 0 91 -56t-7 -108l-514 -910
q-156 -276 -320 -381q-66 -43 -116 -43q-51 0 -79 27t-28 66q0 61 70 96q150 80 268 289l-227 870q-16 66 13 108q30 42 89 42q80 -1 107 -99l114 -446q23 -88 35 -236q0 -14 9 -14z" />
    <glyph glyph-name="Ydieresis" unicode="&#x178;" horiz-adv-x="1280" 
d="M946 1673q47 1 76 -27t29 -77t-35 -84t-83 -35t-77 29t-29 75t36 83q36 36 83 36zM598 1673q47 1 76 -27q28 -28 28 -77t-34 -84t-83 -35q-48 0 -77 29t-29 75t36 83q36 36 83 36zM86 1344q0 40 32 72t85 32t94 -64l342 -548l543 569q43 43 91 43t78 -30q29 -30 29 -76
t-43 -91l-557 -571q-53 -57 -63 -105l-80 -481q-16 -102 -105 -102q-52 0 -82 37t-20 92l76 454q8 58 -27 113l-370 580q-23 36 -23 76z" />
    <glyph glyph-name="Zacute" unicode="&#x179;" horiz-adv-x="1214" 
d="M682 1710l289 139q79 31 119 -11q23 -24 22 -56q0 -57 -70 -88l-286 -135q-58 -29 -103 12q-25 23 -25 69t54 70zM956 0h-802q-70 0 -107 36t-37 92t68 134l850 977h-617q-49 0 -78 30q-29 29 -29 71t33 71q32 29 76 29h777q70 0 104 -33t35 -88q0 -55 -74 -141
l-850 -977h653q49 0 78 -29t29 -73q0 -43 -32 -71t-77 -28z" />
    <glyph glyph-name="zacute" unicode="&#x17a;" horiz-adv-x="1011" 
d="M467 1302q0 46 53 70l289 139q79 31 119 -11q23 -24 22 -56q0 -57 -69 -88l-287 -135q-58 -29 -102 12q-24 23 -25 69zM764 193q49 0 76 -27q26 -27 26 -68q0 -42 -30 -70t-74 -28h-608q-61 0 -96 34q-34 34 -34 86t48 99l622 653h-428q-49 0 -77 28q-27 28 -27 69t31 69
t75 29h576q68 0 104 -34t35 -87q0 -53 -45 -98l-623 -655h449z" />
    <glyph glyph-name="Zdotaccent" unicode="&#x17b;" horiz-adv-x="1214" 
d="M790 1778q48 0 76 -28t29 -77q0 -49 -36 -84t-83 -35t-76 28q-28 28 -28 76t35 84t83 36zM956 0h-802q-70 0 -107 36t-37 92t68 134l850 977h-617q-49 0 -78 30q-29 29 -29 71t33 71q32 29 76 29h777q70 0 104 -33t35 -88q0 -55 -74 -141l-850 -977h653q49 0 78 -29
t29 -73q0 -43 -32 -71t-77 -28z" />
    <glyph glyph-name="zdotaccent" unicode="&#x17c;" horiz-adv-x="1011" 
d="M652 1444q48 0 77 -28t29 -77t-36 -84t-84 -35t-76 30q-28 28 -28 75t35 83t83 36zM764 193q49 0 76 -27q26 -27 26 -68q0 -42 -30 -70t-74 -28h-608q-61 0 -96 34q-34 34 -34 86t48 99l622 653h-428q-49 0 -77 28q-27 28 -27 69t31 69t75 29h576q68 0 104 -34t35 -87
q0 -53 -45 -98l-623 -655h449z" />
    <glyph glyph-name="Zcaron" unicode="&#x17d;" horiz-adv-x="1214" 
d="M739 1542q-33 0 -63 27l-176 151q-31 25 -31 62q0 36 26 62q27 26 59 26t60 -23l140 -123l182 127q28 19 60 19t56 -24t24 -60t-52 -78l-211 -139q-41 -27 -74 -27zM956 0h-802q-70 0 -107 36t-37 92t68 134l850 977h-617q-49 0 -78 30q-29 29 -29 71t33 71q32 29 76 29
h777q70 0 104 -33t35 -88q0 -55 -74 -141l-850 -977h653q49 0 78 -29t29 -73q0 -43 -32 -71t-77 -28z" />
    <glyph glyph-name="zcaron" unicode="&#x17e;" horiz-adv-x="1011" 
d="M614 1210q-33 0 -63 27l-176 152q-31 25 -31 61t26 62t58 26t61 -22l140 -123l182 127q27 18 59 18t57 -24q23 -24 23 -60t-51 -78l-211 -139q-41 -27 -74 -27zM764 193q49 0 76 -27q26 -27 26 -68q0 -42 -30 -70t-74 -28h-608q-61 0 -96 34q-34 34 -34 86t48 99l622 653
h-428q-49 0 -77 28q-27 28 -27 69t31 69t75 29h576q68 0 104 -34t35 -87q0 -53 -45 -98l-623 -655h449z" />
    <glyph glyph-name="florin" unicode="&#x192;" horiz-adv-x="1161" 
d="M102 -416q-50 0 -80 46t-12 104l269 878h-74q-47 0 -78 27t-31 73t31 74t78 29h135l121 383q39 125 132 191t214 65q207 0 330 -127q31 -31 31 -78t-30 -75t-72 -29q-42 0 -87 35q-61 57 -156 57q-121 0 -157 -119l-95 -303h265q48 0 78 -29q30 -28 30 -72t-31 -73
t-77 -29h-326l-289 -948q-22 -80 -119 -80z" />
    <glyph glyph-name="Scommaaccent" unicode="&#x218;" horiz-adv-x="1286" 
d="M464 -520q-83 0 -83 69q0 29 40 75t52 120l21 117q6 37 30 59t62 21q38 0 60 -29t13 -70l-18 -102q-23 -131 -90 -207q-45 -53 -87 -53zM1135 398q1 -180 -143 -300q-144 -121 -382 -121q-164 -1 -316 55t-220 124q-45 41 -45 87q-1 45 29 75t74 30t108 -46t166 -82
q104 -36 220 -36t202 60q87 60 87 148q0 89 -66 135q-67 46 -181 84t-182 69q-190 85 -250 205q-37 72 -37 164q0 188 145 300t358 111q264 0 443 -119q70 -43 69 -106q0 -43 -28 -74t-72 -31q-45 0 -94 31q-147 90 -302 90t-228 -60q-72 -60 -72 -141q0 -80 70 -128
t245 -106q176 -58 289 -148t113 -270z" />
    <glyph glyph-name="scommaaccent" unicode="&#x219;" horiz-adv-x="1032" 
d="M341 -520q-81 0 -83 69q0 29 40 75t52 120l21 117q7 37 31 59t61 21q37 0 59 -29t15 -70l-19 -102q-23 -131 -90 -207q-45 -53 -87 -53zM891 308q0 -144 -111 -236t-288 -92q-125 0 -239 44q-206 80 -206 177q0 39 28 65q27 26 63 27q36 0 73 -25q143 -94 274 -94
q92 0 146 37q53 37 53 96t-52 91q-52 31 -186 86q-134 56 -202 123t-68 181q0 146 118 230t302 84t309 -103q47 -39 47 -82t-24 -71t-61 -29q-38 0 -83 25q-123 68 -210 68t-139 -34t-52 -84t38 -82q38 -30 165 -82t180 -89q125 -87 125 -231z" />
    <glyph glyph-name="circumflex" unicode="&#x2c6;" 
d="M242 1534q-30 0 -52 22t-22 62q0 39 47 72l223 155q39 27 77 27t73 -31l166 -155q34 -35 34 -71t-24 -60q-24 -23 -58 -23q-36 0 -65 29l-137 127l-199 -134q-33 -20 -63 -20z" />
    <glyph glyph-name="caron" unicode="&#x2c7;" 
d="M481 1542q-33 0 -63 27l-176 151q-31 25 -31 62q0 36 26 62q27 26 59 26t60 -23l140 -123l182 127q28 19 60 19t56 -24t24 -60t-52 -78l-211 -139q-41 -27 -74 -27z" />
    <glyph glyph-name="breve" unicode="&#x2d8;" 
d="M529 1548q-95 0 -161 43t-94 123q-12 29 -12 68t25 59t57 21q59 0 76 -74q8 -27 16 -42q8 -16 31 -30t57 -14q84 0 127 98q25 61 82 62q35 0 57 -20q40 -37 8 -113q-32 -77 -103 -129t-166 -52z" />
    <glyph glyph-name="dotaccent" unicode="&#x2d9;" 
d="M511 1778q48 0 77 -28q28 -28 28 -77t-36 -84t-82 -35q-47 0 -76 28t-29 76t35 84t83 36z" />
    <glyph glyph-name="ring" unicode="&#x2da;" horiz-adv-x="743" 
d="M518 1649q41 -1 68 29q26 30 26 69t-22 63t-63 23q-39 0 -67 -31q-28 -30 -28 -68t22 -62t64 -23zM530 1948q92 0 147 -54q54 -54 54 -139q-1 -85 -61 -153t-152 -68t-147 55t-55 140t60 152q62 67 154 67z" />
    <glyph glyph-name="ogonek" unicode="&#x2db;" 
d="M418 -206q0 -38 26 -60t58 -21t64 21t56 20t42 -19q20 -19 20 -53t-52 -75t-141 -41t-160 57t-71 168t89 185t210 130q62 30 99 -4q20 -16 20 -52t-55 -58q-153 -62 -188 -128q-17 -32 -17 -70z" />
    <glyph glyph-name="tilde" unicode="&#x2dc;" 
d="M616 1538q-66 0 -143 39t-107 39t-69 -31t-67 -31t-52 24t-24 58t45 74q90 76 176 76q53 0 130 -40t105 -40t68 35q41 35 71 35q31 0 55 -23t24 -59t-54 -84q-92 -72 -158 -72z" />
    <glyph glyph-name="hungarumlaut" unicode="&#x2dd;" 
d="M564 1542q-36 0 -60 24t-25 64q0 40 35 72l203 172q37 33 73 33t62 -26q25 -27 25 -67t-35 -69l-205 -172q-37 -31 -73 -31zM198 1542q-36 0 -61 24t-25 64t38 72l200 172q37 33 74 33q38 0 62 -26q24 -27 24 -67t-35 -69l-205 -172q-36 -31 -72 -31z" />
    <glyph glyph-name="Wgrave" unicode="&#x1e80;" horiz-adv-x="1902" 
d="M1210 1634q0 -40 -24 -64t-60 -24q-35 0 -59 15l-264 143q-47 27 -47 70q0 44 24 68t57 24q32 0 56 -13l270 -151q47 -27 47 -68zM1319 209q8 0 10 10l412 1131q35 98 112 98q49 0 79 -29t30 -63t-10 -60l-445 -1161q-59 -158 -188 -158q-76 1 -129 49t-62 142l-81 1030
q1 6 -5 7t-10 -5l-428 -1065q-63 -158 -190 -158q-78 -1 -131 53t-58 130l-65 1151q-2 63 30 100q33 37 78 37t77 -30t34 -79l49 -1118q0 -10 7 -11t11 9l422 1065q66 164 193 164q68 0 113 -49t53 -139l82 -1041q2 -10 10 -10z" />
    <glyph glyph-name="wgrave" unicode="&#x1e81;" horiz-adv-x="1646" 
d="M1071 1298q-1 -40 -25 -64t-59 -24t-59 15l-264 143q-48 27 -48 70q0 44 25 68t57 24t56 -12l270 -152q47 -27 47 -68zM870 827q-10 0 -14 -12l-289 -678q-37 -84 -78 -121q-41 -36 -107 -36t-116 46q-49 46 -57 128l-82 800q-6 64 23 100q28 36 76 36q102 0 110 -105
l53 -567q4 -43 4 -209q0 -18 15 -19q10 0 16 15q53 154 72 196l235 553q57 135 172 136q131 0 148 -154l49 -524q4 -70 8 -205q0 -16 12 -17q11 0 38 79t38 106l258 633q29 82 105 82q57 0 87 -46t1 -112l-342 -797q-66 -156 -193 -155q-70 0 -117 48t-55 126l-59 657
q-1 16 -11 16z" />
    <glyph glyph-name="Wacute" unicode="&#x1e82;" horiz-adv-x="1902" 
d="M1432 1782q0 -57 -70 -88l-287 -135q-59 -29 -102 12q-25 23 -25 69t53 70l289 139q80 31 119 -11q23 -24 23 -56zM1319 209q8 0 10 10l412 1131q35 98 112 98q49 0 79 -29t30 -63t-10 -60l-445 -1161q-59 -158 -188 -158q-76 1 -129 49t-62 142l-81 1030q1 6 -5 7
t-10 -5l-428 -1065q-63 -158 -190 -158q-78 -1 -131 53t-58 130l-65 1151q-2 63 30 100q33 37 78 37t77 -30t34 -79l49 -1118q0 -10 7 -11t11 9l422 1065q66 164 193 164q68 0 113 -49t53 -139l82 -1041q2 -10 10 -10z" />
    <glyph glyph-name="wacute" unicode="&#x1e83;" horiz-adv-x="1646" 
d="M774 1304q0 46 53 70l289 139q80 31 119 -11q23 -24 22 -56q0 -57 -69 -88l-287 -135q-59 -29 -103 12q-24 23 -24 69zM870 827q-10 0 -14 -12l-289 -678q-37 -84 -78 -121q-41 -36 -107 -36t-116 46q-49 46 -57 128l-82 800q-6 64 23 100q28 36 76 36q102 0 110 -105
l53 -567q4 -43 4 -209q0 -18 15 -19q10 0 16 15q53 154 72 196l235 553q57 135 172 136q131 0 148 -154l49 -524q4 -70 8 -205q0 -16 12 -17q11 0 38 79t38 106l258 633q29 82 105 82q57 0 87 -46t1 -112l-342 -797q-66 -156 -193 -155q-70 0 -117 48t-55 126l-59 657
q-1 16 -11 16z" />
    <glyph glyph-name="Wdieresis" unicode="&#x1e84;" horiz-adv-x="1902" 
d="M1288 1778q47 0 76 -28t29 -77t-35 -84t-83 -35t-77 29t-29 76t36 83t83 36zM940 1778q47 0 76 -28q28 -28 28 -77t-34 -84t-83 -35q-48 0 -77 29t-29 76t36 83t83 36zM1319 209q8 0 10 10l412 1131q35 98 112 98q49 0 79 -29t30 -63t-10 -60l-445 -1161
q-59 -158 -188 -158q-76 1 -129 49t-62 142l-81 1030q1 6 -5 7t-10 -5l-428 -1065q-63 -158 -190 -158q-78 -1 -131 53t-58 130l-65 1151q-2 63 30 100q33 37 78 37t77 -30t34 -79l49 -1118q0 -10 7 -11t11 9l422 1065q66 164 193 164q68 0 113 -49t53 -139l82 -1041
q2 -10 10 -10z" />
    <glyph glyph-name="wdieresis" unicode="&#x1e85;" horiz-adv-x="1646" 
d="M1135 1446q47 0 75 -28t29 -77q0 -49 -35 -84t-83 -35t-77 30q-28 28 -28 75t36 83t83 36zM786 1446q47 0 76 -28t29 -77t-35 -84t-83 -35t-77 30q-28 28 -28 75t35 83q36 36 83 36zM870 827q-10 0 -14 -12l-289 -678q-37 -84 -78 -121q-41 -36 -107 -36t-116 46
q-49 46 -57 128l-82 800q-6 64 23 100q28 36 76 36q102 0 110 -105l53 -567q4 -43 4 -209q0 -18 15 -19q10 0 16 15q53 154 72 196l235 553q57 135 172 136q131 0 148 -154l49 -524q4 -70 8 -205q0 -16 12 -17q11 0 38 79t38 106l258 633q29 82 105 82q57 0 87 -46t1 -112
l-342 -797q-66 -156 -193 -155q-70 0 -117 48t-55 126l-59 657q-1 16 -11 16z" />
    <glyph glyph-name="Ygrave" unicode="&#x1ef2;" horiz-adv-x="1280" 
d="M895 1634q-1 -40 -25 -64t-59 -24t-59 15l-265 143q-47 27 -47 70q0 44 25 68t57 24t56 -13l270 -151q47 -27 47 -68zM86 1344q0 40 32 72t85 32t94 -64l342 -548l543 569q43 43 91 43t78 -30q29 -30 29 -76t-43 -91l-557 -571q-53 -57 -63 -105l-80 -481
q-16 -102 -105 -102q-52 0 -82 37t-20 92l76 454q8 58 -27 113l-370 580q-23 36 -23 76z" />
    <glyph glyph-name="ygrave" unicode="&#x1ef3;" horiz-adv-x="1054" 
d="M764 1296q0 -40 -24 -64t-60 -24q-35 0 -59 15l-265 143q-47 27 -47 70q0 44 25 68q24 24 56 24t56 -12l271 -152q47 -27 47 -68zM484 295q9 0 18 12q55 133 110 232l262 477q41 74 105 74q65 0 91 -56t-7 -108l-514 -910q-156 -276 -320 -381q-66 -43 -116 -43
q-51 0 -79 27t-28 66q0 61 70 96q150 80 268 289l-227 870q-16 66 13 108q30 42 89 42q80 -1 107 -99l114 -446q23 -88 35 -236q0 -14 9 -14z" />
    <glyph glyph-name="endash" unicode="&#x2013;" horiz-adv-x="1173" 
d="M84 587q0 46 35 77t84 30h772q53 0 83 -30t30 -75q0 -46 -36 -78q-34 -32 -85 -32h-770q-53 0 -83 31t-30 77z" />
    <glyph glyph-name="emdash" unicode="&#x2014;" horiz-adv-x="1918" 
d="M84 587q0 46 35 77t84 30h1519q51 0 82 -30t31 -75q0 -46 -36 -78t-85 -32h-1517q-53 0 -83 31t-30 77z" />
    <glyph glyph-name="quoteleft" unicode="&#x2018;" horiz-adv-x="462" 
d="M352 1024q-17 -92 -103 -92q-42 0 -67 33t-16 77l20 113q26 147 86 217t107 70t72 -23t25 -57t-27 -66q-61 -72 -74 -145z" />
    <glyph glyph-name="quoteright" unicode="&#x2019;" horiz-adv-x="458" 
d="M235 932q-47 0 -71 22t-23 55q0 32 29 68q59 68 74 148l20 125q8 44 36 68t70 24t66 -33t17 -78l-21 -112q-26 -145 -88 -216t-109 -71z" />
    <glyph glyph-name="quotesinglbase" unicode="&#x201a;" horiz-adv-x="413" 
d="M129 -221q-47 1 -71 23t-24 55t29 67q59 68 74 148l21 125q8 43 36 67t70 25q42 0 66 -33q25 -33 16 -78l-20 -112q-26 -145 -88 -216t-109 -71z" />
    <glyph glyph-name="quotedblleft" unicode="&#x201c;" horiz-adv-x="780" 
d="M352 1024q-17 -92 -103 -92q-42 0 -67 33t-16 77l20 113q26 147 86 217t107 70t72 -23t25 -57t-27 -66q-61 -72 -74 -145zM793 1362q0 -34 -27 -66q-61 -72 -74 -145l-22 -127q-17 -92 -104 -92q-42 0 -66 33t-17 77l21 113q25 147 85 217q59 70 107 70t72 -23t25 -57z
" />
    <glyph glyph-name="quotedblright" unicode="&#x201d;" horiz-adv-x="776" 
d="M235 932q-47 0 -71 22t-23 55q0 32 29 68q59 68 74 148l20 125q8 44 36 68t70 24t66 -33t17 -78l-21 -112q-26 -145 -88 -216t-109 -71zM553 932q-47 0 -71 22q-52 49 5 123q59 68 74 148l21 125q8 44 36 68t69 24q42 0 67 -33t16 -78l-20 -112q-26 -145 -88 -216
t-109 -71z" />
    <glyph glyph-name="quotedblbase" unicode="&#x201e;" horiz-adv-x="759" 
d="M164 -221q-47 1 -71 23q-23 22 -23 55t28 67q59 68 74 148l21 125q7 43 35 67t70 25q42 0 67 -33t16 -78l-21 -112q-27 -145 -88 -216t-108 -71zM483 -221q-47 1 -71 23t-23 55q0 33 29 67q59 68 74 148l20 125q8 43 36 67t70 25q42 0 66 -33q25 -33 16 -78l-20 -112
q-26 -145 -88 -216t-109 -71z" />
    <glyph glyph-name="dagger" unicode="&#x2020;" horiz-adv-x="1054" 
d="M186 813q-42 0 -72 30q-30 29 -30 73t36 77t89 33h278l54 315q10 51 41 82q32 31 78 31t75 -34t21 -81l-54 -313h271q43 0 74 -30t31 -74t-36 -77q-35 -32 -90 -32h-282l-164 -991q-18 -109 -109 -109q-51 0 -82 34t-22 83l164 983h-271z" />
    <glyph glyph-name="daggerdbl" unicode="&#x2021;" horiz-adv-x="1054" 
d="M180 813q-42 0 -70 28q-28 29 -28 73t37 78t90 34h278l52 315q10 51 41 82q32 31 78 31t75 -34t21 -81l-52 -313h279q45 0 71 -30t26 -74t-36 -76q-35 -33 -90 -33h-284l-76 -461h278q45 0 71 -28t26 -74q0 -45 -35 -78t-90 -33h-285l-53 -317q-18 -109 -109 -109
q-51 0 -82 34t-22 83l51 309h-272q-43 0 -70 28t-27 74q0 47 36 79t89 32h279l76 461h-273z" />
    <glyph glyph-name="bullet" unicode="&#x2022;" horiz-adv-x="944" 
d="M215 717q0 106 76 182t182 76t182 -76t76 -182t-76 -182t-182 -76t-182 76t-76 182z" />
    <glyph glyph-name="ellipsis" unicode="&#x2026;" horiz-adv-x="1361" 
d="M188 -20q-42 0 -68 30t-20 72l27 158q6 42 35 68q28 26 70 26t68 -30t17 -73l-24 -157q-8 -42 -36 -68t-69 -26zM645 -20q-41 0 -67 30t-21 72l27 158q6 42 34 68t71 26q42 0 68 -30t17 -73l-24 -157q-8 -42 -36 -68t-69 -26zM1094 -20q-41 0 -68 30t-20 72l26 158
q6 42 35 68t71 26t68 -30t17 -73l-25 -157q-8 -42 -36 -68t-68 -26z" />
    <glyph glyph-name="perthousand" unicode="&#x2030;" horiz-adv-x="2326" 
d="M1924 549q-64 0 -112 -41t-64 -111q-15 -70 -18 -121q-2 -51 38 -92t108 -41t109 41q41 40 54 102t18 120t-32 101q-37 42 -101 42zM1927 709q133 0 218 -84t79 -215q-2 -59 -18 -129q-66 -295 -334 -295q-138 0 -224 87t-79 220q4 59 14 119q27 137 119 217t225 80z
M396 889q68 0 110 41q41 41 54 102q12 61 18 120q6 58 -31 100t-101 42t-113 -41q-48 -41 -65 -108q-14 -71 -17 -123t37 -92t108 -41zM448 1454q134 0 219 -84t78 -215q-2 -59 -18 -129q-65 -295 -333 -295q-138 0 -225 87t-79 220q4 59 14 119q27 137 119 217
q91 80 225 80zM1146 143q68 0 109 41q60 60 72 215q6 66 -31 108t-101 42q-65 0 -113 -41t-63 -111t-19 -121t38 -92q40 -41 108 -41zM1198 709q133 0 218 -84t79 -215q-2 -59 -18 -129q-65 -295 -333 -295q-138 0 -226 87q-86 87 -78 220q4 59 14 119q27 137 119 217
t225 80zM332 178q-39 0 -66 27q-26 27 -26 67t36 76l912 887q33 35 73 35q39 0 67 -26t28 -66t-37 -74l-911 -891q-37 -35 -76 -35z" />
    <glyph glyph-name="guilsinglleft" unicode="&#x2039;" horiz-adv-x="694" 
d="M63 715q0 98 99 164l295 204q33 23 71 23t64 -27t26 -69t-51 -76l-239 -172q-33 -23 -33 -42t16 -36l181 -168q30 -30 30 -66t-26 -65t-68 -29q-41 0 -82 35l-217 197q-66 53 -66 127z" />
    <glyph glyph-name="guilsinglright" unicode="&#x203a;" horiz-adv-x="702" 
d="M647 750q0 -96 -100 -166l-293 -203q-41 -25 -75 -25q-35 0 -61 27t-26 69t51 78l240 170q33 25 33 43t-19 37l-178 168q-33 25 -33 64q0 40 27 68t66 28t86 -35l217 -199q65 -54 65 -124z" />
    <glyph glyph-name="fraction" unicode="&#x2044;" horiz-adv-x="575" 
d="M-103 -68q-49 0 -81 28t-31 62q0 34 18 64l768 1360q33 57 83 57q50 1 80 -25t30 -62t-19 -70l-768 -1356q-31 -58 -80 -58z" />
    <glyph glyph-name="Euro" unicode="&#x20ac;" horiz-adv-x="1288" 
d="M883 1454q123 0 229 -43t172 -119q29 -36 29 -72t-27 -64q-28 -28 -68 -28t-90 41q-104 93 -246 93t-244 -82t-142 -236h311q45 0 70 -24t25 -58q0 -36 -29 -64q-28 -28 -74 -28h-348l-17 -102h336q43 0 66 -25q22 -25 22 -61t-28 -66q-28 -29 -82 -29h-336
q-6 -153 70 -235t217 -82q140 0 286 113q39 27 76 27t61 -28q24 -26 23 -68q0 -42 -64 -95q-165 -135 -377 -135t-351 125q-138 125 -138 378h-82q-33 0 -57 26q-24 27 -25 63q0 36 29 64t70 28h81l15 102h-62q-40 0 -62 25t-22 61t30 63q30 26 71 25h84q57 238 213 374
t385 136z" />
    <glyph glyph-name="trademark" unicode="&#x2122;" horiz-adv-x="1198" 
d="M587 893q-38 0 -56 23q-17 24 -5 59l123 381q29 94 111 94q38 0 62 -25t26 -65l16 -285q0 -12 5 -12t12 12l110 289q33 86 107 86q38 0 64 -24t26 -70l-2 -391q0 -31 -16 -51t-45 -21q-28 0 -45 17t-17 42l14 324q0 12 -5 12t-9 -12l-121 -303q-29 -78 -90 -78
q-32 0 -54 23t-24 57l-18 301q0 12 -5 12t-10 -12l-98 -330q-18 -53 -56 -53zM272 893q-27 0 -44 19t-15 46l61 365h-120q-23 0 -38 17q-16 17 -16 41t20 43t50 20h358q25 0 40 -16q16 -16 16 -42q0 -25 -20 -44t-50 -19h-115l-61 -369q-11 -61 -66 -61z" />
    <glyph glyph-name="minus" unicode="&#x2212;" horiz-adv-x="1263" 
d="M1047 614h-830q-45 0 -76 30t-31 74t31 73t76 28h830q45 -1 75 -29t31 -72t-31 -74t-75 -30z" />
    <glyph glyph-name="lessequal" unicode="&#x2264;" horiz-adv-x="1263" 
d="M940 -10h-618q-45 0 -75 30t-30 73q0 44 30 73t75 29h618q45 0 76 -29t31 -73q0 -43 -32 -73t-75 -30zM217 794q0 94 96 150l576 342q39 20 77 11t60 -46t12 -77t-45 -62l-489 -289q-27 -17 -27 -31t27 -30l489 -285q35 -20 45 -62t-11 -79t-61 -47t-77 12l-576 342
q-96 57 -96 151z" />
    <glyph glyph-name="greaterequal" unicode="&#x2265;" horiz-adv-x="1263" 
d="M944 -10h-620q-43 0 -75 30t-32 73q0 44 31 73t76 29h620q43 0 74 -30t31 -73q0 -42 -31 -72t-74 -30zM272 477l488 285q50 30 0 61l-488 289q-37 20 -47 62t13 78q24 36 62 45t75 -11l575 -342q98 -59 98 -150t-98 -151l-575 -342q-37 -23 -77 -13t-60 48q-20 37 -11 79
q10 42 45 62z" />
    <glyph glyph-name="fl" unicode="&#xfb02;" horiz-adv-x="1413" 
d="M1262 1460q54 0 82 -37t20 -94l-205 -1239q-16 -98 -106 -98q-53 0 -82 37t-21 94l207 1237q16 100 105 100zM952 1360q0 -45 -24 -75t-58 -30q-33 -1 -83 13t-93 14q-152 0 -182 -176l-10 -72h235q45 0 73 -28t28 -67q0 -40 -30 -67t-73 -26h-260l-125 -756
q-16 -100 -112 -98q-46 0 -76 37q-29 37 -21 94l121 723h-49q-47 0 -74 28t-27 67q0 40 30 67t73 26h78l14 84q61 360 395 361q94 0 191 -41q59 -33 59 -78z" />
    <glyph glyph-name="Imacron" horiz-adv-x="606" 
d="M293 1565q-43 1 -69 25t-26 60t30 64q28 28 77 29h320q41 0 63 -25q22 -24 23 -60q0 -36 -28 -65t-71 -28h-319zM417 1448q45 0 75 -38t20 -97l-203 -1221q-8 -47 -38 -74q-29 -26 -75 -26t-76 37t-20 94l205 1223q8 46 37 74t75 28z" />
    <glyph glyph-name="ampersand.alt" horiz-adv-x="1400" 
d="M686 1249q-108 0 -184 -60t-76 -171t135 -199q212 55 278 112t65 132q-1 76 -56 131t-162 55zM525 -20q-204 0 -346 106t-142 274q0 134 83 234t240 151q-152 119 -152 301t137 292q136 110 336 110q201 0 321 -104t120 -260t-123 -265t-443 -195q-179 -49 -240 -111
q-60 -62 -60 -147q0 -84 72 -134t186 -50q170 0 283 96t145 226q23 84 58 123q36 39 112 39h150q54 0 82 -30t28 -73t-31 -78t-84 -34h-129q-51 -223 -225 -347t-378 -124z" />
    <glyph glyph-name="Q.alt" horiz-adv-x="1447" 
d="M805 414l-37 -219q123 18 208 110q85 91 120 233t49 316t-88 286q-101 112 -267 112t-278 -102q-112 -101 -148 -258q-35 -158 -50 -312t62 -253t197 -128l39 243q14 98 105 99q47 0 73 -38t15 -89zM696 -242q-16 -92 -104 -92q-43 0 -71 37t-17 94l35 197
q-205 45 -333 207t-106 405q12 139 37 271q51 268 220 426q169 157 438 157t431 -177t138 -441q-16 -160 -39 -289q-49 -263 -204 -411t-390 -165z" />
    <glyph glyph-name="r.alt" horiz-adv-x="755" 
d="M578 1102q247 0 247 -123q1 -43 -29 -74t-66 -31t-82 8q-44 8 -75 9q-95 0 -165 -49l-125 -736q-18 -111 -109 -110q-49 0 -79 36t-21 89l135 815q6 41 47 72q131 94 322 94z" />
    <glyph glyph-name="zero.onum" horiz-adv-x="1261" 
d="M659 899q-129 0 -218 -72t-119 -211q-14 -70 -19 -122q-12 -144 77 -228t215 -84t215 65t120 202q12 61 20 124q14 150 -73 238q-89 88 -218 88zM676 1102q213 0 355 -140t128 -366q-10 -123 -33 -217q-51 -187 -183 -293t-346 -106t-363 133q-148 133 -138 356
q14 367 222 523q146 110 358 110z" />
    <glyph glyph-name="one.onum" horiz-adv-x="919" 
d="M487 -8q-47 0 -77 33t-23 86l123 735l-254 -105q-51 -19 -100 5t-50 79q0 74 97 111l370 147q51 19 90 19t64 -37t14 -90l-145 -871q-21 -112 -109 -112z" />
    <glyph glyph-name="two.onum" horiz-adv-x="1198" 
d="M918 201q54 0 82 -28t27 -70q-1 -43 -37 -73t-95 -30h-668q-71 0 -109 38t-38 103q0 150 90 243q124 128 397 205q93 26 153 44t110 55t50 90t-52 91q-54 38 -148 38q-147 0 -311 -114q-45 -31 -83 -31t-65 29t-26 65q0 59 65 109q86 63 196 100t210 37q190 0 308 -94
t118 -239t-120 -224t-306 -131q-187 -51 -262 -93t-93 -120h607z" />
    <glyph glyph-name="three.onum" horiz-adv-x="1159" 
d="M240 852q-45 0 -75 31t-30 75t35 76q35 33 86 33h666q55 0 90 -31q35 -32 35 -92t-62 -108l-354 -332q160 -12 254 -121t94 -238q0 -245 -221 -399t-645 -154q-141 0 -142 105q0 45 32 74t89 28l84 -2q262 0 425 93t163 247q0 87 -65 147t-173 60l-104 -8q-39 0 -68 24
q-28 24 -28 64q0 41 57 92l352 330l-2 6h-493z" />
    <glyph glyph-name="four.onum" horiz-adv-x="1327" 
d="M768 211l100 577l-565 -577h465zM182 0q-72 0 -112 36t-41 95q0 59 65 129l705 727q35 35 54 53t57 40t75 22q145 0 115 -187l-119 -698h123q49 0 77 -29q27 -30 27 -72t-36 -79t-97 -37h-129l-47 -301q-16 -111 -108 -111q-49 0 -80 33t-23 86l47 293h-553z" />
    <glyph glyph-name="five.onum" horiz-adv-x="1236" 
d="M434 1067h617q47 0 75 -26q28 -27 29 -71q0 -44 -40 -77t-97 -33h-555l-60 -350q119 49 295 49q176 1 290 -107t114 -265t-78 -273t-208 -184q-263 -138 -611 -138q-84 0 -127 33t-43 79t32 72t78 25l99 -4q352 0 541 168q99 88 100 209q0 86 -66 144q-144 126 -459 -21
q-78 -37 -137 2t-45 123l82 504q14 84 59 112t115 29z" />
    <glyph glyph-name="six.onum" horiz-adv-x="1355" 
d="M649 188q139 0 220 81t81 205t-70 193q-72 69 -224 69t-316 -93q-10 -57 -10 -119q4 -172 92 -254t227 -82zM698 926q211 0 340 -125t129 -309q0 -224 -138 -368q-137 -144 -373 -144t-387 148t-150 407q0 382 184 642q92 131 247 205t339 74t268 -33q66 -27 66 -80
t-32 -83t-85 -29l-205 14q-199 0 -335 -96t-187 -293q154 70 319 70z" />
    <glyph glyph-name="seven.onum" horiz-adv-x="1071" 
d="M208 -408q-66 0 -97 44t-7 106q98 242 258 492t449 620h-618q-45 0 -74 30t-29 74t36 77q36 32 89 32h762q61 0 98 -29t37 -82t-41 -104q-539 -688 -758 -1174q-39 -86 -105 -86z" />
    <glyph glyph-name="eight.onum" horiz-adv-x="1398" 
d="M664 -20q-236 0 -391 112t-154 303q0 123 77 229t222 138q-86 41 -132 116t-46 160q0 199 147 309q147 109 369 109t365 -105q142 -105 143 -261q0 -122 -67 -216t-196 -129q93 -45 153 -129t60 -196q0 -205 -156 -323q-158 -117 -394 -117zM342 404q0 -116 88 -168
q88 -54 228 -54q141 0 237 64t96 178q0 116 -83 172t-229 57q-146 0 -242 -66q-95 -67 -95 -183zM451 1028q-1 -90 79 -142t214 -52t222 61q87 61 87 157t-78 151q-78 57 -208 57t-223 -56t-93 -176z" />
    <glyph glyph-name="nine.onum" horiz-adv-x="1343" 
d="M1001 528q0 186 -87 276t-228 89q-141 0 -226 -80t-85 -208t80 -202q80 -73 233 -73t307 104q6 45 6 94zM641 141q-199 0 -341 127t-142 342q0 216 144 354t379 138t385 -148t148 -393q0 -434 -255 -700t-732 -267q-139 0 -139 107q0 45 35 75t82 27q297 -9 485 103
t256 309q-106 -74 -305 -74z" />
    <glyph glyph-name="sterling.alt" horiz-adv-x="1159" 
d="M289 227q0 -12 20 -12h572q53 0 85 -30q32 -29 32 -73t-34 -78q-32 -34 -94 -34h-692q-86 0 -121 61t-4 142q7 27 75 145t118 230h-74q-47 0 -74 28q-26 28 -26 71q0 42 32 76q33 34 91 33h135q14 35 39 107t28 80q88 245 204 361t306 116q129 0 219 -68q45 -39 45 -86
q1 -48 -27 -74t-66 -26t-82 22t-119 23q-73 0 -135 -58t-124 -208q-2 -4 -71 -189h264q55 0 83 -28t28 -70q0 -43 -32 -77t-89 -33h-336q-82 -195 -156 -312q-20 -37 -20 -39z" />
    <glyph glyph-name="commaaccent" 
d="M306 -520q-81 0 -83 69q0 29 40 75t52 120l21 117q6 37 31 59t61 21q36 0 60 -29q22 -29 14 -70l-19 -102q-23 -131 -90 -207q-45 -53 -87 -53z" />
    <glyph glyph-name="caronSlovak" 
d="M313 1118q-43 0 -65 20t-21 49q0 29 40 75t50 108l23 113q6 37 31 59t61 21q36 0 60 -29q23 -29 14 -68l-21 -100q-25 -125 -82 -190q-47 -58 -90 -58z" />
    <glyph glyph-name="g.alt" horiz-adv-x="1179" 
d="M346 702q0 -100 58 -151t162 -51q106 0 176 64t69 159q0 94 -57 146q-57 53 -163 53q-105 0 -175 -60t-70 -160zM500 -406q-160 0 -288 50t-206 133q-43 43 -43 88t28 73q27 28 73 28t96 -51q50 -50 142 -88q90 -38 186 -38t175 40t78 110q0 94 -166 94h-137
q-154 0 -224 60t-71 135q0 75 41 127t107 71q-63 45 -104 121q-40 76 -40 155q0 168 122 284t306 116q125 0 242 -53h266q51 0 80 -26q29 -25 29 -63t-29 -67t-84 -29h-106q29 -51 28 -139q1 -157 -117 -271t-321 -114h-98q-131 0 -131 -59t98 -60h160q178 0 269 -74
q91 -73 91 -211t-122 -240t-330 -102z" />
    <glyph glyph-name="gbreve.alt" horiz-adv-x="1179" 
d="M709 1200q-95 0 -161 43t-93 123q-13 29 -13 68t25 59t57 20q59 0 76 -73q8 -27 16 -42q8 -16 31 -30t58 -14q84 0 126 98q25 61 82 61q35 0 57 -20q40 -36 8 -113q-32 -76 -103 -128t-166 -52zM346 702q0 -100 58 -151t162 -51q106 0 176 64t69 159q0 94 -57 146
q-57 53 -163 53q-105 0 -175 -60t-70 -160zM500 -406q-160 0 -288 50t-206 133q-43 43 -43 88t28 73q27 28 73 28t96 -51q50 -50 142 -88q90 -38 186 -38t175 40t78 110q0 94 -166 94h-137q-154 0 -224 60t-71 135q0 75 41 127t107 71q-63 45 -104 121q-40 76 -40 155
q0 168 122 284t306 116q125 0 242 -53h266q51 0 80 -26q29 -25 29 -63t-29 -67t-84 -29h-106q29 -51 28 -139q1 -157 -117 -271t-321 -114h-98q-131 0 -131 -59t98 -60h160q178 0 269 -74q91 -73 91 -211t-122 -240t-330 -102z" />
    <glyph glyph-name="gdotaccent.alt" horiz-adv-x="1177" 
d="M710 1448q48 0 76 -28t29 -76q0 -48 -36 -84q-36 -35 -84 -35q-47 1 -75 29t-28 75t35 83t83 36zM346 702q0 -100 58 -151t162 -51q106 0 176 64t69 159q0 94 -57 146q-57 53 -163 53q-105 0 -175 -60t-70 -160zM500 -406q-160 0 -288 50t-206 133q-43 43 -43 88t28 73
q27 28 73 28t96 -51q50 -50 142 -88q90 -38 186 -38t175 40t78 110q0 94 -166 94h-137q-154 0 -224 60t-71 135q0 75 41 127t107 71q-63 45 -104 121q-40 76 -40 155q0 168 122 284t306 116q125 0 242 -53h266q51 0 80 -26q29 -25 29 -63t-29 -67t-84 -29h-106
q29 -51 28 -139q1 -157 -117 -271t-321 -114h-98q-131 0 -131 -59t98 -60h160q178 0 269 -74q91 -73 91 -211t-122 -240t-330 -102z" />
    <glyph glyph-name="gcommaaccent.alt" horiz-adv-x="1179" 
d="M654 1171q-81 0 -83 70q0 29 40 75t53 120l20 116q6 37 31 59q25 21 61 21t60 -28q23 -28 14 -70l-19 -102q-23 -131 -90 -207q-45 -54 -87 -54zM346 702q0 -100 58 -151t162 -51q106 0 176 64t69 159q0 94 -57 146q-57 53 -163 53q-105 0 -175 -60t-70 -160zM500 -406
q-160 0 -288 50t-206 133q-43 43 -43 88t28 73q27 28 73 28t96 -51q50 -50 142 -88q90 -38 186 -38t175 40t78 110q0 94 -166 94h-137q-154 0 -224 60t-71 135q0 75 41 127t107 71q-63 45 -104 121q-40 76 -40 155q0 168 122 284t306 116q125 0 242 -53h266q51 0 80 -26
q29 -25 29 -63t-29 -67t-84 -29h-106q29 -51 28 -139q1 -157 -117 -271t-321 -114h-98q-131 0 -131 -59t98 -60h160q178 0 269 -74q91 -73 91 -211t-122 -240t-330 -102z" />
    <glyph glyph-name="racute.alt" horiz-adv-x="755" 
d="M842 1446q0 -57 -70 -88l-287 -135q-59 -29 -102 12q-25 23 -25 69t54 70l288 139q80 31 119 -11q23 -24 23 -56zM578 1102q247 0 247 -123q1 -43 -29 -74t-66 -31t-82 8q-44 8 -75 9q-95 0 -165 -49l-125 -736q-18 -111 -109 -110q-49 0 -79 36t-21 89l135 815
q6 41 47 72q131 94 322 94z" />
    <glyph glyph-name="rcaron.alt" horiz-adv-x="755" 
d="M565 1217q-33 0 -63 26l-176 152q-31 25 -31 61t26 63q27 25 59 25t60 -22l140 -123l182 127q28 18 60 18t56 -24t24 -60q0 -37 -52 -78l-211 -139q-41 -26 -74 -26zM578 1102q247 0 247 -123q1 -43 -29 -74t-66 -31t-82 8q-44 8 -75 9q-95 0 -165 -49l-125 -736
q-18 -111 -109 -110q-49 0 -79 36t-21 89l135 815q6 41 47 72q131 94 322 94z" />
    <glyph glyph-name="rcommaaccent.alt" horiz-adv-x="755" 
d="M30 -520q-83 0 -83 69q0 29 26 60q53 61 66 135l20 117q6 37 31 59q26 22 62 21q36 0 59 -29t14 -70l-18 -102q-23 -131 -90 -207q-45 -53 -87 -53zM578 1102q247 0 247 -123q1 -43 -29 -74t-66 -31t-82 8q-44 8 -75 9q-95 0 -165 -49l-125 -736q-18 -111 -109 -110
q-49 0 -79 36t-21 89l135 815q6 41 47 72q131 94 322 94z" />
    </font>
</defs>
</svg>
