<?xml version="1.0" standalone="no"?>
<!DOCTYPE svg PUBLIC "-//W3C//DTD SVG 1.1//EN" "http://www.w3.org/Graphics/SVG/1.1/DTD/svg11.dtd" >
<svg xmlns="http://www.w3.org/2000/svg">
<metadata>
Created by FontPrep 20130207 at Tue Nov  4 15:29:40 2014
 By Mauricio Duran
Copyright (c) 2010 by Miles Newlyn. All rights reserved.
</metadata>
<defs>
<font id="769a07cd331ac6769a35e3388e689a37" horiz-adv-x='1024' >
  <font-face 
    font-family="Rubrik-LightItalic"
    font-weight="300"
    font-style="italic"
    font-stretch="normal"
    units-per-em="2048"
    panose-1="2 0 5 3 0 0 0 2 0 4"
    ascent="1536"
    descent="-512"
    x-height="1044"
    cap-height="1442"
    bbox="-182 -586 2072 1890"
    underline-thickness="143"
    underline-position="-62"
    unicode-range="U+0020-FB02"
  />
<missing-glyph horiz-adv-x="616" 
 />
    <glyph glyph-name="fi" unicode="fi" horiz-adv-x="1300" 
d="M1100 1065q29 0 45 -19t12 -53l-160 -946q-10 -55 -57 -55q-31 0 -47 20t-10 51l159 947q10 55 58 55zM1243 1368q-1 -34 -23 -62t-59 -28t-59 22t-21 58q0 36 24 62q23 26 61 26t58 -22t19 -56zM877 1380q1 -32 -15 -46q-16 -15 -36 -15t-68 15q-49 15 -99 16
q-104 0 -156 -56t-71 -166l-16 -96h295q59 0 59 -55q0 -23 -17 -38t-42 -15h-312l-145 -877q-10 -55 -61 -55q-29 0 -45 19q-15 19 -11 52l144 861h-78q-27 0 -42 16t-15 40t16 38t41 14h96l16 105q51 326 355 325q98 0 164 -30q43 -20 43 -52z" />
    <glyph glyph-name=".notdef" horiz-adv-x="616" 
 />
    <glyph glyph-name=".null" horiz-adv-x="0" 
 />
    <glyph glyph-name="nonmarkingreturn" horiz-adv-x="681" 
 />
    <glyph glyph-name="space" unicode=" " horiz-adv-x="530" 
 />
    <glyph glyph-name="exclam" unicode="!" horiz-adv-x="450" 
d="M129 -18q-25 0 -40 16t-13 41l33 192q4 25 20 41t40 16t39 -16q15 -18 11 -41l-33 -194q-6 -55 -57 -55zM209 465q-23 0 -36 16t-9 37l131 850q8 63 65 64q27 0 43 -18t11 -52l-152 -846q-8 -51 -53 -51z" />
    <glyph glyph-name="quotedbl" unicode="&#x22;" horiz-adv-x="669" 
d="M510 1012q-25 0 -40 17t-11 44l51 307q6 55 59 56q25 0 41 -16t11 -42l-54 -311q-6 -55 -57 -55zM256 1012q-25 0 -40 17t-11 44l51 307q10 55 59 56q25 0 41 -16t11 -42l-52 -311q-10 -55 -59 -55z" />
    <glyph glyph-name="numbersign" unicode="#" horiz-adv-x="1216" 
d="M397 561h254l166 338h-252zM80 -18q-31 0 -46 22t1 53l194 394h-127q-24 0 -38 15t-14 38t18 40q20 17 53 17h162l166 338h-132q-23 0 -37 14t-16 38q0 24 20 41t52 18h168l196 399q20 41 54 41t48 -23q13 -23 -3 -55l-181 -362h254l197 399q20 41 53 41t46 -23t-1 -55
l-180 -362h125q27 0 41 -16t14 -38q0 -23 -18 -40t-51 -17h-164l-168 -338h131q57 0 57 -51q0 -25 -18 -42t-51 -17h-172l-215 -431q-16 -38 -48 -38t-49 22q-16 22 0 53l195 394h-252l-213 -431q-20 -38 -51 -38z" />
    <glyph glyph-name="dollar" unicode="$" horiz-adv-x="1204" 
d="M461 -182q-25 0 -40 16t-11 45l28 160q-104 14 -204 54q-180 72 -181 132q-1 25 17 43q36 37 90 0q180 -121 401 -121q150 0 256 70t107 199q0 84 -53 135q-53 52 -252 109t-300 122q-129 87 -129 236q0 180 142 278t330 101l24 157q10 59 62 60q26 0 40 -16t11 -44
l-29 -159q88 -14 164 -47q125 -54 127 -109q0 -23 -15 -39t-39 -16t-46 16q-121 84 -277 84t-265 -69q-108 -69 -108 -191t135 -183q52 -25 161 -56q109 -33 174 -57q178 -67 230 -166q32 -60 31 -142q0 -178 -137 -286t-360 -101l-27 -160q-8 -55 -57 -55z" />
    <glyph glyph-name="percent" unicode="%" horiz-adv-x="1419" 
d="M393 864q84 0 143 52q58 52 76 141q12 49 20 119t-42 126q-49 54 -131 54q-83 0 -145 -53t-81 -140q-12 -49 -19 -119t44 -126q51 -54 135 -54zM461 1452q123 0 202 -81t68 -204q-41 -399 -342 -399q-125 0 -205 83t-65 210q6 51 16 106q25 131 114 208t212 77zM958 86
q84 0 143 52q58 52 77 141q12 49 19 119t-42 125t-131 55t-144 -54t-81 -139q-11 -49 -19 -119t43 -126q51 -54 135 -54zM1026 674q123 0 202 -81q107 -109 50 -319q-66 -284 -323 -284q-125 0 -205 83t-66 210q6 51 16 106q25 131 114 208t212 77zM210 188q-22 0 -38 14
q-14 14 -14 39q0 24 22 44l989 954q20 21 43 21t38 -14q16 -14 16 -36q0 -23 -23 -43l-991 -958q-20 -21 -42 -21z" />
    <glyph glyph-name="ampersand" unicode="&#x26;" horiz-adv-x="1363" 
d="M348 1058q0 -118 193 -294q303 91 379 208q34 54 34 137t-77 151q-78 68 -214 68q-135 0 -225 -77q-90 -75 -90 -193zM524 96q231 0 391 174l-403 375q-328 -92 -328 -297q0 -116 95 -184t245 -68zM528 -16q-196 0 -328 99t-132 265q0 264 358 379q-61 63 -94 101
t-68 109t-35 140q0 147 121 253t306 108q185 0 301 -96t116 -238q0 -281 -440 -424l354 -322q39 60 67 118t42 76t40 17t43 -23t1 -61q-47 -113 -109 -202l207 -187q49 -41 12 -86q-16 -18 -42 -20t-46 16l-203 187q-190 -209 -471 -209z" />
    <glyph glyph-name="quotesingle" unicode="'" horiz-adv-x="440" 
d="M279 1012q-25 0 -40 17t-12 44l52 307q8 55 59 56q25 0 40 -16t11 -42l-51 -311q-10 -55 -59 -55z" />
    <glyph glyph-name="parenleft" unicode="(" horiz-adv-x="671" 
d="M462 -360q-28 0 -46 24q-250 354 -250 834q0 694 506 1110q26 20 48 20t39 -15t17 -38t-31 -53q-2 -2 -44 -41q-420 -390 -420 -985q0 -432 229 -756q14 -20 14 -43t-17 -40t-45 -17z" />
    <glyph glyph-name="parenright" unicode=")" horiz-adv-x="679" 
d="M-39 -360q-25 0 -42 15t-17 38t30 53q2 2 38 35t57 54q20 22 64 68t73 91t77 120t103 253t55 403q0 430 -229 756q-16 28 -16 48t17 37t44 17t47 -26q252 -358 252 -834q0 -692 -508 -1108q-20 -20 -45 -20z" />
    <glyph glyph-name="asterisk" unicode="*" horiz-adv-x="731" 
d="M326 741q-23 1 -36 17t-7 43l43 219l-205 -117q-20 -12 -42 -8t-30 23q-18 43 33 65l215 113l-174 104q-20 12 -24 34q-3 22 12 38q29 35 69 4l168 -115l31 221q4 57 51 58q23 0 36 -18t5 -46l-41 -215l203 117q49 33 74 -14q16 -45 -35 -68l-215 -109l174 -108
q45 -27 18 -68q-29 -39 -69 -8l-172 117l-33 -223q-2 -56 -49 -56z" />
    <glyph glyph-name="plus" unicode="+" horiz-adv-x="1280" 
d="M639 195q-57 0 -57 61v406h-404q-27 0 -44 15t-17 41t17 41t44 15h404v404q0 27 16 44t42 17t41 -17t15 -44v-404h398q27 0 45 -16t18 -41t-19 -40t-44 -15h-398v-406q0 -27 -15 -44t-42 -17z" />
    <glyph glyph-name="comma" unicode="," horiz-adv-x="430" 
d="M106 -201q-26 1 -40 15t-15 32q0 18 23 45q59 61 78 160l20 119q10 53 59 53q23 0 39 -18t11 -47l-21 -113q-14 -80 -34 -123t-58 -83q-36 -40 -62 -40z" />
    <glyph glyph-name="hyphen" unicode="-" horiz-adv-x="659" 
d="M96 588q0 25 18 41t46 16h342q29 0 45 -16t16 -42t-18 -42t-45 -17h-342q-30 0 -46 18t-16 42z" />
    <glyph glyph-name="period" unicode="." horiz-adv-x="491" 
d="M172 -23q-25 1 -40 19t-13 45l33 195q10 55 59 55q25 1 40 -17t11 -43l-33 -198q-10 -56 -57 -56z" />
    <glyph glyph-name="slash" unicode="/" horiz-adv-x="638" 
d="M40 -66q-36 0 -52 25t-4 57l567 1440q14 43 53 42q39 -2 53 -26t2 -57l-569 -1442q-14 -39 -50 -39z" />
    <glyph glyph-name="zero" unicode="0" horiz-adv-x="1335" 
d="M746 1335q-182 1 -288 -109t-144 -293t-59 -384t83 -327t283 -126q180 0 282 109t141 291q46 228 62 408t-81 306t-279 125zM620 -16q-228 0 -363 156q-136 156 -118 390q12 174 62 414q43 228 182 366t364 138t359 -159t117 -386q-13 -171 -61 -409t-181 -374t-361 -136
z" />
    <glyph glyph-name="one" unicode="1" horiz-adv-x="864" 
d="M397 -8q-27 0 -44 18t-13 47l203 1229l-299 -162q-20 -10 -38 -10t-34 14t-16 45t43 54l358 194q72 41 106 -1q17 -22 9 -62l-217 -1305q-11 -61 -58 -61z" />
    <glyph glyph-name="two" unicode="2" horiz-adv-x="1167" 
d="M870 113q59 0 60 -52q0 -27 -22 -44t-52 -17h-754q-45 0 -64 32t-11 74q27 137 120 245t372 285q280 176 356 268q76 93 76 195q-1 101 -77 169t-196 67q-190 0 -354 -164q-50 -43 -92 -13q-17 13 -17 40t37 64q186 186 422 186q170 0 282 -97t113 -251q0 -90 -49 -188
q-25 -53 -105 -130t-158 -128q-79 -52 -260 -168q-181 -115 -255 -195t-92 -178h720z" />
    <glyph glyph-name="three" unicode="3" horiz-adv-x="1155" 
d="M252 1319q-27 0 -44 14q-18 14 -18 39t20 42t48 18h680q90 0 90 -70q0 -43 -47 -84l-412 -383q184 -5 300 -107t116 -264q0 -119 -54 -212t-140 -150q-244 -162 -656 -162q-98 0 -98 59q0 23 18 39t49 17l95 -2q230 0 427 83q108 44 176 128t68 198t-87 198
q-87 83 -279 73l-39 -2q-61 0 -63 58q0 28 30 56l430 408l-2 6h-608z" />
    <glyph glyph-name="four" unicode="4" horiz-adv-x="1312" 
d="M834 475l135 809l-774 -809h639zM150 360q-45 0 -71 23t-26 59t39 80l815 852q68 68 110 68q41 0 63 -30t14 -73l-144 -862h164q27 0 42 -15t15 -40t-19 -43t-52 -19h-168l-53 -307q-12 -61 -60 -61q-25 0 -42 18t-13 45l51 305h-665z" />
    <glyph glyph-name="five" unicode="5" horiz-adv-x="1189" 
d="M932 563q0 115 -74 187t-221 71q-57 -1 -155 -31t-160 -65t-100 -11t-29 77l90 546q14 94 110 95h643q25 0 42 -16q18 -16 18 -41q0 -26 -20 -41t-54 -15h-627l-78 -473q172 86 344 86t280 -105t108 -255t-88 -264q-153 -201 -532 -276q-157 -32 -316 -32q-84 0 -84 57
q0 27 19 42t48 16l72 -2q247 0 487 102q121 51 199 142t78 206z" />
    <glyph glyph-name="six" unicode="6" horiz-adv-x="1314" 
d="M240 528q0 -216 105 -324t273 -108t274 114q105 114 105 266t-87 234t-260 83q-173 0 -402 -113q-8 -59 -8 -152zM673 903q199 -1 321 -109t122 -306t-136 -352q-137 -152 -357 -152t-359 140t-139 425t118 505q131 245 375 342q133 52 294 52t211 -15t51 -57
q0 -20 -16 -36t-48 -15l-199 12q-247 0 -415 -134t-228 -396q207 96 405 96z" />
    <glyph glyph-name="seven" unicode="7" horiz-adv-x="1028" 
d="M199 -8q-39 0 -55 25q-15 26 -1 61q102 262 263 506q160 244 536 735h-737q-57 0 -59 53q0 25 18 42t49 18h803q84 0 84 -66q0 -37 -31 -74q-367 -475 -540 -734t-271 -513q-20 -53 -59 -53z" />
    <glyph glyph-name="eight" unicode="8" horiz-adv-x="1341" 
d="M637 -16q-231 0 -373 103q-141 103 -141 269t86 274t242 138q-90 39 -143 113q-52 74 -52 166q0 195 142 298t360 103t339 -102q122 -102 122 -238t-71 -230q-71 -95 -218 -135q229 -96 229 -329q0 -203 -145 -317q-146 -113 -377 -113zM1036 430q0 121 -100 193
q-100 71 -280 71t-295 -78q-116 -78 -115 -247q0 -135 110 -204t307 -69q198 0 311 136q62 77 62 198zM734 803q167 0 267 81q101 80 101 196t-91 188t-250 72t-274 -76q-115 -74 -114 -220q0 -109 97 -175t264 -66z" />
    <glyph glyph-name="nine" unicode="9" horiz-adv-x="1298" 
d="M293 967q0 -156 99 -243q98 -87 280 -87t368 115q10 86 11 174q-1 194 -97 302t-264 108t-282 -107q-114 -106 -115 -262zM174 964q0 206 145 345t363 139t351 -138q132 -138 132 -364q0 -466 -250 -706t-731 -240q-70 0 -69 57q0 25 19 40t50 16q328 -6 547 124t287 390
q-156 -99 -360 -99t-344 115t-140 321z" />
    <glyph glyph-name="colon" unicode=":" horiz-adv-x="534" 
d="M186 -20q-25 0 -39 16t-12 43l33 194q6 55 59 56q25 1 39 -17t10 -43l-30 -194q-11 -55 -60 -55zM306 707q-24 0 -39 17t-11 44l31 193q10 55 59 55q25 0 40 -16t11 -42l-32 -196q-3 -25 -19 -40t-40 -15z" />
    <glyph glyph-name="semicolon" unicode=";" horiz-adv-x="561" 
d="M124 -201q-26 1 -40 15t-14 32t22 45q59 61 78 160l20 119q10 53 60 53q23 0 39 -18t10 -47l-20 -113q-15 -80 -35 -123t-64 -88q-30 -35 -56 -35zM336 707q-25 0 -39 17t-12 44l32 193q6 55 60 55q25 0 39 -16t10 -42l-31 -196q-10 -55 -59 -55z" />
    <glyph glyph-name="less" unicode="&#x3c;" horiz-adv-x="1280" 
d="M929 1337q19 0 37 -16t17 -43q0 -27 -22 -43l-576 -473q-35 -25 -35 -45t35 -45l576 -473q25 -14 25 -41t-17 -44q-35 -37 -78 -3l-600 489q-66 56 -66 116t66 118l598 489q21 14 40 14z" />
    <glyph glyph-name="equal" unicode="=" horiz-adv-x="1280" 
d="M1083 483h-888q-27 -1 -44 15t-17 42t16 41q18 15 45 15h888q27 0 44 -15t17 -41t-18 -42t-43 -15zM1083 838h-888q-27 0 -44 15t-17 41t16 41q18 15 45 15h888q27 0 44 -15t17 -41t-18 -41t-43 -15z" />
    <glyph glyph-name="greater" unicode="&#x3e;" horiz-adv-x="1280" 
d="M360 96q-20 0 -36 16t-16 44q0 27 22 43l575 473q35 25 35 45t-35 45l-577 473q-23 16 -23 42q1 26 17 43t35 17t42 -14l598 -489q68 -54 68 -116t-68 -118l-596 -489q-21 -15 -41 -15z" />
    <glyph glyph-name="question" unicode="?" horiz-adv-x="1189" 
d="M502 545q-20 0 -33 16q-14 16 -14 46t55 55q2 0 60 26t131 63q73 38 111 73q38 34 75 74q69 75 69 183t-71 184q-72 75 -203 74q-162 0 -352 -161q-27 -27 -52 -27q-24 0 -40 15t-16 41t24 48q209 197 434 197q172 0 283 -102t110 -263q0 -330 -524 -532q-27 -10 -47 -10
zM416 -20q-25 0 -39 16t-12 43l32 192q6 55 60 56q23 1 38 -17t11 -43l-31 -192q-10 -55 -59 -55z" />
    <glyph glyph-name="at" unicode="@" horiz-adv-x="1705" 
d="M793 131q-162 0 -245 95t-56 266l18 124q25 178 124 272t264 95t254 -107t65 -264l-33 -215q-12 -73 24 -113t92 -40q58 0 90 36t40 91l61 358q45 262 -120 432t-428 170t-432 -145t-232 -420q-45 -180 -67 -436t128 -402t393 -147q106 0 256 51q33 12 55 -2t23 -46
q0 -32 -47 -52q-123 -57 -297 -58q-281 0 -463 175t-156 501q16 213 62 416q72 330 270 501q199 171 492 171q340 0 530 -207t139 -516l-57 -338q-34 -233 -246 -235q-104 0 -170 74q-66 75 -45 187l33 207q20 119 -44 193q-65 74 -183 74q-229 0 -271 -269l-18 -121
q-39 -256 186 -256q48 1 96 15t63 14t29 -13t13 -38q0 -25 -35 -45q-61 -33 -155 -33z" />
    <glyph glyph-name="A" unicode="A" horiz-adv-x="1333" 
d="M784 1335q-38 0 -67 -53l-350 -666h602l-131 668q-6 51 -54 51zM2 -8q-34 0 -51 26q-16 26 2 64l649 1227q74 143 189 143q133 0 161 -147l244 -1233q6 -35 -9 -58t-48 -22q-54 0 -62 53l-90 467h-676l-252 -477q-23 -43 -57 -43z" />
    <glyph glyph-name="B" unicode="B" horiz-adv-x="1351" 
d="M795 799q133 0 233 78q100 77 100 199q0 240 -331 243h-355l-86 -520h439zM668 113q174 0 290 82t115 235q0 123 -75 196t-195 72h-465l-96 -585h426zM207 0q-47 0 -68 28q-20 28 -12 72l203 1231q14 100 119 101h358q213 0 327 -86t113 -244q0 -119 -63 -211t-180 -141
v-5q188 -90 188 -302q0 -211 -145 -327t-383 -116h-457z" />
    <glyph glyph-name="C" unicode="C" horiz-adv-x="1314" 
d="M643 96q281 0 406 269q23 49 53 49q62 0 63 -54q0 -14 -14 -53q-61 -131 -187 -229t-325 -98q-256 0 -402 166t-124 429q12 168 61 353q68 246 224 385q157 139 393 139q180 0 305 -91t168 -233q10 -26 10 -50t-16 -40t-48 -16t-49 47q-45 135 -145 201t-236 65
q-178 -1 -308 -117t-180 -302t-64 -376t98 -317t317 -127z" />
    <glyph glyph-name="D" unicode="D" horiz-adv-x="1400" 
d="M575 113q254 0 401 112q194 150 236 584q29 242 -99 376t-378 134h-291l-198 -1206h329zM205 0q-43 0 -65 28t-13 72l203 1231q8 47 39 74t77 27h291q303 0 463 -169t133 -440q-16 -154 -39 -252q-68 -307 -246 -439t-481 -132h-362z" />
    <glyph glyph-name="E" unicode="E" horiz-adv-x="1245" 
d="M449 1432h716q29 0 44 -16t15 -42q0 -25 -16 -40q-18 -15 -45 -15h-719l-90 -543h674q29 0 44 -16t15 -40t-17 -39t-42 -15h-690l-92 -553h710q29 -1 45 -17q17 -16 17 -41t-18 -40t-44 -15h-747q-98 0 -82 102l205 1229q10 53 37 77t80 24z" />
    <glyph glyph-name="F" unicode="F" horiz-adv-x="1187" 
d="M1176 1432q29 0 44 -16t15 -42q0 -25 -17 -40t-44 -15h-721l-95 -569h664q27 0 43 -16t16 -41q0 -24 -17 -39t-44 -15h-680l-100 -588q-10 -59 -58 -59q-27 0 -44 19t-13 48l213 1274q18 98 117 99h721z" />
    <glyph glyph-name="G" unicode="G" horiz-adv-x="1388" 
d="M1149 739q98 0 84 -92q-10 -76 -29 -174q-39 -217 -181 -355t-387 -138q-244 0 -394 166t-131 415q12 182 61 369q66 250 225 386q160 136 389 136q168 0 296 -83t178 -224q10 -31 10 -55t-16 -40t-48 -16q-31 0 -45 39q-39 123 -139 193t-242 69q-182 1 -310 -113
t-183 -325q-39 -143 -59 -336t95 -329q114 -136 307 -136t310 102t147 271l29 158h-332q-27 0 -44 16t-17 41t18 40t47 15h361z" />
    <glyph glyph-name="H" unicode="H" horiz-adv-x="1536" 
d="M182 -8q-27 0 -44 19t-13 48l221 1325q10 57 62 58q27 0 43 -20t10 -54l-99 -592h859l100 608q10 57 59 58q29 0 44 -20t12 -54l-219 -1319q-10 -57 -60 -57q-29 0 -44 19t-11 46l100 605h-858l-104 -611q-10 -59 -58 -59z" />
    <glyph glyph-name="I" unicode="I" horiz-adv-x="559" 
d="M182 -8q-29 0 -45 19t-12 52l221 1321q10 57 60 58q29 0 45 -22t10 -52l-221 -1321q-10 -55 -58 -55z" />
    <glyph glyph-name="J" unicode="J" horiz-adv-x="952" 
d="M328 -20q-136 0 -223 60t-119 130t-2 97q16 15 47 15t49 -38q80 -147 231 -148q104 0 173 77t91 218l164 991q10 59 60 60q29 0 44 -20t11 -48l-164 -995q-31 -199 -129 -299q-97 -100 -233 -100z" />
    <glyph glyph-name="K" unicode="K" horiz-adv-x="1271" 
d="M180 -8q-27 0 -43 19t-12 46l221 1325q10 59 60 60q29 0 44 -20t11 -48l-99 -588h62q36 0 58 8t59 44l616 579q25 25 49 25t41 -16t17 -42t-29 -51l-655 -604l520 -639q14 -20 14 -43t-15 -39t-44 -16t-49 26l-486 603q-26 35 -48 43t-62 8h-66l-104 -623
q-10 -57 -60 -57z" />
    <glyph glyph-name="L" unicode="L" horiz-adv-x="1095" 
d="M952 113q29 -1 45 -17q17 -16 17 -41t-18 -40t-44 -15h-743q-98 0 -82 100l213 1282q10 59 59 60q29 0 44 -20t12 -54l-211 -1255h708z" />
    <glyph glyph-name="M" unicode="M" horiz-adv-x="1804" 
d="M1491 1331q-22 0 -35 -28l-502 -1192q-49 -119 -131 -119q-53 0 -89 36t-40 91l-110 1184q-2 29 -29 28q-23 0 -33 -31l-393 -1263q-12 -45 -49 -45t-54 22t-10 52l394 1257q41 129 149 129q55 0 92 -34t41 -89l111 -1182q4 -27 22 -26q14 0 27 26l500 1186
q49 119 147 119q57 0 94 -36t35 -95l-18 -1266q0 -29 -16 -46t-43 -17q-26 0 -43 17t-17 46l22 1245q0 31 -22 31z" />
    <glyph glyph-name="N" unicode="N" horiz-adv-x="1562" 
d="M182 -8q-27 0 -44 19t-13 48l213 1274q18 109 108 109q66 0 99 -72l596 -1237h2q35 225 63 387l144 864q10 57 59 58q29 0 45 -22t10 -54l-213 -1262q-20 -113 -106 -112q-66 0 -101 74l-591 1239h-4q-4 -23 -68 -412l-141 -842q-10 -59 -58 -59z" />
    <glyph glyph-name="O" unicode="O" horiz-adv-x="1390" 
d="M647 96q190 0 319 112q128 112 172 293t59 375t-103 326q-119 133 -321 133t-333 -127t-174 -334q-81 -358 -21 -518t245 -231q77 -29 157 -29zM652 -20q-236 0 -408 164q-170 164 -140 450q10 111 41 278q49 264 214 422t417 158t409 -173t130 -425q-20 -190 -47 -324
q-52 -262 -216 -406t-400 -144z" />
    <glyph glyph-name="P" unicode="P" horiz-adv-x="1290" 
d="M741 680q186 0 297 95t111 265q0 123 -92 201t-246 78h-358l-107 -639h395zM182 -8q-27 0 -44 19t-13 48l215 1276q16 96 106 97h365q207 0 333 -106t126 -277q0 -219 -140 -351t-393 -133h-409l-88 -514q-10 -59 -58 -59z" />
    <glyph glyph-name="Q" unicode="Q" horiz-adv-x="1409" 
d="M713 522q27 0 47 -33l192 -301q145 111 199 328q39 174 56 364t-102 322q-120 133 -322 133q-201 0 -331 -127q-130 -126 -170 -312t-52 -312q-13 -126 23 -224q36 -96 102 -151q137 -113 321 -113q102 0 182 37l-188 293q-32 53 1 82q15 14 42 14zM664 -20
q-236 0 -408 164t-141 450q23 186 41 278q49 262 212 421q164 159 416 159t410 -173t131 -425q-20 -190 -47 -324q-59 -293 -260 -438l149 -227q31 -52 -1 -80q-15 -14 -42 -14t-47 30l-153 234q-113 -55 -260 -55z" />
    <glyph glyph-name="R" unicode="R" horiz-adv-x="1378" 
d="M731 702q199 0 309 90t111 237q0 146 -95 218t-268 72h-335l-103 -617h381zM623 594h-291l-92 -543q-10 -59 -58 -59q-27 0 -44 19t-13 50l213 1274q16 96 113 97h354q209 0 338 -104t129 -288q0 -186 -123 -303t-332 -133l322 -516q14 -24 14 -44t-16 -36t-46 -16
t-53 37l-315 499q-23 38 -41 52t-59 14z" />
    <glyph glyph-name="S" unicode="S" horiz-adv-x="1263" 
d="M1092 387q0 -180 -138 -294t-358 -113q-158 0 -314 57t-212 114q-57 57 -18 99q14 16 32 16t32 -5t52 -36q61 -45 179 -88q119 -43 263 -43t254 79t111 203q0 124 -98 188q-53 34 -99 53t-175 68q-130 49 -242 126q-134 94 -134 260q-1 166 139 272t341 107
q127 0 249 -42q224 -77 224 -146q0 -23 -16 -40q-16 -18 -42 -18q-27 0 -57 21q-178 111 -353 111q-174 0 -270 -80q-96 -79 -96 -189q0 -131 149 -208q56 -30 157 -68q102 -38 148 -56t110 -55t99 -74q83 -90 83 -219z" />
    <glyph glyph-name="T" unicode="T" horiz-adv-x="1128" 
d="M156 1319q-29 0 -45 16t-17 41q0 25 18 40t44 16h1003q29 0 45 -16t16 -42q0 -25 -16 -40q-18 -15 -45 -15h-450l-213 -1268q-10 -59 -60 -59q-27 0 -43 18t-12 49l211 1260h-436z" />
    <glyph glyph-name="U" unicode="U" horiz-adv-x="1443" 
d="M685 96q175 0 300 114t164 345l137 829q10 58 63 58q28 0 44 -22t10 -52l-137 -817q-47 -279 -199 -425q-153 -146 -383 -146t-396 146q-83 73 -120 204t-8 299l127 755q10 56 61 58q27 0 43 -20t10 -54l-127 -758q-24 -142 6 -248t98 -160q132 -106 307 -106z" />
    <glyph glyph-name="V" unicode="V" horiz-adv-x="1312" 
d="M1303 1442q33 0 50 -16t17 -40q0 -22 -10 -40l-674 -1246q-66 -121 -149 -120q-111 0 -138 124l-260 1252q-8 38 9 62t51 24q47 0 59 -56l258 -1263q4 -23 20 -23t29 23l682 1272q23 47 56 47z" />
    <glyph glyph-name="W" unicode="W" horiz-adv-x="1853" 
d="M1866 1442q36 0 51 -16q16 -16 16 -33q0 -16 -8 -41l-504 -1272q-39 -100 -121 -100q-44 0 -78 28t-40 82l-127 1217q-2 8 -8 9t-9 -7l-538 -1229q-43 -100 -123 -100q-47 0 -82 30t-37 78l-76 1280q-2 30 16 52t46 22q55 0 59 -56l70 -1269q2 -11 10 -13t14 13l535 1218
q47 106 125 107q43 0 71 -32t35 -87l125 -1206q0 -8 10 -16t19 16l495 1274q18 51 54 51z" />
    <glyph glyph-name="X" unicode="X" horiz-adv-x="1318" 
d="M1120 46q0 -20 -16 -37t-47 -17t-53 39l-363 594l-565 -605q-51 -51 -93 -12q-41 39 9 94l588 631l-369 606q-14 25 -14 47t17 39t47 17t52 -37l357 -590l557 598q25 29 51 29t42 -16q18 -16 18 -42t-27 -53l-580 -620l377 -621q12 -24 12 -44z" />
    <glyph glyph-name="Y" unicode="Y" horiz-adv-x="1257" 
d="M1288 1442q26 0 44 -16t18 -44q0 -27 -25 -47l-610 -630q-49 -49 -58 -95l-92 -559q-10 -59 -59 -59q-29 0 -44 19t-11 48l92 551q8 48 -27 99l-399 634q-31 46 4 81q16 18 46 18t50 -33l399 -639l623 647q23 25 49 25z" />
    <glyph glyph-name="Z" unicode="Z" horiz-adv-x="1173" 
d="M938 0h-838q-46 0 -70 22t-24 56t41 82l995 1159h-759q-29 0 -45 16t-17 41q1 25 19 40t43 16h823q45 0 69 -20q57 -48 -20 -140l-993 -1159h778q29 -1 44 -17t15 -41t-17 -40t-44 -15z" />
    <glyph glyph-name="bracketleft" unicode="[" horiz-adv-x="686" 
d="M469 -244q57 0 57 -51q0 -25 -20 -44t-51 -19h-340q-82 0 -72 90l299 1804q6 40 31 64t65 24h338q55 0 55 -53q0 -27 -19 -45t-50 -19h-305l-293 -1751h305z" />
    <glyph glyph-name="backslash" unicode="\" horiz-adv-x="634" 
d="M483 -76q-49 0 -59 51l-334 1461q-8 30 8 54t49 23q47 0 58 -51l334 -1462q7 -28 -9 -52t-47 -24z" />
    <glyph glyph-name="bracketright" unicode="]" horiz-adv-x="681" 
d="M213 1507q-59 0 -59 57q0 26 18 43t49 17h344q82 0 72 -90l-299 -1804q-6 -39 -31 -64t-65 -24h-336q-57 0 -58 53q0 25 20 43t50 18h305l293 1751h-303z" />
    <glyph glyph-name="asciicircum" unicode="^" horiz-adv-x="1282" 
d="M391 762q-13 -43 -67 -36q-24 3 -37 28q-14 25 -4 49l229 551q45 110 128 110t130 -112l229 -549q10 -25 -4 -49q-13 -24 -37 -28q-54 -7 -67 36l-223 553q-10 25 -28 25t-28 -25z" />
    <glyph glyph-name="underscore" unicode="_" horiz-adv-x="931" 
d="M950 -293v-102h-966v102h966z" />
    <glyph glyph-name="grave" unicode="`" 
d="M637 1596q0 -26 -15 -40q-16 -14 -34 -14t-39 10l-254 142q-31 14 -31 40t14 42q14 14 36 14q21 0 38 -8l256 -146q29 -14 29 -40z" />
    <glyph glyph-name="a" unicode="a" horiz-adv-x="1114" 
d="M514 545q-141 -1 -229 -59t-88 -162q-1 -104 79 -168q80 -66 228 -66t266 74l49 299q-164 82 -305 82zM501 -20q-189 0 -304 94t-115 248t115 241q115 88 289 88t352 -82l22 127q25 139 -45 206t-211 67q-62 1 -107 -13t-75 -23t-70 -28q-32 -10 -56 4t-24 47t42 56
q42 24 131 46t161 21q184 0 291 -98t74 -291l-92 -543q-8 -49 -39 -69q-150 -98 -339 -98z" />
    <glyph glyph-name="b" unicode="b" horiz-adv-x="1163" 
d="M669 967q-136 0 -307 -90l-118 -699q51 -34 141 -58t182 -24q268 0 338 289q33 125 42 275t-66 228q-76 79 -212 79zM389 1448q29 0 45 -20t10 -52l-61 -372q160 76 299 75q174 0 286 -109q111 -110 96 -294t-40 -291q-88 -406 -455 -405q-137 0 -261 44t-167 80
q-20 18 -14 66l203 1223q10 55 59 55z" />
    <glyph glyph-name="c" unicode="c" horiz-adv-x="1112" 
d="M541 96q209 0 286 197q17 45 49 45q64 0 64 -53q0 -43 -37 -100q-37 -58 -81 -104t-116 -74t-161 -27q-195 0 -324 122t-102 342q6 55 35 215q37 205 164 313q128 108 288 108t259 -72t127 -155q43 -126 -46 -126q-33 0 -49 47q-33 100 -115 146t-190 47q-108 0 -200 -82
q-91 -82 -126 -236q-18 -83 -36 -235t76 -235q96 -83 235 -83z" />
    <glyph glyph-name="d" unicode="d" horiz-adv-x="1214" 
d="M530 96q154 0 283 80l115 694q-141 96 -318 97q-281 0 -344 -308q-19 -91 -36 -245t65 -236q81 -82 235 -82zM606 1079q178 0 342 -90l66 404q10 55 59 55q29 0 44 -20t11 -52l-204 -1226q-6 -43 -47 -68q-164 -102 -355 -102q-190 0 -310 122t-93 342q15 115 35 228
q37 201 155 304q119 103 297 103z" />
    <glyph glyph-name="e" unicode="e" horiz-adv-x="1107" 
d="M834 582q37 0 45 34q45 178 -35 264t-230 87q-150 0 -238 -94q-89 -94 -120 -291h578zM547 90q115 0 252 70q20 10 41 10t36 -15t15 -36q0 -41 -47 -66q-129 -74 -289 -73q-221 0 -341 124t-95 328q14 127 37 232q90 416 469 415q180 -1 298 -115t72 -341l-6 -31
q-29 -113 -131 -113h-616l-9 -51q-25 -158 65 -248t249 -90z" />
    <glyph glyph-name="f" unicode="f" horiz-adv-x="772" 
d="M877 1380q1 -32 -15 -46q-16 -15 -36 -15t-68 15q-49 15 -99 16q-104 0 -156 -56t-71 -166l-16 -96h295q59 0 59 -55q0 -23 -17 -38t-42 -15h-312l-145 -877q-10 -55 -61 -55q-29 0 -45 19q-15 19 -11 52l144 861h-78q-27 0 -42 16t-15 40t16 38t41 14h96l16 105
q51 326 355 325q98 0 164 -30q43 -20 43 -52z" />
    <glyph glyph-name="g" unicode="g" horiz-adv-x="1183" 
d="M649 967q-289 0 -350 -308q-17 -80 -37 -227t54 -233t231 -86q158 0 305 106l109 660q-142 88 -312 88zM86 -218q0 26 15 42t40 16t52 -22q119 -102 269 -102t249 87q98 88 120 279q-152 -78 -288 -78q-209 0 -314 122q-104 122 -77 331q10 94 36 223q74 399 463 399
q238 0 400 -114q32 -27 26 -70l-139 -850q-68 -440 -480 -440q-94 0 -189 39t-150 88q-33 25 -33 50z" />
    <glyph glyph-name="h" unicode="h" horiz-adv-x="1232" 
d="M924 -8q-27 0 -45 17t-13 50l99 578q55 326 -232 326q-160 0 -360 -138l-133 -778q-10 -55 -58 -55q-29 0 -45 19t-12 52l221 1330q10 55 60 55q29 0 45 -20t10 -52l-68 -413q189 117 349 117t259 -89q55 -47 77 -136t1 -212l-98 -592q-10 -59 -57 -59z" />
    <glyph glyph-name="i" unicode="i" horiz-adv-x="559" 
d="M342 1065q29 0 45 -19t12 -53l-159 -946q-10 -55 -58 -55q-31 0 -47 20t-10 51l160 947q10 55 57 55zM409 1446q76 0 76 -78q-1 -34 -23 -62t-59 -28t-59 22t-20 58q0 36 24 62t61 26z" />
    <glyph glyph-name="j" unicode="j" horiz-adv-x="557" 
d="M407 1446q76 0 76 -78q-1 -34 -23 -62t-59 -28t-59 22t-20 58q0 36 24 62t61 26zM-82 -391q-53 0 -53 51q0 31 29 51q116 81 170 173t79 231l150 895q10 55 57 55q29 0 45 -19t13 -53l-144 -860q-34 -205 -102 -307t-195 -199q-25 -18 -49 -18z" />
    <glyph glyph-name="k" unicode="k" horiz-adv-x="1067" 
d="M406 1448q29 0 45 -20t10 -52l-127 -772h59q43 0 67 10t56 43l410 394q22 23 46 23t39 -15q15 -14 15 -41t-25 -49l-444 -424l334 -453q18 -20 18 -45t-15 -40t-43 -15t-50 28l-305 420q-24 31 -46 42t-65 12h-70l-75 -447q-10 -55 -58 -55q-29 0 -45 19t-12 52l221 1330
q11 55 60 55z" />
    <glyph glyph-name="l" unicode="l" horiz-adv-x="538" 
d="M406 1448q29 0 45 -20t10 -52l-221 -1329q-10 -55 -58 -55q-29 0 -45 19t-12 52l221 1330q10 55 60 55z" />
    <glyph glyph-name="m" unicode="m" horiz-adv-x="1763" 
d="M1450 -8q-27 0 -43 19t-12 48l98 590q25 156 -33 235t-184 79q-162 0 -307 -132q12 -66 -4 -176l-101 -604q-10 -59 -61 -59q-27 0 -43 19t-12 48l104 611q26 152 -34 222t-204 71q-144 0 -256 -78l-139 -838q-10 -55 -57 -55q-29 0 -45 19t-13 52l142 848q22 85 215 145
t350 -15q80 -38 113 -107q174 145 359 145q185 1 273 -113t54 -317l-101 -598q-10 -59 -59 -59z" />
    <glyph glyph-name="n" unicode="n" horiz-adv-x="1212" 
d="M899 -8q-27 0 -43 19t-10 48l98 576q16 100 -3 171q-19 72 -67 102q-85 53 -196 55q-168 0 -322 -89l-137 -827q-10 -55 -57 -55q-29 0 -45 19t-13 52l140 844q8 43 51 68q181 104 377 104q196 1 311 -103t76 -337l-98 -588q-10 -59 -62 -59z" />
    <glyph glyph-name="o" unicode="o" horiz-adv-x="1140" 
d="M618 967q-285 0 -354 -320q-20 -92 -34 -210q-14 -119 38 -199q90 -142 279 -142q276 0 344 316q21 92 33 211q20 166 -78 255t-228 89zM620 1079q181 0 309 -120t111 -328q-33 -399 -199 -549q-114 -102 -295 -102t-315 119q-133 120 -116 331q8 100 41 250
q43 199 162 299q121 100 302 100z" />
    <glyph glyph-name="p" unicode="p" horiz-adv-x="1144" 
d="M624 967q-154 0 -278 -82l-115 -697q150 -92 318 -92q274 0 340 307q25 113 37 230q18 162 -65 248t-237 86zM558 -20q-171 0 -347 92l-68 -412q-10 -55 -59 -55q-29 0 -44 19t-11 52l204 1235q8 43 50 70q161 98 353 98t310 -120t94 -341q-13 -118 -36 -227
q-41 -205 -158 -308t-288 -103z" />
    <glyph glyph-name="q" unicode="q" horiz-adv-x="1142" 
d="M496 96q141 0 303 86l116 697q-145 88 -313 88q-274 0 -346 -291q-33 -128 -42 -276t66 -226t216 -78zM616 1079q129 0 247 -44t157 -81q23 -23 14 -67l-205 -1229q-10 -55 -59 -55q-29 0 -45 20t-10 51l63 377q-139 -68 -280 -67q-178 0 -295 110t-105 312
q26 426 202 574q118 99 316 99z" />
    <glyph glyph-name="r" unicode="r" horiz-adv-x="753" 
d="M805 988q0 -62 -57 -62q-4 0 -64 16t-139 16q-170 0 -209 -217l-115 -694q-10 -55 -59 -55q-29 0 -45 19t-13 52l117 703q53 313 338 313q115 0 199 -37q47 -24 47 -54z" />
    <glyph glyph-name="s" unicode="s" horiz-adv-x="1003" 
d="M848 276q0 -126 -102 -211t-244 -85q-144 0 -260 51q-188 83 -187 143q-1 23 15 38t34 15t56 -22q158 -115 319 -115q113 0 184 53t71 134t-61 122q-40 29 -148 76t-151 73q-44 26 -88 60q-89 70 -87 178q0 137 103 215q104 78 230 78t220 -35q94 -36 126 -66
q54 -51 19 -88q-34 -37 -86 -1q-121 78 -243 78t-188 -49q-67 -48 -67 -122t48 -112q47 -38 193 -102t198 -105q96 -75 96 -201z" />
    <glyph glyph-name="t" unicode="t" horiz-adv-x="833" 
d="M430 -20q-332 0 -274 356l145 881q8 59 64 59q27 0 44 -18t13 -46l-31 -176h311q59 0 60 -55q0 -23 -18 -38t-42 -15h-329l-99 -590q-20 -123 10 -182t142 -60q52 0 112 24t76 23q16 0 32 -15q15 -14 15 -46t-49 -57q-86 -45 -182 -45z" />
    <glyph glyph-name="u" unicode="u" horiz-adv-x="1179" 
d="M295 1065q25 0 41 -18t12 -50l-88 -540q-57 -360 281 -361q180 0 299 94l135 820q10 55 57 55q31 -1 47 -21t11 -51l-142 -846q-6 -31 -41 -57q-163 -110 -367 -110t-320 125t-77 356l90 545q10 59 62 59z" />
    <glyph glyph-name="v" unicode="v" horiz-adv-x="1044" 
d="M994 1065q34 0 50 -25t0 -61l-489 -893q-49 -94 -125 -94q-94 0 -117 104l-190 891q-8 35 9 57t46 21q47 0 60 -53l155 -742q16 -74 25 -147q2 -18 17 -20q16 0 20 9q39 87 75 158l406 750q24 45 58 45z" />
    <glyph glyph-name="w" unicode="w" horiz-adv-x="1642" 
d="M886 938q-11 0 -18 -14l-385 -852q-23 -51 -48 -72q-27 -20 -67 -20t-74 28t-40 92l-109 891q-5 35 13 55t45 19q49 0 57 -57l86 -732q2 -18 12 -163q2 -23 21 -23q14 0 20 16q57 150 64 162l321 709q41 88 113 88q92 0 102 -102l80 -693q4 -27 8 -80q5 -53 7 -76t14 -24
q12 0 22 24t31 75q20 52 31 75l342 760q18 41 53 41t52 -25t1 -59l-415 -911q-39 -90 -115 -90q-103 0 -115 106l-96 832q-2 20 -13 20z" />
    <glyph glyph-name="x" unicode="x" horiz-adv-x="1071" 
d="M60 -8q-24 0 -41 15t-17 40t23 47l430 459l-252 416q-30 46 5 79q17 17 45 17t44 -29l240 -401l374 405q23 25 47 25t40 -16q36 -39 -7 -88l-393 -424l268 -449q34 -49 2 -81q-14 -15 -44 -15t-50 35l-256 428l-414 -443q-20 -20 -44 -20z" />
    <glyph glyph-name="y" unicode="y" horiz-adv-x="1028" 
d="M454 205q8 0 17 12q59 121 72 141l372 662q25 45 60 45t49 -30t-4 -62l-539 -946q-170 -303 -352 -402q-35 -20 -61 -20q-57 0 -60 49q0 35 41 53q176 90 328 361l-252 913q-10 37 7 61t48 23q46 0 60 -55l174 -643q20 -78 28 -146q4 -16 12 -16z" />
    <glyph glyph-name="z" unicode="z" horiz-adv-x="1003" 
d="M756 113q72 0 71 -56q0 -57 -65 -57h-627q-43 0 -65 22t-23 58q0 36 31 67l741 785h-551q-27 0 -43 15t-16 40t17 41t42 16h598q100 0 101 -79q0 -39 -31 -70l-737 -782h557z" />
    <glyph glyph-name="braceleft" unicode="{" horiz-adv-x="688" 
d="M201 -356q-68 0 -109 44t-29 115l93 539q23 154 -74 242q-27 24 -27 58t45 63q129 80 158 245l86 529q25 143 170 143h270q25 0 40 -15q16 -15 16 -39t-20 -42t-48 -19h-244q-63 0 -71 -63l-84 -494q-35 -225 -193 -311q125 -100 90 -299l-88 -518q-12 -62 54 -64h237
q27 0 42 -15t15 -39t-19 -42t-50 -18h-260z" />
    <glyph glyph-name="bar" unicode="|" horiz-adv-x="604" 
d="M346 -225q0 -27 -16 -45t-42 -17t-42 19t-17 43v1874q1 27 17 44t42 17t42 -17t16 -44v-1874z" />
    <glyph glyph-name="braceright" unicode="}" horiz-adv-x="688" 
d="M172 -356h-270q-25 0 -40 15q-16 15 -16 39t20 42t50 18h242q61 0 73 64l82 493q37 231 195 310q-125 96 -92 301l88 518q12 63 -51 63h-240q-57 0 -57 54q0 25 20 43t51 18h260q68 0 108 -44t28 -116l-91 -538q-27 -154 72 -242q29 -24 29 -58t-47 -63
q-129 -84 -156 -246l-86 -530q-25 -141 -172 -141z" />
    <glyph glyph-name="asciitilde" unicode="~" horiz-adv-x="1269" 
d="M825 602q-75 0 -199 53t-199 53t-169 -51q-20 -10 -45 -10q-25 -1 -41 17t-16 36q0 43 51 68q143 63 222 63t204 -53t199 -53t174 53q54 28 81 -6q17 -18 17 -49t-47 -53q-158 -68 -232 -68z" />
    <glyph glyph-name="exclamdown" unicode="&#xa1;" horiz-adv-x="456" 
d="M383 1430q25 0 40 -16t13 -42l-33 -192q-4 -25 -20 -41q-16 -17 -40 -17t-39 18t-11 40l33 194q6 56 57 56zM303 946q23 0 36 -16t9 -37l-131 -850q-8 -63 -65 -63q-27 0 -43 18t-11 51l152 846q8 51 53 51z" />
    <glyph glyph-name="cent" unicode="&#xa2;" horiz-adv-x="1048" 
d="M485 -18q-25 0 -41 18t-12 47l33 197q-137 29 -207 125t-60 229t29 231q35 167 139 263t257 102l34 197q12 61 60 61q25 0 41 -17t12 -44l-37 -201q84 -14 151 -74t89 -133q6 -16 6 -34t-15 -34t-45 -16t-49 41q-63 143 -213 143q-248 0 -311 -264q-23 -95 -32 -207
q-10 -112 50 -188t197 -76q78 0 140 41q61 41 91 97t56 55q26 1 44 -13t17 -35q0 -21 -14 -51q-41 -86 -123 -142t-194 -60l-35 -199q-11 -59 -58 -59z" />
    <glyph glyph-name="sterling" unicode="&#xa3;" horiz-adv-x="1220" 
d="M981 113q25 -1 40 -15t15 -38t-18 -42t-53 -18h-791q-61 0 -78 47q-16 47 15 88q193 250 202 477h-141q-55 0 -55 54q0 25 18 43t49 18h131q-18 203 -4 322q25 183 144 293t305 110q113 0 210 -51t152 -121q40 -58 4 -88q-16 -14 -42 -14t-44 22q-121 135 -275 135
q-153 0 -235 -87t-100 -199q-14 -78 2 -322h336q25 0 40 -15t15 -39t-19 -42t-50 -19h-322q-21 -268 -207 -499h756z" />
    <glyph glyph-name="currency" unicode="&#xa4;" horiz-adv-x="1269" 
d="M637 397q106 0 182 73t84 179q6 70 0 139q-8 109 -84 182q-76 72 -181 72t-181 -72t-84 -179q-4 -47 0 -147t81 -174q77 -73 183 -73zM636 291q-140 0 -249 102l-184 -186q-19 -19 -41 -19t-38 18t-18 39q0 22 19 40l192 194q-47 81 -49 159t1 158t48 162l-192 197
q-39 39 -2 79q16 17 38 17t42 -20l184 -187q113 102 251 102t251 -102l184 187q19 20 41 20t38 -17t17 -39q0 -22 -18 -40l-193 -194q44 -86 48 -165t1 -157t-46 -160l190 -194q18 -18 18 -41t-16 -39q-16 -17 -39 -17t-41 19l-184 186q-113 -102 -253 -102z" />
    <glyph glyph-name="yen" unicode="&#xa5;" horiz-adv-x="1271" 
d="M520 -8q-27 0 -43 19t-12 48l70 422h-265q-27 1 -43 17t-16 40t19 41t46 17h279l4 31q4 37 -29 92l-397 624q-12 25 -12 45t16 36q16 18 45 18t51 -33l400 -631l618 639q25 25 51 25t43 -16t17 -43q0 -26 -23 -48l-608 -620q-51 -53 -57 -88l-4 -31h288q25 0 42 -15
q18 -15 18 -40t-18 -42t-50 -18h-299l-71 -430q-11 -59 -60 -59z" />
    <glyph glyph-name="brokenbar" unicode="&#xa6;" horiz-adv-x="585" 
d="M344 848q0 -26 -16 -44t-42 -18t-42 18t-17 44v801q1 27 17 44t42 17t42 -17t16 -44v-801zM344 -225q0 -27 -16 -45t-42 -17t-42 19t-17 43v800q1 27 17 45t42 17q26 0 42 -17t16 -45v-800z" />
    <glyph glyph-name="section" unicode="&#xa7;" horiz-adv-x="1157" 
d="M313 666q1 -53 55 -88t208 -82t215 -74q73 66 73 132t-50 97t-186 76t-227 94q-88 -70 -88 -155zM498 -211q-123 0 -241 41t-175 84q-27 22 -27 48q1 26 19 43q35 32 92 -1q174 -98 332 -98t246 75t87 189q0 67 -26 95q-26 27 -45 45q-25 24 -220 81q-194 58 -268 117
t-74 164t128 207q-68 74 -68 190q0 167 131 275t324 108q121 0 224 -42q156 -64 159 -124q0 -25 -16 -40t-40 -15q-22 0 -49 18q-131 86 -274 86t-241 -73q-97 -74 -97 -195q0 -92 62 -137q61 -44 185 -86t168 -59q126 -48 162 -116q20 -38 21 -91q0 -115 -107 -209
q78 -80 78 -199q0 -158 -122 -270t-328 -111z" />
    <glyph glyph-name="dieresis" unicode="&#xa8;" 
d="M586 1712q33 0 52 -19t19 -51q1 -32 -23 -56t-56 -24t-52 20q-20 19 -20 50t23 56q24 24 57 24zM280 1712q34 0 53 -19t19 -51t-24 -56t-56 -24q-33 0 -53 20q-20 19 -20 50t23 56q24 24 58 24z" />
    <glyph glyph-name="copyright" unicode="&#xa9;" horiz-adv-x="1628" 
d="M1130 926q0 -47 -47 -47q-31 0 -45 32q-63 143 -225 144q-102 0 -168 -69t-74 -177q-6 -71 1 -177t73 -174t168 -69q164 0 225 143q16 33 45 33q47 0 47 -49q0 -14 -12 -39q-37 -84 -121 -134t-184 -50q-143 0 -236 95t-104 241q-6 71 2 201q7 130 101 226t237 95
q100 0 184 -51t121 -135q12 -25 12 -39zM812 1350q-198 0 -346 -134t-166 -317t0 -367q16 -184 164 -317t347 -133t349 133t166 317q17 184 1 351q-17 199 -167 333t-348 134zM812 1448q243 0 422 -166t193 -410q12 -160 0 -311q-14 -245 -193 -411t-422 -166t-421 164
t-192 413q-12 154 0 311q14 244 192 410t421 166z" />
    <glyph glyph-name="ordfeminine" unicode="&#xaa;" horiz-adv-x="942" 
d="M369 668q143 0 272 125q2 66 37 272l37 215q-89 59 -221 59t-198 -56q-66 -57 -90 -167t-30 -198q-12 -119 37 -185q50 -65 156 -65zM368 561q-146 0 -229 96q-82 96 -67 263q6 72 30 202q61 324 381 324q99 0 183 -28t122 -56t31 -74l-61 -370q-14 -127 -8 -170t31 -94
t-4 -74q-15 -14 -39 -14t-42 23q-18 24 -41 97q-141 -125 -287 -125z" />
    <glyph glyph-name="guillemotleft" unicode="&#xab;" horiz-adv-x="1064" 
d="M84 710q0 64 80 121l299 226q27 16 45 16t34 -14t15 -38q0 -24 -31 -48l-280 -213q-39 -33 -39 -54t20 -44l207 -213q40 -35 3 -74q-15 -17 -39 -17t-46 21l-221 221q-47 46 -47 110zM457 710q0 64 80 121l299 226q27 16 45 16t33 -14q16 -14 16 -38t-31 -48l-281 -213
q-38 -33 -38 -54t20 -44l207 -213q18 -17 18 -37t-15 -36t-39 -18q-24 0 -46 21l-221 221q-47 46 -47 110z" />
    <glyph glyph-name="logicalnot" unicode="&#xac;" horiz-adv-x="1280" 
d="M1044 664h-866q-27 0 -44 16t-17 41t17 41t44 16h895q39 0 62 -24t22 -60v-436q0 -61 -55 -61q-25 0 -41 17t-17 44v406z" />
    <glyph glyph-name="registered" unicode="&#xae;" horiz-adv-x="1214" 
d="M602 393q-188 0 -311 116q-170 160 -141 507q18 204 141 320t311 116t311 -116q170 -161 140 -505q-15 -207 -139 -323t-312 -115zM601 475q155 0 254 91q141 130 114 452q-13 170 -113 262t-254 92t-254 -92t-115 -262q-27 -323 113 -452q100 -91 255 -91zM487 682
q0 -16 -11 -28t-26 -11q-15 0 -28 12q-12 12 -12 27v461q0 27 16 44t45 17h162q76 0 128 -44t52 -122q0 -125 -133 -161l145 -168q21 -34 6 -51q-16 -17 -32 -17t-37 21l-152 184q-12 18 -37 18h-86v-182zM485 934h138q55 0 84 28t28 70q0 98 -108 98h-142v-196z" />
    <glyph glyph-name="macron" unicode="&#xaf;" 
d="M285 1577q-25 0 -40 15t-15 37t16 37t41 15h340q25 0 39 -14t14 -36t-15 -38t-40 -16h-340z" />
    <glyph glyph-name="degree" unicode="&#xb0;" horiz-adv-x="702" 
d="M375 1042q71 0 115 54t44 113t-35 99q-36 40 -106 40q-71 0 -115 -52t-44 -113t35 -101q36 -40 106 -40zM392 1440q110 0 170 -64t60 -161t-68 -179q-70 -82 -178 -82t-171 65q-61 65 -61 163t68 178q69 80 180 80z" />
    <glyph glyph-name="plusminus" unicode="&#xb1;" horiz-adv-x="1280" 
d="M119 55q0 56 61 58h918q27 1 44 -15t17 -42t-18 -41t-43 -15h-918q-27 0 -44 15t-17 40zM698 279q0 -27 -15 -45t-41 -17q-26 0 -41 17t-15 45v405h-406q-27 0 -44 16t-17 41t17 41t44 17h406v401q0 27 15 44q15 18 41 18t41 -18t15 -44v-401h400q27 -1 44 -17t17 -41
t-18 -41t-43 -16h-400v-405z" />
    <glyph glyph-name="twosuperior" unicode="&#xb2;" horiz-adv-x="907" 
d="M186 608h445q27 0 42 -14t15 -36t-18 -38t-49 -16h-474q-66 0 -65 61q0 117 73 198t195 148q128 64 159 86q112 78 134 122q23 45 23 99t-44 97t-124 43q-109 0 -207 -109q-41 -47 -80 -16q-14 12 -14 33t18 43q111 141 283 141q108 0 186 -66t78 -182t-95 -198
q-95 -81 -226 -150q-131 -68 -193 -126t-62 -120z" />
    <glyph glyph-name="threesuperior" unicode="&#xb3;" horiz-adv-x="851" 
d="M384 989q-60 1 -60 57q0 26 26 46l277 227h-379q-29 0 -45 14q-17 14 -17 36t16 37t46 15h428q34 0 56 -19t22 -54t-47 -74l-246 -201q113 -2 189 -62q76 -59 77 -159q0 -100 -49 -173t-130 -115q-156 -81 -370 -83q-26 0 -68 5t-42 42q0 47 65 47h60q130 0 271 55
q73 28 120 83t47 121t-43 108q-44 41 -108 44t-96 3z" />
    <glyph glyph-name="acute" unicode="&#xb4;" 
d="M610 1792q49 0 49 -47q0 -33 -43 -55l-294 -140q-14 -6 -32 -6t-32 14t-14 42q0 26 32 40l302 144q16 8 32 8z" />
    <glyph glyph-name="mu" unicode="&#xb5;" horiz-adv-x="1236" 
d="M115 -397q-27 0 -42 19t-10 46l220 1329q10 68 63 68q27 0 42 -18t9 -52l-88 -538q-31 -187 50 -273t240 -86t294 90l135 811q8 66 62 66q27 0 42 -18t11 -48l-142 -841q-2 -33 -38 -58q-172 -119 -375 -118q-242 0 -330 180l-84 -498q-10 -61 -59 -61z" />
    <glyph glyph-name="mu" unicode="&#x3bc;" horiz-adv-x="1236" 
d="M115 -397q-27 0 -42 19t-10 46l220 1329q10 68 63 68q27 0 42 -18t9 -52l-88 -538q-31 -187 50 -273t240 -86t294 90l135 811q8 66 62 66q27 0 42 -18t11 -48l-142 -841q-2 -33 -38 -58q-172 -119 -375 -118q-242 0 -330 180l-84 -498q-10 -61 -59 -61z" />
    <glyph glyph-name="paragraph" unicode="&#xb6;" horiz-adv-x="1341" 
d="M772 1315q-164 0 -276 -94q-112 -93 -113 -245q0 -152 90 -226t244 -74h35l106 639h-86zM702 561q-206 0 -326 111q-120 110 -120 304t141 324t357 130h424q61 0 80 -26t12 -75l-277 -1661q-10 -61 -61 -61q-25 0 -42 18t-13 45l274 1643h-178l-273 -1645q-8 -61 -63 -61
q-25 0 -41 18t-12 45l147 891h-29z" />
    <glyph glyph-name="periodcentered" unicode="&#xb7;" horiz-adv-x="489" 
d="M227 594q-25 0 -40 18t-13 45l33 195q10 55 59 55q25 0 40 -17t11 -42l-32 -199q-11 -55 -58 -55z" />
    <glyph glyph-name="cedilla" unicode="&#xb8;" 
d="M382 49q28 -1 38 -23t-6 -49l-49 -92q69 4 113 -36t44 -103q0 -92 -79 -150t-177 -85q-17 -5 -37 -5q-45 0 -45 41q0 33 39 45q57 18 89 30t74 47q42 34 42 75q0 59 -70 59l-67 -12q-25 -1 -35 19t2 47l78 157q18 35 46 35z" />
    <glyph glyph-name="onesuperior" unicode="&#xb9;" horiz-adv-x="628" 
d="M295 498q-27 0 -41 18t-10 43l121 729l-164 -80q-23 -14 -49 -3t-27 44q0 33 33 47l225 115q63 35 93 3q15 -15 9 -48l-137 -811q-10 -57 -53 -57z" />
    <glyph glyph-name="ordmasculine" unicode="&#xba;" horiz-adv-x="931" 
d="M496 1341q-102 1 -172 -67t-88 -162t-25 -174q-9 -133 57 -201q66 -67 165 -67t166 60t89 179q8 47 21 168q5 111 -53 187t-160 77zM504 1438q144 0 230 -104t77 -255q-3 -57 -23 -189t-108 -226q-88 -92 -236 -92t-248 96q-99 96 -85 272q8 106 18 162q31 164 130 250
q101 86 245 86z" />
    <glyph glyph-name="guillemotright" unicode="&#xbb;" horiz-adv-x="1064" 
d="M614 720q0 -62 -79 -120l-302 -227q-44 -30 -76 0q-15 14 -15 39t30 47l279 213q41 31 41 53t-21 45l-209 213q-16 13 -16 35t15 38t38 17q23 0 45 -20l221 -224q49 -47 49 -109zM985 720q0 -62 -80 -120l-301 -227q-44 -31 -77 0q-15 14 -15 39t31 47l278 213
q41 31 41 53t-20 45l-209 213q-17 13 -17 35t16 38t38 17q23 0 45 -20l221 -224q49 -47 49 -109z" />
    <glyph glyph-name="onequarter" unicode="&#xbc;" horiz-adv-x="1984" 
d="M1333 1456q0 -18 -14 -39l-811 -1442q-18 -34 -45 -34t-44 15q-31 27 -7 73l813 1444q20 35 55 34q53 0 53 -51zM319 498q-27 0 -41 18t-10 43l123 729l-164 -80q-25 -14 -51 -3t-26 43t34 48l224 115q33 18 55 19q57 0 47 -64l-135 -811q-11 -57 -56 -57zM1620 317
l84 496l-485 -496h401zM1622 0q-23 0 -36 15t-9 40l27 162h-447q-68 0 -67 62q0 39 43 77l522 529q47 51 85 51t55 -25t9 -59l-88 -535h94q51 0 52 -45q0 -23 -16 -38t-48 -15h-98l-27 -166q-10 -53 -51 -53z" />
    <glyph glyph-name="onehalf" unicode="&#xbd;" horiz-adv-x="2015" 
d="M1296 104h445q27 0 42 -14t15 -36t-18 -38t-49 -16h-474q-66 0 -65 61q0 117 73 198t195 149q134 68 162 88t73 55q79 63 80 140t-43 120t-124 43q-109 0 -207 -109q-41 -47 -80 -16q-14 12 -14 33t18 43q111 141 283 141q108 0 186 -66t78 -182q0 -117 -95 -198
t-226 -150q-131 -68 -193 -126t-62 -120zM326 498q-27 0 -41 18t-11 43l121 729l-164 -80q-23 -14 -49 -3t-26 44t32 47l226 115q63 35 93 3q15 -15 9 -48l-137 -811q-10 -57 -53 -57zM469 -66q-27 0 -44 16t-17 32q0 18 12 38l813 1446q18 33 47 33q59 0 59 -49
q0 -20 -12 -41l-811 -1442q-20 -33 -47 -33z" />
    <glyph glyph-name="threequarters" unicode="&#xbe;" horiz-adv-x="2097" 
d="M396 989q-60 1 -60 57q0 26 26 46l277 227h-379q-29 0 -45 14t-16 36t16 37t45 15h428q34 0 56 -19t22 -54t-47 -74l-246 -201q113 -2 190 -62q77 -59 77 -159t-50 -173q-49 -73 -130 -115q-156 -81 -370 -83q-26 0 -68 5t-42 42q0 47 65 47h60q130 0 271 55
q73 28 120 83t47 121t-43 108q-44 41 -108 44t-96 3zM635 -66q-27 0 -44 16q-32 29 -5 70l813 1446q20 33 48 33q58 0 58 -49q0 -20 -12 -41l-811 -1442q-20 -33 -47 -33zM1737 317l84 496l-488 -496h404zM1272 217q-66 0 -68 62q0 39 43 77l522 529q51 51 87 51t54 -25
t11 -59l-88 -535h92q51 0 51 -45q0 -23 -16 -38t-45 -15h-100l-27 -166q-10 -53 -51 -53q-23 0 -35 15t-8 40l26 162h-448z" />
    <glyph glyph-name="questiondown" unicode="&#xbf;" horiz-adv-x="1189" 
d="M684 889q20 -1 33 -17q14 -16 14 -41q0 -35 -55 -59q-11 0 -90 -38q-78 -38 -134 -71q-56 -32 -86 -60q-30 -27 -67 -67q-68 -72 -69 -182t71 -185t203 -75q162 0 352 162q28 27 52 27q24 1 40 -15t16 -42t-24 -48q-209 -197 -434 -196q-172 0 -283 102t-110 262
q0 330 524 533q27 10 47 10zM770 1454q25 0 39 -16t12 -43l-33 -193q-6 -55 -59 -55q-23 0 -38 17t-11 42l31 193q10 55 59 55z" />
    <glyph glyph-name="Agrave" unicode="&#xc0;" horiz-adv-x="1333" 
d="M903 1596q0 -26 -15 -40q-16 -14 -34 -14t-39 10l-254 142q-31 14 -31 40t14 42q14 14 36 14t38 -8l256 -146q29 -14 29 -40zM784 1335q-38 0 -67 -53l-350 -666h602l-131 668q-6 51 -54 51zM2 -8q-34 0 -51 26q-16 26 2 64l649 1227q74 143 189 143q133 0 161 -147
l244 -1233q6 -35 -9 -58t-48 -22q-54 0 -62 53l-90 467h-676l-252 -477q-23 -43 -57 -43z" />
    <glyph glyph-name="Aacute" unicode="&#xc1;" horiz-adv-x="1333" 
d="M1081 1792q49 0 49 -47q0 -33 -43 -55l-294 -140q-15 -6 -33 -6t-32 14t-13 42q0 26 33 40l301 144q16 8 32 8zM784 1335q-38 0 -67 -53l-350 -666h602l-131 668q-6 51 -54 51zM2 -8q-34 0 -51 26q-16 26 2 64l649 1227q74 143 189 143q133 0 161 -147l244 -1233
q6 -35 -9 -58t-48 -22q-54 0 -62 53l-90 467h-676l-252 -477q-23 -43 -57 -43z" />
    <glyph glyph-name="Acircumflex" unicode="&#xc2;" horiz-adv-x="1333" 
d="M611 1536q-17 0 -30 13t-13 38t28 45l205 131q62 43 112 -2l142 -133q23 -20 23 -42t-15 -36q-14 -14 -35 -14t-41 18l-133 123l-203 -129q-23 -12 -40 -12zM784 1335q-38 0 -67 -53l-350 -666h602l-131 668q-6 51 -54 51zM2 -8q-34 0 -51 26q-16 26 2 64l649 1227
q74 143 189 143q133 0 161 -147l244 -1233q6 -35 -9 -58t-48 -22q-54 0 -62 53l-90 467h-676l-252 -477q-23 -43 -57 -43z" />
    <glyph glyph-name="Atilde" unicode="&#xc3;" horiz-adv-x="1333" 
d="M948 1540q-55 0 -124 39q-68 39 -96 39t-62 -28q-59 -48 -92 -11q-32 36 14 80q68 61 132 61t133 -38t97 -38t64 28q37 28 56 28q18 0 34 -14t16 -38t-33 -51q-84 -57 -139 -57zM784 1335q-38 0 -67 -53l-350 -666h602l-131 668q-6 51 -54 51zM2 -8q-34 0 -51 26
q-16 26 2 64l649 1227q74 143 189 143q133 0 161 -147l244 -1233q6 -35 -9 -58t-48 -22q-54 0 -62 53l-90 467h-676l-252 -477q-23 -43 -57 -43z" />
    <glyph glyph-name="Adieresis" unicode="&#xc4;" horiz-adv-x="1333" 
d="M1002 1712q33 0 52 -19t19 -51q-1 -32 -23 -56t-55 -24t-53 20q-20 19 -20 50t23 56q24 24 57 24zM695 1712q33 0 53 -19t20 -51t-24 -56t-56 -24t-53 20q-20 19 -21 50q0 32 24 56t57 24zM784 1335q-38 0 -67 -53l-350 -666h602l-131 668q-6 51 -54 51zM2 -8
q-34 0 -51 26q-16 26 2 64l649 1227q74 143 189 143q133 0 161 -147l244 -1233q6 -35 -9 -58t-48 -22q-54 0 -62 53l-90 467h-676l-252 -477q-23 -43 -57 -43z" />
    <glyph glyph-name="Aring" unicode="&#xc5;" horiz-adv-x="1333" 
d="M852 1608q47 0 78 34t31 77q0 42 -25 69t-72 27t-78 -35q-30 -35 -30 -77t24 -69q25 -26 72 -26zM851 1532q-81 0 -126 48t-45 121t52 131t132 58t125 -47t45 -120t-51 -132t-132 -59zM784 1335q-38 0 -67 -53l-350 -666h602l-131 668q-6 51 -54 51zM2 -8q-34 0 -51 26
q-16 26 2 64l649 1227q74 143 189 143q133 0 161 -147l244 -1233q6 -35 -9 -58t-48 -22q-54 0 -62 53l-90 467h-676l-252 -477q-23 -43 -57 -43z" />
    <glyph glyph-name="AE" unicode="&#xc6;" horiz-adv-x="2058" 
d="M1133 1317q-51 0 -82 -39l-488 -635h467l111 674h-8zM40 -8q-26 0 -41 15t-15 35t18 46l959 1243q47 63 100 81t147 20h768q29 0 45 -16q17 -16 17 -42q0 -25 -18 -40t-44 -15h-719l-90 -543h674q27 0 43 -16t16 -40t-16 -39q-18 -15 -43 -15h-690l-92 -553h710
q29 -1 45 -17t15 -41q1 -25 -17 -40t-43 -15h-747q-98 0 -82 102l72 435h-527l-395 -514q-24 -31 -50 -31z" />
    <glyph glyph-name="Ccedilla" unicode="&#xc7;" horiz-adv-x="1314" 
d="M791 1452q180 0 305 -91t168 -233q10 -26 10 -50t-16 -40t-48 -16t-49 47q-45 135 -145 201t-236 65q-178 -1 -308 -117t-180 -302t-64 -376t99 -317q112 -127 316 -127q281 0 406 269q23 49 53 49q62 0 63 -54q0 -14 -14 -53q-61 -129 -182 -225t-314 -102l-49 -95
q68 4 113 -36t45 -103q0 -92 -79 -150t-177 -85q-17 -5 -37 -5q-45 0 -45 41q0 33 39 45q57 18 89 30t74 47q42 34 42 75q0 59 -70 59l-68 -12q-24 -1 -34 19t2 47l65 129q-225 26 -349 186t-103 403q12 168 61 353q68 246 224 385q157 139 393 139z" />
    <glyph glyph-name="Egrave" unicode="&#xc8;" horiz-adv-x="1245" 
d="M932 1596q0 -26 -15 -40t-33 -14t-40 10l-254 142q-31 14 -31 40t14 42q13 14 35 14t39 -8l256 -146q29 -14 29 -40zM449 1432h716q29 0 44 -16t15 -42q0 -25 -16 -40q-18 -15 -45 -15h-719l-90 -543h674q29 0 44 -16t15 -40t-17 -39t-42 -15h-690l-92 -553h710
q29 -1 45 -17q17 -16 17 -41t-18 -40t-44 -15h-747q-98 0 -82 102l205 1229q10 53 37 77t80 24z" />
    <glyph glyph-name="Eacute" unicode="&#xc9;" horiz-adv-x="1245" 
d="M1026 1792q49 0 49 -47q0 -33 -43 -55l-295 -140q-16 -6 -33 -6q-16 0 -30 14t-14 42q0 26 32 40l301 144q16 8 33 8zM449 1432h716q29 0 44 -16t15 -42q0 -25 -16 -40q-18 -15 -45 -15h-719l-90 -543h674q29 0 44 -16t15 -40t-17 -39t-42 -15h-690l-92 -553h710
q29 -1 45 -17q17 -16 17 -41t-18 -40t-44 -15h-747q-98 0 -82 102l205 1229q10 53 37 77t80 24z" />
    <glyph glyph-name="Ecircumflex" unicode="&#xca;" horiz-adv-x="1245" 
d="M609 1536q-17 0 -30 13t-13 38t28 45l205 131q62 43 112 -2l142 -133q23 -20 23 -42t-15 -36q-13 -14 -33 -14t-43 18l-133 123l-203 -129q-23 -12 -40 -12zM449 1432h716q29 0 44 -16t15 -42q0 -25 -16 -40q-18 -15 -45 -15h-719l-90 -543h674q29 0 44 -16t15 -40
t-17 -39t-42 -15h-690l-92 -553h710q29 -1 45 -17q17 -16 17 -41t-18 -40t-44 -15h-747q-98 0 -82 102l205 1229q10 53 37 77t80 24z" />
    <glyph glyph-name="Edieresis" unicode="&#xcb;" horiz-adv-x="1245" 
d="M995 1712q33 0 53 -19t19 -51q0 -32 -24 -56q-23 -24 -55 -24t-52 20q-20 19 -21 50q-1 32 23 56t57 24zM689 1712q34 0 53 -19q20 -19 20 -51t-24 -56t-56 -24t-53 20q-20 19 -21 50q0 32 24 56t57 24zM449 1432h716q29 0 44 -16t15 -42q0 -25 -16 -40q-18 -15 -45 -15
h-719l-90 -543h674q29 0 44 -16t15 -40t-17 -39t-42 -15h-690l-92 -553h710q29 -1 45 -17q17 -16 17 -41t-18 -40t-44 -15h-747q-98 0 -82 102l205 1229q10 53 37 77t80 24z" />
    <glyph glyph-name="Igrave" unicode="&#xcc;" horiz-adv-x="561" 
d="M428 1542q-18 0 -39 10l-254 142q-31 14 -31 40t14 42q14 14 36 14t39 -8l256 -146q29 -14 29 -40t-16 -40t-34 -14zM176 -8q-29 0 -45 19t-12 52l221 1321q10 57 59 58q29 0 45 -22t11 -52l-222 -1321q-10 -55 -57 -55z" />
    <glyph glyph-name="Iacute" unicode="&#xcd;" horiz-adv-x="561" 
d="M707 1792q49 0 49 -47q0 -33 -43 -55l-295 -140q-16 -6 -34 -6t-30 14q-14 14 -14 42q0 26 33 40l301 144q16 8 33 8zM168 -8q-29 0 -45 19t-12 52l221 1321q10 57 59 58q29 0 45 -22t10 -52l-221 -1321q-10 -55 -57 -55z" />
    <glyph glyph-name="Icircumflex" unicode="&#xce;" horiz-adv-x="561" 
d="M194 1536q-16 0 -31 13q-13 13 -13 38t28 45l205 131q61 42 113 -2l141 -133q23 -20 23 -42t-15 -36q-14 -14 -35 -14t-41 18l-133 123l-203 -129q-23 -12 -39 -12zM168 -8q-29 0 -45 19t-12 52l221 1321q10 57 59 58q29 0 45 -22t10 -52l-221 -1321q-10 -55 -57 -55z
" />
    <glyph glyph-name="Idieresis" unicode="&#xcf;" horiz-adv-x="561" 
d="M600 1712q33 0 52 -19q20 -19 20 -51t-23 -56t-55 -24t-53 20q-20 19 -21 50q0 32 24 56t56 24zM213 1632q-1 32 23 56t58 24t53 -19t19 -51t-23 -56q-25 -24 -57 -24t-53 20q-20 19 -20 50zM176 -8q-29 0 -45 19t-12 52l221 1321q10 57 59 58q29 0 45 -22t11 -52
l-222 -1321q-10 -55 -57 -55z" />
    <glyph glyph-name="Eth" unicode="&#xd0;" horiz-adv-x="1384" 
d="M557 113q256 1 401 113t205 370q18 82 33 213q31 240 -98 375t-381 135h-289l-92 -555h362q25 0 41 -16q17 -16 17 -39t-16 -39t-46 -17h-377l-88 -540h328zM188 0q-45 0 -65 27t-12 73l90 553h-150q-27 1 -42 17t-15 38t17 38t44 18h164l94 567q8 47 39 74t78 27h289
q301 0 464 -169t134 -440q-16 -154 -39 -252q-70 -307 -248 -439t-481 -132h-361z" />
    <glyph glyph-name="Ntilde" unicode="&#xd1;" horiz-adv-x="1562" 
d="M1061 1540q-55 0 -124 39t-97 39t-62 -28q-36 -28 -56 -28t-33 15q-13 14 -13 36t24 46q68 61 132 61t134 -38q68 -38 96 -38t64 28t56 28t36 -14t15 -38q0 -24 -33 -51q-84 -57 -139 -57zM182 -8q-27 0 -44 19t-13 48l213 1274q18 109 108 109q66 0 99 -72l596 -1237h2
q35 225 63 387l144 864q10 57 59 58q29 0 45 -22t10 -54l-213 -1262q-20 -113 -106 -112q-66 0 -101 74l-591 1239h-4q-4 -23 -68 -412l-141 -842q-10 -59 -58 -59z" />
    <glyph glyph-name="Ograve" unicode="&#xd2;" horiz-adv-x="1390" 
d="M961 1596q1 -26 -15 -40t-34 -14t-40 10l-254 142q-30 14 -30 40q1 55 51 56q20 0 37 -8l256 -146q29 -14 29 -40zM655 96q190 0 319 112q128 112 172 293t59 375t-103 326q-119 133 -321 133q-203 0 -333 -127t-174 -334q-81 -358 -21 -518q60 -161 246 -231
q76 -29 156 -29zM660 -20q-236 0 -407 164t-140 450q10 111 41 278q49 264 214 422q164 158 416 158t409 -173t130 -425q-20 -190 -47 -324q-53 -262 -216 -406q-164 -144 -400 -144z" />
    <glyph glyph-name="Oacute" unicode="&#xd3;" horiz-adv-x="1390" 
d="M1137 1792q49 0 49 -47q0 -33 -43 -55l-295 -140q-16 -6 -34 -6t-30 14q-14 14 -14 42q0 26 33 40l301 144q16 8 33 8zM655 96q190 0 319 112q128 112 172 293t59 375t-103 326q-119 133 -321 133q-203 0 -333 -127t-174 -334q-81 -358 -21 -518q60 -161 246 -231
q76 -29 156 -29zM660 -20q-236 0 -407 164t-140 450q10 111 41 278q49 264 214 422q164 158 416 158t409 -173t130 -425q-20 -190 -47 -324q-53 -262 -216 -406q-164 -144 -400 -144z" />
    <glyph glyph-name="Ocircumflex" unicode="&#xd4;" horiz-adv-x="1390" 
d="M652 1536q-17 0 -30 13q-14 13 -14 38t29 45l205 131q62 43 112 -2l142 -133q22 -20 22 -42t-14 -36t-35 -14t-41 18l-133 123l-203 -129q-23 -12 -40 -12zM655 96q190 0 319 112q128 112 172 293t59 375t-103 326q-119 133 -321 133q-203 0 -333 -127t-174 -334
q-81 -358 -21 -518q60 -161 246 -231q76 -29 156 -29zM660 -20q-236 0 -407 164t-140 450q10 111 41 278q49 264 214 422q164 158 416 158t409 -173t130 -425q-20 -190 -47 -324q-53 -262 -216 -406q-164 -144 -400 -144z" />
    <glyph glyph-name="Otilde" unicode="&#xd5;" horiz-adv-x="1390" 
d="M967 1540q-55 0 -124 39t-97 39t-62 -28q-36 -28 -56 -28t-33 15q-13 14 -13 36t24 46q68 61 132 61t134 -38q68 -38 96 -38t64 28t56 28t35 -14t15 -38t-32 -51q-84 -57 -139 -57zM655 96q190 0 319 112q128 112 172 293t59 375t-103 326q-119 133 -321 133
q-203 0 -333 -127t-174 -334q-81 -358 -21 -518q60 -161 246 -231q76 -29 156 -29zM660 -20q-236 0 -407 164t-140 450q10 111 41 278q49 264 214 422q164 158 416 158t409 -173t130 -425q-20 -190 -47 -324q-53 -262 -216 -406q-164 -144 -400 -144z" />
    <glyph glyph-name="Odieresis" unicode="&#xd6;" horiz-adv-x="1390" 
d="M1049 1712q33 0 52 -19t19 -51t-24 -56t-55 -24q-32 0 -52 20q-20 19 -20 50t23 56q24 24 57 24zM662 1632q0 32 23 56t57 24t54 -19t19 -51q1 -32 -23 -56t-57 -24t-53 20q-20 19 -20 50zM655 96q190 0 319 112q128 112 172 293t59 375t-103 326q-119 133 -321 133
q-203 0 -333 -127t-174 -334q-81 -358 -21 -518q60 -161 246 -231q76 -29 156 -29zM660 -20q-236 0 -407 164t-140 450q10 111 41 278q49 264 214 422q164 158 416 158t409 -173t130 -425q-20 -190 -47 -324q-53 -262 -216 -406q-164 -144 -400 -144z" />
    <glyph glyph-name="multiply" unicode="&#xd7;" horiz-adv-x="1280" 
d="M641 639l-367 -365q-43 -41 -84 -6q-20 18 -18 43t23 43l366 365l-368 366q-20 18 -22 43q-1 25 15 41q41 37 86 -2l369 -366l363 358q18 19 43 21t41 -16t14 -43q-2 -26 -19 -42l-362 -360l366 -359q41 -45 1 -84t-82 5z" />
    <glyph glyph-name="Oslash" unicode="&#xd8;" horiz-adv-x="1390" 
d="M319 242l715 1022q-106 72 -258 71q-194 0 -324 -125t-178 -336q-29 -127 -47 -294q-23 -203 92 -338zM681 96q169 0 296 114t170 296t59 370t-94 316l-715 -1018q115 -78 284 -78zM668 -20q-186 0 -342 102l-52 -70q-22 -30 -48 -30t-40 14t-14 32t18 46l56 78
q-162 172 -133 442q14 145 41 278q49 262 213 421t411 159q190 0 330 -96l45 63q25 33 51 33t39 -14q14 -14 14 -34t-16 -44l-55 -74q166 -172 137 -432q-20 -190 -47 -324q-51 -262 -214 -406t-394 -144z" />
    <glyph glyph-name="Ugrave" unicode="&#xd9;" horiz-adv-x="1443" 
d="M987 1596q0 -26 -15 -40q-16 -14 -34 -14t-39 10l-254 142q-31 14 -31 40t14 42q14 14 36 14t38 -8l256 -146q29 -14 29 -40zM685 96q175 0 300 114t164 345l137 829q10 58 63 58q28 0 44 -22t10 -52l-137 -817q-47 -279 -199 -425q-153 -146 -383 -146t-396 146
q-83 73 -120 204t-8 299l127 755q10 56 61 58q27 0 43 -20t10 -54l-127 -758q-24 -142 6 -248t98 -160q132 -106 307 -106z" />
    <glyph glyph-name="Uacute" unicode="&#xda;" horiz-adv-x="1443" 
d="M1104 1792q49 0 49 -47q0 -33 -43 -55l-295 -140q-15 -6 -33 -6t-31 14t-13 42q0 26 32 40l301 144q16 8 33 8zM685 96q175 0 300 114t164 345l137 829q10 58 63 58q28 0 44 -22t10 -52l-137 -817q-47 -279 -199 -425q-153 -146 -383 -146t-396 146q-83 73 -120 204
t-8 299l127 755q10 56 61 58q27 0 43 -20t10 -54l-127 -758q-24 -142 6 -248t98 -160q132 -106 307 -106z" />
    <glyph glyph-name="Ucircumflex" unicode="&#xdb;" horiz-adv-x="1443" 
d="M667 1536q-17 0 -31 13q-13 13 -13 38t28 45l205 131q61 42 113 -2l141 -133q23 -20 23 -42q-1 -22 -15 -36t-34 -14t-42 18l-133 123l-202 -129q-23 -12 -40 -12zM685 96q175 0 300 114t164 345l137 829q10 58 63 58q28 0 44 -22t10 -52l-137 -817q-47 -279 -199 -425
q-153 -146 -383 -146t-396 146q-83 73 -120 204t-8 299l127 755q10 56 61 58q27 0 43 -20t10 -54l-127 -758q-24 -142 6 -248t98 -160q132 -106 307 -106z" />
    <glyph glyph-name="Udieresis" unicode="&#xdc;" horiz-adv-x="1443" 
d="M981 1632q-1 32 23 56t57 24t52 -19t19 -51t-23 -56t-55 -24t-53 20q-20 19 -20 50zM755 1712q34 0 53 -19t19 -51q1 -32 -23 -56t-57 -24t-53 20q-20 19 -20 50t23 56q24 24 58 24zM685 96q175 0 300 114t164 345l137 829q10 58 63 58q28 0 44 -22t10 -52l-137 -817
q-47 -279 -199 -425q-153 -146 -383 -146t-396 146q-83 73 -120 204t-8 299l127 755q10 56 61 58q27 0 43 -20t10 -54l-127 -758q-24 -142 6 -248t98 -160q132 -106 307 -106z" />
    <glyph glyph-name="Yacute" unicode="&#xdd;" horiz-adv-x="1257" 
d="M1006 1792q49 0 49 -47q0 -33 -43 -55l-295 -140q-15 -6 -33 -6t-32 14t-13 42q0 26 33 40l301 144q16 8 33 8zM1288 1442q26 0 44 -16t18 -44q0 -27 -25 -47l-610 -630q-49 -49 -58 -95l-92 -559q-10 -59 -59 -59q-29 0 -44 19t-11 48l92 551q8 48 -27 99l-399 634
q-31 46 4 81q16 18 46 18t50 -33l399 -639l623 647q23 25 49 25z" />
    <glyph glyph-name="Thorn" unicode="&#xde;" horiz-adv-x="1241" 
d="M678 401q176 -1 299 93t123 258q0 131 -88 213t-267 82h-337l-109 -646h379zM178 -8q-25 0 -41 19t-12 50l221 1328q10 63 64 63q25 0 42 -16t13 -45l-39 -234h332q213 0 338 -104t125 -305t-152 -331t-403 -130h-385l-41 -236q-2 -27 -20 -43t-42 -16z" />
    <glyph glyph-name="germandbls" unicode="&#xdf;" horiz-adv-x="1220" 
d="M1026 320q0 96 -129 186q-55 39 -80 56q-137 93 -137 214q0 58 39 114t84 94q123 104 123 184q0 81 -62 127t-180 46q-117 -1 -207 -81t-115 -230l-161 -977q-11 -59 -60 -59q-29 0 -44 18t-11 47l162 973q37 220 162 320q126 100 278 100t252 -76t100 -202
q0 -70 -38 -132t-84 -98q-122 -99 -121 -159q0 -61 32 -89q85 -75 150 -114q162 -118 162 -262q1 -144 -99 -242t-266 -98q-98 0 -189 36t-147 86q-25 20 -24 50q0 51 55 53q23 0 45 -17l19 -12q111 -86 230 -86q121 0 191 67t70 163z" />
    <glyph glyph-name="agrave" unicode="&#xe0;" horiz-adv-x="1114" 
d="M803 1258q0 -26 -15 -40q-16 -14 -34 -14t-39 10l-254 142q-31 14 -31 40t14 42q14 14 36 14t38 -8l256 -146q29 -14 29 -40zM514 545q-141 -1 -229 -59t-88 -162q-1 -104 79 -168q80 -66 228 -66t266 74l49 299q-164 82 -305 82zM501 -20q-189 0 -304 94t-115 248
t115 241q115 88 289 88t352 -82l22 127q25 139 -45 206t-211 67q-62 1 -107 -13t-75 -23t-70 -28q-32 -10 -56 4t-24 47t42 56q42 24 131 46t161 21q184 0 291 -98t74 -291l-92 -543q-8 -49 -39 -69q-150 -98 -339 -98z" />
    <glyph glyph-name="aacute" unicode="&#xe1;" horiz-adv-x="1116" 
d="M905 1454q49 0 49 -47q0 -35 -43 -55l-295 -140q-14 -6 -32 -6t-32 14t-14 42q0 27 33 41l301 143q16 8 33 8zM514 545q-141 -1 -229 -59t-88 -162q-1 -104 79 -168q80 -66 228 -66t266 74l49 299q-164 82 -305 82zM501 -20q-189 0 -304 94t-115 248t115 241
q115 88 289 88t352 -82l22 127q25 139 -45 206t-211 67q-62 1 -107 -13t-75 -23t-70 -28q-32 -10 -56 4t-24 47t42 56q42 24 131 46t161 21q184 0 291 -98t74 -291l-92 -543q-8 -49 -39 -69q-150 -98 -339 -98z" />
    <glyph glyph-name="acircumflex" unicode="&#xe2;" horiz-adv-x="1116" 
d="M454 1174q-17 0 -31 13q-13 13 -13 38t28 45l205 131q29 20 57 20t56 -22l141 -133q23 -20 23 -42t-14 -36t-34 -14t-43 18l-133 123l-202 -129q-23 -12 -40 -12zM514 545q-141 -1 -229 -59t-88 -162q-1 -104 79 -168q80 -66 228 -66t266 74l49 299q-164 82 -305 82z
M501 -20q-189 0 -304 94t-115 248t115 241q115 88 289 88t352 -82l22 127q25 139 -45 206t-211 67q-62 1 -107 -13t-75 -23t-70 -28q-32 -10 -56 4t-24 47t42 56q42 24 131 46t161 21q184 0 291 -98t74 -291l-92 -543q-8 -49 -39 -69q-150 -98 -339 -98z" />
    <glyph glyph-name="atilde" unicode="&#xe3;" horiz-adv-x="1118" 
d="M797 1217q-55 1 -124 39t-97 38t-62 -28q-36 -28 -56 -27q-20 0 -33 14t-13 36t24 46q68 61 132 61t134 -37q68 -38 96 -38t64 28q36 27 56 27t35 -14t15 -38t-32 -50q-84 -57 -139 -57zM514 545q-141 -1 -229 -59t-88 -162q-1 -104 79 -168q80 -66 228 -66t266 74
l49 299q-164 82 -305 82zM501 -20q-189 0 -304 94t-115 248t115 241q115 88 289 88t352 -82l22 127q25 139 -45 206t-211 67q-62 1 -107 -13t-75 -23t-70 -28q-32 -10 -56 4t-24 47t42 56q42 24 131 46t161 21q184 0 291 -98t74 -291l-92 -543q-8 -49 -39 -69
q-150 -98 -339 -98z" />
    <glyph glyph-name="adieresis" unicode="&#xe4;" horiz-adv-x="1116" 
d="M768 1300q0 32 24 56t56 24q33 0 52 -19q20 -19 20 -51t-24 -56t-56 -24t-52 20q-20 19 -20 50zM542 1380q34 0 53 -19t19 -51t-24 -56t-56 -24q-33 0 -53 20q-20 19 -20 50t23 56q24 24 58 24zM514 545q-141 -1 -229 -59t-88 -162q-1 -104 79 -168q80 -66 228 -66
t266 74l49 299q-164 82 -305 82zM501 -20q-189 0 -304 94t-115 248t115 241q115 88 289 88t352 -82l22 127q25 139 -45 206t-211 67q-62 1 -107 -13t-75 -23t-70 -28q-32 -10 -56 4t-24 47t42 56q42 24 131 46t161 21q184 0 291 -98t74 -291l-92 -543q-8 -49 -39 -69
q-150 -98 -339 -98z" />
    <glyph glyph-name="aring" unicode="&#xe5;" horiz-adv-x="1114" 
d="M598 1332q0 -42 24 -68t72 -27q47 0 78 35t31 77q0 43 -25 69q-26 26 -72 26t-77 -35t-31 -77zM693 1161q-81 0 -126 48t-45 121t52 131q52 59 132 59t126 -47q44 -47 44 -120t-50 -133q-52 -60 -133 -59zM514 545q-141 -1 -229 -59t-88 -162q-1 -104 79 -168
q80 -66 228 -66t266 74l49 299q-164 82 -305 82zM501 -20q-189 0 -304 94t-115 248t115 241q115 88 289 88t352 -82l22 127q25 139 -45 206t-211 67q-62 1 -107 -13t-75 -23t-70 -28q-32 -10 -56 4t-24 47t42 56q42 24 131 46t161 21q184 0 291 -98t74 -291l-92 -543
q-8 -49 -39 -69q-150 -98 -339 -98z" />
    <glyph glyph-name="ae" unicode="&#xe6;" horiz-adv-x="1806" 
d="M1530 582q39 0 47 34q43 170 -33 260t-228 91q-152 0 -242 -94q-89 -94 -120 -291h576zM508 90q190 0 334 125q-41 96 -21 248q-170 82 -310 82q-140 1 -227 -59t-87 -164t82 -168t229 -64zM604 969q-62 1 -107 -13t-75 -23t-70 -28q-32 -10 -56 4t-24 46q0 60 170 102
q221 58 383 -27q94 -49 129 -139q131 188 381 188q162 0 277 -105q57 -52 81 -144t1 -207l-6 -31q-29 -113 -132 -113h-616q-14 -72 -14 -110q0 -137 91 -208t217 -71t263 70q20 10 41 10t36 -16t15 -35q0 -41 -47 -66q-129 -74 -291 -73q-233 0 -360 145
q-177 -145 -377 -145t-316 93t-116 247t113 242q113 89 290 89t355 -82l22 127q25 137 -46 205t-212 68z" />
    <glyph glyph-name="ccedilla" unicode="&#xe7;" horiz-adv-x="1112" 
d="M946 727q-33 0 -49 47q-33 102 -116 148t-191 45q-108 0 -198 -82q-91 -82 -126 -236q-18 -83 -36 -235t76 -235q95 -83 235 -83q209 0 286 197q17 45 49 45q64 0 64 -53q0 -43 -37 -100q-37 -58 -81 -103t-116 -74t-157 -28l-51 -95q68 4 112 -36t45 -103
q-1 -92 -79 -150t-177 -85q-17 -5 -37 -5q-45 0 -45 41q0 33 39 45q57 18 89 30t74 47q42 34 42 75q0 59 -69 59l-68 -12q-25 -1 -35 19t2 47l64 131q-164 26 -262 144t-74 312q6 55 35 215q37 205 164 313q128 108 288 108t259 -72t127 -155q44 -126 -46 -126z" />
    <glyph glyph-name="egrave" unicode="&#xe8;" horiz-adv-x="1107" 
d="M813 1258q0 -26 -15 -40q-16 -14 -34 -14t-39 10l-254 142q-31 14 -31 40t14 42q14 14 36 14t38 -8l256 -146q29 -14 29 -40zM834 582q37 0 45 34q45 178 -35 264t-230 87q-150 0 -238 -94q-89 -94 -120 -291h578zM547 90q115 0 252 70q20 10 41 10t36 -15t15 -36
q0 -41 -47 -66q-129 -74 -289 -73q-221 0 -341 124t-95 328q14 127 37 232q90 416 469 415q180 -1 298 -115t72 -341l-6 -31q-29 -113 -131 -113h-616l-9 -51q-25 -158 65 -248t249 -90z" />
    <glyph glyph-name="eacute" unicode="&#xe9;" horiz-adv-x="1107" 
d="M932 1456q49 0 49 -47q0 -33 -43 -55l-295 -140q-15 -6 -33 -6t-31 14t-13 42q0 27 32 41l301 143q16 8 33 8zM834 582q37 0 45 34q45 178 -35 264t-230 87q-150 0 -238 -94q-89 -94 -120 -291h578zM547 90q115 0 252 70q20 10 41 10t36 -15t15 -36q0 -41 -47 -66
q-129 -74 -289 -73q-221 0 -341 124t-95 328q14 127 37 232q90 416 469 415q180 -1 298 -115t72 -341l-6 -31q-29 -113 -131 -113h-616l-9 -51q-25 -158 65 -248t249 -90z" />
    <glyph glyph-name="ecircumflex" unicode="&#xea;" horiz-adv-x="1110" 
d="M424 1256q0 24 29 44l204 132q29 20 58 20t55 -22l141 -134q23 -20 23 -42t-14 -35q-14 -15 -35 -15t-41 19l-133 123l-203 -129q-46 -24 -65 -5q-19 20 -19 44zM834 582q37 0 45 34q45 178 -35 264t-230 87q-150 0 -238 -94q-89 -94 -120 -291h578zM547 90q115 0 252 70
q20 10 41 10t36 -15t15 -36q0 -41 -47 -66q-129 -74 -289 -73q-221 0 -341 124t-95 328q14 127 37 232q90 416 469 415q180 -1 298 -115t72 -341l-6 -31q-29 -113 -131 -113h-616l-9 -51q-25 -158 65 -248t249 -90z" />
    <glyph glyph-name="edieresis" unicode="&#xeb;" horiz-adv-x="1107" 
d="M854 1380q33 0 52 -19q20 -19 20 -51t-23 -56t-55 -24t-53 20q-20 19 -21 50q0 32 24 56t56 24zM548 1380q34 0 53 -19t19 -51t-23 -56q-25 -24 -57 -24t-53 20q-20 19 -20 50t23 56q24 24 58 24zM834 582q37 0 45 34q45 178 -35 264t-230 87q-150 0 -238 -94
q-89 -94 -120 -291h578zM547 90q115 0 252 70q20 10 41 10t36 -15t15 -36q0 -41 -47 -66q-129 -74 -289 -73q-221 0 -341 124t-95 328q14 127 37 232q90 416 469 415q180 -1 298 -115t72 -341l-6 -31q-29 -113 -131 -113h-616l-9 -51q-25 -158 65 -248t249 -90z" />
    <glyph glyph-name="igrave" unicode="&#xec;" horiz-adv-x="559" 
d="M338 1065q29 0 45 -19t10 -53l-157 -946q-10 -55 -58 -55q-29 0 -45 19t-12 52l158 947q10 55 59 55zM394 1204q-18 0 -40 10l-254 142q-30 14 -30 40q1 56 51 56q20 0 37 -8l256 -146q28 -14 28 -40t-15 -40t-33 -14z" />
    <glyph glyph-name="iacute" unicode="&#xed;" horiz-adv-x="559" 
d="M338 1065q29 0 45 -19t10 -53l-157 -946q-10 -55 -58 -55q-29 0 -45 19t-12 52l158 947q10 55 59 55zM682 1454q49 0 49 -47q0 -35 -43 -55l-295 -140q-15 -6 -33 -6t-31 14t-13 42q0 27 32 41l301 143q16 8 33 8z" />
    <glyph glyph-name="icircumflex" unicode="&#xee;" horiz-adv-x="559" 
d="M111 1256q0 24 28 44l205 132q30 20 58 20t55 -22l141 -134q23 -20 23 -42q-1 -22 -15 -35q-33 -32 -76 4l-133 123l-202 -129q-45 -25 -71 1q-14 14 -13 38zM338 1065q29 0 45 -19t10 -53l-157 -946q-10 -55 -58 -55q-29 0 -45 19t-12 52l158 947q10 55 59 55z" />
    <glyph glyph-name="idieresis" unicode="&#xef;" horiz-adv-x="559" 
d="M338 1065q29 0 45 -19t10 -53l-157 -946q-10 -55 -58 -55q-29 0 -45 19t-12 52l158 947q10 55 59 55zM543 1380q33 0 52 -19t19 -51t-22 -56t-56 -24q-32 0 -53 20q-20 19 -20 50t23 56q24 24 57 24zM237 1380q34 0 53 -19t19 -51q1 -32 -23 -56t-57 -24t-53 20
q-20 19 -20 50t23 56q24 24 58 24z" />
    <glyph glyph-name="eth" unicode="&#xf0;" horiz-adv-x="1181" 
d="M598 899q-129 0 -213 -71t-114 -189t-40 -248q-10 -129 74 -215t218 -86t212 81q77 81 103 187t47 263q12 117 -73 197t-214 81zM586 1012q100 0 195 -45t151 -129q33 223 -60 366l-172 -76q-28 -12 -52 2t-24 45t40 46l145 63q-27 27 -66 57q-62 48 -23 94q16 17 38 17
t43 -16q74 -55 119 -105l143 64q31 12 55 -1t23 -45q0 -32 -43 -49l-121 -53q106 -174 59 -450l-67 -394q-35 -197 -148 -311t-301 -112q-188 0 -302 120t-101 316q4 80 30 209q41 193 157 290t282 97z" />
    <glyph glyph-name="ntilde" unicode="&#xf1;" horiz-adv-x="1214" 
d="M807 1217q-55 1 -124 39t-97 38t-62 -28q-36 -28 -56 -27q-20 0 -33 14t-13 36t24 46q68 61 132 61t134 -37q68 -38 96 -38t64 28q36 27 56 27t36 -14t15 -38q0 -24 -33 -50q-84 -57 -139 -57zM899 -8q-27 0 -43 19t-10 48l98 576q16 100 -3 171q-19 72 -67 102
q-85 53 -196 55q-168 0 -322 -89l-137 -827q-10 -55 -57 -55q-29 0 -45 19t-13 52l140 844q8 43 51 68q181 104 377 104q196 1 311 -103t76 -337l-98 -588q-10 -59 -62 -59z" />
    <glyph glyph-name="ograve" unicode="&#xf2;" horiz-adv-x="1140" 
d="M815 1258q0 -26 -15 -40q-16 -14 -34 -14t-39 10l-254 142q-31 14 -31 40t14 42q14 14 36 14t38 -8l256 -146q29 -14 29 -40zM618 967q-285 0 -354 -320q-20 -92 -34 -210q-14 -119 38 -199q90 -142 279 -142q276 0 344 316q21 92 33 211q20 166 -78 255t-228 89z
M620 1079q181 0 309 -120t111 -328q-33 -399 -199 -549q-114 -102 -295 -102t-315 119q-133 120 -116 331q8 100 41 250q43 199 162 299q121 100 302 100z" />
    <glyph glyph-name="oacute" unicode="&#xf3;" horiz-adv-x="1140" 
d="M952 1454q49 0 49 -47q0 -35 -43 -55l-294 -140q-16 -6 -34 -6t-30 14q-14 14 -14 42q0 27 32 41l302 143q16 8 32 8zM618 967q-285 0 -354 -320q-20 -92 -34 -210q-14 -119 38 -199q90 -142 279 -142q276 0 344 316q21 92 33 211q20 166 -78 255t-228 89zM620 1079
q181 0 309 -120t111 -328q-33 -399 -199 -549q-114 -102 -295 -102t-315 119q-133 120 -116 331q8 100 41 250q43 199 162 299q121 100 302 100z" />
    <glyph glyph-name="ocircumflex" unicode="&#xf4;" horiz-adv-x="1140" 
d="M464 1202q-17 0 -31 13q-13 13 -13 38t29 45l204 132q29 20 58 20t55 -23l141 -133q23 -20 23 -42t-14 -35q-35 -34 -76 4l-133 122l-203 -129q-23 -12 -40 -12zM618 967q-285 0 -354 -320q-20 -92 -34 -210q-14 -119 38 -199q90 -142 279 -142q276 0 344 316
q21 92 33 211q20 166 -78 255t-228 89zM620 1079q181 0 309 -120t111 -328q-33 -399 -199 -549q-114 -102 -295 -102t-315 119q-133 120 -116 331q8 100 41 250q43 199 162 299q121 100 302 100z" />
    <glyph glyph-name="otilde" unicode="&#xf5;" horiz-adv-x="1140" 
d="M805 1217q-55 1 -124 39t-97 38t-62 -28q-36 -28 -56 -27q-20 0 -33 14t-13 36t24 46q68 61 132 61t134 -37q68 -38 96 -38t64 28q36 27 56 27t36 -14t15 -38q0 -24 -33 -50q-84 -57 -139 -57zM618 967q-285 0 -354 -320q-20 -92 -34 -210q-14 -119 38 -199
q90 -142 279 -142q276 0 344 316q21 92 33 211q20 166 -78 255t-228 89zM620 1079q181 0 309 -120t111 -328q-33 -399 -199 -549q-114 -102 -295 -102t-315 119q-133 120 -116 331q8 100 41 250q43 199 162 299q121 100 302 100z" />
    <glyph glyph-name="odieresis" unicode="&#xf6;" horiz-adv-x="1140" 
d="M860 1380q33 0 52 -19q20 -19 20 -51t-24 -56t-56 -24t-51 20q-20 19 -21 50q0 32 24 56t56 24zM554 1380q34 0 53 -19t19 -51t-23 -56q-25 -24 -57 -24t-52 20q-20 19 -21 50q-1 32 23 56t58 24zM618 967q-285 0 -354 -320q-20 -92 -34 -210q-14 -119 38 -199
q90 -142 279 -142q276 0 344 316q21 92 33 211q20 166 -78 255t-228 89zM620 1079q181 0 309 -120t111 -328q-33 -399 -199 -549q-114 -102 -295 -102t-315 119q-133 120 -116 331q8 100 41 250q43 199 162 299q121 100 302 100z" />
    <glyph glyph-name="divide" unicode="&#xf7;" horiz-adv-x="1280" 
d="M1098 662h-918q-27 0 -44 15t-17 41t17 41t44 15h918q27 0 44 -15t17 -41t-18 -41t-43 -15zM579 383q11 25 37 35t52 -1t34 -38t-2 -51t-36 -34q-26 -9 -52 2q-24 10 -34 36t1 51zM580 1108q10 25 36 34t52 -2t34 -37q8 -27 -2 -51t-36 -34t-52 1q-24 11 -34 37t2 52z
" />
    <glyph glyph-name="oslash" unicode="&#xf8;" horiz-adv-x="1153" 
d="M244 276l608 590q-88 100 -240 101q-281 0 -350 -310q-62 -274 -18 -381zM545 96q268 0 342 316q61 269 14 374l-608 -589q88 -101 252 -101zM551 -20q-213 0 -340 139l-96 -96q-39 -39 -75 -9q-13 12 -13 32t22 40l109 107q-63 106 -45 256q10 96 37 221q82 409 474 409
q190 0 310 -133l102 98q25 25 44 25q20 0 32 -12q12 -11 12 -31t-24 -45l-111 -107q61 -115 47 -244t-41 -251q-45 -201 -161 -300t-283 -99z" />
    <glyph glyph-name="ugrave" unicode="&#xf9;" horiz-adv-x="1179" 
d="M770 1204q-18 0 -39 10l-254 142q-31 14 -31 40t14 42q14 14 36 14t39 -8l256 -146q29 -14 29 -40t-16 -40t-34 -14zM295 1065q25 0 41 -18t12 -50l-88 -540q-57 -360 281 -361q180 0 299 94l135 820q10 55 57 55q31 -1 47 -21t11 -51l-142 -846q-6 -31 -41 -57
q-163 -110 -367 -110t-320 125t-77 356l90 545q10 59 62 59z" />
    <glyph glyph-name="uacute" unicode="&#xfa;" horiz-adv-x="1179" 
d="M958 1454q49 0 50 -47q0 -35 -43 -55l-295 -140q-14 -6 -32 -6t-32 14t-14 42q0 27 33 41l301 143q16 8 32 8zM295 1065q25 0 41 -18t12 -50l-88 -540q-57 -360 281 -361q180 0 299 94l135 820q10 55 57 55q31 -1 47 -21t11 -51l-142 -846q-6 -31 -41 -57
q-163 -110 -367 -110t-320 125t-77 356l90 545q10 59 62 59z" />
    <glyph glyph-name="ucircumflex" unicode="&#xfb;" horiz-adv-x="1179" 
d="M432 1256q0 24 29 44l205 132q30 20 58 20t54 -22l142 -134q22 -20 22 -42t-14 -35q-14 -15 -35 -15t-41 19l-133 123l-203 -129q-44 -25 -70 1q-14 14 -14 38zM295 1065q25 0 41 -18t12 -50l-88 -540q-57 -360 281 -361q180 0 299 94l135 820q10 55 57 55q31 -1 47 -21
t11 -51l-142 -846q-6 -31 -41 -57q-163 -110 -367 -110t-320 125t-77 356l90 545q10 59 62 59z" />
    <glyph glyph-name="udieresis" unicode="&#xfc;" horiz-adv-x="1179" 
d="M866 1380q32 0 52 -19t20 -51t-23 -56t-55 -24t-53 20q-20 19 -21 50q0 32 24 56t56 24zM560 1380q34 0 53 -19t19 -51t-23 -56q-25 -24 -57 -24t-52 20q-20 19 -21 50q-1 32 23 56t58 24zM295 1065q25 0 41 -18t12 -50l-88 -540q-57 -360 281 -361q180 0 299 94l135 820
q10 55 57 55q31 -1 47 -21t11 -51l-142 -846q-6 -31 -41 -57q-163 -110 -367 -110t-320 125t-77 356l90 545q10 59 62 59z" />
    <glyph glyph-name="yacute" unicode="&#xfd;" horiz-adv-x="1028" 
d="M866 1456q49 0 49 -47q0 -33 -43 -55l-294 -140q-16 -6 -34 -6t-30 14q-14 14 -14 42q0 27 32 41l302 143q16 8 32 8zM454 205q8 0 17 12q59 121 72 141l372 662q25 45 60 45t49 -30t-4 -62l-539 -946q-170 -303 -352 -402q-35 -20 -61 -20q-57 0 -60 49q0 35 41 53
q176 90 328 361l-252 913q-10 37 7 61t48 23q46 0 60 -55l174 -643q20 -78 28 -146q4 -16 12 -16z" />
    <glyph glyph-name="thorn" unicode="&#xfe;" horiz-adv-x="1148" 
d="M84 -397q-27 0 -43 18t-12 45l286 1723q10 63 62 63q29 0 43 -19t10 -47l-59 -356q139 49 266 49q201 -1 313 -119t99 -305q-10 -119 -45 -274q-92 -401 -457 -401q-168 -1 -338 77l-66 -391q-10 -63 -59 -63zM541 96q270 0 342 283q39 157 49 285t-72 216t-239 87
q-113 0 -271 -64l-119 -729q47 -30 135 -54t175 -24z" />
    <glyph glyph-name="ydieresis" unicode="&#xff;" horiz-adv-x="1028" 
d="M705 1300q0 32 23 56t56 24q32 0 52 -19t20 -51t-22 -56t-56 -24q-33 0 -53 20q-20 19 -20 50zM478 1380q34 0 53 -19t19 -51t-23 -56q-25 -24 -57 -24t-52 20q-20 19 -21 50q-1 32 23 56t58 24zM454 205q8 0 17 12q59 121 72 141l372 662q25 45 60 45t49 -30t-4 -62
l-539 -946q-170 -303 -352 -402q-35 -20 -61 -20q-57 0 -60 49q0 35 41 53q176 90 328 361l-252 913q-10 37 7 61t48 23q46 0 60 -55l174 -643q20 -78 28 -146q4 -16 12 -16z" />
    <glyph glyph-name="Amacron" unicode="&#x100;" horiz-adv-x="1333" 
d="M672 1577q-25 0 -40 15q-16 15 -16 37t16 37t42 15h340q25 0 39 -14t14 -36t-15 -38t-40 -16h-340zM784 1335q-38 0 -67 -53l-350 -666h602l-131 668q-6 51 -54 51zM2 -8q-34 0 -51 26q-16 26 2 64l649 1227q74 143 189 143q133 0 161 -147l244 -1233q6 -35 -9 -58
t-48 -22q-54 0 -62 53l-90 467h-676l-252 -477q-23 -43 -57 -43z" />
    <glyph glyph-name="amacron" unicode="&#x101;" horiz-adv-x="1114" 
d="M520 1251q-25 -1 -40 15t-15 38t16 36t41 16h340q25 0 39 -14t14 -36t-15 -38t-40 -17h-340zM514 545q-141 -1 -229 -59t-88 -162q-1 -104 79 -168q80 -66 228 -66t266 74l49 299q-164 82 -305 82zM501 -20q-189 0 -304 94t-115 248t115 241q115 88 289 88t352 -82
l22 127q25 139 -45 206t-211 67q-62 1 -107 -13t-75 -23t-70 -28q-32 -10 -56 4t-24 47t42 56q42 24 131 46t161 21q184 0 291 -98t74 -291l-92 -543q-8 -49 -39 -69q-150 -98 -339 -98z" />
    <glyph glyph-name="Abreve" unicode="&#x102;" horiz-adv-x="1333" 
d="M846 1540q-76 0 -131 37t-78 109q-8 20 -8 49q0 53 49 53q37 0 45 -51q25 -101 120 -101t140 109q14 43 51 43q45 0 45 -45q0 -20 -10 -47q-27 -66 -87 -111t-136 -45zM784 1335q-38 0 -67 -53l-350 -666h602l-131 668q-6 51 -54 51zM2 -8q-34 0 -51 26q-16 26 2 64
l649 1227q74 143 189 143q133 0 161 -147l244 -1233q6 -35 -9 -58t-48 -22q-54 0 -62 53l-90 467h-676l-252 -477q-23 -43 -57 -43z" />
    <glyph glyph-name="abreve" unicode="&#x103;" horiz-adv-x="1116" 
d="M934 1407q0 -21 -18 -67t-78 -91t-137 -45t-132 37t-77 109q-8 20 -9 49q0 53 49 53q37 0 46 -51q26 -101 120 -101t140 109q14 43 51 43q45 0 45 -45zM514 545q-141 -1 -229 -59t-88 -162q-1 -104 79 -168q80 -66 228 -66t266 74l49 299q-164 82 -305 82zM501 -20
q-189 0 -304 94t-115 248t115 241q115 88 289 88t352 -82l22 127q25 139 -45 206t-211 67q-62 1 -107 -13t-75 -23t-70 -28q-32 -10 -56 4t-24 47t42 56q42 24 131 46t161 21q184 0 291 -98t74 -291l-92 -543q-8 -49 -39 -69q-150 -98 -339 -98z" />
    <glyph glyph-name="Aogonek" unicode="&#x104;" horiz-adv-x="1298" 
d="M1010 -408q-78 0 -133 48t-56 135q0 174 252 282l-86 455h-676l-252 -477q-23 -43 -57 -43t-51 26q-16 26 2 64l649 1227q43 83 86 113q44 30 104 30t103 -38t57 -109l242 -1225q6 -35 -5 -53t-50 -35q-221 -82 -221 -209q0 -49 28 -74t73 -25q44 0 77 23t48 23t27 -12
q13 -12 13 -34t-48 -57t-126 -35zM784 1335q-39 0 -67 -53l-350 -666h602l-131 668q-6 51 -54 51z" />
    <glyph glyph-name="aogonek" unicode="&#x105;" horiz-adv-x="1114" 
d="M511 545q-138 -1 -226 -59t-88 -162q-1 -104 79 -168q80 -66 228 -66t266 74l49 299q-170 82 -308 82zM648 -360q-79 0 -138 50t-59 140t75 156q-14 -2 -51 -2q-169 0 -281 92t-112 246t114 241q114 88 292 88t350 -82l22 127q25 139 -45 206t-211 67q-62 1 -107 -13
t-75 -23t-70 -28q-32 -10 -56 4t-24 47t43 56q43 24 130 46t167 21q176 0 284 -99t75 -290l-92 -543q-10 -59 -66 -86q-25 -12 -105 -49q-80 -36 -106 -66q-52 -61 -53 -113q0 -52 30 -77q31 -24 73 -24t75 22t48 22t27 -12t13 -34q0 -22 -33 -47q-55 -43 -134 -43z" />
    <glyph glyph-name="Cacute" unicode="&#x106;" horiz-adv-x="1314" 
d="M1051 1792q49 0 49 -47q0 -33 -43 -55l-295 -140q-16 -6 -34 -6t-30 14q-14 14 -14 42q0 26 33 40l301 144q16 8 33 8zM643 96q281 0 406 269q23 49 53 49q62 0 63 -54q0 -14 -14 -53q-61 -131 -187 -229t-325 -98q-256 0 -402 166t-124 429q12 168 61 353
q68 246 224 385q157 139 393 139q180 0 305 -91t168 -233q10 -26 10 -50t-16 -40t-48 -16t-49 47q-45 135 -145 201t-236 65q-178 -1 -308 -117t-180 -302t-64 -376t98 -317t317 -127z" />
    <glyph glyph-name="cacute" unicode="&#x107;" horiz-adv-x="1112" 
d="M893 1454q49 0 49 -47q0 -35 -43 -55l-295 -140q-14 -6 -32 -6t-32 14t-14 42q0 27 33 41l301 143q16 8 33 8zM541 96q209 0 286 197q17 45 49 45q64 0 64 -53q0 -43 -37 -100q-37 -58 -81 -104t-116 -74t-161 -27q-195 0 -324 122t-102 342q6 55 35 215q37 205 164 313
q128 108 288 108t259 -72t127 -155q43 -126 -46 -126q-33 0 -49 47q-33 100 -115 146t-190 47q-108 0 -200 -82q-91 -82 -126 -236q-18 -83 -36 -235t76 -235q96 -83 235 -83z" />
    <glyph glyph-name="Cdotaccent" unicode="&#x10a;" horiz-adv-x="1314" 
d="M857 1712q34 0 53 -19q20 -19 20 -51t-24 -56t-56 -24t-53 20q-20 19 -21 50q0 32 24 56t57 24zM643 96q281 0 406 269q23 49 53 49q62 0 63 -54q0 -14 -14 -53q-61 -131 -187 -229t-325 -98q-256 0 -402 166t-124 429q12 168 61 353q68 246 224 385q157 139 393 139
q180 0 305 -91t168 -233q10 -26 10 -50t-16 -40t-48 -16t-49 47q-45 135 -145 201t-236 65q-178 -1 -308 -117t-180 -302t-64 -376t98 -317t317 -127z" />
    <glyph glyph-name="cdotaccent" unicode="&#x10b;" horiz-adv-x="1112" 
d="M596 1300q0 32 24 56t57 24q34 0 53 -19q20 -19 20 -51t-24 -56t-56 -24t-54 20q-20 19 -20 50zM541 96q209 0 286 197q17 45 49 45q64 0 64 -53q0 -43 -37 -100q-37 -58 -81 -104t-116 -74t-161 -27q-195 0 -324 122t-102 342q6 55 35 215q37 205 164 313
q128 108 288 108t259 -72t127 -155q43 -126 -46 -126q-33 0 -49 47q-33 100 -115 146t-190 47q-108 0 -200 -82q-91 -82 -126 -236q-18 -83 -36 -235t76 -235q96 -83 235 -83z" />
    <glyph glyph-name="Ccaron" unicode="&#x10c;" horiz-adv-x="1314" 
d="M835 1534q-24 0 -51 22l-155 134q-19 14 -19 36t16 38q33 32 72 -1l144 -123l188 127q14 13 34 13t34 -16t14 -38t-29 -45l-190 -125q-34 -22 -58 -22zM643 96q281 0 406 269q23 49 53 49q62 0 63 -54q0 -14 -14 -53q-61 -131 -187 -229t-325 -98q-256 0 -402 166
t-124 429q12 168 61 353q68 246 224 385q157 139 393 139q180 0 305 -91t168 -233q10 -26 10 -50t-16 -40t-48 -16t-49 47q-45 135 -145 201t-236 65q-178 -1 -308 -117t-180 -302t-64 -376t98 -317t317 -127z" />
    <glyph glyph-name="ccaron" unicode="&#x10d;" horiz-adv-x="1114" 
d="M656 1202q-24 0 -50 23l-155 133q-19 14 -19 36t15 38t33 16t40 -16l144 -123l188 127q16 12 34 12t34 -15q14 -15 14 -38t-29 -45l-190 -125q-35 -23 -59 -23zM541 96q209 0 286 197q17 45 49 45q64 0 64 -53q0 -43 -37 -100q-37 -58 -81 -104t-116 -74t-161 -27
q-195 0 -324 122t-102 342q6 55 35 215q37 205 164 313q128 108 288 108t259 -72t127 -155q43 -126 -46 -126q-33 0 -49 47q-33 100 -115 146t-190 47q-108 0 -200 -82q-91 -82 -126 -236q-18 -83 -36 -235t76 -235q96 -83 235 -83z" />
    <glyph glyph-name="Dcaron" unicode="&#x10e;" horiz-adv-x="1400" 
d="M847 1534q-24 0 -50 22l-156 134q-18 14 -18 36t15 38q32 32 73 -1l143 -123l188 127q14 13 34 13t34 -16t14 -38t-28 -45l-191 -125q-34 -22 -58 -22zM575 113q254 0 401 112q194 150 236 584q29 242 -99 376t-378 134h-291l-198 -1206h329zM205 0q-43 0 -65 28t-13 72
l203 1231q8 47 39 74t77 27h291q303 0 463 -169t133 -440q-16 -154 -39 -252q-68 -307 -246 -439t-481 -132h-362z" />
    <glyph glyph-name="dcaron" unicode="&#x10f;" horiz-adv-x="1253" 
d="M1266 1114q-50 0 -49 43q-1 23 29 53t41 56q11 25 22 73l18 91q6 49 55 49q23 1 36 -17t9 -43l-18 -90q-20 -106 -80 -176q-39 -39 -63 -39zM530 96q154 0 283 80l115 694q-141 96 -318 97q-281 0 -344 -308q-19 -91 -36 -245t65 -236q81 -82 235 -82zM606 1079
q178 0 342 -90l66 404q10 55 59 55q29 0 44 -20t11 -52l-204 -1226q-6 -43 -47 -68q-164 -102 -355 -102q-190 0 -310 122t-93 342q15 115 35 228q37 201 155 304q119 103 297 103z" />
    <glyph glyph-name="Dcroat" unicode="&#x110;" horiz-adv-x="1384" 
d="M557 113q256 1 401 113t205 370q18 82 33 213q31 240 -98 375t-381 135h-289l-92 -555h362q25 0 41 -16q17 -16 17 -39t-16 -39t-46 -17h-377l-88 -540h328zM188 0q-45 0 -65 27t-12 73l90 553h-150q-27 1 -42 17t-15 38t17 38t44 18h164l94 567q8 47 39 74t78 27h289
q301 0 464 -169t134 -440q-16 -154 -39 -252q-70 -307 -248 -439t-481 -132h-361z" />
    <glyph glyph-name="dcroat" unicode="&#x111;" horiz-adv-x="1214" 
d="M530 96q154 0 283 80l115 694q-141 96 -318 97q-281 0 -344 -308q-18 -91 -36 -245t65 -236q81 -82 235 -82zM760 1198q-25 0 -39 14t-14 36t16 38t41 17h233l19 110q10 49 57 49q27 0 44 -16t13 -41l-16 -102h62q55 0 55 -50q1 -23 -17 -39t-47 -16h-69l-174 -1048
q-6 -43 -47 -68q-164 -102 -355 -102q-190 0 -310 122t-93 342q16 129 35 226q37 203 156 306q120 103 297 103t341 -90l33 209h-221z" />
    <glyph glyph-name="Emacron" unicode="&#x112;" horiz-adv-x="1245" 
d="M668 1577q-25 0 -40 15q-16 15 -16 37t16 37t42 15h340q25 0 39 -14t14 -36t-15 -38t-40 -16h-340zM449 1432h716q29 0 44 -16t15 -42q0 -25 -16 -40q-18 -15 -45 -15h-719l-90 -543h674q29 0 44 -16t15 -40t-17 -39t-42 -15h-690l-92 -553h710q29 -1 45 -17
q17 -16 17 -41t-18 -40t-44 -15h-747q-98 0 -82 102l205 1229q10 53 37 77t80 24z" />
    <glyph glyph-name="emacron" unicode="&#x113;" horiz-adv-x="1107" 
d="M545 1253q-25 -1 -40 15t-15 38t16 36t41 16h340q25 0 39 -14t14 -36t-15 -38t-40 -17h-340zM834 582q37 0 45 34q45 178 -35 264t-230 87q-150 0 -238 -94q-89 -94 -120 -291h578zM547 90q115 0 252 70q20 10 41 10t36 -15t15 -36q0 -41 -47 -66q-129 -74 -289 -73
q-221 0 -341 124t-95 328q14 127 37 232q90 416 469 415q180 -1 298 -115t72 -341l-6 -31q-29 -113 -131 -113h-616l-9 -51q-25 -158 65 -248t249 -90z" />
    <glyph glyph-name="Edotaccent" unicode="&#x116;" horiz-adv-x="1245" 
d="M766 1632q0 32 24 56t57 24q34 0 53 -19q20 -19 20 -51t-24 -56t-56 -24t-54 20q-20 19 -20 50zM449 1432h716q29 0 44 -16t15 -42q0 -25 -16 -40q-18 -15 -45 -15h-719l-90 -543h674q29 0 44 -16t15 -40t-17 -39t-42 -15h-690l-92 -553h710q29 -1 45 -17q17 -16 17 -41
t-18 -40t-44 -15h-747q-98 0 -82 102l205 1229q10 53 37 77t80 24z" />
    <glyph glyph-name="edotaccent" unicode="&#x117;" horiz-adv-x="1107" 
d="M704 1378q34 0 53 -19t19 -51t-24 -56t-56 -24q-33 0 -53 20q-20 19 -20 50t23 56q24 24 58 24zM834 582q37 0 45 34q45 178 -35 264t-230 87q-150 0 -238 -94q-89 -94 -120 -291h578zM547 90q115 0 252 70q20 10 41 10t36 -15t15 -36q0 -41 -47 -66q-129 -74 -289 -73
q-221 0 -341 124t-95 328q14 127 37 232q90 416 469 415q180 -1 298 -115t72 -341l-6 -31q-29 -113 -131 -113h-616l-9 -51q-25 -158 65 -248t249 -90z" />
    <glyph glyph-name="Eogonek" unicode="&#x118;" horiz-adv-x="1232" 
d="M830 -408q-79 0 -133 48t-54 135q0 133 152 225h-586q-98 0 -82 102l205 1229q14 100 117 101h716q29 0 44 -16t15 -42q0 -25 -16 -40q-18 -15 -45 -15h-719l-90 -543h674q29 0 44 -16t15 -40t-17 -39t-42 -15h-690l-92 -553h710q29 -1 45 -17t17 -39q0 -43 -53 -61
q-225 -80 -226 -213q0 -49 29 -74t73 -25t87 29q43 27 64 5q12 -12 12 -34q0 -24 -48 -58t-126 -34z" />
    <glyph glyph-name="eogonek" unicode="&#x119;" horiz-adv-x="1107" 
d="M834 582q37 0 45 34q43 172 -34 262t-229 89q-152 0 -240 -94q-89 -94 -120 -291h578zM663 -379q-79 0 -137 48q-57 48 -57 143t86 170q-215 -4 -339 120t-97 330q16 141 37 232q92 416 471 415q182 -1 298 -117t70 -339l-6 -31q-29 -113 -131 -113h-616l-9 -51
q-27 -158 65 -248t249 -90q115 0 252 70q20 10 41 10t36 -15t15 -36q0 -45 -80 -78q-177 -72 -223 -147q-23 -37 -23 -82q0 -96 101 -97q47 1 80 23t48 22t27 -12q13 -12 13 -36t-35 -48q-57 -43 -136 -43z" />
    <glyph glyph-name="Ecaron" unicode="&#x11a;" horiz-adv-x="1245" 
d="M833 1534q-24 0 -51 22l-155 134q-19 14 -19 36t16 38q32 31 72 -1l144 -123l188 127q38 29 68 -3q14 -16 14 -38t-29 -45l-190 -125q-34 -22 -58 -22zM449 1432h716q29 0 44 -16t15 -42q0 -25 -16 -40q-18 -15 -45 -15h-719l-90 -543h674q29 0 44 -16t15 -40t-17 -39
t-42 -15h-690l-92 -553h710q29 -1 45 -17q17 -16 17 -41t-18 -40t-44 -15h-747q-98 0 -82 102l205 1229q10 53 37 77t80 24z" />
    <glyph glyph-name="ecaron" unicode="&#x11b;" horiz-adv-x="1112" 
d="M689 1200q-24 0 -50 23l-156 133q-18 16 -18 38t15 36q16 16 34 16t39 -16l143 -123l189 127q17 12 35 12t32 -15t14 -38t-28 -45l-190 -125q-35 -23 -59 -23zM834 582q37 0 45 34q45 178 -35 264t-230 87q-150 0 -238 -94q-89 -94 -120 -291h578zM547 90q115 0 252 70
q20 10 41 10t36 -15t15 -36q0 -41 -47 -66q-129 -74 -289 -73q-221 0 -341 124t-95 328q14 127 37 232q90 416 469 415q180 -1 298 -115t72 -341l-6 -31q-29 -113 -131 -113h-616l-9 -51q-25 -158 65 -248t249 -90z" />
    <glyph glyph-name="Gbreve" unicode="&#x11e;" horiz-adv-x="1388" 
d="M866 1540q-76 0 -131 37t-78 109q-8 20 -8 49q0 53 49 53q37 0 45 -51q25 -101 120 -101t141 109q14 43 51 43q45 0 45 -45q0 -20 -10 -47q-28 -66 -88 -111t-136 -45zM1149 739q98 0 84 -92q-10 -76 -29 -174q-39 -217 -181 -355t-387 -138q-244 0 -394 166t-131 415
q12 182 61 369q66 250 225 386q160 136 389 136q168 0 296 -83t178 -224q10 -31 10 -55t-16 -40t-48 -16q-31 0 -45 39q-39 123 -139 193t-242 69q-182 1 -310 -113t-183 -325q-39 -143 -59 -336t95 -329q114 -136 307 -136t310 102t147 271l29 158h-332q-27 0 -44 16
t-17 41t18 40t47 15h361z" />
    <glyph glyph-name="gbreve" unicode="&#x11f;" horiz-adv-x="1183" 
d="M808 1204q-163 0 -210 146q-8 20 -8 49q0 53 49 53q37 0 45 -51q25 -101 120 -101t140 109q14 43 51 43q45 0 45 -45q0 -21 -18 -67t-78 -91q-59 -45 -136 -45zM647 967q-289 0 -350 -308q-17 -80 -37 -227t54 -233t231 -86q158 0 305 106l108 660q-141 88 -311 88z
M84 -218q0 26 15 42t40 16t51 -22q120 -102 270 -102t249 87q98 88 120 279q-152 -78 -288 -78q-209 0 -314 122q-104 122 -77 331q10 94 36 223q74 399 463 399q238 0 400 -114q32 -27 26 -70l-139 -850q-68 -440 -480 -440q-94 0 -189 39t-150 88q-33 25 -33 50z" />
    <glyph glyph-name="Gdotaccent" unicode="&#x120;" horiz-adv-x="1388" 
d="M867 1712q33 0 53 -19t20 -51t-24 -56t-56 -24t-53 20q-20 19 -21 50q0 32 24 56t57 24zM1149 739q98 0 84 -92q-10 -76 -29 -174q-39 -217 -181 -355t-387 -138q-244 0 -394 166t-131 415q12 182 61 369q66 250 225 386q160 136 389 136q168 0 296 -83t178 -224
q10 -31 10 -55t-16 -40t-48 -16q-31 0 -45 39q-39 123 -139 193t-242 69q-182 1 -310 -113t-183 -325q-39 -143 -59 -336t95 -329q114 -136 307 -136t310 102t147 271l29 158h-332q-27 0 -44 16t-17 41t18 40t47 15h361z" />
    <glyph glyph-name="gdotaccent" unicode="&#x121;" horiz-adv-x="1183" 
d="M814 1380q34 0 53 -19t19 -51t-23 -56q-25 -24 -57 -24t-52 20q-20 19 -21 50q-1 32 23 56t58 24zM647 967q-289 0 -350 -308q-17 -80 -37 -227t54 -233t231 -86q158 0 305 106l108 660q-141 88 -311 88zM84 -218q0 26 15 42t40 16t51 -22q120 -102 270 -102t249 87
q98 88 120 279q-152 -78 -288 -78q-209 0 -314 122q-104 122 -77 331q10 94 36 223q74 399 463 399q238 0 400 -114q32 -27 26 -70l-139 -850q-68 -440 -480 -440q-94 0 -189 39t-150 88q-33 25 -33 50z" />
    <glyph glyph-name="Gcommaaccent" unicode="&#x122;" horiz-adv-x="1388" 
d="M472 -469q-52 0 -52 43q0 20 22 43q61 66 76 160l21 112q10 49 55 50q25 -1 39 -19t8 -47l-20 -104q-25 -131 -99 -207q-26 -31 -50 -31zM1149 739q98 0 84 -92q-10 -76 -29 -174q-39 -217 -181 -355t-387 -138q-244 0 -394 166t-131 415q12 182 61 369q66 250 225 386
q160 136 389 136q168 0 296 -83t178 -224q10 -31 10 -55t-16 -40t-48 -16q-31 0 -45 39q-39 123 -139 193t-242 69q-182 1 -310 -113t-183 -325q-39 -143 -59 -336t95 -329q114 -136 307 -136t310 102t147 271l29 158h-332q-27 0 -44 16t-17 41t18 40t47 15h361z" />
    <glyph glyph-name="gcommaaccent" unicode="&#x123;" horiz-adv-x="1183" 
d="M776 1135q-52 0 -51 43q0 20 23 43q61 66 75 159l21 113q8 49 55 49q25 0 39 -18t8 -47l-20 -105q-25 -131 -99 -207q-27 -30 -51 -30zM647 967q-289 0 -350 -308q-17 -80 -37 -227t54 -233t231 -86q158 0 305 106l108 660q-141 88 -311 88zM84 -218q0 26 15 42t40 16
t51 -22q120 -102 270 -102t249 87q98 88 120 279q-152 -78 -288 -78q-209 0 -314 122q-104 122 -77 331q10 94 36 223q74 399 463 399q238 0 400 -114q32 -27 26 -70l-139 -850q-68 -440 -480 -440q-94 0 -189 39t-150 88q-33 25 -33 50z" />
    <glyph glyph-name="imacron" unicode="&#x12b;" horiz-adv-x="559" 
d="M338 1065q29 0 45 -19t10 -53l-157 -946q-10 -55 -58 -55q-29 0 -45 19t-12 52l158 947q10 55 59 55zM213 1253q-25 -1 -40 15t-15 38t16 36t41 16h340q25 0 39 -14t14 -36t-15 -38t-40 -17h-340z" />
    <glyph glyph-name="Iogonek" unicode="&#x12e;" horiz-adv-x="561" 
d="M90 -408q-78 0 -131 46t-53 131q0 176 250 276q-8 23 -2 53l215 1286q10 57 57 58q29 0 45 -20t12 -54l-221 -1321q-4 -37 -47 -57q-59 -25 -97 -44q-38 -20 -79 -66t-41 -99q0 -96 100 -96q47 0 87 29t67 4q12 -12 12 -34t-48 -57t-126 -35z" />
    <glyph glyph-name="iogonek" unicode="&#x12f;" horiz-adv-x="561" 
d="M483 1368q1 -34 -23 -62t-61 -28t-59 22t-21 58q0 36 25 62t62 26t57 -22t20 -56zM64 -408q-79 0 -132 46t-53 131q0 172 252 276q-8 16 -4 55l154 910q10 55 59 55q29 0 44 -19t11 -53l-157 -946q-8 -41 -52 -59q-155 -63 -189 -122q-25 -44 -26 -85q0 -96 101 -96
q43 0 86 29t67 4q39 -36 -35 -91q-48 -35 -126 -35z" />
    <glyph glyph-name="Idotaccent" unicode="&#x130;" horiz-adv-x="561" 
d="M443 1712q33 0 53 -19t20 -51t-24 -56t-56 -24q-33 0 -53 20q-20 19 -21 50q0 32 24 56t57 24zM182 -8q-29 0 -45 19t-12 52l221 1321q10 57 60 58q29 0 45 -22t10 -52l-221 -1321q-10 -55 -58 -55z" />
    <glyph glyph-name="dotlessi" unicode="&#x131;" horiz-adv-x="499" 
d="M334 1065q29 0 45 -19t10 -53l-158 -946q-10 -55 -57 -55q-29 0 -45 19t-12 52l157 947q10 55 60 55z" />
    <glyph glyph-name="Kcommaaccent" unicode="&#x136;" horiz-adv-x="1271" 
d="M424 -469q-52 0 -51 43q0 20 22 43q61 66 76 160l21 112q8 49 55 50q25 -1 39 -19t8 -47l-21 -104q-25 -131 -98 -207q-27 -31 -51 -31zM180 -8q-27 0 -43 19t-12 46l221 1325q10 59 60 60q29 0 44 -20t11 -48l-99 -588h62q36 0 58 8t59 44l616 579q25 25 49 25t41 -16
t17 -42t-29 -51l-655 -604l520 -639q14 -20 14 -43t-15 -39t-44 -16t-49 26l-486 603q-26 35 -48 43t-62 8h-66l-104 -623q-10 -57 -60 -57z" />
    <glyph glyph-name="kcommaaccent" unicode="&#x137;" horiz-adv-x="1067" 
d="M344 -469q-52 0 -51 43q0 20 22 43q61 66 76 160l21 112q10 49 55 50q25 -1 39 -19t8 -47l-20 -104q-25 -131 -99 -207q-27 -31 -51 -31zM406 1448q29 0 45 -20t10 -52l-127 -772h59q43 0 67 10t56 43l410 394q22 23 46 23t39 -15q15 -14 15 -41t-25 -49l-444 -424
l334 -453q18 -20 18 -45t-15 -40t-43 -15t-50 28l-305 420q-24 31 -46 42t-65 12h-70l-75 -447q-10 -55 -58 -55q-29 0 -45 19t-12 52l221 1330q11 55 60 55z" />
    <glyph glyph-name="Lacute" unicode="&#x139;" horiz-adv-x="1095" 
d="M721 1792q49 0 49 -47q0 -33 -43 -55l-295 -140q-14 -6 -32 -6t-32 14t-14 42q0 26 33 40l301 144q16 8 33 8zM952 113q29 -1 45 -17q17 -16 17 -41t-18 -40t-44 -15h-743q-98 0 -82 100l213 1282q10 59 59 60q29 0 44 -20t12 -54l-211 -1255h708z" />
    <glyph glyph-name="lacute" unicode="&#x13a;" horiz-adv-x="522" 
d="M715 1792q49 0 49 -47q0 -33 -43 -55l-295 -140q-16 -6 -34 -6t-30 14q-14 14 -14 42q0 26 33 40l301 144q16 8 33 8zM387 1448q29 0 45 -20t10 -52l-221 -1329q-10 -55 -57 -55q-30 0 -46 19t-12 52l222 1330q10 55 59 55z" />
    <glyph glyph-name="Lcommaaccent" unicode="&#x13b;" horiz-adv-x="1095" 
d="M454 -469q-50 0 -53 43q0 20 23 43q61 66 76 160l20 112q8 49 55 50q25 -1 39 -19t9 -47l-21 -104q-25 -131 -98 -207q-26 -31 -50 -31zM952 113q29 -1 45 -17q17 -16 17 -41t-18 -40t-44 -15h-743q-98 0 -82 100l213 1282q10 59 59 60q29 0 44 -20t12 -54l-211 -1255
h708z" />
    <glyph glyph-name="lcommaaccent" unicode="&#x13c;" horiz-adv-x="522" 
d="M18 -469q-49 0 -51 43q0 20 23 43q61 66 76 160l20 112q8 49 55 50q25 -1 39 -19t8 -47l-20 -104q-25 -131 -98 -207q-28 -31 -52 -31zM387 1448q29 0 45 -20t10 -52l-221 -1329q-10 -55 -57 -55q-30 0 -46 19t-12 52l222 1330q10 55 59 55z" />
    <glyph glyph-name="Lcaron" unicode="&#x13d;" horiz-adv-x="1095" 
d="M648 1114q-50 0 -50 43q0 23 30 53t41 56q11 25 21 73l19 91q6 49 55 49q23 1 36 -17t9 -43l-18 -90q-20 -106 -80 -176q-39 -39 -63 -39zM952 113q29 -1 45 -17q17 -16 17 -41t-18 -40t-44 -15h-743q-98 0 -82 100l213 1282q10 59 59 60q29 0 44 -20t12 -54l-211 -1255
h708z" />
    <glyph glyph-name="lcaron" unicode="&#x13e;" horiz-adv-x="632" 
d="M558 1114q-50 0 -50 43q0 23 30 53t41 56q11 25 21 73l18 91q6 49 56 49q23 1 36 -17t9 -43l-19 -90q-20 -106 -79 -176q-39 -39 -63 -39zM406 1448q29 0 45 -20t10 -52l-221 -1329q-10 -55 -58 -55q-29 0 -45 19t-12 52l221 1330q10 55 60 55z" />
    <glyph glyph-name="Lslash" unicode="&#x141;" horiz-adv-x="1132" 
d="M991 113q29 -1 44 -17t15 -41t-16 -40q-18 -15 -45 -15h-741q-100 0 -84 100l82 498l-119 -68q-20 -8 -37 -8t-30 14t-13 42t37 49l184 104l109 651q10 59 59 60q29 0 45 -20t11 -54l-95 -569l234 135q17 10 37 10t34 -13t14 -41t-36 -50l-307 -172l-92 -555h710z" />
    <glyph glyph-name="lslash" unicode="&#x142;" horiz-adv-x="587" 
d="M59 555q-43 0 -45 47q0 33 35 51l189 107l106 633q10 55 57 55q29 0 45 -20t13 -52l-92 -545l137 78q41 26 68 -3q14 -13 14 -38t-37 -47l-203 -114l-108 -660q-10 -55 -60 -55q-29 0 -44 19t-11 52l94 572l-127 -72q-20 -8 -31 -8z" />
    <glyph glyph-name="Nacute" unicode="&#x143;" horiz-adv-x="1562" 
d="M1171 1792q49 0 50 -47q0 -33 -43 -55l-295 -140q-15 -6 -33 -6t-32 14t-13 42q0 26 33 40l301 144q16 8 32 8zM182 -8q-27 0 -44 19t-13 48l213 1274q18 109 108 109q66 0 99 -72l596 -1237h2q35 225 63 387l144 864q10 57 59 58q29 0 45 -22t10 -54l-213 -1262
q-20 -113 -106 -112q-66 0 -101 74l-591 1239h-4q-4 -23 -68 -412l-141 -842q-10 -59 -58 -59z" />
    <glyph glyph-name="nacute" unicode="&#x144;" horiz-adv-x="1212" 
d="M958 1454q49 0 50 -47q0 -35 -43 -55l-295 -140q-14 -6 -32 -6t-32 14t-14 42q0 27 33 41l301 143q16 8 32 8zM899 -8q-27 0 -43 19t-10 48l98 576q16 100 -3 171q-19 72 -67 102q-85 53 -196 55q-168 0 -322 -89l-137 -827q-10 -55 -57 -55q-29 0 -45 19t-13 52l140 844
q8 43 51 68q181 104 377 104q196 1 311 -103t76 -337l-98 -588q-10 -59 -62 -59z" />
    <glyph glyph-name="Ncommaaccent" unicode="&#x145;" horiz-adv-x="1562" 
d="M550 -469q-52 0 -52 43q0 20 22 43q61 66 76 160l20 112q10 49 56 50q25 -1 39 -19t8 -47l-21 -104q-25 -131 -98 -207q-26 -31 -50 -31zM182 -8q-27 0 -44 19t-13 48l213 1274q18 109 108 109q66 0 99 -72l596 -1237h2q35 225 63 387l144 864q10 57 59 58q29 0 45 -22
t10 -54l-213 -1262q-20 -113 -106 -112q-66 0 -101 74l-591 1239h-4q-4 -23 -68 -412l-141 -842q-10 -59 -58 -59z" />
    <glyph glyph-name="ncommaaccent" unicode="&#x146;" horiz-adv-x="1212" 
d="M414 -469q-50 0 -52 43q0 20 23 43q61 66 76 160l20 112q10 49 56 50q25 -1 39 -19t8 -47l-21 -104q-25 -131 -98 -207q-27 -31 -51 -31zM899 -8q-27 0 -43 19t-10 48l98 576q16 100 -3 171q-19 72 -67 102q-85 53 -196 55q-168 0 -322 -89l-137 -827q-10 -55 -57 -55
q-29 0 -45 19t-13 52l140 844q8 43 51 68q181 104 377 104q196 1 311 -103t76 -337l-98 -588q-10 -59 -62 -59z" />
    <glyph glyph-name="Ncaron" unicode="&#x147;" horiz-adv-x="1562" 
d="M938 1534q-25 0 -51 22l-156 134q-18 14 -18 36t15 38q32 32 73 -1l143 -123l189 127q14 13 33 13q20 0 34 -16t14 -38t-28 -45l-191 -125q-32 -22 -57 -22zM182 -8q-27 0 -44 19t-13 48l213 1274q18 109 108 109q66 0 99 -72l596 -1237h2q35 225 63 387l144 864
q10 57 59 58q29 0 45 -22t10 -54l-213 -1262q-20 -113 -106 -112q-66 0 -101 74l-591 1239h-4q-4 -23 -68 -412l-141 -842q-10 -59 -58 -59z" />
    <glyph glyph-name="ncaron" unicode="&#x148;" horiz-adv-x="1212" 
d="M706 1202q-24 0 -51 23l-155 133q-18 14 -18 36t14 38q16 16 34 16t39 -16l144 -123l188 127q17 12 35 12t32 -15t15 -38q0 -23 -29 -45l-190 -125q-34 -23 -58 -23zM899 -8q-27 0 -43 19t-10 48l98 576q16 100 -3 171q-19 72 -67 102q-85 53 -196 55q-168 0 -322 -89
l-137 -827q-10 -55 -57 -55q-29 0 -45 19t-13 52l140 844q8 43 51 68q181 104 377 104q196 1 311 -103t76 -337l-98 -588q-10 -59 -62 -59z" />
    <glyph glyph-name="Omacron" unicode="&#x14c;" horiz-adv-x="1390" 
d="M715 1577q-25 0 -40 15t-15 37t16 37t41 15h340q25 0 39 -14t14 -36t-15 -38t-40 -16h-340zM655 96q190 0 319 112q128 112 172 293t59 375t-103 326q-119 133 -321 133q-203 0 -333 -127t-174 -334q-81 -358 -21 -518q60 -161 246 -231q76 -29 156 -29zM660 -20
q-236 0 -407 164t-140 450q10 111 41 278q49 264 214 422q164 158 416 158t409 -173t130 -425q-20 -190 -47 -324q-53 -262 -216 -406q-164 -144 -400 -144z" />
    <glyph glyph-name="omacron" unicode="&#x14d;" horiz-adv-x="1140" 
d="M528 1253q-25 -1 -40 15t-15 38t16 36t41 16h340q25 0 39 -14q15 -14 15 -36t-16 -38t-40 -17h-340zM618 967q-285 0 -354 -320q-20 -92 -34 -210q-14 -119 38 -199q90 -142 279 -142q276 0 344 316q21 92 33 211q20 166 -78 255t-228 89zM620 1079q181 0 309 -120
t111 -328q-33 -399 -199 -549q-114 -102 -295 -102t-315 119q-133 120 -116 331q8 100 41 250q43 199 162 299q121 100 302 100z" />
    <glyph glyph-name="Ohungarumlaut" unicode="&#x150;" horiz-adv-x="1390" 
d="M938 1593q0 25 29 47l207 154q51 41 81 6q15 -14 15 -40t-25 -44l-213 -157q-20 -19 -42 -19t-38 14q-14 14 -14 39zM629 1594q0 26 26 46l207 154q48 39 83 6q15 -14 15 -40t-26 -44l-211 -157q-23 -18 -45 -19q-49 0 -49 54zM655 96q190 0 319 112q128 112 172 293
t59 375t-103 326q-119 133 -321 133q-203 0 -333 -127t-174 -334q-81 -358 -21 -518q60 -161 246 -231q76 -29 156 -29zM660 -20q-236 0 -407 164t-140 450q10 111 41 278q49 264 214 422q164 158 416 158t409 -173t130 -425q-20 -190 -47 -324q-53 -262 -216 -406
q-164 -144 -400 -144z" />
    <glyph glyph-name="ohungarumlaut" unicode="&#x151;" horiz-adv-x="1140" 
d="M803 1258q0 24 28 47l207 153q50 40 82 6q14 -14 14 -40t-24 -44l-213 -157q-21 -19 -43 -19t-36 14q-14 16 -15 40zM494 1258q0 26 26 47l207 153q48 39 83 6q16 -14 16 -40t-27 -44l-211 -157q-23 -18 -45 -19q-49 0 -49 54zM618 967q-285 0 -354 -320
q-20 -92 -34 -210q-14 -119 38 -199q90 -142 279 -142q276 0 344 316q21 92 33 211q20 166 -78 255t-228 89zM620 1079q181 0 309 -120t111 -328q-33 -399 -199 -549q-114 -102 -295 -102t-315 119q-133 120 -116 331q8 100 41 250q43 199 162 299q121 100 302 100z" />
    <glyph glyph-name="OE" unicode="&#x152;" horiz-adv-x="2093" 
d="M809 1335q-434 0 -537 -469q-27 -131 -43 -274q-25 -220 101 -358t362 -138q181 1 285 17l199 1202q-168 20 -367 20zM2013 1432q29 0 44 -16t15 -42q0 -25 -16 -40q-18 -15 -45 -15h-719l-90 -543h674q29 0 44 -16t15 -40t-17 -39t-42 -15h-690l-92 -553h710
q29 -1 45 -17q17 -16 17 -41t-18 -40t-44 -15h-745q-4 0 -135 -9t-240 -9q-282 0 -442 174t-129 448q18 147 41 264q106 582 667 582l473 -18h719z" />
    <glyph glyph-name="oe" unicode="&#x153;" horiz-adv-x="1875" 
d="M549 -20q-186 0 -321 123q-134 124 -111 343q8 84 37 224q39 201 159 305q121 104 303 104q126 0 230 -59t151 -164q123 223 398 223q183 0 296 -113t74 -343l-6 -31q-23 -113 -131 -113h-616l-8 -51q-25 -158 65 -248t246 -90q117 0 254 70q20 10 41 10t36 -15t15 -45
t-47 -57q-130 -73 -282 -73t-255 56q-102 56 -149 154q-125 -210 -379 -210zM551 96q272 0 338 307q23 104 35 213q20 166 -75 258t-233 93q-281 0 -350 -310q-16 -68 -32 -202q-16 -135 32 -215q88 -144 285 -144zM1604 582q37 0 45 34q43 172 -34 262t-229 89
q-152 0 -239 -93q-88 -93 -121 -292h578z" />
    <glyph glyph-name="Racute" unicode="&#x154;" horiz-adv-x="1378" 
d="M1030 1792q49 0 49 -47q0 -33 -43 -55l-295 -140q-16 -6 -33 -6q-16 0 -30 14t-14 42q0 26 32 40l301 144q16 8 33 8zM731 702q199 0 309 90t111 237q0 146 -95 218t-268 72h-335l-103 -617h381zM623 594h-291l-92 -543q-10 -59 -58 -59q-27 0 -44 19t-13 50l213 1274
q16 96 113 97h354q209 0 338 -104t129 -288q0 -186 -123 -303t-332 -133l322 -516q14 -24 14 -44t-16 -36t-46 -16t-53 37l-315 499q-23 38 -41 52t-59 14z" />
    <glyph glyph-name="racute" unicode="&#x155;" horiz-adv-x="753" 
d="M776 1452q49 0 49 -47q0 -33 -43 -55l-295 -140q-16 -6 -33 -6q-16 0 -30 14t-14 42q0 26 32 40l301 144q16 8 33 8zM803 988q0 -62 -58 -62q-4 0 -63 16t-139 16q-170 0 -209 -217l-115 -694q-10 -55 -59 -55q-29 0 -45 19t-13 52l117 703q53 313 338 313q115 0 199 -37
q47 -24 47 -54z" />
    <glyph glyph-name="Rcommaaccent" unicode="&#x156;" horiz-adv-x="1378" 
d="M444 -469q-49 0 -51 43q0 20 23 43q61 66 76 160l20 112q8 49 55 50q25 -1 39 -19t8 -47l-20 -104q-25 -131 -98 -207q-28 -31 -52 -31zM731 702q199 0 309 90t111 237q0 146 -95 218t-268 72h-335l-103 -617h381zM623 594h-291l-92 -543q-10 -59 -58 -59q-27 0 -44 19
t-13 50l213 1274q16 96 113 97h354q209 0 338 -104t129 -288q0 -186 -123 -303t-332 -133l322 -516q14 -24 14 -44t-16 -36t-46 -16t-53 37l-315 499q-23 38 -41 52t-59 14z" />
    <glyph glyph-name="rcommaaccent" unicode="&#x157;" horiz-adv-x="753" 
d="M20 -469q-49 0 -51 43q0 20 23 43q61 66 76 160l20 112q10 49 55 50q25 -1 39 -19t8 -47l-20 -104q-25 -131 -98 -207q-28 -31 -52 -31zM805 988q0 -62 -57 -62q-4 0 -64 16t-139 16q-170 0 -209 -217l-115 -694q-10 -55 -59 -55q-29 0 -45 19t-13 52l117 703
q53 313 338 313q115 0 199 -37q47 -24 47 -54z" />
    <glyph glyph-name="Rcaron" unicode="&#x158;" horiz-adv-x="1378" 
d="M783 1534q-24 0 -50 22l-155 134q-18 14 -18 36t14 38q32 32 73 -1l144 -123l188 127q38 29 68 -3q14 -16 14 -38t-29 -45l-190 -125q-35 -22 -59 -22zM731 702q199 0 309 90t111 237q0 146 -95 218t-268 72h-335l-103 -617h381zM623 594h-291l-92 -543q-10 -59 -58 -59
q-27 0 -44 19t-13 50l213 1274q16 96 113 97h354q209 0 338 -104t129 -288q0 -186 -123 -303t-332 -133l322 -516q14 -24 14 -44t-16 -36t-46 -16t-53 37l-315 499q-23 38 -41 52t-59 14z" />
    <glyph glyph-name="rcaron" unicode="&#x159;" horiz-adv-x="753" 
d="M573 1200q-25 0 -51 23l-155 133q-19 16 -19 38t16 36q16 16 33 16q18 0 39 -16l144 -123l188 127q14 12 34 12t34 -15t14 -38t-29 -45l-190 -125q-33 -23 -58 -23zM803 988q0 -62 -58 -62q-4 0 -63 16t-139 16q-170 0 -209 -217l-115 -694q-10 -55 -59 -55q-29 0 -45 19
t-13 52l117 703q53 313 338 313q115 0 199 -37q47 -24 47 -54z" />
    <glyph glyph-name="Sacute" unicode="&#x15a;" horiz-adv-x="1263" 
d="M1028 1792q49 0 49 -47q0 -33 -43 -55l-295 -140q-14 -6 -32 -6q-17 0 -31 14t-14 42q0 26 32 40l301 144q16 8 33 8zM78 266q18 0 30 -4q16 -5 35 -22q66 -55 191 -100q126 -46 270 -46t254 79t111 203q0 124 -99 188q-53 34 -98 53t-134 53q-88 34 -152 64
q-178 85 -231 190q-34 66 -34 145q0 168 139 274t340 107q127 0 250 -42q224 -76 224 -146q0 -23 -16 -40q-16 -18 -42 -18q-27 0 -57 21q-177 111 -353 111t-271 -80q-95 -79 -95 -199t148 -198q54 -29 157 -67q103 -39 149 -57t110 -55q183 -105 182 -289t-139 -298
t-357 -113q-158 0 -314 57t-213 114t-17 99q14 16 32 16z" />
    <glyph glyph-name="sacute" unicode="&#x15b;" horiz-adv-x="1024" 
d="M883 1454q49 0 49 -47q0 -35 -43 -55l-295 -140q-16 -6 -34 -6t-30 14q-14 14 -14 42q0 27 33 41l301 143q16 8 33 8zM848 276q0 -126 -102 -211t-244 -85q-144 0 -260 51q-188 83 -187 143q-1 23 15 38t34 15t56 -22q158 -115 319 -115q113 0 184 53t71 134t-61 122
q-40 29 -148 76t-151 73q-44 26 -88 60q-89 70 -87 178q0 137 103 215q104 78 230 78t220 -35q94 -36 126 -66q54 -51 19 -88q-34 -37 -86 -1q-121 78 -243 78t-188 -49q-67 -48 -67 -122t48 -112q47 -38 193 -102t198 -105q96 -75 96 -201z" />
    <glyph glyph-name="Scedilla" unicode="&#x15e;" horiz-adv-x="1263" 
d="M47 210q0 24 15 40q14 16 32 16t32 -5t52 -36q61 -45 179 -88q119 -43 263 -43t254 79t111 204q0 125 -98 187q-53 34 -99 53t-134 53q-173 65 -282 141q-136 95 -135 261q1 165 140 271t340 107q127 0 250 -42q223 -76 223 -146q0 -23 -15 -40q-15 -18 -42 -18t-58 21
q-178 111 -353 111t-270 -80q-96 -79 -96 -199t149 -198q56 -30 157 -68q102 -38 148 -56t111 -55t99 -74q82 -91 82 -219q0 -180 -138 -294t-358 -113h-18l-49 -95q69 4 113 -36t44 -103q0 -92 -79 -150t-177 -85q-17 -5 -37 -5q-45 0 -45 41q0 33 39 45q57 18 89 30t74 47
q42 34 42 75q0 59 -70 59l-67 -12q-25 -1 -35 19t2 47l64 131q-133 16 -251 66t-171 104q-27 28 -27 52z" />
    <glyph glyph-name="scedilla" unicode="&#x15f;" horiz-adv-x="1005" 
d="M55 173q-1 24 15 39t34 15t56 -22q158 -115 319 -115q113 0 184 53t71 134t-61 122q-40 29 -148 76t-151 73q-44 26 -88 60q-89 70 -87 178q0 137 103 215q104 78 230 78t220 -35q94 -36 126 -66q54 -51 19 -88q-34 -37 -86 -1q-121 78 -243 78t-188 -49
q-67 -48 -67 -122t48 -112q47 -38 193 -102t198 -105q96 -77 96 -201t-99 -208t-255 -88l-50 -95q68 4 113 -36t45 -103q0 -92 -79 -150t-177 -85q-17 -5 -37 -5q-45 0 -45 41q0 33 39 45q57 18 89 30t74 47q42 34 42 75q0 59 -70 59l-67 -12q-25 -1 -35 19t2 47l63 131
q-104 14 -195 59t-121 73t-30 53z" />
    <glyph glyph-name="Scaron" unicode="&#x160;" horiz-adv-x="1263" 
d="M782 1534q-25 0 -51 22l-156 134q-18 14 -18 36t15 38q32 32 73 -1l143 -123l189 127q13 13 33 13t34 -16q38 -42 -14 -83l-190 -125q-33 -22 -58 -22zM80 266q18 0 30 -4q16 -5 35 -22q66 -55 191 -100q126 -46 270 -46t254 79t111 203q0 124 -99 188q-53 34 -98 53
t-134 53q-88 34 -152 64q-178 85 -231 190q-34 66 -34 145q0 168 139 274t340 107q127 0 250 -42q224 -76 224 -146q0 -23 -16 -40q-16 -18 -42 -18q-27 0 -57 21q-178 111 -353 111q-174 0 -270 -80q-96 -79 -96 -199t148 -198q54 -29 157 -67q103 -39 149 -57t110 -55
t99 -74q84 -91 82 -219q0 -180 -138 -294t-357 -113q-158 0 -314 57t-212 114q-57 57 -18 99q14 16 32 16z" />
    <glyph glyph-name="scaron" unicode="&#x161;" horiz-adv-x="1019" 
d="M656 1178q-24 0 -50 22l-155 133q-19 15 -19 37t15 38t33 15q18 0 40 -16l144 -123l188 127q16 12 34 12t34 -15q14 -15 14 -38t-29 -45l-190 -125q-35 -22 -59 -22zM848 276q0 -126 -102 -211t-244 -85q-144 0 -260 51q-188 83 -187 143q-1 23 15 38t34 15t56 -22
q158 -115 319 -115q113 0 184 53t71 134t-61 122q-40 29 -148 76t-151 73q-44 26 -88 60q-89 70 -87 178q0 137 103 215q104 78 230 78t220 -35q94 -36 126 -66q54 -51 19 -88q-34 -37 -86 -1q-121 78 -243 78t-188 -49q-67 -48 -67 -122t48 -112q47 -38 193 -102t198 -105
q96 -75 96 -201z" />
    <glyph glyph-name="Tcommaaccent" unicode="&#x162;" horiz-adv-x="1128" 
d="M268 -586q-24 0 -38 12t-13 32q0 19 23 42q61 66 75 160l21 113q8 49 55 49q25 0 39 -18t8 -48l-20 -104q-25 -131 -99 -207q-27 -31 -51 -31zM156 1319q-29 0 -45 16t-17 41q0 25 18 40t44 16h1003q29 0 45 -16t16 -42q0 -25 -16 -40q-18 -15 -45 -15h-450l-213 -1268
q-10 -59 -60 -59q-27 0 -43 18t-12 49l211 1260h-436z" />
    <glyph glyph-name="tcommaaccent" unicode="&#x163;" horiz-adv-x="841" 
d="M278 -469q-49 0 -51 43q0 20 23 43q61 66 76 160l20 112q10 49 55 50q25 -1 39 -19t9 -47l-21 -104q-25 -131 -98 -207q-28 -31 -52 -31zM436 -20q-332 0 -274 356l145 881q8 59 64 59q27 0 44 -18t13 -46l-31 -176h312q59 0 59 -55q0 -23 -17 -38t-42 -15h-330l-98 -590
q-21 -123 9 -182t142 -60q52 0 112 24t76 23q16 0 32 -15q15 -14 15 -46t-49 -57q-86 -45 -182 -45z" />
    <glyph glyph-name="Tcaron" unicode="&#x164;" horiz-adv-x="1128" 
d="M685 1534q-24 0 -50 22l-156 134q-18 14 -18 36t15 38q32 32 73 -1l143 -123l189 127q38 28 72 -8t-19 -78l-191 -125q-34 -22 -58 -22zM156 1319q-29 0 -45 16t-17 41q0 25 18 40t44 16h1003q29 0 45 -16t16 -42q0 -25 -16 -40q-18 -15 -45 -15h-450l-213 -1268
q-10 -59 -60 -59q-27 0 -43 18t-12 49l211 1260h-436z" />
    <glyph glyph-name="tcaron" unicode="&#x165;" horiz-adv-x="841" 
d="M614 1114q-47 0 -49 43q0 23 30 53t41 56q11 25 21 73l19 91q6 49 55 49q23 1 36 -17t9 -43l-18 -90q-20 -106 -80 -176q-40 -39 -64 -39zM436 -20q-332 0 -274 356l145 881q8 59 64 59q27 0 44 -18t13 -46l-31 -176h312q59 0 59 -55q0 -23 -17 -38t-42 -15h-330
l-98 -590q-21 -123 9 -182t142 -60q52 0 112 24t76 23q16 0 32 -15q15 -14 15 -46t-49 -57q-86 -45 -182 -45z" />
    <glyph glyph-name="Umacron" unicode="&#x16a;" horiz-adv-x="1443" 
d="M715 1577q-25 0 -40 15t-15 37t16 37t41 15h340q25 0 39 -14t14 -36t-15 -38t-40 -16h-340zM685 96q175 0 300 114t164 345l137 829q10 58 63 58q28 0 44 -22t10 -52l-137 -817q-47 -279 -199 -425q-153 -146 -383 -146t-396 146q-83 73 -120 204t-8 299l127 755
q10 56 61 58q27 0 43 -20t10 -54l-127 -758q-24 -142 6 -248t98 -160q132 -106 307 -106z" />
    <glyph glyph-name="umacron" unicode="&#x16b;" horiz-adv-x="1179" 
d="M537 1253q-25 -1 -40 15t-15 38t16 36t41 16h340q25 0 39 -14t14 -36t-16 -38t-39 -17h-340zM295 1065q25 0 41 -18t12 -50l-88 -540q-57 -360 281 -361q180 0 299 94l135 820q10 55 57 55q31 -1 47 -21t11 -51l-142 -846q-6 -31 -41 -57q-163 -110 -367 -110t-320 125
t-77 356l90 545q10 59 62 59z" />
    <glyph glyph-name="Uring" unicode="&#x16e;" horiz-adv-x="1443" 
d="M897 1608q47 0 78 34t31 77q0 42 -25 69t-72 27t-78 -35t-31 -77t25 -69q25 -26 72 -26zM896 1532q-81 0 -126 48t-45 121t52 131t132 58t125 -47t45 -120t-51 -132t-132 -59zM685 96q175 0 300 114t164 345l137 829q10 58 63 58q28 0 44 -22t10 -52l-137 -817
q-47 -279 -199 -425q-153 -146 -383 -146t-396 146q-83 73 -120 204t-8 299l127 755q10 56 61 58q27 0 43 -20t10 -54l-127 -758q-24 -142 6 -248t98 -160q132 -106 307 -106z" />
    <glyph glyph-name="uring" unicode="&#x16f;" horiz-adv-x="1179" 
d="M616 1377q0 -43 25 -69t72 -26t78 35t31 77t-26 68q-24 26 -71 27q-47 0 -78 -35t-31 -77zM895 1398q0 -72 -51 -132t-132 -60t-126 48t-45 121t52 131t132 58t125 -46q45 -47 45 -120zM295 1065q25 0 41 -18t12 -50l-88 -540q-57 -360 281 -361q180 0 299 94l135 820
q10 55 57 55q31 -1 47 -21t11 -51l-142 -846q-6 -31 -41 -57q-163 -110 -367 -110t-320 125t-77 356l90 545q10 59 62 59z" />
    <glyph glyph-name="Uhungarumlaut" unicode="&#x170;" horiz-adv-x="1443" 
d="M963 1593q0 25 28 47l207 154q50 40 82 6q14 -14 14 -40t-24 -44l-213 -157q-21 -19 -43 -19t-37 14q-14 14 -14 39zM985 1760q0 -26 -27 -44l-210 -157q-23 -18 -46 -19q-47 0 -49 51q0 29 27 49l207 154q48 39 83 6q15 -14 15 -40zM685 96q175 0 300 114t164 345
l137 829q10 58 63 58q28 0 44 -22t10 -52l-137 -817q-47 -279 -199 -425q-153 -146 -383 -146t-396 146q-83 73 -120 204t-8 299l127 755q10 56 61 58q27 0 43 -20t10 -54l-127 -758q-24 -142 6 -248t98 -160q132 -106 307 -106z" />
    <glyph glyph-name="uhungarumlaut" unicode="&#x171;" horiz-adv-x="1179" 
d="M795 1260q0 24 28 47l207 153q50 40 82 6q14 -14 14 -40t-24 -44l-213 -157q-21 -19 -43 -19t-36 14q-14 16 -15 40zM791 1382l-211 -157q-24 -19 -46 -19t-35 14t-13 40t26 47l207 153q49 39 83 5q16 -15 16 -40t-27 -43zM295 1065q25 0 41 -18t12 -50l-88 -540
q-57 -360 281 -361q180 0 299 94l135 820q10 55 57 55q31 -1 47 -21t11 -51l-142 -846q-6 -31 -41 -57q-163 -110 -367 -110t-320 125t-77 356l90 545q10 59 62 59z" />
    <glyph glyph-name="Uogonek" unicode="&#x172;" horiz-adv-x="1443" 
d="M850 -316q0 -24 -48 -59t-127 -35t-136 50t-58 145q0 119 129 199q-205 24 -347 168q-73 74 -101 196t-2 281l127 755q10 55 59 56q29 0 45 -20t10 -52l-127 -758q-26 -141 4 -246t96 -161q130 -107 307 -107t304 116t164 343l137 829q10 55 60 56q29 0 45 -20t12 -52
l-135 -803q-43 -258 -153 -385t-294 -186q-244 -78 -243 -209q0 -51 31 -76q68 -53 161 3q45 27 63 11q17 -15 17 -39z" />
    <glyph glyph-name="uogonek" unicode="&#x173;" horiz-adv-x="1179" 
d="M694 -362q-76 0 -133 51t-57 142t76 155q-33 -4 -50 -4q-198 0 -312 124t-75 355l90 545q10 59 62 59q25 0 41 -18t12 -50l-88 -540q-57 -360 281 -361q178 0 299 94l135 820q10 55 57 55q29 0 45 -19t13 -53l-138 -825q-8 -57 -63 -88q-23 -12 -84 -41t-99 -51t-72 -63
q-34 -42 -34 -91t31 -76q66 -57 157 2q38 31 65 6q11 -11 11 -34t-35 -51q-59 -43 -135 -43z" />
    <glyph glyph-name="Wcircumflex" unicode="&#x174;" horiz-adv-x="1853" 
d="M862 1536q-18 0 -32 13q-13 13 -13 38t29 45l205 131q62 43 112 -2l142 -133q23 -20 23 -42t-15 -36q-14 -14 -35 -14t-41 18l-133 123l-203 -129q-21 -12 -39 -12zM1866 1442q36 0 51 -16q16 -16 16 -33q0 -16 -8 -41l-504 -1272q-39 -100 -121 -100q-44 0 -78 28
t-40 82l-127 1217q-2 8 -8 9t-9 -7l-538 -1229q-43 -100 -123 -100q-47 0 -82 30t-37 78l-76 1280q-2 30 16 52t46 22q55 0 59 -56l70 -1269q2 -11 10 -13t14 13l535 1218q47 106 125 107q43 0 71 -32t35 -87l125 -1206q0 -8 10 -16t19 16l495 1274q18 51 54 51z" />
    <glyph glyph-name="wcircumflex" unicode="&#x175;" horiz-adv-x="1642" 
d="M708 1202q-17 0 -31 13q-13 13 -13 38t28 45l205 132q29 20 57 20t56 -23l141 -133q23 -20 23 -42t-14 -35q-33 -32 -77 4l-133 122l-202 -129q-23 -12 -40 -12zM886 938q-11 0 -18 -14l-385 -852q-23 -51 -48 -72q-27 -20 -67 -20t-74 28t-40 92l-109 891q-5 35 13 55
t45 19q49 0 57 -57l86 -732q2 -18 12 -163q2 -23 21 -23q14 0 20 16q57 150 64 162l321 709q41 88 113 88q92 0 102 -102l80 -693q4 -27 8 -80q5 -53 7 -76t14 -24q12 0 22 24t31 75q20 52 31 75l342 760q18 41 53 41t52 -25t1 -59l-415 -911q-39 -90 -115 -90
q-103 0 -115 106l-96 832q-2 20 -13 20z" />
    <glyph glyph-name="Ycircumflex" unicode="&#x176;" horiz-adv-x="1257" 
d="M546 1536q-18 0 -33 13q-13 13 -13 38t28 45l205 131q62 43 113 -2l141 -133q23 -20 23 -42t-14 -36t-34 -14q-19 0 -42 18l-134 123l-202 -129q-20 -12 -38 -12zM1288 1442q26 0 44 -16t18 -44q0 -27 -25 -47l-610 -630q-49 -49 -58 -95l-92 -559q-10 -59 -59 -59
q-29 0 -44 19t-11 48l92 551q8 48 -27 99l-399 634q-31 46 4 81q16 18 46 18t50 -33l399 -639l623 647q23 25 49 25z" />
    <glyph glyph-name="ycircumflex" unicode="&#x177;" horiz-adv-x="1028" 
d="M644 1452q28 0 54 -22l142 -134q22 -20 22 -42t-14 -35q-32 -32 -76 4l-133 123l-203 -129q-44 -27 -70 1q-14 14 -14 38t29 44l205 132q30 20 58 20zM454 205q8 0 17 12q59 121 72 141l372 662q25 45 60 45t49 -30t-4 -62l-539 -946q-170 -303 -352 -402
q-35 -20 -61 -20q-57 0 -60 49q0 35 41 53q176 90 328 361l-252 913q-10 37 7 61t48 23q46 0 60 -55l174 -643q20 -78 28 -146q4 -16 12 -16z" />
    <glyph glyph-name="Ydieresis" unicode="&#x178;" horiz-adv-x="1257" 
d="M899 1608q33 0 52 -20t19 -52q0 -34 -22 -56q-24 -22 -56 -22t-52 20t-21 50q-1 32 23 56t57 24zM512 1528q0 32 24 56t57 24q34 0 53 -20q20 -20 20 -51t-24 -55t-56 -24t-54 20q-20 20 -20 50zM1288 1442q26 0 44 -16t18 -44q0 -27 -25 -47l-610 -630q-49 -49 -58 -95
l-92 -559q-10 -59 -59 -59q-29 0 -44 19t-11 48l92 551q8 48 -27 99l-399 634q-31 46 4 81q16 18 46 18t50 -33l399 -639l623 647q23 25 49 25z" />
    <glyph glyph-name="Zacute" unicode="&#x179;" horiz-adv-x="1173" 
d="M1001 1792q49 0 50 -47q0 -33 -43 -55l-295 -140q-15 -6 -33 -6t-32 14t-13 42q0 26 33 40l301 144q16 8 32 8zM938 0h-838q-46 0 -70 22t-24 56t41 82l995 1159h-759q-29 0 -45 16t-17 41q1 25 19 40t43 16h823q45 0 69 -20q57 -48 -20 -140l-993 -1159h778
q29 -1 44 -17t15 -41t-17 -40t-44 -15z" />
    <glyph glyph-name="zacute" unicode="&#x17a;" horiz-adv-x="1003" 
d="M860 1454q49 0 49 -47q0 -35 -43 -55l-295 -140q-14 -6 -32 -6q-17 0 -31 14t-14 42q0 27 32 41l301 143q16 8 33 8zM756 113q72 0 71 -56q0 -57 -65 -57h-627q-43 0 -65 22t-23 58q0 36 31 67l741 785h-551q-27 0 -43 15t-16 40t17 41t42 16h598q100 0 101 -79
q0 -39 -31 -70l-737 -782h557z" />
    <glyph glyph-name="Zdotaccent" unicode="&#x17b;" horiz-adv-x="1173" 
d="M759 1712q34 0 53 -19t19 -51q1 -32 -23 -56t-56 -24t-54 20q-20 19 -20 50t23 56q24 24 58 24zM938 0h-838q-46 0 -70 22t-24 56t41 82l995 1159h-759q-29 0 -45 16t-17 41q1 25 19 40t43 16h823q45 0 69 -20q57 -48 -20 -140l-993 -1159h778q29 -1 44 -17t15 -41
t-17 -40t-44 -15z" />
    <glyph glyph-name="zdotaccent" unicode="&#x17c;" horiz-adv-x="1003" 
d="M648 1378q34 0 53 -19t19 -51t-23 -56q-25 -24 -57 -24t-52 20q-20 19 -21 50q-1 32 23 56t58 24zM756 113q72 0 71 -56q0 -57 -65 -57h-627q-43 0 -65 22t-23 58q0 36 31 67l741 785h-551q-27 0 -43 15t-16 40t17 41t42 16h598q100 0 101 -79q0 -39 -31 -70l-737 -782
h557z" />
    <glyph glyph-name="Zcaron" unicode="&#x17d;" horiz-adv-x="1173" 
d="M726 1534q-24 0 -50 22l-156 134q-18 14 -18 36t15 38q32 32 73 -1l143 -123l189 127q38 28 72 -8t-19 -78l-191 -125q-34 -22 -58 -22zM938 0h-838q-46 0 -70 22t-24 56t41 82l995 1159h-759q-29 0 -45 16t-17 41q1 25 19 40t43 16h823q45 0 69 -20q57 -48 -20 -140
l-993 -1159h778q29 -1 44 -17t15 -41t-17 -40t-44 -15z" />
    <glyph glyph-name="zcaron" unicode="&#x17e;" horiz-adv-x="1003" 
d="M631 1202q-25 0 -51 23l-156 133q-18 14 -18 36t15 38t33 16t40 -16l143 -123l188 127q13 12 33 12t34 -15t15 -38q0 -23 -28 -45l-191 -125q-32 -23 -57 -23zM756 113q72 0 71 -56q0 -57 -65 -57h-627q-43 0 -65 22t-23 58q0 36 31 67l741 785h-551q-27 0 -43 15t-16 40
t17 41t42 16h598q100 0 101 -79q0 -39 -31 -70l-737 -782h557z" />
    <glyph glyph-name="florin" unicode="&#x192;" horiz-adv-x="1114" 
d="M61 -414q-39 0 -54 25t-5 57l307 1002h-106q-25 0 -42 15t-18 40t17 40t43 15h141l137 443q35 113 119 171t195 58q190 0 305 -115q18 -18 18 -41q0 -55 -55 -55q-27 0 -47 19q-80 76 -211 75q-168 0 -219 -166l-119 -389h336q27 0 44 -15t17 -39t-17 -40t-44 -16h-369
l-317 -1041q-17 -43 -56 -43z" />
    <glyph glyph-name="Scommaaccent" unicode="&#x218;" horiz-adv-x="1263" 
d="M426 -469q-52 0 -51 43q0 20 22 43q61 66 76 160l21 112q10 49 55 50q25 -1 39 -19t8 -47l-21 -104q-25 -131 -98 -207q-27 -31 -51 -31zM80 266q18 0 30 -4q16 -5 35 -22q66 -55 191 -100q126 -46 270 -46t254 79t111 203q0 124 -99 188q-53 34 -98 53t-134 53
q-88 34 -152 64q-178 85 -231 190q-34 66 -34 145q0 168 139 274t340 107q127 0 250 -42q224 -76 224 -146q0 -23 -16 -40q-16 -18 -42 -18q-27 0 -57 21q-178 111 -353 111q-174 0 -270 -80q-96 -79 -96 -199t148 -198q54 -29 157 -67q103 -39 149 -57t110 -55t99 -74
q84 -91 82 -219q0 -180 -138 -294t-357 -113q-158 0 -314 57t-212 114q-57 57 -18 99q14 16 32 16z" />
    <glyph glyph-name="scommaaccent" unicode="&#x219;" horiz-adv-x="1005" 
d="M334 -469q-52 0 -51 43q0 20 22 43q61 66 76 160l20 112q8 49 56 50q25 -1 39 -19t8 -47l-21 -104q-25 -131 -98 -207q-27 -31 -51 -31zM848 276q0 -126 -102 -211t-244 -85q-144 0 -260 51q-188 83 -187 143q-1 23 15 38t34 15t56 -22q158 -115 319 -115q113 0 184 53
t71 134t-61 122q-40 29 -148 76t-151 73q-44 26 -88 60q-89 70 -87 178q0 137 103 215q104 78 230 78t220 -35q94 -36 126 -66q54 -51 19 -88q-34 -37 -86 -1q-121 78 -243 78t-188 -49q-67 -48 -67 -122t48 -112q47 -38 193 -102t198 -105q96 -75 96 -201z" />
    <glyph glyph-name="circumflex" unicode="&#x2c6;" 
d="M230 1536q-18 0 -32 13t-14 38t29 45l205 131q62 43 112 -2l142 -133q22 -20 22 -42t-14 -36t-34 -14t-42 18l-133 123l-203 -129q-20 -12 -38 -12z" />
    <glyph glyph-name="caron" unicode="&#x2c7;" 
d="M460 1534q-24 0 -50 22l-156 134q-18 14 -18 36t15 38q32 32 73 -1l143 -123l188 127q38 29 68 -3q14 -16 14 -38t-28 -45l-191 -125q-34 -22 -58 -22z" />
    <glyph glyph-name="breve" unicode="&#x2d8;" 
d="M477 1550q-76 0 -131 37t-78 109q-8 20 -8 49q0 53 49 53q37 0 45 -51q25 -100 120 -100t140 108q14 43 52 43q45 0 45 -45q0 -20 -11 -47q-27 -66 -87 -111t-136 -45z" />
    <glyph glyph-name="dotaccent" unicode="&#x2d9;" 
d="M472 1712q34 0 53 -19t19 -51t-23 -56q-25 -24 -57 -24t-52 20q-20 19 -21 50q-1 32 23 56t58 24z" />
    <glyph glyph-name="ring" unicode="&#x2da;" horiz-adv-x="659" 
d="M385 1703q1 -43 25 -69t71 -26t78 34t31 77q0 42 -25 69t-71 27t-78 -35q-31 -35 -31 -77zM494 1890q80 0 124 -47t46 -120q0 -73 -52 -132t-132 -59q-81 0 -126 48t-45 121t52 131q53 58 133 58z" />
    <glyph glyph-name="ogonek" unicode="&#x2db;" 
d="M440 -408q-78 0 -132 48t-54 137q0 195 285 303q20 8 28 8q45 0 45 -43q0 -29 -41 -47q-155 -58 -200 -136q-21 -36 -21 -82t28 -70t73 -24t78 23t47 23t26 -12t12 -34t-48 -58t-126 -36z" />
    <glyph glyph-name="tilde" unicode="&#x2dc;" 
d="M565 1540q-55 0 -124 39t-97 39t-62 -28q-59 -48 -91 -11q-32 36 14 80q68 61 132 61t133 -38q68 -38 96 -38t65 28t56 28t35 -14t15 -38q0 -24 -32 -51q-85 -57 -140 -57z" />
    <glyph glyph-name="hungarumlaut" unicode="&#x2dd;" 
d="M752 1716l-213 -157q-21 -19 -43 -19t-37 14t-15 39t29 47l207 154q50 40 82 6q14 -14 14 -40t-24 -44zM135 1594q0 26 27 46l207 154q51 41 84 6q14 -14 14 -40t-27 -44l-211 -157q-20 -18 -45 -19q-49 0 -49 54z" />
    <glyph glyph-name="Wgrave" unicode="&#x1e80;" horiz-adv-x="1853" 
d="M1122 1542q-18 0 -39 10l-254 142q-31 14 -31 40q1 55 52 56q20 0 37 -8l256 -146q29 -14 29 -40t-16 -40t-34 -14zM1866 1442q36 0 51 -16q16 -16 16 -33q0 -16 -8 -41l-504 -1272q-39 -100 -121 -100q-44 0 -78 28t-40 82l-127 1217q-2 8 -8 9t-9 -7l-538 -1229
q-43 -100 -123 -100q-47 0 -82 30t-37 78l-76 1280q-2 30 16 52t46 22q55 0 59 -56l70 -1269q2 -11 10 -13t14 13l535 1218q47 106 125 107q43 0 71 -32t35 -87l125 -1206q0 -8 10 -16t19 16l495 1274q18 51 54 51z" />
    <glyph glyph-name="wgrave" unicode="&#x1e81;" horiz-adv-x="1642" 
d="M1030 1258q0 -26 -15 -40t-33 -14t-40 10l-254 142q-31 14 -31 40q1 26 15 42q14 14 36 14t37 -8l256 -146q29 -14 29 -40zM886 938q-11 0 -18 -14l-385 -852q-23 -51 -48 -72q-27 -20 -67 -20t-74 28t-40 92l-109 891q-5 35 13 55t45 19q49 0 57 -57l86 -732
q2 -18 12 -163q2 -23 21 -23q14 0 20 16q57 150 64 162l321 709q41 88 113 88q92 0 102 -102l80 -693q4 -27 8 -80q5 -53 7 -76t14 -24q12 0 22 24t31 75q20 52 31 75l342 760q18 41 53 41t52 -25t1 -59l-415 -911q-39 -90 -115 -90q-103 0 -115 106l-96 832q-2 20 -13 20z
" />
    <glyph glyph-name="Wacute" unicode="&#x1e82;" horiz-adv-x="1853" 
d="M1341 1792q49 0 50 -47q0 -33 -43 -55l-295 -140q-15 -6 -33 -6t-32 14t-13 42q0 26 33 40l301 144q16 8 32 8zM1866 1442q36 0 51 -16q16 -16 16 -33q0 -16 -8 -41l-504 -1272q-39 -100 -121 -100q-44 0 -78 28t-40 82l-127 1217q-2 8 -8 9t-9 -7l-538 -1229
q-43 -100 -123 -100q-47 0 -82 30t-37 78l-76 1280q-2 30 16 52t46 22q55 0 59 -56l70 -1269q2 -11 10 -13t14 13l535 1218q47 106 125 107q43 0 71 -32t35 -87l125 -1206q0 -8 10 -16t19 16l495 1274q18 51 54 51z" />
    <glyph glyph-name="wacute" unicode="&#x1e83;" horiz-adv-x="1642" 
d="M1165 1452q49 0 49 -47q0 -33 -43 -55l-294 -140q-15 -6 -33 -6t-32 14t-14 42q0 26 33 40l302 144q16 8 32 8zM886 938q-11 0 -18 -14l-385 -852q-23 -51 -48 -72q-27 -20 -67 -20t-74 28t-40 92l-109 891q-5 35 13 55t45 19q49 0 57 -57l86 -732q2 -18 12 -163
q2 -23 21 -23q14 0 20 16q57 150 64 162l321 709q41 88 113 88q92 0 102 -102l80 -693q4 -27 8 -80q5 -53 7 -76t14 -24q12 0 22 24t31 75q20 52 31 75l342 760q18 41 53 41t52 -25t1 -59l-415 -911q-39 -90 -115 -90q-103 0 -115 106l-96 832q-2 20 -13 20z" />
    <glyph glyph-name="Wdieresis" unicode="&#x1e84;" horiz-adv-x="1853" 
d="M1262 1712q33 0 52 -19t19 -51q1 -32 -23 -56t-56 -24t-52 20q-20 19 -20 50t23 56q24 24 57 24zM955 1712q33 0 53 -19t20 -51t-24 -56t-56 -24q-33 0 -53 20q-20 19 -21 50q0 32 24 56t57 24zM1866 1442q36 0 51 -16q16 -16 16 -33q0 -16 -8 -41l-504 -1272
q-39 -100 -121 -100q-44 0 -78 28t-40 82l-127 1217q-2 8 -8 9t-9 -7l-538 -1229q-43 -100 -123 -100q-47 0 -82 30t-37 78l-76 1280q-2 30 16 52t46 22q55 0 59 -56l70 -1269q2 -11 10 -13t14 13l535 1218q47 106 125 107q43 0 71 -32t35 -87l125 -1206q0 -8 10 -16t19 16
l495 1274q18 51 54 51z" />
    <glyph glyph-name="wdieresis" unicode="&#x1e85;" horiz-adv-x="1642" 
d="M1024 1300q0 32 24 56t56 24q33 0 52 -19q20 -19 20 -51t-23 -56t-55 -24t-54 20q-20 19 -20 50zM798 1380q34 0 53 -19t19 -51t-24 -56t-56 -24q-33 0 -53 20q-20 19 -20 50t23 56q24 24 58 24zM886 938q-11 0 -18 -14l-385 -852q-23 -51 -48 -72q-27 -20 -67 -20
t-74 28t-40 92l-109 891q-5 35 13 55t45 19q49 0 57 -57l86 -732q2 -18 12 -163q2 -23 21 -23q14 0 20 16q57 150 64 162l321 709q41 88 113 88q92 0 102 -102l80 -693q4 -27 8 -80q5 -53 7 -76t14 -24q12 0 22 24t31 75q20 52 31 75l342 760q18 41 53 41t52 -25t1 -59
l-415 -911q-39 -90 -115 -90q-103 0 -115 106l-96 832q-2 20 -13 20z" />
    <glyph glyph-name="Ygrave" unicode="&#x1ef2;" horiz-adv-x="1257" 
d="M854 1596q0 -26 -15 -40t-33 -14t-40 10l-254 142q-31 14 -31 40q1 26 15 42q14 14 35 14t38 -8l256 -146q29 -14 29 -40zM1288 1442q26 0 44 -16t18 -44q0 -27 -25 -47l-610 -630q-49 -49 -58 -95l-92 -559q-10 -59 -59 -59q-29 0 -44 19t-11 48l92 551q8 48 -27 99
l-399 634q-31 46 4 81q16 18 46 18t50 -33l399 -639l623 647q23 25 49 25z" />
    <glyph glyph-name="ygrave" unicode="&#x1ef3;" horiz-adv-x="1028" 
d="M727 1258q0 -26 -15 -40q-16 -14 -34 -14t-39 10l-254 142q-31 14 -31 40t14 42q14 14 36 14t38 -8l256 -146q29 -14 29 -40zM454 205q8 0 17 12q59 121 72 141l372 662q25 45 60 45t49 -30t-4 -62l-539 -946q-170 -303 -352 -402q-35 -20 -61 -20q-57 0 -60 49
q0 35 41 53q176 90 328 361l-252 913q-10 37 7 61t48 23q46 0 60 -55l174 -643q20 -78 28 -146q4 -16 12 -16z" />
    <glyph glyph-name="endash" unicode="&#x2013;" horiz-adv-x="1196" 
d="M96 586q0 25 18 41t46 16h876q29 0 46 -16q18 -16 18 -41t-20 -42t-46 -18h-876q-30 0 -46 18t-16 42z" />
    <glyph glyph-name="emdash" unicode="&#x2014;" horiz-adv-x="1941" 
d="M96 586q0 25 18 41t46 16h1624q29 0 45 -16t16 -41t-19 -42t-46 -18h-1622q-30 0 -46 18t-16 42z" />
    <glyph glyph-name="quoteleft" unicode="&#x2018;" horiz-adv-x="407" 
d="M240 1012q-25 0 -40 18t-10 45l21 113q23 131 98 213q33 33 59 33t39 -14t13 -34t-23 -43q-63 -72 -80 -163l-20 -115q-6 -53 -57 -53z" />
    <glyph glyph-name="quoteright" unicode="&#x2019;" horiz-adv-x="397" 
d="M218 1012q-54 0 -54 45q0 20 22 43q63 72 80 166l21 114q6 53 57 54q25 0 40 -18t9 -48l-20 -113q-12 -77 -34 -121q-21 -44 -57 -83t-64 -39z" />
    <glyph glyph-name="quotesinglbase" unicode="&#x201a;" horiz-adv-x="378" 
d="M107 -199q-52 0 -54 45q0 20 23 43q63 72 80 166l20 115q6 53 57 53q25 0 40 -18t10 -47l-21 -113q-12 -78 -34 -122t-58 -83t-63 -39z" />
    <glyph glyph-name="quotedblleft" unicode="&#x201c;" 
d="M240 1012q-25 0 -40 18t-10 45l21 113q23 131 98 213q33 33 59 33t39 -14t13 -34t-23 -43q-63 -72 -80 -163l-20 -115q-6 -53 -57 -53zM487 1012q-25 0 -40 18t-9 45l21 113q23 131 98 213q33 33 59 33t38 -14q34 -35 -9 -77q-63 -72 -80 -163l-20 -115q-7 -53 -58 -53z
" />
    <glyph glyph-name="quotedblright" unicode="&#x201d;" horiz-adv-x="647" 
d="M218 1012q-54 0 -54 45q0 20 22 43q63 72 80 166l21 114q6 53 57 54q25 0 40 -18t9 -48l-20 -113q-12 -77 -34 -121q-21 -44 -57 -83t-64 -39zM468 1012q-54 0 -54 45q0 20 22 43q63 72 80 166l21 114q6 53 57 54q25 0 40 -18t9 -48l-20 -113q-12 -77 -34 -121
q-21 -44 -57 -83t-64 -39z" />
    <glyph glyph-name="quotedblbase" unicode="&#x201e;" horiz-adv-x="620" 
d="M138 -199q-28 -1 -41 13t-13 33t22 42q63 72 80 166l21 115q6 53 57 53q25 0 40 -18t9 -47l-20 -113q-12 -78 -34 -122q-21 -44 -57 -83t-64 -39zM386 -201q-28 -1 -41 13t-13 33t22 42q63 72 80 166l21 115q6 53 57 53q25 0 40 -18t9 -47l-20 -113q-12 -78 -34 -122
q-21 -44 -57 -83t-64 -39z" />
    <glyph glyph-name="dagger" unicode="&#x2020;" horiz-adv-x="905" 
d="M127 866q-55 0 -55 54q0 27 18 45t47 18h322l67 408q10 61 66 61q25 0 40 -18t11 -45l-68 -406h314q25 0 40 -16t15 -41t-18 -42t-49 -18h-322l-182 -1095q-10 -57 -60 -58q-27 -1 -44 19t-11 49l180 1085h-311z" />
    <glyph glyph-name="daggerdbl" unicode="&#x2021;" horiz-adv-x="905" 
d="M125 866q-25 0 -40 16t-15 40q0 25 18 43t49 18h322l67 408q10 61 64 61q27 0 42 -18t11 -45l-68 -406h316q25 0 39 -16t14 -40t-18 -42t-49 -19h-322l-94 -567h315q25 0 40 -15t15 -40t-18 -43t-49 -19h-322l-69 -411q-10 -57 -60 -58q-27 -1 -44 19t-11 49l68 401h-314
q-55 0 -55 54q0 27 18 45t50 18h319l94 567h-313z" />
    <glyph glyph-name="bullet" unicode="&#x2022;" horiz-adv-x="960" 
d="M221 717q0 106 76 182t182 76q107 0 183 -76t76 -182t-76 -182t-182 -76t-183 76q-76 76 -76 182z" />
    <glyph glyph-name="ellipsis" unicode="&#x2026;" horiz-adv-x="1275" 
d="M172 -23q-25 1 -40 19t-13 45l33 195q10 55 59 55q25 1 40 -17t11 -43l-33 -198q-10 -56 -57 -56zM600 -23q-25 1 -40 19t-13 45l33 195q10 55 59 55q25 1 40 -17t11 -43l-33 -198q-10 -56 -57 -56zM1024 -23q-25 1 -40 19t-13 45l33 195q10 55 59 55q25 1 40 -17t11 -43
l-33 -198q-10 -56 -57 -56z" />
    <glyph glyph-name="perthousand" unicode="&#x2030;" horiz-adv-x="2105" 
d="M1645 86q84 0 142 52t77 141q12 49 19 119t-42 125t-131 55t-144 -54t-81 -139q-11 -49 -19 -119t43 -126q52 -54 136 -54zM1712 674q123 0 202 -81q107 -109 50 -319q-66 -284 -323 -284q-125 0 -205 83t-66 210q6 51 16 106q25 131 114 208t212 77zM961 86q84 0 142 52
t77 141q12 49 19 119t-42 125t-131 55t-144 -54t-81 -139q-11 -49 -19 -119t43 -126q52 -54 136 -54zM1028 674q123 0 202 -81q107 -109 50 -319q-66 -284 -323 -284q-125 0 -205 83t-66 210q6 51 16 106q25 131 114 208t212 77zM210 188q-22 0 -36 14t-14 39q0 24 22 44
l989 954q20 21 43 21t37 -14q15 -14 15 -37q0 -24 -21 -42l-991 -958q-22 -21 -44 -21zM393 864q84 0 143 52q58 52 76 141q12 49 20 119t-42 126q-49 54 -131 54q-83 0 -145 -53t-81 -140q-12 -49 -19 -119t44 -126q51 -54 135 -54zM461 1452q123 0 202 -81t68 -204
q-41 -399 -342 -399q-125 0 -205 83t-65 210q6 51 16 106q25 131 114 208t212 77z" />
    <glyph glyph-name="guilsinglleft" unicode="&#x2039;" horiz-adv-x="690" 
d="M84 710q0 64 80 121l299 226q27 16 45 16t34 -14t15 -38q0 -24 -31 -48l-280 -213q-39 -33 -39 -54t20 -44l207 -213q40 -35 3 -74q-15 -17 -39 -17t-46 21l-221 221q-47 46 -47 110z" />
    <glyph glyph-name="guilsinglright" unicode="&#x203a;" horiz-adv-x="692" 
d="M608 720q0 -62 -80 -120l-301 -227q-45 -31 -76 0q-15 14 -15 39t30 47l278 213q41 31 41 53t-20 45l-209 213q-16 13 -16 35t15 38t38 17q23 0 45 -20l221 -224q49 -47 49 -109z" />
    <glyph glyph-name="fraction" unicode="&#x2044;" horiz-adv-x="579" 
d="M-121 -66q-27 0 -44 16t-17 32q0 18 12 38l813 1446q18 33 47 33q58 0 60 -49q0 -20 -13 -41l-811 -1442q-20 -33 -47 -33z" />
    <glyph glyph-name="Euro" unicode="&#x20ac;" horiz-adv-x="1294" 
d="M164 780q-51 0 -51 50q0 22 17 38t48 17h113q51 265 212 415t402 150q117 0 223 -42t170 -118q35 -43 0 -76q-16 -16 -40 -16t-50 25q-120 119 -312 119t-318 -122q-126 -120 -168 -335h417q53 0 54 -49q1 -23 -17 -39t-47 -17h-430l-20 -125h426q51 0 51 -49
q0 -23 -18 -40t-50 -17h-426q-24 -211 68 -334t278 -123t340 125q54 40 84 4q14 -16 14 -40t-26 -46q-180 -149 -404 -149t-359 140q-136 140 -107 423h-113q-23 0 -37 15t-14 37t17 38t46 16h115l20 125h-108z" />
    <glyph glyph-name="trademark" unicode="&#x2122;" horiz-adv-x="1054" 
d="M530 934q-22 0 -33 14t-3 33l120 397q18 66 76 66t64 -66l26 -344q0 -10 6 -10t9 8l135 350q20 61 74 62q29 0 47 -16t18 -50l-8 -403q0 -41 -37 -41t-37 37l12 375q0 10 -5 10t-7 -8l-139 -353q-25 -59 -70 -59q-25 0 -42 18t-19 47l-27 345q0 10 -6 10t-8 -10
l-113 -381q-11 -31 -33 -31zM119 1397q0 39 39 41h336q35 0 34 -33q0 -17 -11 -29t-30 -12h-129l-65 -393q-4 -39 -39 -39q-16 0 -28 11q-11 11 -9 28l66 393h-133q-31 0 -31 33z" />
    <glyph glyph-name="minus" unicode="&#x2212;" horiz-adv-x="1280" 
d="M1098 662h-918q-27 0 -44 15t-17 41t17 41t44 15h918q27 0 44 -15t17 -41t-18 -41t-43 -15z" />
    <glyph glyph-name="lessequal" unicode="&#x2264;" horiz-adv-x="1280" 
d="M981 -16h-684q-27 0 -44 16t-17 42t17 41t44 15h684q27 0 45 -16t18 -41t-19 -41t-44 -16zM364 692q0 -12 29 -30l621 -369q18 -12 24 -36t-6 -44q-12 -19 -35 -25t-41 7l-651 393q-69 41 -69 103t69 104l651 395q47 25 76 -19q12 -23 6 -45t-24 -34l-621 -369
q-29 -19 -29 -31z" />
    <glyph glyph-name="greaterequal" unicode="&#x2265;" horiz-adv-x="1280" 
d="M985 -16h-684q-25 0 -44 16t-19 41t18 41t45 16h684q27 0 43 -15t16 -41t-16 -42t-43 -16zM268 293l621 369q27 16 26 30q0 14 -26 31l-621 369q-20 12 -25 34t6 43q11 19 34 25t43 -4l651 -395q67 -39 67 -103t-67 -104l-651 -393q-20 -11 -43 -7t-34 24t-6 45
q5 24 25 36z" />
    <glyph glyph-name="fl" unicode="&#xfb02;" horiz-adv-x="1288" 
d="M1174 1448q29 0 45 -20t10 -52l-221 -1329q-10 -55 -58 -55q-29 0 -45 19t-12 52l221 1330q10 55 60 55zM877 1380q1 -32 -15 -46q-16 -15 -36 -15t-68 15q-49 15 -99 16q-104 0 -156 -56t-71 -166l-16 -96h295q59 0 59 -55q0 -23 -17 -38t-42 -15h-312l-145 -877
q-10 -55 -61 -55q-29 0 -45 19q-15 19 -11 52l144 861h-78q-27 0 -42 16t-15 40t16 38t41 14h96l16 105q51 326 355 325q98 0 164 -30q43 -20 43 -52z" />
    <glyph glyph-name="Imacron" horiz-adv-x="561" 
d="M276 1577q-26 0 -40 15t-14 37t16 37t41 15h339q25 0 39 -14q15 -14 15 -36t-16 -38t-40 -16h-340zM178 -8q-29 0 -45 19t-12 52l221 1321q10 57 59 58q29 0 45 -22t11 -52l-221 -1321q-10 -55 -58 -55z" />
    <glyph glyph-name="ampersand.alt" horiz-adv-x="1363" 
d="M346 1028q0 -163 178 -272q232 46 304 92q36 22 79 56q82 64 82 178t-78 180t-221 66q-144 0 -244 -83q-100 -82 -100 -217zM517 -16q-206 0 -338 100t-132 270q0 138 94 234t258 139q-170 127 -170 308t133 292q132 111 320 111t307 -93t119 -261t-136 -268t-360 -145
q-224 -46 -311 -97t-118 -123q-17 -43 -17 -97q0 -126 98 -192t244 -66q190 0 322 112t163 275q12 69 39 93t82 24h174q61 0 62 -53q0 -25 -18 -44t-48 -20h-178q-43 -243 -213 -371t-376 -128z" />
    <glyph glyph-name="Q.alt" horiz-adv-x="1411" 
d="M783 1335q-203 0 -331 -126t-176 -335q-31 -137 -47 -296q-19 -207 89 -329t264 -147l47 277q10 55 57 55q25 0 40 -19t9 -50l-47 -269q176 8 297 120t163 286t59 370t-102 330q-120 133 -322 133zM573 -336q-27 0 -42 20t-11 52l43 254q-207 36 -342 192t-106 412
q23 186 41 278q49 264 211 422q163 158 417 158t412 -174t129 -424q-20 -190 -47 -324q-51 -258 -211 -401t-395 -147l-45 -265q-9 -53 -54 -53z" />
    <glyph glyph-name="r.alt" horiz-adv-x="722" 
d="M283 985q131 94 321 94t189 -68q0 -63 -62 -65q-10 0 -57 8t-84 9q-140 0 -238 -76l-139 -826q-12 -61 -61 -61q-25 0 -41 19t-13 47l142 852q6 37 43 67z" />
    <glyph glyph-name="zero.onum" horiz-adv-x="1251" 
d="M655 967q-319 0 -401 -336q-14 -49 -25 -156q-18 -180 95 -281q113 -102 265 -102t259 77q106 77 143 243q16 72 25 153q23 184 -83 293t-278 109zM670 1079q200 0 340 -135t123 -360q-6 -90 -31 -205q-45 -191 -177 -295t-330 -104t-346 131t-132 362q6 104 28 189
q49 209 187 313t338 104z" />
    <glyph glyph-name="one.onum" horiz-adv-x="858" 
d="M432 -8q-25 0 -41 17t-12 46l147 885l-333 -147q-29 -12 -58 0t-29 48t50 56l381 168q31 14 59 14t44 -20q17 -20 11 -60l-157 -946q-11 -61 -62 -61z" />
    <glyph glyph-name="two.onum" horiz-adv-x="1171" 
d="M918 113q63 0 63 -56q0 -25 -22 -41t-54 -16h-749q-39 0 -61 22q-21 22 -21 62t9 81q9 40 20 71q11 32 40 62t46 48t87 55t143 61q73 25 205 67t199 85q101 70 103 161t-65 145t-191 53q-180 0 -369 -152q-29 -25 -53 -25t-39 17q-14 16 -14 41t34 53q98 82 214 127
t223 45q162 0 270 -82t108 -224t-126 -221q-126 -80 -337 -143t-297 -119t-94 -177h728z" />
    <glyph glyph-name="three.onum" horiz-adv-x="1122" 
d="M215 932q-65 0 -65 53q0 25 19 42t48 17h680q90 0 90 -67q0 -41 -45 -86l-414 -391q184 -4 299 -104t115 -255q0 -223 -222 -373t-640 -161q-92 -4 -92 61q0 18 17 36t47 15q30 -2 98 -2q68 1 181 21q299 55 423 199q76 88 75 206q0 260 -403 260q-63 0 -64 52
q0 33 29 59l428 412l-2 6h-602z" />
    <glyph glyph-name="four.onum" horiz-adv-x="1310" 
d="M831 113l134 792l-775 -792h641zM1112 113q59 0 59 -52q0 -25 -20 -43t-53 -18h-168l-53 -336q-12 -61 -60 -61q-27 0 -44 18t-13 45l55 334h-665q-45 0 -72 23t-27 59t41 80l811 833q70 70 112 70t62 -30t13 -72l-142 -850h164z" />
    <glyph glyph-name="five.onum" horiz-adv-x="1210" 
d="M940 170q0 114 -74 186t-221 72q-57 0 -155 -31t-160 -65t-100 -11q-38 24 -29 76l92 553q14 94 110 94h644q25 0 42 -15t17 -41t-20 -41t-54 -15h-626l-80 -479q172 86 344 86t279 -105q108 -104 108 -254t-88 -266q-153 -201 -532 -275q-157 -32 -316 -32q-84 0 -84 57
q0 27 19 42t48 15l72 -2q244 0 488 103q120 51 198 142t78 206z" />
    <glyph glyph-name="six.onum" horiz-adv-x="1347" 
d="M240 528q0 -216 105 -324t273 -108t274 114q105 114 105 266t-87 234t-260 83q-173 0 -402 -113q-8 -59 -8 -152zM673 903q199 -1 321 -109t122 -306t-136 -352q-137 -152 -357 -152t-359 140t-139 425t118 505q131 245 375 342q133 52 294 52t211 -15t51 -57
q0 -20 -16 -36t-48 -15l-199 12q-247 0 -415 -134t-228 -396q207 96 405 96z" />
    <glyph glyph-name="seven.onum" horiz-adv-x="1015" 
d="M152 -397q-37 0 -54 25q-16 26 0 61q102 264 261 507t534 730h-737q-27 0 -42 16q-16 16 -16 41t18 43t50 18h803q84 0 84 -67q0 -33 -31 -74q-367 -475 -539 -733t-270 -514q-24 -53 -61 -53z" />
    <glyph glyph-name="eight.onum" horiz-adv-x="1378" 
d="M639 -16q-231 0 -373 103q-141 103 -141 269t86 274t242 138q-90 39 -143 113q-52 74 -52 166q0 195 142 298t360 103t339 -102q122 -102 122 -238t-71 -230q-71 -95 -218 -135q229 -96 229 -329q0 -203 -145 -317q-146 -113 -377 -113zM1038 430q0 121 -100 193
q-100 71 -280 71t-294 -78q-116 -78 -116 -247q0 -135 110 -204t307 -69q198 0 311 136q62 77 62 198zM736 803q167 0 268 81q100 80 100 196t-91 188t-250 72t-274 -76q-115 -74 -114 -220q0 -109 97 -175t264 -66z" />
    <glyph glyph-name="nine.onum" horiz-adv-x="1331" 
d="M690 967q-168 -1 -282 -107t-115 -262q0 -156 99 -245t276 -89t372 119q10 86 11 174q-1 193 -97 301t-264 109zM656 156q-198 0 -341 116q-141 117 -141 323t145 345t363 139t351 -138q132 -138 132 -363q0 -465 -254 -714t-727 -249q-70 0 -69 57q0 25 19 40t50 16
q326 -6 546 131t288 399q-164 -102 -362 -102z" />
    <glyph glyph-name="sterling.alt" horiz-adv-x="1165" 
d="M156 129q0 -12 18 -12h719q29 -1 46 -17t17 -40t-18 -42t-51 -18h-760q-75 0 -97 51t15 115q6 10 17 32t65 111t147 303h-122q-57 0 -58 54q0 25 18 43t48 18h164q44 112 92 252q96 261 213 367t297 106q109 0 194 -53q29 -23 29 -49t-16 -41q-31 -31 -85 -2t-137 28
q-127 0 -212 -81t-164 -285q-26 -66 -93 -242h359q66 0 65 -53q0 -25 -18 -43t-49 -19h-400q-121 -287 -229 -446q-14 -25 -14 -37z" />
    <glyph glyph-name="commaaccent" 
d="M256 -469q-52 0 -51 43q0 20 22 43q61 66 76 160l21 112q8 49 55 50q25 -1 39 -19t8 -47l-20 -104q-25 -131 -99 -207q-27 -31 -51 -31z" />
    <glyph glyph-name="caronSlovak" 
d="M270 1114q-50 0 -49 43q0 23 30 53t41 56q11 25 21 73l19 91q6 49 55 49q23 1 36 -17t9 -43l-18 -90q-20 -106 -80 -176q-40 -39 -64 -39z" />
    <glyph glyph-name="g.alt" horiz-adv-x="1177" 
d="M291 693q1 -121 73 -187t204 -66t223 81q90 81 90 201t-74 186t-203 67q-129 0 -221 -81t-92 -201zM513 -389q-171 0 -296 61t-194 152q-25 34 -25 60t15 41t34 16t26 -4t11 -7t8 -7t6 -7t6 -8t7 -8q141 -176 399 -176q119 0 205 57t86 149q0 145 -236 146h-133
q-122 0 -188 48t-66 120t45 112t109 50q-156 110 -156 282t122 282t302 109q113 0 205 -43h295q31 0 47 -15t16 -37t-17 -38t-50 -16h-168q66 -74 65 -203q1 -159 -117 -271t-321 -112h-80q-186 0 -186 -86q0 -70 121 -70h178q152 0 242 -68t90 -179q0 -152 -118 -241
t-289 -89z" />
    <glyph glyph-name="gbreve.alt" horiz-adv-x="1177" 
d="M693 1198q-77 0 -132 37t-78 108q-8 20 -8 50q0 53 49 53q37 0 45 -51q25 -101 120 -101t140 109q14 43 52 43q45 0 45 -45q0 -20 -11 -47q-27 -66 -86 -111t-136 -45zM291 693q1 -121 73 -187t204 -66t223 81q90 81 90 201t-74 186t-203 67q-129 0 -221 -81t-92 -201z
M513 -389q-171 0 -296 61t-194 152q-25 34 -25 60t15 41t34 16t26 -4t11 -7t8 -7t6 -7t6 -8t7 -8q141 -176 399 -176q119 0 205 57t86 149q0 145 -236 146h-133q-122 0 -188 48t-66 120t45 112t109 50q-156 110 -156 282t122 282t302 109q113 0 205 -43h295q31 0 47 -15
t16 -37t-17 -38t-50 -16h-168q66 -74 65 -203q1 -159 -117 -271t-321 -112h-80q-186 0 -186 -86q0 -70 121 -70h178q152 0 242 -68t90 -179q0 -152 -118 -241t-289 -89z" />
    <glyph glyph-name="gdotaccent.alt" horiz-adv-x="1177" 
d="M708 1382q34 0 53 -19t19 -51t-24 -56t-56 -24q-33 0 -53 20q-20 18 -20 50t23 56q24 24 58 24zM291 693q1 -121 73 -187t204 -66t223 81q90 81 90 201t-74 186t-203 67q-129 0 -221 -81t-92 -201zM513 -389q-171 0 -296 61t-194 152q-25 34 -25 60t15 41t34 16t26 -4
t11 -7t8 -7t6 -7t6 -8t7 -8q141 -176 399 -176q119 0 205 57t86 149q0 145 -236 146h-133q-122 0 -188 48t-66 120t45 112t109 50q-156 110 -156 282t122 282t302 109q113 0 205 -43h295q31 0 47 -15t16 -37t-17 -38t-50 -16h-168q66 -74 65 -203q1 -159 -117 -271
t-321 -112h-80q-186 0 -186 -86q0 -70 121 -70h178q152 0 242 -68t90 -179q0 -152 -118 -241t-289 -89z" />
    <glyph glyph-name="gcommaaccent.alt" horiz-adv-x="1177" 
d="M642 1141q-52 0 -52 43q0 20 22 43q61 66 76 159l21 113q8 49 55 49q25 0 39 -18t8 -47l-20 -105q-25 -131 -99 -207q-26 -30 -50 -30zM291 693q1 -121 73 -187t204 -66t223 81q90 81 90 201t-74 186t-203 67q-129 0 -221 -81t-92 -201zM513 -389q-171 0 -296 61
t-194 152q-25 34 -25 60t15 41t34 16t26 -4t11 -7t8 -7t6 -7t6 -8t7 -8q141 -176 399 -176q119 0 205 57t86 149q0 145 -236 146h-133q-122 0 -188 48t-66 120t45 112t109 50q-156 110 -156 282t122 282t302 109q113 0 205 -43h295q31 0 47 -15t16 -37t-17 -38t-50 -16h-168
q66 -74 65 -203q1 -159 -117 -271t-321 -112h-80q-186 0 -186 -86q0 -70 121 -70h178q152 0 242 -68t90 -179q0 -152 -118 -241t-289 -89z" />
    <glyph glyph-name="racute.alt" horiz-adv-x="722" 
d="M754 1442q49 0 49 -47q0 -35 -43 -56l-295 -139q-15 -6 -33 -6t-32 14q-13 14 -13 41t33 41l301 144q16 8 33 8zM283 985q131 94 321 94t189 -68q0 -63 -62 -65q-10 0 -57 8t-84 9q-140 0 -238 -76l-139 -826q-12 -61 -61 -61q-25 0 -41 19t-13 47l142 852q6 37 43 67z
" />
    <glyph glyph-name="rcaron.alt" horiz-adv-x="722" 
d="M554 1192q-24 0 -50 22l-156 134q-18 16 -18 37t15 37q32 33 73 -1l143 -123l189 127q38 28 67 -3q14 -16 14 -38t-28 -45l-191 -125q-34 -22 -58 -22zM283 985q131 94 321 94t189 -68q0 -63 -62 -65q-10 0 -57 8t-84 9q-140 0 -238 -76l-139 -826q-12 -61 -61 -61
q-25 0 -41 19t-13 47l142 852q6 37 43 67z" />
    <glyph glyph-name="rcommaaccent.alt" horiz-adv-x="722" 
d="M2 -516q-26 0 -41 14q-14 14 -14 32t22 46q59 61 78 160l21 119q10 53 59 53q23 0 39 -18t10 -48l-20 -112q-14 -80 -34 -123t-65 -88q-29 -35 -55 -35zM283 985q131 94 321 94t189 -68q0 -63 -62 -65q-10 0 -57 8t-84 9q-140 0 -238 -76l-139 -826q-12 -61 -61 -61
q-25 0 -41 19t-13 47l142 852q6 37 43 67z" />
    </font>
</defs>
</svg>
