<?xml version="1.0" standalone="no"?>
<!DOCTYPE svg PUBLIC "-//W3C//DTD SVG 1.1//EN" "http://www.w3.org/Graphics/SVG/1.1/DTD/svg11.dtd" >
<svg xmlns="http://www.w3.org/2000/svg">
<metadata>
Created by FontPrep 20130207 at Tue Nov  4 15:29:38 2014
 By Mauricio Duran
Copyright (c) 2010 by Miles Newlyn. All rights reserved.
</metadata>
<defs>
<font id="96327a79a9ab003095a0ca09a65cc728" horiz-adv-x='1024' >
  <font-face 
    font-family="Rubrik-ExtraLightItalic"
    font-weight="250"
    font-style="italic"
    font-stretch="normal"
    units-per-em="2048"
    panose-1="2 0 5 3 0 0 0 2 0 4"
    ascent="1536"
    descent="-512"
    x-height="1032"
    cap-height="1438"
    bbox="-168 -584 2056 1866"
    underline-thickness="143"
    underline-position="-62"
    unicode-range="U+0020-FB02"
  />
<missing-glyph horiz-adv-x="616" 
 />
    <glyph glyph-name="fi" unicode="fi" horiz-adv-x="1261" 
d="M1073 1055q43 0 37 -47l-164 -979q-8 -37 -39 -37q-43 0 -37 47l164 979q8 37 39 37zM1198 1366q0 -30 -18 -52t-48 -22t-47 18q-16 18 -16 45q0 29 18 51t52 21q59 0 59 -61zM655 1454q82 0 154 -27q33 -12 33 -36q0 -13 -12 -25t-23 -12q-13 0 -61 12t-101 12
q-113 0 -172 -61t-78 -180l-16 -105h321q41 0 41 -39q0 -16 -12 -27t-29 -12h-333l-154 -925q-8 -37 -41 -37q-43 0 -37 47l154 915h-90q-41 0 -41 39t41 39h102l18 113q25 147 109 228t227 81z" />
    <glyph glyph-name=".notdef" horiz-adv-x="616" 
 />
    <glyph glyph-name=".null" horiz-adv-x="0" 
 />
    <glyph glyph-name="nonmarkingreturn" horiz-adv-x="681" 
 />
    <glyph glyph-name="space" unicode=" " horiz-adv-x="536" 
 />
    <glyph glyph-name="exclam" unicode="!" horiz-adv-x="436" 
d="M125 -20q-16 0 -27 11q-10 11 -8 29l35 216q6 39 41 38q16 0 26 -11t9 -27l-35 -218q-6 -38 -41 -38zM205 461q-14 0 -23 11q-8 11 -6 26l139 886q6 43 45 43q16 0 28 -12t7 -33l-155 -884q-6 -37 -35 -37z" />
    <glyph glyph-name="quotedbl" unicode="&#x22;" horiz-adv-x="624" 
d="M537 1434q16 0 26 -12t8 -29l-51 -310q-6 -41 -43 -41t-35 45l52 308q6 39 43 39zM252 1042q-16 0 -26 12t-9 33l51 308q6 39 41 39q17 0 27 -12t8 -29l-51 -310q-6 -41 -41 -41z" />
    <glyph glyph-name="numbersign" unicode="#" horiz-adv-x="1167" 
d="M358 549h271l178 362h-272zM56 -18q-22 0 -33 15q-10 15 0 38l217 438h-140q-37 0 -37 35q0 41 50 41h163l179 362h-148q-35 0 -35 33q0 43 50 43h172l213 434q14 29 36 29q21 0 31 -15t0 -40l-199 -408h271l213 434q14 29 38 29q25 0 33 -15t-2 -40l-200 -408h141
q37 0 37 -35q0 -41 -49 -41h-168l-178 -362h149q39 0 39 -35q0 -41 -49 -41h-176l-232 -467q-12 -24 -34 -24t-34 15q-11 15 1 38l217 438h-273l-229 -467q-12 -24 -34 -24z" />
    <glyph glyph-name="dollar" unicode="$" horiz-adv-x="1204" 
d="M457 -182q-16 0 -27 12q-10 12 -8 31l31 176q-109 12 -210 53t-161 86q-16 10 -16 30t12 32t28 12t31 -12q188 -125 418 -125q164 1 281 77q116 76 116 221t-145 206q-78 34 -189 64q-112 30 -164 49q-167 61 -220 155q-34 59 -33 139q0 174 143 270t332 97l31 180
q6 41 41 41q16 0 26 -11t8 -30l-30 -180q90 -15 168 -49t98 -55t20 -38q0 -35 -37 -35q-14 0 -30 13q-117 88 -287 88t-287 -76t-117 -213t140 -200q65 -30 160 -56q96 -25 146 -40t116 -46q66 -32 100 -64q86 -81 86 -206q0 -176 -142 -280t-360 -99l-28 -176
q-6 -41 -41 -41z" />
    <glyph glyph-name="percent" unicode="%" horiz-adv-x="1347" 
d="M878 59q90 -1 158 59t88 154q12 53 19 107q10 94 -44 153q-53 60 -143 60t-158 -60t-85 -134q-16 -76 -23 -126q-10 -94 44 -154t144 -59zM873 -8q-121 0 -195 82t-57 205q6 45 16 102q27 131 113 205t208 74t196 -82q74 -80 60 -197q-10 -74 -18 -111
q-33 -138 -118 -208t-205 -70zM390 852q89 0 158 59t89 154q12 53 18 106q10 93 -44 153t-143 60t-158 -59t-89 -154q-12 -57 -18 -106q-10 -93 44 -153t143 -60zM386 784q-120 0 -195 82t-58 205q6 45 17 103q26 130 112 204t208 74t197 -81t60 -197q-10 -74 -18 -111
q-33 -139 -118 -209t-205 -70zM158 193q-33 0 -33 32q0 18 16 33l1020 983q14 14 31 14q37 0 37 -30q0 -16 -17 -31l-1024 -987q-14 -14 -30 -14z" />
    <glyph glyph-name="ampersand" unicode="&#x26;" horiz-adv-x="1347" 
d="M981 1117q0 91 -85 164q-84 73 -232 73t-248 -82t-101 -203q0 -84 52 -160t163 -176q175 50 295 122q156 93 156 262zM514 61q252 0 424 197l-430 399q-256 -73 -326 -189q-33 -56 -32 -130q0 -129 101 -203t263 -74zM522 -16q-190 0 -320 97t-130 259q0 258 374 371
q-43 43 -53 55t-32 36t-47 58q-25 35 -31 48q-7 13 -27 53t-20 116q0 141 119 248q121 107 299 107t290 -94t113 -236q0 -281 -467 -422l395 -361q53 75 86 147t55 73q18 1 30 -15t3 -41q-51 -123 -117 -217l224 -203q33 -33 10 -59q-10 -12 -28 -13t-34 11l-221 203
q-190 -221 -471 -221z" />
    <glyph glyph-name="quotesingle" unicode="'" horiz-adv-x="423" 
d="M279 1042q-17 0 -27 12t-8 33l51 308q6 39 41 39q16 0 26 -12t9 -29l-52 -310q-6 -41 -40 -41z" />
    <glyph glyph-name="parenleft" unicode="(" horiz-adv-x="661" 
d="M727 1628q37 0 37 -35q0 -13 -12 -27t-53 -50q-277 -245 -375 -578q-62 -202 -64 -444q0 -453 238 -785q12 -18 12 -31t-12 -26q-13 -12 -31 -12t-31 18q-252 360 -252 836q0 702 510 1120q18 14 33 14z" />
    <glyph glyph-name="parenright" unicode=")" horiz-adv-x="661" 
d="M-55 -360q-14 0 -26 9q-11 9 -11 24t12 29t52 49q76 69 145 150q291 344 295 873q0 455 -238 782q-12 20 -12 34t12 26t30 12t32 -18q252 -360 251 -836q0 -702 -510 -1120q-18 -14 -32 -14z" />
    <glyph glyph-name="asterisk" unicode="*" horiz-adv-x="708" 
d="M300 754q-36 0 -30 43l41 235l-221 -123q-18 -8 -34 -3t-19 18q-12 29 22 47l230 125l-183 114q-34 23 -10 51t54 7l180 -119l41 237q6 41 39 41q16 0 26 -12t4 -35l-41 -231l219 121q35 20 56 -13q12 -31 -25 -49l-227 -121l182 -120q33 -20 12 -49q-23 -25 -53 -7
l-182 121l-39 -239q-6 -39 -42 -39z" />
    <glyph glyph-name="plus" unicode="+" horiz-adv-x="1286" 
d="M680 238q0 -43 -38 -43t-38 43v442h-442q-43 0 -43 38t43 38h442v440q0 43 38 43t38 -43v-440h434q45 0 45 -39q0 -17 -13 -27t-32 -10h-434v-442z" />
    <glyph glyph-name="comma" unicode="," horiz-adv-x="413" 
d="M96 -193q-33 0 -33 33q0 16 19 35q63 68 82 172l20 111q6 37 41 37q17 -1 27 -13t6 -32l-20 -113q-14 -80 -36 -121t-55 -75t-51 -34z" />
    <glyph glyph-name="hyphen" unicode="-" horiz-adv-x="653" 
d="M141 549q-41 0 -41 38t41 38h371q41 0 41 -38t-41 -38h-371z" />
    <glyph glyph-name="period" unicode="." horiz-adv-x="479" 
d="M164 -23q-16 1 -28 13t-9 33l35 210q6 39 41 39q16 0 26 -11t9 -30l-35 -215q-6 -39 -39 -39z" />
    <glyph glyph-name="slash" unicode="/" horiz-adv-x="610" 
d="M16 -66q-24 0 -34 16t-2 38l583 1482q11 29 37 28t34 -17t1 -37l-584 -1485q-11 -25 -35 -25z" />
    <glyph glyph-name="zero" unicode="0" horiz-adv-x="1320" 
d="M625 61q350 0 440 418q51 250 65 416q18 209 -89 342q-108 133 -314 133q-354 0 -440 -418q-53 -254 -64 -415q-17 -209 89 -343t313 -133zM618 -16q-228 0 -361 154q-132 154 -112 380q13 166 61 412t175 382t355 136t360 -155t112 -372t-65 -441t-171 -360t-354 -136z
" />
    <glyph glyph-name="one" unicode="1" horiz-adv-x="833" 
d="M371 -8q-16 0 -28 11q-11 11 -9 30l217 1308l-324 -176q-12 -6 -24 -6q-35 0 -35 35q0 23 29 39l346 190q27 14 45 15q57 0 47 -64l-223 -1341q-6 -41 -41 -41z" />
    <glyph glyph-name="two" unicode="2" horiz-adv-x="1155" 
d="M864 78q41 0 41 -39t-49 -39h-774q-31 0 -46 22t-11 54q25 141 104 235q80 94 285 232q47 31 137 89q275 177 350 274q74 97 74 209q0 111 -85 183t-222 72q-199 0 -371 -172q-19 -20 -33 -20t-25 10q-31 28 29 90t168 116t256 54t254 -93t106 -244t-113 -272
q-114 -121 -264 -217q-36 -24 -104 -68q-301 -195 -372 -279q-72 -84 -90 -197h755z" />
    <glyph glyph-name="three" unicode="3" horiz-adv-x="1142" 
d="M414 864q0 21 24 43l455 436l-2 7h-653q-16 0 -28 11q-11 11 -11 28q0 39 45 38h686q76 0 76 -51q0 -31 -39 -67l-437 -414q184 10 310 -94t127 -279q0 -210 -147 -327q-147 -118 -335 -157q-187 -40 -387 -40q-57 0 -57 37q0 45 45 45l98 -2q238 0 455 89
q113 46 183 137t71 216q0 125 -91 213t-247 88l-84 -2q-25 0 -41 12t-16 33z" />
    <glyph glyph-name="four" unicode="4" horiz-adv-x="1304" 
d="M860 449l146 888l-856 -888h710zM135 373q-71 0 -73 60q0 28 28 61l856 890q49 54 83 54t48 -20t10 -52l-151 -917h182q37 0 37 -37q0 -16 -13 -28t-34 -11h-184l-58 -340q-8 -41 -39 -41q-16 0 -27 12t-9 29l55 340h-711z" />
    <glyph glyph-name="five" unicode="5" horiz-adv-x="1175" 
d="M952 558q0 128 -84 209t-242 81t-343 -117q-31 -20 -61 -3t-21 58l94 570q12 72 84 71h655q39 0 39 -34q0 -19 -13 -31t-34 -12h-655l-88 -535q162 109 345 109q184 0 292 -100t108 -240q0 -142 -62 -247t-160 -169q-274 -178 -734 -178q-43 0 -43 37q0 45 51 45l57 -2
q254 0 510 102q133 54 219 156t86 230z" />
    <glyph glyph-name="six" unicode="6" horiz-adv-x="1302" 
d="M205 530q1 -238 107 -354t286 -115q180 0 300 126t120 290q0 334 -371 334q-205 0 -430 -117q-12 -96 -12 -164zM1118 1356l-205 12q-268 0 -445 -148t-237 -440q217 106 420 106t323 -98q120 -100 120 -282q0 -222 -134 -372t-355 -150q-220 0 -349 132t-129 419
t118 514q62 119 151 207q88 88 224 140t294 52t198 -11t41 -40q0 -17 -12 -29q-11 -12 -23 -12z" />
    <glyph glyph-name="seven" unicode="7" horiz-adv-x="1007" 
d="M177 -8q-28 0 -37 18t1 41q106 272 266 515q159 243 570 784h-784q-37 0 -37 39t43 38h819q63 0 63 -47q0 -27 -26 -59q-395 -518 -567 -774t-269 -516q-14 -39 -42 -39z" />
    <glyph glyph-name="eight" unicode="8" horiz-adv-x="1329" 
d="M1139 433q-1 -217 -141 -333t-370 -116t-365 98q-134 98 -134 265t91 281t249 142q-94 37 -148 113t-55 168q0 193 138 295t350 102t332 -99q118 -99 118 -233t-76 -234q-76 -99 -225 -139q236 -94 236 -310zM211 356q-1 -150 117 -222t298 -73q180 0 306 87
q127 87 127 266q0 143 -108 221t-299 78t-316 -84t-125 -273zM344 1051q0 -117 104 -190t286 -73t287 90t105 214q0 126 -96 202t-268 76t-295 -80t-123 -239z" />
    <glyph glyph-name="nine" unicode="9" horiz-adv-x="1284" 
d="M1065 973q1 199 -105 302t-286 103t-298 -122t-118 -293t96 -262t284 -91t404 115q23 117 23 248zM643 535q-207 0 -336 104t-129 314q0 211 137 357t353 146t347 -122q130 -122 130 -347q0 -493 -253 -745t-734 -252q-41 0 -41 39t49 39q338 -4 563 141t297 430
q-176 -104 -383 -104z" />
    <glyph glyph-name="colon" unicode=":" horiz-adv-x="542" 
d="M193 -23q-41 0 -35 43l35 213q6 39 40 39q17 0 27 -11t8 -30l-35 -215q-5 -39 -40 -39zM311 717q-41 0 -35 43l35 213q6 39 41 39q16 0 26 -12t9 -29l-35 -215q-6 -39 -41 -39z" />
    <glyph glyph-name="semicolon" unicode=";" horiz-adv-x="573" 
d="M342 717q-41 0 -35 43l35 213q6 39 41 39q17 0 27 -12t8 -29l-35 -215q-6 -39 -41 -39zM125 -190q-33 0 -33 30q0 16 19 35q63 68 82 172l20 111q6 37 41 37q16 -1 26 -13t7 -32l-21 -113q-14 -80 -36 -121t-64 -86q-21 -20 -41 -20z" />
    <glyph glyph-name="less" unicode="&#x3c;" horiz-adv-x="1286" 
d="M933 1331q13 0 24 -11q11 -10 11 -28t-16 -30l-602 -496q-37 -29 -37 -49t37 -49l604 -496q16 -12 16 -30t-16 -34q-17 -17 -47 5l-614 501q-120 103 0 205l612 502q15 10 28 10z" />
    <glyph glyph-name="equal" unicode="=" horiz-adv-x="1286" 
d="M1104 512h-924q-43 0 -43 38t43 38h924q45 0 45 -39q0 -16 -13 -27q-14 -10 -32 -10zM1104 846h-924q-43 0 -43 38t43 38h924q45 0 45 -39q0 -16 -13 -27q-14 -10 -32 -10z" />
    <glyph glyph-name="greater" unicode="&#x3e;" horiz-adv-x="1286" 
d="M364 102q-12 0 -24 12t-12 28q0 17 16 30l602 496q37 29 37 49t-37 49l-604 496q-16 12 -16 29t11 29t24 11q13 0 28 -10l615 -502q59 -51 59 -102t-59 -103l-613 -501q-14 -11 -27 -11z" />
    <glyph glyph-name="question" unicode="?" horiz-adv-x="1208" 
d="M520 565q-37 0 -37 35q0 25 41 43q12 6 76 32q224 92 310 190q87 99 86 226q-1 129 -82 205t-230 76q-86 0 -162 -30t-114 -58t-75 -64q-38 -36 -54 -36q-33 0 -33 33q0 16 16 36q63 81 179 139t239 58q172 0 284 -94t112 -270t-132 -296q-131 -120 -395 -219
q-17 -6 -29 -6zM424 -23q-41 0 -35 43l35 213q6 39 41 39q17 0 27 -11t8 -30l-35 -215q-6 -39 -41 -39z" />
    <glyph glyph-name="at" unicode="@" horiz-adv-x="1685" 
d="M778 133q-156 0 -232 94t-54 265l16 122q23 174 119 268t263 93t249 -107t59 -254l-35 -227q-12 -82 26 -125t103 -43q117 0 140 137l65 394q45 264 -123 437t-439 173q-538 0 -681 -588q-53 -221 -68 -453q-12 -139 27 -249q73 -206 292 -284q99 -36 214 -36t266 49
q53 16 53 -26q0 -49 -167 -81q-89 -17 -160 -18q-272 0 -449 170q-176 170 -151 482q16 217 65 442q70 326 262 497q193 171 484 171q332 0 515 -200t134 -497l-62 -374q-35 -219 -217 -220q-104 0 -164 70q-59 70 -41 178l35 219q20 129 -49 208q-70 79 -193 79
q-256 0 -296 -287l-19 -125q-39 -279 221 -278q52 0 100 15t58 16q33 0 33 -33q0 -27 -31 -41q-70 -33 -168 -33z" />
    <glyph glyph-name="A" unicode="A" horiz-adv-x="1323" 
d="M788 1372q-48 0 -79 -57l-373 -705h651l-141 705q-10 57 -58 57zM-14 0q-25 0 -35 16t2 43l670 1262q39 75 75 101t88 26q113 0 140 -127l252 -1268q4 -25 -8 -39t-29 -14q-35 0 -41 35l-99 504h-706l-270 -512q-14 -27 -39 -27z" />
    <glyph glyph-name="B" unicode="B" horiz-adv-x="1347" 
d="M801 784q143 0 251 86t108 218q-1 262 -365 262h-373l-94 -566h473zM659 78q190 0 318 88q127 88 127 254q0 133 -81 213t-212 80h-496l-104 -635h448zM197 0q-76 0 -62 76l211 1276q12 76 90 75h357q217 1 333 -81t115 -242q0 -246 -254 -356v-5q195 -94 195 -306
q0 -213 -144 -325t-383 -112h-458z" />
    <glyph glyph-name="C" unicode="C" horiz-adv-x="1304" 
d="M637 59q301 0 436 287q16 39 43 39q14 0 24 -10q10 -9 11 -23q-1 -14 -21 -58q-47 -100 -152 -197q-58 -52 -146 -83t-193 -30q-260 0 -407 167q-146 167 -113 427q23 197 57 333q61 247 217 391t393 144q176 0 304 -93t167 -235q6 -20 7 -37q0 -37 -35 -37q-29 0 -39 37
q-49 147 -157 218t-253 71q-190 0 -327 -120t-197 -339q-40 -147 -62 -362t100 -353t343 -137z" />
    <glyph glyph-name="D" unicode="D" horiz-adv-x="1390" 
d="M578 78q264 0 418 120t214 396q20 92 33 215q35 252 -101 396t-409 145h-311l-209 -1272h365zM195 0q-72 0 -60 76l211 1276q6 32 30 54t58 21h295q319 1 472 -165t122 -441q-18 -168 -37 -246q-68 -311 -243 -443t-463 -132h-385z" />
    <glyph glyph-name="E" unicode="E" horiz-adv-x="1243" 
d="M438 1427h742q41 0 41 -38q-1 -15 -13 -27t-28 -12h-756l-98 -592h718q41 0 41 -38t-41 -38h-731l-98 -604h748q41 0 41 -39t-41 -39h-764q-76 0 -62 76l211 1276q6 41 26 58t64 17z" />
    <glyph glyph-name="F" unicode="F" horiz-adv-x="1187" 
d="M1196 1427q41 0 41 -38q0 -15 -12 -27t-29 -12h-764l-102 -613h706q41 0 41 -38t-41 -37h-719l-106 -629q-8 -41 -39 -41q-16 0 -28 11q-11 12 -9 30l221 1321q12 74 88 73h752z" />
    <glyph glyph-name="G" unicode="G" horiz-adv-x="1384" 
d="M1155 727q82 0 68 -80q-6 -39 -15 -82t-16 -94q-37 -217 -178 -352t-382 -135q-240 0 -390 168t-127 413q16 180 57 346q59 251 219 393t383 142q172 0 301 -82t178 -231q8 -29 9 -39q0 -39 -37 -39q-29 0 -37 32q-33 133 -147 208t-263 75q-197 0 -332 -120t-194 -351
q-34 -137 -58 -338t100 -351t331 -151q207 0 329 109t160 299l33 182h-373q-18 0 -31 11q-12 11 -12 28q0 39 43 39h381z" />
    <glyph glyph-name="H" unicode="H" horiz-adv-x="1538" 
d="M172 -8q-16 0 -28 11q-11 11 -9 30l227 1368q8 37 39 37q43 0 37 -47l-106 -635h919l105 645q8 37 41 37q43 0 37 -47l-228 -1360q-6 -39 -39 -39q-17 0 -29 12t-8 27l107 649h-918l-108 -647q-8 -41 -39 -41z" />
    <glyph glyph-name="I" unicode="I" horiz-adv-x="542" 
d="M172 -8q-43 0 -37 47l227 1362q8 37 39 37q43 0 37 -47l-227 -1362q-8 -37 -39 -37z" />
    <glyph glyph-name="J" unicode="J" horiz-adv-x="923" 
d="M295 -16q-113 0 -195 55t-116 129q-10 23 -11 35q0 39 35 39q25 0 37 -25q84 -156 244 -156q233 0 284 312l170 1026q6 39 41 39q18 0 28 -12t9 -27l-172 -1034q-63 -381 -354 -381z" />
    <glyph glyph-name="K" unicode="K" horiz-adv-x="1251" 
d="M170 -8q-16 0 -27 12q-10 12 -8 27l227 1368q6 39 41 39q17 0 27 -12t8 -27l-106 -635h69q37 0 60 8t59 43l654 608q14 14 32 15q37 0 37 -35q0 -20 -20 -39l-688 -637l550 -668q10 -16 11 -30q0 -37 -39 -37q-20 0 -33 16l-516 629q-26 35 -48 43t-63 8h-78l-108 -657
q-6 -39 -41 -39z" />
    <glyph glyph-name="L" unicode="L" horiz-adv-x="1091" 
d="M958 78q41 0 41 -39t-41 -39h-759q-76 0 -64 76l221 1323q6 39 39 39q43 0 37 -47l-219 -1313h745z" />
    <glyph glyph-name="M" unicode="M" horiz-adv-x="1787" 
d="M1497 1378q-23 0 -37 -32l-536 -1254q-43 -94 -119 -94q-41 0 -68 27t-30 67l-129 1254q-2 33 -31 32q-27 0 -37 -35l-420 -1323q-10 -30 -34 -30t-37 14q-11 14 -5 35l418 1315q33 102 115 102q47 0 76 -26t32 -68l129 -1262q4 -25 25 -24q20 0 31 24l542 1264
q45 92 117 92q45 0 75 -28t30 -76l-15 -1319q0 -43 -39 -43q-16 0 -28 12t-11 31l15 1310q0 35 -29 35z" />
    <glyph glyph-name="N" unicode="N" horiz-adv-x="1560" 
d="M1419 1438q37 0 37 -41v-8l-221 -1315q-14 -78 -78 -78q-53 0 -74 47l-647 1311h-4q-55 -313 -70 -406l-151 -915q-8 -41 -39 -41q-14 0 -26 10q-11 10 -11 25v6l221 1329q12 78 78 78q51 0 72 -47l651 -1315h2q34 220 60 354l161 969q8 37 39 37z" />
    <glyph glyph-name="O" unicode="O" horiz-adv-x="1372" 
d="M770 1368q-217 0 -355 -137t-184 -354q-31 -153 -45 -295t24 -244t109 -160q148 -117 333 -117q186 0 324 118q138 119 183 309t63 394t-108 346q-127 140 -344 140zM776 1446q254 0 402 -169t120 -399q-27 -230 -53 -358q-53 -258 -214 -397t-382 -139t-391 147
q-82 72 -125 192q-43 121 -25 269t42 274q49 264 210 422q162 158 416 158z" />
    <glyph glyph-name="P" unicode="P" horiz-adv-x="1275" 
d="M743 664q201 0 317 103t116 286q0 131 -98 214t-263 83h-383l-115 -686h426zM172 -8q-16 0 -28 11q-11 11 -9 30l221 1319q12 76 84 75h383q193 0 313 -100t119 -270q0 -217 -137 -343t-383 -126h-430l-94 -555q-8 -41 -39 -41z" />
    <glyph glyph-name="Q" unicode="Q" horiz-adv-x="1392" 
d="M666 450q0 14 10 27q10 12 28 12t35 -26l205 -318q170 117 230 361q41 172 59 376t-109 346q-127 140 -344 140t-355 -137t-183 -354q-31 -153 -45 -295q-15 -142 23 -244t110 -160q148 -117 336 -117q102 0 208 45l-198 314q-10 16 -10 30zM672 -16q-236 0 -405 147
q-81 72 -123 192q-42 121 -24 269t40 274q49 264 211 422q161 158 415 158t402 -169t120 -399q-26 -230 -53 -358q-63 -301 -270 -438l158 -248q8 -12 8 -26t-10 -26q-11 -11 -29 -11t-33 20l-161 250q-122 -57 -246 -57z" />
    <glyph glyph-name="R" unicode="R" horiz-adv-x="1374" 
d="M727 688q213 0 333 96t120 254t-104 235t-275 77h-369l-110 -662h405zM172 -8q-16 0 -28 12q-11 12 -9 31l219 1317q12 76 88 75h371q197 0 321 -99q124 -100 124 -286t-130 -299q-129 -113 -346 -125l348 -561q8 -14 9 -28q0 -35 -37 -35q-23 0 -39 24l-332 529
q-16 27 -33 46t-67 19h-324l-96 -579q-8 -41 -39 -41z" />
    <glyph glyph-name="S" unicode="S" horiz-adv-x="1255" 
d="M1073 379q0 -174 -138 -285t-351 -110q-156 0 -309 56t-216 120q-18 18 -18 34q0 38 35 39q12 0 61 -38q68 -47 189 -91t273 -43q152 0 275 85t123 222t-97 202q-97 66 -215 107q-118 42 -159 58t-103 51q-186 105 -184 279q1 174 135 277t335 104q125 0 245 -42t187 -93
q23 -17 23 -35q-1 -42 -40 -41q-18 0 -41 16q-171 117 -365 117t-298 -88t-104 -197t56 -163q32 -31 63 -58t96 -50q215 -78 281 -106q176 -78 228 -180q33 -63 33 -147z" />
    <glyph glyph-name="T" unicode="T" horiz-adv-x="1103" 
d="M137 1350q-41 0 -41 39t41 38h1018q41 0 41 -38q0 -15 -12 -27t-29 -12h-475l-219 -1317q-8 -41 -41 -41q-16 0 -28 11q-11 11 -9 30l221 1317h-467z" />
    <glyph glyph-name="U" unicode="U" horiz-adv-x="1437" 
d="M338 1438q43 0 37 -47l-133 -793q-25 -150 8 -262q34 -112 108 -167q144 -108 326 -108t317 120t175 360l141 860q8 37 41 37q43 0 37 -47l-142 -850q-45 -276 -194 -417q-150 -140 -375 -140t-388 136q-83 68 -121 196t-9 294l133 791q8 37 39 37z" />
    <glyph glyph-name="V" unicode="V" horiz-adv-x="1292" 
d="M1308 1438q42 0 44 -39q0 -10 -6 -23l-707 -1298q-29 -51 -55 -73t-64 -21q-84 0 -104 94l-275 1302q-13 56 45 58q27 0 35 -35l275 -1319q4 -23 24 -23t31 23l721 1325q14 29 36 29z" />
    <glyph glyph-name="W" unicode="W" horiz-adv-x="1832" 
d="M1876 1440q24 0 34 -12t11 -23q0 -12 -6 -29l-526 -1321q-31 -72 -97 -71q-32 0 -58 20t-30 55l-147 1291q0 6 -6 7t-11 -5l-581 -1297q-31 -72 -97 -71q-36 0 -62 19t-28 54l-79 1334q-2 18 9 33t31 16q35 0 39 -35l78 -1329q0 -8 8 -16t19 16l581 1282q35 78 97 78
q72 0 82 -86l143 -1274q0 -8 7 -12t15 -1q7 4 9 13l532 1333q9 31 33 31z" />
    <glyph glyph-name="X" unicode="X" horiz-adv-x="1294" 
d="M1100 31q0 -37 -39 -37q-20 0 -37 24l-387 635l-600 -645q-12 -14 -33 -14q-37 0 -37 35q0 16 19 39l612 659l-387 643q-8 14 -8 30t11 25q11 11 31 11t31 -21l379 -631l590 633q18 18 37 19q37 0 37 -37q-1 -14 -19 -37l-604 -649l396 -654q8 -16 8 -28z" />
    <glyph glyph-name="Y" unicode="Y" horiz-adv-x="1249" 
d="M113 1401q0 35 39 37q20 0 34 -19l422 -676l654 680q34 34 62 5q11 -11 11 -27t-14 -33l-635 -653q-45 -47 -53 -90l-98 -592q-8 -41 -39 -41q-18 0 -30 12q-11 12 -7 29l98 592q8 39 -25 92l-411 657q-8 14 -8 27z" />
    <glyph glyph-name="Z" unicode="Z" horiz-adv-x="1155" 
d="M932 0h-854q-72 0 -72 55q0 29 29 64l1052 1231h-817q-41 0 -41 39t41 38h842q72 0 72 -53q0 -31 -29 -65l-1053 -1231h830q41 0 41 -39t-41 -39z" />
    <glyph glyph-name="bracketleft" unicode="[" horiz-adv-x="655" 
d="M453 -281q41 0 41 -36q0 -17 -14 -29t-38 -12h-327q-70 0 -58 75l305 1833q12 74 80 74h326q39 0 39 -35q0 -43 -47 -43h-322l-305 -1827h320z" />
    <glyph glyph-name="backslash" unicode="\" horiz-adv-x="600" 
d="M467 -66q-35 0 -41 35l-336 1479q-4 20 6 36t33 17q33 0 39 -35l336 -1482q4 -18 -6 -34t-31 -16z" />
    <glyph glyph-name="bracketright" unicode="]" horiz-adv-x="653" 
d="M201 1546q-39 0 -39 39t49 39h328q72 0 59 -76l-305 -1833q-12 -74 -82 -73h-326q-39 0 -39 34q0 16 12 30t36 13h321l305 1827h-319z" />
    <glyph glyph-name="asciicircum" unicode="^" horiz-adv-x="1341" 
d="M360 748q-24 0 -36 17t-5 36l240 569q41 98 112 98t111 -98l240 -569q8 -17 -4 -35t-38 -18t-34 24l-248 596q-10 25 -27 25t-28 -25l-248 -596q-10 -24 -35 -24z" />
    <glyph glyph-name="underscore" unicode="_" horiz-adv-x="925" 
d="M946 -315v-76h-966v76h966z" />
    <glyph glyph-name="grave" unicode="`" 
d="M561 1542q-12 0 -26 8l-250 140q-23 10 -23 34q0 35 37 35q14 0 31 -8l250 -141q23 -12 22 -33q0 -35 -41 -35z" />
    <glyph glyph-name="a" unicode="a" horiz-adv-x="1116" 
d="M168 299q0 -100 82 -171t250 -71q167 0 299 97l51 315q-180 92 -332 92t-251 -66q-99 -67 -99 -196zM494 -18q-182 0 -293 90t-111 238t119 236q119 87 295 87t358 -92l27 151q27 154 -49 228t-210 74t-288 -68q-18 -8 -37 2q-18 10 -18 32q1 22 33 42t125 44t180 23
q167 -1 269 -95t71 -280l-93 -542q-8 -49 -30 -64q-166 -106 -348 -106z" />
    <glyph glyph-name="b" unicode="b" horiz-adv-x="1155" 
d="M670 993q-152 0 -332 -96l-123 -739q47 -35 149 -67t199 -32q289 1 367 312q37 145 45 300t-73 239q-80 84 -232 83zM563 -18q-131 0 -255 44t-161 76q-16 14 -10 58l207 1247q8 37 39 37q43 0 37 -47l-68 -410q180 82 318 82q178 -1 286 -107t95 -305q-8 -123 -39 -272
q-86 -403 -449 -403z" />
    <glyph glyph-name="c" unicode="c" horiz-adv-x="1112" 
d="M539 59q96 -1 185 51t128 173q10 33 39 32q37 0 37 -39q0 -71 -109 -190q-43 -47 -116 -76t-162 -28q-182 0 -311 120q-128 121 -101 336q6 61 35 221q35 205 154 308q120 102 286 102t260 -71t127 -169q10 -37 10 -47q1 -39 -33 -39t-44 35q-61 215 -306 215
q-307 0 -378 -334q-20 -97 -38 -255t86 -252q106 -94 251 -93z" />
    <glyph glyph-name="d" unicode="d" horiz-adv-x="1212" 
d="M525 59q165 0 309 86l122 744q-57 39 -151 72t-195 32q-299 0 -370 -334q-19 -87 -38 -254t69 -257q89 -89 254 -89zM614 1069q182 0 357 -96l71 434q8 37 39 37q43 0 37 -47l-209 -1256q-6 -39 -43 -61q-158 -98 -346 -98t-304 118t-87 338q8 68 40 246t147 282
q116 103 298 103z" />
    <glyph glyph-name="e" unicode="e" horiz-adv-x="1103" 
d="M858 567q39 0 49 37q53 199 -34 294t-253 95t-264 -104q-96 -105 -131 -322h633zM842 133q32 0 32 -41q0 -19 -34 -37q-143 -74 -283 -73q-219 0 -337 122t-93 326q16 115 41 225q90 414 471 414q172 0 285 -115t61 -336l-6 -26q-25 -100 -123 -100h-643l-10 -64
q-29 -174 71 -273t253 -99t290 69q11 8 25 8z" />
    <glyph glyph-name="f" unicode="f" horiz-adv-x="745" 
d="M655 1454q82 0 154 -27q33 -12 33 -36q0 -13 -12 -25t-23 -12q-13 0 -61 12t-101 12q-113 0 -172 -61t-78 -180l-16 -105h321q41 0 41 -39q0 -16 -12 -27t-29 -12h-333l-154 -925q-8 -37 -41 -37q-43 0 -37 47l154 915h-90q-41 0 -41 39t41 39h102l18 113q25 147 109 228
t227 81z" />
    <glyph glyph-name="g" unicode="g" horiz-adv-x="1183" 
d="M664 993q-319 0 -390 -334q-18 -89 -36 -241t62 -244t250 -92q171 0 329 113l112 702q-134 96 -327 96zM557 4q-203 0 -311 117t-82 317q10 88 35 221q37 205 154 308q118 102 302 102q236 0 392 -111q30 -20 22 -59l-139 -856q-66 -432 -476 -432q-92 0 -187 41t-146 90
q-34 34 -9 61t64 -8q127 -111 288 -111t267 98q106 97 131 316q-145 -94 -305 -94z" />
    <glyph glyph-name="h" unicode="h" horiz-adv-x="1234" 
d="M928 -8q-14 0 -26 12q-11 12 -9 29l102 602q57 358 -252 358q-186 0 -397 -159l-135 -805q-8 -37 -39 -37q-43 0 -37 47l227 1368q8 37 39 37q43 0 37 -47l-76 -465q205 137 373 137t265 -87q111 -99 71 -343l-102 -606q-6 -41 -41 -41z" />
    <glyph glyph-name="i" unicode="i" horiz-adv-x="544" 
d="M338 1055q43 0 37 -47l-164 -979q-8 -37 -39 -37q-43 0 -37 47l164 979q8 37 39 37zM463 1365q-1 -29 -19 -51t-48 -22t-46 18t-16 45q0 29 18 51t51 21q60 0 60 -62z" />
    <glyph glyph-name="j" unicode="j" horiz-adv-x="540" 
d="M459 1365q-1 -29 -19 -51t-48 -22t-46 18t-16 45q0 29 18 51t51 21q60 0 60 -62zM346 1055q43 0 37 -47l-150 -904q-23 -137 -69 -234t-90 -140q-43 -43 -127 -109q-16 -14 -35 -14q-35 0 -35 33q0 23 21 36q117 82 175 178t81 238l153 926q8 37 39 37z" />
    <glyph glyph-name="k" unicode="k" horiz-adv-x="1046" 
d="M401 1444q43 0 37 -47l-135 -813h68q45 0 71 10t60 43l432 412q14 14 31 14q37 0 36 -35q0 -18 -18 -37l-469 -446l352 -484q30 -34 3 -59q-11 -10 -29 -10t-33 20l-322 441q-25 33 -47 44t-67 11h-80l-80 -479q-8 -37 -39 -37q-43 0 -37 47l227 1368q8 37 39 37z" />
    <glyph glyph-name="l" unicode="l" horiz-adv-x="522" 
d="M401 1444q43 0 37 -47l-227 -1368q-8 -37 -39 -37q-43 0 -37 47l227 1368q8 37 39 37z" />
    <glyph glyph-name="m" unicode="m" horiz-adv-x="1771" 
d="M1466 -8q-16 0 -28 12t-11 29l103 614q58 348 -253 348q-155 0 -325 -149q16 -72 -2 -191l-104 -622q-6 -41 -41 -41q-14 0 -26 12q-11 12 -9 31l109 637q57 326 -259 324q-154 0 -284 -89l-146 -878q-8 -37 -38 -37q-43 0 -37 47l145 872q6 31 53 67t141 64t186 29
q93 0 176 -41t112 -112q178 154 363 154t267 -114q82 -112 50 -311l-103 -614q-8 -41 -39 -41z" />
    <glyph glyph-name="n" unicode="n" horiz-adv-x="1214" 
d="M907 -8q-14 0 -25 12t-10 31l103 598q36 226 -78 301q-89 59 -211 59q-182 0 -352 -98l-144 -866q-8 -37 -38 -37q-43 0 -37 47l143 868q6 37 45 60q178 102 365 102t296 -85q127 -98 87 -349l-103 -602q-6 -41 -41 -41z" />
    <glyph glyph-name="o" unicode="o" horiz-adv-x="1134" 
d="M623 993q-313 0 -387 -346q-20 -98 -33 -217q-21 -182 91 -276t255 -95q297 0 371 344q20 99 32 218q20 182 -85 277t-244 95zM621 1069q176 0 301 -118t108 -322q-10 -117 -39 -250q-41 -195 -155 -296t-289 -101q-174 0 -306 116t-116 324q10 117 39 250
q41 195 161 296t296 101z" />
    <glyph glyph-name="p" unicode="p" horiz-adv-x="1130" 
d="M624 995q-167 0 -307 -88l-120 -743q53 -39 147 -71t197 -32q299 0 370 332q19 88 39 255t-69 257q-90 90 -257 90zM537 -16q-182 0 -357 96l-69 -434q-8 -37 -41 -37q-43 0 -37 47l209 1255q6 39 43 62q157 96 347 96t306 -117t84 -338q-19 -125 -35 -221
q-37 -203 -153 -306t-297 -103z" />
    <glyph glyph-name="q" unicode="q" horiz-adv-x="1134" 
d="M486 59q152 0 331 95l125 739q-47 35 -151 68t-203 32q-285 0 -363 -313q-33 -135 -42 -295t71 -243t232 -83zM588 1069q131 0 257 -44t163 -77q16 -14 10 -57l-207 -1247q-8 -37 -39 -37q-43 0 -37 47l68 409q-174 -80 -309 -79q-184 0 -293 105t-97 304q8 123 39 273
q86 403 445 403z" />
    <glyph glyph-name="r" unicode="r" horiz-adv-x="739" 
d="M152 -8q-43 0 -37 47l121 727q31 178 112 241q82 62 223 62q89 0 185 -31q33 -8 32 -37q0 -39 -38 -38q-18 0 -28 4q-73 27 -169 27q-97 -1 -159 -53t-85 -191l-119 -721q-8 -37 -38 -37z" />
    <glyph glyph-name="s" unicode="s" horiz-adv-x="993" 
d="M829 272q0 -127 -99 -209q-100 -81 -242 -81t-256 52q-170 78 -173 130q1 14 11 25t24 11t45 -22q164 -119 338 -119q121 1 199 59t78 149t-57 131t-131 73t-109 49q-142 67 -195 129t-53 142q0 131 105 205t228 73q124 0 210 -35q137 -55 139 -104q0 -14 -10 -26
q-9 -12 -25 -11q-16 0 -35 14q-131 88 -256 88t-203 -58t-78 -138q0 -81 56 -125t152 -86t126 -56q107 -51 159 -109t52 -151z" />
    <glyph glyph-name="t" unicode="t" horiz-adv-x="819" 
d="M418 -16q-141 0 -210 82t-40 253l149 902q6 39 41 39q16 0 26 -12t9 -31l-31 -185h334q41 0 41 -38t-41 -38h-346l-106 -634q-43 -260 168 -261q62 1 122 23t69 22t19 -11t11 -25q0 -27 -37 -43q-86 -43 -178 -43z" />
    <glyph glyph-name="u" unicode="u" horiz-adv-x="1175" 
d="M289 1055q14 -1 25 -13t10 -30l-93 -559q-35 -209 53 -301t257 -92q168 0 325 108l140 850q8 37 38 37q43 0 37 -47l-141 -858q-2 -27 -37 -52q-163 -116 -365 -116t-313 120q-110 122 -71 351l94 561q6 41 41 41z" />
    <glyph glyph-name="v" unicode="v" horiz-adv-x="1034" 
d="M1000 1057q20 -1 32 -17t0 -39l-514 -940q-43 -74 -96 -73q-70 0 -88 82l-203 936q-4 20 6 35t33 15t37 -36l174 -823q16 -75 20 -99t19 -32t25 10q9 18 63 121l453 827q19 33 39 33z" />
    <glyph glyph-name="w" unicode="w" horiz-adv-x="1640" 
d="M893 981q-12 0 -19 -14l-423 -924q-37 -74 -86 -74q-78 0 -89 88l-122 951q-8 53 36 53q35 0 39 -43l99 -799q4 -25 9 -75t7 -68q2 -27 23 -27q14 0 22 19l62 147l356 770q35 76 88 76q35 -1 55 -19t27 -69l94 -760q5 -32 16 -141q1 -23 15 -23t26 28t37 82t27 60
l375 813q16 29 40 29q25 -1 33 -19t-2 -41l-444 -958q-37 -74 -90 -74q-74 0 -86 88l-111 904q-2 20 -14 20z" />
    <glyph glyph-name="x" unicode="x" horiz-adv-x="1058" 
d="M43 -6q-37 0 -37 33q0 18 17 36l450 486l-262 444q-8 14 -8 25q0 35 37 35q18 0 30 -19l254 -430l396 432q28 32 56 6q11 -10 11 -24t-12 -31l-412 -450l283 -480q10 -16 10 -30q0 -33 -35 -33q-23 -1 -39 26l-272 459l-436 -471q-14 -14 -31 -14z" />
    <glyph glyph-name="y" unicode="y" horiz-adv-x="1017" 
d="M441 170q7 0 15 11t26 47q19 36 32 57l418 737q16 29 39 29q23 1 31 -19t-1 -39l-546 -962q-174 -313 -365 -410q-25 -12 -41 -12q-37 0 -39 33q0 23 27 34q190 96 354 392l-262 929q-12 51 41 53q25 0 35 -32l198 -725q19 -79 25 -101t13 -22z" />
    <glyph glyph-name="z" unicode="z" horiz-adv-x="999" 
d="M772 74q39 0 39 -37t-39 -37h-643q-74 0 -74 59q0 25 29 58l788 839h-604q-41 0 -41 38t41 38h609q84 0 84 -61q0 -29 -27 -56l-791 -841h629z" />
    <glyph glyph-name="braceleft" unicode="{" horiz-adv-x="649" 
d="M180 -356q-59 0 -94 37t-25 102l95 559q25 156 -74 244q-27 24 -27 56t45 60q127 78 156 248l90 541q23 131 160 131h254q39 0 39 -33q1 -18 -13 -31t-34 -14h-254q-61 0 -74 -63l-90 -531q-37 -229 -193 -311q125 -100 92 -299l-94 -555q-12 -63 54 -64h249q41 0 41 -36
q0 -41 -49 -41h-254z" />
    <glyph glyph-name="bar" unicode="|" horiz-adv-x="608" 
d="M287 -287q-17 1 -27 13t-10 28v1915q0 17 11 29t26 12q39 0 39 -41v-1915q0 -16 -12 -28t-27 -13z" />
    <glyph glyph-name="braceright" unicode="}" horiz-adv-x="649" 
d="M139 -356h-256q-37 0 -37 32q0 18 12 32t33 13h256q61 0 74 64l90 530q37 229 193 312q-125 100 -92 299l94 555q12 63 -53 63h-252q-39 0 -39 37q0 17 12 29t35 12h254q61 0 96 -37t25 -102l-95 -559q-25 -156 74 -244q27 -24 27 -56t-45 -61q-127 -78 -156 -248
l-90 -540q-23 -131 -160 -131z" />
    <glyph glyph-name="asciitilde" unicode="~" horiz-adv-x="1259" 
d="M214 662q-36 0 -36 40q0 20 35 37q135 61 212 61t202 -52q125 -54 199 -54t180 56q16 10 29 10t25 -12t11 -33q0 -21 -33 -35q-152 -66 -222 -66t-196 54q-124 54 -200 55q-76 0 -174 -53q-16 -8 -32 -8z" />
    <glyph glyph-name="exclamdown" unicode="&#xa1;" horiz-adv-x="444" 
d="M381 1427q17 0 27 -11t8 -30l-35 -215q-6 -39 -41 -38q-16 0 -27 11q-10 11 -8 27l35 218q6 38 41 38zM301 946q15 0 23 -11t6 -26l-140 -886q-6 -43 -45 -43q-16 0 -27 12t-7 33l155 884q6 37 35 37z" />
    <glyph glyph-name="cent" unicode="&#xa2;" horiz-adv-x="1032" 
d="M485 -18q-16 0 -27 12t-9 35l36 211q-141 24 -215 120t-64 230t34 241q39 171 144 265t259 98l37 215q6 43 41 43q19 0 29 -12t8 -31l-37 -215q94 -14 163 -72t89 -143q2 -8 2 -18q0 -41 -39 -41q-25 0 -39 36q-57 158 -235 158q-268 0 -340 -289q-25 -105 -35 -223
t54 -202q65 -83 218 -83q88 1 161 47t107 119q16 31 41 31q35 0 35 -33q0 -14 -8 -35q-39 -88 -127 -145t-205 -61l-37 -217q-6 -41 -41 -41z" />
    <glyph glyph-name="sterling" unicode="&#xa3;" horiz-adv-x="1206" 
d="M971 78q37 0 37 -35q0 -43 -47 -43h-816q-55 0 -64 43t21 74q205 252 213 512h-153q-37 0 -37 35q0 16 12 28t33 13h143q-20 236 -4 348q25 179 140 289t301 110q108 0 208 -51t150 -115q14 -18 14 -34t-11 -27q-11 -13 -29 -13t-33 19q-145 143 -305 143t-246 -96
q-88 -96 -106 -204t1 -369h361q39 0 39 -35q1 -16 -13 -28t-35 -13h-350q-22 -297 -231 -551h807z" />
    <glyph glyph-name="currency" unicode="&#xa4;" horiz-adv-x="1277" 
d="M638 369q118 0 201 80t93 196q6 74 0 150q-10 119 -93 197t-200 79q-117 0 -200 -79t-93 -197q-4 -49 1 -158t89 -189t202 -79zM639 293q-147 0 -264 113l-197 -201q-31 -31 -56 -2q-11 12 -11 27t12 28l203 207q-54 95 -56 173t0 160t56 177l-203 207q-12 12 -12 27
t11 27t26 13q15 0 30 -14l197 -201q117 113 264 113t264 -113l197 201q14 14 29 14t27 -12q12 -11 11 -27q0 -16 -12 -28l-203 -207q54 -94 56 -175t-1 -163t-55 -172l203 -207q12 -12 12 -28t-11 -27q-27 -29 -56 2l-197 201q-117 -113 -264 -113z" />
    <glyph glyph-name="yen" unicode="&#xa5;" horiz-adv-x="1261" 
d="M133 1401q0 35 39 37q20 0 33 -19l424 -674l653 678q34 34 63 5q11 -11 11 -27t-15 -33l-634 -653q-45 -47 -54 -90l-6 -35h328q39 0 39 -37q0 -13 -12 -27t-29 -14h-338l-80 -479q-8 -41 -39 -41q-18 0 -30 12q-11 12 -7 29l80 479h-295q-18 0 -30 12q-11 12 -11 28
t11 26q11 12 28 12h309l7 35q8 39 -25 92l-412 657q-8 14 -8 27z" />
    <glyph glyph-name="brokenbar" unicode="&#xa6;" horiz-adv-x="587" 
d="M285 786q-17 0 -27 12t-10 29v842q0 17 11 29t26 12q39 0 39 -41v-842q0 -17 -12 -29t-27 -12zM285 -287q-17 1 -27 13t-10 28v842q0 16 11 28t26 13q39 0 39 -41v-842q0 -16 -12 -28t-27 -13z" />
    <glyph glyph-name="section" unicode="&#xa7;" horiz-adv-x="1165" 
d="M879 551q-1 71 -53 105t-185 78t-246 106q-98 -80 -98 -172q0 -56 55 -96t208 -84t237 -82q82 74 82 145zM489 -211q-123 0 -245 44q-178 64 -178 118q0 16 11 27q27 27 77 -12q50 -38 154 -68t190 -31q156 0 252 86t96 221q0 78 -35 117q-54 59 -211 103
q-246 68 -313 128q-67 61 -68 140q0 111 123 225q-70 74 -70 184q0 171 130 275t319 104q121 0 229 -44t133 -81q22 -27 -3 -50q-11 -11 -22 -11t-42 18q-129 90 -289 90q-161 0 -269 -81t-108 -222q0 -94 74 -149q74 -56 236 -108t231 -103q67 -51 67 -151t-102 -198
q70 -70 70 -184q0 -164 -117 -276t-320 -111z" />
    <glyph glyph-name="dieresis" unicode="&#xa8;" 
d="M494 1621q0 25 18 45t46 20t44 -16t16 -43q0 -26 -19 -44t-46 -18t-43 15t-16 41zM205 1621q0 25 18 45t46 20t43 -16q16 -16 16 -43q0 -26 -20 -44t-45 -18q-26 0 -42 15t-16 41z" />
    <glyph glyph-name="copyright" unicode="&#xa9;" horiz-adv-x="1642" 
d="M819 1151q99 0 185 -50t122 -136q10 -27 11 -35q0 -39 -37 -39q-25 0 -37 27q-65 157 -254 157q-101 0 -173 -74t-81 -192q-6 -69 2 -181t80 -186t172 -74q188 1 254 158q12 27 37 27q37 0 37 -39q0 -10 -11 -35q-36 -86 -122 -136t-185 -50q-143 0 -236 96t-104 242
q-6 71 2 199q7 128 101 224t237 97zM819 1370q-203 0 -355 -137t-172 -327q-19 -190 0 -382t171 -328q153 -136 357 -136t357 136t172 328t0 382t-173 327t-357 137zM819 1446q238 0 415 -163t193 -400q12 -168 0 -334q-16 -242 -193 -404q-177 -161 -415 -161
q-237 0 -413 162t-193 403q-12 166 0 334q16 235 192 399t414 164z" />
    <glyph glyph-name="ordfeminine" unicode="&#xaa;" horiz-adv-x="942" 
d="M418 639q166 0 301 141q2 59 39 289l39 231q-96 68 -258 68q-248 0 -303 -258q-20 -96 -31 -195q-25 -276 213 -276zM434 563q-154 0 -236 91q-83 91 -69 255q8 104 33 213q72 322 375 322q100 0 184 -27t120 -55t29 -64l-63 -385q-16 -139 -10 -184t23 -81
q18 -36 18 -48t-12 -22t-27 -11q-45 0 -74 127q-137 -131 -291 -131z" />
    <glyph glyph-name="guillemotleft" unicode="&#xab;" horiz-adv-x="1017" 
d="M92 701q0 54 72 110l303 236q16 12 31 12q33 0 32 -33q0 -18 -20 -37l-295 -231q-43 -33 -43 -58t23 -49l217 -231q10 -10 10 -24t-10 -26q-25 -28 -56 3l-223 233q-41 41 -41 95zM424 701q0 54 72 110l303 236q16 12 30 12q33 0 33 -33q0 -18 -20 -37l-295 -231
q-43 -33 -43 -58t22 -49l217 -231q25 -25 0 -51t-55 4l-223 233q-41 41 -41 95z" />
    <glyph glyph-name="logicalnot" unicode="&#xac;" horiz-adv-x="1286" 
d="M1085 684h-919q-43 0 -43 38t43 38h932q31 0 48 -18t17 -46v-456q0 -43 -39 -43t-39 43v444z" />
    <glyph glyph-name="registered" unicode="&#xae;" horiz-adv-x="1210" 
d="M598 416q-182 0 -300 110q-165 155 -136 502q18 204 136 314t300 110t300 -111q166 -156 136 -499q-18 -206 -136 -316t-300 -110zM598 479q156 0 256 93q142 132 115 458q-15 172 -115 265t-256 93t-256 -92q-142 -133 -115 -458q15 -172 115 -266t256 -93zM440 655
q-12 -1 -21 9t-9 22v473q0 25 15 41t42 17h162q76 -1 128 -45t52 -121q0 -131 -143 -164l157 -180q11 -9 11 -23t-10 -22q-23 -19 -50 8l-164 192q-18 20 -41 21h-98v-197q0 -31 -31 -31zM471 942h152q61 0 92 29t30 78q0 104 -118 104h-156v-211z" />
    <glyph glyph-name="macron" unicode="&#xaf;" 
d="M264 1583q-37 0 -39 37q-1 16 11 26t28 11h348q14 0 26 -11q12 -12 11 -26q0 -14 -11 -26t-26 -11h-348z" />
    <glyph glyph-name="degree" unicode="&#xb0;" horiz-adv-x="677" 
d="M215 1190q-1 -66 37 -108t113 -42t123 56t48 120q0 66 -36 108q-37 42 -113 42t-124 -55t-48 -121zM383 1436q107 0 163 -60t56 -154q0 -93 -66 -171t-170 -78t-161 62q-57 61 -57 155t64 170q65 76 171 76z" />
    <glyph glyph-name="plusminus" unicode="&#xb1;" horiz-adv-x="1286" 
d="M1118 0h-952q-43 0 -43 39t43 39h952q18 0 32 -11t13 -29q0 -18 -13 -28q-14 -10 -32 -10zM684 240q0 -45 -38 -45t-38 45v440h-442q-43 0 -43 39t43 39h442v438q0 43 38 43t38 -43v-438h434q45 0 45 -41q0 -17 -13 -27t-32 -10h-434v-440z" />
    <glyph glyph-name="twosuperior" unicode="&#xb2;" horiz-adv-x="917" 
d="M162 578h479q17 0 29 -10t12 -25t-12 -27t-35 -12h-490q-55 0 -55 49q0 119 76 199t205 151q16 8 66 36t76 42t78 52t79 92q26 53 26 92q0 73 -49 119t-139 46q-125 0 -227 -110q-23 -25 -37 -25q-31 0 -31 29q0 18 12 33q39 55 115 98t174 43t176 -60t78 -178t-116 -212
q-86 -69 -230 -144q-260 -139 -260 -278z" />
    <glyph glyph-name="threesuperior" unicode="&#xb3;" horiz-adv-x="858" 
d="M340 1040q0 29 29 54l297 249h-424q-41 0 -41 37q0 16 12 28t31 13h442q70 0 70 -53q0 -37 -41 -72l-275 -225q115 14 201 -44t86 -185t-89 -211q-159 -150 -474 -150q-35 0 -51 2q-37 6 -37 33q0 39 51 39h55q138 0 287 52q80 28 131 88q51 61 51 139t-45 124t-137 48
l-84 -7q-45 0 -45 41z" />
    <glyph glyph-name="acute" unicode="&#xb4;" 
d="M596 1763q35 0 35 -32q0 -25 -33 -41l-299 -142q-12 -6 -25 -6q-33 0 -32 35q-1 25 24 35l307 145q12 6 23 6z" />
    <glyph glyph-name="mu" unicode="&#xb5;" horiz-adv-x="1236" 
d="M102 -393q-16 0 -26 12t-6 29l225 1360q6 47 43 47q43 0 33 -49l-90 -553q-33 -205 55 -299t261 -94t323 100l139 852q8 43 43 43q16 -1 26 -13t9 -30l-144 -862q-2 -27 -35 -50q-168 -119 -374 -118q-266 0 -351 204l-90 -538q-8 -41 -41 -41z" />
    <glyph glyph-name="mu" unicode="&#x3bc;" horiz-adv-x="1236" 
d="M102 -393q-16 0 -26 12t-6 29l225 1360q6 47 43 47q43 0 33 -49l-90 -553q-33 -205 55 -299t261 -94t323 100l139 852q8 43 43 43q16 -1 26 -13t9 -30l-144 -862q-2 -27 -35 -50q-168 -119 -374 -118q-266 0 -351 204l-90 -538q-8 -41 -41 -41z" />
    <glyph glyph-name="paragraph" unicode="&#xb6;" horiz-adv-x="1298" 
d="M795 1350q-182 0 -303 -102t-121 -262q0 -162 94 -242t242 -80h51l114 686h-77zM625 -393q-16 0 -27 12q-10 12 -8 31l155 938h-43q-186 0 -301 102t-115 294t142 319q141 127 360 127h359q63 0 70 -35q2 -16 -3 -41l-282 -1706q-6 -41 -41 -41q-18 0 -29 12
q-10 12 -8 31l283 1700h-189l-280 -1702q-6 -41 -43 -41z" />
    <glyph glyph-name="periodcentered" unicode="&#xb7;" horiz-adv-x="479" 
d="M221 608q-16 0 -27 12t-10 33l35 211q6 39 41 39q16 0 26 -11t9 -30l-35 -215q-6 -39 -39 -39z" />
    <glyph glyph-name="cedilla" unicode="&#xb8;" 
d="M356 37q25 -1 32 -19t-5 -41l-53 -100q63 6 107 -32t44 -91q0 -101 -102 -166t-178 -65q-35 0 -35 29t29 36q211 63 211 156q0 33 -22 49t-50 17l-68 -15q-24 1 -30 17t4 38l79 160q12 27 37 27z" />
    <glyph glyph-name="onesuperior" unicode="&#xb9;" horiz-adv-x="614" 
d="M276 498q-18 0 -29 13t-7 30l133 790l-176 -88q-16 -10 -36 -2q-19 8 -20 31q0 23 25 35l205 104q37 18 51 19q41 0 33 -48l-140 -843q-6 -41 -39 -41z" />
    <glyph glyph-name="ordmasculine" unicode="&#xba;" horiz-adv-x="888" 
d="M521 1360q-115 0 -189 -72t-96 -190q-12 -66 -21 -158q-10 -143 64 -216t179 -73q105 -1 178 63t97 193q8 45 23 168q4 119 -58 202t-177 83zM530 1436q140 0 225 -104t74 -251q-3 -37 -23 -178t-109 -234t-232 -93t-239 96t-83 274q10 111 19 158q31 164 129 248
q99 84 239 84z" />
    <glyph glyph-name="guillemotright" unicode="&#xbb;" horiz-adv-x="1017" 
d="M596 716q0 -54 -72 -110l-303 -235q-16 -12 -31 -13q-33 0 -32 33q0 18 20 37l297 231q43 33 43 58t-22 49l-220 231q-10 11 -10 25t10 26t26 11q16 0 30 -15l223 -233q41 -41 41 -95zM928 716q0 -54 -72 -110l-303 -235q-16 -12 -31 -13q-33 0 -33 33q0 18 21 37
l297 231q43 33 43 58t-23 49l-219 231q-10 11 -10 25t10 26t26 11q16 0 30 -15l223 -233q41 -41 41 -95z" />
    <glyph glyph-name="onequarter" unicode="&#xbc;" horiz-adv-x="1961" 
d="M440 -57q-39 0 -41 32q0 10 9 27l831 1481q14 25 39 24q33 0 33 -32q0 -14 -11 -31l-827 -1477q-15 -24 -33 -24zM307 498q-18 0 -29 13t-8 30l133 790l-176 -88q-16 -10 -36 -2q-19 8 -19 31t25 35l204 104q37 18 52 19q41 0 32 -48l-141 -843q-6 -41 -37 -41zM1622 301
l92 547l-538 -547h446zM1612 0q-39 0 -33 41l31 186h-473q-51 0 -52 47q0 29 31 60l547 555q43 47 73 47t43 -20t7 -46l-94 -569h102q37 0 37 -37t-45 -37h-107l-30 -186q-8 -41 -37 -41z" />
    <glyph glyph-name="onehalf" unicode="&#xbd;" horiz-adv-x="1998" 
d="M1247 74h479q18 0 30 -10t11 -25q0 -15 -12 -27t-35 -12h-489q-55 0 -55 49q0 119 75 199q76 80 205 151q216 108 270 178t55 140t-48 116t-140 46q-125 0 -227 -111q-23 -25 -37 -25q-31 0 -31 29q0 18 13 33q39 55 115 98t173 43q99 0 177 -60t78 -179t-116 -210
q-88 -70 -231 -145q-260 -139 -260 -278zM307 498q-18 0 -29 13t-8 30l133 790l-176 -88q-16 -10 -36 -2q-19 8 -19 31t25 35l204 104q37 18 52 19q41 0 32 -48l-139 -843q-6 -41 -39 -41zM439 -66q-17 0 -33 14t2 46l831 1481q14 25 39 24q33 0 33 -33q0 -14 -11 -30
l-829 -1477q-15 -25 -32 -25z" />
    <glyph glyph-name="threequarters" unicode="&#xbe;" horiz-adv-x="2070" 
d="M614 -66q-39 0 -41 33q0 10 9 27l831 1481q16 25 39 24q33 0 33 -33q0 -14 -10 -30l-828 -1477q-15 -25 -33 -25zM348 1040q0 29 29 54l297 249h-424q-41 0 -41 37q0 16 12 28t31 13h442q70 0 70 -53q0 -37 -41 -72l-274 -225q115 14 201 -44t85 -185q0 -127 -89 -211
q-159 -150 -474 -150q-35 0 -51 2q-37 6 -37 33q0 39 51 39h55q139 0 288 52q81 28 132 88q52 61 52 139t-46 124t-139 48l-84 -7q-45 0 -45 41zM1733 301l92 547l-539 -547h447zM1722 0q-39 0 -32 41l30 186h-473q-51 0 -51 47q0 29 31 60l547 555q42 47 72 47t43 -20
t7 -46l-94 -569h103q39 0 39 -35q0 -14 -12 -26t-36 -13h-106l-31 -186q-8 -41 -37 -41z" />
    <glyph glyph-name="questiondown" unicode="&#xbf;" horiz-adv-x="1208" 
d="M688 866q37 0 37 -35q0 -25 -41 -43q-12 -6 -76 -32q-221 -89 -308 -188t-87 -227t81 -205t230 -77q86 0 162 30q76 31 114 59t76 64t54 36q33 0 33 -33q0 -16 -17 -37q-63 -82 -179 -139t-239 -57q-172 0 -284 94t-111 270q0 176 131 296t395 218q17 6 29 6zM784 1454
q41 0 35 -43l-35 -213q-6 -39 -41 -39q-16 0 -26 11t-8 30l34 215q6 39 41 39z" />
    <glyph glyph-name="Agrave" unicode="&#xc0;" horiz-adv-x="1323" 
d="M846 1542q-12 0 -27 8l-250 140q-23 10 -22 34q0 35 37 35q14 0 30 -8l250 -141q23 -12 23 -33q0 -35 -41 -35zM788 1372q-48 0 -79 -57l-373 -705h651l-141 705q-10 57 -58 57zM-14 0q-25 0 -35 16t2 43l670 1262q39 75 75 101t88 26q113 0 140 -127l252 -1268
q4 -25 -8 -39t-29 -14q-35 0 -41 35l-99 504h-706l-270 -512q-14 -27 -39 -27z" />
    <glyph glyph-name="Aacute" unicode="&#xc1;" horiz-adv-x="1323" 
d="M1081 1763q35 0 35 -32q0 -25 -33 -41l-299 -142q-12 -6 -24 -6q-33 0 -33 35q0 25 25 35l307 145q12 6 22 6zM788 1372q-48 0 -79 -57l-373 -705h651l-141 705q-10 57 -58 57zM-14 0q-25 0 -35 16t2 43l670 1262q39 75 75 101t88 26q113 0 140 -127l252 -1268
q4 -25 -8 -39t-29 -14q-35 0 -41 35l-99 504h-706l-270 -512q-14 -27 -39 -27z" />
    <glyph glyph-name="Acircumflex" unicode="&#xc2;" horiz-adv-x="1323" 
d="M618 1538q-33 0 -32 33q0 23 22 37l197 123q27 18 51 18t47 -20l133 -125q34 -30 5 -56q-11 -10 -26 -10t-30 12l-131 123l-207 -127q-14 -8 -29 -8zM788 1372q-48 0 -79 -57l-373 -705h651l-141 705q-10 57 -58 57zM-14 0q-25 0 -35 16t2 43l670 1262q39 75 75 101
t88 26q113 0 140 -127l252 -1268q4 -25 -8 -39t-29 -14q-35 0 -41 35l-99 504h-706l-270 -512q-14 -27 -39 -27z" />
    <glyph glyph-name="Atilde" unicode="&#xc3;" horiz-adv-x="1323" 
d="M941 1542q-52 0 -119 38q-68 38 -94 38t-58 -26t-49 -25q-37 0 -37 37q0 16 18 34q106 99 246 18q66 -38 94 -38t62 26q35 26 50 26t27 -12q13 -11 13 -30t-25 -35q-76 -51 -128 -51zM788 1372q-48 0 -79 -57l-373 -705h651l-141 705q-10 57 -58 57zM-14 0q-25 0 -35 16
t2 43l670 1262q39 75 75 101t88 26q113 0 140 -127l252 -1268q4 -25 -8 -39t-29 -14q-35 0 -41 35l-99 504h-706l-270 -512q-14 -27 -39 -27z" />
    <glyph glyph-name="Adieresis" unicode="&#xc4;" horiz-adv-x="1323" 
d="M926 1621q0 25 18 45t46 20t44 -16t16 -43q0 -26 -18 -44q-20 -18 -47 -18t-43 15t-16 41zM637 1621q0 25 18 45t46 20t43 -16q16 -16 16 -43q0 -26 -20 -44t-45 -18q-26 0 -42 15t-16 41zM788 1372q-48 0 -79 -57l-373 -705h651l-141 705q-10 57 -58 57zM-14 0
q-25 0 -35 16t2 43l670 1262q39 75 75 101t88 26q113 0 140 -127l252 -1268q4 -25 -8 -39t-29 -14q-35 0 -41 35l-99 504h-706l-270 -512q-14 -27 -39 -27z" />
    <glyph glyph-name="Aring" unicode="&#xc5;" horiz-adv-x="1323" 
d="M848 1589q51 0 83 37t32 82t-25 73q-25 27 -76 27t-83 -36q-31 -36 -31 -82q0 -45 24 -73t76 -28zM849 1532q-75 0 -117 45t-42 113t47 122t123 54t117 -44t41 -111t-47 -123t-122 -56zM788 1372q-48 0 -79 -57l-373 -705h651l-141 705q-10 57 -58 57zM-14 0
q-25 0 -35 16t2 43l670 1262q39 75 75 101t88 26q113 0 140 -127l252 -1268q4 -25 -8 -39t-29 -14q-35 0 -41 35l-99 504h-706l-270 -512q-14 -27 -39 -27z" />
    <glyph glyph-name="AE" unicode="&#xc6;" horiz-adv-x="2039" 
d="M1135 1350q-53 0 -80 -35l-523 -682h494l119 717h-10zM20 -6q-33 0 -32 33q0 12 12 30l991 1286q43 55 88 69t129 15h768q41 0 41 -38q0 -15 -12 -27t-29 -12h-753l-99 -592h717q41 0 41 -38t-41 -38h-729l-100 -604h747q41 0 41 -39t-41 -39h-764q-63 0 -63 53
q0 14 2 23l80 485h-537l-418 -547q-18 -20 -39 -20z" />
    <glyph glyph-name="Ccedilla" unicode="&#xc7;" horiz-adv-x="1304" 
d="M786 1446q178 0 304 -92t167 -236q6 -20 7 -37q0 -37 -35 -37q-29 0 -39 37q-49 147 -157 218t-253 71q-194 0 -330 -121t-194 -338q-40 -147 -62 -363t100 -352t343 -137q301 0 436 287q16 39 43 39q14 0 24 -10q10 -9 11 -23q0 -14 -14 -47q-59 -125 -177 -221
t-313 -100l-55 -107q63 6 107 -32t44 -97q-1 -86 -79 -143t-164 -78q-17 -4 -35 -4q-35 0 -35 31q0 23 35 34q205 59 205 156q0 33 -22 49t-50 17l-68 -15q-24 1 -30 17t4 38l67 138q-229 20 -356 183t-96 407q23 197 57 333q61 247 217 391t393 144z" />
    <glyph glyph-name="Egrave" unicode="&#xc8;" horiz-adv-x="1243" 
d="M881 1542q-12 0 -27 8l-250 140q-23 10 -22 34q0 35 36 35q14 0 31 -8l250 -141q23 -12 23 -33q0 -35 -41 -35zM438 1427h742q41 0 41 -38q-1 -15 -13 -27t-28 -12h-756l-98 -592h718q41 0 41 -38t-41 -38h-731l-98 -604h748q41 0 41 -39t-41 -39h-764q-76 0 -62 76
l211 1276q6 41 26 58t64 17z" />
    <glyph glyph-name="Eacute" unicode="&#xc9;" horiz-adv-x="1243" 
d="M1024 1763q35 0 35 -32q0 -25 -33 -41l-299 -142q-12 -6 -25 -6q-33 0 -32 35q-1 25 24 35l307 145q12 6 23 6zM438 1427h742q41 0 41 -38q-1 -15 -13 -27t-28 -12h-756l-98 -592h718q41 0 41 -38t-41 -38h-731l-98 -604h748q41 0 41 -39t-41 -39h-764q-76 0 -62 76
l211 1276q6 41 26 58t64 17z" />
    <glyph glyph-name="Ecircumflex" unicode="&#xca;" horiz-adv-x="1243" 
d="M623 1538q-33 0 -33 33q0 23 22 37l197 123q27 18 51 18t47 -20l133 -125q33 -29 6 -56q-10 -10 -26 -10t-31 12l-131 123l-207 -127q-14 -8 -28 -8zM438 1427h742q41 0 41 -38q-1 -15 -13 -27t-28 -12h-756l-98 -592h718q41 0 41 -38t-41 -38h-731l-98 -604h748
q41 0 41 -39t-41 -39h-764q-76 0 -62 76l211 1276q6 41 26 58t64 17z" />
    <glyph glyph-name="Edieresis" unicode="&#xcb;" horiz-adv-x="1243" 
d="M920 1621q0 25 18 45t46 20t44 -16t16 -43q0 -26 -19 -44t-46 -18t-43 15t-16 41zM631 1621q0 25 18 45t46 20t43 -16q16 -16 16 -43q0 -26 -20 -44t-45 -18q-26 0 -42 15t-16 41zM438 1427h742q41 0 41 -38q-1 -15 -13 -27t-28 -12h-756l-98 -592h718q41 0 41 -38
t-41 -38h-731l-98 -604h748q41 0 41 -39t-41 -39h-764q-76 0 -62 76l211 1276q6 41 26 58t64 17z" />
    <glyph glyph-name="Igrave" unicode="&#xcc;" horiz-adv-x="542" 
d="M414 1542q-12 0 -27 8l-250 140q-23 10 -22 34q0 35 37 35q14 0 30 -8l250 -141q23 -12 23 -33q0 -35 -41 -35zM164 -8q-43 0 -37 47l227 1362q8 37 39 37q43 0 37 -47l-227 -1362q-8 -37 -39 -37z" />
    <glyph glyph-name="Iacute" unicode="&#xcd;" horiz-adv-x="542" 
d="M700 1763q35 0 35 -32q0 -25 -33 -41l-299 -142q-12 -6 -24 -6q-33 0 -33 35q0 25 25 35l307 145q12 6 22 6zM156 -8q-43 0 -37 47l227 1362q8 37 39 37q43 0 37 -47l-227 -1362q-8 -37 -39 -37z" />
    <glyph glyph-name="Icircumflex" unicode="&#xce;" horiz-adv-x="542" 
d="M195 1538q-33 0 -33 33q0 23 22 37l197 123q29 18 51 18t47 -20l133 -125q34 -30 5 -56q-11 -10 -25 -10t-31 12l-131 123l-207 -127q-14 -8 -28 -8zM156 -8q-43 0 -37 47l227 1362q8 37 39 37q43 0 37 -47l-227 -1362q-8 -37 -39 -37z" />
    <glyph glyph-name="Idieresis" unicode="&#xcf;" horiz-adv-x="542" 
d="M578 1565q-28 0 -44 15t-16 41q0 25 18 45t47 20q28 0 44 -16t16 -43q0 -26 -19 -44q-18 -18 -46 -18zM294 1686q28 0 43 -16t15 -43q0 -26 -19 -44t-45 -18t-42 15t-16 41q0 25 18 45t46 20zM164 -8q-43 0 -37 47l227 1362q8 37 39 37q43 0 37 -47l-227 -1362
q-8 -37 -39 -37z" />
    <glyph glyph-name="Eth" unicode="&#xd0;" horiz-adv-x="1370" 
d="M557 78q264 0 418 120t215 396q20 92 33 215q33 252 -103 396t-407 145h-312l-98 -607h399q16 0 28 -11t11 -27q0 -37 -41 -37h-411l-96 -590h364zM174 0q-72 0 -59 76l98 592h-174q-41 0 -41 37q0 16 11 27t28 11h188l101 609q6 32 30 54t58 21h295q319 1 472 -165
t122 -441q-18 -168 -37 -246q-68 -311 -244 -443t-473 -132h-375z" />
    <glyph glyph-name="Ntilde" unicode="&#xd1;" horiz-adv-x="1560" 
d="M1058 1542q-52 0 -119 38t-93 38t-60 -26q-33 -26 -49 -25q-37 0 -37 37q0 16 19 34q106 99 246 18q65 -38 93 -38t62 26t50 26t28 -12q12 -11 12 -30t-24 -35q-76 -51 -128 -51zM1419 1438q37 0 37 -41v-8l-221 -1315q-14 -78 -78 -78q-53 0 -74 47l-647 1311h-4
q-55 -313 -70 -406l-151 -915q-8 -41 -39 -41q-14 0 -26 10q-11 10 -11 25v6l221 1329q12 78 78 78q51 0 72 -47l651 -1315h2q34 220 60 354l161 969q8 37 39 37z" />
    <glyph glyph-name="Ograve" unicode="&#xd2;" horiz-adv-x="1372" 
d="M907 1542q-12 0 -26 8l-250 140q-23 10 -23 34q0 35 37 35q14 0 31 -8l250 -141q23 -12 22 -33q0 -35 -41 -35zM645 61q203 0 341 118q138 119 184 309t63 394q18 204 -109 346q-127 140 -344 140t-355 -137t-183 -354q-31 -153 -45 -295q-37 -370 285 -491
q81 -30 163 -30zM786 1446q254 0 402 -169t120 -399q-26 -230 -53 -358q-53 -258 -214 -397t-381 -139t-392 147q-82 72 -125 192q-43 121 -25 269t42 274q49 264 211 422q161 158 415 158z" />
    <glyph glyph-name="Oacute" unicode="&#xd3;" horiz-adv-x="1372" 
d="M1139 1763q35 0 35 -32q0 -25 -33 -41l-299 -142q-12 -6 -25 -6q-33 0 -33 35q0 25 25 35l307 145q12 6 23 6zM645 61q203 0 341 118q138 119 184 309t63 394q18 204 -109 346q-127 140 -344 140t-355 -137t-183 -354q-31 -153 -45 -295q-37 -370 285 -491
q81 -30 163 -30zM786 1446q254 0 402 -169t120 -399q-26 -230 -53 -358q-53 -258 -214 -397t-381 -139t-392 147q-82 72 -125 192q-43 121 -25 269t42 274q49 264 211 422q161 158 415 158z" />
    <glyph glyph-name="Ocircumflex" unicode="&#xd4;" horiz-adv-x="1372" 
d="M662 1538q-33 0 -33 33q0 23 22 37l197 123q30 18 52 18t46 -20l133 -125q34 -30 5 -56q-11 -10 -25 -10t-31 12l-131 123l-207 -127q-14 -8 -28 -8zM645 61q203 0 341 118q138 119 184 309t63 394q18 204 -109 346q-127 140 -344 140t-355 -137t-183 -354
q-31 -153 -45 -295q-37 -370 285 -491q81 -30 163 -30zM786 1446q254 0 402 -169t120 -399q-26 -230 -53 -358q-53 -258 -214 -397t-381 -139t-392 147q-82 72 -125 192q-43 121 -25 269t42 274q49 264 211 422q161 158 415 158z" />
    <glyph glyph-name="Otilde" unicode="&#xd5;" horiz-adv-x="1372" 
d="M962 1542q-52 0 -119 38t-93 38t-60 -26q-33 -26 -49 -25q-37 0 -37 37q0 16 19 34q106 99 245 18q66 -38 94 -38t62 26t50 26t28 -12q12 -11 12 -30t-24 -35q-76 -51 -128 -51zM645 61q203 0 341 118q138 119 184 309t63 394q18 204 -109 346q-127 140 -344 140
t-355 -137t-183 -354q-31 -153 -45 -295q-37 -370 285 -491q81 -30 163 -30zM786 1446q254 0 402 -169t120 -399q-26 -230 -53 -358q-53 -258 -214 -397t-381 -139t-392 147q-82 72 -125 192q-43 121 -25 269t42 274q49 264 211 422q161 158 415 158z" />
    <glyph glyph-name="Odieresis" unicode="&#xd6;" horiz-adv-x="1372" 
d="M973 1621q0 25 18 45t46 20t44 -16q17 -16 17 -43q0 -26 -20 -44t-46 -18q-27 0 -43 15t-16 41zM684 1621q0 25 18 45t47 20q28 0 43 -16t15 -43q1 -26 -19 -44t-46 -18t-42 15t-16 41zM645 61q203 0 341 118q138 119 184 309t63 394q18 204 -109 346q-127 140 -344 140
t-355 -137t-183 -354q-31 -153 -45 -295q-37 -370 285 -491q81 -30 163 -30zM786 1446q254 0 402 -169t120 -399q-26 -230 -53 -358q-53 -258 -214 -397t-381 -139t-392 147q-82 72 -125 192q-43 121 -25 269t42 274q49 264 211 422q161 158 415 158z" />
    <glyph glyph-name="multiply" unicode="&#xd7;" horiz-adv-x="1286" 
d="M645 666l-397 -394q-31 -31 -59 -5t6 59l397 393l-399 395q-31 32 -5 58t58 -3l399 -395l389 387q35 35 61 6t-5 -59l-392 -389l396 -387q29 -33 3 -59t-61 6z" />
    <glyph glyph-name="Oslash" unicode="&#xd8;" horiz-adv-x="1372" 
d="M776 1368q-213 0 -351 -137t-183 -354q-31 -154 -47 -306q-25 -237 116 -374l740 1093q-117 78 -275 78zM672 61q180 0 316 119q136 118 182 308t61 382q20 227 -121 369l-739 -1094q121 -84 301 -84zM678 -16q-204 0 -350 100l-52 -76q-16 -25 -38 -24q-37 0 -37 34
q0 14 10 29l59 84q-186 172 -151 457q18 152 41 278q49 264 211 422t413 158q180 0 312 -90l43 63q17 27 37 27q40 0 43 -35q0 -12 -11 -29l-53 -73q182 -170 152 -449q-25 -211 -52 -340q-53 -256 -213 -396t-364 -140z" />
    <glyph glyph-name="Ugrave" unicode="&#xd9;" horiz-adv-x="1437" 
d="M936 1542q-12 0 -27 8l-250 140q-23 10 -22 34q0 35 37 35q14 0 31 -8l249 -141q23 -12 23 -33q0 -35 -41 -35zM338 1438q43 0 37 -47l-133 -793q-25 -150 8 -262q34 -112 108 -167q144 -108 326 -108t317 120t175 360l141 860q8 37 41 37q43 0 37 -47l-142 -850
q-45 -276 -194 -417q-150 -140 -375 -140t-388 136q-83 68 -121 196t-9 294l133 791q8 37 39 37z" />
    <glyph glyph-name="Uacute" unicode="&#xda;" horiz-adv-x="1437" 
d="M1100 1763q35 0 35 -32q0 -25 -33 -41l-299 -142q-12 -6 -25 -6q-33 0 -33 35q0 25 25 35l307 145q12 6 23 6zM338 1438q43 0 37 -47l-133 -793q-25 -150 8 -262q34 -112 108 -167q144 -108 326 -108t317 120t175 360l141 860q8 37 41 37q43 0 37 -47l-142 -850
q-45 -276 -194 -417q-150 -140 -375 -140t-388 136q-83 68 -121 196t-9 294l133 791q8 37 39 37z" />
    <glyph glyph-name="Ucircumflex" unicode="&#xdb;" horiz-adv-x="1437" 
d="M674 1538q-33 0 -33 33q0 23 23 37l196 123q30 18 52 18t46 -20l134 -125q16 -14 16 -30t-11 -26t-25 -10t-32 12l-131 123l-207 -127q-14 -8 -28 -8zM338 1438q43 0 37 -47l-133 -793q-25 -150 8 -262q34 -112 108 -167q144 -108 326 -108t317 120t175 360l141 860
q8 37 41 37q43 0 37 -47l-142 -850q-45 -276 -194 -417q-150 -140 -375 -140t-388 136q-83 68 -121 196t-9 294l133 791q8 37 39 37z" />
    <glyph glyph-name="Udieresis" unicode="&#xdc;" horiz-adv-x="1437" 
d="M985 1621q1 25 19 45t46 20t44 -16t16 -43q0 -26 -19 -44t-47 -18t-43 15q-16 15 -16 41zM761 1686q28 0 43 -16t15 -43q0 -26 -19 -44t-45 -18t-42 15q-17 15 -17 41q0 25 18 45t47 20zM338 1438q43 0 37 -47l-133 -793q-25 -150 8 -262q34 -112 108 -167
q144 -108 326 -108t317 120t175 360l141 860q8 37 41 37q43 0 37 -47l-142 -850q-45 -276 -194 -417q-150 -140 -375 -140t-388 136q-83 68 -121 196t-9 294l133 791q8 37 39 37z" />
    <glyph glyph-name="Yacute" unicode="&#xdd;" horiz-adv-x="1249" 
d="M1001 1763q35 0 35 -32q0 -25 -32 -41l-299 -142q-12 -6 -25 -6q-33 0 -33 35q0 25 25 35l307 145q12 6 22 6zM113 1401q0 35 39 37q20 0 34 -19l422 -676l654 680q34 34 62 5q11 -11 11 -27t-14 -33l-635 -653q-45 -47 -53 -90l-98 -592q-8 -41 -39 -41q-18 0 -30 12
q-11 12 -7 29l98 592q8 39 -25 92l-411 657q-8 14 -8 27z" />
    <glyph glyph-name="Thorn" unicode="&#xde;" horiz-adv-x="1226" 
d="M674 375q190 0 322 100t132 275q0 141 -96 230t-291 89h-358l-115 -694h406zM170 -6q-16 0 -28 12q-11 12 -7 35l230 1370q6 41 41 41q16 0 26 -11t8 -30l-45 -266h359q208 1 330 -101t122 -296t-148 -322q-148 -127 -390 -127h-414l-45 -268q-6 -37 -39 -37z" />
    <glyph glyph-name="germandbls" unicode="&#xdf;" horiz-adv-x="1191" 
d="M125 -6q-18 0 -30 12q-11 12 -7 29l166 999q66 393 422 393q145 -1 239 -65t95 -178q0 -72 -40 -135t-87 -101q-127 -104 -127 -180q0 -51 33 -83t50 -46t55 -41t54 -39q162 -119 162 -254t-96 -227t-262 -92q-96 0 -186 34t-144 82q-18 16 -19 35q0 39 41 39
q16 0 31 -10q137 -102 271 -102t208 68q76 70 76 174t-125 194q-16 12 -60 42q-129 88 -147 135q-18 48 -18 94q0 86 90 173q37 35 74 69q90 83 90 168t-70 128t-188 43q-293 0 -344 -314l-166 -1003q-8 -41 -41 -41z" />
    <glyph glyph-name="agrave" unicode="&#xe0;" horiz-adv-x="1116" 
d="M754 1204q-12 0 -27 8l-250 140q-23 12 -22 34q0 35 37 35q14 0 30 -8l250 -141q23 -10 23 -33q0 -35 -41 -35zM168 299q0 -100 82 -171t250 -71q167 0 299 97l51 315q-180 92 -332 92t-251 -66q-99 -67 -99 -196zM494 -18q-182 0 -293 90t-111 238t119 236
q119 87 295 87t358 -92l27 151q27 154 -49 228t-210 74t-288 -68q-18 -8 -37 2q-18 10 -18 32q1 22 33 42t125 44t180 23q167 -1 269 -95t71 -280l-93 -542q-8 -49 -30 -64q-166 -106 -348 -106z" />
    <glyph glyph-name="aacute" unicode="&#xe1;" horiz-adv-x="1116" 
d="M907 1425q35 0 35 -32q0 -25 -33 -41l-299 -142q-12 -6 -24 -6q-33 0 -33 35q0 25 25 35l307 145q12 6 22 6zM168 299q0 -100 82 -171t250 -71q167 0 299 97l51 315q-180 92 -332 92t-251 -66q-99 -67 -99 -196zM494 -18q-182 0 -293 90t-111 238t119 236q119 87 295 87
t358 -92l27 151q27 154 -49 228t-210 74t-288 -68q-18 -8 -37 2q-18 10 -18 32q1 22 33 42t125 44t180 23q167 -1 269 -95t71 -280l-93 -542q-8 -49 -30 -64q-166 -106 -348 -106z" />
    <glyph glyph-name="acircumflex" unicode="&#xe2;" horiz-adv-x="1116" 
d="M467 1176q-33 0 -33 32q0 23 23 37l196 123q27 18 51 18t48 -20l133 -125q16 -13 16 -29t-11 -26q-10 -10 -26 -10t-30 12l-132 123l-206 -127q-14 -8 -29 -8zM168 299q0 -100 82 -171t250 -71q167 0 299 97l51 315q-180 92 -332 92t-251 -66q-99 -67 -99 -196zM494 -18
q-182 0 -293 90t-111 238t119 236q119 87 295 87t358 -92l27 151q27 154 -49 228t-210 74t-288 -68q-18 -8 -37 2q-18 10 -18 32q1 22 33 42t125 44t180 23q167 -1 269 -95t71 -280l-93 -542q-8 -49 -30 -64q-166 -106 -348 -106z" />
    <glyph glyph-name="atilde" unicode="&#xe3;" horiz-adv-x="1116" 
d="M796 1219q-52 -1 -119 37t-93 38t-60 -26q-33 -26 -49 -25q-37 0 -37 37q0 16 19 35q59 55 119 55t126 -38t94 -38t62 26t50 26t28 -12t12 -30t-24 -34q-76 -51 -128 -51zM168 299q0 -100 82 -171t250 -71q167 0 299 97l51 315q-180 92 -332 92t-251 -66
q-99 -67 -99 -196zM494 -18q-182 0 -293 90t-111 238t119 236q119 87 295 87t358 -92l27 151q27 154 -49 228t-210 74t-288 -68q-18 -8 -37 2q-18 10 -18 32q1 22 33 42t125 44t180 23q167 -1 269 -95t71 -280l-93 -542q-8 -49 -30 -64q-166 -106 -348 -106z" />
    <glyph glyph-name="adieresis" unicode="&#xe4;" horiz-adv-x="1116" 
d="M843 1354q28 0 44 -16t16 -43q0 -26 -19 -44t-46 -18t-43 15q-17 15 -17 41q0 25 18 45t47 20zM554 1354q28 0 43 -16t15 -43q0 -26 -19 -44t-45 -18t-42 15t-16 41q0 25 18 45t46 20zM168 299q0 -100 82 -171t250 -71q167 0 299 97l51 315q-180 92 -332 92t-251 -66
q-99 -67 -99 -196zM494 -18q-182 0 -293 90t-111 238t119 236q119 87 295 87t358 -92l27 151q27 154 -49 228t-210 74t-288 -68q-18 -8 -37 2q-18 10 -18 32q1 22 33 42t125 44t180 23q167 -1 269 -95t71 -280l-93 -542q-8 -49 -30 -64q-166 -106 -348 -106z" />
    <glyph glyph-name="aring" unicode="&#xe5;" horiz-adv-x="1116" 
d="M694 1217q51 1 83 37t32 81t-25 73q-26 28 -76 28t-82 -37t-32 -82q0 -100 100 -100zM695 1159q-75 0 -117 45t-41 113q0 68 47 122t123 54q77 0 117 -44t40 -111t-47 -123t-122 -56zM168 299q0 -100 82 -171t250 -71q167 0 299 97l51 315q-180 92 -332 92t-251 -66
q-99 -67 -99 -196zM494 -18q-182 0 -293 90t-111 238t119 236q119 87 295 87t358 -92l27 151q27 154 -49 228t-210 74t-288 -68q-18 -8 -37 2q-18 10 -18 32q1 22 33 42t125 44t180 23q167 -1 269 -95t71 -280l-93 -542q-8 -49 -30 -64q-166 -106 -348 -106z" />
    <glyph glyph-name="ae" unicode="&#xe6;" horiz-adv-x="1816" 
d="M1569 567q41 0 49 37q53 199 -33 294t-253 95q-167 -1 -263 -105t-131 -321h631zM485 57q211 0 383 142q-47 106 -22 272q-180 90 -328 90t-250 -66q-100 -67 -100 -196q0 -100 84 -171t233 -71zM287 960q1 22 33 42t125 44t196 24t195 -56q92 -55 120 -160
q127 215 396 215q158 0 275 -108t71 -343l-6 -26q-25 -100 -123 -100h-641q-16 -72 -17 -127q-1 -150 99 -230t241 -80t279 70q10 8 24 8t24 -11t9 -30q0 -19 -35 -37q-143 -74 -282 -73q-246 0 -359 155q-217 -155 -407 -155t-302 90t-112 240t121 236q121 85 295 85
t356 -92l27 151q29 154 -48 228t-211 74t-288 -68q-18 -8 -37 2q-18 10 -18 32z" />
    <glyph glyph-name="ccedilla" unicode="&#xe7;" horiz-adv-x="1112" 
d="M604 1069q166 0 260 -71t127 -169q10 -37 10 -47q1 -39 -38 -39q-29 0 -39 35q-61 215 -306 215q-307 0 -378 -334q-20 -97 -38 -255t86 -251q105 -93 251 -94q96 -1 185 51t128 173q10 33 39 32q37 0 37 -39q0 -71 -109 -190q-43 -47 -116 -76t-162 -28l-56 -105
q63 6 107 -32t45 -97q0 -86 -79 -143t-165 -78q-16 -4 -35 -4q-35 0 -34 31q0 23 34 34q205 66 205 156q0 33 -21 49q-22 16 -50 17l-68 -15q-23 1 -30 17t3 38l68 138q-160 24 -260 142t-76 308q6 61 35 221q35 205 154 308q120 102 286 102z" />
    <glyph glyph-name="egrave" unicode="&#xe8;" horiz-adv-x="1103" 
d="M762 1204q-12 0 -27 8l-250 140q-23 12 -22 34q0 35 37 35q14 0 30 -8l250 -141q23 -10 23 -33q0 -35 -41 -35zM858 567q39 0 49 37q53 199 -34 294t-253 95t-264 -104q-96 -105 -131 -322h633zM842 133q32 0 32 -41q0 -19 -34 -37q-143 -74 -283 -73q-219 0 -337 122
t-93 326q16 115 41 225q90 414 471 414q172 0 285 -115t61 -336l-6 -26q-25 -100 -123 -100h-643l-10 -64q-29 -174 71 -273t253 -99t290 69q11 8 25 8z" />
    <glyph glyph-name="eacute" unicode="&#xe9;" horiz-adv-x="1103" 
d="M932 1427q35 0 35 -32q0 -25 -33 -41l-299 -142q-12 -6 -25 -6q-33 0 -32 35q-1 25 24 35l307 145q12 6 23 6zM858 567q39 0 49 37q53 199 -34 294t-253 95t-264 -104q-96 -105 -131 -322h633zM842 133q32 0 32 -41q0 -19 -34 -37q-143 -74 -283 -73q-219 0 -337 122
t-93 326q16 115 41 225q90 414 471 414q172 0 285 -115t61 -336l-6 -26q-25 -100 -123 -100h-643l-10 -64q-29 -174 71 -273t253 -99t290 69q11 8 25 8z" />
    <glyph glyph-name="ecircumflex" unicode="&#xea;" horiz-adv-x="1103" 
d="M477 1206q-33 0 -33 33q0 23 23 37l197 123q30 18 52 18t46 -20l133 -125q16 -14 16 -30t-11 -25q-25 -23 -56 2l-131 122l-207 -127q-14 -8 -29 -8zM858 567q39 0 49 37q53 199 -34 294t-253 95t-264 -104q-96 -105 -131 -322h633zM842 133q32 0 32 -41q0 -19 -34 -37
q-143 -74 -283 -73q-219 0 -337 122t-93 326q16 115 41 225q90 414 471 414q172 0 285 -115t61 -336l-6 -26q-25 -100 -123 -100h-643l-10 -64q-29 -174 71 -273t253 -99t290 69q11 8 25 8z" />
    <glyph glyph-name="edieresis" unicode="&#xeb;" horiz-adv-x="1103" 
d="M843 1354q28 0 44 -16t16 -43q0 -26 -19 -44t-46 -18t-43 15q-17 15 -17 41q0 25 18 45t47 20zM554 1354q28 0 43 -16t15 -43q0 -26 -19 -44t-45 -18t-42 15t-16 41q0 25 18 45t46 20zM858 567q39 0 49 37q53 199 -34 294t-253 95t-264 -104q-96 -105 -131 -322h633z
M842 133q32 0 32 -41q0 -19 -34 -37q-143 -74 -283 -73q-219 0 -337 122t-93 326q16 115 41 225q90 414 471 414q172 0 285 -115t61 -336l-6 -26q-25 -100 -123 -100h-643l-10 -64q-29 -174 71 -273t253 -99t290 69q11 8 25 8z" />
    <glyph glyph-name="igrave" unicode="&#xec;" horiz-adv-x="544" 
d="M332 1055q43 0 37 -47l-164 -979q-8 -37 -39 -37q-43 0 -37 47l164 979q8 37 39 37zM381 1204q-12 0 -27 8l-250 140q-23 12 -22 34q0 35 37 35q14 0 31 -8l249 -141q23 -10 23 -33q0 -35 -41 -35z" />
    <glyph glyph-name="iacute" unicode="&#xed;" horiz-adv-x="544" 
d="M332 1055q43 0 37 -47l-164 -979q-8 -37 -39 -37q-43 0 -37 47l164 979q8 37 39 37zM680 1425q35 0 35 -32q0 -25 -33 -41l-299 -142q-12 -6 -25 -6q-33 0 -32 35q-1 25 24 35l307 145q12 6 23 6z" />
    <glyph glyph-name="icircumflex" unicode="&#xee;" horiz-adv-x="544" 
d="M156 1206q-33 0 -33 33q0 23 22 37l197 123q30 18 52 18t46 -20l133 -125q17 -14 17 -30t-11 -25q-27 -24 -57 2l-131 122l-207 -127q-14 -8 -28 -8zM332 1055q43 0 37 -47l-164 -979q-8 -37 -39 -37q-43 0 -37 47l164 979q8 37 39 37z" />
    <glyph glyph-name="idieresis" unicode="&#xef;" horiz-adv-x="544" 
d="M332 1055q43 0 37 -47l-164 -979q-8 -37 -39 -37q-43 0 -37 47l164 979q8 37 39 37zM459 1289q0 25 18 45t46 20t44 -16q17 -16 17 -43q0 -26 -20 -44t-46 -18q-27 0 -43 15t-16 41zM170 1289q0 25 18 45t47 20q28 0 43 -16t15 -43q1 -26 -19 -44t-46 -18t-42 15t-16 41z
" />
    <glyph glyph-name="eth" unicode="&#xf0;" horiz-adv-x="1171" 
d="M590 926q-274 0 -348 -299q-31 -127 -39 -234q-12 -153 80 -243t236 -90t230 83q85 84 113 203t47 279q14 127 -79 214t-240 87zM592 1001q242 0 354 -194q45 254 -67 403l-189 -84q-16 -10 -37 -2q-20 8 -20 33t33 39l153 68q-55 51 -102 79q-21 13 -21 33t14 32t30 13
q17 0 28 -8q82 -61 133 -113l158 70q16 10 38 2q21 -8 21 -33t-33 -39l-133 -59q117 -162 70 -438q-10 -53 -30 -175t-42 -235q-36 -195 -148 -303t-290 -108t-290 120t-97 306q6 61 37 210q39 193 151 288q113 95 279 95z" />
    <glyph glyph-name="ntilde" unicode="&#xf1;" horiz-adv-x="1214" 
d="M800 1219q-52 -1 -119 37t-93 38t-60 -26q-33 -26 -49 -25q-37 0 -37 37q0 16 19 35q59 55 119 55t127 -38q65 -38 93 -38t62 26t50 26t28 -12t12 -30t-24 -34q-76 -51 -128 -51zM907 -8q-14 0 -25 12t-10 31l103 598q36 226 -78 301q-89 59 -211 59q-182 0 -352 -98
l-144 -866q-8 -37 -38 -37q-43 0 -37 47l143 868q6 37 45 60q178 102 365 102t296 -85q127 -98 87 -349l-103 -602q-6 -41 -41 -41z" />
    <glyph glyph-name="ograve" unicode="&#xf2;" horiz-adv-x="1134" 
d="M764 1204q-12 0 -27 8l-250 140q-23 12 -22 34q0 35 37 35q14 0 30 -8l250 -141q23 -10 23 -33q0 -35 -41 -35zM623 993q-313 0 -387 -346q-20 -98 -33 -217q-21 -182 91 -276t255 -95q297 0 371 344q20 99 32 218q20 182 -85 277t-244 95zM621 1069q176 0 301 -118
t108 -322q-10 -117 -39 -250q-41 -195 -155 -296t-289 -101q-174 0 -306 116t-116 324q10 117 39 250q41 195 161 296t296 101z" />
    <glyph glyph-name="oacute" unicode="&#xf3;" horiz-adv-x="1134" 
d="M958 1425q35 0 35 -32q0 -25 -32 -41l-299 -142q-12 -6 -25 -6q-33 0 -33 35q0 25 25 35l307 145q12 6 22 6zM623 993q-313 0 -387 -346q-20 -98 -33 -217q-21 -182 91 -276t255 -95q297 0 371 344q20 99 32 218q20 182 -85 277t-244 95zM621 1069q176 0 301 -118
t108 -322q-10 -117 -39 -250q-41 -195 -155 -296t-289 -101q-174 0 -306 116t-116 324q10 117 39 250q41 195 161 296t296 101z" />
    <glyph glyph-name="ocircumflex" unicode="&#xf4;" horiz-adv-x="1134" 
d="M471 1204q-33 0 -33 33q0 23 23 37l196 123q27 18 51 18t48 -20l133 -125q16 -14 16 -30t-11 -26q-12 -10 -26 -10t-30 13l-131 122l-207 -127q-14 -8 -29 -8zM623 993q-313 0 -387 -346q-20 -98 -33 -217q-21 -182 91 -276t255 -95q297 0 371 344q20 99 32 218
q20 182 -85 277t-244 95zM621 1069q176 0 301 -118t108 -322q-10 -117 -39 -250q-41 -195 -155 -296t-289 -101q-174 0 -306 116t-116 324q10 117 39 250q41 195 161 296t296 101z" />
    <glyph glyph-name="otilde" unicode="&#xf5;" horiz-adv-x="1134" 
d="M804 1219q-52 -1 -119 37t-93 38t-60 -26q-33 -26 -49 -25q-37 0 -37 37q0 16 19 35q59 55 119 55t127 -38q65 -38 93 -38t62 26t50 26t28 -12t12 -30t-24 -34q-76 -51 -128 -51zM623 993q-313 0 -387 -346q-20 -98 -33 -217q-21 -182 91 -276t255 -95q297 0 371 344
q20 99 32 218q20 182 -85 277t-244 95zM621 1069q176 0 301 -118t108 -322q-10 -117 -39 -250q-41 -195 -155 -296t-289 -101q-174 0 -306 116t-116 324q10 117 39 250q41 195 161 296t296 101z" />
    <glyph glyph-name="odieresis" unicode="&#xf6;" horiz-adv-x="1134" 
d="M849 1354q28 0 44 -16t16 -43q0 -26 -19 -44t-46 -18t-43 15q-17 15 -17 41q0 25 18 45t47 20zM496 1289q0 25 18 45t46 20t43 -16t15 -43q0 -26 -19 -44t-45 -18t-42 15t-16 41zM623 993q-313 0 -387 -346q-20 -98 -33 -217q-21 -182 91 -276t255 -95q297 0 371 344
q20 99 32 218q20 182 -85 277t-244 95zM621 1069q176 0 301 -118t108 -322q-10 -117 -39 -250q-41 -195 -155 -296t-289 -101q-174 0 -306 116t-116 324q10 117 39 250q41 195 161 296t296 101z" />
    <glyph glyph-name="divide" unicode="&#xf7;" horiz-adv-x="1286" 
d="M1118 680h-952q-43 0 -43 38t43 38h952q45 0 45 -39q0 -16 -13 -27q-14 -10 -32 -10zM571 373q0 29 22 51q23 22 51 20t50 -24t21 -50q0 -28 -22 -48q-23 -20 -51 -20t-50 20q-22 22 -21 51zM571 1065q0 29 22 48q23 19 51 19t50 -20t21 -49q0 -29 -22 -51
q-23 -22 -51 -20q-28 0 -50 22t-21 51z" />
    <glyph glyph-name="oslash" unicode="&#xf8;" horiz-adv-x="1146" 
d="M221 238l660 639q-98 117 -267 116q-309 0 -381 -336q-21 -97 -35 -219t23 -200zM543 59q145 0 240 85t130 249q23 109 36 227t-27 197l-660 -639q99 -119 281 -119zM545 -18q-215 0 -340 143l-105 -102q-31 -31 -56 -8q-9 9 -9 23t16 32l115 112q-63 115 -43 254
q10 88 35 221q37 203 157 308q121 104 295 104q90 0 178 -36t148 -103l113 108q16 16 32 17q33 0 33 -31q0 -16 -16 -33l-121 -117q63 -115 47 -260q-10 -88 -35 -221q-37 -203 -157 -307t-287 -104z" />
    <glyph glyph-name="ugrave" unicode="&#xf9;" horiz-adv-x="1175" 
d="M766 1204q-12 0 -27 8l-250 140q-23 12 -22 34q0 35 37 35q14 0 31 -8l249 -141q23 -10 23 -33q0 -35 -41 -35zM289 1055q14 -1 25 -13t10 -30l-93 -559q-35 -209 53 -301t257 -92q168 0 325 108l140 850q8 37 38 37q43 0 37 -47l-141 -858q-2 -27 -37 -52
q-163 -116 -365 -116t-313 120q-110 122 -71 351l94 561q6 41 41 41z" />
    <glyph glyph-name="uacute" unicode="&#xfa;" horiz-adv-x="1175" 
d="M954 1425q35 0 35 -32q0 -25 -33 -41l-299 -142q-12 -6 -24 -6q-33 0 -33 35q0 25 25 35l307 145q12 6 22 6zM289 1055q14 -1 25 -13t10 -30l-93 -559q-35 -209 53 -301t257 -92q168 0 325 108l140 850q8 37 38 37q43 0 37 -47l-141 -858q-2 -27 -37 -52
q-163 -116 -365 -116t-313 120q-110 122 -71 351l94 561q6 41 41 41z" />
    <glyph glyph-name="ucircumflex" unicode="&#xfb;" horiz-adv-x="1175" 
d="M485 1206q-33 0 -32 33q0 23 22 37l197 123q26 18 50 18t48 -20l133 -125q17 -14 17 -30t-12 -25q-25 -22 -56 2l-131 122l-207 -127q-14 -8 -29 -8zM289 1055q14 -1 25 -13t10 -30l-93 -559q-35 -209 53 -301t257 -92q168 0 325 108l140 850q8 37 38 37q43 0 37 -47
l-141 -858q-2 -27 -37 -52q-163 -116 -365 -116t-313 120q-110 122 -71 351l94 561q6 41 41 41z" />
    <glyph glyph-name="udieresis" unicode="&#xfc;" horiz-adv-x="1175" 
d="M791 1289q0 25 18 45t46 20t44 -16t16 -43q0 -26 -19 -44t-46 -18t-43 15t-16 41zM502 1289q0 25 18 45t46 20t43 -16t15 -43q0 -26 -18 -44q-20 -18 -46 -18t-42 15t-16 41zM289 1055q14 -1 25 -13t10 -30l-93 -559q-35 -209 53 -301t257 -92q168 0 325 108l140 850
q8 37 38 37q43 0 37 -47l-141 -858q-2 -27 -37 -52q-163 -116 -365 -116t-313 120q-110 122 -71 351l94 561q6 41 41 41z" />
    <glyph glyph-name="yacute" unicode="&#xfd;" horiz-adv-x="1017" 
d="M856 1427q35 0 35 -32q0 -25 -33 -41l-299 -142q-12 -6 -24 -6q-33 0 -33 35q-1 25 24 35l308 145q12 6 22 6zM441 170q7 0 15 11t26 47q19 36 32 57l418 737q16 29 39 29q23 1 31 -19t-1 -39l-546 -962q-174 -313 -365 -410q-25 -12 -41 -12q-37 0 -39 33q0 23 27 34
q190 96 354 392l-262 929q-12 51 41 53q25 0 35 -32l198 -725q19 -79 25 -101t13 -22z" />
    <glyph glyph-name="thorn" unicode="&#xfe;" horiz-adv-x="1138" 
d="M70 -393q-16 0 -28 11q-11 11 -9 30l293 1757q8 41 41 41q18 0 28 -12t6 -29l-65 -404q132 59 320 59t291 -119q103 -120 79 -308q-10 -78 -37 -240q-33 -207 -155 -308t-302 -101t-354 77l-67 -413q-10 -41 -41 -41zM535 61q295 0 370 297q29 113 45 282t-63 258
q-80 89 -252 89q-82 1 -172 -21t-141 -48l-127 -781q158 -76 340 -76z" />
    <glyph glyph-name="ydieresis" unicode="&#xff;" horiz-adv-x="1017" 
d="M767 1354q28 0 44 -16t16 -43q0 -26 -19 -44t-46 -18t-43 15q-17 15 -17 41q0 25 18 45t47 20zM414 1289q0 25 18 45t46 20t43 -16t15 -43q0 -26 -18 -44q-20 -18 -46 -18t-42 15t-16 41zM441 170q7 0 15 11t26 47q19 36 32 57l418 737q16 29 39 29q23 1 31 -19t-1 -39
l-546 -962q-174 -313 -365 -410q-25 -12 -41 -12q-37 0 -39 33q0 23 27 34q190 96 354 392l-262 929q-12 51 41 53q25 0 35 -32l198 -725q19 -79 25 -101t13 -22z" />
    <glyph glyph-name="Amacron" unicode="&#x100;" horiz-adv-x="1323" 
d="M662 1583q-39 0 -39 37q0 16 11 26t28 11h348q14 0 25 -11q26 -26 0 -52q-11 -11 -25 -11h-348zM788 1372q-48 0 -79 -57l-373 -705h651l-141 705q-10 57 -58 57zM-14 0q-25 0 -35 16t2 43l670 1262q39 75 75 101t88 26q113 0 140 -127l252 -1268q4 -25 -8 -39t-29 -14
q-35 0 -41 35l-99 504h-706l-270 -512q-14 -27 -39 -27z" />
    <glyph glyph-name="amacron" unicode="&#x101;" horiz-adv-x="1116" 
d="M518 1257q-16 1 -28 11t-11 26q0 16 11 26t28 11h348q14 0 26 -10q12 -11 11 -27q0 -16 -11 -26t-26 -11h-348zM168 299q0 -100 82 -171t250 -71q167 0 299 97l51 315q-180 92 -332 92t-251 -66q-99 -67 -99 -196zM494 -18q-182 0 -293 90t-111 238t119 236
q119 87 295 87t358 -92l27 151q27 154 -49 228t-210 74t-288 -68q-18 -8 -37 2q-18 10 -18 32q1 22 33 42t125 44t180 23q167 -1 269 -95t71 -280l-93 -542q-8 -49 -30 -64q-166 -106 -348 -106z" />
    <glyph glyph-name="Abreve" unicode="&#x102;" horiz-adv-x="1323" 
d="M831 1542q-141 0 -182 137q-6 18 -6 41q0 41 35 41q25 0 33 -41q25 -106 127 -106t143 112q12 35 39 35q35 0 35 -32q0 -16 -19 -59t-72 -86q-55 -42 -133 -42zM788 1372q-48 0 -79 -57l-373 -705h651l-141 705q-10 57 -58 57zM-14 0q-25 0 -35 16t2 43l670 1262
q39 75 75 101t88 26q113 0 140 -127l252 -1268q4 -25 -8 -39t-29 -14q-35 0 -41 35l-99 504h-706l-270 -512q-14 -27 -39 -27z" />
    <glyph glyph-name="abreve" unicode="&#x103;" horiz-adv-x="1116" 
d="M696 1206q-141 0 -182 137q-6 18 -6 41q0 41 35 41q25 0 32 -41q25 -106 127 -106t144 113q12 35 39 34q35 0 35 -32q0 -16 -19 -59q-19 -44 -73 -86t-132 -42zM168 299q0 -100 82 -171t250 -71q167 0 299 97l51 315q-180 92 -332 92t-251 -66q-99 -67 -99 -196zM494 -18
q-182 0 -293 90t-111 238t119 236q119 87 295 87t358 -92l27 151q27 154 -49 228t-210 74t-288 -68q-18 -8 -37 2q-18 10 -18 32q1 22 33 42t125 44t180 23q167 -1 269 -95t71 -280l-93 -542q-8 -49 -30 -64q-166 -106 -348 -106z" />
    <glyph glyph-name="Aogonek" unicode="&#x104;" horiz-adv-x="1284" 
d="M909 -223q0 -103 109 -103q50 0 80 24t44 23q31 0 34 -32q0 -23 -44 -55t-118 -31q-74 0 -125 45t-51 127q0 174 258 276l-95 488h-706l-270 -512q-14 -27 -39 -27t-35 16t2 43l670 1262q39 75 75 101t88 26q113 0 140 -127l252 -1268q4 -25 -4 -38t-46 -25
q-219 -82 -219 -213zM788 1372q-48 0 -79 -57l-373 -705h651l-141 705q-10 57 -58 57z" />
    <glyph glyph-name="aogonek" unicode="&#x105;" horiz-adv-x="1116" 
d="M168 312q0 -116 82 -185q82 -70 250 -70q167 0 299 97l51 315q-180 92 -332 92t-251 -66q-99 -67 -99 -183zM539 -172q1 -45 33 -72q32 -26 78 -26t85 30t61 8q10 -9 9 -28q0 -18 -44 -50t-117 -32t-125 49t-52 130t74 149q-16 -2 -56 -2q-175 0 -285 89t-110 239
t120 235q120 86 295 86t357 -92l27 151q27 154 -49 228t-210 74t-288 -68q-18 -8 -37 2q-18 10 -18 32q1 22 33 42t125 44t180 23q166 0 268 -94t72 -281l-93 -540q-8 -55 -51 -78q-23 -12 -67 -32t-77 -38q-89 -44 -120 -100q-18 -32 -18 -78z" />
    <glyph glyph-name="Cacute" unicode="&#x106;" horiz-adv-x="1304" 
d="M1040 1763q35 0 35 -32q0 -25 -33 -41l-299 -142q-12 -6 -24 -6q-33 0 -33 35q0 25 25 35l307 145q12 6 22 6zM637 59q301 0 436 287q16 39 43 39q14 0 24 -10q10 -9 11 -23q-1 -14 -21 -58q-47 -100 -152 -197q-58 -52 -146 -83t-193 -30q-260 0 -407 167
q-146 167 -113 427q23 197 57 333q61 247 217 391t393 144q176 0 304 -93t167 -235q6 -20 7 -37q0 -37 -35 -37q-29 0 -39 37q-49 147 -157 218t-253 71q-190 0 -327 -120t-197 -339q-40 -147 -62 -362t100 -353t343 -137z" />
    <glyph glyph-name="cacute" unicode="&#x107;" horiz-adv-x="1112" 
d="M889 1425q35 0 35 -32q0 -25 -33 -41l-299 -142q-12 -6 -25 -6q-33 0 -32 35q-1 25 24 35l307 145q12 6 23 6zM539 59q96 -1 185 51t128 173q10 33 39 32q37 0 37 -39q0 -71 -109 -190q-43 -47 -116 -76t-162 -28q-182 0 -311 120q-128 121 -101 336q6 61 35 221
q35 205 154 308q120 102 286 102t260 -71t127 -169q10 -37 10 -47q1 -39 -33 -39t-44 35q-61 215 -306 215q-307 0 -378 -334q-20 -97 -38 -255t86 -252q106 -94 251 -93z" />
    <glyph glyph-name="Cdotaccent" unicode="&#x10a;" horiz-adv-x="1304" 
d="M853 1686q28 0 43 -16t15 -43q0 -26 -19 -44t-45 -18t-42 15q-17 15 -17 41q0 25 18 45t47 20zM637 59q301 0 436 287q16 39 43 39q14 0 24 -10q10 -9 11 -23q-1 -14 -21 -58q-47 -100 -152 -197q-58 -52 -146 -83t-193 -30q-260 0 -407 167q-146 167 -113 427
q23 197 57 333q61 247 217 391t393 144q176 0 304 -93t167 -235q6 -20 7 -37q0 -37 -35 -37q-29 0 -39 37q-49 147 -157 218t-253 71q-190 0 -327 -120t-197 -339q-40 -147 -62 -362t100 -353t343 -137z" />
    <glyph glyph-name="cdotaccent" unicode="&#x10b;" horiz-adv-x="1112" 
d="M673 1354q28 0 43 -16t15 -43q0 -26 -19 -44t-45 -18t-42 15q-17 15 -17 41q0 25 18 45t47 20zM539 59q96 -1 185 51t128 173q10 33 39 32q37 0 37 -39q0 -71 -109 -190q-43 -47 -116 -76t-162 -28q-182 0 -311 120q-128 121 -101 336q6 61 35 221q35 205 154 308
q120 102 286 102t260 -71t127 -169q10 -37 10 -47q1 -39 -33 -39t-44 35q-61 215 -306 215q-307 0 -378 -334q-20 -97 -38 -255t86 -252q106 -94 251 -93z" />
    <glyph glyph-name="Ccaron" unicode="&#x10c;" horiz-adv-x="1304" 
d="M834 1532q-22 0 -46 20l-145 123q-14 13 -14 29t11 28q10 12 24 11q14 0 30 -12l144 -123l190 127q10 8 24 8t26 -11q30 -30 -11 -61l-180 -119q-31 -20 -53 -20zM637 59q301 0 436 287q16 39 43 39q14 0 24 -10q10 -9 11 -23q-1 -14 -21 -58q-47 -100 -152 -197
q-58 -52 -146 -83t-193 -30q-260 0 -407 167q-146 167 -113 427q23 197 57 333q61 247 217 391t393 144q176 0 304 -93t167 -235q6 -20 7 -37q0 -37 -35 -37q-29 0 -39 37q-49 147 -157 218t-253 71q-190 0 -327 -120t-197 -339q-40 -147 -62 -362t100 -353t343 -137z" />
    <glyph glyph-name="ccaron" unicode="&#x10d;" horiz-adv-x="1112" 
d="M656 1200q-22 0 -46 21l-145 122q-14 13 -14 29t11 28t25 11q14 0 29 -12l143 -123l191 127q10 8 24 8t26 -11q12 -12 11 -28q0 -16 -22 -33l-180 -118q-31 -21 -53 -21zM539 59q96 -1 185 51t128 173q10 33 39 32q37 0 37 -39q0 -71 -109 -190q-43 -47 -116 -76
t-162 -28q-182 0 -311 120q-128 121 -101 336q6 61 35 221q35 205 154 308q120 102 286 102t260 -71t127 -169q10 -37 10 -47q1 -39 -33 -39t-44 35q-61 215 -306 215q-307 0 -378 -334q-20 -97 -38 -255t86 -252q106 -94 251 -93z" />
    <glyph glyph-name="Dcaron" unicode="&#x10e;" horiz-adv-x="1390" 
d="M854 1532q-22 0 -45 20l-145 123q-14 13 -14 29t10 28t24 11q14 0 31 -12l143 -123l191 127q10 8 24 8q13 0 25 -11q12 -12 12 -28t-23 -33l-180 -119q-31 -20 -53 -20zM578 78q264 0 418 120t214 396q20 92 33 215q35 252 -101 396t-409 145h-311l-209 -1272h365zM195 0
q-72 0 -60 76l211 1276q6 32 30 54t58 21h295q319 1 472 -165t122 -441q-18 -168 -37 -246q-68 -311 -243 -443t-463 -132h-385z" />
    <glyph glyph-name="dcaron" unicode="&#x10f;" horiz-adv-x="1222" 
d="M1241 1114q-33 0 -33 31q0 16 30 48q30 31 42 55t23 77l16 82q6 39 41 39q16 0 26 -13t7 -34l-17 -84q-23 -106 -82 -170q-30 -31 -53 -31zM525 59q165 0 309 86l122 744q-57 39 -151 72t-195 32q-299 0 -370 -334q-19 -87 -38 -254t69 -257q89 -89 254 -89zM614 1069
q182 0 357 -96l71 434q8 37 39 37q43 0 37 -47l-209 -1256q-6 -39 -43 -61q-158 -98 -346 -98t-304 118t-87 338q8 68 40 246t147 282q116 103 298 103z" />
    <glyph glyph-name="Dcroat" unicode="&#x110;" horiz-adv-x="1370" 
d="M557 78q264 0 418 120t215 396q20 92 33 215q33 252 -103 396t-407 145h-312l-98 -607h399q16 0 28 -11t11 -27q0 -37 -41 -37h-411l-96 -590h364zM174 0q-72 0 -59 76l98 592h-174q-41 0 -41 37q0 16 11 27t28 11h188l101 609q6 32 30 54t58 21h295q319 1 472 -165
t122 -441q-18 -168 -37 -246q-68 -311 -244 -443t-473 -132h-375z" />
    <glyph glyph-name="dcroat" unicode="&#x111;" horiz-adv-x="1212" 
d="M526 59q166 0 308 86l122 744q-57 39 -151 72t-195 32q-299 0 -370 -334q-18 -89 -38 -255t69 -256q89 -89 255 -89zM725 1239q0 15 11 27t28 12h256l22 129q8 37 39 37q43 0 37 -47l-20 -119h69q45 0 45 -35q0 -41 -49 -41h-78l-176 -1061q-6 -39 -43 -61
q-158 -98 -346 -98t-304 118t-87 338q8 68 40 246t147 282q116 103 298 103t357 -96l37 229h-242q-41 0 -41 37z" />
    <glyph glyph-name="Emacron" unicode="&#x112;" horiz-adv-x="1243" 
d="M668 1583q-39 0 -39 37q0 16 11 26t28 11h348q16 0 26 -11q24 -26 0 -52q-10 -11 -26 -11h-348zM438 1427h742q41 0 41 -38q-1 -15 -13 -27t-28 -12h-756l-98 -592h718q41 0 41 -38t-41 -38h-731l-98 -604h748q41 0 41 -39t-41 -39h-764q-76 0 -62 76l211 1276
q6 41 26 58t64 17z" />
    <glyph glyph-name="emacron" unicode="&#x113;" horiz-adv-x="1103" 
d="M543 1260q-16 0 -28 10q-11 10 -11 26t11 26t28 11h348q14 0 25 -11q27 -27 0 -51q-11 -11 -25 -11h-348zM858 567q39 0 49 37q53 199 -34 294t-253 95t-264 -104q-96 -105 -131 -322h633zM842 133q32 0 32 -41q0 -19 -34 -37q-143 -74 -283 -73q-219 0 -337 122t-93 326
q16 115 41 225q90 414 471 414q172 0 285 -115t61 -336l-6 -26q-25 -100 -123 -100h-643l-10 -64q-29 -174 71 -273t253 -99t290 69q11 8 25 8z" />
    <glyph glyph-name="Edotaccent" unicode="&#x116;" horiz-adv-x="1243" 
d="M849 1686q28 0 43 -16t15 -43q0 -26 -19 -44t-45 -18t-42 15q-17 15 -17 41q0 25 18 45t47 20zM438 1427h742q41 0 41 -38q-1 -15 -13 -27t-28 -12h-756l-98 -592h718q41 0 41 -38t-41 -38h-731l-98 -604h748q41 0 41 -39t-41 -39h-764q-76 0 -62 76l211 1276q6 41 26 58
t64 17z" />
    <glyph glyph-name="edotaccent" unicode="&#x117;" horiz-adv-x="1103" 
d="M637 1287q0 25 18 45t46 20t43 -16q16 -16 16 -43q0 -26 -20 -44t-45 -18q-26 0 -42 15t-16 41zM858 567q39 0 49 37q53 199 -34 294t-253 95t-264 -104q-96 -105 -131 -322h633zM842 133q32 0 32 -41q0 -19 -34 -37q-143 -74 -283 -73q-219 0 -337 122t-93 326
q16 115 41 225q90 414 471 414q172 0 285 -115t61 -336l-6 -26q-25 -100 -123 -100h-643l-10 -64q-29 -174 71 -273t253 -99t290 69q11 8 25 8z" />
    <glyph glyph-name="Eogonek" unicode="&#x118;" horiz-adv-x="1230" 
d="M966 -279q32 -1 33 -37q1 -18 -43 -50t-118 -31q-74 0 -125 45t-51 127q0 135 161 225h-624q-76 0 -62 76l211 1276q6 41 26 58t64 17h742q41 0 41 -38q-1 -15 -13 -27t-28 -12h-756l-98 -592h718q41 0 41 -38t-41 -38h-731l-98 -604h748q18 0 29 -12t12 -27
q0 -31 -41 -45q-229 -80 -230 -217q0 -103 109 -103q50 0 80 24t44 23z" />
    <glyph glyph-name="eogonek" unicode="&#x119;" horiz-adv-x="1103" 
d="M858 567q39 0 49 37q53 199 -34 294t-253 95t-264 -104q-96 -105 -131 -322h633zM674 -362q-74 0 -125 45t-51 136t90 165q-227 -14 -358 110q-130 125 -103 336q16 115 41 225q90 414 471 414q172 0 285 -115t61 -336l-6 -26q-25 -100 -123 -100h-643l-10 -64
q-29 -174 71 -273t253 -99t290 69q11 8 25 8t23 -11q9 -12 9 -26t-11 -25t-54 -29q-173 -70 -217 -146q-23 -39 -23 -88t30 -74t79 -25q50 -1 80 23t44 24q31 0 34 -32q0 -23 -31 -46q-57 -40 -131 -40z" />
    <glyph glyph-name="Ecaron" unicode="&#x11a;" horiz-adv-x="1243" 
d="M840 1532q-22 0 -45 20l-146 123q-14 13 -14 29t11 28q10 12 24 11q14 0 30 -12l144 -123l190 127q10 8 24 8t26 -11q30 -30 -11 -61l-180 -119q-31 -20 -53 -20zM438 1427h742q41 0 41 -38q-1 -15 -13 -27t-28 -12h-756l-98 -592h718q41 0 41 -38t-41 -38h-731l-98 -604
h748q41 0 41 -39t-41 -39h-764q-76 0 -62 76l211 1276q6 41 26 58t64 17z" />
    <glyph glyph-name="ecaron" unicode="&#x11b;" horiz-adv-x="1103" 
d="M690 1198q-22 0 -45 21l-145 122q-14 13 -14 29t10 28q12 12 26 11q14 0 29 -12l143 -123l191 127q10 8 24 8q13 0 25 -11q12 -12 12 -28t-22 -33l-181 -118q-31 -21 -53 -21zM858 567q39 0 49 37q53 199 -34 294t-253 95t-264 -104q-96 -105 -131 -322h633zM842 133
q32 0 32 -41q0 -19 -34 -37q-143 -74 -283 -73q-219 0 -337 122t-93 326q16 115 41 225q90 414 471 414q172 0 285 -115t61 -336l-6 -26q-25 -100 -123 -100h-643l-10 -64q-29 -174 71 -273t253 -99t290 69q11 8 25 8z" />
    <glyph glyph-name="Gbreve" unicode="&#x11e;" horiz-adv-x="1384" 
d="M858 1542q-141 0 -182 137q-6 18 -6 41q0 41 35 41q25 0 32 -41q25 -106 127 -106t144 112q12 35 39 35q35 0 34 -32q-1 -16 -19 -59q-18 -44 -72 -86t-132 -42zM1155 727q82 0 68 -80q-6 -39 -15 -82t-16 -94q-37 -217 -178 -352t-382 -135q-240 0 -390 168t-127 413
q16 180 57 346q59 251 219 393t383 142q172 0 301 -82t178 -231q8 -29 9 -39q0 -39 -37 -39q-29 0 -37 32q-33 133 -147 208t-263 75q-197 0 -332 -120t-194 -351q-34 -137 -58 -338t100 -351t331 -151q207 0 329 109t160 299l33 182h-373q-18 0 -31 11q-12 11 -12 28
q0 39 43 39h381z" />
    <glyph glyph-name="gbreve" unicode="&#x11f;" horiz-adv-x="1183" 
d="M809 1206q-141 0 -182 137q-6 18 -6 41q0 41 34 41q25 0 33 -41q25 -106 127 -106t143 113q12 35 39 34q35 0 35 -32q0 -16 -18 -59q-18 -44 -73 -86q-54 -42 -132 -42zM664 993q-319 0 -390 -334q-18 -89 -36 -241t62 -244t250 -92q171 0 329 113l112 702
q-134 96 -327 96zM557 4q-203 0 -311 117t-82 317q10 88 35 221q37 205 154 308q118 102 302 102q236 0 392 -111q30 -20 22 -59l-139 -856q-66 -432 -476 -432q-92 0 -187 41t-146 90q-34 34 -9 61t64 -8q127 -111 288 -111t267 98q106 97 131 316q-145 -94 -305 -94z" />
    <glyph glyph-name="Gdotaccent" unicode="&#x120;" horiz-adv-x="1384" 
d="M801 1621q0 25 18 45t46 20t43 -16q16 -16 16 -43q0 -26 -20 -44t-45 -18q-26 0 -42 15t-16 41zM1155 727q82 0 68 -80q-6 -39 -15 -82t-16 -94q-37 -217 -178 -352t-382 -135q-240 0 -390 168t-127 413q16 180 57 346q59 251 219 393t383 142q172 0 301 -82t178 -231
q8 -29 9 -39q0 -39 -37 -39q-29 0 -37 32q-33 133 -147 208t-263 75q-197 0 -332 -120t-194 -351q-34 -137 -58 -338t100 -351t331 -151q207 0 329 109t160 299l33 182h-373q-18 0 -31 11q-12 11 -12 28q0 39 43 39h381z" />
    <glyph glyph-name="gdotaccent" unicode="&#x121;" horiz-adv-x="1183" 
d="M762 1289q0 25 18 45t46 20t43 -16t15 -43q0 -26 -18 -44q-20 -18 -46 -18t-42 15t-16 41zM664 993q-319 0 -390 -334q-18 -89 -36 -241t62 -244t250 -92q171 0 329 113l112 702q-134 96 -327 96zM557 4q-203 0 -311 117t-82 317q10 88 35 221q37 205 154 308
q118 102 302 102q236 0 392 -111q30 -20 22 -59l-139 -856q-66 -432 -476 -432q-92 0 -187 41t-146 90q-34 34 -9 61t64 -8q127 -111 288 -111t267 98q106 97 131 316q-145 -94 -305 -94z" />
    <glyph glyph-name="Gcommaaccent" unicode="&#x122;" horiz-adv-x="1384" 
d="M459 -446q-33 0 -33 30q0 16 18 35q63 68 82 172l21 111q6 37 41 37q16 -1 27 -13t6 -32l-19 -113q-14 -80 -36 -121t-64 -86q-27 -20 -43 -20zM1155 727q82 0 68 -80q-6 -39 -15 -82t-16 -94q-37 -217 -178 -352t-382 -135q-240 0 -390 168t-127 413q16 180 57 346
q59 251 219 393t383 142q172 0 301 -82t178 -231q8 -29 9 -39q0 -39 -37 -39q-29 0 -37 32q-33 133 -147 208t-263 75q-197 0 -332 -120t-194 -351q-34 -137 -58 -338t100 -351t331 -151q207 0 329 109t160 299l33 182h-373q-18 0 -31 11q-12 11 -12 28q0 39 43 39h381z" />
    <glyph glyph-name="gcommaaccent" unicode="&#x123;" horiz-adv-x="1183" 
d="M784 1120q-33 0 -32 31q0 16 18 35q63 68 82 172l20 110q6 37 41 37q15 0 27 -12t6 -33l-18 -112q-14 -80 -36 -121t-65 -86q-25 -21 -43 -21zM664 993q-319 0 -390 -334q-18 -89 -36 -241t62 -244t250 -92q171 0 329 113l112 702q-134 96 -327 96zM557 4
q-203 0 -311 117t-82 317q10 88 35 221q37 205 154 308q118 102 302 102q236 0 392 -111q30 -20 22 -59l-139 -856q-66 -432 -476 -432q-92 0 -187 41t-146 90q-34 34 -9 61t64 -8q127 -111 288 -111t267 98q106 97 131 316q-145 -94 -305 -94z" />
    <glyph glyph-name="imacron" unicode="&#x12b;" horiz-adv-x="544" 
d="M332 1055q43 0 37 -47l-164 -979q-8 -37 -39 -37q-43 0 -37 47l164 979q8 37 39 37zM203 1260q-16 0 -28 10q-11 10 -11 26t11 26t28 11h348q13 0 25 -11q12 -12 12 -26t-11 -25t-26 -11h-348z" />
    <glyph glyph-name="Iogonek" unicode="&#x12e;" horiz-adv-x="542" 
d="M200 -279q32 -1 33 -37q1 -18 -43 -50t-118 -31q-74 0 -125 43t-51 125q0 180 268 274q-2 14 2 35l221 1321q8 37 39 37q43 0 37 -47l-227 -1362q-4 -27 -46 -44q-164 -66 -193 -118q-29 -51 -30 -94q0 -98 105 -99q54 0 84 24t44 23z" />
    <glyph glyph-name="iogonek" unicode="&#x12f;" horiz-adv-x="544" 
d="M457 1365q-1 -29 -19 -51t-48 -22t-46 18t-16 45q0 29 18 51t51 21q60 0 60 -62zM39 -397q-74 0 -125 43t-51 125q0 176 270 274q-2 12 2 37l158 936q8 37 39 37q43 0 37 -47l-162 -979q-6 -29 -48 -45q-162 -62 -197 -123q-25 -45 -25 -88q0 -98 104 -99q51 0 81 24
t48 23q33 0 33 -32q0 -23 -33 -45q-57 -41 -131 -41z" />
    <glyph glyph-name="Idotaccent" unicode="&#x130;" horiz-adv-x="542" 
d="M371 1621q0 25 18 45t46 20t43 -16q16 -16 16 -43q0 -26 -20 -44t-45 -18q-26 0 -42 15t-16 41zM172 -8q-43 0 -37 47l227 1362q8 37 39 37q43 0 37 -47l-227 -1362q-8 -37 -39 -37z" />
    <glyph glyph-name="dotlessi" unicode="&#x131;" horiz-adv-x="473" 
d="M328 1055q43 0 37 -47l-164 -979q-8 -37 -39 -37q-43 0 -37 47l164 979q8 37 39 37z" />
    <glyph glyph-name="Kcommaaccent" unicode="&#x136;" horiz-adv-x="1251" 
d="M408 -446q-33 0 -33 30q0 16 18 35q63 68 82 172l21 111q6 37 41 37q16 -1 27 -13t5 -32l-18 -113q-14 -80 -36 -121t-64 -86q-25 -20 -43 -20zM170 -8q-16 0 -27 12q-10 12 -8 27l227 1368q6 39 41 39q17 0 27 -12t8 -27l-106 -635h69q37 0 60 8t59 43l654 608
q14 14 32 15q37 0 37 -35q0 -20 -20 -39l-688 -637l550 -668q10 -16 11 -30q0 -37 -39 -37q-20 0 -33 16l-516 629q-26 35 -48 43t-63 8h-78l-108 -657q-6 -39 -41 -39z" />
    <glyph glyph-name="kcommaaccent" unicode="&#x137;" horiz-adv-x="1046" 
d="M322 -446q-33 0 -33 30q0 16 18 35q63 68 82 172l21 111q6 37 41 37q16 -1 27 -13t5 -32l-18 -113q-14 -80 -36 -121t-64 -86q-27 -20 -43 -20zM401 1444q43 0 37 -47l-135 -813h68q45 0 71 10t60 43l432 412q14 14 31 14q37 0 36 -35q0 -18 -18 -37l-469 -446l352 -484
q30 -34 3 -59q-11 -10 -29 -10t-33 20l-322 441q-25 33 -47 44t-67 11h-80l-80 -479q-8 -37 -39 -37q-43 0 -37 47l227 1368q8 37 39 37z" />
    <glyph glyph-name="Lacute" unicode="&#x139;" horiz-adv-x="1091" 
d="M711 1763q35 0 34 -32q0 -25 -32 -41l-299 -142q-12 -6 -25 -6q-33 0 -33 35q0 25 25 35l307 145q12 6 23 6zM958 78q41 0 41 -39t-41 -39h-759q-76 0 -64 76l221 1323q6 39 39 39q43 0 37 -47l-219 -1313h745z" />
    <glyph glyph-name="lacute" unicode="&#x13a;" horiz-adv-x="503" 
d="M707 1763q35 0 34 -32q0 -25 -32 -41l-299 -142q-12 -6 -25 -6q-33 0 -33 35q0 25 25 35l307 145q12 6 23 6zM379 1444q43 0 37 -47l-228 -1368q-8 -37 -38 -37q-43 0 -37 47l227 1368q8 37 39 37z" />
    <glyph glyph-name="Lcommaaccent" unicode="&#x13b;" horiz-adv-x="1091" 
d="M446 -446q-33 0 -32 30q0 16 18 35q63 68 82 172l21 111q6 37 40 37q15 -1 27 -13t6 -32l-18 -113q-14 -80 -36 -121t-65 -86q-25 -20 -43 -20zM958 78q41 0 41 -39t-41 -39h-759q-76 0 -64 76l221 1323q6 39 39 39q43 0 37 -47l-219 -1313h745z" />
    <glyph glyph-name="lcommaaccent" unicode="&#x13c;" horiz-adv-x="503" 
d="M2 -446q-33 0 -33 30q0 16 19 35q63 68 82 172l20 111q6 37 41 37q15 -1 27 -13t6 -32l-19 -113q-13 -80 -35 -121t-65 -86q-27 -20 -43 -20zM379 1444q43 0 37 -47l-228 -1368q-8 -37 -38 -37q-43 0 -37 47l227 1368q8 37 39 37z" />
    <glyph glyph-name="Lcaron" unicode="&#x13d;" horiz-adv-x="1091" 
d="M606 1114q-33 0 -33 31q0 16 30 48q30 31 42 55t23 77l16 82q6 39 41 39q17 0 27 -13t6 -34l-17 -84q-23 -106 -82 -170q-30 -31 -53 -31zM958 78q41 0 41 -39t-41 -39h-759q-76 0 -64 76l221 1323q6 39 39 39q43 0 37 -47l-219 -1313h745z" />
    <glyph glyph-name="lcaron" unicode="&#x13e;" horiz-adv-x="589" 
d="M506 1114q-33 0 -33 31q0 16 30 48q30 31 42 55t22 77l17 82q6 39 41 39q16 0 26 -13t6 -34l-16 -84q-23 -106 -82 -170q-30 -31 -53 -31zM401 1444q43 0 37 -47l-227 -1368q-8 -37 -39 -37q-43 0 -37 47l227 1368q8 37 39 37z" />
    <glyph glyph-name="Lslash" unicode="&#x141;" horiz-adv-x="1124" 
d="M991 78q41 0 41 -39t-41 -39h-760q-76 0 -63 76l92 553l-137 -76q-16 -8 -27 -8q-31 0 -30 33q0 25 26 38l184 105l113 678q6 39 39 39q43 0 37 -47l-103 -623l259 150q14 8 26 8q35 0 35 -31q0 -23 -29 -39l-309 -176l-98 -602h745z" />
    <glyph glyph-name="lslash" unicode="&#x142;" horiz-adv-x="557" 
d="M51 567q-31 0 -31 33q0 25 27 39l193 111l110 657q8 37 39 37q17 0 29 -13t10 -34l-100 -596l157 88q14 8 27 8q35 0 35 -31q0 -23 -29 -39l-205 -118l-112 -680q-8 -37 -41 -37q-43 0 -37 47l102 620l-147 -84q-16 -8 -27 -8z" />
    <glyph glyph-name="Nacute" unicode="&#x143;" horiz-adv-x="1560" 
d="M1171 1763q35 0 35 -32q0 -25 -32 -41l-300 -142q-12 -6 -24 -6q-33 0 -33 35q0 25 25 35l307 145q12 6 22 6zM1419 1438q37 0 37 -41v-8l-221 -1315q-14 -78 -78 -78q-53 0 -74 47l-647 1311h-4q-55 -313 -70 -406l-151 -915q-8 -41 -39 -41q-14 0 -26 10q-11 10 -11 25
v6l221 1329q12 78 78 78q51 0 72 -47l651 -1315h2q34 220 60 354l161 969q8 37 39 37z" />
    <glyph glyph-name="nacute" unicode="&#x144;" horiz-adv-x="1214" 
d="M961 1425q35 0 34 -32q0 -25 -32 -41l-299 -142q-12 -6 -25 -6q-33 0 -33 35q0 25 25 35l307 145q12 6 23 6zM907 -8q-14 0 -25 12t-10 31l103 598q36 226 -78 301q-89 59 -211 59q-182 0 -352 -98l-144 -866q-8 -37 -38 -37q-43 0 -37 47l143 868q6 37 45 60
q178 102 365 102t296 -85q127 -98 87 -349l-103 -602q-6 -41 -41 -41z" />
    <glyph glyph-name="Ncommaaccent" unicode="&#x145;" horiz-adv-x="1560" 
d="M543 -446q-33 0 -33 30q0 16 18 35q63 68 82 172l21 111q6 37 41 37q16 -1 27 -13t6 -32l-19 -113q-14 -80 -36 -121t-64 -86q-25 -20 -43 -20zM1419 1438q37 0 37 -41v-8l-221 -1315q-14 -78 -78 -78q-53 0 -74 47l-647 1311h-4q-55 -313 -70 -406l-151 -915
q-8 -41 -39 -41q-14 0 -26 10q-11 10 -11 25v6l221 1329q12 78 78 78q51 0 72 -47l651 -1315h2q34 220 60 354l161 969q8 37 39 37z" />
    <glyph glyph-name="ncommaaccent" unicode="&#x146;" horiz-adv-x="1214" 
d="M412 -446q-33 0 -33 30q0 16 18 35q63 68 82 172l21 111q6 37 41 37q16 -1 27 -13t5 -32l-18 -113q-14 -80 -36 -121t-64 -86q-25 -20 -43 -20zM907 -8q-14 0 -25 12t-10 31l103 598q36 226 -78 301q-89 59 -211 59q-182 0 -352 -98l-144 -866q-8 -37 -38 -37
q-43 0 -37 47l143 868q6 37 45 60q178 102 365 102t296 -85q127 -98 87 -349l-103 -602q-6 -41 -41 -41z" />
    <glyph glyph-name="Ncaron" unicode="&#x147;" horiz-adv-x="1560" 
d="M938 1532q-22 0 -45 20l-145 123q-14 13 -14 29t10 28t24 11q14 0 31 -12l143 -123l191 127q10 8 24 8q13 0 25 -11q12 -12 12 -28t-23 -33l-180 -119q-31 -20 -53 -20zM1419 1438q37 0 37 -41v-8l-221 -1315q-14 -78 -78 -78q-53 0 -74 47l-647 1311h-4
q-55 -313 -70 -406l-151 -915q-8 -41 -39 -41q-14 0 -26 10q-11 10 -11 25v6l221 1329q12 78 78 78q51 0 72 -47l651 -1315h2q34 220 60 354l161 969q8 37 39 37z" />
    <glyph glyph-name="ncaron" unicode="&#x148;" horiz-adv-x="1214" 
d="M710 1200q-22 0 -46 21l-146 122q-14 13 -14 29t11 28t25 11q14 0 29 -12l144 -123l190 127q11 8 25 8t25 -11q30 -30 -11 -61l-180 -118q-30 -21 -52 -21zM907 -8q-14 0 -25 12t-10 31l103 598q36 226 -78 301q-89 59 -211 59q-182 0 -352 -98l-144 -866q-8 -37 -38 -37
q-43 0 -37 47l143 868q6 37 45 60q178 102 365 102t296 -85q127 -98 87 -349l-103 -602q-6 -41 -41 -41z" />
    <glyph glyph-name="Omacron" unicode="&#x14c;" horiz-adv-x="1372" 
d="M709 1583q-39 0 -39 37q0 16 11 26t28 11h348q16 0 26 -11q24 -26 0 -52q-10 -11 -26 -11h-348zM645 61q203 0 341 118q138 119 184 309t63 394q18 204 -109 346q-127 140 -344 140t-355 -137t-183 -354q-31 -153 -45 -295q-37 -370 285 -491q81 -30 163 -30zM786 1446
q254 0 402 -169t120 -399q-26 -230 -53 -358q-53 -258 -214 -397t-381 -139t-392 147q-82 72 -125 192q-43 121 -25 269t42 274q49 264 211 422q161 158 415 158z" />
    <glyph glyph-name="omacron" unicode="&#x14d;" horiz-adv-x="1134" 
d="M522 1260q-16 0 -27 10t-12 26t11 26t28 11h348q14 0 26 -11q12 -12 11 -26q0 -14 -11 -25t-26 -11h-348zM623 993q-313 0 -387 -346q-20 -98 -33 -217q-21 -182 91 -276t255 -95q297 0 371 344q20 99 32 218q20 182 -85 277t-244 95zM621 1069q176 0 301 -118t108 -322
q-10 -117 -39 -250q-41 -195 -155 -296t-289 -101q-174 0 -306 116t-116 324q10 117 39 250q41 195 161 296t296 101z" />
    <glyph glyph-name="Ohungarumlaut" unicode="&#x150;" horiz-adv-x="1372" 
d="M972 1540q-38 0 -38 38q0 18 24 36l209 149q34 30 63 4q12 -9 12 -29t-23 -34l-215 -152q-16 -12 -32 -12zM684 1540q-16 0 -27 10q-10 10 -10 28t25 36l209 149q33 29 60 4q11 -9 11 -29t-22 -34l-215 -152q-15 -12 -31 -12zM645 61q203 0 341 118q138 119 184 309
t63 394q18 204 -109 346q-127 140 -344 140t-355 -137t-183 -354q-31 -153 -45 -295q-37 -370 285 -491q81 -30 163 -30zM786 1446q254 0 402 -169t120 -399q-26 -230 -53 -358q-53 -258 -214 -397t-381 -139t-392 147q-82 72 -125 192q-43 121 -25 269t42 274
q49 264 211 422q161 158 415 158z" />
    <glyph glyph-name="ohungarumlaut" unicode="&#x151;" horiz-adv-x="1134" 
d="M809 1242q0 18 25 36l208 149q16 14 35 15q39 0 39 -37q1 -23 -22 -37l-215 -151q-13 -13 -31 -13q-38 0 -39 38zM522 1242q0 18 25 36l209 149q16 14 35 15q36 0 36 -37q1 -23 -22 -37l-215 -151q-34 -25 -58 -3q-10 10 -10 28zM623 993q-313 0 -387 -346
q-20 -98 -33 -217q-21 -182 91 -276t255 -95q297 0 371 344q20 99 32 218q20 182 -85 277t-244 95zM621 1069q176 0 301 -118t108 -322q-10 -117 -39 -250q-41 -195 -155 -296t-289 -101q-174 0 -306 116t-116 324q10 117 39 250q41 195 161 296t296 101z" />
    <glyph glyph-name="OE" unicode="&#x152;" horiz-adv-x="2078" 
d="M801 1368q-453 0 -561 -498q-29 -129 -45 -286q-27 -234 106 -378t357 -144t315 12l211 1276q-164 18 -383 18zM1798 78q41 0 41 -39t-41 -39h-764q-8 0 -108 -8t-248 -8q-282 0 -438 173t-121 443q18 139 41 262q117 584 653 584q86 0 254 -9t197 -10h751q41 0 41 -38
q0 -15 -12 -27t-29 -12h-753l-99 -592h717q41 0 41 -38t-41 -38h-729l-100 -604h747z" />
    <glyph glyph-name="oe" unicode="&#x153;" horiz-adv-x="1894" 
d="M551 -18q-184 0 -317 119q-132 120 -105 335q10 88 35 221q37 203 158 307t276 105q156 0 262 -70t148 -192q117 262 422 262q168 0 282 -115t64 -336l-7 -26q-25 -100 -122 -100h-643l-9 -64q-23 -176 73 -274t250 -98q152 0 290 69q10 8 24 8t24 -11t9 -30
q0 -19 -35 -37q-143 -74 -289 -73q-319 0 -399 256q-54 -124 -158 -190t-233 -66zM621 993q-309 0 -381 -336q-20 -96 -36 -227t39 -216q98 -155 306 -155q297 0 369 334q23 109 34 219q20 178 -84 280t-247 101zM1647 567q41 0 49 37q53 199 -33 294t-253 95
q-167 -1 -263 -105t-131 -321h631z" />
    <glyph glyph-name="Racute" unicode="&#x154;" horiz-adv-x="1374" 
d="M1024 1763q35 0 35 -32q0 -25 -33 -41l-299 -142q-12 -6 -25 -6q-33 0 -32 35q-1 25 24 35l307 145q12 6 23 6zM727 688q213 0 333 96t120 254t-104 235t-275 77h-369l-110 -662h405zM172 -8q-16 0 -28 12q-11 12 -9 31l219 1317q12 76 88 75h371q197 0 321 -99
q124 -100 124 -286t-130 -299q-129 -113 -346 -125l348 -561q8 -14 9 -28q0 -35 -37 -35q-23 0 -39 24l-332 529q-16 27 -33 46t-67 19h-324l-96 -579q-8 -41 -39 -41z" />
    <glyph glyph-name="racute" unicode="&#x155;" horiz-adv-x="739" 
d="M774 1423q35 0 35 -32q0 -25 -33 -41l-299 -142q-12 -6 -24 -6q-33 0 -33 35q-1 25 24 35l308 145q12 6 22 6zM152 -8q-43 0 -37 47l121 727q31 178 112 241q82 62 223 62q89 0 185 -31q33 -8 32 -37q0 -39 -38 -38q-18 0 -28 4q-73 27 -169 27q-97 -1 -159 -53t-85 -191
l-119 -721q-8 -37 -38 -37z" />
    <glyph glyph-name="Rcommaaccent" unicode="&#x156;" horiz-adv-x="1374" 
d="M432 -446q-33 0 -33 30q0 16 19 35q63 68 82 172l20 111q6 37 41 37q15 -1 27 -13t6 -32l-19 -113q-13 -80 -35 -121t-65 -86q-25 -20 -43 -20zM727 688q213 0 333 96t120 254t-104 235t-275 77h-369l-110 -662h405zM172 -8q-16 0 -28 12q-11 12 -9 31l219 1317
q12 76 88 75h371q197 0 321 -99q124 -100 124 -286t-130 -299q-129 -113 -346 -125l348 -561q8 -14 9 -28q0 -35 -37 -35q-23 0 -39 24l-332 529q-16 27 -33 46t-67 19h-324l-96 -579q-8 -41 -39 -41z" />
    <glyph glyph-name="rcommaaccent" unicode="&#x157;" horiz-adv-x="739" 
d="M10 -446q-33 0 -33 30q0 16 19 35q63 68 82 172l20 111q6 37 41 37q15 -1 27 -13t6 -32l-18 -113q-14 -80 -36 -121t-65 -86q-25 -20 -43 -20zM152 -8q-43 0 -37 47l121 727q31 178 112 241q82 62 223 62q89 0 185 -31q33 -8 32 -37q0 -39 -38 -38q-18 0 -28 4
q-73 27 -169 27q-97 -1 -159 -53t-85 -191l-119 -721q-8 -37 -38 -37z" />
    <glyph glyph-name="Rcaron" unicode="&#x158;" horiz-adv-x="1374" 
d="M780 1532q-22 0 -45 20l-145 123q-14 13 -14 29t10 28q12 12 26 11q14 0 29 -12l143 -123l191 127q10 8 24 8q13 0 25 -11q12 -12 12 -28t-22 -33l-180 -119q-32 -20 -54 -20zM727 688q213 0 333 96t120 254t-104 235t-275 77h-369l-110 -662h405zM172 -8q-16 0 -28 12
q-11 12 -9 31l219 1317q12 76 88 75h371q197 0 321 -99q124 -100 124 -286t-130 -299q-129 -113 -346 -125l348 -561q8 -14 9 -28q0 -35 -37 -35q-23 0 -39 24l-332 529q-16 27 -33 46t-67 19h-324l-96 -579q-8 -41 -39 -41z" />
    <glyph glyph-name="rcaron" unicode="&#x159;" horiz-adv-x="739" 
d="M576 1198q-22 0 -46 21l-145 122q-14 13 -14 29t11 28q12 12 26 11q14 0 28 -12l144 -123l190 127q10 8 24 8t26 -11q11 -12 11 -28t-22 -33l-180 -118q-31 -21 -53 -21zM152 -8q-43 0 -37 47l121 727q31 178 112 241q82 62 223 62q89 0 185 -31q33 -8 32 -37
q0 -39 -38 -38q-18 0 -28 4q-73 27 -169 27q-97 -1 -159 -53t-85 -191l-119 -721q-8 -37 -38 -37z" />
    <glyph glyph-name="Sacute" unicode="&#x15a;" horiz-adv-x="1255" 
d="M1024 1763q35 0 35 -32q0 -25 -33 -41l-299 -142q-12 -6 -25 -6q-33 0 -32 35q-1 25 24 35l307 145q12 6 23 6zM1067 379q0 -174 -138 -285t-351 -110q-156 0 -309 56t-216 120q-18 18 -18 34q0 38 35 39q12 0 61 -38q69 -47 189 -91t272 -43q152 0 276 85
q123 85 123 222t-97 202q-97 66 -215 107q-118 42 -159 58t-103 51q-184 104 -184 278q1 175 135 278t334 104q125 0 246 -42t187 -93q23 -17 23 -35q-1 -42 -40 -41q-18 0 -41 16q-171 117 -365 117t-298 -88t-104 -197t56 -163q32 -31 63 -58t96 -50q215 -78 281 -106
q176 -78 228 -180q33 -63 33 -147z" />
    <glyph glyph-name="sacute" unicode="&#x15b;" horiz-adv-x="1015" 
d="M879 1425q35 0 34 -32q0 -25 -32 -41l-299 -142q-12 -6 -25 -6q-33 0 -33 35q0 25 25 35l307 145q12 6 23 6zM829 272q0 -127 -99 -209q-100 -81 -242 -81t-256 52q-170 78 -173 130q1 14 11 25t24 11t45 -22q164 -119 338 -119q121 1 199 59t78 149t-57 131t-131 73
t-109 49q-142 67 -195 129t-53 142q0 131 105 205t228 73q124 0 210 -35q137 -55 139 -104q0 -14 -10 -26q-9 -12 -25 -11q-16 0 -35 14q-131 88 -256 88t-203 -58t-78 -138q0 -81 56 -125t152 -86t126 -56q107 -51 159 -109t52 -151z" />
    <glyph glyph-name="Scedilla" unicode="&#x15e;" horiz-adv-x="1255" 
d="M1174 1276q0 -42 -39 -41q-18 0 -41 16q-170 117 -364 117t-300 -88q-104 -88 -104 -198t56 -162q32 -32 54 -50t77 -43q56 -25 155 -60q100 -37 155 -61q175 -78 228 -180q33 -63 32 -147q0 -174 -138 -285t-351 -110h-16l-56 -107q64 6 108 -32t44 -97q0 -86 -79 -143
t-165 -78q-17 -4 -35 -4q-35 0 -35 31q0 23 35 34q205 59 205 156q0 64 -72 66l-67 -15q-23 1 -30 17t3 38l68 140q-133 14 -256 65t-166 95t-20 72q10 11 24 11q14 -1 70 -43t180 -86t276 -43q152 0 275 85t123 221t-98 203t-216 108t-158 57t-102 51q-186 104 -185 279
q1 174 135 277t335 104q125 0 246 -42t186 -93q23 -17 23 -35z" />
    <glyph glyph-name="scedilla" unicode="&#x15f;" horiz-adv-x="993" 
d="M477 59q121 1 199 59t78 149t-57 131t-131 73t-109 49q-142 67 -195 129t-53 142q0 131 105 205t228 73q124 0 210 -35q137 -55 139 -104q0 -14 -10 -26q-9 -12 -25 -11q-16 0 -35 14q-131 88 -256 88t-203 -58t-78 -138t56 -124q56 -45 152 -87t126 -56
q107 -51 159 -109t52 -151q0 -128 -98 -208t-248 -82l-55 -105q64 6 108 -32t44 -97q0 -86 -79 -143t-165 -78q-17 -4 -35 -4q-35 0 -35 31q0 23 35 34q205 59 205 156q0 33 -22 49t-50 17l-67 -15q-23 1 -30 17t3 38l68 138q-113 14 -230 72t-119 104q1 14 11 25t24 11
t45 -22q164 -119 338 -119z" />
    <glyph glyph-name="Scaron" unicode="&#x160;" horiz-adv-x="1255" 
d="M778 1532q-22 0 -45 20l-145 123q-14 13 -14 29t10 28q12 12 25 11q13 0 30 -12l143 -123l191 127q10 8 24 8q13 0 25 -11q12 -12 12 -28t-22 -33l-181 -119q-31 -20 -53 -20zM1069 379q0 -174 -138 -285t-351 -110q-156 0 -309 56t-216 120q-18 18 -18 34q0 38 35 39
q12 0 61 -38q68 -47 189 -91t273 -43q152 0 275 85t123 222t-97 202q-97 66 -215 107q-118 42 -159 58t-103 51q-186 105 -184 279q1 174 135 277t335 104q125 0 245 -42t187 -93q23 -17 23 -35q-1 -42 -40 -41q-18 0 -41 16q-171 117 -365 117t-298 -88t-104 -197t56 -163
q32 -31 63 -58t96 -50q215 -78 281 -106q176 -78 228 -180q33 -63 33 -147z" />
    <glyph glyph-name="scaron" unicode="&#x161;" horiz-adv-x="1011" 
d="M656 1176q-22 0 -46 20l-145 123q-14 13 -14 29t11 27t25 11t29 -12l143 -123l191 127q10 8 24 8t26 -11t11 -27q0 -16 -22 -33l-180 -119q-31 -20 -53 -20zM829 272q0 -127 -99 -209q-100 -81 -242 -81t-256 52q-170 78 -173 130q1 14 11 25t24 11t45 -22
q164 -119 338 -119q121 1 199 59t78 149t-57 131t-131 73t-109 49q-142 67 -195 129t-53 142q0 131 105 205t228 73q124 0 210 -35q137 -55 139 -104q0 -14 -10 -26q-9 -12 -25 -11q-16 0 -35 14q-131 88 -256 88t-203 -58t-78 -138q0 -81 56 -125t152 -86t126 -56
q107 -51 159 -109t52 -151z" />
    <glyph glyph-name="Tcommaaccent" unicode="&#x162;" horiz-adv-x="1103" 
d="M250 -584q-33 0 -33 31q0 16 19 35q63 68 81 172l21 110q6 37 41 37q15 0 27 -12t6 -33l-19 -112q-14 -80 -36 -121t-64 -86q-27 -21 -43 -21zM137 1350q-41 0 -41 39t41 38h1018q41 0 41 -38q0 -15 -12 -27t-29 -12h-475l-219 -1317q-8 -41 -41 -41q-16 0 -28 11
q-11 11 -9 30l221 1317h-467z" />
    <glyph glyph-name="tcommaaccent" unicode="&#x163;" horiz-adv-x="827" 
d="M274 -446q-33 0 -32 30q0 16 18 35q63 68 82 172l20 111q6 37 41 37q15 -1 27 -13t6 -32l-18 -113q-14 -80 -36 -121t-65 -86q-27 -20 -43 -20zM426 -16q-141 0 -210 82t-40 253l150 902q6 39 41 39q16 0 26 -12t8 -31l-30 -185h334q41 0 40 -39q0 -37 -40 -37h-347
l-106 -634q-43 -260 168 -261q62 1 122 23t69 22t19 -11t11 -25q0 -27 -37 -43q-86 -43 -178 -43z" />
    <glyph glyph-name="Tcaron" unicode="&#x164;" horiz-adv-x="1103" 
d="M676 1532q-22 0 -45 20l-146 123q-14 13 -14 29t11 28q12 12 26 11q14 0 29 -12l143 -123l190 127q10 8 24 8t26 -11q12 -12 12 -28t-23 -33l-180 -119q-31 -20 -53 -20zM137 1350q-41 0 -41 39t41 38h1018q41 0 41 -38q0 -15 -12 -27t-29 -12h-475l-219 -1317
q-8 -41 -41 -41q-16 0 -28 11q-11 11 -9 30l221 1317h-467z" />
    <glyph glyph-name="tcaron" unicode="&#x165;" horiz-adv-x="827" 
d="M555 1114q-33 0 -33 31q0 16 30 48q30 31 42 55t22 77l17 82q6 39 41 39q16 0 26 -13t7 -34l-17 -84q-23 -106 -82 -170q-30 -31 -53 -31zM426 -16q-141 0 -210 82t-40 253l150 902q6 39 41 39q16 0 26 -12t8 -31l-30 -185h334q41 0 40 -39q0 -37 -40 -37h-347l-106 -634
q-43 -260 168 -261q62 1 122 23t69 22t19 -11t11 -25q0 -27 -37 -43q-86 -43 -178 -43z" />
    <glyph glyph-name="Umacron" unicode="&#x16a;" horiz-adv-x="1437" 
d="M709 1583q-39 0 -39 37q0 16 11 26t28 11h348q16 0 26 -11q24 -26 0 -52q-10 -11 -26 -11h-348zM338 1438q43 0 37 -47l-133 -793q-25 -150 8 -262q34 -112 108 -167q144 -108 326 -108t317 120t175 360l141 860q8 37 41 37q43 0 37 -47l-142 -850q-45 -276 -194 -417
q-150 -140 -375 -140t-388 136q-83 68 -121 196t-9 294l133 791q8 37 39 37z" />
    <glyph glyph-name="umacron" unicode="&#x16b;" horiz-adv-x="1175" 
d="M530 1260q-16 0 -27 10t-11 26t11 26t27 11h349q14 0 25 -11q11 -12 11 -26t-11 -25t-25 -11h-349zM289 1055q14 -1 25 -13t10 -30l-93 -559q-35 -209 53 -301t257 -92q168 0 325 108l140 850q8 37 38 37q43 0 37 -47l-141 -858q-2 -27 -37 -52q-163 -116 -365 -116
t-313 120q-110 122 -71 351l94 561q6 41 41 41z" />
    <glyph glyph-name="Uring" unicode="&#x16e;" horiz-adv-x="1437" 
d="M893 1589q51 0 83 37t32 82t-25 73q-25 27 -76 27t-83 -36t-32 -82q0 -45 26 -73q24 -28 75 -28zM894 1532q-75 0 -117 45t-42 113t47 122t123 54t117 -44t41 -111t-47 -123t-122 -56zM338 1438q43 0 37 -47l-133 -793q-25 -150 8 -262q34 -112 108 -167
q144 -108 326 -108t317 120t175 360l141 860q8 37 41 37q43 0 37 -47l-142 -850q-45 -276 -194 -417q-150 -140 -375 -140t-388 136q-83 68 -121 196t-9 294l133 791q8 37 39 37z" />
    <glyph glyph-name="uring" unicode="&#x16f;" horiz-adv-x="1175" 
d="M610 1364q0 -44 25 -72t76 -28t83 36t32 82q-1 101 -101 101q-51 0 -83 -37t-32 -82zM881 1386q0 -66 -47 -124q-47 -56 -122 -56t-117 45t-42 113t47 122t123 54t117 -44t41 -110zM289 1055q14 -1 25 -13t10 -30l-93 -559q-35 -209 53 -301t257 -92q168 0 325 108
l140 850q8 37 38 37q43 0 37 -47l-141 -858q-2 -27 -37 -52q-163 -116 -365 -116t-313 120q-110 122 -71 351l94 561q6 41 41 41z" />
    <glyph glyph-name="Uhungarumlaut" unicode="&#x170;" horiz-adv-x="1437" 
d="M994 1540q-36 0 -38 35q0 20 25 39l209 149q35 31 62 4q12 -9 12 -29t-23 -34l-215 -152q-14 -12 -32 -12zM706 1540q-15 0 -26 10q-10 10 -10 28t24 36l209 149q35 31 62 4q10 -9 10 -29t-23 -34l-215 -152q-16 -12 -31 -12zM338 1438q43 0 37 -47l-133 -793
q-25 -150 8 -262q34 -112 108 -167q144 -108 326 -108t317 120t175 360l141 860q8 37 41 37q43 0 37 -47l-142 -850q-45 -276 -194 -417q-150 -140 -375 -140t-388 136q-83 68 -121 196t-9 294l133 791q8 37 39 37z" />
    <glyph glyph-name="uhungarumlaut" unicode="&#x171;" horiz-adv-x="1175" 
d="M1065 1444q39 0 39 -37q0 -23 -23 -37l-215 -151q-14 -13 -32 -13t-27 10q-10 10 -10 28q0 17 24 36l209 150q16 14 35 14zM510 1244q0 17 25 36l208 150q15 14 33 14t28 -11t12 -30q0 -19 -23 -33l-215 -151q-34 -27 -58 -3q-10 10 -10 28zM289 1055q14 -1 25 -13
t10 -30l-93 -559q-35 -209 53 -301t257 -92q168 0 325 108l140 850q8 37 38 37q43 0 37 -47l-141 -858q-2 -27 -37 -52q-163 -116 -365 -116t-313 120q-110 122 -71 351l94 561q6 41 41 41z" />
    <glyph glyph-name="Uogonek" unicode="&#x172;" horiz-adv-x="1437" 
d="M810 -279q32 -1 32 -37q0 -18 -44 -50t-118 -31q-74 0 -129 45t-55 127q0 123 135 211q-202 13 -348 147q-76 70 -110 194t-7 283l133 791q8 37 39 37q43 0 37 -47l-133 -793q-25 -147 7 -258q33 -111 105 -168q141 -111 326 -111q186 0 321 120t175 360l141 860
q8 37 41 37q43 0 37 -47l-140 -838q-39 -240 -145 -371t-289 -180q-84 -25 -169 -83t-85 -142q0 -53 34 -78t81 -25t81 24t47 23z" />
    <glyph glyph-name="uogonek" unicode="&#x173;" horiz-adv-x="1175" 
d="M856 -260q0 -18 -44 -50t-117 -32t-125 49t-52 130t74 149q-37 -4 -57 -4q-199 0 -310 120t-71 351l94 561q6 41 41 41q14 -1 25 -13t10 -30l-93 -559q-35 -209 53 -301t257 -92q168 0 325 108l140 850q8 37 38 37q43 0 37 -47l-137 -838q-8 -51 -61 -84q-23 -14 -84 -44
t-101 -52t-74 -66q-34 -43 -34 -92t33 -76q33 -26 79 -26t84 30t60 8q10 -9 10 -28z" />
    <glyph glyph-name="Wcircumflex" unicode="&#x174;" horiz-adv-x="1832" 
d="M870 1538q-33 0 -32 33q0 23 22 37l197 123q29 18 51 18t47 -20l133 -125q34 -30 5 -56q-11 -10 -25 -10t-31 12l-131 123l-207 -127q-14 -8 -29 -8zM1876 1440q24 0 34 -12t11 -23q0 -12 -6 -29l-526 -1321q-31 -72 -97 -71q-32 0 -58 20t-30 55l-147 1291q0 6 -6 7
t-11 -5l-581 -1297q-31 -72 -97 -71q-36 0 -62 19t-28 54l-79 1334q-2 18 9 33t31 16q35 0 39 -35l78 -1329q0 -8 8 -16t19 16l581 1282q35 78 97 78q72 0 82 -86l143 -1274q0 -8 7 -12t15 -1q7 4 9 13l532 1333q9 31 33 31z" />
    <glyph glyph-name="wcircumflex" unicode="&#x175;" horiz-adv-x="1640" 
d="M715 1204q-33 0 -33 33q0 23 23 37l196 123q29 18 51 18t47 -20l134 -125q16 -14 16 -30t-11 -26q-12 -10 -26 -10t-31 13l-131 122l-207 -127q-14 -8 -28 -8zM893 981q-12 0 -19 -14l-423 -924q-37 -74 -86 -74q-78 0 -89 88l-122 951q-8 53 36 53q35 0 39 -43l99 -799
q4 -25 9 -75t7 -68q2 -27 23 -27q14 0 22 19l62 147l356 770q35 76 88 76q35 -1 55 -19t27 -69l94 -760q5 -32 16 -141q1 -23 15 -23t26 28t37 82t27 60l375 813q16 29 40 29q25 -1 33 -19t-2 -41l-444 -958q-37 -74 -90 -74q-74 0 -86 88l-111 904q-2 20 -14 20z" />
    <glyph glyph-name="Ycircumflex" unicode="&#x176;" horiz-adv-x="1249" 
d="M547 1538q-33 0 -33 33q0 23 23 37l196 123q27 18 51 18t47 -20l134 -125q16 -14 16 -30t-11 -26q-12 -10 -26 -10t-31 12l-131 123l-207 -127q-14 -8 -28 -8zM113 1401q0 35 39 37q20 0 34 -19l422 -676l654 680q34 34 62 5q11 -11 11 -27t-14 -33l-635 -653
q-45 -47 -53 -90l-98 -592q-8 -41 -39 -41q-18 0 -30 12q-11 12 -7 29l98 592q8 39 -25 92l-411 657q-8 14 -8 27z" />
    <glyph glyph-name="ycircumflex" unicode="&#x177;" horiz-adv-x="1017" 
d="M395 1206q-33 0 -33 33q0 23 23 37l197 123q30 18 52 18t46 -20l133 -125q16 -14 16 -30t-11 -25q-24 -22 -56 2l-131 122l-207 -127q-14 -8 -29 -8zM441 170q7 0 15 11t26 47q19 36 32 57l418 737q16 29 39 29q23 1 31 -19t-1 -39l-546 -962q-174 -313 -365 -410
q-25 -12 -41 -12q-37 0 -39 33q0 23 27 34q190 96 354 392l-262 929q-12 51 41 53q25 0 35 -32l198 -725q19 -79 25 -101t13 -22z" />
    <glyph glyph-name="Ydieresis" unicode="&#x178;" horiz-adv-x="1249" 
d="M815 1517q1 26 19 45t46 19t44 -16t16 -42t-19 -44q-19 -19 -47 -19t-43 16q-16 16 -16 41zM591 1581q58 0 58 -58q0 -26 -19 -44q-19 -19 -45 -19t-42 16q-17 16 -17 41q0 26 18 45t47 19zM113 1401q0 35 39 37q20 0 34 -19l422 -676l654 680q34 34 62 5q11 -11 11 -27
t-14 -33l-635 -653q-45 -47 -53 -90l-98 -592q-8 -41 -39 -41q-18 0 -30 12q-11 12 -7 29l98 592q8 39 -25 92l-411 657q-8 14 -8 27z" />
    <glyph glyph-name="Zacute" unicode="&#x179;" horiz-adv-x="1155" 
d="M991 1763q35 0 35 -32q0 -25 -33 -41l-299 -142q-12 -6 -24 -6q-33 0 -33 35q0 25 25 35l307 145q12 6 22 6zM932 0h-854q-72 0 -72 55q0 29 29 64l1052 1231h-817q-41 0 -41 39t41 38h842q72 0 72 -53q0 -31 -29 -65l-1053 -1231h830q41 0 41 -39t-41 -39z" />
    <glyph glyph-name="zacute" unicode="&#x17a;" horiz-adv-x="999" 
d="M858 1425q35 0 35 -32q0 -25 -33 -41l-299 -142q-12 -6 -24 -6q-33 0 -33 35q-1 25 24 35l308 145q12 6 22 6zM772 74q39 0 39 -37t-39 -37h-643q-74 0 -74 59q0 25 29 58l788 839h-604q-41 0 -41 38t41 38h609q84 0 84 -61q0 -29 -27 -56l-791 -841h629z" />
    <glyph glyph-name="Zdotaccent" unicode="&#x17b;" horiz-adv-x="1155" 
d="M682 1621q0 25 18 45t47 20q28 0 43 -16t15 -43q1 -26 -19 -44t-46 -18t-42 15t-16 41zM932 0h-854q-72 0 -72 55q0 29 29 64l1052 1231h-817q-41 0 -41 39t41 38h842q72 0 72 -53q0 -31 -29 -65l-1053 -1231h830q41 0 41 -39t-41 -39z" />
    <glyph glyph-name="zdotaccent" unicode="&#x17c;" horiz-adv-x="999" 
d="M582 1287q0 25 18 45t46 20t43 -16t15 -43q0 -26 -18 -44q-20 -18 -46 -18t-42 15t-16 41zM772 74q39 0 39 -37t-39 -37h-643q-74 0 -74 59q0 25 29 58l788 839h-604q-41 0 -41 38t41 38h609q84 0 84 -61q0 -29 -27 -56l-791 -841h629z" />
    <glyph glyph-name="Zcaron" unicode="&#x17d;" horiz-adv-x="1155" 
d="M722 1532q-22 0 -46 20l-146 123q-14 13 -14 29t11 28t25 11q14 0 30 -12l143 -123l190 127q11 8 25 8t26 -11q12 -12 11 -28q0 -16 -23 -33l-180 -119q-30 -20 -52 -20zM932 0h-854q-72 0 -72 55q0 29 29 64l1052 1231h-817q-41 0 -41 39t41 38h842q72 0 72 -53
q0 -31 -29 -65l-1053 -1231h830q41 0 41 -39t-41 -39z" />
    <glyph glyph-name="zcaron" unicode="&#x17e;" horiz-adv-x="999" 
d="M636 1200q-22 0 -46 21l-146 122q-14 13 -14 29t11 28t25 11q14 0 30 -12l143 -123l190 127q11 8 25 8t26 -11q12 -12 11 -28q0 -16 -23 -33l-180 -118q-30 -21 -52 -21zM772 74q39 0 39 -37t-39 -37h-643q-74 0 -74 59q0 25 29 58l788 839h-604q-41 0 -41 38t41 38h609
q84 0 84 -61q0 -29 -27 -56l-791 -841h629z" />
    <glyph glyph-name="florin" unicode="&#x192;" horiz-adv-x="1093" 
d="M201 694q-37 0 -37 36t37 36h143l145 467q33 107 114 163t185 56q186 0 297 -111q12 -12 13 -26q0 -37 -35 -37q-18 0 -33 14q-86 82 -233 82q-186 0 -242 -184l-129 -424h365q18 0 29 -10t11 -25q0 -37 -40 -37h-388l-329 -1079q-10 -29 -36 -29t-35 16t-3 40l322 1052
h-121z" />
    <glyph glyph-name="Scommaaccent" unicode="&#x218;" horiz-adv-x="1255" 
d="M406 -446q-33 0 -33 30q0 16 18 35q63 68 82 172l21 111q6 37 41 37q16 -1 27 -13t5 -32l-18 -113q-14 -80 -36 -121t-64 -86q-25 -20 -43 -20zM1069 379q0 -174 -138 -285t-351 -110q-156 0 -309 56t-216 120q-18 18 -18 34q0 38 35 39q12 0 61 -38q68 -47 189 -91
t273 -43q152 0 275 85t123 222t-97 202q-97 66 -215 107q-118 42 -159 58t-103 51q-186 105 -184 279q1 174 135 277t335 104q125 0 245 -42t187 -93q23 -17 23 -35q-1 -42 -40 -41q-18 0 -41 16q-171 117 -365 117t-298 -88t-104 -197t56 -163q32 -31 63 -58t96 -50
q215 -78 281 -106q176 -78 228 -180q33 -63 33 -147z" />
    <glyph glyph-name="scommaaccent" unicode="&#x219;" horiz-adv-x="993" 
d="M328 -446q-33 0 -33 30q0 16 18 35q63 68 82 172l21 111q6 37 41 37q16 -1 27 -13t5 -32l-18 -113q-14 -80 -36 -121t-64 -86q-27 -20 -43 -20zM829 272q0 -127 -99 -209q-100 -81 -242 -81t-256 52q-170 78 -173 130q1 14 11 25t24 11t45 -22q164 -119 338 -119
q121 1 199 59t78 149t-57 131t-131 73t-109 49q-142 67 -195 129t-53 142q0 131 105 205t228 73q124 0 210 -35q137 -55 139 -104q0 -14 -10 -26q-9 -12 -25 -11q-16 0 -35 14q-131 88 -256 88t-203 -58t-78 -138q0 -81 56 -125t152 -86t126 -56q107 -51 159 -109t52 -151z
" />
    <glyph glyph-name="circumflex" unicode="&#x2c6;" 
d="M223 1538q-33 0 -33 33q0 23 23 37l197 123q26 18 50 18t48 -20l133 -125q16 -14 16 -30t-11 -26t-25 -10t-31 12l-131 123l-207 -127q-14 -8 -29 -8z" />
    <glyph glyph-name="caron" unicode="&#x2c7;" 
d="M452 1532q-22 0 -46 20l-146 123q-14 13 -14 29t11 28t25 11q14 0 29 -12l144 -123l190 127q11 8 25 8t25 -11q30 -30 -11 -61l-180 -119q-30 -20 -52 -20z" />
    <glyph glyph-name="breve" unicode="&#x2d8;" 
d="M449 1552q-141 0 -183 138q-6 18 -6 41q0 41 35 41q25 0 33 -41q25 -107 127 -107t143 113q12 35 39 35q35 0 35 -33q0 -16 -18 -59q-18 -44 -73 -86q-54 -42 -132 -42z" />
    <glyph glyph-name="dotaccent" unicode="&#x2d9;" 
d="M456 1686q28 0 43 -16t15 -43q0 -26 -19 -44t-45 -18t-42 15t-16 41q0 25 18 45t46 20z" />
    <glyph glyph-name="ring" unicode="&#x2da;" horiz-adv-x="626" 
d="M465 1589q51 0 83 37t32 82t-25 73q-25 27 -76 27t-83 -36t-32 -82q0 -45 26 -73q24 -28 75 -28zM466 1532q-75 0 -117 45t-42 113t47 122t123 54t117 -44t41 -111t-47 -123t-122 -56z" />
    <glyph glyph-name="ogonek" unicode="&#x2db;" 
d="M322 -221q0 -103 108 -103q49 0 88 30t61 8q9 -10 9 -28t-44 -50t-118 -31q-74 0 -125 45t-51 127q0 184 274 291q16 6 25 6q37 0 37 -33q0 -23 -37 -39q-227 -94 -227 -223z" />
    <glyph glyph-name="tilde" unicode="&#x2dc;" 
d="M548 1542q-52 0 -119 38t-93 38t-60 -26q-33 -26 -49 -25q-37 0 -37 37q0 16 19 34q106 99 246 18q65 -38 93 -38t62 26t50 26t28 -12q12 -11 12 -30t-24 -35q-76 -51 -128 -51z" />
    <glyph glyph-name="hungarumlaut" unicode="&#x2dd;" 
d="M468 1540q-38 0 -38 35q0 20 25 39l209 149q34 30 62 4q12 -9 12 -29t-23 -34l-215 -152q-14 -12 -32 -12zM180 1540q-16 0 -26 10q-30 30 14 64l209 149q34 30 60 4q11 -9 11 -29t-22 -34l-215 -152q-15 -12 -31 -12z" />
    <glyph glyph-name="Wgrave" unicode="&#x1e80;" horiz-adv-x="1832" 
d="M1116 1542q-12 0 -26 8l-250 140q-23 10 -23 34q0 35 37 35q14 0 31 -8l250 -141q23 -12 22 -33q0 -35 -41 -35zM1876 1440q24 0 34 -12t11 -23q0 -12 -6 -29l-526 -1321q-31 -72 -97 -71q-32 0 -58 20t-30 55l-147 1291q0 6 -6 7t-11 -5l-581 -1297q-31 -72 -97 -71
q-36 0 -62 19t-28 54l-79 1334q-2 18 9 33t31 16q35 0 39 -35l78 -1329q0 -8 8 -16t19 16l581 1282q35 78 97 78q72 0 82 -86l143 -1274q0 -8 7 -12t15 -1q7 4 9 13l532 1333q9 31 33 31z" />
    <glyph glyph-name="wgrave" unicode="&#x1e81;" horiz-adv-x="1640" 
d="M975 1202q-12 0 -27 8l-250 140q-23 10 -22 34q0 35 37 35q14 0 30 -8l250 -141q23 -12 23 -33q0 -35 -41 -35zM893 981q-12 0 -19 -14l-423 -924q-37 -74 -86 -74q-78 0 -89 88l-122 951q-8 53 36 53q35 0 39 -43l99 -799q4 -25 9 -75t7 -68q2 -27 23 -27q14 0 22 19
l62 147l356 770q35 76 88 76q35 -1 55 -19t27 -69l94 -760q5 -32 16 -141q1 -23 15 -23t26 28t37 82t27 60l375 813q16 29 40 29q25 -1 33 -19t-2 -41l-444 -958q-37 -74 -90 -74q-74 0 -86 88l-111 904q-2 20 -14 20z" />
    <glyph glyph-name="Wacute" unicode="&#x1e82;" horiz-adv-x="1832" 
d="M1339 1763q35 0 35 -32q0 -25 -33 -41l-299 -142q-12 -6 -24 -6q-33 0 -33 35q0 25 25 35l307 145q12 6 22 6zM1876 1440q24 0 34 -12t11 -23q0 -12 -6 -29l-526 -1321q-31 -72 -97 -71q-32 0 -58 20t-30 55l-147 1291q0 6 -6 7t-11 -5l-581 -1297q-31 -72 -97 -71
q-36 0 -62 19t-28 54l-79 1334q-2 18 9 33t31 16q35 0 39 -35l78 -1329q0 -8 8 -16t19 16l581 1282q35 78 97 78q72 0 82 -86l143 -1274q0 -8 7 -12t15 -1q7 4 9 13l532 1333q9 31 33 31z" />
    <glyph glyph-name="wacute" unicode="&#x1e83;" horiz-adv-x="1640" 
d="M1161 1423q35 0 35 -32q0 -25 -33 -41l-299 -142q-12 -6 -24 -6q-33 0 -33 35q-1 25 24 35l308 145q12 6 22 6zM893 981q-12 0 -19 -14l-423 -924q-37 -74 -86 -74q-78 0 -89 88l-122 951q-8 53 36 53q35 0 39 -43l99 -799q4 -25 9 -75t7 -68q2 -27 23 -27q14 0 22 19
l62 147l356 770q35 76 88 76q35 -1 55 -19t27 -69l94 -760q5 -32 16 -141q1 -23 15 -23t26 28t37 82t27 60l375 813q16 29 40 29q25 -1 33 -19t-2 -41l-444 -958q-37 -74 -90 -74q-74 0 -86 88l-111 904q-2 20 -14 20z" />
    <glyph glyph-name="Wdieresis" unicode="&#x1e84;" horiz-adv-x="1832" 
d="M1186 1621q0 25 18 45t46 20t44 -16t16 -43q0 -26 -18 -44q-20 -18 -47 -18t-43 15t-16 41zM897 1621q1 25 19 45t46 20t43 -16t15 -43q0 -26 -20 -44t-45 -18q-26 0 -42 15t-16 41zM1876 1440q24 0 34 -12t11 -23q0 -12 -6 -29l-526 -1321q-31 -72 -97 -71q-32 0 -58 20
t-30 55l-147 1291q0 6 -6 7t-11 -5l-581 -1297q-31 -72 -97 -71q-36 0 -62 19t-28 54l-79 1334q-2 18 9 33t31 16q35 0 39 -35l78 -1329q0 -8 8 -16t19 16l581 1282q35 78 97 78q72 0 82 -86l143 -1274q0 -8 7 -12t15 -1q7 4 9 13l532 1333q9 31 33 31z" />
    <glyph glyph-name="wdieresis" unicode="&#x1e85;" horiz-adv-x="1640" 
d="M1028 1289q0 25 18 45t47 20q28 0 44 -16t16 -43q0 -26 -19 -44q-18 -18 -46 -18t-44 15t-16 41zM804 1354q28 0 43 -16t15 -43q0 -26 -19 -44t-45 -18t-42 15t-16 41q0 25 18 45t46 20zM893 981q-12 0 -19 -14l-423 -924q-37 -74 -86 -74q-78 0 -89 88l-122 951
q-8 53 36 53q35 0 39 -43l99 -799q4 -25 9 -75t7 -68q2 -27 23 -27q14 0 22 19l62 147l356 770q35 76 88 76q35 -1 55 -19t27 -69l94 -760q5 -32 16 -141q1 -23 15 -23t26 28t37 82t27 60l375 813q16 29 40 29q25 -1 33 -19t-2 -41l-444 -958q-37 -74 -90 -74q-74 0 -86 88
l-111 904q-2 20 -14 20z" />
    <glyph glyph-name="Ygrave" unicode="&#x1ef2;" horiz-adv-x="1249" 
d="M799 1542q-12 0 -27 8l-250 140q-23 10 -22 34q0 35 37 35q14 0 30 -8l250 -141q23 -12 23 -33q0 -35 -41 -35zM113 1401q0 35 39 37q20 0 34 -19l422 -676l654 680q34 34 62 5q11 -11 11 -27t-14 -33l-635 -653q-45 -47 -53 -90l-98 -592q-8 -41 -39 -41q-18 0 -30 12
q-11 12 -7 29l98 592q8 39 -25 92l-411 657q-8 14 -8 27z" />
    <glyph glyph-name="ygrave" unicode="&#x1ef3;" horiz-adv-x="1017" 
d="M672 1204q-12 0 -27 8l-250 140q-23 12 -22 34q0 35 37 35q14 0 30 -8l250 -141q23 -10 23 -33q0 -35 -41 -35zM441 170q7 0 15 11t26 47q19 36 32 57l418 737q16 29 39 29q23 1 31 -19t-1 -39l-546 -962q-174 -313 -365 -410q-25 -12 -41 -12q-37 0 -39 33q0 23 27 34
q190 96 354 392l-262 929q-12 51 41 53q25 0 35 -32l198 -725q19 -79 25 -101t13 -22z" />
    <glyph glyph-name="endash" unicode="&#x2013;" horiz-adv-x="1204" 
d="M141 547q-41 0 -41 38t41 38h922q41 0 41 -38t-41 -38h-922z" />
    <glyph glyph-name="emdash" unicode="&#x2014;" horiz-adv-x="1949" 
d="M141 547q-41 0 -41 38t41 38h1667q41 0 41 -38t-41 -38h-1667z" />
    <glyph glyph-name="quoteleft" unicode="&#x2018;" horiz-adv-x="382" 
d="M233 1042q-16 0 -26 14t-6 34l20 112q14 80 36 121q21 41 53 73t52 34q33 0 33 -31q0 -16 -18 -35q-63 -68 -82 -172l-21 -111q-6 -39 -41 -39z" />
    <glyph glyph-name="quoteright" unicode="&#x2019;" horiz-adv-x="370" 
d="M207 1042q-33 0 -33 33q0 16 19 35q63 68 81 172l21 111q6 37 41 37q16 0 26 -12t7 -34l-21 -112q-14 -80 -36 -121t-54 -75t-51 -34z" />
    <glyph glyph-name="quotesinglbase" unicode="&#x201a;" horiz-adv-x="364" 
d="M94 -193q-33 0 -33 33q0 16 19 35q63 68 82 172l20 111q6 37 41 37q17 -1 27 -13t6 -32l-20 -113q-14 -80 -36 -121t-55 -75t-51 -34z" />
    <glyph glyph-name="quotedblleft" unicode="&#x201c;" horiz-adv-x="604" 
d="M233 1042q-16 0 -26 14t-6 34l20 112q14 80 36 121q21 41 53 73t52 34q33 0 33 -31q0 -16 -18 -35q-63 -68 -82 -172l-21 -111q-6 -39 -41 -39zM453 1042q-17 0 -27 14t-6 34l20 112q14 80 36 121t54 73t52 34q33 0 32 -31q0 -16 -18 -35q-63 -68 -82 -172l-20 -111
q-6 -39 -41 -39z" />
    <glyph glyph-name="quotedblright" unicode="&#x201d;" horiz-adv-x="593" 
d="M207 1042q-33 0 -33 33q0 16 19 35q63 68 81 172l21 111q6 37 41 37q16 0 26 -12t7 -34l-21 -112q-14 -80 -36 -121t-54 -75t-51 -34zM428 1042q-33 0 -33 33q0 16 19 35q63 68 82 172l20 111q6 37 41 37q17 0 27 -12t6 -34l-21 -112q-13 -80 -35 -121t-55 -75t-51 -34z
" />
    <glyph glyph-name="quotedblbase" unicode="&#x201e;" horiz-adv-x="565" 
d="M123 -193q-33 0 -33 33q0 16 19 35q63 68 81 172l21 111q6 37 41 37q16 -1 26 -13t7 -32l-21 -113q-14 -80 -36 -121t-54 -75t-51 -34zM344 -195q-33 0 -33 33q0 16 19 35q63 68 82 172l20 111q6 37 41 37q17 -1 27 -13t6 -33l-21 -112q-13 -80 -35 -121t-55 -75t-51 -34
z" />
    <glyph glyph-name="dagger" unicode="&#x2020;" horiz-adv-x="843" 
d="M102 889q-37 0 -36 35q0 41 43 41h337l74 446q6 41 45 41t33 -43l-74 -444h330q37 0 37 -35q0 -41 -45 -41h-336l-191 -1141q-6 -35 -38 -35q-17 1 -29 13t-8 34l188 1129h-330z" />
    <glyph glyph-name="daggerdbl" unicode="&#x2021;" horiz-adv-x="843" 
d="M102 889q-37 0 -36 35q0 41 43 41h337l74 446q6 41 45 41t33 -43l-74 -444h330q37 0 37 -35q0 -41 -45 -41h-336l-102 -613h331q37 0 37 -34q0 -41 -43 -41h-338l-76 -453q-6 -35 -38 -35q-17 1 -29 13t-8 34l73 441h-329q-37 0 -37 35q0 41 43 40h336l102 613h-330z" />
    <glyph glyph-name="bullet" unicode="&#x2022;" horiz-adv-x="966" 
d="M225 717q0 106 76 182t182 76q107 0 183 -76t76 -182t-76 -182t-182 -76t-183 76q-76 76 -76 182z" />
    <glyph glyph-name="ellipsis" unicode="&#x2026;" horiz-adv-x="1241" 
d="M166 -23q-16 1 -28 13t-9 33l35 210q6 39 41 39q16 0 26 -11t9 -30l-35 -215q-6 -39 -39 -39zM582 -23q-16 1 -28 13t-9 33l35 210q6 39 41 39q16 0 26 -11t8 -30l-34 -215q-6 -39 -39 -39zM993 -23q-16 1 -27 13t-10 33l35 210q6 39 41 39q16 0 26 -11t9 -30l-35 -215
q-6 -39 -39 -39z" />
    <glyph glyph-name="perthousand" unicode="&#x2030;" horiz-adv-x="2015" 
d="M1546 59q88 -1 157 59t89 154q12 53 18 107q10 94 -44 153q-54 60 -142 60t-157 -60t-85 -134q-16 -76 -22 -126q-10 -94 44 -154t142 -59zM1543 -8q-119 0 -195 82t-60 205q6 45 17 102q27 131 112 205q86 74 208 74t198 -82q76 -80 61 -197q-25 -227 -136 -319
q-85 -70 -205 -70zM880 59q90 -1 158 59t88 154q12 53 19 107q10 94 -44 153q-53 60 -143 60t-158 -60t-85 -134q-16 -76 -23 -126q-10 -94 44 -154t144 -59zM876 -8q-120 0 -195 82t-58 205q6 45 16 102q27 131 113 205t208 74t196 -82q74 -80 61 -197q-25 -227 -137 -319
q-84 -70 -204 -70zM392 852q89 0 158 59t89 154q12 53 18 106q10 93 -44 153t-143 60t-158 -59t-89 -154q-12 -57 -18 -106q-10 -93 44 -153t143 -60zM388 784q-120 0 -194 82t-59 205q6 45 17 103q26 130 112 204t208 74t197 -81q97 -105 42 -308q-33 -139 -118 -209
t-205 -70zM160 193q-33 0 -33 32q0 18 16 33l1020 983q14 14 31 14q37 0 37 -30q0 -16 -17 -31l-1024 -987q-14 -14 -30 -14z" />
    <glyph glyph-name="guilsinglleft" unicode="&#x2039;" horiz-adv-x="688" 
d="M92 701q0 54 72 110l303 236q16 12 31 12q33 0 32 -33q0 -18 -20 -37l-295 -231q-43 -33 -43 -58t23 -49l217 -231q10 -10 10 -24t-10 -26q-25 -28 -56 3l-223 233q-41 41 -41 95z" />
    <glyph glyph-name="guilsinglright" unicode="&#x203a;" horiz-adv-x="688" 
d="M592 716q0 -54 -72 -110l-303 -235q-16 -12 -31 -13q-33 0 -32 33q0 18 20 37l297 231q43 33 43 58t-22 49l-220 231q-10 11 -10 25t10 26t26 11q16 0 30 -15l223 -233q41 -41 41 -95z" />
    <glyph glyph-name="fraction" unicode="&#x2044;" horiz-adv-x="579" 
d="M-128 -66q-16 0 -28 10t-12 21q0 12 8 29l832 1481q16 25 39 24q33 0 32 -33q0 -14 -10 -30l-829 -1477q-15 -25 -32 -25z" />
    <glyph glyph-name="Euro" unicode="&#x20ac;" horiz-adv-x="1296" 
d="M913 1450q115 0 221 -41t171 -119q10 -14 10 -26t-11 -24q-12 -12 -28 -11q-16 0 -37 16q-125 127 -336 127t-348 -135t-182 -377h463q37 0 36 -35q0 -41 -49 -41h-465l-22 -133h465q37 0 37 -35q0 -41 -50 -41h-466q-31 -237 68 -375q100 -138 306 -138t363 128
q38 31 61 6q10 -12 10 -26t-12 -27q-186 -157 -412 -157t-362 146q-135 146 -98 443h-125q-37 0 -37 33q0 16 13 30t36 13h125l23 133h-125q-37 0 -37 33q0 15 13 29t36 14h125q49 274 212 432t408 158z" />
    <glyph glyph-name="trademark" unicode="&#x2122;" horiz-adv-x="997" 
d="M506 950q-16 0 -24 10t-3 25l121 401q14 53 64 54q49 0 53 -54l28 -370q1 -8 7 -8t8 6l143 377q18 49 64 49q53 0 53 -54l-8 -407q0 -29 -28 -29t-28 29l13 397q0 8 -5 8t-8 -6l-147 -372q-20 -51 -61 -52q-23 0 -38 16t-18 42l-28 364q0 8 -6 8t-9 -8l-117 -403
q-10 -23 -26 -23zM246 948q-12 0 -21 8q-8 8 -6 21l68 403h-137q-25 0 -25 25q0 31 29 31h325q27 0 27 -25q0 -12 -9 -21t-22 -10h-133l-68 -403q-3 -29 -28 -29z" />
    <glyph glyph-name="minus" unicode="&#x2212;" horiz-adv-x="1286" 
d="M1118 680h-952q-43 0 -43 38t43 38h952q45 0 45 -39q0 -16 -13 -27q-14 -10 -32 -10z" />
    <glyph glyph-name="lessequal" unicode="&#x2264;" horiz-adv-x="1286" 
d="M997 -18h-710q-43 0 -43 36q0 41 43 41h710q45 0 45 -41q0 -16 -14 -26t-31 -10zM244 650q0 50 57 85l682 416q33 18 51 -12q18 -37 -12 -56l-674 -401q-29 -18 -29 -30t29 -31l674 -404q30 -18 12 -52t-51 -13l-682 413q-57 35 -57 85z" />
    <glyph glyph-name="greaterequal" unicode="&#x2265;" horiz-adv-x="1286" 
d="M1001 -18h-710q-18 0 -32 10q-13 10 -13 26q0 41 45 41h710q43 0 43 -41q0 -36 -43 -36zM969 651q0 12 -29 31l-674 401q-31 18 -12 56q18 31 51 12l682 -416q57 -35 57 -85t-57 -85l-682 -413q-33 -20 -51 14t12 51l674 404q29 18 29 30z" />
    <glyph glyph-name="fl" unicode="&#xfb02;" horiz-adv-x="1236" 
d="M1137 1444q43 0 37 -47l-228 -1368q-8 -37 -39 -37q-43 0 -37 47l228 1368q8 37 39 37zM655 1454q82 0 154 -27q33 -12 33 -36q0 -13 -12 -25t-23 -12q-13 0 -61 12t-101 12q-113 0 -172 -61t-78 -180l-16 -105h321q41 0 41 -39q0 -16 -12 -27t-29 -12h-333l-154 -925
q-8 -37 -41 -37q-43 0 -37 47l154 915h-90q-41 0 -41 39t41 39h102l18 113q25 147 109 228t227 81z" />
    <glyph glyph-name="Imacron" horiz-adv-x="542" 
d="M268 1583q-37 0 -39 37q-1 16 11 26t28 11h348q14 0 26 -11q12 -12 11 -26q0 -14 -11 -26t-26 -11h-348zM168 -8q-43 0 -37 47l227 1362q8 37 39 37q43 0 37 -47l-227 -1362q-8 -37 -39 -37z" />
    <glyph glyph-name="ampersand.alt" horiz-adv-x="1347" 
d="M1020 1096q0 118 -85 188t-243 70t-268 -87t-109 -237q0 -180 195 -297q262 42 384 128q50 36 88 97t38 138zM508 -16q-211 0 -334 95t-123 247q-1 152 99 247q100 94 272 138q-184 117 -184 321q0 178 131 289t320 111t299 -90t110 -258t-140 -266t-372 -144
q-256 -47 -353 -123q-41 -33 -73 -87t-31 -124q0 -137 108 -208t261 -71q203 0 345 118t173 296q10 61 30 79t68 19h184q41 0 41 -34q0 -41 -43 -41h-198q-41 -250 -210 -382t-380 -132z" />
    <glyph glyph-name="Q.alt" horiz-adv-x="1396" 
d="M780 1368q-217 0 -355 -137t-183 -354q-31 -154 -47 -306q-23 -227 98 -357t293 -151l49 289q6 39 39 39q16 1 26 -13t7 -34l-48 -283q197 2 331 121q134 120 180 308t63 392q18 204 -109 346q-127 140 -344 140zM561 -336q-16 0 -26 12t-9 33l47 279q-205 26 -345 182
t-109 418q18 152 41 278q49 264 211 422q161 158 415 158t402 -169t120 -399q-26 -230 -53 -358q-53 -256 -214 -394t-396 -142l-47 -283q-6 -37 -37 -37z" />
    <glyph glyph-name="r.alt" horiz-adv-x="708" 
d="M143 2q-16 0 -26 12t-8 29l143 866q6 39 43 66q127 94 293 94q100 0 160 -18q31 -10 30 -37q0 -39 -39 -39q-6 0 -54 9t-89 9q-157 0 -266 -88l-146 -862q-8 -41 -41 -41z" />
    <glyph glyph-name="zero.onum" horiz-adv-x="1247" 
d="M655 997q-338 0 -430 -360q-16 -61 -26 -170q-19 -201 95 -313t284 -111q170 0 284 87t156 267q14 59 26 164q25 199 -89 317t-300 119zM672 1073q198 0 332 -133t118 -360q-6 -86 -30 -201q-44 -195 -176 -303t-334 -109q-202 0 -341 134q-180 175 -87 556
q49 211 185 313q135 102 333 103z" />
    <glyph glyph-name="one.onum" horiz-adv-x="833" 
d="M410 -8q-16 0 -27 11q-10 11 -8 30l157 944l-366 -162q-20 -10 -40 -3t-20 31t29 38l387 178q33 14 47 14q55 0 45 -63l-161 -977q-6 -41 -43 -41z" />
    <glyph glyph-name="two.onum" horiz-adv-x="1161" 
d="M922 78q18 0 29 -11t10 -30q-6 -37 -52 -37h-782q-55 0 -55 51q0 162 98 255q82 80 248 136q79 27 159 52q80 24 154 50t119 62q100 82 99 175t-82 155t-216 61q-211 0 -377 -166q-23 -23 -41 -22q-35 0 -34 35q0 18 18 37q180 193 442 192q161 0 263 -81t102 -222
t-134 -224q-112 -68 -333 -135t-309 -133t-96 -200h770z" />
    <glyph glyph-name="three.onum" horiz-adv-x="1107" 
d="M428 424q-57 0 -57 46q0 22 24 42l457 438l-2 6h-655q-15 0 -27 10t-12 27q0 39 45 39h686q76 0 76 -51q0 -31 -39 -68l-437 -413q183 10 311 -94t128 -279q0 -242 -224 -379t-651 -137q-57 0 -57 37q0 45 45 45l98 -2q430 8 616 196q97 99 97 231t-91 220t-247 88z" />
    <glyph glyph-name="four.onum" horiz-adv-x="1304" 
d="M860 78l144 874l-854 -874h710zM135 0q-71 0 -73 61q0 29 28 62l854 876q49 53 83 53t48 -20t10 -51l-149 -903h182q37 0 37 -39q0 -15 -13 -27t-34 -12h-184l-58 -350q-8 -41 -39 -41q-18 0 -29 12t-7 29l55 350h-711z" />
    <glyph glyph-name="five.onum" horiz-adv-x="1200" 
d="M963 162q0 128 -84 210q-84 81 -243 81t-343 -117q-31 -20 -61 -3t-21 58l94 570q12 72 84 71h655q39 0 39 -35q0 -41 -47 -41h-655l-88 -536q68 47 163 78t179 30q187 0 295 -99t108 -241t-62 -244q-62 -104 -158 -166q-265 -171 -732 -171q-43 0 -43 37q0 43 51 45
l58 -2q249 0 507 97q133 50 219 150q85 100 85 228z" />
    <glyph glyph-name="six.onum" horiz-adv-x="1343" 
d="M205 530q1 -238 107 -354t286 -115q180 0 300 126t120 290q0 334 -371 334q-205 0 -430 -117q-12 -96 -12 -164zM1118 1356l-205 12q-268 0 -445 -148t-237 -440q217 106 420 106t323 -98q120 -100 120 -282q0 -222 -134 -372t-355 -150q-220 0 -349 132t-129 419
t118 514q62 119 151 207q88 88 224 140t294 52t198 -11t41 -40q0 -17 -12 -29q-11 -12 -23 -12z" />
    <glyph glyph-name="seven.onum" horiz-adv-x="993" 
d="M130 -393q-28 0 -37 18t1 41q106 272 261 509t569 781h-785q-37 0 -37 38t43 38h820q63 0 63 -47q0 -27 -27 -59q-276 -362 -396 -526q-314 -431 -433 -754q-14 -39 -42 -39z" />
    <glyph glyph-name="eight.onum" horiz-adv-x="1370" 
d="M1139 433q-1 -217 -141 -333t-370 -116t-365 98q-134 98 -134 265t91 281t249 142q-94 37 -148 113t-55 168q0 193 138 295t350 102t332 -99q118 -99 118 -233t-76 -234q-76 -99 -225 -139q236 -94 236 -310zM211 356q-1 -150 117 -222t298 -73q180 0 306 87
q127 87 127 266q0 143 -108 221t-299 78t-316 -84t-125 -273zM344 1051q0 -117 104 -190t286 -73t287 90t105 214q0 126 -96 202t-268 76t-295 -80t-123 -239z" />
    <glyph glyph-name="nine.onum" horiz-adv-x="1327" 
d="M1065 596q0 201 -101 303q-100 102 -280 102q-180 1 -303 -121t-123 -294t96 -262t284 -90t404 114q23 117 23 248zM643 158q-207 0 -336 104t-129 314t141 356q141 147 357 147t343 -122q126 -122 126 -347q0 -494 -253 -746t-734 -251q-41 0 -41 39t49 39
q336 -6 562 140t298 431q-176 -104 -383 -104z" />
    <glyph glyph-name="sterling.alt" horiz-adv-x="1167" 
d="M121 78h776q41 0 41 -37q0 -17 -12 -29t-33 -12h-787q-70 0 -87 47t22 105q115 172 246 475h-144q-39 0 -39 35q0 41 41 40h174l32 80q17 46 39 106l34 93q98 267 215 369t295 102q90 0 180 -47q23 -14 23 -35q0 -39 -37 -39q-12 0 -25 6q-70 37 -155 37q-140 0 -236 -89
t-182 -318q-36 -97 -101 -265h396q45 0 45 -38t-45 -37h-426q-123 -303 -256 -502q-14 -23 -15 -33q0 -14 21 -14z" />
    <glyph glyph-name="commaaccent" 
d="M231 -446q-33 0 -32 30q0 16 18 35q63 68 82 172l20 111q6 37 41 37q16 -1 28 -13t5 -32l-18 -113q-14 -80 -36 -121t-65 -86q-27 -20 -43 -20z" />
    <glyph glyph-name="caronSlovak" 
d="M250 1114q-33 0 -33 31q0 16 30 48q30 31 42 55t22 77l17 82q6 39 41 39q16 0 26 -13t6 -34l-16 -84q-23 -106 -82 -170q-30 -31 -53 -31z" />
    <glyph glyph-name="g.alt" horiz-adv-x="1177" 
d="M569 416q143 0 242 88q98 88 98 217t-78 201t-219 72t-242 -88q-102 -87 -102 -217q0 -129 79 -201t222 -72zM494 -383q-168 0 -286 62t-179 163q-16 29 -17 49q0 37 35 37q27 0 43 -32q109 -201 399 -201q143 0 240 64q96 65 96 169q0 166 -241 166h-193q-100 0 -152 41
q-53 41 -53 109t50 109q50 42 120 44q-168 88 -168 287q0 166 124 276t306 109q98 0 187 -37h303q43 0 43 -37q0 -14 -12 -26t-35 -13h-203q88 -92 88 -238t-116 -260q-116 -112 -298 -112h-104q-205 0 -205 -100q0 -74 125 -74h201q156 0 234 -64t79 -178q0 -145 -122 -229
t-289 -84z" />
    <glyph glyph-name="gbreve.alt" horiz-adv-x="1177" 
d="M678 1200q-141 0 -182 137q-6 18 -7 41q0 41 35 41q25 0 33 -41q25 -106 127 -106t143 112q12 35 39 35q35 0 35 -33q-1 -16 -19 -58t-72 -86q-54 -42 -132 -42zM569 416q143 0 242 88q98 88 98 217t-78 201t-219 72t-242 -88q-102 -87 -102 -217q0 -129 79 -201t222 -72
zM494 -383q-168 0 -286 62t-179 163q-16 29 -17 49q0 37 35 37q27 0 43 -32q109 -201 399 -201q143 0 240 64q96 65 96 169q0 166 -241 166h-193q-100 0 -152 41q-53 41 -53 109t50 109q50 42 120 44q-168 88 -168 287q0 166 124 276t306 109q98 0 187 -37h303q43 0 43 -37
q0 -14 -12 -26t-35 -13h-203q88 -92 88 -238t-116 -260q-116 -112 -298 -112h-104q-205 0 -205 -100q0 -74 125 -74h201q156 0 234 -64t79 -178q0 -145 -122 -229t-289 -84z" />
    <glyph glyph-name="gdotaccent.alt" horiz-adv-x="1177" 
d="M641 1291q1 25 19 45t46 20t43 -16t15 -43q0 -26 -20 -44t-45 -18q-26 0 -42 15t-16 41zM569 416q143 0 242 88q98 88 98 217t-78 201t-219 72t-242 -88q-102 -87 -102 -217q0 -129 79 -201t222 -72zM494 -383q-168 0 -286 62t-179 163q-16 29 -17 49q0 37 35 37
q27 0 43 -32q109 -201 399 -201q143 0 240 64q96 65 96 169q0 166 -241 166h-193q-100 0 -152 41q-53 41 -53 109t50 109q50 42 120 44q-168 88 -168 287q0 166 124 276t306 109q98 0 187 -37h303q43 0 43 -37q0 -14 -12 -26t-35 -13h-203q88 -92 88 -238t-116 -260
q-116 -112 -298 -112h-104q-205 0 -205 -100q0 -74 125 -74h201q156 0 234 -64t79 -178q0 -145 -122 -229t-289 -84z" />
    <glyph glyph-name="gcommaaccent.alt" horiz-adv-x="1177" 
d="M633 1133q-33 0 -33 30q0 16 18 35q63 68 82 172l21 111q6 37 41 37q16 0 28 -12t5 -33l-19 -113q-14 -80 -36 -121t-64 -86q-25 -20 -43 -20zM569 416q143 0 242 88q98 88 98 217t-78 201t-219 72t-242 -88q-102 -87 -102 -217q0 -129 79 -201t222 -72zM494 -383
q-168 0 -286 62t-179 163q-16 29 -17 49q0 37 35 37q27 0 43 -32q109 -201 399 -201q143 0 240 64q96 65 96 169q0 166 -241 166h-193q-100 0 -152 41q-53 41 -53 109t50 109q50 42 120 44q-168 88 -168 287q0 166 124 276t306 109q98 0 187 -37h303q43 0 43 -37
q0 -14 -12 -26t-35 -13h-203q88 -92 88 -238t-116 -260q-116 -112 -298 -112h-104q-205 0 -205 -100q0 -74 125 -74h201q156 0 234 -64t79 -178q0 -145 -122 -229t-289 -84z" />
    <glyph glyph-name="racute.alt" horiz-adv-x="708" 
d="M774 1425q35 0 35 -32q0 -25 -33 -41l-299 -142q-12 -6 -24 -6q-33 0 -33 35q-1 25 24 35l308 145q12 6 22 6zM143 2q-16 0 -26 12t-8 29l143 866q6 39 43 66q127 94 293 94q100 0 160 -18q31 -10 30 -37q0 -39 -39 -39q-6 0 -54 9t-89 9q-157 0 -266 -88l-146 -862
q-8 -41 -41 -41z" />
    <glyph glyph-name="rcaron.alt" horiz-adv-x="708" 
d="M546 1202q-22 0 -46 21l-146 123q-14 12 -14 28t11 28t25 11q14 0 30 -12l143 -123l190 127q11 8 25 8t26 -11q12 -12 11 -28q0 -16 -23 -33l-180 -118q-30 -21 -52 -21zM143 2q-16 0 -26 12t-8 29l143 866q6 39 43 66q127 94 293 94q100 0 160 -18q31 -10 30 -37
q0 -39 -39 -39q-6 0 -54 9t-89 9q-157 0 -266 -88l-146 -862q-8 -41 -41 -41z" />
    <glyph glyph-name="rcommaaccent.alt" horiz-adv-x="708" 
d="M0 -446q-33 0 -33 30q0 16 19 35q63 68 82 172l20 111q6 37 41 37q15 -1 27 -13t6 -32l-19 -113q-13 -80 -35 -121t-65 -86q-25 -20 -43 -20zM143 2q-16 0 -26 12t-8 29l143 866q6 39 43 66q127 94 293 94q100 0 160 -18q31 -10 30 -37q0 -39 -39 -39q-6 0 -54 9t-89 9
q-157 0 -266 -88l-146 -862q-8 -41 -41 -41z" />
    </font>
</defs>
</svg>
