<?xml version="1.0" standalone="no"?>
<!DOCTYPE svg PUBLIC "-//W3C//DTD SVG 1.1//EN" "http://www.w3.org/Graphics/SVG/1.1/DTD/svg11.dtd" >
<svg xmlns="http://www.w3.org/2000/svg">
<metadata>
Created by FontPrep 20130207 at Tue Nov  4 15:29:36 2014
 By Mauricio Duran
Copyright (c) 2010 by Miles Newlyn. All rights reserved.
</metadata>
<defs>
<font id="ebb9aa10d434df5eb99c8521f15355d0" horiz-adv-x='1024' >
  <font-face 
    font-family="Rubrik-BoldItalic"
    font-weight="700"
    font-style="italic"
    font-stretch="normal"
    units-per-em="2048"
    panose-1="2 0 5 3 0 0 0 2 0 4"
    ascent="1536"
    descent="-512"
    x-height="1098"
    cap-height="1456"
    bbox="-256 -588 2529 2022"
    underline-thickness="143"
    underline-position="-62"
    unicode-range="U+0020-FB02"
  />
<missing-glyph horiz-adv-x="616" 
 />
    <glyph glyph-name="fi" unicode="fi" horiz-adv-x="1527" 
d="M1099 -8q-73 0 -119 58t-30 147l127 766q29 157 177 157q74 0 118 -59q45 -59 31 -150l-127 -766q-12 -73 -58 -113t-119 -40zM1485 1385q0 -71 -51 -127t-124 -56t-120 48t-47 121t53 125t127 52t118 -46t44 -117zM743 1501q123 0 226 -55q82 -52 82 -118t-38 -114
t-104 -47q-33 1 -84 15t-88 14q-100 0 -119 -117l-6 -43h158q70 0 111 -42t41 -103t-45 -103t-111 -40h-195l-98 -603q-12 -73 -58 -113t-119 -40t-118 58t-31 147l91 551h-11q-73 0 -113 42t-40 103t46 102t111 41h56l10 60q35 203 141 304t305 101z" />
    <glyph glyph-name=".notdef" horiz-adv-x="616" 
 />
    <glyph glyph-name=".null" horiz-adv-x="0" 
 />
    <glyph glyph-name="nonmarkingreturn" horiz-adv-x="681" 
 />
    <glyph glyph-name="space" unicode=" " horiz-adv-x="491" 
 />
    <glyph glyph-name="exclam" unicode="!" horiz-adv-x="528" 
d="M142 -12q-66 0 -106 47q-42 47 -32 106l14 74q8 61 52 103t108 42q66 0 105 -46t28 -111l-12 -72q-11 -59 -51 -101t-106 -42zM366 1452q74 0 117 -55t27 -142l-125 -634q-27 -140 -157 -140q-60 0 -102 46t-34 106l88 647q12 82 62 127t124 45z" />
    <glyph glyph-name="quotedbl" unicode="&#x22;" horiz-adv-x="925" 
d="M757 1452q67 0 107 -46t29 -108l-55 -323q-10 -63 -52 -103t-106 -38q-66 0 -107 47t-30 108l51 320q10 61 53 102t110 41zM354 1452q66 0 106 -46q39 -47 29 -108l-55 -323q-10 -63 -51 -103t-107 -38q-66 0 -107 48q-42 48 -32 107l53 320q10 61 54 102t110 41z" />
    <glyph glyph-name="numbersign" unicode="#" horiz-adv-x="1488" 
d="M623 625h143l106 209h-145zM220 -18q-87 0 -124 66t2 136l72 144h-51q-59 0 -102 42q-42 42 -42 104q-1 62 51 107q52 44 136 44h153l105 209h-49q-59 0 -103 43q-43 43 -43 105t51 104t136 42h153l107 220q53 106 140 106t121 -59t-3 -138l-62 -129h150l108 220
q52 106 140 106t122 -59t-4 -138l-63 -129h33q74 0 116 -40t43 -100q0 -60 -46 -107t-134 -47h-149l-107 -209h31q72 0 114 -40t42 -105q0 -64 -48 -108t-137 -44h-149l-119 -236q-53 -110 -135 -110t-126 60t-1 142l74 144h-146l-117 -236q-53 -110 -140 -110z" />
    <glyph glyph-name="dollar" unicode="$" horiz-adv-x="1210" 
d="M476 -182q-60 0 -104 43t-32 110l14 76q-68 14 -164 58q-204 94 -204 225q0 68 47 116t101 50q54 0 82 -14l33 -16q5 -3 19 -13q155 -111 332 -111q74 4 119 32t45 70t-46 67q-46 26 -169 67q-209 68 -315 164q-105 97 -105 247q0 184 140 301t311 125l10 49
q25 156 155 156q74 0 112 -44t26 -112l-9 -47q176 -43 254 -121q52 -50 52 -114t-42 -113t-114 -49q-33 0 -51 8q-17 8 -37 16t-29 13q-123 53 -221 53t-148 -27t-50 -69t46 -70q84 -48 218 -90q74 -28 124 -52t116 -71q137 -98 135 -272q-1 -174 -136 -294t-348 -138
l-12 -78q-11 -63 -53 -97t-102 -34z" />
    <glyph glyph-name="percent" unicode="%" horiz-adv-x="1818" 
d="M1378 223q82 0 103 92q14 57 14 105q0 94 -87 94t-112 -94q-14 -62 -15 -104t25 -68t72 -25zM1368 -16q-148 0 -240 91t-92 232q0 246 138 364q98 83 236 83t236 -88t99 -228q0 -68 -16 -145q-27 -143 -121 -226q-92 -83 -240 -83zM393 926q82 0 103 92q14 57 14 104
q0 94 -86 95q-88 0 -113 -95q-14 -61 -15 -103q-2 -41 24 -67t73 -26zM382 686q-148 0 -239 91q-92 91 -92 233q0 247 137 363q98 83 236 83t238 -88q98 -88 98 -227q0 -68 -17 -146q-27 -143 -120 -226t-241 -83zM486 164q-60 0 -102 43t-42 103t55 116l813 805
q52 53 114 53t104 -42t42 -102t-55 -116l-813 -805q-56 -55 -116 -55z" />
    <glyph glyph-name="ampersand" unicode="&#x26;" horiz-adv-x="1447" 
d="M817 1053q0 41 -32 69q-33 28 -97 27q-64 0 -106 -31t-41 -88q0 -57 84 -131q109 41 151 77t41 77zM575 301q109 0 203 53l-239 221q-158 -68 -158 -165q-1 -109 194 -109zM565 -16q-217 0 -371 108t-155 305q0 133 80 233t221 154q-143 133 -143 297q0 163 140 269
t350 106t341 -104t131 -271q0 -227 -303 -383l133 -112q49 90 85 124t104 34t118 -68q49 -66 -2 -180q-29 -63 -59 -119l111 -94q51 -43 59 -111t-35 -123q-45 -53 -113 -61t-122 39l-111 100q-191 -143 -459 -143z" />
    <glyph glyph-name="quotesingle" unicode="'" horiz-adv-x="524" 
d="M354 1452q66 0 106 -46q39 -47 29 -108l-55 -323q-10 -63 -51 -103t-107 -38q-66 0 -106 47q-41 47 -31 108l54 320q10 63 52 103q43 40 109 40z" />
    <glyph glyph-name="parenleft" unicode="(" horiz-adv-x="733" 
d="M608 -214q0 -60 -50 -106t-125 -45q-75 0 -124 68q-246 346 -246 823q0 304 127 578t359 467q66 53 129 53q62 0 114 -44t52 -112t-88 -151q-371 -342 -371 -811q0 -121 39 -256t75 -208q37 -73 73 -134q36 -62 36 -122z" />
    <glyph glyph-name="parenright" unicode=")" horiz-adv-x="774" 
d="M38 -365q-64 0 -116 44q-51 44 -51 113t88 151q369 340 369 811q0 121 -48 286t-137 310q-37 63 -37 123q0 59 50 105t126 46q74 0 124 -68q246 -346 245 -823q0 -303 -127 -577t-358 -467q-64 -54 -128 -54z" />
    <glyph glyph-name="asterisk" unicode="*" horiz-adv-x="847" 
d="M452 674q-54 0 -88 42t-10 105l52 133l-115 -90q-35 -32 -92 -28t-83 52t0 98t87 69l139 37l-129 55q-49 23 -66 71q-16 48 15 95q33 45 86 49t92 -37l100 -98l-12 137q-6 66 26 106t90 41q58 0 90 -45t7 -110l-47 -129l119 96q43 37 99 29t78 -58t-6 -97
q-28 -48 -91 -69l-138 -47l123 -39q54 -16 72 -66t-12 -95t-80 -51q-51 -6 -94 30l-107 94l10 -133q7 -75 -27 -111t-88 -36z" />
    <glyph glyph-name="plus" unicode="+" horiz-adv-x="1245" 
d="M780 352q0 -68 -44 -114t-110 -45q-66 0 -114 49q-47 49 -47 110v207h-203q-68 0 -115 46t-47 113q0 68 47 112t115 44h203v205q0 66 46 113t113 47q68 0 112 -46t44 -114v-205h203q68 0 114 -45t46 -111t-48 -113q-48 -46 -112 -46h-203v-207z" />
    <glyph glyph-name="comma" unicode="," horiz-adv-x="518" 
d="M123 -246q-57 0 -98 37t-41 82t45 96t55 109l25 155q10 66 56 103t103 37q58 0 102 -46t31 -122l-18 -111q-25 -154 -99 -247t-161 -93z" />
    <glyph glyph-name="hyphen" unicode="-" horiz-adv-x="694" 
d="M70 589q0 73 55 121t133 48h188q82 0 129 -46t47 -119t-56 -122t-136 -49h-186q-84 0 -129 47t-45 120z" />
    <glyph glyph-name="period" unicode="." horiz-adv-x="552" 
d="M214 -18q-66 0 -104 48q-40 48 -30 105l18 111q10 63 54 102t108 39q66 0 105 -45t28 -111l-18 -106q-11 -61 -53 -102t-108 -41z" />
    <glyph glyph-name="slash" unicode="/" horiz-adv-x="792" 
d="M154 -66q-86 0 -138 70q-51 70 -14 162l479 1218q21 47 65 81t97 34q88 0 136 -72t12 -161l-476 -1217q-20 -49 -63 -82t-98 -33z" />
    <glyph glyph-name="zero" unicode="0" horiz-adv-x="1419" 
d="M670 311q219 0 266 273q31 190 37 250q12 137 -55 218q-68 81 -181 81q-219 0 -268 -283q-35 -213 -37 -248q-12 -135 56 -213t182 -78zM694 -16q-202 0 -342 88q-139 88 -202 225q-64 137 -54 283t45 317q55 283 214 421t384 138q276 0 431 -183t137 -429
q-16 -160 -45 -305q-53 -281 -210 -418q-156 -137 -358 -137z" />
    <glyph glyph-name="one" unicode="1" horiz-adv-x="1036" 
d="M234 868q-56 0 -102 44t-46 114q0 104 121 166l428 221q66 35 124 35t99 -49t29 -127l-187 -1110q-29 -170 -170 -170q-71 0 -122 54t-37 140l133 795l-174 -90q-40 -23 -96 -23z" />
    <glyph glyph-name="two" unicode="2" horiz-adv-x="1230" 
d="M901 336q74 0 118 -47t44 -118t-58 -121t-147 -50h-641q-117 0 -165 84t-19 195q49 195 336 380q53 35 153 93t152 92q52 33 96 81q45 48 45 94t-34 80t-101 34q-104 0 -231 -105q-75 -64 -103 -70t-47 -6q-66 0 -112 42t-46 104t66 142q65 81 197 149t288 67
q205 0 333 -119t128 -296t-124 -299q-96 -93 -218 -164t-157 -92t-95 -56q-82 -47 -113 -94h455z" />
    <glyph glyph-name="three" unicode="3" horiz-adv-x="1222" 
d="M301 764q0 62 92 133l260 207l-2 6h-350q-70 0 -116 48t-46 117q1 69 55 121t136 52h647q63 0 115 -43t51 -133q0 -90 -80 -156l-270 -221q137 -39 215 -132t78 -227t-74 -246t-201 -175q-248 -123 -584 -123q-111 0 -163 46t-52 117t49 115t138 43l84 -2q223 0 380 93
q87 52 87 126q0 121 -152 121l-168 -18q-51 0 -90 35q-39 34 -39 96z" />
    <glyph glyph-name="four" unicode="4" horiz-adv-x="1351" 
d="M692 623l72 362l-318 -362h246zM229 297q-104 0 -164 52q-61 52 -61 136t98 191l574 633q62 71 118 105t128 34q106 0 166 -75t40 -181l-102 -557h68q78 0 120 -44t43 -113q0 -69 -55 -125t-151 -56h-80l-21 -131q-31 -174 -172 -174q-74 0 -123 51t-34 139l18 115h-410z
" />
    <glyph glyph-name="five" unicode="5" horiz-adv-x="1263" 
d="M825 551q0 137 -170 137q-94 0 -225 -51t-216 4t-64 178l65 414q35 215 254 215h584q71 0 115 -46t44 -118t-62 -122t-153 -50h-467l-30 -180q104 35 235 35q182 -1 304 -111t122 -274q0 -281 -232 -436t-593 -154q-311 0 -311 178q0 70 47 109t112 38l156 -6
q215 0 350 73t135 167z" />
    <glyph glyph-name="six" unicode="6" horiz-adv-x="1378" 
d="M654 315q97 1 167 55t70 138t-51 122t-133 38q-156 0 -256 -72q-8 -39 -9 -78q0 -104 58 -154t154 -49zM900 1456q382 0 382 -167q0 -83 -47 -128t-131 -45l-213 14q-147 0 -243 -52t-142 -183q145 68 282 68q217 0 330 -125t113 -299q0 -243 -164 -399t-422 -156
t-396 154t-138 390q0 380 189 646q93 130 247 206q155 76 353 76z" />
    <glyph glyph-name="seven" unicode="7" horiz-adv-x="1142" 
d="M316 -8q-97 0 -149 68t-11 161q168 395 569 891h-471q-72 0 -116 47t-44 119t58 121t141 49h711q90 0 144 -44t54 -120t-55 -147q-410 -508 -666 -1014q-68 -131 -165 -131z" />
    <glyph glyph-name="eight" unicode="8" horiz-adv-x="1411" 
d="M92 402q0 108 66 211t198 141q-156 94 -155 272q0 209 163 320q163 110 397 110t388 -104t154 -281q1 -113 -61 -200t-175 -119q205 -121 205 -320q0 -228 -170 -338t-414 -110t-413 92q-85 47 -134 132q-49 86 -49 194zM446 440q0 -146 226 -145q110 0 178 41t68 116
q0 148 -233 148q-111 0 -175 -44t-64 -116zM528 1012q0 -68 58 -103t150 -35q91 0 164 40t73 108q1 68 -61 102t-153 35q-91 0 -161 -39q-70 -40 -70 -108z" />
    <glyph glyph-name="nine" unicode="9" horiz-adv-x="1376" 
d="M956 836q6 47 5 84q-7 92 -67 152t-164 60t-170 -56q-65 -58 -64 -144q0 -154 217 -154q124 1 243 58zM649 492q-227 0 -360 129t-133 311q0 240 163 382q164 142 410 142t404 -152t157 -421q0 -414 -242 -653t-716 -238q-225 0 -226 168q0 68 52 112t125 41
q261 -15 421 49t207 193q-39 -25 -115 -44t-147 -19z" />
    <glyph glyph-name="colon" unicode=":" horiz-adv-x="495" 
d="M154 -12q-64 0 -106 47t-32 106l15 90q10 61 52 103q43 42 109 41q66 0 105 -45t29 -111l-15 -88q-10 -59 -51 -101q-42 -42 -106 -42zM278 655q-66 0 -106 47q-41 47 -31 109l15 88q10 61 52 103t108 42t105 -46q40 -46 30 -111l-15 -86q-10 -61 -51 -103t-107 -43z" />
    <glyph glyph-name="semicolon" unicode=";" horiz-adv-x="495" 
d="M304 655q-64 0 -106 47t-32 109l14 88q10 61 52 103t108 42t106 -46t29 -111l-14 -86q-10 -61 -51 -104q-42 -42 -106 -42zM82 -246q-57 0 -94 37t-37 80t15 63t27 34q50 59 58 110l25 155q10 68 52 104t99 36t99 -46t30 -122l-18 -111q-26 -158 -100 -249t-156 -91z" />
    <glyph glyph-name="less" unicode="&#x3c;" horiz-adv-x="1245" 
d="M903 1368q59 0 107 -47t49 -118q0 -71 -60 -118l-421 -340q-36 -28 0 -57l421 -340q59 -46 59 -116t-45 -118t-107 -48t-107 38l-514 416q-109 88 -109 197t109 196l514 416q45 39 104 39z" />
    <glyph glyph-name="equal" unicode="=" horiz-adv-x="1245" 
d="M969 328h-690q-68 0 -115 46t-47 112t47 113q47 46 115 46h690q71 0 115 -46q44 -45 44 -111t-48 -113t-111 -47zM969 793h-690q-68 0 -115 47q-47 46 -47 112t47 112t115 46h690q67 0 113 -46t46 -112t-48 -112t-111 -47z" />
    <glyph glyph-name="greater" unicode="&#x3e;" horiz-adv-x="1245" 
d="M349 66q-58 0 -106 47t-48 117t57 118l422 340q18 14 18 28t-18 29l-422 340q-57 47 -57 117t45 118t106 48t109 -39l512 -416q109 -89 109 -197t-109 -196l-512 -416q-48 -38 -106 -38z" />
    <glyph glyph-name="question" unicode="?" horiz-adv-x="1095" 
d="M430 465q-58 0 -94 44t-35 101q0 96 131 154t187 94q112 71 112 160q0 49 -32 80t-93 30q-94 0 -184 -81t-156 -81t-106 45q-39 45 -39 109t57 131q82 91 201 147t244 56q184 0 309 -113t125 -290q0 -360 -514 -564q-55 -22 -113 -22zM374 -12q-66 0 -106 47
q-41 47 -30 106l12 74q10 61 52 103t108 42t106 -46t29 -111l-13 -72q-10 -59 -51 -101t-107 -42z" />
    <glyph glyph-name="at" unicode="@" horiz-adv-x="1810" 
d="M809 115q-152 0 -247 99t-66 273l22 144q31 199 155 299q123 100 289 100t282 -115t77 -309l-31 -151q-6 -35 14 -55t50 -21q55 0 69 76l33 161q49 250 -98 404t-395 154q-197 0 -355 -121t-202 -326q-29 -133 -44 -264q-24 -233 102 -369t349 -135q95 0 195 33t154 -4
t55 -105q0 -94 -121 -148q-122 -54 -290 -54q-327 0 -542 187q-106 93 -161 251q-53 158 -37 337t43 298q114 524 580 662q128 38 267 38q394 0 618 -250t161 -620l-23 -135q-27 -162 -133 -247t-252 -85q-147 0 -237 106t-62 242l29 135q16 78 -23 120t-98 42
q-123 0 -154 -176l-16 -94q-29 -147 80 -148l51 4q45 0 73 -26t28 -77q0 -52 -40 -91q-38 -39 -149 -39z" />
    <glyph glyph-name="A" unicode="A" horiz-adv-x="1388" 
d="M760 1100l-221 -449h329l-71 453q-4 18 -15 18q-12 1 -22 -22zM946 152l-37 215h-506l-131 -265q-55 -110 -156 -110t-147 78q-45 78 0 166l520 1011q115 225 332 226q98 -1 176 -63t103 -193l178 -998q16 -88 -25 -157t-137 -68q-62 0 -110 42t-60 116z" />
    <glyph glyph-name="B" unicode="B" horiz-adv-x="1376" 
d="M760 879q82 -1 136 35t54 108q0 117 -147 117h-252l-45 -260h254zM713 311q88 0 144 47q56 48 56 118t-42 106t-111 36h-297l-51 -307h301zM268 0q-104 0 -157 63t-35 168l168 992q39 233 268 233h369q190 0 298 -106t107 -254q0 -102 -51 -194t-148 -140v-4
q66 -27 112 -106t46 -181q-1 -211 -151 -341t-381 -130h-445z" />
    <glyph glyph-name="C" unicode="C" horiz-adv-x="1372" 
d="M678 301q162 0 254 158q63 106 155 106q66 0 112 -40t46 -97t-20 -109q-66 -153 -207 -249t-379 -96q-239 0 -399 157q-160 158 -160 430q0 231 86 457t246 340q160 115 368 115t334 -78t182 -205q35 -74 35 -134t-43 -110q-43 -49 -117 -49q-106 0 -155 104
q-66 147 -230 148q-238 0 -317 -320q-41 -158 -41 -267t62 -185t188 -76z" />
    <glyph glyph-name="D" unicode="D" horiz-adv-x="1462" 
d="M559 311q207 0 306 70q154 109 175 428q14 156 -67 243q-82 87 -219 87h-189l-139 -828h133zM266 0q-98 0 -153 66t-37 167l168 990q41 233 266 233h256q315 0 473 -170q226 -243 104 -743q-73 -285 -269 -414t-519 -129h-289z" />
    <glyph glyph-name="E" unicode="E" horiz-adv-x="1257" 
d="M510 1456h563q88 0 132 -43t44 -111t-50 -111q-50 -42 -130 -42h-510l-47 -272h428q74 0 116 -42q42 -41 42 -105t-46 -107t-114 -43h-471l-47 -269h506q78 0 122 -45q44 -46 44 -112t-50 -110t-120 -44h-654q-115 0 -163 67t-29 181l164 975q39 233 270 233z" />
    <glyph glyph-name="F" unicode="F" horiz-adv-x="1183" 
d="M512 1456h551q76 0 119 -46t43 -114t-49 -112t-119 -43h-492l-55 -322h430q74 0 116 -43t42 -107q0 -65 -47 -107t-115 -42h-475l-62 -373q-12 -75 -58 -115q-47 -40 -119 -40t-119 58q-45 59 -29 149l172 1024q39 233 266 233z" />
    <glyph glyph-name="G" unicode="G" horiz-adv-x="1411" 
d="M838 506q-76 0 -119 43t-43 109t48 110q48 43 118 43h274q84 0 130 -44t43 -120q-12 -298 -181 -500q-68 -80 -184 -127t-267 -47q-257 0 -417 154t-160 416q0 109 28 252t62 235q86 223 239 333t394 110q172 0 307 -79t180 -188q27 -60 27 -120t-45 -110t-113 -50
q-98 0 -147 86q-80 137 -212 137q-132 1 -204 -63t-121 -216t-49 -298t72 -216t188 -69q203 0 256 190l6 29h-110z" />
    <glyph glyph-name="H" unicode="H" horiz-adv-x="1519" 
d="M222 -8q-72 0 -119 58q-46 58 -29 149l184 1097q12 76 59 118t120 42t117 -60t28 -151l-60 -368h535l67 419q12 76 60 118t120 42t117 -60t29 -151l-182 -1098q-30 -155 -178 -155q-72 0 -118 58t-30 149l62 366h-531l-74 -418q-12 -75 -58 -115q-47 -40 -119 -40z" />
    <glyph glyph-name="I" unicode="I" horiz-adv-x="651" 
d="M222 -8q-72 0 -119 58q-46 58 -29 149l184 1097q12 76 58 118t119 42t118 -60t29 -151l-183 -1098q-12 -75 -58 -115q-47 -40 -119 -40z" />
    <glyph glyph-name="J" unicode="J" horiz-adv-x="1101" 
d="M410 -27q-164 0 -279 74t-166 186q-27 57 -27 124t50 114q49 47 114 47q102 0 144 -94q51 -115 164 -115q150 0 178 176l127 811q12 76 59 118t120 42t117 -60q43 -61 29 -151l-116 -786q-37 -240 -171 -363t-343 -123z" />
    <glyph glyph-name="K" unicode="K" horiz-adv-x="1382" 
d="M222 -8q-72 0 -119 58q-46 58 -29 149l184 1097q12 74 58 117t119 43t118 -60t29 -151l-56 -334h13q31 -1 51 9t55 45l422 415q71 70 139 70t112 -44t44 -111t-64 -128l-460 -432l336 -467q82 -132 -2 -228q-42 -48 -124 -48t-141 84l-325 461q-20 31 -42 39t-59 8h-10
l-72 -437q-12 -75 -58 -115q-47 -40 -119 -40z" />
    <glyph glyph-name="L" unicode="L" horiz-adv-x="1114" 
d="M924 311q78 0 122 -45q44 -46 44 -112t-50 -110t-120 -44h-650q-113 0 -164 60t-30 173l178 1063q12 76 58 118t119 42t118 -60t29 -151l-156 -934h502z" />
    <glyph glyph-name="M" unicode="M" horiz-adv-x="1892" 
d="M1442 1071q-6 0 -10 -10l-297 -858q-74 -211 -277 -211q-96 0 -162 70t-67 194l-17 805q0 10 -7 10t-11 -12l-240 -932q-14 -61 -61 -98t-122 -37t-120 64t-20 153l264 952q80 295 332 295q109 0 191 -84t83 -225v-737q0 -12 8 -13q12 0 15 13l250 753q53 160 135 227
q83 66 199 66t189 -86t66 -223l-49 -975q-8 -180 -172 -180q-68 0 -117 51t-43 129l66 887q0 12 -6 12z" />
    <glyph glyph-name="N" unicode="N" horiz-adv-x="1579" 
d="M1361 1456q73 0 119 -60t29 -151l-168 -973q-47 -281 -264 -280q-91 0 -159 53t-101 150l-280 831l-5 -2q-14 -168 -59 -440l-74 -437q-12 -75 -58 -115q-47 -40 -119 -40t-119 58q-46 58 -29 149l166 979q25 143 99 211q75 67 178 67t159 -56t92 -155l287 -807h4
q18 244 76 566l49 292q14 76 59 118t118 42z" />
    <glyph glyph-name="O" unicode="O" horiz-adv-x="1490" 
d="M725 295q231 0 301 276q33 127 41 267t-72 225q-81 86 -201 86t-208 -71t-120 -201t-42 -265t76 -226t225 -91zM714 -27q-276 1 -464 183t-170 469q8 137 37 280q51 260 226 414t435 154q303 -1 480 -185t155 -465q-8 -106 -31 -241q-47 -289 -220 -449
q-172 -160 -448 -160z" />
    <glyph glyph-name="P" unicode="P" horiz-adv-x="1361" 
d="M733 770q109 0 188 50t78 159q0 74 -56 117t-150 43h-228l-61 -369h229zM222 -8q-72 0 -119 58q-46 58 -29 149l174 1046q14 91 76 151t163 60h351q250 0 380 -132t130 -340t-160 -371t-445 -162h-294l-50 -304q-12 -75 -58 -115q-47 -40 -119 -40z" />
    <glyph glyph-name="Q" unicode="Q" horiz-adv-x="1492" 
d="M717 295q31 0 43 2l-127 168q-33 43 -33 95t42 94t110 42t112 -65l121 -174q69 115 84 381q8 140 -72 225q-81 86 -201 86t-208 -71t-120 -201t-42 -264t75 -226t216 -92zM719 -27q-279 -1 -467 183t-170 469q8 137 37 280q51 262 226 415t457 153q282 -1 458 -185
q178 -184 155 -465q-8 -106 -31 -241q-43 -260 -186 -412l100 -141q29 -37 29 -90t-41 -95q-42 -42 -110 -43q-68 0 -109 58l-111 153q-116 -39 -237 -39z" />
    <glyph glyph-name="R" unicode="R" horiz-adv-x="1398" 
d="M750 782q121 0 184 58t63 136q0 77 -53 120t-149 43h-232l-59 -357h246zM222 -8q-72 0 -119 58q-46 58 -29 149l176 1046q14 87 82 149t166 62h317q244 0 387 -128t144 -331q0 -151 -88 -273t-257 -177l189 -289q37 -51 37 -114q0 -64 -45 -110t-115 -46q-104 0 -164 96
l-219 352q-16 25 -26 36q-26 30 -74 30h-125l-60 -355q-12 -75 -58 -115q-47 -40 -119 -40z" />
    <glyph glyph-name="S" unicode="S" horiz-adv-x="1314" 
d="M1194 425q0 -190 -151 -321t-392 -131q-182 1 -334 55q-296 106 -294 261q0 69 44 113t104 44t87 -13q28 -13 34 -16t21 -13q161 -109 338 -109q86 0 142 37q55 37 55 88q0 76 -176 129q-233 74 -370 181q-136 108 -136 282q0 215 158 338t404 123t423 -103
q113 -63 113 -170q0 -66 -41 -110t-109 -46q-68 0 -145 43q-123 61 -243 61t-166 -34q-46 -35 -46 -82q0 -48 52 -80t163 -65q223 -68 344 -170t121 -292z" />
    <glyph glyph-name="T" unicode="T" horiz-adv-x="1265" 
d="M244 1141q-76 0 -120 44q-44 43 -44 111t51 114t121 46h932q78 0 122 -47t44 -113t-50 -111q-50 -44 -145 -44h-293l-168 -991q-12 -76 -59 -117t-119 -41t-118 58t-29 147l159 944h-284z" />
    <glyph glyph-name="U" unicode="U" horiz-adv-x="1482" 
d="M725 -27q-287 0 -466 183q-89 90 -127 238t-5 337l96 565q29 160 181 160q74 0 117 -57q42 -57 28 -152l-92 -565q-31 -182 40 -284t212 -103q244 0 297 334l110 667q27 160 168 160q84 0 128 -62t30 -149l-103 -614q-57 -342 -211 -500t-403 -158z" />
    <glyph glyph-name="V" unicode="V" horiz-adv-x="1421" 
d="M1298 1456q72 0 121 -47t49 -109t-28 -116l-496 -959q-131 -252 -338 -252q-116 0 -196 77t-103 204l-178 967q-18 87 26 161t148 74q66 0 112 -41t58 -115l148 -952q2 -14 12 -14t16 14l471 971q68 137 178 137z" />
    <glyph glyph-name="W" unicode="W" horiz-adv-x="1964" 
d="M1340 344q5 0 8 6l303 948q49 158 178 158q76 0 124 -45t48 -113q0 -31 -14 -73l-373 -1018q-86 -233 -273 -234q-113 0 -195 73t-85 220l-23 797q0 10 -10 6l-4 -6l-287 -856q-81 -231 -293 -233q-100 0 -177 81q-77 82 -83 197l-55 989q-6 103 48 159t124 56t121 -47
t53 -125l21 -932q0 -10 8 -8q4 2 4 6l283 869q80 238 276 237q98 0 167 -70t73 -204l28 -832q0 -6 5 -6z" />
    <glyph glyph-name="X" unicode="X" horiz-adv-x="1447" 
d="M1231 149q0 -57 -51 -107t-125 -50q-100 0 -166 106l-227 369l-361 -381q-89 -94 -163 -94t-124 46q-49 46 -49 120t62 139l448 467l-260 416q-33 55 -33 114q0 58 44 110t122 52q104 0 170 -104l223 -359l383 396q66 67 138 67t121 -45t49 -117t-66 -143l-438 -453
l266 -428q37 -63 37 -121z" />
    <glyph glyph-name="Y" unicode="Y" horiz-adv-x="1308" 
d="M61 1294q1 64 51 113t124 49q96 0 159 -104l271 -437l446 471q66 70 142 70t121 -47q46 -47 46 -121t-67 -141l-490 -498q-63 -66 -71 -119l-64 -383q-12 -75 -58 -115t-119 -40t-119 58t-30 149l56 331q12 75 -27 134l-336 510q-35 56 -35 120z" />
    <glyph glyph-name="Z" unicode="Z" horiz-adv-x="1267" 
d="M977 0h-758q-98 0 -152 54q-55 54 -55 136t105 201l671 754h-436q-78 0 -124 43q-46 42 -46 108t50 113t120 47h717q97 0 149 -51t52 -117t-29 -114q-29 -47 -86 -113l-668 -750h494q76 0 120 -45q44 -46 44 -112t-49 -110t-119 -44z" />
    <glyph glyph-name="bracketleft" unicode="[" horiz-adv-x="864" 
d="M559 -29q68 0 112 -40q44 -41 44 -111q-1 -70 -61 -124t-138 -54h-407q-74 0 -112 44t-26 119l265 1651q12 78 59 123t123 45h407q63 0 103 -44t41 -116t-55 -122t-136 -50h-229l-217 -1321h227z" />
    <glyph glyph-name="backslash" unicode="\" horiz-adv-x="837" 
d="M590 -129q-74 0 -119 38t-59 99l-324 1356q-18 78 29 146t135 69q59 0 104 -38t60 -99l323 -1358q20 -86 -27 -150q-48 -63 -122 -63z" />
    <glyph glyph-name="bracketright" unicode="]" horiz-adv-x="835" 
d="M279 1292q-76 0 -124 42q-49 42 -49 117t50 124t123 49h436q73 0 111 -45t26 -121l-262 -1651q-27 -166 -184 -165h-394q-74 0 -116 43t-41 115q0 72 56 121q56 50 134 50h229l218 1321h-213z" />
    <glyph glyph-name="asciicircum" unicode="^" horiz-adv-x="946" 
d="M470 1444q158 0 235 -184l176 -443q23 -57 -7 -119t-88 -87q-60 -24 -124 2t-80 87l-90 324q-4 16 -20 16t-21 -16l-86 -324q-14 -59 -80 -86t-126 -3t-87 86t-4 120l174 451q70 176 228 176z" />
    <glyph glyph-name="underscore" unicode="_" horiz-adv-x="966" 
d="M967 -166v-256h-967v256h967z" />
    <glyph glyph-name="grave" unicode="`" 
d="M712 1548q-52 0 -89 21l-275 147q-70 36 -70 102t39 105t83 39t77 -18l287 -160q72 -40 72 -100t-36 -98t-88 -38z" />
    <glyph glyph-name="a" unicode="a" horiz-adv-x="1103" 
d="M352 342q0 -100 140 -100q74 0 137 41l24 145q-76 27 -139 27q-62 0 -112 -27t-50 -86zM474 -20q-222 0 -330 103t-107 241q0 174 124 264t320 90q121 0 211 -33l13 72q10 55 -22 88q-33 33 -97 33t-191 -29q-88 -17 -143 21t-55 106q0 100 110 145q127 51 295 52
q225 0 334 -124t72 -335l-84 -479q-12 -74 -76 -115q-152 -100 -374 -100z" />
    <glyph glyph-name="b" unicode="b" horiz-adv-x="1210" 
d="M648 817q-72 0 -150 -47l-72 -424q55 -51 170 -51q195 0 211 342q4 82 -42 131q-45 49 -117 49zM586 -20q-172 0 -294 44q-120 44 -175 88t-43 115l182 1092q28 158 176 158q74 -1 120 -59t30 -148l-29 -174q65 37 149 37q172 0 304 -117q64 -58 98 -156t26 -214
t-40 -261q-44 -195 -188 -300t-316 -105z" />
    <glyph glyph-name="c" unicode="c" horiz-adv-x="1114" 
d="M550 295q72 -1 108 21t65 67q55 76 123 76t114 -42q46 -41 46 -93q0 -154 -166 -269q-113 -76 -291 -75q-217 0 -359 131q-141 131 -127 362q8 119 41 254q48 197 184 301t309 104t287 -69q168 -103 171 -252q0 -74 -43 -120t-125 -46t-123 74q-53 98 -164 98
q-143 0 -184 -164q-64 -230 14 -310q47 -48 120 -48z" />
    <glyph glyph-name="d" unicode="d" horiz-adv-x="1220" 
d="M547 295q84 0 151 53l70 422q-63 47 -162 47q-150 0 -190 -164q-25 -96 -29 -184q-8 -174 160 -174zM860 1319q28 158 176 158q74 -1 120 -59t30 -148l-180 -1073q-7 -52 -39 -81q-10 -9 -37 -26q-174 -110 -386 -110t-354 131q-141 131 -127 362q6 97 46 273
q41 176 173 281t284 105t255 -51z" />
    <glyph glyph-name="e" unicode="e" horiz-adv-x="1130" 
d="M731 655q18 0 25 25q20 84 -19 129t-119 45q-165 0 -196 -199h309zM847 344q46 0 82 -38t36 -88t-32 -92t-75 -65q-150 -82 -319 -81q-223 0 -355 122q-131 123 -121 336q4 88 44 282q41 194 189 304t347 109q199 1 329 -139t83 -353l-11 -47q-41 -158 -172 -158h-485
q-14 -84 36 -124t118 -40t100 12q31 12 54 18q23 7 61 26q45 16 91 16z" />
    <glyph glyph-name="f" unicode="f" horiz-adv-x="921" 
d="M743 1501q123 0 226 -55q82 -52 82 -118t-38 -114t-104 -47q-33 1 -84 15t-88 14q-100 0 -119 -117l-6 -43h158q70 0 111 -42t41 -103t-45 -103t-111 -40h-195l-98 -603q-12 -73 -58 -113t-119 -40t-118 58t-31 147l91 551h-11q-73 0 -113 42t-40 103t46 102t111 41h56
l10 60q35 203 141 304t305 101z" />
    <glyph glyph-name="g" unicode="g" horiz-adv-x="1187" 
d="M616 817q-150 0 -190 -164q-25 -109 -29 -184q-8 -174 160 -174q86 0 152 53l69 422q-64 47 -162 47zM444 -424q-94 0 -190 29t-152 65q-90 61 -90 152q0 59 42 103t100 44t106 -26q115 -63 215 -64q166 0 191 176q-88 -33 -181 -32q-197 -1 -311 117t-100 333
q6 96 41 254q45 201 177 303t339 103q147 0 263 -44q116 -45 178 -95t50 -124l-133 -817q-78 -477 -545 -477z" />
    <glyph glyph-name="h" unicode="h" horiz-adv-x="1226" 
d="M649 803q-80 0 -151 -68l-99 -590q-12 -73 -58 -113q-47 -40 -119 -40t-119 57q-46 57 -29 148l186 1122q28 158 176 158q74 -1 120 -59t30 -148l-35 -197q90 59 215 60q182 0 292 -123t72 -344l-86 -521q-24 -153 -178 -153q-74 0 -117 57q-44 57 -30 148l76 452
q12 76 -27 115t-119 39z" />
    <glyph glyph-name="i" unicode="i" horiz-adv-x="641" 
d="M377 1120q74 0 119 -59t30 -150l-127 -766q-12 -73 -58 -113q-47 -40 -119 -40t-119 57q-45 58 -29 148l127 766q28 157 176 157zM446 1548q74 0 118 -46t44 -117t-51 -127t-124 -56t-120 48t-47 121t53 125t127 52z" />
    <glyph glyph-name="j" unicode="j" horiz-adv-x="641" 
d="M443 1202q-73 0 -119 48t-48 121q0 73 54 125t126 52q74 0 118 -46t44 -117t-51 -127t-124 -56zM385 1120q74 0 119 -59t31 -150l-103 -618q-43 -256 -121 -394t-239 -241q-58 -39 -122 -39t-110 43q-45 43 -45 119t74 125q115 76 160 150t61 177l119 730q28 157 176 157
z" />
    <glyph glyph-name="k" unicode="k" horiz-adv-x="1181" 
d="M436 1477q74 -1 120 -59t30 -148l-92 -555h14q31 0 44 7t46 40l276 297q70 74 136 74t112 -42q47 -42 47 -113t-63 -134l-299 -293l219 -295q43 -56 43 -116t-40 -104t-107 -44q-96 0 -154 80l-221 307q-23 31 -82 31h-21l-45 -265q-12 -73 -58 -113q-47 -40 -119 -40
t-119 57q-46 57 -29 148l186 1122q28 158 176 158z" />
    <glyph glyph-name="l" unicode="l" horiz-adv-x="622" 
d="M436 1477q74 -1 120 -59t30 -148l-187 -1125q-12 -73 -58 -113q-47 -40 -119 -40t-119 57q-45 58 -29 148l186 1122q28 158 176 158z" />
    <glyph glyph-name="m" unicode="m" horiz-adv-x="1714" 
d="M1356 -8q-74 0 -118 57t-30 148l78 467q10 61 -14 100t-90 39t-129 -43q-4 -53 -15 -111l-82 -502q-12 -75 -58 -115t-118 -40t-118 57q-45 57 -29 148l82 465q12 63 -14 102q-27 39 -93 39t-127 -39l-102 -619q-12 -73 -58 -113t-119 -40t-119 57t-30 148l119 708
q12 72 76 115q166 113 355 113t302 -115q147 115 337 115t302 -126q111 -126 76 -341l-86 -521q-12 -73 -58 -113t-120 -40z" />
    <glyph glyph-name="n" unicode="n" horiz-adv-x="1204" 
d="M624 803q-82 0 -143 -39l-102 -619q-12 -73 -58 -113t-119 -40t-119 57t-30 148l119 708q14 76 76 115q178 113 408 113t360 -125t94 -342l-86 -521q-24 -153 -178 -153q-74 0 -118 57t-30 148l76 454q12 74 -28 113t-122 39z" />
    <glyph glyph-name="o" unicode="o" horiz-adv-x="1171" 
d="M600 817q-143 0 -184 -164q-25 -96 -29 -179t43 -131t122 -48t122 44q48 43 66 115t28 183q2 82 -44 131t-124 49zM624 1133q200 1 342 -131q140 -132 126 -363q-8 -107 -48 -279t-172 -276t-311 -104q-225 0 -368 131t-130 362q8 125 41 254q48 199 184 303t336 103z
" />
    <glyph glyph-name="p" unicode="p" horiz-adv-x="1216" 
d="M655 817q-76 0 -151 -45l-72 -434q57 -43 162 -43q150 0 190 164q62 240 -10 314q-43 44 -119 44zM636 -20q-150 0 -257 49l-49 -293q-28 -158 -176 -158q-74 0 -120 58t-30 149l191 1130q11 58 31 74q19 16 44 33q174 111 386 111q212 1 354 -131t125 -363
q-6 -97 -46 -273t-171 -281q-132 -105 -282 -105z" />
    <glyph glyph-name="q" unicode="q" horiz-adv-x="1187" 
d="M550 295q75 0 146 45l72 424q-57 53 -170 53q-195 0 -211 -344q-4 -82 42 -130t121 -48zM594 1130q172 0 301 -45t182 -87t41 -115l-190 -1147q-24 -158 -176 -158q-74 0 -119 58t-29 149l37 227q-63 -32 -163 -32t-199 49q-98 49 -162 163t-55 252q9 136 42 281
q46 197 182 301t308 104z" />
    <glyph glyph-name="r" unicode="r" horiz-adv-x="835" 
d="M893 942q0 -63 -43 -109t-117 -47q-25 0 -74 10t-84 11q-88 0 -106 -111l-90 -551q-12 -73 -58 -113t-119 -40t-119 57t-30 148l97 571q33 197 134 281t277 84q127 0 215 -35q117 -47 117 -156z" />
    <glyph glyph-name="s" unicode="s" horiz-adv-x="1062" 
d="M940 344q0 -162 -120 -263t-318 -101q-115 0 -229 34t-178 91q-64 59 -64 123t43 106t95 41q52 0 99 -29q2 -2 22 -13q105 -59 163 -65q20 -2 60 -2t73 23q32 23 32 46t-12 38t-60 35q-50 20 -90 34t-67 25q-246 102 -246 301q0 174 130 269t327 95t330 -98
q74 -54 74 -124t-38 -110t-92 -40t-142 42t-163 42q-104 0 -104 -62q1 -27 21 -42q20 -16 76 -34q219 -72 299 -153q79 -82 79 -209z" />
    <glyph glyph-name="t" unicode="t" horiz-adv-x="913" 
d="M395 1364q80 0 121 -50t29 -124l-21 -125h215q70 0 111 -42t41 -103q0 -60 -45 -102t-111 -42h-262l-61 -354q-23 -137 92 -137q37 0 86 17t91 17q42 1 81 -39t39 -100q0 -102 -111 -157q-96 -49 -217 -50q-215 0 -317 129t-66 347l127 741q31 174 178 174z" />
    <glyph glyph-name="u" unicode="u" horiz-adv-x="1198" 
d="M338 1120q74 0 118 -58t29 -149l-71 -432q-14 -84 26 -129t115 -45q76 0 150 45l100 611q25 157 176 157q74 0 120 -59t29 -150l-118 -702q-14 -76 -74 -115q-182 -114 -402 -114t-355 143q-136 143 -97 379l76 461q28 157 178 157z" />
    <glyph glyph-name="v" unicode="v" horiz-adv-x="1105" 
d="M968 1120q108 0 151 -83q42 -83 -11 -183l-342 -637q-66 -119 -132 -172t-166 -53q-102 0 -172 63t-91 178l-129 656q-20 102 32 167q52 64 126 64t120 -40q47 -40 58 -113l45 -289q29 -180 32 -344q0 -12 12 -15q11 -1 15 13q70 215 131 346l156 319q57 123 165 123z
" />
    <glyph glyph-name="w" unicode="w" horiz-adv-x="1652" 
d="M850 688q-8 0 -12 -10l-164 -457q-44 -123 -108 -176t-166 -53t-172 68q-71 68 -78 180l-48 665q-8 103 39 159t121 56t120 -44q48 -44 50 -120l12 -360q2 -45 -8 -268q0 -8 8 -9q8 0 11 9q31 104 80 239l131 361q72 193 243 192q93 0 147 -60t58 -159l10 -313
q2 -84 2 -258q0 -10 9 -11q8 0 10 9q51 184 53 188l154 469q43 135 161 135q90 0 137 -70q46 -71 3 -180l-250 -653q-86 -225 -285 -225q-104 0 -173 70t-73 176l-14 440q0 10 -8 10z" />
    <glyph glyph-name="x" unicode="x" horiz-adv-x="1136" 
d="M146 -8q-68 0 -115 44t-47 114t57 126l317 312l-182 260q-37 54 -37 116t44 109t124 47t129 -73l166 -244l262 258q63 59 128 59t112 -46t47 -114t-70 -137l-290 -291l186 -272q37 -50 37 -114t-43 -109t-121 -45t-129 74l-174 253l-273 -266q-60 -61 -128 -61z" />
    <glyph glyph-name="y" unicode="y" horiz-adv-x="1089" 
d="M526 410q12 0 17 12q43 121 157 346l125 242q57 110 159 110t142 -85t-10 -169l-485 -862q-141 -254 -277 -354q-96 -72 -200 -72q-61 0 -107 42q-45 42 -45 100t26 91q26 34 83 64q111 59 190 195l-197 821q-22 98 24 164q46 65 125 65q154 -1 183 -153l39 -195
q31 -166 39 -350q0 -12 12 -12z" />
    <glyph glyph-name="z" unicode="z" horiz-adv-x="1024" 
d="M758 299q76 0 116 -42q40 -43 41 -107q0 -64 -46 -107t-115 -43h-580q-82 0 -130 48t-48 122t65 139l476 490h-271q-78 0 -119 42q-41 43 -41 107t46 107t116 43h547q90 0 139 -48t49 -122t-61 -140l-473 -489h289z" />
    <glyph glyph-name="braceleft" unicode="{" horiz-adv-x="915" 
d="M307 -356q-111 0 -183 80t-50 188l76 426q32 146 -56 222q-44 38 -43 78q0 40 51 79q143 100 162 233l66 467q12 85 81 145t152 60h359q66 0 110 -46t45 -118q0 -72 -58 -119t-142 -47h-166q-27 0 -49 -17t-23 -44l-39 -281q-16 -120 -74 -196t-127 -109q125 -96 86 -305
l-59 -309q-4 -25 9 -43t38 -19h172q68 0 111 -44q43 -45 43 -115q-1 -70 -59 -118t-142 -48h-291z" />
    <glyph glyph-name="bar" unicode="|" horiz-adv-x="577" 
d="M289 -287q-72 0 -120 50t-48 122v1651q0 74 47 124t118 50t120 -51t49 -123v-1651q0 -74 -47 -123t-119 -49z" />
    <glyph glyph-name="braceright" unicode="}" horiz-adv-x="915" 
d="M360 -356h-360q-66 0 -110 45t-44 115t58 118q58 47 141 47h168q27 -1 49 17t23 45l39 280q16 119 73 196t127 109q-125 96 -86 306l60 309q4 25 -10 43t-37 18h-172q-68 0 -112 44t-44 115t59 121t142 50h290q111 0 184 -82t52 -190l-76 -426q-31 -146 57 -224
q89 -79 -10 -155q-143 -100 -162 -234l-65 -467q-12 -84 -81 -142t-153 -58z" />
    <glyph glyph-name="asciitilde" unicode="~" horiz-adv-x="1327" 
d="M466 631q-62 0 -130 -33t-134 -33q-67 1 -115 55t-48 119q0 127 133 181q193 82 281 82t213 -52q124 -51 198 -51t140 32t128 32q62 -1 109 -55t47 -115q0 -123 -137 -183q-23 -11 -57 -25q-144 -55 -228 -55t-211 50t-189 51z" />
    <glyph glyph-name="exclamdown" unicode="&#xa1;" horiz-adv-x="526" 
d="M408 1452q66 0 108 -47t31 -107l-15 -73q-8 -61 -51 -103t-109 -43q-66 0 -104 46q-39 46 -28 112l12 72q10 59 50 101t106 42zM324 958q60 0 101 -46q42 -46 34 -105l-88 -647q-13 -82 -63 -127t-124 -45t-116 55q-43 55 -27 141l125 635q28 139 158 139z" />
    <glyph glyph-name="cent" unicode="&#xa2;" horiz-adv-x="1136" 
d="M479 -18q-73 0 -111 48t-28 117l20 123q-110 50 -164 150t-42 214t26 179q61 301 334 361l18 124q23 158 156 158q70 0 110 -48t29 -110l-22 -135q117 -59 164 -151q63 -124 -8 -205q-37 -41 -85 -41q-85 0 -113 42q-11 15 -28 44q-33 59 -104 59q-115 0 -150 -127
q-79 -268 89 -268q60 0 100 62q18 28 27 40t41 32t78 22q46 0 85 -36t39 -90t-45 -120q-92 -137 -242 -172l-22 -117q-31 -155 -152 -155z" />
    <glyph glyph-name="sterling" unicode="&#xa3;" horiz-adv-x="1298" 
d="M1038 338q68 0 113 -48t45 -118t-56 -121t-149 -51h-667q-100 0 -150 70q-49 70 -12 163q12 33 70 131t69 162h-78q-65 0 -107 45t-42 113t55 115t139 47h54q-21 334 163 493q133 115 328 115q119 0 239 -50t174 -120t54 -131q0 -62 -49 -109t-111 -47t-114 37t-72 50
q-55 36 -124 36t-107 -36t-46 -83t0 -155h183q68 0 112 -41t43 -111q0 -70 -54 -119t-148 -49h-154q-17 -112 -70 -188h469z" />
    <glyph glyph-name="currency" unicode="&#xa4;" horiz-adv-x="1222" 
d="M631 549q49 0 84 36t35 85v88q0 49 -35 87t-83 38t-81 -36t-36 -84t-1 -97t35 -83t82 -34zM631 283q-100 0 -180 45l-113 -107q-48 -45 -108 -45t-102 41t-42 99t47 110l133 137q-23 79 -14 215q2 43 16 94l-133 140q-49 51 -49 107q0 55 42 99t101 44t109 -50l115 -108
q80 45 179 45t179 -45l115 108q51 50 108 50q56 0 100 -42t44 -100t-50 -108l-131 -135q25 -89 17 -228q-2 -53 -15 -90l131 -133q48 -46 48 -106t-41 -102t-104 -42t-107 45l-113 105q-82 -43 -182 -43z" />
    <glyph glyph-name="yen" unicode="&#xa5;" horiz-adv-x="1327" 
d="M536 -8q-72 0 -117 58q-44 58 -32 149l16 104h-104q-66 0 -108 44q-41 44 -41 113t58 117t146 48h99q8 33 -43 102l-316 447q-41 56 -41 120t49 113t129 49t154 -104l268 -383l437 417q74 70 144 70t115 -47q46 -47 46 -120t-68 -138l-459 -430q-76 -72 -82 -96h86
q74 0 119 -42t45 -111t-59 -119t-143 -50h-99l-22 -156q-13 -75 -59 -115t-118 -40z" />
    <glyph glyph-name="brokenbar" unicode="&#xa6;" horiz-adv-x="577" 
d="M455 958q0 -74 -47 -123t-119 -49t-120 50t-48 122v578q0 74 47 124t118 50t120 -51t49 -123v-578zM289 -287q-72 0 -120 50t-48 122v578q0 74 47 124t118 50t120 -51t49 -123v-578q0 -74 -47 -123t-119 -49z" />
    <glyph glyph-name="section" unicode="&#xa7;" horiz-adv-x="1112" 
d="M758 508q25 29 24 61q0 61 -200 111q-82 20 -146 49q-29 -31 -28 -61q0 -61 204 -111q74 -18 146 -49zM492 -211q-129 0 -244 35q-223 68 -223 209q0 68 53 121q52 53 112 53t97 -21q115 -61 207 -61q163 0 161 88q0 36 -49 58t-125 42q-190 51 -269 118t-79 185t107 213
q-57 76 -58 185q0 188 136 315t356 127q125 0 225 -38q217 -82 217 -210q0 -74 -48 -121t-106 -47t-88 14q-100 51 -141 61q-41 9 -69 9q-133 0 -134 -92q0 -39 38 -58t134 -46q184 -49 266 -125q82 -75 83 -191q0 -116 -107 -198q57 -74 57 -185q0 -182 -139 -311
t-370 -129z" />
    <glyph glyph-name="dieresis" unicode="&#xa8;" 
d="M571 1691q0 67 49 117q50 50 116 50t108 -38t41 -106q0 -68 -50 -118t-118 -50t-107 39t-39 106zM316 1546q-66 0 -106 39t-40 105t50 117t116 51t107 -38q40 -38 40 -106t-50 -118t-117 -50z" />
    <glyph glyph-name="copyright" unicode="&#xa9;" horiz-adv-x="1544" 
d="M760 1145q125 0 204 -50t109 -124q43 -96 -10 -137q-31 -25 -78 -25t-82 63q-35 72 -125 72q-51 0 -83 -40t-36 -114t-1 -144t36 -110t84 -40q90 0 125 71q35 63 82 63t78 -24t31 -58t-21 -79q-31 -74 -109 -124t-204 -50q-125 0 -218 88q-92 88 -104 213t-2 231
q10 141 104 229t220 89zM772 1237q-170 0 -295 -118t-133 -296q-2 -31 -2 -105t2 -104q8 -178 133 -296t296 -118t296 118t133 296q2 29 2 104t-2 105q-8 178 -134 296t-296 118zM773 1454q267 0 455 -179t199 -464q4 -92 0 -184q-10 -281 -198 -460q-187 -179 -455 -179
t-457 179q-188 179 -200 460q-4 92 0 184q12 285 200 464q189 179 456 179z" />
    <glyph glyph-name="ordfeminine" unicode="&#xaa;" horiz-adv-x="940" 
d="M408 819q57 0 114 37q2 47 25 186l20 125q-37 20 -102 21q-98 0 -123 -92q-18 -72 -29 -164q-9 -113 95 -113zM721 555q-91 0 -137 90q-93 -90 -231 -90t-227 101t-71 272q14 131 27 194q29 164 132 248t271 84q105 0 189 -29t123 -59q55 -41 41 -129l-52 -301
q-5 -39 -1 -55l5 -25q3 -18 33 -75q31 -57 31 -105q0 -47 -40 -84t-93 -37z" />
    <glyph glyph-name="guillemotleft" unicode="&#xab;" horiz-adv-x="1329" 
d="M37 733q0 127 125 205l284 178q58 33 112 33t95 -42t41 -97q0 -78 -78 -125l-188 -119q-22 -14 -22 -30t12 -23l143 -113q51 -39 51 -98q0 -60 -42 -104t-104 -44t-130 54l-211 163q-88 68 -88 162zM643 733q0 127 125 205l285 178q57 33 111 33t96 -42t40 -97
q0 -78 -77 -125l-189 -119q-22 -14 -22 -30t12 -23l143 -113q51 -39 51 -98q0 -60 -41 -104q-43 -44 -105 -44t-130 54l-211 163q-88 68 -88 162z" />
    <glyph glyph-name="logicalnot" unicode="&#xac;" horiz-adv-x="1245" 
d="M809 557h-563q-68 0 -115 46t-47 113q0 68 47 112t115 44h694q88 0 137 -52t49 -132v-338q0 -68 -45 -114t-111 -46t-114 48q-47 48 -47 112v207z" />
    <glyph glyph-name="registered" unicode="&#xae;" horiz-adv-x="1241" 
d="M621 266q-219 0 -371 148t-164 366q-6 80 0 164q12 218 164 366t371 148t371 -147t161 -367q4 -84 0 -164q-9 -218 -161 -366t-371 -148zM621 446q147 0 241 86q133 122 107 420q-13 154 -107 241t-241 87t-243 -87q-135 -123 -108 -421q12 -154 108 -240t243 -86z
M573 659q0 -37 -22 -61t-58 -23q-36 0 -61 25t-24 59v398q0 35 22 59t59 23h162q84 0 135 -47q52 -47 52 -132t-78 -135l74 -110q18 -29 18 -61t-25 -56t-65 -23q-40 0 -64 39l-82 140q-10 16 -24 16h-19v-111zM569 895h49q61 0 62 51q0 57 -57 58h-54v-109z" />
    <glyph glyph-name="macron" unicode="&#xaf;" 
d="M389 1548q-67 0 -103 37t-36 91t44 98t120 45h297q61 0 95 -37t34 -90q0 -52 -42 -98t-112 -46h-297z" />
    <glyph glyph-name="degree" unicode="&#xb0;" horiz-adv-x="831" 
d="M423 1057q44 0 73 35q28 34 28 74t-22 65q-23 25 -67 25t-74 -36q-29 -36 -29 -76t23 -64q24 -23 68 -23zM459 1458q117 0 197 -79t79 -203q1 -124 -89 -224q-90 -98 -224 -98t-216 76q-81 76 -81 200t90 226t244 102z" />
    <glyph glyph-name="plusminus" unicode="&#xb1;" horiz-adv-x="1245" 
d="M983 0h-721q-68 0 -115 46t-47 113t47 113t115 45h721q66 0 113 -46t47 -111t-48 -113q-49 -47 -112 -47zM782 504q0 -68 -46 -115t-110 -47q-66 0 -114 49q-47 49 -47 113v205h-203q-68 0 -115 46q-47 47 -47 113t47 112t115 46h203v203q0 67 46 113t114 46
q69 0 113 -46t44 -113v-203h201q66 0 113 -46t47 -112t-48 -112q-48 -47 -112 -47h-201v-205z" />
    <glyph glyph-name="twosuperior" unicode="&#xb2;" horiz-adv-x="854" 
d="M573 780q70 0 108 -38t38 -94t-47 -100t-135 -44h-377q-125 0 -125 125q0 199 213 327q20 12 72 39t86 45q32 18 60 48t28 56t-14 39t-48 13q-33 0 -68 -30q-32 -22 -42 -33q-54 -41 -104 -41t-82 30t-32 87q0 56 50 110q121 137 313 137q125 0 211 -77t86 -193
q0 -203 -236 -316l-28 -14q-103 -40 -129 -76h202z" />
    <glyph glyph-name="threesuperior" unicode="&#xb3;" horiz-adv-x="815" 
d="M215 972q0 38 43 68l129 97h-139q-72 0 -111 40t-39 97t45 102t121 45h350q55 0 92 -30q36 -31 35 -82q0 -76 -86 -152l-84 -74q154 -66 154 -245q0 -154 -138 -256t-333 -103q-86 1 -130 13t-76 45t-32 83t41 86q41 38 113 37l76 -2q86 0 143 28t57 79t-67 51l-84 -8
q-37 -1 -59 21t-21 60z" />
    <glyph glyph-name="acute" unicode="&#xb4;" 
d="M817 1829q0 -86 -104 -133l-275 -129q-84 -36 -148 20q-40 35 -40 92q0 82 80 119l272 131q43 21 94 21t86 -36t35 -85z" />
    <glyph glyph-name="mu" unicode="&#xb5;" horiz-adv-x="1234" 
d="M182 -418q-76 0 -124 56t-33 143l190 1155q31 184 176 184q78 0 122 -51t30 -133l-76 -453q-27 -170 141 -170q86 0 140 35l102 588q31 184 174 184q78 0 123 -49t31 -135l-125 -727q-15 -76 -75 -116t-164 -76q-230 -79 -425 14l-45 -279q-29 -170 -162 -170z" />
    <glyph glyph-name="mu" unicode="&#x3bc;" horiz-adv-x="1234" 
d="M182 -418q-76 0 -124 56t-33 143l190 1155q31 184 176 184q78 0 122 -51t30 -133l-76 -453q-27 -170 141 -170q86 0 140 35l102 588q31 184 174 184q78 0 123 -49t31 -135l-125 -727q-15 -76 -75 -116t-164 -76q-230 -79 -425 14l-45 -279q-29 -170 -162 -170z" />
    <glyph glyph-name="paragraph" unicode="&#xb6;" horiz-adv-x="1583" 
d="M686 1114q-92 0 -162 -50t-70 -139t60 -133q59 -44 127 -44h72l61 366h-88zM712 -393q-77 0 -125 53t-36 125l106 635h-26q-237 0 -389 148t-152 350t148 358q148 154 403 154h713q119 0 178 -64t43 -166l-236 -1421q-12 -76 -55 -124t-119 -48t-126 52t-38 126l222 1313
h-115l-219 -1319q-12 -78 -56 -125t-121 -47z" />
    <glyph glyph-name="periodcentered" unicode="&#xb7;" horiz-adv-x="546" 
d="M258 520q-66 0 -106 48t-29 106l18 110q9 62 53 102t110 40t104 -45q39 -45 28 -111l-18 -106q-10 -61 -52 -103q-42 -41 -108 -41z" />
    <glyph glyph-name="cedilla" unicode="&#xb8;" 
d="M523 113q56 0 79 -43t-10 -90l-33 -46q86 -8 140 -62t55 -136q0 -217 -318 -311q-49 -7 -55 -7q-39 0 -69 26t-29 69q0 80 121 117q135 39 139 108q0 37 -47 37l-68 -8q-49 1 -75 41t-3 86l76 141q41 78 97 78z" />
    <glyph glyph-name="onesuperior" unicode="&#xb9;" horiz-adv-x="700" 
d="M386 498q-66 0 -100 49q-36 49 -26 115l64 385l-97 -43q-63 -32 -128 -2t-65 115t85 128l325 170q45 23 78 23q66 0 100 -46t23 -112l-104 -633q-13 -69 -51 -109t-104 -40z" />
    <glyph glyph-name="ordmasculine" unicode="&#xba;" horiz-adv-x="860" 
d="M445 1184q-39 0 -69 -29t-40 -85t-16 -122q-6 -65 20 -97q27 -32 74 -32q82 0 102 105q14 76 21 163q2 41 -25 69t-67 28zM464 1454q171 0 272 -106t87 -283q-8 -86 -22 -162q-33 -166 -133 -259t-262 -93t-270 101q-108 100 -100 240t19 200q33 170 135 266
q103 96 274 96z" />
    <glyph glyph-name="guillemotright" unicode="&#xbb;" horiz-adv-x="1327" 
d="M707 772q0 -131 -123 -207l-285 -176q-57 -33 -112 -33t-96 41q-40 41 -40 97q0 80 76 127l190 118q23 15 23 29t-12 25l-146 110q-49 41 -49 101t42 103q43 44 105 44t130 -53l211 -166q49 -37 67 -73t19 -87zM1303 772q0 -131 -123 -207l-285 -176q-57 -33 -113 -33
t-95 41q-40 41 -40 97q0 80 76 127l190 118q23 15 23 29t-12 25l-146 110q-49 41 -49 101t42 103q42 44 104 44t131 -53l211 -166q49 -37 67 -73t19 -87z" />
    <glyph glyph-name="onequarter" unicode="&#xbc;" horiz-adv-x="2109" 
d="M573 -68q-63 0 -112 43t-49 95t24 98l713 1251q49 86 139 86q62 0 112 -40t50 -96t-27 -101l-712 -1252q-48 -84 -138 -84zM388 498q-64 0 -102 49q-36 49 -26 115l64 385l-97 -43q-63 -32 -128 -2t-65 114t85 129l325 170q37 19 90 19q54 0 88 -44t23 -110l-104 -633
q-13 -69 -51 -109t-102 -40zM1614 410l37 202l-195 -202h158zM1675 0q-51 0 -85 35t-21 96l6 33h-309q-70 0 -113 35t-43 92t27 97t80 93l389 381q74 74 154 74t121 -46q42 -46 28 -132l-58 -348h43q60 0 94 -32t34 -80t-43 -88q-42 -40 -113 -40h-58l-8 -47
q-21 -123 -125 -123z" />
    <glyph glyph-name="onehalf" unicode="&#xbd;" horiz-adv-x="2103" 
d="M1819 276q69 0 107 -38t38 -94t-47 -100t-135 -44h-377q-125 0 -125 125q0 199 213 328q21 12 73 39t85 45t61 48q28 29 27 55t-15 39t-32 13q-49 0 -107 -48q-16 -13 -18 -15q-53 -41 -103 -41t-83 30q-31 30 -31 87q0 56 49 110q121 137 313 137q125 0 211 -76t86 -194
q0 -203 -235 -315l-29 -15q-103 -40 -129 -76h203zM424 498q-66 0 -102 49t-25 115l63 385l-96 -43q-63 -32 -128 -2q-64 30 -64 115t84 128l325 170q45 23 78 23q65 0 99 -46t24 -112l-104 -633q-12 -69 -50 -109t-104 -40zM627 -68q-77 0 -125 43t-49 95q0 52 24 98
l715 1251q49 86 126 86t126 -40t49 -96t-27 -101l-714 -1252q-48 -84 -125 -84z" />
    <glyph glyph-name="threequarters" unicode="&#xbe;" horiz-adv-x="2240" 
d="M256 972q0 38 43 68l129 97h-139q-72 0 -111 40t-39 97t45 102t121 45h350q53 -1 90 -31t37 -81q0 -76 -86 -152l-84 -74q154 -66 154 -245q0 -154 -138 -256t-333 -103q-86 1 -130 13t-76 45t-32 83t41 86q41 38 113 37l76 -2q86 0 143 28t57 79t-67 51l-84 -8
q-36 -1 -58 21t-22 60zM741 -68q-63 0 -112 43t-49 95t24 98l713 1251q49 86 139 86q62 0 112 -40t50 -96t-27 -101l-712 -1252q-48 -84 -138 -84zM1757 410l37 202l-197 -202h160zM1819 0q-51 0 -85 35t-22 96l6 33h-309q-70 0 -113 35t-43 92t27 97t80 93l389 381
q74 74 154 74q79 0 121 -46t28 -132l-57 -348h41q61 0 95 -32t34 -80t-42 -88t-116 -40h-55l-8 -47q-21 -123 -125 -123z" />
    <glyph glyph-name="questiondown" unicode="&#xbf;" horiz-adv-x="1095" 
d="M642 977q58 0 92 -44q36 -44 36 -102q0 -96 -131 -154t-186 -93q-113 -72 -113 -160q0 -49 32 -80t93 -31q94 0 199 95q76 68 142 68t105 -45t39 -109t-57 -132q-82 -90 -201 -146t-243 -56q-184 0 -310 112q-125 113 -125 291q0 360 514 563q56 23 114 23zM696 1454
q66 0 107 -47t31 -107l-13 -73q-10 -61 -52 -103q-43 -42 -109 -43q-66 0 -105 46t-29 112l13 72q10 59 51 101q40 42 106 42z" />
    <glyph glyph-name="Agrave" unicode="&#xc0;" horiz-adv-x="1388" 
d="M872 1548q-53 0 -88 21l-274 147q-70 36 -70 102t38 105t83 39t78 -18l287 -160q72 -41 71 -111q0 -49 -36 -87t-89 -38zM760 1100l-221 -449h329l-71 453q-4 18 -15 18q-12 1 -22 -22zM946 152l-37 215h-506l-131 -265q-55 -110 -156 -110t-147 78q-45 78 0 166
l520 1011q115 225 332 226q98 -1 176 -63t103 -193l178 -998q16 -88 -25 -157t-137 -68q-62 0 -110 42t-60 116z" />
    <glyph glyph-name="Aacute" unicode="&#xc1;" horiz-adv-x="1388" 
d="M1217 1829q0 -86 -105 -133l-274 -129q-85 -36 -149 20q-40 35 -40 92q0 82 80 119l272 131q43 21 94 21t87 -36t35 -85zM760 1100l-221 -449h329l-71 453q-4 18 -15 18q-12 1 -22 -22zM946 152l-37 215h-506l-131 -265q-55 -110 -156 -110t-147 78q-45 78 0 166
l520 1011q115 225 332 226q98 -1 176 -63t103 -193l178 -998q16 -88 -25 -157t-137 -68q-62 0 -110 42t-60 116z" />
    <glyph glyph-name="Acircumflex" unicode="&#xc2;" horiz-adv-x="1388" 
d="M581 1530q-44 0 -78 35t-34 91t68 107l247 187q46 32 100 32t93 -38l197 -187q53 -51 53 -105t-36 -89t-89 -35t-96 43l-144 131l-190 -141q-47 -31 -91 -31zM760 1100l-221 -449h329l-71 453q-4 18 -15 18q-12 1 -22 -22zM946 152l-37 215h-506l-131 -265
q-55 -110 -156 -110t-147 78q-45 78 0 166l520 1011q115 225 332 226q98 -1 176 -63t103 -193l178 -998q16 -88 -25 -157t-137 -68q-62 0 -110 42t-60 116z" />
    <glyph glyph-name="Atilde" unicode="&#xc3;" horiz-adv-x="1388" 
d="M977 1534q-53 0 -137 41t-118 41t-79 -36t-84 -36t-77 35t-38 84t70 109q113 96 217 96q57 0 145 -43t114 -43t73 45t90 45t79 -35t36 -89t-96 -134t-195 -80zM760 1100l-221 -449h329l-71 453q-4 18 -15 18q-12 1 -22 -22zM946 152l-37 215h-506l-131 -265
q-55 -110 -156 -110t-147 78q-45 78 0 166l520 1011q115 225 332 226q98 -1 176 -63t103 -193l178 -998q16 -88 -25 -157t-137 -68q-62 0 -110 42t-60 116z" />
    <glyph glyph-name="Adieresis" unicode="&#xc4;" horiz-adv-x="1388" 
d="M903 1691q0 67 49 117q50 50 116 50t108 -38t41 -106t-51 -118t-118 -50t-106 39q-39 39 -39 106zM648 1546q-66 0 -106 39t-40 105t50 117t116 51t107 -38q40 -38 40 -106t-50 -118t-117 -50zM760 1100l-221 -449h329l-71 453q-4 18 -15 18q-12 1 -22 -22zM946 152
l-37 215h-506l-131 -265q-55 -110 -156 -110t-147 78q-45 78 0 166l520 1011q115 225 332 226q98 -1 176 -63t103 -193l178 -998q16 -88 -25 -157t-137 -68q-62 0 -110 42t-60 116z" />
    <glyph glyph-name="Aring" unicode="&#xc5;" horiz-adv-x="1388" 
d="M880 1853q-32 1 -56 -23t-24 -56t21 -54q20 -20 52 -20t55 24q22 24 22 59q0 34 -19 52t-51 18zM872 1536q-108 0 -175 63t-67 165t76 180q75 78 181 78t172 -63q65 -63 65 -165t-72 -180t-180 -78zM760 1100l-221 -449h329l-71 453q-4 18 -15 18q-12 1 -22 -22zM946 152
l-37 215h-506l-131 -265q-55 -110 -156 -110t-147 78q-45 78 0 166l520 1011q115 225 332 226q98 -1 176 -63t103 -193l178 -998q16 -88 -25 -157t-137 -68q-62 0 -110 42t-60 116z" />
    <glyph glyph-name="AE" unicode="&#xc6;" horiz-adv-x="2154" 
d="M1118 1135q-39 0 -92 -66l-289 -367h314l71 433h-4zM125 -8q-59 0 -106 41q-46 41 -46 102t41 113l779 1022q80 104 173 145t240 41h770q84 0 127 -46t43 -114t-47 -108t-119 -39h-522l-47 -281h430q72 0 112 -41t40 -103t-45 -103t-111 -41h-471l-49 -269h508
q76 0 120 -45q44 -46 44 -112q1 -66 -49 -110t-119 -44h-656q-113 0 -161 67t-29 181l24 158h-464l-263 -338q-59 -76 -147 -76z" />
    <glyph glyph-name="Ccedilla" unicode="&#xc7;" horiz-adv-x="1372" 
d="M80 558q0 234 86 460t246 340q160 115 368 115t334 -78t182 -205q35 -74 35 -134t-43 -110q-43 -49 -117 -49q-106 0 -155 104q-66 147 -230 148q-238 0 -317 -320q-41 -158 -41 -267t61 -185t189 -76q162 0 254 158q63 106 155 106q66 0 112 -40t46 -97t-20 -109
q-59 -141 -185 -234t-323 -108l-31 -43q86 -8 139 -62t54 -136q0 -217 -316 -311q-49 -7 -55 -7q-39 0 -69 26t-29 69q0 80 121 117q135 39 139 108q0 37 -47 37l-68 -8q-49 1 -76 41t-2 86l49 92q-198 38 -322 188t-124 384z" />
    <glyph glyph-name="Egrave" unicode="&#xc8;" horiz-adv-x="1257" 
d="M868 1548q-53 0 -88 21l-274 147q-70 36 -70 102t38 105t83 39t78 -18l287 -160q72 -41 71 -111q0 -49 -36 -87t-89 -38zM510 1456h563q88 0 132 -43t44 -111t-50 -111q-50 -42 -130 -42h-510l-47 -272h428q74 0 116 -42q42 -41 42 -105t-46 -107t-114 -43h-471l-47 -269
h506q78 0 122 -45q44 -46 44 -112t-50 -110t-120 -44h-654q-115 0 -163 67t-29 181l164 975q39 233 270 233z" />
    <glyph glyph-name="Eacute" unicode="&#xc9;" horiz-adv-x="1257" 
d="M604 1679q0 82 80 119l272 131q43 21 94 21q50 0 86 -36t35 -85q0 -86 -104 -133l-274 -129q-85 -36 -149 20q-40 35 -40 92zM510 1456h563q88 0 132 -43t44 -111t-50 -111q-50 -42 -130 -42h-510l-47 -272h428q74 0 116 -42q42 -41 42 -105t-46 -107t-114 -43h-471
l-47 -269h506q78 0 122 -45q44 -46 44 -112t-50 -110t-120 -44h-654q-115 0 -163 67t-29 181l164 975q39 233 270 233z" />
    <glyph glyph-name="Ecircumflex" unicode="&#xca;" horiz-adv-x="1257" 
d="M538 1530q-44 0 -78 35t-34 91t68 107l247 187q45 32 99 32t94 -38l196 -187q54 -51 54 -105t-36 -89t-89 -35t-96 43l-144 131l-190 -141q-47 -31 -91 -31zM510 1456h563q88 0 132 -43t44 -111t-50 -111q-50 -42 -130 -42h-510l-47 -272h428q74 0 116 -42
q42 -41 42 -105t-46 -107t-114 -43h-471l-47 -269h506q78 0 122 -45q44 -46 44 -112t-50 -110t-120 -44h-654q-115 0 -163 67t-29 181l164 975q39 233 270 233z" />
    <glyph glyph-name="Edieresis" unicode="&#xcb;" horiz-adv-x="1257" 
d="M1036 1546q-68 0 -106 39t-39 106q0 67 49 117q50 50 116 50t107 -38t41 -106t-50 -118t-118 -50zM489 1690q1 66 51 117t116 51t107 -38q40 -38 40 -106t-50 -118t-117 -50t-107 39t-40 105zM510 1456h563q88 0 132 -43t44 -111t-50 -111q-50 -42 -130 -42h-510
l-47 -272h428q74 0 116 -42q42 -41 42 -105t-46 -107t-114 -43h-471l-47 -269h506q78 0 122 -45q44 -46 44 -112t-50 -110t-120 -44h-654q-115 0 -163 67t-29 181l164 975q39 233 270 233z" />
    <glyph glyph-name="Igrave" unicode="&#xcc;" horiz-adv-x="661" 
d="M487 1548q-53 0 -88 21l-274 147q-70 36 -70 102t38 105t82 39t79 -18l287 -160q72 -41 71 -111q0 -49 -36 -87t-89 -38zM222 -8q-72 0 -119 58q-46 58 -29 149l184 1097q12 76 58 118t119 42t118 -60t29 -151l-183 -1098q-12 -75 -58 -115q-47 -40 -119 -40z" />
    <glyph glyph-name="Iacute" unicode="&#xcd;" horiz-adv-x="661" 
d="M305 1679q0 82 80 119l272 131q43 21 94 21t87 -36t34 -85q0 -86 -104 -133l-274 -129q-85 -36 -149 20q-40 35 -40 92zM222 -8q-72 0 -119 58q-46 58 -29 149l184 1097q12 76 58 118t119 42t118 -60t29 -151l-183 -1098q-12 -75 -58 -115q-47 -40 -119 -40z" />
    <glyph glyph-name="Icircumflex" unicode="&#xce;" horiz-adv-x="661" 
d="M197 1530q-45 0 -79 35t-34 91t68 107l247 187q45 32 99 32t94 -38l196 -187q54 -51 54 -105t-36 -89t-89 -35t-96 43l-144 131l-190 -141q-45 -31 -90 -31zM222 -8q-72 0 -119 58q-46 58 -29 149l184 1097q12 76 58 118t119 42t118 -60t29 -151l-183 -1098
q-12 -75 -58 -115q-47 -40 -119 -40z" />
    <glyph glyph-name="Idieresis" unicode="&#xcf;" horiz-adv-x="661" 
d="M528 1691q0 67 49 117t115 50t108 -38t42 -106t-50 -118t-118 -50t-107 39t-39 106zM273 1546q-67 0 -107 39t-39 105q0 66 50 117q51 51 117 51t106 -38t40 -106t-50 -118t-117 -50zM222 -8q-72 0 -119 58q-46 58 -29 149l184 1097q12 76 58 118t119 42t118 -60t29 -151
l-183 -1098q-12 -75 -58 -115q-47 -40 -119 -40z" />
    <glyph glyph-name="Eth" unicode="&#xd0;" horiz-adv-x="1460" 
d="M557 311q207 0 306 70q154 109 175 428q14 156 -67 243q-82 87 -219 87h-189l-45 -267h162q74 0 113 -40t39 -100t-45 -107q-44 -47 -121 -47h-197l-45 -267h133zM264 0q-98 0 -152 66t-38 167l57 345h-8q-72 0 -111 40t-39 102q1 60 49 106t132 46h28l60 351
q41 233 270 233h238q324 0 484 -170q229 -242 107 -743q-73 -285 -269 -414t-519 -129h-289z" />
    <glyph glyph-name="Ntilde" unicode="&#xd1;" horiz-adv-x="1579" 
d="M1073 1534q-53 0 -137 41t-118 41t-79 -36t-83 -36t-77 35q-38 35 -38 84t69 109q113 96 217 96q57 0 145 -43t114 -43t73 45t90 45t79 -35t36 -89t-96 -134t-195 -80zM1361 1456q73 0 119 -60t29 -151l-168 -973q-47 -281 -264 -280q-91 0 -159 53t-101 150l-280 831
l-5 -2q-14 -168 -59 -440l-74 -437q-12 -75 -58 -115q-47 -40 -119 -40t-119 58q-46 58 -29 149l166 979q25 143 99 211q75 67 178 67t159 -56t92 -155l287 -807h4q18 244 76 566l49 292q14 76 59 118t118 42z" />
    <glyph glyph-name="Ograve" unicode="&#xd2;" horiz-adv-x="1492" 
d="M916 1548q-52 0 -89 21l-274 147q-70 36 -70 102t39 105t82 39t78 -18l287 -160q72 -41 71 -111q0 -49 -36 -87t-88 -38zM727 295q231 0 301 276q33 127 41 267t-72 225q-81 86 -201 86t-208 -71t-120 -201t-42 -265t76 -226t225 -91zM716 -27q-276 1 -464 183t-170 469
q8 137 37 280q51 260 226 414t435 154q302 -1 480 -185t155 -465q-8 -106 -31 -241q-47 -289 -220 -449q-172 -160 -448 -160z" />
    <glyph glyph-name="Oacute" unicode="&#xd3;" horiz-adv-x="1492" 
d="M690 1679q0 82 80 119l272 131q43 21 94 21q50 0 86 -36t35 -85q0 -86 -104 -133l-274 -129q-85 -36 -149 20q-40 35 -40 92zM727 295q231 0 301 276q33 127 41 267t-72 225q-81 86 -201 86t-208 -71t-120 -201t-42 -265t76 -226t225 -91zM716 -27q-276 1 -464 183
t-170 469q8 137 37 280q51 260 226 414t435 154q302 -1 480 -185t155 -465q-8 -106 -31 -241q-47 -289 -220 -449q-172 -160 -448 -160z" />
    <glyph glyph-name="Ocircumflex" unicode="&#xd4;" horiz-adv-x="1492" 
d="M614 1530q-44 0 -78 35t-34 91t67 107l248 187q45 32 99 32t94 -38l196 -187q54 -51 54 -105t-36 -89t-89 -35t-97 43l-143 131l-190 -141q-47 -31 -91 -31zM727 295q231 0 301 276q33 127 41 267t-72 225q-81 86 -201 86t-208 -71t-120 -201t-42 -265t76 -226t225 -91z
M716 -27q-276 1 -464 183t-170 469q8 137 37 280q51 260 226 414t435 154q302 -1 480 -185t155 -465q-8 -106 -31 -241q-47 -289 -220 -449q-172 -160 -448 -160z" />
    <glyph glyph-name="Otilde" unicode="&#xd5;" horiz-adv-x="1492" 
d="M991 1534q-53 0 -137 41t-118 41t-79 -36t-83 -36t-77 35q-38 35 -38 84t69 109q113 96 217 96q57 0 145 -43t114 -43t73 45t90 45t79 -35t36 -89t-96 -134t-195 -80zM727 295q231 0 301 276q33 127 41 267t-72 225q-81 86 -201 86t-208 -71t-120 -201t-42 -265t76 -226
t225 -91zM716 -27q-276 1 -464 183t-170 469q8 137 37 280q51 260 226 414t435 154q302 -1 480 -185t155 -465q-8 -106 -31 -241q-47 -289 -220 -449q-172 -160 -448 -160z" />
    <glyph glyph-name="Odieresis" unicode="&#xd6;" horiz-adv-x="1492" 
d="M1087 1546q-69 0 -107 39t-38 106t49 117t115 50t108 -38q41 -38 41 -106t-50 -118t-118 -50zM687 1546q-67 0 -107 39t-39 105q0 66 50 117q51 51 117 51t106 -38t40 -106t-50 -118t-117 -50zM727 295q231 0 301 276q33 127 41 267t-72 225q-81 86 -201 86t-208 -71
t-120 -201t-42 -265t76 -226t225 -91zM716 -27q-276 1 -464 183t-170 469q8 137 37 280q51 260 226 414t435 154q302 -1 480 -185t155 -465q-8 -106 -31 -241q-47 -289 -220 -449q-172 -160 -448 -160z" />
    <glyph glyph-name="multiply" unicode="&#xd7;" horiz-adv-x="1245" 
d="M141 398q0 68 47 114l209 207l-209 209q-47 46 -47 114t48 114q47 46 111 45t112 -48l209 -211l206 207q47 47 115 47t114 -49t44 -113t-47 -108l-207 -207l203 -199q47 -44 49 -110t-43 -115t-113 -50t-115 46l-206 207l-209 -211q-48 -47 -110 -48t-112 45t-49 114z
" />
    <glyph glyph-name="Oslash" unicode="&#xd8;" horiz-adv-x="1492" 
d="M774 1149q-98 0 -186 -71t-123 -216q-21 -86 -31 -172t-10 -112l512 532q-64 39 -162 39zM727 295q231 0 301 276q31 125 37 204t4 93l-506 -530q64 -43 164 -43zM742 -27q-249 0 -412 121l-64 -65q-54 -55 -112 -55t-95 36q-37 37 -37 92t56 113l74 78q-82 143 -70 332
q8 137 37 280q51 262 226 415t423 153t410 -113l55 57q49 55 107 55t98 -36q39 -37 39 -92t-54 -111l-71 -74q78 -154 63 -336q-8 -106 -31 -241q-47 -289 -220 -449t-422 -160z" />
    <glyph glyph-name="Ugrave" unicode="&#xd9;" horiz-adv-x="1482" 
d="M933 1548q-52 0 -89 21l-275 147q-69 36 -69 102t39 105t82 39t77 -18l287 -160q72 -40 72 -100t-36 -98t-88 -38zM725 -27q-287 0 -466 183q-89 90 -127 238t-5 337l96 565q29 160 181 160q74 0 117 -57q42 -57 28 -152l-92 -565q-31 -182 40 -284t212 -103
q244 0 297 334l110 667q27 160 168 160q84 0 128 -62t30 -149l-103 -614q-57 -342 -211 -500t-403 -158z" />
    <glyph glyph-name="Uacute" unicode="&#xda;" horiz-adv-x="1482" 
d="M688 1679q0 82 80 119l272 131q43 21 94 21q50 0 86 -36t35 -85q0 -86 -104 -133l-274 -129q-85 -36 -149 20q-40 35 -40 92zM725 -27q-287 0 -466 183q-89 90 -127 238t-5 337l96 565q29 160 181 160q74 0 117 -57q42 -57 28 -152l-92 -565q-31 -182 40 -284t212 -103
q244 0 297 334l110 667q27 160 168 160q84 0 128 -62t30 -149l-103 -614q-57 -342 -211 -500t-403 -158z" />
    <glyph glyph-name="Ucircumflex" unicode="&#xdb;" horiz-adv-x="1482" 
d="M632 1530q-44 0 -78 35t-34 91t68 107l248 187q45 32 99 32t93 -38l197 -187q53 -51 53 -105t-36 -89t-89 -35t-96 43l-144 131l-190 -141q-47 -31 -91 -31zM725 -27q-287 0 -466 183q-89 90 -127 238t-5 337l96 565q29 160 181 160q74 0 117 -57q42 -57 28 -152
l-92 -565q-31 -182 40 -284t212 -103q244 0 297 334l110 667q27 160 168 160q84 0 128 -62t30 -149l-103 -614q-57 -342 -211 -500t-403 -158z" />
    <glyph glyph-name="Udieresis" unicode="&#xdc;" horiz-adv-x="1482" 
d="M958 1691q0 67 49 117t115 50t108 -38t42 -106t-50 -118t-118 -50t-107 39t-39 106zM703 1546q-67 0 -107 39t-39 105q0 66 50 117q51 51 117 51t106 -38t40 -106t-50 -118t-117 -50zM725 -27q-287 0 -466 183q-89 90 -127 238t-5 337l96 565q29 160 181 160
q74 0 117 -57q42 -57 28 -152l-92 -565q-31 -182 40 -284t212 -103q244 0 297 334l110 667q27 160 168 160q84 0 128 -62t30 -149l-103 -614q-57 -342 -211 -500t-403 -158z" />
    <glyph glyph-name="Yacute" unicode="&#xdd;" horiz-adv-x="1308" 
d="M1155 1829q0 -86 -104 -133l-275 -129q-84 -36 -148 20q-40 35 -40 92q0 82 80 119l272 131q43 21 94 21t86 -36t35 -85zM61 1294q1 64 51 113t124 49q96 0 159 -104l271 -437l446 471q66 70 142 70t121 -47q46 -47 46 -121t-67 -141l-490 -498q-63 -66 -71 -119
l-64 -383q-12 -75 -58 -115t-119 -40t-119 58t-30 149l56 331q12 75 -27 134l-336 510q-35 56 -35 120z" />
    <glyph glyph-name="Thorn" unicode="&#xde;" horiz-adv-x="1316" 
d="M700 541q102 0 176 59q73 59 72 166q0 72 -48 115t-132 43h-233l-64 -383h229zM228 -12q-74 0 -120 55t-34 131l180 1090q33 190 182 190q72 0 120 -47t36 -131l-6 -47h188q248 0 388 -123t141 -336q-1 -258 -175 -402t-479 -145h-231l-8 -57q-10 -76 -58 -127t-124 -51z
" />
    <glyph glyph-name="germandbls" unicode="&#xdf;" horiz-adv-x="1374" 
d="M222 -12q-70 0 -116 57q-47 57 -32 143l137 838q39 233 174 353t347 120t343 -95t131 -249q0 -68 -28 -125t-63 -88q-91 -83 -91 -122t37 -65q12 -9 41 -27q221 -141 221 -343q0 -174 -125 -286q-124 -111 -326 -111t-327 108q-66 58 -66 124t39 108t91 43q52 0 127 -42
t133 -42t96 29q37 30 37 77t-32 75t-119 70t-129 92t-42 118t31 122q31 55 68 88q100 87 100 146q0 42 -37 66t-101 24q-172 0 -204 -203l-140 -837q-13 -78 -59 -122t-116 -44z" />
    <glyph glyph-name="agrave" unicode="&#xe0;" horiz-adv-x="1103" 
d="M736 1210q-52 0 -89 21l-274 147q-70 38 -70 104t39 104t82 38t78 -18l286 -160q72 -40 72 -100t-36 -98t-88 -38zM352 342q0 -100 140 -100q74 0 137 41l24 145q-76 27 -139 27q-62 0 -112 -27t-50 -86zM474 -20q-222 0 -330 103t-107 241q0 174 124 264t320 90
q121 0 211 -33l13 72q10 55 -22 88q-33 33 -97 33t-191 -29q-88 -17 -143 21t-55 106q0 100 110 145q127 51 295 52q225 0 334 -124t72 -335l-84 -479q-12 -74 -76 -115q-152 -100 -374 -100z" />
    <glyph glyph-name="aacute" unicode="&#xe1;" horiz-adv-x="1116" 
d="M1028 1493q0 -86 -104 -133l-275 -129q-33 -14 -71 -14q-38 1 -77 35q-40 34 -40 91q0 82 80 119l272 131q43 21 94 21t86 -36t35 -85zM352 342q0 -100 140 -100q74 0 137 41l24 145q-76 27 -139 27q-62 0 -112 -27t-50 -86zM474 -20q-222 0 -330 103t-107 241
q0 174 124 264t320 90q121 0 211 -33l13 72q10 55 -22 88q-33 33 -97 33t-191 -29q-88 -17 -143 21t-55 106q0 100 110 145q127 51 295 52q225 0 334 -124t72 -335l-84 -479q-12 -74 -76 -115q-152 -100 -374 -100z" />
    <glyph glyph-name="acircumflex" unicode="&#xe2;" horiz-adv-x="1118" 
d="M386 1171q-44 0 -78 35q-34 36 -34 92t68 107l248 186q45 33 99 33t93 -39l197 -186q53 -51 53 -105t-36 -90q-36 -35 -89 -35t-96 43l-143 131l-191 -141q-47 -31 -91 -31zM352 342q0 -100 140 -100q74 0 137 41l24 145q-76 27 -139 27q-62 0 -112 -27t-50 -86zM474 -20
q-222 0 -330 103t-107 241q0 174 124 264t320 90q121 0 211 -33l13 72q10 55 -22 88q-33 33 -97 33t-191 -29q-88 -17 -143 21t-55 106q0 100 110 145q127 51 295 52q225 0 334 -124t72 -335l-84 -479q-12 -74 -76 -115q-152 -100 -374 -100z" />
    <glyph glyph-name="atilde" unicode="&#xe3;" horiz-adv-x="1130" 
d="M799 1210q-53 0 -137 41t-118 41t-79 -36q-86 -68 -161 -1q-38 35 -38 84t70 109q113 96 217 96q57 0 144 -43t114 -43t74 45t90 45t79 -35t36 -89t-96 -134t-195 -80zM352 342q0 -100 140 -100q74 0 137 41l24 145q-76 27 -139 27q-62 0 -112 -27t-50 -86zM474 -20
q-222 0 -330 103t-107 241q0 174 124 264t320 90q121 0 211 -33l13 72q10 55 -22 88q-33 33 -97 33t-191 -29q-88 -17 -143 21t-55 106q0 100 110 145q127 51 295 52q225 0 334 -124t72 -335l-84 -479q-12 -74 -76 -115q-152 -100 -374 -100z" />
    <glyph glyph-name="adieresis" unicode="&#xe4;" horiz-adv-x="1112" 
d="M878 1526q66 0 107 -38t41 -106t-50 -118t-118 -50t-106 39t-39 106q0 67 49 117q50 50 116 50zM478 1526q66 0 106 -38t41 -106q-1 -68 -51 -118t-116 -50t-107 39q-40 39 -40 105t50 117q51 51 117 51zM352 342q0 -100 140 -100q74 0 137 41l24 145q-76 27 -139 27
q-62 0 -112 -27t-50 -86zM474 -20q-222 0 -330 103t-107 241q0 174 124 264t320 90q121 0 211 -33l13 72q10 55 -22 88q-33 33 -97 33t-191 -29q-88 -17 -143 21t-55 106q0 100 110 145q127 51 295 52q225 0 334 -124t72 -335l-84 -479q-12 -74 -76 -115
q-152 -100 -374 -100z" />
    <glyph glyph-name="aring" unicode="&#xe5;" horiz-adv-x="1103" 
d="M685 1335q33 0 55 25q22 24 22 58t-20 52t-51 18t-55 -23q-24 -25 -24 -57t20 -52t53 -21zM698 1657q106 -1 172 -63t66 -164t-72 -180t-180 -79t-175 63t-67 166t75 179q75 78 181 78zM352 342q0 -100 140 -100q74 0 137 41l24 145q-76 27 -139 27q-62 0 -112 -27
t-50 -86zM474 -20q-222 0 -330 103t-107 241q0 174 124 264t320 90q121 0 211 -33l13 72q10 55 -22 88q-33 33 -97 33t-191 -29q-88 -17 -143 21t-55 106q0 100 110 145q127 51 295 52q225 0 334 -124t72 -335l-84 -479q-12 -74 -76 -115q-152 -100 -374 -100z" />
    <glyph glyph-name="ae" unicode="&#xe6;" horiz-adv-x="1748" 
d="M1352 655q18 0 24 25q20 84 -17 129q-38 45 -121 45q-84 0 -142 -52t-72 -147h328zM516 455q-68 0 -116 -27t-48 -80q0 -106 121 -106t223 61q-12 57 -12 113q-100 39 -168 39zM586 838q-64 0 -191 -29q-90 -19 -144 21t-54 108q1 96 115 145t298 49t305 -126
q141 127 341 127q200 -1 332 -135t87 -357l-10 -47q-39 -158 -172 -158h-485q-4 -20 -4 -37q0 -61 49 -94t117 -33t208 56q45 16 90 16t81 -39t36 -92q0 -86 -106 -152q-137 -81 -332 -81t-326 108q-171 -108 -367 -108t-307 100t-110 242q0 176 124 266t318 90
q124 0 226 -37l12 72q10 55 -28 90q-39 35 -103 35z" />
    <glyph glyph-name="ccedilla" unicode="&#xe7;" horiz-adv-x="1114" 
d="M887 645q-82 0 -123 74q-53 98 -164 98q-143 0 -184 -164q-25 -104 -29 -183t43 -127t120 -48q72 -1 108 21t65 67q55 76 123 76t114 -42q46 -41 46 -93q0 -143 -151 -256q-99 -74 -253 -86l-33 -48q85 -8 139 -62t54 -136q0 -217 -316 -311q-50 -7 -72 -7t-52 26t-29 69
q0 81 122 117q138 40 138 110q0 35 -47 35l-68 -8q-49 1 -76 41t-2 86l54 100q-166 37 -264 162t-87 317q8 119 41 254q48 197 184 301t309 104t287 -69q167 -103 171 -252q0 -74 -43 -120t-125 -46z" />
    <glyph glyph-name="egrave" unicode="&#xe8;" horiz-adv-x="1130" 
d="M753 1212q-52 0 -89 21l-275 147q-70 36 -70 102t39 105q40 39 84 39t76 -18l287 -160q72 -40 72 -100t-36 -98t-88 -38zM731 655q18 0 25 25q20 84 -19 129t-119 45q-165 0 -196 -199h309zM847 344q46 0 82 -38t36 -88t-32 -92t-75 -65q-150 -82 -319 -81
q-223 0 -355 122q-131 123 -121 336q4 88 44 282q41 194 189 304t347 109q199 1 329 -139t83 -353l-11 -47q-41 -158 -172 -158h-485q-14 -84 36 -124t118 -40t100 12q31 12 54 18q23 7 61 26q45 16 91 16z" />
    <glyph glyph-name="eacute" unicode="&#xe9;" horiz-adv-x="1130" 
d="M1055 1491q0 -86 -105 -133l-274 -129q-85 -36 -149 20q-40 35 -40 92q0 82 80 119l273 131q43 21 94 21t86 -36t35 -85zM731 655q18 0 25 25q20 84 -19 129t-119 45q-165 0 -196 -199h309zM847 344q46 0 82 -38t36 -88t-32 -92t-75 -65q-150 -82 -319 -81
q-223 0 -355 122q-131 123 -121 336q4 88 44 282q41 194 189 304t347 109q199 1 329 -139t83 -353l-11 -47q-41 -158 -172 -158h-485q-14 -84 36 -124t118 -40t100 12q31 12 54 18q23 7 61 26q45 16 91 16z" />
    <glyph glyph-name="ecircumflex" unicode="&#xea;" horiz-adv-x="1138" 
d="M429 1198q-44 0 -78 35t-34 91t68 108l248 186q45 33 99 33t93 -39l197 -187q53 -51 53 -105t-36 -89t-89 -35t-96 43l-143 131l-191 -141q-47 -31 -91 -31zM731 655q18 0 25 25q20 84 -19 129t-119 45q-165 0 -196 -199h309zM847 344q46 0 82 -38t36 -88t-32 -92
t-75 -65q-150 -82 -319 -81q-223 0 -355 122q-131 123 -121 336q4 88 44 282q41 194 189 304t347 109q199 1 329 -139t83 -353l-11 -47q-41 -158 -172 -158h-485q-14 -84 36 -124t118 -40t100 12q31 12 54 18q23 7 61 26q45 16 91 16z" />
    <glyph glyph-name="edieresis" unicode="&#xeb;" horiz-adv-x="1130" 
d="M916 1526q66 0 108 -38q41 -38 41 -106t-50 -118t-118 -50q-69 0 -107 39t-38 106t49 117t115 50zM516 1526q66 0 108 -38q40 -38 40 -106t-50 -118t-118 -50q-66 0 -106 39t-40 105t50 117t116 51zM731 655q18 0 25 25q20 84 -19 129t-119 45q-165 0 -196 -199h309z
M847 344q46 0 82 -38t36 -88t-32 -92t-75 -65q-150 -82 -319 -81q-223 0 -355 122q-131 123 -121 336q4 88 44 282q41 194 189 304t347 109q199 1 329 -139t83 -353l-11 -47q-41 -158 -172 -158h-485q-14 -84 36 -124t118 -40t100 12q31 12 54 18q23 7 61 26q45 16 91 16z
" />
    <glyph glyph-name="igrave" unicode="&#xec;" horiz-adv-x="641" 
d="M377 1120q74 0 119 -59t30 -150l-127 -766q-12 -73 -58 -113q-47 -40 -119 -40t-119 57q-45 58 -29 148l127 766q28 157 176 157zM445 1210q-52 0 -89 21l-274 147q-70 38 -70 104t39 104t82 38t78 -18l287 -160q72 -41 71 -111q0 -49 -36 -87t-88 -38z" />
    <glyph glyph-name="iacute" unicode="&#xed;" horiz-adv-x="643" 
d="M377 1120q74 0 119 -59t30 -150l-127 -766q-12 -73 -58 -113q-47 -40 -119 -40t-119 57q-45 58 -29 148l127 766q28 157 176 157zM821 1491q0 -86 -104 -133l-275 -129q-84 -36 -148 20q-40 35 -40 92q0 82 80 119l272 131q43 21 94 21t86 -36t35 -85z" />
    <glyph glyph-name="icircumflex" unicode="&#xee;" horiz-adv-x="643" 
d="M156 1198q-45 0 -79 35t-34 91t68 108l247 186q46 33 100 33t93 -39l197 -187q53 -51 53 -105t-36 -89t-89 -35t-96 43l-144 131l-190 -141q-45 -31 -90 -31zM377 1120q74 0 119 -59t30 -150l-127 -766q-12 -73 -58 -113q-47 -40 -119 -40t-119 57q-45 58 -29 148
l127 766q28 157 176 157z" />
    <glyph glyph-name="idieresis" unicode="&#xef;" horiz-adv-x="643" 
d="M377 1120q74 0 119 -59t30 -150l-127 -766q-12 -73 -58 -113q-47 -40 -119 -40t-119 57q-45 58 -29 148l127 766q28 157 176 157zM648 1526q66 0 108 -38t41 -106t-51 -118t-118 -50t-106 39q-39 39 -39 106t49 117q50 50 116 50zM248 1526q66 0 107 -38q40 -38 40 -106
t-50 -118t-117 -50q-66 0 -106 39t-40 105t50 117t116 51z" />
    <glyph glyph-name="eth" unicode="&#xf0;" horiz-adv-x="1234" 
d="M596 750q-72 0 -121 -41t-63 -103t-18 -133q-4 -70 40 -116q45 -46 115 -46t116 41q46 40 59 94t24 152q4 66 -38 109t-114 43zM1253 1420q0 -77 -90 -115l-57 -23q39 -262 4 -522q-16 -127 -49 -299q-41 -219 -165 -344t-342 -125t-361 133t-130 340q6 90 25 186
q41 211 175 317t333 105q141 0 256 -72q10 98 -8 175l-92 -37q-59 -23 -119 5q-59 28 -59 104t77 106l101 41q-19 39 -19 85t42 83t99 36q100 0 146 -98l59 23q63 29 119 1t55 -105z" />
    <glyph glyph-name="ntilde" unicode="&#xf1;" horiz-adv-x="1210" 
d="M831 1210q-53 0 -137 41t-118 41t-78 -36q-86 -68 -161 -1q-38 35 -38 84t70 109q113 96 217 96q57 0 144 -43t114 -43t74 45t90 45q42 0 78 -35t36 -89t-96 -134t-195 -80zM624 803q-82 0 -143 -39l-102 -619q-12 -73 -58 -113t-119 -40t-119 57t-30 148l119 708
q14 76 76 115q178 113 408 113t360 -125t94 -342l-86 -521q-24 -153 -178 -153q-74 0 -118 57t-30 148l76 454q12 74 -28 113t-122 39z" />
    <glyph glyph-name="ograve" unicode="&#xf2;" horiz-adv-x="1171" 
d="M762 1210q-53 0 -88 21l-275 147q-69 38 -69 104t38 104t83 38t77 -18l287 -160q72 -40 72 -100t-36 -98t-89 -38zM600 817q-143 0 -184 -164q-25 -96 -29 -179t43 -131t122 -48t122 44q48 43 66 115t28 183q2 82 -44 131t-124 49zM624 1133q200 1 342 -131
q140 -132 126 -363q-8 -107 -48 -279t-172 -276t-311 -104q-225 0 -368 131t-130 362q8 125 41 254q48 199 184 303t336 103z" />
    <glyph glyph-name="oacute" unicode="&#xf3;" horiz-adv-x="1171" 
d="M1055 1491q0 -86 -105 -133l-274 -129q-85 -36 -149 20q-40 35 -40 92q0 82 80 119l273 131q43 21 94 21t86 -36t35 -85zM600 817q-143 0 -184 -164q-25 -96 -29 -179t43 -131t122 -48t122 44q48 43 66 115t28 183q2 82 -44 131t-124 49zM624 1133q200 1 342 -131
q140 -132 126 -363q-8 -107 -48 -279t-172 -276t-311 -104q-225 0 -368 131t-130 362q8 125 41 254q48 199 184 303t336 103z" />
    <glyph glyph-name="ocircumflex" unicode="&#xf4;" horiz-adv-x="1171" 
d="M426 1196q-45 0 -79 35t-34 91t68 108l248 186q45 33 99 33t93 -39l197 -187q53 -51 53 -105t-36 -89t-89 -35t-96 43l-143 131l-191 -141q-45 -31 -90 -31zM600 817q-143 0 -184 -164q-25 -96 -29 -179t43 -131t122 -48t122 44q48 43 66 115t28 183q2 82 -44 131
t-124 49zM624 1133q200 1 342 -131q140 -132 126 -363q-8 -107 -48 -279t-172 -276t-311 -104q-225 0 -368 131t-130 362q8 125 41 254q48 199 184 303t336 103z" />
    <glyph glyph-name="otilde" unicode="&#xf5;" horiz-adv-x="1175" 
d="M805 1210q-53 0 -137 41t-118 41t-79 -36q-86 -68 -161 -1q-38 35 -38 84t70 109q113 96 217 96q57 0 144 -43t114 -43t74 45t90 45t79 -35t36 -89t-96 -134t-195 -80zM600 817q-143 0 -184 -164q-25 -96 -29 -179t43 -131t122 -48t122 44q48 43 66 115t28 183
q2 82 -44 131t-124 49zM624 1133q200 1 342 -131q140 -132 126 -363q-8 -107 -48 -279t-172 -276t-311 -104q-225 0 -368 131t-130 362q8 125 41 254q48 199 184 303t336 103z" />
    <glyph glyph-name="odieresis" unicode="&#xf6;" horiz-adv-x="1171" 
d="M918 1526q66 0 108 -38q41 -38 41 -106t-50 -118t-118 -50q-69 0 -107 39t-38 106t49 117t115 50zM518 1526q66 0 108 -38q40 -38 40 -106t-50 -118t-118 -50q-66 0 -106 39t-40 105t50 117t116 51zM600 817q-143 0 -184 -164q-25 -96 -29 -179t43 -131t122 -48t122 44
q48 43 66 115t28 183q2 82 -44 131t-124 49zM624 1133q200 1 342 -131q140 -132 126 -363q-8 -107 -48 -279t-172 -276t-311 -104q-225 0 -368 131t-130 362q8 125 41 254q48 199 184 303t336 103z" />
    <glyph glyph-name="divide" unicode="&#xf7;" horiz-adv-x="1245" 
d="M983 557h-721q-68 0 -115 46t-47 113q0 68 47 112t115 44h721q68 0 114 -45t46 -111q-1 -66 -49 -113q-48 -46 -111 -46zM442 264q0 74 52 126t126 53q72 1 126 -52t54 -126t-52 -126q-53 -53 -126 -54t-126 52t-54 127zM496 1044q-54 53 -54 127q0 73 54 127t125 55
t125 -53t54 -128t-52 -126q-53 -52 -126 -54t-126 52z" />
    <glyph glyph-name="oslash" unicode="&#xf8;" horiz-adv-x="1181" 
d="M600 817q-139 0 -184 -164q-6 -18 -12 -60t-11 -67l285 277q-29 14 -78 14zM568 295q60 0 106 44q47 44 65 120q15 46 23 133l-285 -283q31 -14 91 -14zM554 -20q-188 0 -318 96l-48 -47q-47 -47 -95 -47t-77 28q-28 28 -28 73q0 46 49 93l63 64q-76 175 4 487
q48 197 184 301t321 104t311 -94l45 45q49 47 96 47t75 -26t28 -74q0 -47 -56 -102l-55 -54q47 -104 39 -222t-48 -292q-40 -172 -172 -276q-130 -104 -318 -104z" />
    <glyph glyph-name="ugrave" unicode="&#xf9;" horiz-adv-x="1198" 
d="M766 1210q-53 0 -88 21l-275 147q-69 38 -69 104t38 104t83 38t77 -18l287 -160q72 -40 72 -100t-36 -98t-89 -38zM338 1120q74 0 118 -58t29 -149l-71 -432q-14 -84 26 -129t115 -45q76 0 150 45l100 611q25 157 176 157q74 0 120 -59t29 -150l-118 -702
q-14 -76 -74 -115q-182 -114 -402 -114t-355 143q-136 143 -97 379l76 461q28 157 178 157z" />
    <glyph glyph-name="uacute" unicode="&#xfa;" horiz-adv-x="1198" 
d="M1106 1491q0 -86 -105 -133l-274 -129q-84 -36 -148 20q-40 35 -40 92q-1 82 79 119l273 131q43 21 94 21t86 -36t35 -85zM338 1120q74 0 118 -58t29 -149l-71 -432q-14 -84 26 -129t115 -45q76 0 150 45l100 611q25 157 176 157q74 0 120 -59t29 -150l-118 -702
q-14 -76 -74 -115q-182 -114 -402 -114t-355 143q-136 143 -97 379l76 461q28 157 178 157z" />
    <glyph glyph-name="ucircumflex" unicode="&#xfb;" horiz-adv-x="1198" 
d="M438 1198q-45 0 -79 35q-33 35 -33 91t67 108l248 186q45 33 99 33t94 -39l196 -187q53 -51 53 -105q1 -54 -35 -89t-89 -35t-97 43l-143 131l-191 -141q-45 -31 -90 -31zM338 1120q74 0 118 -58t29 -149l-71 -432q-14 -84 26 -129t115 -45q76 0 150 45l100 611
q25 157 176 157q74 0 120 -59t29 -150l-118 -702q-14 -76 -74 -115q-182 -114 -402 -114t-355 143q-136 143 -97 379l76 461q28 157 178 157z" />
    <glyph glyph-name="udieresis" unicode="&#xfc;" horiz-adv-x="1198" 
d="M924 1526q66 0 108 -38q41 -38 41 -106t-50 -118t-118 -50q-69 0 -107 39t-38 106t49 117t115 50zM358 1358q0 66 50 117t116 51t108 -38q40 -38 40 -106t-50 -118t-117 -50t-107 39t-40 105zM338 1120q74 0 118 -58t29 -149l-71 -432q-14 -84 26 -129t115 -45
q76 0 150 45l100 611q25 157 176 157q74 0 120 -59t29 -150l-118 -702q-14 -76 -74 -115q-182 -114 -402 -114t-355 143q-136 143 -97 379l76 461q28 157 178 157z" />
    <glyph glyph-name="yacute" unicode="&#xfd;" horiz-adv-x="1089" 
d="M1053 1493q0 -86 -105 -133l-274 -129q-33 -14 -71 -14q-38 1 -78 35t-40 91q0 82 80 119l273 131q43 21 94 21t86 -36t35 -85zM526 410q12 0 17 12q43 121 157 346l125 242q57 110 159 110t142 -85t-10 -169l-485 -862q-141 -254 -277 -354q-96 -72 -200 -72
q-61 0 -107 42q-45 42 -45 100t26 91q26 34 83 64q111 59 190 195l-197 821q-22 98 24 164q46 65 125 65q154 -1 183 -153l39 -195q31 -166 39 -350q0 -12 12 -12z" />
    <glyph glyph-name="thorn" unicode="&#xfe;" horiz-adv-x="1210" 
d="M162 -422q-84 0 -128 57t-32 132l254 1533q30 177 188 177q72 1 110 -57t26 -128l-31 -182q76 23 135 23q199 0 324 -119t125 -295q0 -123 -41 -313t-163 -303q-122 -112 -317 -111q-128 0 -239 53l-47 -281q-33 -186 -164 -186zM569 295q162 0 203 176q16 83 30 159
t-32 132t-122 55q-76 0 -150 -33l-76 -448q57 -41 147 -41z" />
    <glyph glyph-name="ydieresis" unicode="&#xff;" horiz-adv-x="1089" 
d="M880 1526q66 0 107 -38t41 -106t-50 -118t-118 -50t-106 39t-39 106q0 67 49 117q50 50 116 50zM313 1358q0 66 50 117q51 51 117 51t106 -38t41 -106q0 -68 -50 -118t-117 -50t-107 39t-40 105zM526 410q12 0 17 12q43 121 157 346l125 242q57 110 159 110t142 -85
t-10 -169l-485 -862q-141 -254 -277 -354q-96 -72 -200 -72q-61 0 -107 42q-45 42 -45 100t26 91q26 34 83 64q111 59 190 195l-197 821q-22 98 24 164q46 65 125 65q154 -1 183 -153l39 -195q31 -166 39 -350q0 -12 12 -12z" />
    <glyph glyph-name="Amacron" unicode="&#x100;" horiz-adv-x="1388" 
d="M721 1548q-66 0 -103 37q-36 37 -36 91t44 98t119 45h297q62 0 96 -37t34 -90q0 -52 -43 -98q-42 -46 -111 -46h-297zM760 1100l-221 -449h329l-71 453q-4 18 -15 18q-12 1 -22 -22zM946 152l-37 215h-506l-131 -265q-55 -110 -156 -110t-147 78q-45 78 0 166l520 1011
q115 225 332 226q98 -1 176 -63t103 -193l178 -998q16 -88 -25 -157t-137 -68q-62 0 -110 42t-60 116z" />
    <glyph glyph-name="amacron" unicode="&#x101;" horiz-adv-x="1103" 
d="M524 1223q-66 0 -102 37t-37 91q0 54 44 98t120 44h297q61 0 95 -37t34 -90t-42 -98t-112 -45h-297zM352 342q0 -100 140 -100q74 0 137 41l24 145q-76 27 -139 27q-62 0 -112 -27t-50 -86zM474 -20q-222 0 -330 103t-107 241q0 174 124 264t320 90q121 0 211 -33l13 72
q10 55 -22 88q-33 33 -97 33t-191 -29q-88 -17 -143 21t-55 106q0 100 110 145q127 51 295 52q225 0 334 -124t72 -335l-84 -479q-12 -74 -76 -115q-152 -100 -374 -100z" />
    <glyph glyph-name="Abreve" unicode="&#x102;" horiz-adv-x="1388" 
d="M885 1538q-117 0 -199 51t-117 140q-18 45 -18 96t39 81t88 30t74 -30q25 -28 36 -62t18 -46q18 -31 66 -32q48 0 72 20t43 63q41 86 121 86q53 1 85 -31t32 -73t-19 -82q-36 -87 -120 -149t-201 -62zM760 1100l-221 -449h329l-71 453q-4 18 -15 18q-12 1 -22 -22z
M946 152l-37 215h-506l-131 -265q-55 -110 -156 -110t-147 78q-45 78 0 166l520 1011q115 225 332 226q98 -1 176 -63t103 -193l178 -998q16 -88 -25 -157t-137 -68q-62 0 -110 42t-60 116z" />
    <glyph glyph-name="abreve" unicode="&#x103;" horiz-adv-x="1112" 
d="M686 1198q-117 0 -199 51t-116 140q-19 45 -19 96t39 81t88 30t74 -30q25 -28 36 -62t18 -46q18 -31 66 -32q47 0 71 20t44 63q41 86 121 86q53 1 85 -31t32 -73t-18 -82q-37 -87 -121 -149t-201 -62zM352 342q0 -100 140 -100q74 0 137 41l24 145q-76 27 -139 27
q-62 0 -112 -27t-50 -86zM474 -20q-222 0 -330 103t-107 241q0 174 124 264t320 90q121 0 211 -33l13 72q10 55 -22 88q-33 33 -97 33t-191 -29q-88 -17 -143 21t-55 106q0 100 110 145q127 51 295 52q225 0 334 -124t72 -335l-84 -479q-12 -74 -76 -115
q-152 -100 -374 -100z" />
    <glyph glyph-name="Aogonek" unicode="&#x104;" horiz-adv-x="1374" 
d="M1223 -309q0 -59 -68 -109t-171 -51q-103 0 -176 65t-73 179q0 188 221 315l-47 277h-506l-131 -265q-55 -110 -156 -110t-147 78q-45 78 0 166l520 1011q115 225 332 226q98 -1 176 -63t103 -193l178 -998q29 -160 -88 -211q-221 -102 -221 -192q0 -34 19 -52
q18 -18 42 -18t59 15t61 15t50 -24q24 -25 23 -61zM782 1122q-12 0 -22 -22l-221 -449h329l-71 453q-3 18 -15 18z" />
    <glyph glyph-name="aogonek" unicode="&#x105;" horiz-adv-x="1103" 
d="M352 342q0 -100 140 -100q74 0 137 41l24 145q-76 27 -139 27q-62 0 -112 -27t-50 -86zM617 -469q-103 0 -177 65q-74 66 -74 176t89 210h-15q-162 0 -282 92t-121 258q0 166 124 256t320 90q121 0 211 -33l13 72q10 55 -22 88q-33 33 -97 33t-191 -29q-88 -17 -143 21
t-55 106q0 100 110 145q127 51 295 52q225 0 334 -124t72 -335l-84 -479q-10 -59 -43 -91t-105 -63q-174 -78 -174 -227q0 -34 20 -52t42 -18t57 15t61 15t51 -24q24 -25 23 -61q0 -59 -68 -109t-171 -49z" />
    <glyph glyph-name="Cacute" unicode="&#x106;" horiz-adv-x="1372" 
d="M1237 1829q0 -86 -104 -133l-275 -129q-84 -36 -148 20q-40 35 -40 92q0 82 80 119l272 131q43 21 94 21t86 -36t35 -85zM678 301q162 0 254 158q63 106 155 106q66 0 112 -40t46 -97t-20 -109q-66 -153 -207 -249t-379 -96q-239 0 -399 157q-160 158 -160 430
q0 231 86 457t246 340q160 115 368 115t334 -78t182 -205q35 -74 35 -134t-43 -110q-43 -49 -117 -49q-106 0 -155 104q-66 147 -230 148q-238 0 -317 -320q-41 -158 -41 -267t62 -185t188 -76z" />
    <glyph glyph-name="cacute" unicode="&#x107;" horiz-adv-x="1114" 
d="M471 1341q0 82 80 119l272 131q43 21 94 21t87 -36t34 -85q0 -86 -104 -133l-275 -129q-84 -36 -148 20q-40 35 -40 92zM550 295q72 -1 108 21t65 67q55 76 123 76t114 -42q46 -41 46 -93q0 -154 -166 -269q-113 -76 -291 -75q-217 0 -359 131q-141 131 -127 362
q8 119 41 254q48 197 184 301t309 104t287 -69q168 -103 171 -252q0 -74 -43 -120t-125 -46t-123 74q-53 98 -164 98q-143 0 -184 -164q-64 -230 14 -310q47 -48 120 -48z" />
    <glyph glyph-name="Cdotaccent" unicode="&#x10a;" horiz-adv-x="1372" 
d="M859 1546q-67 0 -107 39t-39 105q0 66 50 117q49 51 115 51t107 -38t41 -106t-50 -118t-117 -50zM678 301q162 0 254 158q63 106 155 106q66 0 112 -40t46 -97t-20 -109q-66 -153 -207 -249t-379 -96q-239 0 -399 157q-160 158 -160 430q0 231 86 457t246 340
q160 115 368 115t334 -78t182 -205q35 -74 35 -134t-43 -110q-43 -49 -117 -49q-106 0 -155 104q-66 147 -230 148q-238 0 -317 -320q-41 -158 -41 -267t62 -185t188 -76z" />
    <glyph glyph-name="cdotaccent" unicode="&#x10b;" horiz-adv-x="1114" 
d="M528 1358q0 66 50 117t116 51t106 -38q42 -38 42 -106t-50 -118t-117 -50t-107 39t-40 105zM550 295q72 -1 108 21t65 67q55 76 123 76t114 -42q46 -41 46 -93q0 -154 -166 -269q-113 -76 -291 -75q-217 0 -359 131q-141 131 -127 362q8 119 41 254q48 197 184 301
t309 104t287 -69q168 -103 171 -252q0 -74 -43 -120t-125 -46t-123 74q-53 98 -164 98q-143 0 -184 -164q-64 -230 14 -310q47 -48 120 -48z" />
    <glyph glyph-name="Ccaron" unicode="&#x10c;" horiz-adv-x="1372" 
d="M841 1550q-40 0 -81 35l-205 176q-43 35 -43 90t38 95t88 39q50 0 89 -33l137 -121l174 125q39 29 89 29t85 -36q35 -35 35 -93t-78 -113l-235 -158q-53 -35 -93 -35zM678 301q162 0 254 158q63 106 155 106q66 0 112 -40t46 -97t-20 -109q-66 -153 -207 -249t-379 -96
q-239 0 -399 157q-160 158 -160 430q0 231 86 457t246 340q160 115 368 115t334 -78t182 -205q35 -74 35 -134t-43 -110q-43 -49 -117 -49q-106 0 -155 104q-66 147 -230 148q-238 0 -317 -320q-41 -158 -41 -267t62 -185t188 -76z" />
    <glyph glyph-name="ccaron" unicode="&#x10d;" horiz-adv-x="1124" 
d="M656 1219q-40 0 -81 34l-204 177q-43 35 -43 90t38 94t88 39t89 -33l137 -121l174 125q39 29 89 29t85 -36q35 -35 35 -93t-78 -113l-235 -158q-54 -34 -94 -34zM550 295q72 -1 108 21t65 67q55 76 123 76t114 -42q46 -41 46 -93q0 -154 -166 -269q-113 -76 -291 -75
q-217 0 -359 131q-141 131 -127 362q8 119 41 254q48 197 184 301t309 104t287 -69q168 -103 171 -252q0 -74 -43 -120t-125 -46t-123 74q-53 98 -164 98q-143 0 -184 -164q-64 -230 14 -310q47 -48 120 -48z" />
    <glyph glyph-name="Dcaron" unicode="&#x10e;" horiz-adv-x="1462" 
d="M808 1550q-40 0 -81 35l-205 176q-43 35 -43 90t38 95t88 39q50 0 89 -33l137 -121l175 125q39 29 89 29t85 -36q34 -35 34 -93t-77 -113l-236 -158q-53 -35 -93 -35zM559 311q207 0 306 70q154 109 175 428q14 156 -67 243q-82 87 -219 87h-189l-139 -828h133zM266 0
q-98 0 -153 66t-37 167l168 990q41 233 266 233h256q315 0 473 -170q226 -243 104 -743q-73 -285 -269 -414t-519 -129h-289z" />
    <glyph glyph-name="dcaron" unicode="&#x10f;" horiz-adv-x="1425" 
d="M1251 1220q0 40 40 93t46 98l27 137q10 55 46 88t91 33t89 -44t22 -101l-25 -113q-31 -147 -90 -219t-121 -72t-94 30q-31 30 -31 70zM547 295q84 0 151 53l70 422q-63 47 -162 47q-150 0 -190 -164q-25 -96 -29 -184q-8 -174 160 -174zM860 1319q28 158 176 158
q74 -1 120 -59t30 -148l-180 -1073q-7 -52 -39 -81q-10 -9 -37 -26q-174 -110 -386 -110t-354 131q-141 131 -127 362q6 97 46 273q41 176 173 281t284 105t255 -51z" />
    <glyph glyph-name="Dcroat" unicode="&#x110;" horiz-adv-x="1460" 
d="M557 311q207 0 306 70q154 109 175 428q14 156 -67 243q-82 87 -219 87h-189l-45 -267h162q74 0 113 -40t39 -100t-45 -107q-44 -47 -121 -47h-197l-45 -267h133zM264 0q-98 0 -152 66t-38 167l57 345h-8q-72 0 -111 40t-39 102q1 60 49 106t132 46h28l60 351
q41 233 270 233h238q324 0 484 -170q229 -242 107 -743q-73 -285 -269 -414t-519 -129h-289z" />
    <glyph glyph-name="dcroat" unicode="&#x111;" horiz-adv-x="1220" 
d="M606 817q-150 0 -190 -164q-25 -96 -29 -184q-8 -174 160 -174q83 0 151 53l70 422q-63 47 -162 47zM608 1289q0 54 43 97t111 44h119q16 72 63 104q46 33 106 33t103 -36t43 -87v-14h18q54 0 88 -33t34 -86t-42 -97q-41 -44 -106 -43h-19l-163 -974q-8 -41 -24 -63
t-52 -44q-178 -110 -389 -110t-354 133q-142 133 -124 360q10 125 41 254q50 205 182 305t282 100t253 -51l15 90h-107q-53 0 -87 32t-34 86z" />
    <glyph glyph-name="Emacron" unicode="&#x112;" horiz-adv-x="1257" 
d="M662 1548q-66 0 -103 37t-37 91t44 98t120 45h297q61 0 95 -37t34 -90q0 -52 -42 -98t-112 -46h-296zM510 1456h563q88 0 132 -43t44 -111t-50 -111q-50 -42 -130 -42h-510l-47 -272h428q74 0 116 -42q42 -41 42 -105t-46 -107t-114 -43h-471l-47 -269h506q78 0 122 -45
q44 -46 44 -112t-50 -110t-120 -44h-654q-115 0 -163 67t-29 181l164 975q39 233 270 233z" />
    <glyph glyph-name="emacron" unicode="&#x113;" horiz-adv-x="1130" 
d="M551 1225q-67 0 -103 37t-36 91t44 98t119 44h297q62 0 96 -37t34 -90t-43 -98q-42 -45 -111 -45h-297zM731 655q18 0 25 25q20 84 -19 129t-119 45q-165 0 -196 -199h309zM847 344q46 0 82 -38t36 -88t-32 -92t-75 -65q-150 -82 -319 -81q-223 0 -355 122
q-131 123 -121 336q4 88 44 282q41 194 189 304t347 109q199 1 329 -139t83 -353l-11 -47q-41 -158 -172 -158h-485q-14 -84 36 -124t118 -40t100 12q31 12 54 18q23 7 61 26q45 16 91 16z" />
    <glyph glyph-name="Edotaccent" unicode="&#x116;" horiz-adv-x="1257" 
d="M816 1546q-66 0 -106 39t-40 105t50 117t116 51t106 -38q41 -38 41 -106t-50 -118t-117 -50zM510 1456h563q88 0 132 -43t44 -111t-50 -111q-50 -42 -130 -42h-510l-47 -272h428q74 0 116 -42q42 -41 42 -105t-46 -107t-114 -43h-471l-47 -269h506q78 0 122 -45
q44 -46 44 -112t-50 -110t-120 -44h-654q-115 0 -163 67t-29 181l164 975q39 233 270 233z" />
    <glyph glyph-name="edotaccent" unicode="&#x117;" horiz-adv-x="1130" 
d="M710 1524q66 0 107 -38t41 -106t-50 -118t-117 -50t-107 39t-39 105q0 66 50 117q49 51 115 51zM731 655q18 0 25 25q20 84 -19 129t-119 45q-165 0 -196 -199h309zM847 344q46 0 82 -38t36 -88t-32 -92t-75 -65q-150 -82 -319 -81q-223 0 -355 122q-131 123 -121 336
q4 88 44 282q41 194 189 304t347 109q199 1 329 -139t83 -353l-11 -47q-41 -158 -172 -158h-485q-14 -84 36 -124t118 -40t100 12q31 12 54 18q23 7 61 26q45 16 91 16z" />
    <glyph glyph-name="Eogonek" unicode="&#x118;" horiz-adv-x="1245" 
d="M792 -469q-103 0 -177 65q-73 66 -73 188t99 216h-373q-115 0 -163 67t-29 181l164 975q39 233 270 233h563q88 0 132 -43t44 -111t-50 -111q-50 -42 -130 -42h-510l-47 -281h430q72 0 113 -41t41 -102t-45 -103t-111 -42h-473l-47 -269h506q78 0 122 -45t44 -112
q0 -104 -119 -148q-197 -72 -197 -190q0 -34 20 -52t42 -18q24 0 59 15t61 15t49 -24q24 -25 23 -61q0 -59 -68 -109t-170 -51z" />
    <glyph glyph-name="eogonek" unicode="&#x119;" horiz-adv-x="1130" 
d="M731 655q18 0 25 25q20 84 -19 129t-119 45q-165 0 -196 -199h309zM803 -309q0 -59 -67 -109t-170 -49q-103 -1 -177 63t-74 183t93 215q-168 33 -261 149q-92 117 -84 295q4 88 44 282q41 194 189 304t345 109q197 1 329 -137t85 -355l-11 -47q-41 -158 -172 -158h-485
q-14 -84 36 -124t118 -40t100 12q31 12 54 18q23 7 61 26q45 16 91 16t82 -38t36 -91q0 -109 -172 -186q-244 -111 -244 -213q0 -34 19 -52q18 -18 42 -18t58 15q73 33 111 -9q24 -25 24 -61z" />
    <glyph glyph-name="Ecaron" unicode="&#x11a;" horiz-adv-x="1257" 
d="M799 1550q-41 0 -82 35l-205 176q-43 35 -43 90t38 95t88 39q50 0 89 -33l137 -121l174 125q39 29 89 29t85 -36q35 -35 35 -93t-78 -113l-235 -158q-51 -35 -92 -35zM510 1456h563q88 0 132 -43t44 -111t-50 -111q-50 -42 -130 -42h-510l-47 -272h428q74 0 116 -42
q42 -41 42 -105t-46 -107t-114 -43h-471l-47 -269h506q78 0 122 -45q44 -46 44 -112t-50 -110t-120 -44h-654q-115 0 -163 67t-29 181l164 975q39 233 270 233z" />
    <glyph glyph-name="ecaron" unicode="&#x11b;" horiz-adv-x="1153" 
d="M683 1217q-40 0 -81 34l-205 176q-43 35 -43 91t38 94q38 39 88 39t89 -33l138 -121l174 125q39 29 89 29t85 -36q35 -35 35 -93t-78 -113l-236 -158q-53 -34 -93 -34zM731 655q18 0 25 25q20 84 -19 129t-119 45q-165 0 -196 -199h309zM847 344q46 0 82 -38t36 -88
t-32 -92t-75 -65q-150 -82 -319 -81q-223 0 -355 122q-131 123 -121 336q4 88 44 282q41 194 189 304t347 109q199 1 329 -139t83 -353l-11 -47q-41 -158 -172 -158h-485q-14 -84 36 -124t118 -40t100 12q31 12 54 18q23 7 61 26q45 16 91 16z" />
    <glyph glyph-name="Gbreve" unicode="&#x11e;" horiz-adv-x="1411" 
d="M872 1534q-116 0 -198 51t-117 139q-18 45 -18 96q0 52 39 82t88 30q50 0 74 -30q24 -28 35 -62t19 -46q19 -31 66 -32q47 0 71 20t44 63q41 86 121 86q53 1 85 -31q56 -56 16 -149t-124 -155t-201 -62zM838 506q-76 0 -119 43t-43 109t48 110q48 43 118 43h274
q84 0 130 -44t43 -120q-12 -298 -181 -500q-68 -80 -184 -127t-267 -47q-257 0 -417 154t-160 416q0 109 28 252t62 235q86 223 239 333t394 110q172 0 307 -79t180 -188q27 -60 27 -120t-45 -110t-113 -50q-98 0 -147 86q-80 137 -212 137q-132 1 -204 -63t-121 -216
t-49 -298t72 -216t188 -69q203 0 256 190l6 29h-110z" />
    <glyph glyph-name="gbreve" unicode="&#x11f;" horiz-adv-x="1187" 
d="M749 1198q-117 0 -199 51t-116 140q-18 45 -18 96t39 81t88 30t73 -30q24 -28 36 -62q10 -34 18 -46q19 -31 67 -32q47 0 71 20t44 63q41 86 121 86q53 1 85 -31t32 -73t-19 -82q-37 -87 -121 -149t-201 -62zM608 817q-150 0 -190 -164q-25 -109 -29 -184
q-8 -174 160 -174q86 0 151 53l70 422q-64 47 -162 47zM436 -424q-94 0 -190 29t-152 65q-90 61 -90 152q0 59 42 103t100 44t106 -26q115 -63 215 -64q166 0 190 176q-88 -33 -180 -32q-197 -1 -311 117t-100 333q6 96 40 254q90 406 517 406q147 0 263 -44
q116 -45 178 -95t50 -124l-133 -817q-78 -477 -545 -477z" />
    <glyph glyph-name="Gdotaccent" unicode="&#x120;" horiz-adv-x="1411" 
d="M872 1858q66 0 107 -38t41 -106t-50 -118t-117 -50t-107 39t-40 105t51 117q49 51 115 51zM838 506q-76 0 -119 43t-43 109t48 110q48 43 118 43h274q84 0 130 -44t43 -120q-12 -298 -181 -500q-68 -80 -184 -127t-267 -47q-257 0 -417 154t-160 416q0 109 28 252t62 235
q86 223 239 333t394 110q172 0 307 -79t180 -188q27 -60 27 -120t-45 -110t-113 -50q-98 0 -147 86q-80 137 -212 137q-132 1 -204 -63t-121 -216t-49 -298t72 -216t188 -69q203 0 256 190l6 29h-110z" />
    <glyph glyph-name="gdotaccent" unicode="&#x121;" horiz-adv-x="1187" 
d="M575 1358q0 66 50 117q49 51 115 51t108 -38t41 -106q0 -68 -50 -118t-117 -50t-107 39t-40 105zM608 817q-150 0 -190 -164q-25 -109 -29 -184q-8 -174 160 -174q86 0 151 53l70 422q-64 47 -162 47zM436 -424q-94 0 -190 29t-152 65q-90 61 -90 152q0 59 42 103t100 44
t106 -26q115 -63 215 -64q166 0 190 176q-88 -33 -180 -32q-197 -1 -311 117t-100 333q6 96 40 254q90 406 517 406q147 0 263 -44q116 -45 178 -95t50 -124l-133 -817q-78 -477 -545 -477z" />
    <glyph glyph-name="Gcommaaccent" unicode="&#x122;" horiz-adv-x="1411" 
d="M518 -586q-60 0 -93 30q-32 30 -32 70t39 91t47 98l21 119q10 55 46 88t91 33t88 -44t23 -102l-19 -94q-27 -141 -80 -207q-71 -82 -131 -82zM838 506q-76 0 -119 43t-43 109t48 110q48 43 118 43h274q84 0 130 -44t43 -120q-12 -298 -181 -500q-68 -80 -184 -127
t-267 -47q-257 0 -417 154t-160 416q0 109 28 252t62 235q86 223 239 333t394 110q172 0 307 -79t180 -188q27 -60 27 -120t-45 -110t-113 -50q-98 0 -147 86q-80 137 -212 137q-132 1 -204 -63t-121 -216t-49 -298t72 -216t188 -69q203 0 256 190l6 29h-110z" />
    <glyph glyph-name="gcommaaccent" unicode="&#x123;" horiz-adv-x="1187" 
d="M702 1229q-60 -1 -93 29q-66 61 3 157q43 55 52 103l20 118q10 55 46 88t91 33t88 -44t23 -101l-19 -94q-27 -141 -79 -207q-72 -82 -132 -82zM608 817q-150 0 -190 -164q-25 -109 -29 -184q-8 -174 160 -174q86 0 151 53l70 422q-64 47 -162 47zM436 -424q-94 0 -190 29
t-152 65q-90 61 -90 152q0 59 42 103t100 44t106 -26q115 -63 215 -64q166 0 190 176q-88 -33 -180 -32q-197 -1 -311 117t-100 333q6 96 40 254q90 406 517 406q147 0 263 -44q116 -45 178 -95t50 -124l-133 -817q-78 -477 -545 -477z" />
    <glyph glyph-name="imacron" unicode="&#x12b;" horiz-adv-x="643" 
d="M377 1120q74 0 119 -59t30 -150l-127 -766q-12 -73 -58 -113q-47 -40 -119 -40t-119 57q-45 58 -29 148l127 766q28 157 176 157zM258 1225q-66 0 -102 37t-37 91q0 54 44 98t120 44h297q61 0 95 -37t34 -90t-42 -98t-112 -45h-297z" />
    <glyph glyph-name="Iogonek" unicode="&#x12e;" horiz-adv-x="661" 
d="M426 -309q0 -59 -68 -109t-168 -51q-100 0 -166 60t-65 161q0 174 158 295q-49 57 -33 152l184 1097q14 76 60 118t118 42q74 0 118 -60t28 -151l-182 -1098q-10 -53 -28 -81t-68 -59q-52 -30 -100 -80t-48 -97t21 -66q23 -18 47 -18t57 15q72 33 111 -9q24 -25 24 -61z
" />
    <glyph glyph-name="iogonek" unicode="&#x12f;" horiz-adv-x="647" 
d="M623 1385q1 -71 -51 -127t-125 -56t-119 48t-47 121q0 73 53 125t126 52t118 -46t45 -117zM196 -469q-101 0 -167 60t-66 161q0 172 158 293q-49 57 -33 152l127 766q28 157 176 157q74 0 119 -59t31 -150l-127 -766q-16 -96 -107 -145q-135 -72 -135 -178q0 -40 22 -58
t45 -18t58 15t61 15t51 -24q24 -25 23 -61q0 -59 -68 -109t-168 -51z" />
    <glyph glyph-name="Idotaccent" unicode="&#x130;" horiz-adv-x="661" 
d="M470 1546q-66 0 -106 39t-40 105t50 117t116 51t106 -38q41 -38 41 -106t-50 -118t-117 -50zM222 -8q-72 0 -119 58q-46 58 -29 149l184 1097q12 76 58 118t119 42t118 -60t29 -151l-183 -1098q-12 -75 -58 -115q-47 -40 -119 -40z" />
    <glyph glyph-name="dotlessi" unicode="&#x131;" horiz-adv-x="641" 
d="M377 1120q74 0 119 -59t30 -150l-127 -766q-12 -73 -58 -113q-47 -40 -119 -40t-119 57q-45 58 -29 148l127 766q28 157 176 157z" />
    <glyph glyph-name="Kcommaaccent" unicode="&#x136;" horiz-adv-x="1382" 
d="M490 -586q-60 0 -92 30q-66 62 3 157q43 55 52 102l20 119q10 55 46 88t91 33t88 -44t23 -102l-19 -94q-27 -141 -79 -207q-73 -82 -133 -82zM222 -8q-72 0 -119 58q-46 58 -29 149l184 1097q12 74 58 117t119 43t118 -60t29 -151l-56 -334h13q31 -1 51 9t55 45l422 415
q71 70 139 70t112 -44t44 -111t-64 -128l-460 -432l336 -467q82 -132 -2 -228q-42 -48 -124 -48t-141 84l-325 461q-20 31 -42 39t-59 8h-10l-72 -437q-12 -75 -58 -115q-47 -40 -119 -40z" />
    <glyph glyph-name="kcommaaccent" unicode="&#x137;" horiz-adv-x="1181" 
d="M442 -586q-60 0 -93 30q-32 30 -32 70t39 91t47 98l21 119q10 55 46 88t91 33t88 -44t23 -102l-19 -94q-27 -141 -80 -207q-71 -82 -131 -82zM436 1477q74 -1 120 -59t30 -148l-92 -555h14q31 0 44 7t46 40l276 297q70 74 136 74t112 -42q47 -42 47 -113t-63 -134
l-299 -293l219 -295q43 -56 43 -116t-40 -104t-107 -44q-96 0 -154 80l-221 307q-23 31 -82 31h-21l-45 -265q-12 -73 -58 -113q-47 -40 -119 -40t-119 57q-46 57 -29 148l186 1122q28 158 176 158z" />
    <glyph glyph-name="Lacute" unicode="&#x139;" horiz-adv-x="1114" 
d="M905 1829q0 -86 -104 -133l-275 -129q-84 -36 -148 20q-40 35 -40 92q0 82 80 119l272 131q43 21 94 21t86 -36t35 -85zM924 311q78 0 122 -45q44 -46 44 -112t-50 -110t-120 -44h-650q-113 0 -164 60t-30 173l178 1063q12 76 58 118t119 42t118 -60t29 -151l-156 -934
h502z" />
    <glyph glyph-name="lacute" unicode="&#x13a;" horiz-adv-x="620" 
d="M885 1829q0 -86 -105 -133l-274 -129q-85 -36 -149 20q-40 35 -40 92q0 82 80 119l273 131q43 21 94 21t86 -36t35 -85zM436 1477q74 -1 120 -59t30 -148l-187 -1125q-12 -73 -58 -113q-47 -40 -119 -40t-119 57q-45 58 -29 148l186 1122q28 158 176 158z" />
    <glyph glyph-name="Lcommaaccent" unicode="&#x13b;" horiz-adv-x="1114" 
d="M466 -586q-60 0 -92 30t-32 70t39 91t47 98l21 119q10 55 46 88t91 33t88 -44t22 -102l-18 -94q-27 -141 -80 -207q-72 -82 -132 -82zM924 311q78 0 122 -45q44 -46 44 -112t-50 -110t-120 -44h-650q-113 0 -164 60t-30 173l178 1063q12 76 58 118t119 42t118 -60
t29 -151l-156 -934h502z" />
    <glyph glyph-name="lcommaaccent" unicode="&#x13c;" horiz-adv-x="620" 
d="M90 -586q-60 0 -93 30q-32 30 -32 70t39 91t47 98l21 119q10 55 46 88t91 33t88 -44t22 -102l-18 -94q-27 -141 -80 -207q-71 -82 -131 -82zM436 1477q74 -1 120 -59t30 -148l-187 -1125q-12 -73 -58 -113q-47 -40 -119 -40t-119 57q-45 58 -29 148l186 1122
q28 158 176 158z" />
    <glyph glyph-name="Lcaron" unicode="&#x13d;" horiz-adv-x="1114" 
d="M831 1120q-51 0 -81 30t-31 70q0 40 40 93t46 98l26 137q11 55 47 88t91 33t89 -44t21 -101l-24 -113q-31 -147 -80 -207q-70 -84 -144 -84zM924 311q78 0 122 -45q44 -46 44 -112t-50 -110t-120 -44h-650q-113 0 -164 60t-30 173l178 1063q12 76 58 118t119 42t118 -60
t29 -151l-156 -934h502z" />
    <glyph glyph-name="lcaron" unicode="&#x13e;" horiz-adv-x="876" 
d="M686 1220q0 40 40 93t46 98l27 137q10 55 46 88t91 33t89 -44t22 -101l-25 -113q-31 -147 -90 -219q-60 -72 -122 -72t-93 30t-31 70zM436 1477q74 -1 120 -59t30 -148l-187 -1125q-12 -73 -58 -113q-47 -40 -119 -40t-119 57q-45 58 -29 148l186 1122q28 158 176 158z
" />
    <glyph glyph-name="Lslash" unicode="&#x141;" horiz-adv-x="1181" 
d="M-55 537q0 96 90 145l192 100l86 514q13 76 59 118t118 42t119 -60q46 -60 30 -151l-45 -274l98 51q39 20 90 20t95 -36q43 -37 43 -97q0 -104 -99 -155l-289 -150l-49 -293h502q78 0 121 -44q43 -43 43 -111t-48 -112t-120 -44h-649q-113 0 -163 60t-32 173l29 183
q-101 -50 -177 19q-44 40 -44 102z" />
    <glyph glyph-name="lslash" unicode="&#x142;" horiz-adv-x="759" 
d="M-25 616q0 78 80 119l166 86l84 498q29 158 177 158q74 -1 119 -59q46 -58 30 -148l-43 -258l18 10q37 18 83 18t81 -34t35 -86q0 -84 -86 -129l-184 -95l-91 -551q-12 -77 -59 -115t-119 -38t-116 58q-45 58 -31 147l51 311q-30 -20 -76 -20q-47 -1 -83 36t-36 92z" />
    <glyph glyph-name="Nacute" unicode="&#x143;" horiz-adv-x="1579" 
d="M731 1679q0 82 80 119l272 131q43 21 94 21t87 -36t34 -85q0 -86 -104 -133l-274 -129q-85 -36 -149 20q-40 35 -40 92zM1361 1456q73 0 119 -60t29 -151l-168 -973q-47 -281 -264 -280q-91 0 -159 53t-101 150l-280 831l-5 -2q-14 -168 -59 -440l-74 -437
q-12 -75 -58 -115q-47 -40 -119 -40t-119 58q-46 58 -29 149l166 979q25 143 99 211q75 67 178 67t159 -56t92 -155l287 -807h4q18 244 76 566l49 292q14 76 59 118t118 42z" />
    <glyph glyph-name="nacute" unicode="&#x144;" horiz-adv-x="1204" 
d="M1077 1491q0 -86 -104 -133l-275 -129q-84 -36 -148 20q-40 35 -40 92q0 82 80 119l272 131q43 21 94 21t86 -36t35 -85zM624 803q-82 0 -143 -39l-102 -619q-12 -73 -58 -113t-119 -40t-119 57t-30 148l119 708q14 76 76 115q178 113 408 113t360 -125t94 -342l-86 -521
q-24 -153 -178 -153q-74 0 -118 57t-30 148l76 454q12 74 -28 113t-122 39z" />
    <glyph glyph-name="Ncommaaccent" unicode="&#x145;" horiz-adv-x="1579" 
d="M560 -586q-60 0 -92 30t-32 70t39 91t47 98l21 119q10 55 46 88t91 33t88 -44t23 -102l-19 -94q-27 -141 -80 -207q-72 -82 -132 -82zM1361 1456q73 0 119 -60t29 -151l-168 -973q-47 -281 -264 -280q-91 0 -159 53t-101 150l-280 831l-5 -2q-14 -168 -59 -440l-74 -437
q-12 -75 -58 -115q-47 -40 -119 -40t-119 58q-46 58 -29 149l166 979q25 143 99 211q75 67 178 67t159 -56t92 -155l287 -807h4q18 244 76 566l49 292q14 76 59 118t118 42z" />
    <glyph glyph-name="ncommaaccent" unicode="&#x146;" horiz-adv-x="1204" 
d="M402 -586q-60 0 -92 30q-66 62 3 157q43 55 52 102l20 119q10 55 46 88t91 33t88 -44t23 -102l-19 -94q-27 -141 -79 -207q-73 -82 -133 -82zM624 803q-82 0 -143 -39l-102 -619q-12 -73 -58 -113t-119 -40t-119 57t-30 148l119 708q14 76 76 115q178 113 408 113
t360 -125t94 -342l-86 -521q-24 -153 -178 -153q-74 0 -118 57t-30 148l76 454q12 74 -28 113t-122 39z" />
    <glyph glyph-name="Ncaron" unicode="&#x147;" horiz-adv-x="1579" 
d="M931 1550q-40 0 -81 35l-205 176q-43 35 -43 90t38 95t88 39q50 0 89 -33l137 -121l174 125q39 29 89 29q49 0 85 -36q36 -35 36 -93t-78 -113l-236 -158q-53 -35 -93 -35zM1361 1456q73 0 119 -60t29 -151l-168 -973q-47 -281 -264 -280q-91 0 -159 53t-101 150
l-280 831l-5 -2q-14 -168 -59 -440l-74 -437q-12 -75 -58 -115q-47 -40 -119 -40t-119 58q-46 58 -29 149l166 979q25 143 99 211q75 67 178 67t159 -56t92 -155l287 -807h4q18 244 76 566l49 292q14 76 59 118t118 42z" />
    <glyph glyph-name="ncaron" unicode="&#x148;" horiz-adv-x="1204" 
d="M689 1219q-40 0 -81 34l-205 177q-43 35 -43 90t38 94t88 39t89 -33l138 -121l174 125q39 29 89 29t85 -36q35 -35 35 -93t-78 -113l-236 -158q-53 -34 -93 -34zM624 803q-82 0 -143 -39l-102 -619q-12 -73 -58 -113t-119 -40t-119 57t-30 148l119 708q14 76 76 115
q178 113 408 113t360 -125t94 -342l-86 -521q-24 -153 -178 -153q-74 0 -118 57t-30 148l76 454q12 74 -28 113t-122 39z" />
    <glyph glyph-name="Omacron" unicode="&#x14c;" horiz-adv-x="1492" 
d="M737 1548q-67 0 -103 37t-36 91t44 98t120 45h297q61 0 95 -37t34 -90q0 -52 -42 -98t-112 -46h-297zM727 295q231 0 301 276q33 127 41 267t-72 225q-81 86 -201 86t-208 -71t-120 -201t-42 -265t76 -226t225 -91zM716 -27q-276 1 -464 183t-170 469q8 137 37 280
q51 260 226 414t435 154q302 -1 480 -185t155 -465q-8 -106 -31 -241q-47 -289 -220 -449q-172 -160 -448 -160z" />
    <glyph glyph-name="omacron" unicode="&#x14d;" horiz-adv-x="1171" 
d="M551 1225q-67 0 -103 37t-36 91t44 98t119 44h297q62 0 96 -37t34 -90t-43 -98q-42 -45 -111 -45h-297zM600 817q-143 0 -184 -164q-25 -96 -29 -179t43 -131t122 -48t122 44q48 43 66 115t28 183q2 82 -44 131t-124 49zM624 1133q200 1 342 -131q140 -132 126 -363
q-8 -107 -48 -279t-172 -276t-311 -104q-225 0 -368 131t-130 362q8 125 41 254q48 199 184 303t336 103z" />
    <glyph glyph-name="Ohungarumlaut" unicode="&#x150;" horiz-adv-x="1492" 
d="M1092 1544q-58 0 -95 35t-37 97t46 104l196 192q44 49 104 49t97 -38t37 -98t-45 -101l-197 -191q-48 -49 -106 -49zM656 1544q-58 0 -96 35t-38 96t47 105l195 192q49 49 107 49q59 0 95 -38t36 -97t-44 -102l-198 -191q-46 -49 -104 -49zM727 295q231 0 301 276
q33 127 41 267t-72 225q-81 86 -201 86t-208 -71t-120 -201t-42 -265t76 -226t225 -91zM716 -27q-276 1 -464 183t-170 469q8 137 37 280q51 260 226 414t435 154q302 -1 480 -185t155 -465q-8 -106 -31 -241q-47 -289 -220 -449q-172 -160 -448 -160z" />
    <glyph glyph-name="ohungarumlaut" unicode="&#x151;" horiz-adv-x="1169" 
d="M908 1208q-58 0 -95 35t-37 97t45 104l197 192q45 50 104 50q58 0 96 -38t38 -98t-46 -102l-196 -191q-48 -49 -106 -49zM472 1208q-58 0 -96 35t-38 96t47 105l195 192q49 50 107 50t94 -38t36 -98t-43 -102l-199 -191q-45 -49 -103 -49zM600 817q-143 0 -184 -164
q-25 -96 -29 -179t43 -131t122 -48t122 44q48 43 66 115t28 183q2 82 -44 131t-124 49zM624 1133q200 1 342 -131q140 -132 126 -363q-8 -107 -48 -279t-172 -276t-311 -104q-225 0 -368 131t-130 362q8 125 41 254q48 199 184 303t336 103z" />
    <glyph glyph-name="OE" unicode="&#x152;" horiz-adv-x="2170" 
d="M860 1149q-342 0 -399 -309q-27 -141 -33 -201q-14 -143 65 -241t279 -97q119 0 232 31l129 784q-150 33 -273 33zM1972 1456q92 0 140 -45t49 -113q0 -68 -48 -108t-120 -41h-523l-45 -281h430q72 0 113 -41t41 -103t-45 -103t-113 -41h-471l-47 -269h506q76 0 120 -45
q44 -46 44 -112t-51 -110t-129 -44h-635l-473 -27q-287 1 -469 179t-164 473q8 135 37 280q113 567 753 568l596 -17h504z" />
    <glyph glyph-name="oe" unicode="&#x153;" horiz-adv-x="1781" 
d="M561 -20q-225 0 -368 130t-130 363q25 404 226 557q133 102 325 103q121 0 193 -37t135 -107q133 143 340 143t339 -134q132 -136 85 -357l-10 -47q-35 -158 -172 -158h-486q-14 -84 36 -124t122 -40t211 56q43 16 89 16t82 -38t36 -91q0 -88 -105 -154
q-129 -79 -315 -79t-330 127q-76 -65 -142 -97t-161 -32zM552 295q75 0 122 44q46 44 68 127t26 168t-43 134t-125 49q-143 0 -184 -164q-25 -96 -29 -179t43 -131t122 -48zM1380 655q18 0 25 25q23 84 -16 129t-119 45q-166 0 -197 -199h307z" />
    <glyph glyph-name="Racute" unicode="&#x154;" horiz-adv-x="1398" 
d="M1198 1829q0 -86 -104 -133l-275 -129q-84 -36 -148 20q-40 35 -40 92q0 82 80 119l272 131q43 21 94 21t86 -36t35 -85zM750 782q121 0 184 58t63 136q0 77 -53 120t-149 43h-232l-59 -357h246zM222 -8q-72 0 -119 58q-46 58 -29 149l176 1046q14 87 82 149t166 62h317
q244 0 387 -128t144 -331q0 -151 -88 -273t-257 -177l189 -289q37 -51 37 -114q0 -64 -45 -110t-115 -46q-104 0 -164 96l-219 352q-16 25 -26 36q-26 30 -74 30h-125l-60 -355q-12 -75 -58 -115q-47 -40 -119 -40z" />
    <glyph glyph-name="racute" unicode="&#x155;" horiz-adv-x="835" 
d="M346 1339q0 82 80 119l272 131q43 21 94 21q50 0 86 -36t35 -85q0 -86 -104 -133l-274 -129q-85 -36 -149 20q-40 35 -40 92zM883 942q0 -63 -43 -109t-117 -47q-25 0 -74 10t-84 11q-88 0 -106 -111l-90 -551q-13 -73 -59 -113t-118 -40t-119 57q-46 57 -30 148l96 571
q33 197 134 281t278 84q127 0 215 -35q117 -47 117 -156z" />
    <glyph glyph-name="Rcommaaccent" unicode="&#x156;" horiz-adv-x="1398" 
d="M490 -586q-60 0 -92 30q-66 62 3 157q43 55 52 102l20 119q10 55 46 88t91 33t88 -44t23 -102l-19 -94q-27 -141 -79 -207q-73 -82 -133 -82zM750 782q121 0 184 58t63 136q0 77 -53 120t-149 43h-232l-59 -357h246zM222 -8q-72 0 -119 58q-46 58 -29 149l176 1046
q14 87 82 149t166 62h317q244 0 387 -128t144 -331q0 -151 -88 -273t-257 -177l189 -289q37 -51 37 -114q0 -64 -45 -110t-115 -46q-104 0 -164 96l-219 352q-16 25 -26 36q-26 30 -74 30h-125l-60 -355q-12 -75 -58 -115q-47 -40 -119 -40z" />
    <glyph glyph-name="rcommaaccent" unicode="&#x157;" horiz-adv-x="835" 
d="M60 -586q-60 0 -92 30q-66 62 3 157q43 55 52 102l20 119q10 55 46 88t91 33t88 -44t23 -102l-19 -94q-27 -141 -79 -207q-73 -82 -133 -82zM893 942q0 -63 -43 -109t-117 -47q-25 0 -74 10t-84 11q-88 0 -106 -111l-90 -551q-12 -73 -58 -113t-119 -40t-119 57t-30 148
l97 571q33 197 134 281t277 84q127 0 215 -35q117 -47 117 -156z" />
    <glyph glyph-name="Rcaron" unicode="&#x158;" horiz-adv-x="1398" 
d="M800 1550q-40 0 -81 35l-205 176q-43 35 -43 90t38 95t88 39q50 0 89 -33l137 -121l174 125q39 29 89 29t85 -36q35 -35 35 -93t-78 -113l-235 -158q-53 -35 -93 -35zM750 782q121 0 184 58t63 136q0 77 -53 120t-149 43h-232l-59 -357h246zM222 -8q-72 0 -119 58
q-46 58 -29 149l176 1046q14 87 82 149t166 62h317q244 0 387 -128t144 -331q0 -151 -88 -273t-257 -177l189 -289q37 -51 37 -114q0 -64 -45 -110t-115 -46q-104 0 -164 96l-219 352q-16 25 -26 36q-26 30 -74 30h-125l-60 -355q-12 -75 -58 -115q-47 -40 -119 -40z" />
    <glyph glyph-name="rcaron" unicode="&#x159;" horiz-adv-x="835" 
d="M553 1217q-41 0 -82 34l-205 176q-43 35 -43 91t38 94q38 39 88 39t89 -33l137 -121l175 125q39 29 89 29t85 -36q34 -35 34 -93t-77 -113l-236 -158q-51 -34 -92 -34zM883 942q0 -63 -43 -109t-117 -47q-25 0 -74 10t-84 11q-88 0 -106 -111l-90 -551q-13 -73 -59 -113
t-118 -40t-119 57q-46 57 -30 148l96 571q33 197 134 281t278 84q127 0 215 -35q117 -47 117 -156z" />
    <glyph glyph-name="Sacute" unicode="&#x15a;" horiz-adv-x="1314" 
d="M1174 1829q0 -86 -105 -133l-274 -129q-85 -36 -149 20q-40 35 -40 92q0 82 80 119l272 131q43 21 94 21q50 0 86 -36t36 -85zM1194 425q0 -190 -151 -321t-392 -131q-182 1 -334 55q-296 106 -294 261q0 69 44 113t104 44t87 -13q28 -13 34 -16t21 -13
q161 -109 338 -109q86 0 142 37q55 37 55 88q0 76 -176 129q-233 74 -370 181q-136 108 -136 282q0 215 158 338t404 123t423 -103q113 -63 113 -170q0 -66 -41 -110t-109 -46q-68 0 -145 43q-123 61 -243 61t-166 -34q-46 -35 -46 -82q0 -48 52 -80t163 -65
q223 -68 344 -170t121 -292z" />
    <glyph glyph-name="sacute" unicode="&#x15b;" horiz-adv-x="1067" 
d="M1030 1491q0 -86 -104 -133l-275 -129q-84 -36 -148 20q-40 35 -40 92q0 82 80 119l272 131q43 21 94 21t86 -36t35 -85zM506 -20q-114 0 -228 34t-178 91q-64 59 -65 123q0 64 43 106t95 41q52 0 78 -17t91 -51t100 -38q35 -3 75 -3t73 23t33 46t-12 38t-61 35
q-50 20 -90 34t-67 25q-246 102 -246 301q1 174 131 269t326 95t330 -98q74 -54 74 -124t-38 -110t-92 -40t-142 42t-163 42q-104 0 -104 -62q1 -27 21 -42q20 -16 76 -34t96 -32q39 -14 100 -46q185 -97 182 -284q0 -162 -120 -263t-318 -101z" />
    <glyph glyph-name="Scedilla" unicode="&#x15e;" horiz-adv-x="1314" 
d="M180 446q70 0 140 -48t160 -76q89 -28 173 -27q84 0 140 37q55 37 55 88q0 76 -176 129q-233 74 -370 181q-136 108 -136 282q0 215 158 338t404 123t423 -103q113 -63 113 -170q0 -66 -41 -110t-109 -46q-68 0 -145 43q-123 61 -243 61t-166 -34q-46 -35 -46 -74
q0 -40 34 -68t68 -42t130 -49t168 -70q189 -91 246 -212q34 -71 34 -163q0 -201 -151 -332t-392 -131h-4l-22 -39q86 -8 140 -62t54 -136q0 -217 -317 -311q-50 -7 -56 -7q-38 0 -68 26t-30 69q0 81 122 117q138 40 138 108q0 37 -47 37l-67 -8q-49 1 -75 41t-3 86l51 96
q-125 22 -224 66t-153 96q-68 61 -68 133q0 73 45 117q43 44 113 44z" />
    <glyph glyph-name="scedilla" unicode="&#x15f;" horiz-adv-x="1067" 
d="M35 228q0 64 43 106t95 41q52 0 78 -17t91 -51t100 -38q35 -3 75 -3t73 23t33 46t-15 39t-62 35q-46 19 -86 33t-67 25q-246 102 -246 301q1 174 131 269t326 95t330 -98q74 -58 74 -126t-38 -108t-92 -40t-142 42t-163 42q-104 0 -104 -62q0 -27 20 -42q20 -16 77 -34
t96 -32t100 -46q184 -97 183 -296q-1 -138 -106 -237t-282 -113l-33 -48q86 -8 140 -62t53 -136q0 -217 -316 -311q-49 -7 -55 -7q-38 0 -68 26t-30 69q0 81 122 117q138 40 138 110q0 35 -47 35l-68 -8q-49 1 -76 41t-2 86l54 98q-180 31 -271 114q-63 58 -63 122z" />
    <glyph glyph-name="Scaron" unicode="&#x160;" horiz-adv-x="1314" 
d="M800 1550q-40 0 -81 35l-205 176q-43 35 -43 90t38 95t88 39q50 0 89 -33l137 -121l174 125q39 29 89 29t85 -36q35 -35 35 -93t-78 -113l-235 -158q-53 -35 -93 -35zM1194 425q0 -190 -151 -321t-392 -131q-182 1 -334 55q-296 106 -294 261q0 69 44 113t104 44t87 -13
q28 -13 34 -16t21 -13q161 -109 338 -109q86 0 142 37q55 37 55 88q0 76 -176 129q-233 74 -370 181q-136 108 -136 282q0 215 158 338t404 123t423 -103q113 -63 113 -170q0 -66 -41 -110t-109 -46q-68 0 -145 43q-123 61 -243 61t-166 -34q-46 -35 -46 -82q0 -48 52 -80
t163 -65q223 -68 344 -170t121 -292z" />
    <glyph glyph-name="scaron" unicode="&#x161;" horiz-adv-x="1067" 
d="M661 1194q-40 0 -81 35l-205 176q-43 35 -43 90t38 94t88 39t89 -33l137 -120l174 124q39 29 89 29t85 -36t35 -94t-78 -112l-235 -157q-53 -35 -93 -35zM506 -20q-114 0 -228 34t-178 91q-64 59 -65 123q0 64 43 106t95 41q52 0 78 -17t91 -51t100 -38q35 -3 75 -3
t73 23t33 46t-12 38t-61 35q-50 20 -90 34t-67 25q-246 102 -246 301q1 174 131 269t326 95t330 -98q74 -54 74 -124t-38 -110t-92 -40t-142 42t-163 42q-104 0 -104 -62q1 -27 21 -42q20 -16 76 -34t96 -32q39 -14 100 -46q185 -97 182 -284q0 -162 -120 -263t-318 -101z
" />
    <glyph glyph-name="Tcommaaccent" unicode="&#x162;" horiz-adv-x="1265" 
d="M352 -588q-60 0 -93 30q-32 30 -32 70t39 91t47 98l21 119q10 55 46 88t91 33t88 -44t23 -102l-19 -94q-27 -141 -80 -207q-71 -82 -131 -82zM244 1141q-76 0 -120 44q-44 43 -44 111t51 114t121 46h932q78 0 122 -47t44 -113t-50 -111q-50 -44 -145 -44h-293l-168 -991
q-12 -76 -59 -117t-119 -41t-118 58t-29 147l159 944h-284z" />
    <glyph glyph-name="tcommaaccent" unicode="&#x163;" horiz-adv-x="913" 
d="M286 -586q-60 0 -92 30t-32 70t39 91t47 98l20 119q10 55 46 88t91 33t89 -44t22 -102l-18 -94q-27 -141 -80 -207q-72 -82 -132 -82zM395 1364q80 0 121 -50t29 -124l-21 -125h215q70 0 111 -42t41 -103q0 -60 -45 -102t-111 -42h-262l-61 -354q-23 -137 92 -137
q37 0 86 17t91 17q42 1 81 -39t39 -100q0 -102 -111 -157q-96 -49 -217 -50q-215 0 -317 129t-66 347l127 741q31 174 178 174z" />
    <glyph glyph-name="Tcaron" unicode="&#x164;" horiz-adv-x="1265" 
d="M738 1550q-40 0 -81 35l-204 176q-43 35 -43 90t37 95q39 39 89 39t89 -33l137 -121l174 125q39 29 89 29t85 -36q35 -35 35 -93t-78 -113l-236 -158q-53 -35 -93 -35zM244 1141q-76 0 -120 44q-44 43 -44 111t51 114t121 46h932q78 0 122 -47t44 -113t-50 -111
q-50 -44 -145 -44h-293l-168 -991q-12 -76 -59 -117t-119 -41t-118 58t-29 147l159 944h-284z" />
    <glyph glyph-name="tcaron" unicode="&#x165;" horiz-adv-x="917" 
d="M659 1220q1 40 41 93t45 98l27 137q10 55 46 88t91 33t89 -44t22 -101l-25 -113q-31 -147 -90 -219t-121 -72t-94 30q-31 30 -31 70zM395 1364q80 0 121 -50t29 -124l-21 -125h215q70 0 111 -42t41 -103q0 -60 -45 -102t-111 -42h-262l-61 -354q-23 -137 92 -137
q37 0 86 17t91 17q42 1 81 -39t39 -100q0 -102 -111 -157q-96 -49 -217 -50q-215 0 -317 129t-66 347l127 741q31 174 178 174z" />
    <glyph glyph-name="Umacron" unicode="&#x16a;" horiz-adv-x="1482" 
d="M737 1548q-67 0 -103 37t-36 91t44 98t120 45h297q61 0 95 -37t34 -90q0 -52 -42 -98t-112 -46h-297zM725 -27q-287 0 -466 183q-89 90 -127 238t-5 337l96 565q29 160 181 160q74 0 117 -57q42 -57 28 -152l-92 -565q-31 -182 40 -284t212 -103q244 0 297 334l110 667
q27 160 168 160q84 0 128 -62t30 -149l-103 -614q-57 -342 -211 -500t-403 -158z" />
    <glyph glyph-name="umacron" unicode="&#x16b;" horiz-adv-x="1198" 
d="M557 1225q-67 0 -103 37t-36 91t44 98t120 44h297q61 0 95 -37t34 -90t-42 -98t-112 -45h-297zM338 1120q74 0 118 -58t29 -149l-71 -432q-14 -84 26 -129t115 -45q76 0 150 45l100 611q25 157 176 157q74 0 120 -59t29 -150l-118 -702q-14 -76 -74 -115
q-182 -114 -402 -114t-355 143q-136 143 -97 379l76 461q28 157 178 157z" />
    <glyph glyph-name="Uring" unicode="&#x16e;" horiz-adv-x="1482" 
d="M917 1853q-32 1 -56 -23q-23 -24 -23 -56t20 -54q20 -20 52 -20t55 24t23 59q0 34 -20 52q-19 18 -51 18zM908 1536q-108 0 -174 63t-66 165t74 180q76 78 182 78t172 -63t66 -165t-74 -180q-72 -78 -180 -78zM725 -27q-287 0 -466 183q-89 90 -127 238t-5 337l96 565
q29 160 181 160q74 0 117 -57q42 -57 28 -152l-92 -565q-31 -182 40 -284t212 -103q244 0 297 334l110 667q27 160 168 160q84 0 128 -62t30 -149l-103 -614q-57 -342 -211 -500t-403 -158z" />
    <glyph glyph-name="uring" unicode="&#x16f;" horiz-adv-x="1198" 
d="M720 1374q32 0 54 25t23 59t-19 51q-20 19 -51 19t-55 -25t-25 -57q1 -32 21 -52t52 -20zM733 1696q106 0 172 -62t66 -165q-1 -103 -73 -181t-180 -78t-174 64q-67 64 -67 164q0 102 75 180t181 78zM338 1120q74 0 118 -58t29 -149l-71 -432q-14 -84 26 -129t115 -45
q76 0 150 45l100 611q25 157 176 157q74 0 120 -59t29 -150l-118 -702q-14 -76 -74 -115q-182 -114 -402 -114t-355 143q-136 143 -97 379l76 461q28 157 178 157z" />
    <glyph glyph-name="Uhungarumlaut" unicode="&#x170;" horiz-adv-x="1482" 
d="M1132 1544q-58 0 -94 35q-37 35 -37 97t46 104l196 192q45 49 105 49t96 -38q37 -38 37 -98t-45 -101l-197 -191q-49 -49 -107 -49zM698 1544q-58 0 -97 35q-38 35 -38 96t47 105l195 192q49 49 107 49t94 -38t36 -97t-43 -102l-198 -191q-45 -49 -103 -49zM725 -27
q-287 0 -466 183q-89 90 -127 238t-5 337l96 565q29 160 181 160q74 0 117 -57q42 -57 28 -152l-92 -565q-31 -182 40 -284t212 -103q244 0 297 334l110 667q27 160 168 160q84 0 128 -62t30 -149l-103 -614q-57 -342 -211 -500t-403 -158z" />
    <glyph glyph-name="uhungarumlaut" unicode="&#x171;" horiz-adv-x="1198" 
d="M782 1342q0 62 45 104l197 192q45 50 104 50q58 0 96 -38t38 -98t-45 -102l-197 -190q-48 -50 -106 -50t-95 35t-37 97zM344 1341q0 61 47 105l195 192q49 50 107 50t94 -38t36 -98t-43 -102l-198 -190q-46 -50 -104 -50t-96 35t-38 96zM338 1120q74 0 118 -58t29 -149
l-71 -432q-14 -84 26 -129t115 -45q76 0 150 45l100 611q25 157 176 157q74 0 120 -59t29 -150l-118 -702q-14 -76 -74 -115q-182 -114 -402 -114t-355 143q-136 143 -97 379l76 461q28 157 178 157z" />
    <glyph glyph-name="Uogonek" unicode="&#x172;" horiz-adv-x="1482" 
d="M889 -309q0 -61 -68 -111t-171 -51t-177 65t-74 182t113 228q-213 60 -324 248t-61 479l96 565q13 78 61 119t122 41t117 -58q42 -58 26 -151l-92 -565q-31 -182 40 -284t214 -103q242 0 295 334l110 667q24 160 178 160q74 0 118 -61t30 -150l-103 -614
q-104 -618 -557 -654q-55 -4 -101 -44t-46 -92q0 -95 67 -95q6 0 45 16t67 15q28 0 52 -25t23 -61z" />
    <glyph glyph-name="uogonek" unicode="&#x173;" horiz-adv-x="1198" 
d="M673 -469q-103 0 -177 65q-74 66 -74 176t92 210h-8q-192 0 -323 137q-62 66 -90 166t-9 217l76 461q28 157 178 157q74 0 118 -58t29 -149l-71 -432q-14 -84 26 -129t115 -45q76 0 150 45l100 611q25 157 176 157q74 0 120 -59t29 -150l-118 -702q-14 -76 -74 -115
q-23 -14 -81 -44t-96 -54t-71 -68q-33 -45 -33 -92q-1 -48 19 -70t42 -22t58 15t62 15t50 -24q24 -25 23 -61q1 -59 -67 -109t-171 -49z" />
    <glyph glyph-name="Wcircumflex" unicode="&#x174;" horiz-adv-x="1964" 
d="M819 1530q-45 0 -79 35t-34 91t68 107l248 187q45 32 99 32t93 -38l197 -187q53 -51 53 -105t-36 -89t-89 -35t-96 43l-143 131l-191 -141q-45 -31 -90 -31zM1340 344q5 0 8 6l303 948q49 158 178 158q76 0 124 -45t48 -113q0 -31 -14 -73l-373 -1018q-86 -233 -273 -234
q-113 0 -195 73t-85 220l-23 797q0 10 -10 6l-4 -6l-287 -856q-81 -231 -293 -233q-100 0 -177 81q-77 82 -83 197l-55 989q-6 103 48 159t124 56t121 -47t53 -125l21 -932q0 -10 8 -8q4 2 4 6l283 869q80 238 276 237q98 0 167 -70t73 -204l28 -832q0 -6 5 -6z" />
    <glyph glyph-name="wcircumflex" unicode="&#x175;" horiz-adv-x="1652" 
d="M677 1196q-44 0 -78 35t-34 91t68 108l248 186q45 33 99 33t93 -39l197 -187q53 -51 53 -105t-36 -89t-89 -35t-96 43l-144 131l-190 -141q-47 -31 -91 -31zM850 688q-8 0 -12 -10l-164 -457q-44 -123 -108 -176t-166 -53t-172 68q-71 68 -78 180l-48 665q-8 103 39 159
t121 56t120 -44q48 -44 50 -120l12 -360q2 -45 -8 -268q0 -8 8 -9q8 0 11 9q31 104 80 239l131 361q72 193 243 192q93 0 147 -60t58 -159l10 -313q2 -84 2 -258q0 -10 9 -11q8 0 10 9q51 184 53 188l154 469q43 135 161 135q90 0 137 -70q46 -71 3 -180l-250 -653
q-86 -225 -285 -225q-104 0 -173 70t-73 176l-14 440q0 10 -8 10z" />
    <glyph glyph-name="Ycircumflex" unicode="&#x176;" horiz-adv-x="1308" 
d="M525 1530q-44 0 -78 35q-33 35 -33 91t67 107l248 187q45 32 99 32t94 -38l196 -187q53 -51 53 -105q1 -54 -35 -89t-89 -35t-97 43l-143 131l-191 -141q-47 -31 -91 -31zM61 1294q1 64 51 113t124 49q96 0 159 -104l271 -437l446 471q66 70 142 70t121 -47
q46 -47 46 -121t-67 -141l-490 -498q-63 -66 -71 -119l-64 -383q-12 -75 -58 -115t-119 -40t-119 58t-30 149l56 331q12 75 -27 134l-336 510q-35 56 -35 120z" />
    <glyph glyph-name="ycircumflex" unicode="&#x177;" horiz-adv-x="1089" 
d="M403 1198q-44 0 -78 35t-34 91t67 108l248 186q45 33 99 33t94 -39l196 -187q53 -51 53 -105t-35 -89q-36 -35 -89 -35t-97 43l-143 131l-190 -141q-47 -31 -91 -31zM526 410q12 0 17 12q43 121 157 346l125 242q57 110 159 110t142 -85t-10 -169l-485 -862
q-141 -254 -277 -354q-96 -72 -200 -72q-61 0 -107 42q-45 42 -45 100t26 91q26 34 83 64q111 59 190 195l-197 821q-22 98 24 164q46 65 125 65q154 -1 183 -153l39 -195q31 -166 39 -350q0 -12 12 -12z" />
    <glyph glyph-name="Ydieresis" unicode="&#x178;" horiz-adv-x="1308" 
d="M1004 1753q66 0 108 -38q41 -37 41 -105t-50 -118t-118 -50q-69 0 -107 39t-38 105t49 117q49 50 115 50zM604 1753q66 0 108 -38q40 -37 40 -105t-50 -118t-118 -50q-66 0 -106 39t-40 105t50 116q50 51 116 51zM61 1294q1 64 51 113t124 49q96 0 159 -104l271 -437
l446 471q66 70 142 70t121 -47q46 -47 46 -121t-67 -141l-490 -498q-63 -66 -71 -119l-64 -383q-12 -75 -58 -115t-119 -40t-119 58t-30 149l56 331q12 75 -27 134l-336 510q-35 56 -35 120z" />
    <glyph glyph-name="Zacute" unicode="&#x179;" horiz-adv-x="1267" 
d="M1190 1829q0 -86 -105 -133l-274 -129q-84 -36 -148 20q-40 35 -40 92q-1 82 79 119l273 131q43 21 94 21t86 -36t35 -85zM977 0h-758q-98 0 -152 54q-55 54 -55 136t105 201l671 754h-436q-78 0 -124 43q-46 42 -46 108t50 113t120 47h717q97 0 149 -51t52 -117
t-29 -114q-29 -47 -86 -113l-668 -750h494q76 0 120 -45q44 -46 44 -112t-49 -110t-119 -44z" />
    <glyph glyph-name="zacute" unicode="&#x17a;" horiz-adv-x="1024" 
d="M434 1341q0 82 80 119l272 131q43 21 94 21q50 0 86 -36t35 -85q0 -86 -104 -133l-274 -129q-85 -36 -149 20q-40 35 -40 92zM758 299q76 0 116 -42q40 -43 41 -107q0 -64 -46 -107t-115 -43h-580q-82 0 -130 48t-48 122t65 139l476 490h-271q-78 0 -119 42
q-41 43 -41 107t46 107t116 43h547q90 0 139 -48t49 -122t-61 -140l-473 -489h289z" />
    <glyph glyph-name="Zdotaccent" unicode="&#x17b;" horiz-adv-x="1267" 
d="M826 1858q66 0 108 -38t41 -106q0 -68 -50 -118t-117 -50t-107 39q-39 39 -39 105t50 117q48 51 114 51zM977 0h-758q-98 0 -152 54q-55 54 -55 136t105 201l671 754h-436q-78 0 -124 43q-46 42 -46 108t50 113t120 47h717q97 0 149 -51t52 -117t-29 -114
q-29 -47 -86 -113l-668 -750h494q76 0 120 -45q44 -46 44 -112t-49 -110t-119 -44z" />
    <glyph glyph-name="zdotaccent" unicode="&#x17c;" horiz-adv-x="1024" 
d="M489 1356q0 66 50 117q49 51 115 51t108 -38t41 -106q0 -68 -50 -118t-117 -50t-107 39t-40 105zM758 299q76 0 116 -42q40 -43 41 -107q0 -64 -46 -107t-115 -43h-580q-82 0 -130 48t-48 122t65 139l476 490h-271q-78 0 -119 42q-41 43 -41 107t46 107t116 43h547
q90 0 139 -48t49 -122t-61 -140l-473 -489h289z" />
    <glyph glyph-name="Zcaron" unicode="&#x17d;" horiz-adv-x="1267" 
d="M755 1550q-40 0 -81 35l-205 176q-43 35 -43 90t38 95t88 39q50 0 89 -33l137 -121l174 125q39 29 89 29t85 -36q35 -35 35 -93t-78 -113l-235 -158q-53 -35 -93 -35zM977 0h-758q-98 0 -152 54q-55 54 -55 136t105 201l671 754h-436q-78 0 -124 43q-46 42 -46 108
t50 113t120 47h717q97 0 149 -51t52 -117t-29 -114q-29 -47 -86 -113l-668 -750h494q76 0 120 -45q44 -46 44 -112t-49 -110t-119 -44z" />
    <glyph glyph-name="zcaron" unicode="&#x17e;" horiz-adv-x="1024" 
d="M595 1219q-40 0 -81 34l-205 177q-43 35 -43 90t38 94t88 39t89 -33l137 -121l175 125q39 29 89 29t85 -36q35 -35 35 -93t-78 -113l-236 -158q-53 -34 -93 -34zM758 299q76 0 116 -42q40 -43 41 -107q0 -64 -46 -107t-115 -43h-580q-82 0 -130 48t-48 122t65 139
l476 490h-271q-78 0 -119 42q-41 43 -41 107t46 107t116 43h547q90 0 139 -48t49 -122t-61 -140l-473 -489h289z" />
    <glyph glyph-name="florin" unicode="&#x192;" horiz-adv-x="1218" 
d="M184 -418q-96 0 -145 72t-21 162l222 723h-31q-76 0 -124 43q-48 42 -48 114t49 117t123 45h129l96 307q44 141 148 215t243 74q225 0 357 -139q45 -47 45 -122t-46 -121t-115 -46t-120 43t-107 43t-75 -57l-59 -197h169q74 0 123 -44t49 -115t-50 -115q-52 -44 -122 -45
h-268l-252 -832q-16 -55 -64 -90t-106 -35z" />
    <glyph glyph-name="Scommaaccent" unicode="&#x218;" horiz-adv-x="1314" 
d="M512 -586q-60 0 -93 30q-32 30 -32 70t39 91t47 98l21 119q10 55 46 88t91 33t88 -44t22 -102l-18 -94q-27 -141 -80 -207q-71 -82 -131 -82zM1194 425q0 -190 -151 -321t-392 -131q-182 1 -334 55q-296 106 -294 261q0 69 44 113t104 44t87 -13q28 -13 34 -16t21 -13
q161 -109 338 -109q86 0 142 37q55 37 55 88q0 76 -176 129q-233 74 -370 181q-136 108 -136 282q0 215 158 338t404 123t423 -103q113 -63 113 -170q0 -66 -41 -110t-109 -46q-68 0 -145 43q-123 61 -243 61t-166 -34q-46 -35 -46 -82q0 -48 52 -80t163 -65
q223 -68 344 -170t121 -292z" />
    <glyph glyph-name="scommaaccent" unicode="&#x219;" horiz-adv-x="1067" 
d="M350 -586q-60 0 -93 30q-32 30 -32 70t39 91t47 98l21 119q10 55 46 88t91 33t88 -44t23 -102l-19 -94q-27 -141 -80 -207q-71 -82 -131 -82zM506 -20q-114 0 -228 34t-178 91q-64 59 -65 123q0 64 43 106t95 41q52 0 78 -17t91 -51t100 -38q35 -3 75 -3t73 23t33 46
t-12 38t-61 35q-50 20 -90 34t-67 25q-246 102 -246 301q1 174 131 269t326 95t330 -98q74 -54 74 -124t-38 -110t-92 -40t-142 42t-163 42q-104 0 -104 -62q1 -27 21 -42q20 -16 76 -34t96 -32q39 -14 100 -46q185 -97 182 -284q0 -162 -120 -263t-318 -101z" />
    <glyph glyph-name="circumflex" unicode="&#x2c6;" 
d="M261 1530q-44 0 -78 35q-33 35 -33 91t67 107l248 187q45 32 99 32t93 -38l197 -187q53 -51 53 -105t-36 -89t-89 -35t-96 43l-143 131l-191 -141q-47 -31 -91 -31z" />
    <glyph glyph-name="caron" unicode="&#x2c7;" 
d="M509 1550q-40 0 -81 35l-205 176q-43 35 -43 90t38 95t88 39q50 0 89 -33l137 -121l175 125q39 29 89 29t85 -36q35 -35 35 -93t-78 -113l-236 -158q-53 -35 -93 -35z" />
    <glyph glyph-name="breve" unicode="&#x2d8;" 
d="M596 1544q-117 0 -199 51t-116 140q-19 45 -19 96t39 81t88 30t74 -29t36 -63t18 -46q19 -32 66 -32t71 20t44 63q41 86 121 87q53 0 85 -32t32 -73t-18 -82q-37 -87 -121 -149t-201 -62z" />
    <glyph glyph-name="dotaccent" unicode="&#x2d9;" 
d="M393 1690q0 66 50 117q49 51 115 51t108 -38t41 -106t-51 -118t-116 -50t-107 39q-40 39 -40 105z" />
    <glyph glyph-name="ring" unicode="&#x2da;" 
d="M572 1853q-32 1 -56 -23t-24 -56t20 -54q20 -20 52 -20t54 24t23 59q0 34 -19 52q-18 18 -50 18zM562 1536q-108 0 -174 63t-66 165t74 180q76 78 182 78t172 -63t66 -165t-74 -180q-72 -78 -180 -78z" />
    <glyph glyph-name="ogonek" unicode="&#x2db;" 
d="M756 -309q0 -59 -68 -109t-170 -51q-102 0 -174 65t-72 179q0 240 340 372q80 32 121 -10q25 -25 25 -65q0 -63 -72 -90q-184 -70 -184 -166q0 -34 19 -52t43 -18t56 15q73 33 112 -9q24 -25 24 -61z" />
    <glyph glyph-name="tilde" unicode="&#x2dc;" 
d="M651 1534q-53 0 -137 41t-118 41t-79 -36t-83 -36t-77 35q-38 35 -38 84t69 109q113 96 218 96q57 0 144 -43t114 -43q28 0 74 45t89 45t79 -35t36 -89t-96 -134t-195 -80z" />
    <glyph glyph-name="hungarumlaut" unicode="&#x2dd;" 
d="M654 1544q-58 0 -95 35t-37 97t45 104l197 192q45 49 104 49q58 0 96 -38t38 -98t-46 -101l-196 -191q-48 -49 -106 -49zM218 1544q-58 0 -96 35t-38 96t47 105l195 192q49 49 107 49t94 -38t36 -97t-43 -102l-198 -191q-46 -49 -104 -49z" />
    <glyph glyph-name="Wgrave" unicode="&#x1e80;" horiz-adv-x="1964" 
d="M1135 1548q-53 0 -88 21l-275 147q-70 36 -70 102t38 105t83 39t78 -18l287 -160q72 -40 72 -100t-36 -98t-89 -38zM1340 344q5 0 8 6l303 948q49 158 178 158q76 0 124 -45t48 -113q0 -31 -14 -73l-373 -1018q-86 -233 -273 -234q-113 0 -195 73t-85 220l-23 797
q0 10 -10 6l-4 -6l-287 -856q-81 -231 -293 -233q-100 0 -177 81q-77 82 -83 197l-55 989q-6 103 48 159t124 56t121 -47t53 -125l21 -932q0 -10 8 -8q4 2 4 6l283 869q80 238 276 237q98 0 167 -70t73 -204l28 -832q0 -6 5 -6z" />
    <glyph glyph-name="wgrave" unicode="&#x1e81;" horiz-adv-x="1652" 
d="M997 1217q-53 0 -88 20l-274 147q-70 36 -70 102t39 105t82 39t78 -18l287 -160q72 -41 71 -111q0 -49 -36 -87t-89 -37zM850 688q-8 0 -12 -10l-164 -457q-44 -123 -108 -176t-166 -53t-172 68q-71 68 -78 180l-48 665q-8 103 39 159t121 56t120 -44q48 -44 50 -120
l12 -360q2 -45 -8 -268q0 -8 8 -9q8 0 11 9q31 104 80 239l131 361q72 193 243 192q93 0 147 -60t58 -159l10 -313q2 -84 2 -258q0 -10 9 -11q8 0 10 9q51 184 53 188l154 469q43 135 161 135q90 0 137 -70q46 -71 3 -180l-250 -653q-86 -225 -285 -225q-104 0 -173 70
t-73 176l-14 440q0 10 -8 10z" />
    <glyph glyph-name="Wacute" unicode="&#x1e82;" horiz-adv-x="1964" 
d="M1483 1829q0 -86 -105 -133l-274 -129q-85 -36 -149 20q-40 35 -40 92q0 82 80 119l273 131q43 21 94 21t86 -36t35 -85zM1340 344q5 0 8 6l303 948q49 158 178 158q76 0 124 -45t48 -113q0 -31 -14 -73l-373 -1018q-86 -233 -273 -234q-113 0 -195 73t-85 220l-23 797
q0 10 -10 6l-4 -6l-287 -856q-81 -231 -293 -233q-100 0 -177 81q-77 82 -83 197l-55 989q-6 103 48 159t124 56t121 -47t53 -125l21 -932q0 -10 8 -8q4 2 4 6l283 869q80 238 276 237q98 0 167 -70t73 -204l28 -832q0 -6 5 -6z" />
    <glyph glyph-name="wacute" unicode="&#x1e83;" horiz-adv-x="1652" 
d="M1313 1495q0 -86 -105 -133l-274 -129q-33 -14 -71 -14q-38 1 -78 35t-40 92q0 81 80 118l273 131q43 21 94 21t86 -36t35 -85zM850 688q-8 0 -12 -10l-164 -457q-44 -123 -108 -176t-166 -53t-172 68q-71 68 -78 180l-48 665q-8 103 39 159t121 56t120 -44
q48 -44 50 -120l12 -360q2 -45 -8 -268q0 -8 8 -9q8 0 11 9q31 104 80 239l131 361q72 193 243 192q93 0 147 -60t58 -159l10 -313q2 -84 2 -258q0 -10 9 -11q8 0 10 9q51 184 53 188l154 469q43 135 161 135q90 0 137 -70q46 -71 3 -180l-250 -653q-86 -225 -285 -225
q-104 0 -173 70t-73 176l-14 440q0 10 -8 10z" />
    <glyph glyph-name="Wdieresis" unicode="&#x1e84;" horiz-adv-x="1964" 
d="M1300 1546q-68 0 -106 39t-39 106q0 67 49 117q50 50 116 50t107 -38t41 -106t-50 -118t-118 -50zM900 1546q-66 0 -106 39t-40 105t50 117t116 51t107 -38q40 -38 40 -106t-50 -118t-117 -50zM1340 344q5 0 8 6l303 948q49 158 178 158q76 0 124 -45t48 -113
q0 -31 -14 -73l-373 -1018q-86 -233 -273 -234q-113 0 -195 73t-85 220l-23 797q0 10 -10 6l-4 -6l-287 -856q-81 -231 -293 -233q-100 0 -177 81q-77 82 -83 197l-55 989q-6 103 48 159t124 56t121 -47t53 -125l21 -932q0 -10 8 -8q4 2 4 6l283 869q80 238 276 237
q98 0 167 -70t73 -204l28 -832q0 -6 5 -6z" />
    <glyph glyph-name="wdieresis" unicode="&#x1e85;" horiz-adv-x="1652" 
d="M1168 1526q66 0 108 -38q41 -38 41 -106t-50 -118t-118 -50t-107 39q-38 39 -38 106t49 117t115 50zM768 1526q66 0 108 -38q40 -38 40 -106t-51 -118t-117 -50t-106 39t-40 105t50 117t116 51zM850 688q-8 0 -12 -10l-164 -457q-44 -123 -108 -176t-166 -53t-172 68
q-71 68 -78 180l-48 665q-8 103 39 159t121 56t120 -44q48 -44 50 -120l12 -360q2 -45 -8 -268q0 -8 8 -9q8 0 11 9q31 104 80 239l131 361q72 193 243 192q93 0 147 -60t58 -159l10 -313q2 -84 2 -258q0 -10 9 -11q8 0 10 9q51 184 53 188l154 469q43 135 161 135
q90 0 137 -70q46 -71 3 -180l-250 -653q-86 -225 -285 -225q-104 0 -173 70t-73 176l-14 440q0 10 -8 10z" />
    <glyph glyph-name="Ygrave" unicode="&#x1ef2;" horiz-adv-x="1308" 
d="M823 1548q-53 0 -88 21l-274 147q-70 36 -70 102t38 105t83 39t78 -18l287 -160q72 -41 71 -111q0 -49 -36 -87t-89 -38zM61 1294q1 64 51 113t124 49q96 0 159 -104l271 -437l446 471q66 70 142 70t121 -47q46 -47 46 -121t-67 -141l-490 -498q-63 -66 -71 -119
l-64 -383q-12 -75 -58 -115t-119 -40t-119 58t-30 149l56 331q12 75 -27 134l-336 510q-35 56 -35 120z" />
    <glyph glyph-name="ygrave" unicode="&#x1ef3;" horiz-adv-x="1089" 
d="M687 1210q-52 0 -89 21l-274 147q-70 38 -70 104t39 104t82 38t78 -18l286 -160q72 -40 72 -100t-36 -98t-88 -38zM526 410q12 0 17 12q43 121 157 346l125 242q57 110 159 110t142 -85t-10 -169l-485 -862q-141 -254 -277 -354q-96 -72 -200 -72q-61 0 -107 42
q-45 42 -45 100t26 91q26 34 83 64q111 59 190 195l-197 821q-22 98 24 164q46 65 125 65q154 -1 183 -153l39 -195q31 -166 39 -350q0 -12 12 -12z" />
    <glyph glyph-name="endash" unicode="&#x2013;" horiz-adv-x="1144" 
d="M70 589q0 73 55 121t133 48h641q80 0 127 -46t47 -119t-56 -122t-134 -49h-639q-84 0 -129 47t-45 120z" />
    <glyph glyph-name="emdash" unicode="&#x2014;" horiz-adv-x="1892" 
d="M70 589q0 73 55 121t133 48h1389q80 0 127 -46t47 -119q-1 -73 -57 -122t-134 -49h-1386q-84 0 -129 47t-45 120z" />
    <glyph glyph-name="quoteleft" unicode="&#x2018;" horiz-adv-x="534" 
d="M262 834q-64 0 -102 51t-25 116l19 111q24 160 98 250t164 90q59 0 95 -35t36 -83t-37 -95q-53 -53 -66 -127l-22 -137q-10 -66 -52 -104q-44 -37 -108 -37z" />
    <glyph glyph-name="quoteright" unicode="&#x2019;" horiz-adv-x="534" 
d="M246 834q-61 0 -98 34q-77 75 12 193q47 62 55 113l23 137q10 63 53 102t107 39t103 -51q38 -51 25 -119l-20 -111q-30 -161 -102 -249t-158 -88z" />
    <glyph glyph-name="quotesinglbase" unicode="&#x201a;" horiz-adv-x="456" 
d="M145 -246q-61 0 -97 35t-36 83t47 110t56 112l22 137q10 63 53 103t108 39q64 0 102 -51t26 -119l-20 -111q-29 -160 -95 -239q-80 -99 -166 -99z" />
    <glyph glyph-name="quotedblleft" unicode="&#x201c;" horiz-adv-x="937" 
d="M262 834q-64 0 -102 51t-25 116l19 111q24 160 98 250t164 90q59 0 95 -35t36 -83t-37 -95q-53 -53 -66 -127l-22 -137q-10 -66 -52 -104q-44 -37 -108 -37zM666 834q-64 0 -102 51t-25 116l18 111q25 160 99 250t163 90q59 0 95 -35t36 -83t-37 -95q-16 -15 -26 -33
t-22 -38t-17 -56l-23 -137q-10 -65 -52 -103q-43 -38 -107 -38z" />
    <glyph glyph-name="quotedblright" unicode="&#x201d;" horiz-adv-x="937" 
d="M246 834q-61 0 -98 34q-77 75 12 193q47 62 55 113l23 137q10 63 53 102t107 39t103 -51q38 -51 25 -119l-20 -111q-30 -161 -102 -249t-158 -88zM649 834q-61 0 -97 34t-36 83q0 48 47 110t55 113l23 137q10 63 53 102t108 39q64 0 102 -51t26 -119l-21 -111
q-29 -161 -101 -249t-159 -88z" />
    <glyph glyph-name="quotedblbase" unicode="&#x201e;" horiz-adv-x="933" 
d="M186 -246q-61 0 -97 35t-36 83t47 110t56 112l22 137q10 63 53 103t108 39q65 0 103 -51t25 -119l-21 -111q-30 -160 -102 -249t-158 -89zM594 -246q-61 0 -97 35t-36 83t47 110t55 112l23 137q10 63 53 103t107 39q64 0 103 -51q38 -51 25 -119l-20 -111
q-30 -160 -102 -249t-158 -89z" />
    <glyph glyph-name="dagger" unicode="&#x2020;" horiz-adv-x="1245" 
d="M260 745q-66 -1 -113 47t-47 118t58 119q58 50 139 50h229l35 201q11 74 61 124t124 50t120 -51q45 -51 33 -123l-37 -201h219q68 0 116 -47q48 -46 48 -118t-56 -120t-142 -49h-234l-139 -860q-12 -76 -56 -124t-122 -48q-76 -1 -123 53t-35 125l139 854h-217z" />
    <glyph glyph-name="daggerdbl" unicode="&#x2021;" horiz-adv-x="1245" 
d="M248 745q-62 1 -106 45t-44 116t58 122q58 51 141 51h227l33 201q12 74 61 124t124 50t120 -51t33 -123l-35 -201h236q68 0 108 -45q40 -46 41 -116q0 -70 -56 -121t-142 -52h-238l-53 -325h233q68 0 109 -45t41 -116q-1 -71 -57 -122t-142 -51h-240l-30 -201
q-12 -78 -56 -125t-120 -47q-78 -1 -125 53t-35 125l31 195h-224q-63 0 -106 44t-43 116t58 123t140 51h228l53 325h-223z" />
    <glyph glyph-name="bullet" unicode="&#x2022;" horiz-adv-x="925" 
d="M205 717q0 106 76 182t182 76t182 -76t76 -182t-76 -182t-182 -76t-182 76t-76 182z" />
    <glyph glyph-name="ellipsis" unicode="&#x2026;" horiz-adv-x="1470" 
d="M208 -18q-66 0 -105 48q-40 48 -29 105l18 111q10 63 53 102t109 39t104 -45t29 -111l-18 -106q-11 -61 -53 -102t-108 -41zM704 -18q-66 0 -105 48q-40 48 -30 105l19 111q10 63 53 102t109 39t104 -45t29 -111l-19 -106q-10 -61 -52 -102t-108 -41zM1182 -18
q-66 0 -106 48t-29 105l18 111q10 63 53 102t109 39q67 0 105 -45t28 -111l-19 -106q-10 -61 -52 -102q-41 -41 -107 -41z" />
    <glyph glyph-name="perthousand" unicode="&#x2030;" horiz-adv-x="2603" 
d="M2163 223q82 0 102 92q14 57 14 105q0 94 -87 94q-121 0 -126 -199q-2 -41 24 -67t73 -25zM2152 -16q-148 0 -239 91q-92 91 -92 232q0 247 137 364q98 83 236 83t236 -88t99 -228q0 -68 -16 -145q-27 -143 -120 -226t-241 -83zM1378 223q82 0 103 92q14 57 14 105
q0 94 -87 94t-112 -94q-14 -62 -15 -104t25 -68t72 -25zM1368 -16q-148 0 -240 91t-92 232q0 246 138 364q98 83 236 83t236 -88t99 -228q0 -68 -16 -145q-27 -143 -121 -226q-92 -83 -240 -83zM393 926q82 0 103 92q14 57 14 104q0 94 -86 95q-88 0 -113 -95
q-14 -61 -15 -103q-2 -41 24 -67t73 -26zM382 686q-148 0 -239 91q-92 91 -92 233q0 247 137 363q98 83 236 83t238 -88q98 -88 98 -227q0 -68 -17 -146q-27 -143 -120 -226t-241 -83zM486 164q-60 0 -102 43t-42 103t55 116l813 805q52 53 114 53t104 -42t42 -102t-55 -116
l-813 -805q-56 -55 -116 -55z" />
    <glyph glyph-name="guilsinglleft" unicode="&#x2039;" horiz-adv-x="700" 
d="M37 733q0 127 125 205l284 178q58 33 112 33t95 -42t41 -97q0 -78 -78 -125l-188 -119q-22 -14 -22 -30t12 -23l143 -113q51 -39 51 -98q0 -60 -42 -104t-104 -44t-130 54l-211 163q-88 68 -88 162z" />
    <glyph glyph-name="guilsinglright" unicode="&#x203a;" horiz-adv-x="716" 
d="M694 772q0 -131 -123 -207l-284 -176q-57 -33 -113 -33t-95 41q-40 41 -40 97q0 80 76 127l190 118q23 15 23 29t-13 25l-145 110q-49 41 -49 101t42 103q42 44 104 44t130 -53l211 -166q50 -37 68 -73t18 -87z" />
    <glyph glyph-name="fraction" unicode="&#x2044;" horiz-adv-x="573" 
d="M-81 -68q-77 0 -126 43t-49 95t25 98l714 1251q49 86 127 86t126 -40t48 -96t-26 -101l-715 -1252q-47 -84 -124 -84z" />
    <glyph glyph-name="Euro" unicode="&#x20ac;" horiz-adv-x="1282" 
d="M854 1456q133 0 241 -45t163 -109t55 -120t-41 -100t-97 -44t-105 33q-29 23 -42 31q-82 59 -166 59t-150 -35t-91 -106h161q70 0 107 -37t37 -88t-40 -94t-108 -43h-235l-15 -76h215q66 0 101 -38t35 -92t-43 -97t-125 -43h-211q29 -143 196 -144q58 0 102 20t110 65
q66 46 121 46q56 0 92 -40t36 -91q0 -88 -110 -172q-152 -114 -353 -114t-343 110t-165 320h-41q-47 0 -86 39t-39 95t44 96t102 40h49l12 76h-18q-57 0 -92 38t-35 93t45 93t104 38h48q63 204 213 320t362 116z" />
    <glyph glyph-name="trademark" unicode="&#x2122;" horiz-adv-x="1376" 
d="M649 844q-49 0 -74 35t-6 86l123 362q45 133 152 133q51 0 86 -33t37 -90l6 -209q0 -18 5 -18t11 18l80 211q45 121 148 121q53 0 88 -33t34 -100v-377q1 -47 -23 -77q-24 -29 -66 -29t-68 24t-23 62l17 256q0 16 -6 16t-11 -16l-96 -244q-41 -98 -117 -98q-40 0 -68 26
t-30 72l-10 244q0 16 -6 16t-11 -16l-80 -262q-24 -80 -92 -80zM297 844q-41 0 -68 28t-20 68l55 334h-108q-33 0 -55 24q-21 24 -21 61t31 65t73 28h387q35 0 58 -26t23 -62t-32 -64q-30 -27 -71 -26h-100l-56 -338q-14 -92 -96 -92z" />
    <glyph glyph-name="minus" unicode="&#x2212;" horiz-adv-x="1245" 
d="M983 559h-721q-68 0 -115 46t-47 113q0 68 47 112t115 44h721q68 0 114 -45t46 -111q-1 -66 -49 -113q-48 -46 -111 -46z" />
    <glyph glyph-name="lessequal" unicode="&#x2264;" horiz-adv-x="1245" 
d="M891 -2h-539q-68 0 -114 47t-45 114q0 67 46 111t113 45h539q68 0 114 -46t46 -111q-1 -64 -49 -112t-111 -48zM193 922q0 131 133 208l481 279q59 33 119 17t94 -71q36 -56 20 -121t-73 -97l-322 -185q-25 -14 -25 -30t25 -31l322 -182q55 -31 71 -98t-18 -124
q-35 -55 -94 -69t-119 18l-481 277q-133 78 -133 209z" />
    <glyph glyph-name="greaterequal" unicode="&#x2265;" horiz-adv-x="1245" 
d="M893 -2h-539q-66 0 -114 47t-47 113q0 66 47 112t114 45h539q66 0 112 -45t46 -111q0 -65 -46 -113t-112 -48zM625 922q0 16 -25 30l-324 185q-57 33 -72 97t19 122q35 55 95 70t118 -17l482 -279q133 -76 133 -208t-133 -209l-482 -277q-58 -34 -118 -18t-95 71t-18 122
q16 67 71 98l324 182q25 15 25 31z" />
    <glyph glyph-name="fl" unicode="&#xfb02;" horiz-adv-x="1570" 
d="M1386 1477q74 -1 120 -59t30 -148l-186 -1125q-12 -73 -58 -113t-120 -40q-72 0 -118 58t-30 147l186 1122q28 158 176 158zM743 1501q123 0 226 -55q82 -52 82 -118t-38 -114t-104 -47q-33 1 -84 15t-88 14q-100 0 -119 -117l-6 -43h158q70 0 111 -42t41 -103t-45 -103
t-111 -40h-195l-98 -603q-12 -73 -58 -113t-119 -40t-118 58t-31 147l91 551h-11q-73 0 -113 42t-40 103t46 102t111 41h56l10 60q35 203 141 304t305 101z" />
    <glyph glyph-name="Imacron" horiz-adv-x="661" 
d="M311 1548q-67 0 -103 37t-36 91t44 98t120 45h297q61 0 95 -37t34 -90q0 -52 -42 -98t-112 -46h-297zM222 -8q-72 0 -119 58q-46 58 -29 149l184 1097q12 76 58 118t119 42t118 -60t29 -151l-183 -1098q-12 -75 -58 -115q-47 -40 -119 -40z" />
    <glyph glyph-name="ampersand.alt" horiz-adv-x="1447" 
d="M817 1046q0 48 -33 76q-32 28 -98 27q-66 0 -113 -33q-47 -34 -47 -98t74 -115q119 33 168 64t49 79zM545 -18q-292 0 -442 178q-81 96 -80 231q0 262 284 387q-125 117 -125 271q0 188 144 298q144 109 354 109q209 0 347 -99t138 -259q0 -188 -175 -301
q-146 -95 -348 -156q-201 -62 -251 -136q-20 -32 -20 -83t50 -86t138 -35q131 0 210 69t105 141t38 102q13 30 39 66q48 66 161 66h117q84 0 129 -46q45 -45 45 -113t-49 -122t-133 -54h-64q-53 -196 -224 -312t-388 -116z" />
    <glyph glyph-name="Q.alt" horiz-adv-x="1495" 
d="M794 1149q-120 0 -208 -71t-121 -208q-72 -298 -22 -418q26 -60 94 -100l28 168q27 156 162 156q75 0 113 -58t22 -145l-26 -158q205 71 231 523q8 140 -72 225q-81 86 -201 86zM608 -332q-82 0 -124 58t-27 147l20 131q-197 70 -305 235t-92 386q8 137 37 280
q51 260 226 414t435 154q303 -1 480 -185t155 -465q-8 -106 -31 -241q-44 -274 -202 -432t-400 -175l-26 -165q-10 -68 -52 -105t-94 -37z" />
    <glyph glyph-name="r.alt" horiz-adv-x="798" 
d="M198 -8q-74 0 -121 57q-48 57 -34 141l127 771q6 45 51 75q133 96 348 97q135 1 217 -47t82 -127t-47 -125t-131 -48l-137 15q-39 -1 -78 -15l-104 -624q-11 -76 -55 -123t-118 -47z" />
    <glyph glyph-name="zero.onum" horiz-adv-x="1273" 
d="M654 813q-88 0 -158 -56t-88 -159q-8 -47 -11 -80q-6 -98 62 -158q69 -60 153 -59q84 0 151 47q94 66 103 236q8 104 -57 167q-66 62 -155 62zM676 1133q226 -1 378 -149t138 -374q-10 -152 -35 -231q-57 -184 -191 -292q-134 -107 -356 -107t-382 138q-159 138 -158 349
q0 372 228 548q152 118 378 118z" />
    <glyph glyph-name="one.onum" horiz-adv-x="995" 
d="M557 -8q-74 0 -123 51t-35 135l90 549l-155 -51q-82 -27 -155 11t-73 124q0 55 41 101t113 71l361 121q47 16 113 16t100 -52q35 -52 22 -126l-129 -774q-31 -176 -170 -176z" />
    <glyph glyph-name="two.onum" horiz-adv-x="1230" 
d="M915 311q82 0 126 -43q44 -44 44 -106t-53 -112t-149 -50h-568q-109 0 -168 59t-59 161t60 192q60 88 152 133t227 81q136 36 216 66t80 74q-1 61 -119 61t-249 -71q-69 -35 -123 -35t-90 42t-37 93q0 98 114 170q173 106 369 106t328 -94t133 -258q0 -274 -408 -366
q-33 -8 -113 -24t-122 -31t-51 -48h460z" />
    <glyph glyph-name="three.onum" horiz-adv-x="1206" 
d="M287 375q0 49 18 76t66 69l260 234l-2 6h-350q-70 0 -116 48t-46 116t54 120t134 54h649q62 0 114 -43t52 -132t-82 -157l-278 -260q137 -44 202 -148t64 -206q0 -256 -217 -416t-643 -160q-111 0 -163 47t-52 118t50 116t138 45l72 -2q221 0 349 72t128 178q0 51 -41 86
t-108 34l-121 -12q-51 0 -91 34t-40 83z" />
    <glyph glyph-name="four.onum" horiz-adv-x="1347" 
d="M688 332l60 311l-306 -311h246zM225 0q-104 0 -165 54q-60 54 -60 139t98 192l568 590q45 47 71 72q27 25 77 49t106 24q98 0 156 -78t38 -184l-92 -514h68q78 0 122 -45t43 -113q0 -68 -57 -127t-151 -59h-80l-39 -256q-27 -174 -172 -174q-74 0 -122 50t-36 138l37 242
h-410z" />
    <glyph glyph-name="five.onum" horiz-adv-x="1269" 
d="M817 176q0 57 -49 95q-48 38 -140 38t-212 -47t-204 8q-85 55 -65 179l72 446q35 217 254 217h584q71 0 115 -46t44 -118t-62 -122t-153 -50h-466l-37 -213q109 27 227 27q195 0 315 -118t119 -292q0 -274 -230 -437t-601 -163q-299 0 -299 176q0 70 48 112t113 42
l136 -6q227 0 359 82t132 190z" />
    <glyph glyph-name="six.onum" horiz-adv-x="1368" 
d="M654 315q97 1 167 55t70 138t-51 122t-133 38q-156 0 -256 -72q-8 -39 -9 -78q0 -104 58 -154t154 -49zM900 1456q382 0 382 -167q0 -83 -47 -128t-131 -45l-213 14q-147 0 -243 -52t-142 -183q145 68 282 68q217 0 330 -125t113 -299q0 -243 -164 -399t-422 -156
t-396 154t-138 390q0 380 189 646q93 130 247 206q155 76 353 76z" />
    <glyph glyph-name="seven.onum" horiz-adv-x="1140" 
d="M266 -422q-88 0 -139 68t-12 161q190 455 596 955h-471q-72 0 -116 47t-44 119t57 121t139 49h713q87 0 143 -45t56 -121t-58 -146q-438 -547 -690 -1077q-63 -131 -174 -131z" />
    <glyph glyph-name="eight.onum" horiz-adv-x="1423" 
d="M109 402q0 108 65 211q66 103 199 141q-156 94 -156 272q0 209 163 320q163 110 397 110t388 -104t154 -281q1 -113 -61 -200t-175 -119q205 -121 205 -320q0 -228 -170 -338t-415 -110t-411 92q-85 47 -134 132q-49 86 -49 194zM934 452q0 148 -232 148q-110 0 -175 -44
t-65 -116t58 -108q58 -37 168 -37t178 41t68 116zM753 874q91 0 163 40t73 108q0 68 -61 102q-60 34 -152 35q-92 0 -162 -39q-70 -40 -70 -108t60 -103q58 -35 149 -35z" />
    <glyph glyph-name="nine.onum" horiz-adv-x="1357" 
d="M946 557q0 115 -64 183t-170 69q-106 0 -169 -58q-63 -57 -63 -141t50 -139q51 -55 174 -55t234 59q8 57 8 82zM1274 578q0 -456 -254 -728t-731 -272q-225 0 -226 170q1 68 53 112t126 40q264 -14 423 63q158 78 203 232q-84 -55 -215 -56q-231 0 -372 137t-142 322
q0 246 164 390t413 144q250 0 404 -156q154 -157 154 -398z" />
    <glyph glyph-name="sterling.alt" horiz-adv-x="1153" 
d="M477 338h389q86 0 134 -47t48 -116t-50 -122q-52 -53 -148 -53h-610q-100 0 -151 75q-50 75 -26 175q11 51 61 134t85 151h-10q-76 0 -117 43q-41 42 -41 110t52 121t145 53h102l35 105q75 214 174 337q121 150 334 150q176 0 266 -88q61 -61 61 -133t-47 -116t-107 -44
t-104 24q-138 75 -216 -93q-26 -54 -58 -142h147q82 0 125 -44t43 -110t-50 -119q-50 -54 -138 -54h-256q-43 -105 -67 -143q-23 -38 -23 -46t18 -8z" />
    <glyph glyph-name="commaaccent" 
d="M368 -586q-60 0 -93 30q-66 62 4 157q43 55 51 102l20 119q10 55 46 88t91 33t88 -44t23 -102l-18 -94q-27 -141 -80 -207q-72 -82 -132 -82z" />
    <glyph glyph-name="caronSlovak" 
d="M350 1120q-51 0 -82 30q-30 30 -30 70t40 93t46 98l26 137q10 55 46 88t91 33t89 -44t22 -101l-25 -113q-31 -147 -79 -207q-70 -84 -144 -84z" />
    <glyph glyph-name="g.alt" horiz-adv-x="1179" 
d="M416 708q0 -134 148 -135q71 0 116 44q45 43 45 107t-39 99q-40 35 -106 35t-115 -42t-49 -108zM494 -424q-158 0 -296 39t-206 99t-68 128t45 114t105 46t145 -51q121 -74 273 -74q82 1 129 21t47 49q0 47 -101 47h-157q-141 0 -214 55t-73 129q0 133 153 234
q-78 45 -121 126q-44 81 -44 175q0 182 128 301t347 119q170 0 276 -72h199q80 0 125 -38t45 -96q0 -57 -43 -101t-131 -44h-49q8 -27 8 -61q0 -161 -117 -273t-313 -112h-86q-68 0 -68 -29t76 -28h115q174 0 273 -85t99 -242q0 -156 -134 -266t-367 -110z" />
    <glyph glyph-name="gbreve.alt" horiz-adv-x="1179" 
d="M733 1198q-117 0 -199 51t-116 140q-18 45 -18 96t38 81q39 30 88 30t74 -30q25 -28 36 -62t18 -46q18 -31 66 -32q48 0 72 20t44 63q41 86 120 86q53 1 85 -31t32 -73t-18 -82q-37 -87 -121 -149t-201 -62zM416 708q0 -134 148 -135q71 0 116 44q45 43 45 107t-39 99
q-40 35 -106 35t-115 -42t-49 -108zM494 -424q-158 0 -296 39t-206 99t-68 128t45 114t105 46t145 -51q121 -74 273 -74q82 1 129 21t47 49q0 47 -101 47h-157q-141 0 -214 55t-73 129q0 133 153 234q-78 45 -121 126q-44 81 -44 175q0 182 128 301t347 119q170 0 276 -72
h199q80 0 125 -38t45 -96q0 -57 -43 -101t-131 -44h-49q8 -27 8 -61q0 -161 -117 -273t-313 -112h-86q-68 0 -68 -29t76 -28h115q174 0 273 -85t99 -242q0 -156 -134 -266t-367 -110z" />
    <glyph glyph-name="gdotaccent.alt" horiz-adv-x="1177" 
d="M710 1528q66 0 107 -38t41 -106t-50 -118t-117 -49t-107 39t-39 104q0 66 50 117q49 51 115 51zM416 708q0 -134 148 -135q71 0 116 44q45 43 45 107t-39 99q-40 35 -106 35t-115 -42t-49 -108zM494 -424q-158 0 -296 39t-206 99t-68 128t45 114t105 46t145 -51
q121 -74 273 -74q82 1 129 21t47 49q0 47 -101 47h-157q-141 0 -214 55t-73 129q0 133 153 234q-78 45 -121 126q-44 81 -44 175q0 182 128 301t347 119q170 0 276 -72h199q80 0 125 -38t45 -96q0 -57 -43 -101t-131 -44h-49q8 -27 8 -61q0 -161 -117 -273t-313 -112h-86
q-68 0 -68 -29t76 -28h115q174 0 273 -85t99 -242q0 -156 -134 -266t-367 -110z" />
    <glyph glyph-name="gcommaaccent.alt" horiz-adv-x="1179" 
d="M668 1206q-60 0 -92 30t-31 70q0 40 39 91t47 98l20 119q10 55 46 88t91 33q54 0 88 -44t23 -102l-18 -94q-27 -141 -80 -207q-73 -82 -133 -82zM416 708q0 -134 148 -135q71 0 116 44q45 43 45 107t-39 99q-40 35 -106 35t-115 -42t-49 -108zM494 -424q-158 0 -296 39
t-206 99t-68 128t45 114t105 46t145 -51q121 -74 273 -74q82 1 129 21t47 49q0 47 -101 47h-157q-141 0 -214 55t-73 129q0 133 153 234q-78 45 -121 126q-44 81 -44 175q0 182 128 301t347 119q170 0 276 -72h199q80 0 125 -38t45 -96q0 -57 -43 -101t-131 -44h-49
q8 -27 8 -61q0 -161 -117 -273t-313 -112h-86q-68 0 -68 -29t76 -28h115q174 0 273 -85t99 -242q0 -156 -134 -266t-367 -110z" />
    <glyph glyph-name="racute.alt" horiz-adv-x="798" 
d="M346 1341q0 82 80 119l272 131q43 21 94 21q50 0 86 -36t35 -85q0 -86 -104 -133l-274 -129q-85 -36 -149 20q-40 35 -40 92zM198 -8q-74 0 -121 57q-48 57 -34 141l127 771q6 45 51 75q133 96 348 97q135 1 217 -47t82 -127t-47 -125t-131 -48l-137 15q-39 -1 -78 -15
l-104 -624q-11 -76 -55 -123t-118 -47z" />
    <glyph glyph-name="rcaron.alt" horiz-adv-x="798" 
d="M578 1217q-41 0 -82 34l-205 176q-43 35 -43 91t38 94q38 39 88 39t89 -33l137 -121l174 125q39 29 89 29t85 -36q35 -35 35 -93t-78 -113l-235 -158q-51 -34 -92 -34zM198 -8q-74 0 -121 57q-48 57 -34 141l127 771q6 45 51 75q133 96 348 97q135 1 217 -47t82 -127
t-47 -125t-131 -48l-137 15q-39 -1 -78 -15l-104 -624q-11 -76 -55 -123t-118 -47z" />
    <glyph glyph-name="rcommaaccent.alt" horiz-adv-x="798" 
d="M40 -586q-60 0 -92 30t-32 70t39 91t47 98l21 119q10 55 46 88t91 33t88 -44t22 -102l-18 -94q-27 -141 -80 -207q-72 -82 -132 -82zM198 -8q-74 0 -121 57q-48 57 -34 141l127 771q6 45 51 75q133 96 348 97q135 1 217 -47t82 -127t-47 -125t-131 -48l-137 15
q-39 -1 -78 -15l-104 -624q-11 -76 -55 -123t-118 -47z" />
    </font>
</defs>
</svg>
