<?xml version="1.0" standalone="no"?>
<!DOCTYPE svg PUBLIC "-//W3C//DTD SVG 1.1//EN" "http://www.w3.org/Graphics/SVG/1.1/DTD/svg11.dtd" >
<svg xmlns="http://www.w3.org/2000/svg">
<metadata>
Created by FontPrep 20130207 at Tue Nov  4 15:29:34 2014
 By Mauricio Duran
Copyright (c) 2010 by Miles Newlyn. All rights reserved.
</metadata>
<defs>
<font id="fd9aafe6ea46c7fd1c4f52d2ef5f76e1" horiz-adv-x='1024' >
  <font-face 
    font-family="Rubrik-SemiBold"
    font-weight="600"
    font-stretch="normal"
    units-per-em="2048"
    panose-1="2 0 5 3 0 0 0 2 0 4"
    ascent="1536"
    descent="-512"
    x-height="1081"
    cap-height="1454"
    bbox="-91.0909 -584 2416 2024"
    underline-thickness="143"
    underline-position="-62"
    unicode-range="U+0020-FB02"
  />
<missing-glyph horiz-adv-x="616" 
 />
    <glyph glyph-name="fi" unicode="fi" horiz-adv-x="1476" 
d="M1181 1104q58 0 98 -41t40 -100v-832q0 -59 -40 -100t-96 -41t-98 42q-41 42 -41 99v832q0 59 39 100q40 41 98 41zM1327 1367q0 -60 -43 -105t-103 -45t-103 44q-42 44 -42 105t41 103t103 42t104 -42q43 -42 43 -102zM219 1057v53q0 182 97 282t268 99q115 0 214 -30
t99 -128q0 -49 -35 -84t-94 -35q-20 0 -72 10t-86 9q-117 0 -116 -133v-43h237q51 0 88 -35t37 -86t-37 -86t-88 -35h-237v-680q0 -61 -39 -103t-97 -42t-99 42q-40 42 -40 103v680h-49q-53 0 -90 34t-37 86t37 87t90 35h49z" />
    <glyph glyph-name=".notdef" horiz-adv-x="616" 
 />
    <glyph glyph-name=".null" horiz-adv-x="0" 
 />
    <glyph glyph-name="nonmarkingreturn" horiz-adv-x="681" 
 />
    <glyph glyph-name="space" unicode=" " horiz-adv-x="587" 
 />
    <glyph glyph-name="exclam" unicode="!" horiz-adv-x="493" 
d="M121 104v97q0 51 35 85t89 34t90 -34t36 -85v-97q0 -49 -36 -84q-36 -34 -90 -34t-89 34t-35 84zM244 1446q58 0 101 -42q42 -42 40 -99l-18 -713q-4 -51 -38 -84t-85 -33t-84 34t-35 83l-16 713q-2 57 37 99q40 42 98 42z" />
    <glyph glyph-name="quotedbl" unicode="&#x22;" horiz-adv-x="804" 
d="M702 1325v-313q0 -51 -34 -86t-89 -35q-54 0 -90 35q-35 35 -34 86v313q0 51 34 86q35 35 89 35t90 -35q34 -35 34 -86zM350 1325v-313q0 -51 -36 -86t-90 -35t-88 35t-34 86v313q0 51 34 86t88 35t90 -35t36 -86z" />
    <glyph glyph-name="numbersign" unicode="#" horiz-adv-x="1452" 
d="M684 852l-80 -244h166l80 244h-166zM309 -18q-63 0 -100 54t-14 116l67 208h-74q-55 0 -92 36t-37 87t39 88t92 37h154l80 244h-76q-55 0 -92 35t-37 86t39 88t90 37h156l88 266q30 88 133 88q51 0 86 -53t14 -115l-61 -186h168l88 266q26 88 132 88q52 0 87 -53t14 -115
l-61 -186h70q53 0 92 -37t39 -88t-38 -86t-93 -35h-152l-80 -244h74q51 0 90 -37t39 -87t-38 -87t-91 -37h-154l-94 -288q-27 -90 -119 -90q-63 0 -100 54t-14 116l67 208h-168l-94 -288q-27 -90 -119 -90z" />
    <glyph glyph-name="dollar" unicode="$" horiz-adv-x="1249" 
d="M1153 445q0 -165 -111 -279t-297 -137v-84q-1 -53 -35 -91t-84 -38t-87 39t-37 90v90q-211 31 -340 135q-72 56 -72 120t41 105t96 41t107 -39q137 -104 307 -104q223 0 223 145q0 62 -63 98t-217 68q-248 54 -358 146t-110 256t107 269q106 105 279 134v80q0 51 37 90
t87 39t85 -38t34 -91v-74q188 -23 291 -110q47 -39 47 -101q1 -62 -37 -99q-38 -38 -86 -38t-108 31q-104 59 -226 59t-172 -40q-50 -39 -50 -101t56 -92t204 -60q266 -58 378 -156t111 -263z" />
    <glyph glyph-name="percent" unicode="%" horiz-adv-x="1726" 
d="M1333 520q-51 0 -83 -33t-37 -82t0 -101t37 -84t83 -32t83 33t37 83t0 100t-37 83t-83 33zM1333 727q135 0 229 -92t103 -227q2 -53 0 -109q-8 -135 -102 -226q-93 -91 -229 -91t-231 91t-102 226q-2 57 0 109q5 135 101 227t231 92zM406 387l735 846q35 41 91 44t95 -32
t42 -91t-32 -93l-735 -844q-35 -39 -90 -44t-94 29t-42 90t30 95zM392 1245q-50 0 -82 -33t-37 -81t-1 -100t37 -85t83 -33t83 33t38 83t0 100t-38 83t-83 33zM393 1454q135 0 229 -92t103 -227q2 -55 0 -109q-8 -135 -102 -227q-93 -92 -229 -92t-231 92t-104 225
q-2 57 0 109q7 135 103 228t231 93z" />
    <glyph glyph-name="ampersand" unicode="&#x26;" horiz-adv-x="1423" 
d="M430 1051q0 -94 129 -189q137 33 194 80q56 48 56 116t-47 108t-142 40q-94 0 -142 -42t-48 -113zM360 408q0 -72 75 -124t201 -51q126 0 214 52l-346 311q-80 -39 -112 -78q-32 -38 -32 -110zM1176 743q59 -1 95 -39t36 -98v-10q0 -150 -93 -295l93 -76q43 -35 50 -92
t-28 -100t-92 -48t-100 33l-99 91q-156 -127 -412 -127t-402 118q-146 119 -146 303q0 121 61 204t189 147q-170 137 -170 311t127 277q127 104 339 104t330 -98t119 -269q0 -129 -74 -216t-251 -165l270 -231q31 59 31 127t33 108q35 41 94 41z" />
    <glyph glyph-name="quotesingle" unicode="'" horiz-adv-x="450" 
d="M350 1325v-313q0 -51 -36 -86t-90 -35t-88 35t-34 86v313q0 51 34 86t88 35t90 -35t36 -86z" />
    <glyph glyph-name="parenleft" unicode="(" horiz-adv-x="739" 
d="M383 633q0 -449 305 -750q37 -37 44 -86q8 -49 -22 -95t-88 -57t-112 33q-201 188 -301 440t-100 515q0 264 100 515t301 439q54 45 112 34t88 -57t22 -96t-44 -86q-305 -300 -305 -749z" />
    <glyph glyph-name="parenright" unicode=")" horiz-adv-x="739" 
d="M358 633q0 446 -307 749q-37 37 -44 86q-7 50 23 96t89 57t110 -34q201 -188 301 -439t100 -515t-100 -515t-301 -440q-51 -46 -110 -34t-89 58t-23 95t44 86q307 304 307 750z" />
    <glyph glyph-name="asterisk" unicode="*" horiz-adv-x="856" 
d="M428 698q-37 0 -70 31t-22 105l20 131l-112 -86q-51 -44 -96 -30q-46 15 -68 53t-1 79q22 41 75 59l131 52l-131 53q-49 18 -72 59t2 86q51 90 160 15l112 -86l-20 131q-11 77 30 113q26 24 62 24t64 -24t30 -50t-2 -63l-20 -133l112 88q28 20 52 30t58 -1t54 -49t-2 -80
q-23 -42 -72 -60l-135 -53l135 -52q51 -18 74 -59q24 -41 2 -79t-57 -49q-61 -19 -109 26l-112 88l20 -133q4 -37 1 -63q-3 -25 -29 -49t-64 -24z" />
    <glyph glyph-name="plus" unicode="+" horiz-adv-x="1286" 
d="M512 326v260h-258q-55 0 -94 39t-39 93t39 92t94 38h258v258q0 55 39 94t93 39t92 -39t38 -94v-258h256q55 0 94 -38t39 -92t-40 -93t-93 -39h-256v-260q0 -54 -38 -94t-92 -40t-93 41q-39 40 -39 93z" />
    <glyph glyph-name="comma" unicode="," horiz-adv-x="477" 
d="M367 211v-92q0 -158 -60 -262q-49 -82 -133 -82q-49 1 -80 33t-31 66t26 90t26 120v127q0 51 36 86t89 35t90 -35t37 -86z" />
    <glyph glyph-name="hyphen" unicode="-" horiz-adv-x="667" 
d="M596 590q0 -57 -42 -98t-99 -41h-242q-59 -1 -100 39t-41 98t41 99q41 40 100 40h242q59 0 100 -40t41 -97z" />
    <glyph glyph-name="period" unicode="." horiz-adv-x="571" 
d="M238 342q53 0 90 -36t37 -89v-111q0 -53 -36 -89q-36 -35 -89 -35t-90 36t-37 88v111q0 53 35 89q37 36 90 36z" />
    <glyph glyph-name="slash" unicode="/" horiz-adv-x="790" 
d="M705 1493q53 -23 75 -76t0 -106l-516 -1291q-20 -56 -72 -78t-106 0q-53 22 -75 74t-1 107l516 1288q20 55 73 79t106 3z" />
    <glyph glyph-name="zero" unicode="0" horiz-adv-x="1466" 
d="M732 250q128 0 208 86t88 220t0 300t-87 250t-208 84t-208 -84t-87 -250t1 -302t87 -220t206 -84zM732 -18q-246 0 -402 152t-172 396q-14 195 0 377q18 248 174 399q156 150 400 150t402 -152q157 -152 175 -397q14 -186 0 -377q-18 -246 -175 -397t-402 -151z" />
    <glyph glyph-name="one" unicode="1" horiz-adv-x="1046" 
d="M649 1452q51 0 89 -45t38 -98v-1176q0 -59 -40 -100t-97 -41t-98 42t-41 99v946l-207 -116q-53 -29 -107 -15t-83 64q-28 50 -11 107q16 56 66 85l405 228q35 20 86 20z" />
    <glyph glyph-name="two" unicode="2" horiz-adv-x="1243" 
d="M104 172q0 260 330 485q240 163 306 225t67 134q0 72 -50 124t-159 52q-145 0 -242 -115q-80 -93 -181 -46q-52 26 -69 77q-20 70 19 123q73 94 191 162t276 67q236 0 366 -123t132 -307q0 -133 -78 -245t-310 -271q-10 -6 -34 -24t-38 -28q-13 -8 -37 -26t-36 -29
q-11 -11 -31 -27t-31 -28t-28 -31t-23 -47h539q59 0 100 -40t41 -98t-41 -97t-100 -39h-707q-78 0 -125 45t-47 127z" />
    <glyph glyph-name="three" unicode="3" horiz-adv-x="1245" 
d="M817 526q0 78 -50 122t-138 44q-37 0 -101 -13t-79 -13q-49 0 -89 34q-38 34 -38 92t53 101l274 276h-440q-57 0 -99 41q-42 40 -42 98t41 98t100 40h633q76 0 126 -48t50 -120t-43 -115l-250 -258q168 -17 268 -117t101 -253q0 -265 -243 -405t-642 -136q-59 0 -97 37
t-42 96t41 104t104 37q246 -25 424 48t178 210z" />
    <glyph glyph-name="four" unicode="4" horiz-adv-x="1382" 
d="M774 592v479l-350 -479h350zM1159 315h-106v-180q0 -57 -41 -98q-40 -41 -98 -41t-99 41t-41 98v180h-481q-102 0 -155 69q-52 69 -32 159q6 45 41 86l521 702q92 123 191 123t147 -65q47 -66 47 -164v-633h106q57 0 97 -40t40 -96t-41 -98t-96 -43z" />
    <glyph glyph-name="five" unicode="5" horiz-adv-x="1273" 
d="M1165 567q1 -276 -245 -426t-646 -149q-59 0 -99 37t-42 97t39 100t104 40q283 0 448 71t165 216q-1 80 -61 128t-166 48t-279 -63q-100 -35 -157 6q-56 41 -56 123v462q0 97 54 143t136 46h588q60 0 100 -39t40 -96t-42 -99q-42 -41 -98 -41h-510v-235q150 59 281 59
q209 0 327 -122t119 -306z" />
    <glyph glyph-name="six" unicode="6" horiz-adv-x="1400" 
d="M719 692q-129 0 -289 -76q-12 -362 295 -362q131 0 199 63t68 165t-72 157q-72 53 -201 53zM719 -20q-600 0 -565 770q18 342 194 533t492 192q242 0 307 -78q31 -37 31 -94t-37 -92t-105 -35q-12 0 -77 9t-109 9q-145 0 -254 -80t-139 -231q162 66 315 65
q234 0 366 -128t132 -338t-144 -356t-407 -146z" />
    <glyph glyph-name="seven" unicode="7" horiz-adv-x="1118" 
d="M190 1446h721q78 0 127 -45t49 -107t-32 -116q-240 -394 -357 -624t-176 -456q-20 -76 -88 -100t-115 12q-88 49 -57 168q55 203 170 434t309 559h-551q-59 0 -100 40q-41 41 -41 99t41 97t100 39z" />
    <glyph glyph-name="eight" unicode="8" horiz-adv-x="1427" 
d="M713 -18q-276 0 -425 115q-148 116 -149 304q0 252 230 349q-197 84 -197 311q0 185 143 289t397 104t397 -102q144 -102 144 -287q0 -219 -194 -315q227 -96 227 -349q0 -188 -148 -304q-149 -115 -425 -115zM712 610q-144 0 -218 -50t-74 -137t73 -136t223 -49t222 50
q74 50 74 136t-78 136t-222 50zM715 1204q-131 0 -199 -43t-68 -121t72 -120q70 -42 194 -43q124 0 194 44t69 123q0 160 -262 160z" />
    <glyph glyph-name="nine" unicode="9" horiz-adv-x="1394" 
d="M689 1182q-144 0 -213 -62q-68 -62 -68 -166t72 -160t192 -55q121 0 293 74q4 189 -64 279t-212 90zM129 955q0 213 144 357t407 144q598 0 561 -743q-18 -385 -229 -548t-647 -173q-61 -2 -104 36q-42 38 -45 94t35 99q37 43 105 47t145 7t128 18q142 44 188 84
q80 70 115 164q-147 -57 -318 -58q-225 0 -355 130t-130 342z" />
    <glyph glyph-name="colon" unicode=":" horiz-adv-x="538" 
d="M143 813v92q0 55 34 93t91 38t92 -38t35 -93v-82q0 -55 -35 -92t-91 -37t-91 35t-35 84zM143 104v97q0 57 33 94t92 37t93 -38t34 -93v-84q0 -55 -35 -93t-91 -38t-91 34t-35 84z" />
    <glyph glyph-name="semicolon" unicode=";" horiz-adv-x="538" 
d="M416 211v-111q0 -106 -28 -182q-54 -143 -155 -143q-39 1 -67 23t-37 55q-4 29 -3 44t25 71t23 116v127q0 51 34 86t86 35t87 -35t35 -86zM172 813v92q0 55 34 93t91 38t91 -38t34 -93v-82q0 -53 -34 -91t-90 -38t-91 35t-35 84z" />
    <glyph glyph-name="less" unicode="&#x3c;" horiz-adv-x="1286" 
d="M514 717q0 -14 18 -29l472 -381q43 -35 49 -88t-30 -96t-88 -48t-97 31l-531 431q-100 80 -100 180t100 180l531 430q45 37 97 32t88 -48t30 -97t-49 -88l-472 -381q-18 -14 -18 -28z" />
    <glyph glyph-name="equal" unicode="=" horiz-adv-x="1286" 
d="M1018 373h-748q-55 0 -94 39t-39 93t39 92t94 38h748q55 0 93 -38t38 -92t-39 -93t-92 -39zM1018 803h-748q-55 0 -94 39t-39 93t39 92t94 38h748q55 0 93 -38t38 -92t-39 -93t-92 -39z" />
    <glyph glyph-name="greater" unicode="&#x3e;" horiz-adv-x="1286" 
d="M1079 717q0 -100 -100 -180l-530 -431q-45 -38 -97 -32t-89 49q-36 43 -30 96t50 88l471 381q18 14 18 28t-18 29l-471 381q-43 34 -49 88t29 97q36 43 88 48t98 -32l530 -430q100 -80 100 -180z" />
    <glyph glyph-name="question" unicode="?" horiz-adv-x="1128" 
d="M381 106v95q0 51 36 86t90 35t90 -35t36 -86v-95q0 -51 -36 -86q-36 -34 -90 -34t-90 36t-36 84zM226 1020q-60 0 -99 43t-39 93t37 99q75 95 193 147t251 52q201 0 327 -113t126 -295t-106 -308t-328 -228q-113 -48 -178 14q-37 35 -37 84q0 90 88 129q149 68 217 131
q68 62 68 144t-48 127q-47 45 -129 45q-139 0 -235 -109q-48 -55 -108 -55z" />
    <glyph glyph-name="at" unicode="@" horiz-adv-x="1822" 
d="M524 645q0 162 112 264q112 103 278 103t283 -104q116 -104 116 -263v-217q1 -38 23 -62t56 -24t56 25t20 61v264q0 238 -164 383q-166 145 -390 145t-378 -136q-154 -138 -169 -351q-14 -159 1 -367t159 -331t358 -123q129 0 237 39t158 -35q26 -37 16 -85t-53 -75
q-129 -82 -337 -82q-436 0 -657 301q-116 158 -129 368t-1 415q19 312 247 504t549 192q213 0 393 -87t290 -255t110 -385v-297q0 -139 -89 -224t-221 -85t-221 92t-90 215v186q0 74 -46 124q-45 50 -121 50t-122 -50t-46 -124v-133q0 -92 60 -131t136 -16q43 8 76 -11
t43 -61t-9 -78q-35 -65 -185 -65t-249 96t-100 262v168z" />
    <glyph glyph-name="A" unicode="A" horiz-adv-x="1415" 
d="M708 1180q-26 0 -34 -27l-168 -489h401l-166 489q-7 27 -33 27zM1374 125q0 -43 -39 -86t-91 -43q-108 0 -138 88l-113 330h-571l-113 -330q-16 -41 -53 -66q-37 -24 -88 -24t-89 43t-38 85t8 64l389 1082q35 98 107 148t164 50q201 0 272 -198l385 -1082q8 -18 8 -61z
" />
    <glyph glyph-name="B" unicode="B" horiz-adv-x="1372" 
d="M1282 418q0 -206 -124 -312t-327 -106h-466q-94 0 -149 56q-54 56 -54 143v1046q0 85 54 143t149 58h460q195 0 307 -111t111 -272q0 -223 -178 -311v-2q101 -33 159 -120t58 -212zM442 862h336q184 0 185 158q0 154 -185 154h-336v-312zM442 616v-348h357q201 0 200 174
q0 84 -51 129t-145 45h-361z" />
    <glyph glyph-name="C" unicode="C" horiz-adv-x="1368" 
d="M729 246q197 0 291 180q47 82 123 82q51 0 94 -38t43 -84t-14 -85q-66 -152 -213 -239t-324 -87q-256 0 -425 165t-189 417q-12 166 0 326q20 251 189 417t425 166q175 0 323 -87t214 -238q14 -39 14 -85t-43 -84t-94 -38q-74 0 -123 82q-94 180 -291 180
q-145 0 -235 -97t-100 -239t-1 -286q9 -142 99 -235t237 -93z" />
    <glyph glyph-name="D" unicode="D" horiz-adv-x="1468" 
d="M678 0h-313q-94 0 -149 56q-54 56 -54 143v1050q0 89 53 143t150 54h313q322 0 490 -163t188 -441q8 -109 2 -221q-20 -285 -187 -453t-493 -168zM442 1171v-897h242q368 1 391 357q6 80 2 168q-20 373 -393 372h-242z" />
    <glyph glyph-name="E" unicode="E" horiz-adv-x="1288" 
d="M365 1446h675q56 0 96 -38t40 -93t-41 -96t-95 -41h-598v-324h574q53 0 90 -36t37 -89t-38 -92t-89 -39h-574v-330h602q52 0 94 -40t42 -95t-39 -94t-97 -39h-679q-94 0 -149 58q-54 58 -54 145v1042q0 86 54 144q55 57 149 57z" />
    <glyph glyph-name="F" unicode="F" horiz-adv-x="1239" 
d="M162 135v1112q0 87 54 143t149 56h655q59 0 101 -39t42 -96t-43 -99t-100 -41h-578v-350h549q57 0 96 -40t39 -95t-41 -96t-94 -41h-549v-414q0 -59 -41 -101t-99 -42t-99 43t-41 100z" />
    <glyph glyph-name="G" unicode="G" horiz-adv-x="1431" 
d="M1323 618v-112q0 -229 -167 -380t-422 -151t-427 166t-192 416q-12 166 0 326q23 251 193 417t427 166q178 0 313 -75q134 -76 212 -213q22 -35 22 -85q0 -51 -40 -91t-102 -40t-106 66q-100 172 -299 172q-147 0 -235 -95t-102 -245t-1 -292q15 -140 105 -236t235 -96
t228 74q82 75 82 184v49h-185q-55 0 -95 40t-40 95t39 93t96 38h268q90 0 142 -55q51 -56 51 -136z" />
    <glyph glyph-name="H" unicode="H" horiz-adv-x="1533" 
d="M162 135v1176q0 59 41 101t100 42t99 -42t40 -101v-453h650v453q0 59 41 101t100 42t99 -41t40 -102v-1174q0 -61 -40 -103t-99 -42t-100 43t-41 102v447h-650v-449q0 -61 -40 -102t-98 -41t-100 42t-42 101z" />
    <glyph glyph-name="I" unicode="I" horiz-adv-x="604" 
d="M162 137v1174q0 59 42 101t100 42t98 -42t40 -101v-1174q0 -61 -40 -103t-98 -42t-100 43t-42 102z" />
    <glyph glyph-name="J" unicode="J" horiz-adv-x="1120" 
d="M186 432q80 0 125 -74q72 -113 189 -112q80 0 134 55t54 160v850q0 59 42 101t100 42t98 -41t41 -102v-840q0 -217 -136 -356t-337 -140q-143 -1 -255 69t-167 183q-43 100 20 166q37 39 92 39z" />
    <glyph glyph-name="K" unicode="K" horiz-adv-x="1337" 
d="M442 590v-453q0 -61 -40 -103t-98 -42t-100 43t-42 102v1174q0 59 42 101t100 42t98 -42t40 -101v-449q45 0 70 8t55 39l480 496q39 45 100 47t100 -40t40 -93t-36 -90l-489 -492l483 -504q39 -45 42 -99t-35 -97t-99 -43t-104 45l-482 504q-29 33 -53 40t-72 7z" />
    <glyph glyph-name="L" unicode="L" horiz-adv-x="1161" 
d="M162 164v1147q0 59 42 101t100 42t98 -42t40 -101v-1037h568q55 0 98 -42t43 -98t-41 -95t-100 -39h-684q-76 0 -120 47t-44 117z" />
    <glyph glyph-name="M" unicode="M" horiz-adv-x="1943" 
d="M1829 141q0 -67 -39 -109q-40 -42 -102 -42t-100 32t-44 82l-119 1031q0 12 -12 12t-14 -12l-193 -926q-23 -101 -86 -155t-147 -54t-148 53q-63 53 -86 156l-194 926q-3 12 -15 12t-12 -14l-117 -1031q-4 -48 -44 -80q-41 -32 -103 -32t-100 43t-37 106q0 18 2 29
l145 1040q18 122 86 184t166 62q215 0 264 -240l178 -892q4 -14 16 -14t15 14l176 892q49 240 262 240q98 0 166 -61t86 -185l148 -1038q2 -11 2 -29z" />
    <glyph glyph-name="N" unicode="N" horiz-adv-x="1570" 
d="M1130 1311q0 59 41 101t99 42t99 -42q40 -42 40 -101v-1104q0 -91 -56 -153t-147 -62q-133 0 -205 125l-561 964h-4q4 -109 4 -344v-604q0 -61 -39 -103t-97 -42t-100 43t-42 102v1084q0 101 61 167t162 66q131 0 201 -121l547 -944h4q-6 203 -7 324v602z" />
    <glyph glyph-name="O" unicode="O" horiz-adv-x="1503" 
d="M750 246q147 0 245 96q97 96 109 246t2 266q-12 150 -112 246t-245 96q-147 0 -245 -96t-108 -238t0 -282q11 -142 109 -238t245 -96zM750 -25q-258 0 -436 166q-177 166 -197 416q-12 166 0 326q20 251 197 417q176 166 434 166t439 -169t199 -414q12 -164 0 -326
q-20 -248 -199 -415t-437 -167z" />
    <glyph glyph-name="P" unicode="P" horiz-adv-x="1327" 
d="M737 471h-295v-334q0 -59 -41 -102t-98 -43t-99 43t-42 102v1127q0 78 49 130t137 52h408q211 0 356 -132t145 -358q-1 -226 -145 -355q-144 -130 -375 -130zM442 741h289q246 0 246 215t-240 215h-295v-430z" />
    <glyph glyph-name="Q" unicode="Q" horiz-adv-x="1503" 
d="M750 246q53 0 90 10l-152 186q-29 33 -23 84q5 51 39 82t88 29t87 -43l161 -201q95 144 66 461q-12 150 -112 246t-244 96q-146 0 -244 -96t-110 -238t0 -282q11 -142 109 -238t245 -96zM750 -25q-258 0 -436 166q-177 166 -197 416q-12 166 0 326q20 251 197 417
q176 166 434 166t438 -169t200 -414q12 -164 0 -326q-18 -225 -167 -385l155 -190q29 -37 24 -88t-42 -81t-87 -28t-81 41l-168 207q-127 -58 -270 -58z" />
    <glyph glyph-name="R" unicode="R" horiz-adv-x="1388" 
d="M442 760h297q246 0 246 206t-235 205h-308v-411zM616 502h-174v-367q0 -59 -41 -102t-98 -43t-99 43t-42 102v1129q0 78 49 130t137 52h420q211 0 355 -128t145 -349q0 -168 -75 -278t-192 -146l265 -318q36 -39 34 -98t-40 -98q-46 -43 -104 -42t-99 42l-326 405
q-29 34 -53 50t-62 16z" />
    <glyph glyph-name="S" unicode="S" horiz-adv-x="1302" 
d="M940 410q0 76 -72 112t-247 70q-258 54 -375 156t-117 292t147 308q147 119 375 118q309 0 447 -116q49 -42 49 -102t-39 -101t-89 -41t-108 29q-119 57 -250 57t-191 -44t-60 -113t64 -105t226 -66q279 -51 401 -151t122 -294q1 -194 -147 -319t-402 -125
q-313 0 -504 146q-76 59 -76 123t41 106q41 41 97 41t108 -39q141 -102 344 -102q120 0 188 42t68 118z" />
    <glyph glyph-name="T" unicode="T" horiz-adv-x="1267" 
d="M494 135v1036h-328q-59 0 -101 40q-42 41 -42 99t40 97q41 39 103 39h936q61 0 102 -39t41 -96t-43 -99t-100 -41h-328v-1036q0 -59 -40 -101t-98 -42t-100 43t-42 100z" />
    <glyph glyph-name="U" unicode="U" horiz-adv-x="1529" 
d="M1384 1311v-695q0 -284 -176 -462t-443 -178t-442 178q-175 180 -176 462v695q0 59 42 101q41 42 101 42t99 -41t39 -102v-705q0 -164 94 -262t244 -98t244 98t94 262v705q0 59 41 101t100 42t99 -41t40 -102z" />
    <glyph glyph-name="V" unicode="V" horiz-adv-x="1400" 
d="M41 1324q0 44 38 87t91 43t91 -27t52 -71l369 -1071q6 -19 19 -19t20 19l366 1065q17 48 55 76t91 28t91 -43t38 -87t-8 -67l-389 -1067q-79 -215 -265 -215t-266 215l-385 1067q-8 23 -8 67z" />
    <glyph glyph-name="W" unicode="W" horiz-adv-x="1949" 
d="M63 1311q0 57 37 100q38 43 96 43t98 -30t48 -74l186 -1078q2 -8 8 -8t9 8l209 965q20 105 85 157t143 52t142 -53t86 -156l213 -965q0 -13 13 -8q4 2 4 8l190 1078q8 44 47 74t97 30t94 -42q37 -42 37 -99q0 -10 -4 -35l-242 -1090q-23 -102 -85 -156t-140 -54t-145 54
t-89 154l-213 942q-2 12 -10 7l-4 -7l-209 -944q-23 -102 -86 -154t-144 -52t-149 54t-90 156l-227 1090q-5 21 -5 33z" />
    <glyph glyph-name="X" unicode="X" horiz-adv-x="1355" 
d="M1144 1454q66 0 109 -44t43 -100t-34 -98l-396 -491l387 -490q35 -41 35 -94t-43 -98t-113 -45t-110 53l-346 440l-348 -440q-42 -53 -108 -53t-108 35t-49 93q-6 58 33 109l391 490l-389 491q-41 50 -35 112q7 62 59 100t111 29t97 -56l350 -443l352 443q46 57 112 57z
" />
    <glyph glyph-name="Y" unicode="Y" horiz-adv-x="1351" 
d="M23 1311q0 55 43 99q42 44 106 44t107 -55l397 -498l399 498q39 45 96 53t107 -31q45 -39 51 -98t-33 -109l-424 -509q-55 -64 -55 -117v-453q0 -59 -41 -101t-99 -42t-100 43t-42 100v453q-1 43 -17 66q-16 24 -41 53l-420 507q-34 42 -34 97z" />
    <glyph glyph-name="Z" unicode="Z" horiz-adv-x="1216" 
d="M1016 0h-737q-96 0 -152 51q-55 51 -55 130t61 155l639 833h-549q-57 0 -99 41q-42 42 -42 100t41 97t100 39h705q90 0 143 -51t53 -127t-67 -162l-635 -832h594q57 0 99 -41t42 -98t-41 -96t-100 -39z" />
    <glyph glyph-name="bracketleft" unicode="[" horiz-adv-x="792" 
d="M784 -222q0 -58 -41 -97t-100 -39h-377q-68 0 -108 42t-41 109v1677q0 70 39 111t110 41h377q59 0 100 -37t41 -95t-41 -98t-100 -40h-250v-1440h250q59 0 100 -38t41 -96z" />
    <glyph glyph-name="backslash" unicode="\" horiz-adv-x="821" 
d="M0 1376q-23 54 -1 108t76 76t105 -2t74 -79l569 -1413q21 -54 -1 -108t-76 -77t-106 1t-73 81z" />
    <glyph glyph-name="bracketright" unicode="]" horiz-adv-x="792" 
d="M8 -222q0 58 42 96t102 38h249v1440h-249q-59 0 -102 39q-42 39 -42 97t41 96t103 38h374q72 0 111 -41t39 -113v-1675q0 -71 -40 -111t-110 -40h-374q-59 0 -102 39q-42 39 -42 97z" />
    <glyph glyph-name="asciicircum" unicode="^" horiz-adv-x="1081" 
d="M541 1124q-14 0 -23 -18l-123 -387q-14 -49 -67 -72q-52 -23 -102 -3t-74 72t-2 99l178 463q66 166 214 166t212 -166l180 -463q18 -47 -4 -98t-73 -71q-50 -20 -103 2t-68 71l-123 387q-8 18 -22 18z" />
    <glyph glyph-name="underscore" unicode="_" horiz-adv-x="966" 
d="M967 -197v-219h-967v219h967z" />
    <glyph glyph-name="grave" unicode="`" 
d="M570 1544q-36 0 -62 15l-279 141q-63 35 -63 87t32 87q55 60 132 18l276 -143q64 -35 64 -87t-32 -85t-68 -33z" />
    <glyph glyph-name="a" unicode="a" horiz-adv-x="1142" 
d="M562 217q100 0 183 53v185q-235 70 -334 -4q-48 -37 -49 -97q0 -137 200 -137zM1010 694v-501q0 -63 -49 -97q-166 -113 -433 -112q-212 0 -322 102t-110 252t104 244q104 96 318 96q98 0 227 -31v55q0 82 -45 121t-141 39q-97 0 -193 -31t-148 3t-52 100q0 88 90 125
q119 51 301 51q453 0 453 -416z" />
    <glyph glyph-name="b" unicode="b" horiz-adv-x="1228" 
d="M637 848q-129 0 -215 -55v-484q27 -23 86 -43t113 -20q201 0 217 209q6 74 0 192q-12 201 -201 201zM147 1329q0 59 40 101q39 42 97 40q58 0 98 -40t40 -101v-270q119 51 242 51q198 0 314 -112t134 -306q12 -143 0 -282q-16 -190 -146 -308t-356 -118t-413 129
q-49 33 -50 96v1120z" />
    <glyph glyph-name="c" unicode="c" horiz-adv-x="1146" 
d="M610 246q137 0 205 125q35 63 101 63t104 -41q37 -41 37 -100q0 -101 -125 -205t-327 -104t-337 122t-151 308q-10 141 0 278q12 184 148 301t339 117t327 -101t124 -204q0 -57 -37 -98q-38 -41 -104 -41t-101 61q-66 121 -203 121q-98 0 -154 -52t-66 -144t0 -192
q10 -98 66 -156t154 -58z" />
    <glyph glyph-name="d" unicode="d" horiz-adv-x="1234" 
d="M608 246q52 0 112 20t87 43v484q-86 55 -215 55q-188 0 -201 -199q-8 -92 0 -198q12 -205 217 -205zM565 1110q123 0 242 -51v270q0 59 40 101t97 40q57 0 97 -40t40 -101v-1122q0 -63 -55 -102t-171 -80t-253 -41q-209 0 -339 118t-146 308q-12 139 0 282
q16 194 133 306t315 112z" />
    <glyph glyph-name="e" unicode="e" horiz-adv-x="1167" 
d="M383 639h399q23 0 23 25q4 94 -51 151q-56 57 -158 57t-158 -62t-55 -171zM1069 635v-45q0 -137 -141 -137h-545v-21q1 -94 65 -146t167 -52t223 45q76 29 128 -9t52 -106t-70 -109q-121 -71 -334 -71t-347 120t-150 314q-8 117 0 256q18 200 150 318t338 118t335 -130
t129 -345z" />
    <glyph glyph-name="f" unicode="f" horiz-adv-x="901" 
d="M219 1057v53q0 182 97 282t268 99q115 0 214 -30t99 -128q0 -49 -35 -84t-94 -35q-20 0 -72 10t-86 9q-117 0 -116 -133v-43h237q51 0 88 -35t37 -86t-37 -86t-88 -35h-237v-680q0 -61 -39 -103t-97 -42t-99 42q-40 42 -40 103v680h-49q-53 0 -90 34t-37 86t37 87t90 35
h49z" />
    <glyph glyph-name="g" unicode="g" horiz-adv-x="1226" 
d="M604 848q-199 0 -215 -205q-6 -70 0 -174q12 -201 203 -201q125 0 213 62v463q-19 15 -77 35t-124 20zM1079 887v-826q0 -225 -141 -348t-356 -123q-168 0 -300 66t-132 156q0 51 34 88q35 37 84 37t133 -44q83 -45 183 -45t160 54t61 155v13q-115 -53 -254 -54
q-195 0 -307 112t-127 294q-12 135 0 262q18 190 143 308t340 118q135 0 253 -41t177 -84q49 -32 49 -98z" />
    <glyph glyph-name="h" unicode="h" horiz-adv-x="1226" 
d="M422 1329v-299q36 32 108 56t150 24q198 0 306 -116t108 -332v-527q0 -61 -39 -103t-99 -42t-98 42q-39 42 -39 103v512q0 91 -49 143q-48 52 -122 52t-134 -25t-92 -61v-625q0 -59 -39 -100t-96 -41t-99 42q-41 42 -41 99v1198q0 59 40 101q39 42 97 40q58 0 98 -41
t40 -100z" />
    <glyph glyph-name="i" unicode="i" horiz-adv-x="589" 
d="M294 1104q58 0 98 -41t40 -100v-832q0 -59 -40 -100t-96 -41t-97 42t-41 99v832q0 59 39 100t97 41zM440 1367q0 -60 -43 -105t-103 -45t-103 44q-42 44 -41 105q0 61 40 103t102 42t105 -42t43 -102z" />
    <glyph glyph-name="j" unicode="j" horiz-adv-x="581" 
d="M432 1366q0 -61 -43 -105t-104 -44t-103 44q-41 44 -41 105t41 103q40 42 102 42t105 -42t43 -103zM103 -383q-58 0 -95 39t-37 92t35 94q84 96 114 176t30 195v750q0 59 38 100q40 41 98 41t98 -41t40 -100v-697q0 -387 -221 -608q-42 -41 -100 -41z" />
    <glyph glyph-name="k" unicode="k" horiz-adv-x="1153" 
d="M285 1468q57 0 97 -41t40 -100v-643h22q57 0 103 47l317 328q46 49 106 49t97 -41t38 -94t-36 -90l-326 -322l316 -328q41 -45 43 -100t-37 -98t-101 -43t-104 47l-313 338q-43 47 -98 47h-27v-293q0 -59 -39 -100t-96 -41t-99 42q-41 42 -41 99v1196q0 59 40 100
q41 41 98 41z" />
    <glyph glyph-name="l" unicode="l" horiz-adv-x="571" 
d="M285 1468q57 0 97 -42t40 -101v-1194q0 -59 -39 -100t-96 -41t-99 42q-41 42 -41 99v1194q0 59 40 101q41 42 98 42z" />
    <glyph glyph-name="m" unicode="m" horiz-adv-x="1757" 
d="M1350 131v524q0 186 -166 187q-86 0 -164 -49v-662q0 -59 -40 -100t-96 -41t-98 42q-41 42 -41 99v526q0 184 -165 185q-86 0 -164 -49v-662q0 -59 -39 -100t-96 -41t-99 42q-41 42 -41 99v762q0 61 54 100q154 117 357 117t314 -117q147 117 332 117q426 0 426 -448
v-531q0 -59 -40 -100t-96 -41t-97 42t-41 99z" />
    <glyph glyph-name="n" unicode="n" horiz-adv-x="1220" 
d="M1090 662v-531q0 -59 -39 -100t-97 -41t-98 42q-41 42 -41 99v518q0 93 -56 143t-161 50t-182 -49v-662q0 -59 -39 -100t-96 -41t-99 42q-41 42 -41 99v766q0 67 55 105q54 38 168 73t261 35q229 0 347 -116t118 -332z" />
    <glyph glyph-name="o" unicode="o" horiz-adv-x="1214" 
d="M610 848q-96 0 -154 -54t-66 -152t-1 -192q9 -96 67 -150t152 -54t153 54q58 54 65 149t1 191t-64 152q-57 56 -153 56zM609 1110q202 0 337 -117q134 -117 148 -282t1 -329t-149 -282q-136 -116 -337 -116q-202 0 -339 116t-150 280t-1 330t150 283t340 117z" />
    <glyph glyph-name="p" unicode="p" horiz-adv-x="1222" 
d="M618 846q-51 0 -112 -20t-90 -42v-483q29 -19 88 -37t119 -18q193 0 208 196q8 95 0 199q-16 205 -213 205zM416 -270q0 -58 -40 -100t-97 -42t-98 41q-40 41 -40 101v1177q0 45 35 70q63 47 184 90t265 43q209 0 337 -117t144 -309q12 -140 0 -281q-16 -195 -135 -307
t-322 -112q-123 0 -233 51v-305z" />
    <glyph glyph-name="q" unicode="q" horiz-adv-x="1234" 
d="M391 641q-8 -106 0 -197q12 -199 205 -198q129 0 211 53v485q-29 23 -90 42t-115 20q-199 0 -211 -205zM598 1110q143 0 262 -43t187 -90q35 -27 34 -70v-1177q0 -58 -39 -100t-96 -42t-98 41t-41 101v305q-115 -51 -238 -51q-201 0 -319 112t-133 305q-12 143 0 283
q16 194 144 310t337 116z" />
    <glyph glyph-name="r" unicode="r" horiz-adv-x="823" 
d="M795 952q0 -47 -35 -88t-94 -41q-20 1 -70 11t-84 8q-106 -4 -106 -133v-580q0 -59 -40 -99t-98 -40t-97 41q-40 41 -40 98v631q0 162 93 256t268 94q110 0 176 -16q127 -35 127 -142z" />
    <glyph glyph-name="s" unicode="s" horiz-adv-x="1028" 
d="M950 340q0 -166 -122 -261t-306 -95q-250 0 -391 118q-37 31 -45 81t22 91q30 42 77 48q48 6 100 -25q103 -68 251 -68t148 95q0 68 -119 96t-151 35q-299 76 -299 313q0 162 115 252q116 90 320 90t316 -92q43 -35 45 -91t-32 -91q-68 -74 -179 -17q-90 45 -178 45
q-145 0 -145 -88q0 -66 123 -92l145 -33q305 -74 305 -311z" />
    <glyph glyph-name="t" unicode="t" horiz-adv-x="874" 
d="M842 147q0 -163 -349 -163q-169 0 -263 110q-93 111 -93 293v809q0 59 40 101t97 42q58 0 98 -42t40 -101v-139h256q51 0 89 -35t38 -86t-38 -86t-89 -35h-256v-422q0 -152 133 -151q45 0 123 20t126 -16t48 -99z" />
    <glyph glyph-name="u" unicode="u" horiz-adv-x="1220" 
d="M133 432v526q0 62 36 104t97 42q62 0 102 -42t40 -104v-522q0 -90 53 -140t155 -50t189 53v664q0 59 39 100t97 41t98 -41t40 -100v-766q0 -66 -49 -97q-164 -116 -408 -116t-367 116q-122 116 -122 332z" />
    <glyph glyph-name="v" unicode="v" horiz-adv-x="1099" 
d="M922 1104q78 0 120 -62t13 -143l-262 -717q-74 -198 -244 -198t-242 194l-262 721q-29 80 14 142t121 63q102 0 137 -109l218 -676q4 -14 15 -14t15 14l215 674q14 51 54 81t88 30z" />
    <glyph glyph-name="w" unicode="w" horiz-adv-x="1658" 
d="M178 1106q111 0 135 -115l150 -672q2 -8 10 -8t10 8l144 615q18 78 71 125t129 47t131 -47t74 -125l146 -615q0 -8 9 -8t11 8l145 672q27 115 136 115q77 0 113 -58t16 -137l-187 -735q-49 -193 -225 -192q-82 0 -142 49t-79 145l-135 561q-2 9 -12 9t-9 -9l-137 -559
q-47 -196 -221 -196t-223 192l-189 735q-20 79 17 137t112 58z" />
    <glyph glyph-name="x" unicode="x" horiz-adv-x="1140" 
d="M821 39l-250 303l-249 -305q-34 -45 -96 -48t-104 34t-44 94t35 100l276 334l-268 323q-37 44 -35 102t46 95t101 32t95 -50l241 -293l242 293q37 45 96 50t103 -33t47 -95q2 -57 -37 -103l-268 -321l278 -334q37 -43 35 -100t-46 -94q-43 -37 -103 -32t-95 48z" />
    <glyph glyph-name="y" unicode="y" horiz-adv-x="1101" 
d="M557 406q8 0 12 12l213 581q39 106 142 107q80 0 122 -65t9 -140l-383 -891q-121 -281 -273 -381q-59 -39 -114 -39t-96 36q-39 36 -39 98t61 106q131 92 188 252l-352 821q-33 76 10 139t121 64q102 0 141 -107l226 -581q4 -12 12 -12z" />
    <glyph glyph-name="z" unicode="z" horiz-adv-x="1028" 
d="M823 254q57 0 97 -35t38 -91q0 -56 -38 -92t-97 -36h-577q-76 0 -123 43t-47 110t45 117l491 559h-379q-57 0 -95 34t-38 90q0 57 38 93t95 35h558q115 0 151 -97t-39 -183l-481 -547h401z" />
    <glyph glyph-name="braceleft" unicode="{" horiz-adv-x="890" 
d="M739 1352h-188q-27 0 -44 -18t-18 -44v-340q0 -213 -137 -305q137 -98 137 -305v-369q1 -25 17 -43t41 -18h192q61 0 103 -38t41 -96q0 -58 -42 -98t-102 -38h-272q-102 0 -177 76t-75 175v447q0 145 -99 225q-100 80 -1 161q100 81 100 226v467q0 85 60 145t145 60h319
q59 0 101 -39t43 -97t-41 -96t-103 -38z" />
    <glyph glyph-name="bar" unicode="|" horiz-adv-x="620" 
d="M307 1710q57 0 97 -42t40 -101v-1712q0 -59 -38 -101q-38 -41 -96 -41t-99 42t-41 100v1712q0 59 40 101t97 42z" />
    <glyph glyph-name="braceright" unicode="}" horiz-adv-x="890" 
d="M676 338v-447q0 -102 -75 -177t-177 -74h-272q-59 0 -102 38q-42 40 -42 98t42 96t102 38h192q25 0 41 18t16 43v369q0 207 138 305q-137 92 -138 305v340q0 27 -17 44t-44 18h-188q-59 0 -102 38q-42 38 -42 96t42 97t102 39h319q84 0 144 -60t61 -145v-467
q0 -146 98 -225q51 -41 51 -81t-51 -81q-98 -79 -98 -225z" />
    <glyph glyph-name="asciitilde" unicode="~" horiz-adv-x="1341" 
d="M874 553q-86 0 -212 51t-192 51q-68 0 -158 -46t-156 1q-68 47 -68 119q0 102 111 148q172 75 260 75t213 -52q126 -52 200 -52t162 44t154 -2t65 -116q0 -98 -110 -147q-183 -74 -269 -74z" />
    <glyph glyph-name="exclamdown" unicode="&#xa1;" horiz-adv-x="493" 
d="M121 1237v96q0 49 35 84t89 35t90 -35t36 -84v-96q0 -51 -36 -85t-90 -34t-89 34t-35 85zM244 963q51 0 85 -33t38 -84l18 -713q2 -57 -40 -99t-100 -42t-99 42q-39 42 -37 99l16 713q2 49 35 83t84 34z" />
    <glyph glyph-name="cent" unicode="&#xa2;" horiz-adv-x="978" 
d="M653 1325v-154q176 -49 236 -198q14 -35 14 -72t-36 -71t-83 -33q-78 0 -110 71q-43 92 -137 93q-70 1 -109 -47t-45 -119q-12 -78 0 -158q6 -72 45 -118t109 -46q96 0 137 92q33 72 110 72q45 0 81 -35t36 -73t-10 -60q-72 -162 -238 -211v-147q0 -53 -36 -91t-85 -38
t-86 38t-36 91v151q-127 35 -202 130t-82 210q-7 116 0 228t83 208t201 133v154q0 51 36 90q37 39 86 39t85 -38t36 -91z" />
    <glyph glyph-name="sterling" unicode="&#xa3;" horiz-adv-x="1212" 
d="M164 549q-59 0 -101 37q-41 37 -41 95t40 95t102 37h61q-29 121 -28 195q-1 194 119 320t361 126t400 -164q55 -53 55 -111q0 -57 -40 -97t-92 -40t-111 45q-111 95 -219 95t-153 -52q-44 -52 -44 -107q1 -55 15 -119t18 -91h229q59 0 101 -36t41 -94q0 -58 -41 -96
t-101 -38h-200q10 -133 -60 -273h557q55 0 97 -42t42 -99q1 -57 -39 -96t-100 -39h-700q-82 0 -130 46t-48 118q0 37 41 125q69 141 63 260h-94z" />
    <glyph glyph-name="currency" unicode="&#xa4;" horiz-adv-x="1267" 
d="M634 924q-62 0 -106 -46t-48 -104q-3 -58 0 -117q3 -57 46 -103q42 -46 106 -46t107 45t47 109v106q-4 64 -47 110t-105 46zM633 283q-113 0 -201 59l-129 -125q-37 -35 -89 -37t-88 34t-35 86t40 89l148 150q-33 86 -23 239q2 63 25 119l-150 152q-39 39 -40 88t35 86
t89 35t88 -39l131 -129q88 59 200 59t200 -59l129 129q37 39 90 39t88 -33q35 -39 34 -88t-40 -88l-148 -150q34 -94 25 -248q0 -59 -23 -114l148 -148q37 -39 38 -89t-34 -86t-87 -34t-91 37l-127 125q-90 -59 -203 -59z" />
    <glyph glyph-name="yen" unicode="&#xa5;" horiz-adv-x="1351" 
d="M965 623q59 0 100 -37q41 -36 41 -94t-41 -95t-100 -37h-148v-225q0 -59 -41 -101t-99 -42t-100 43t-42 100v225h-148q-59 0 -99 35t-40 93t40 96t99 39h141q-6 24 -51 79l-420 508q-41 48 -35 108t51 98q46 38 107 32t99 -53l397 -498l399 498q37 47 96 54t105 -32
t53 -98q6 -59 -33 -109l-424 -510q-43 -49 -51 -77h144z" />
    <glyph glyph-name="brokenbar" unicode="&#xa6;" horiz-adv-x="620" 
d="M307 1710q57 0 97 -42t40 -101v-639q0 -59 -38 -101q-38 -41 -96 -41t-99 42t-41 100v639q0 59 40 101t97 42zM307 637q57 0 97 -42t40 -101v-639q0 -59 -38 -101q-38 -41 -96 -41t-99 42t-41 100v639q0 59 40 101t97 42z" />
    <glyph glyph-name="section" unicode="&#xa7;" horiz-adv-x="1161" 
d="M809 566q0 36 -52 66t-169 58t-180 55l-5 -8q-23 -29 -23 -65q1 -71 236 -127q106 -27 166 -53l4 8q23 30 23 66zM1032 592q0 -106 -76 -191q84 -94 84 -219q0 -168 -128 -280t-326 -113q-125 0 -241 38t-171 83q-55 46 -55 110t42 104t101 40q23 0 64 -19
q134 -82 240 -82t149 36t43 84t-32 77t-70 42t-124 34q-208 55 -294 132q-86 78 -86 184t75 188q-84 94 -84 221q0 165 128 279t341 114t377 -127q53 -43 53 -105t-42 -103q-42 -40 -90 -40t-79 23q-125 80 -225 80t-140 -37t-40 -89t30 -78t85 -43t110 -32
q209 -53 295 -129t86 -182z" />
    <glyph glyph-name="dieresis" unicode="&#xa8;" 
d="M471 1683q0 55 38 95t94 39q56 0 94 -39q38 -38 38 -94t-38 -95t-94 -39t-94 39t-38 94zM100 1683q0 55 38 95t94 39q56 0 94 -39q38 -38 39 -94q0 -56 -38 -95q-39 -39 -95 -39t-94 39t-38 94z" />
    <glyph glyph-name="copyright" unicode="&#xa9;" horiz-adv-x="1609" 
d="M809 467q111 0 152 90q29 53 69 53t68 -22q45 -36 10 -115q-35 -80 -113 -130q-79 -50 -203 -50t-219 91q-94 91 -106 232q-10 104 0 207q10 141 105 233q94 92 220 91q126 0 204 -50t112 -128q16 -37 16 -67t-26 -52t-68 -21q-41 0 -69 54q-41 90 -152 90
q-66 0 -108 -47t-46 -127t0 -159t46 -126t108 -47zM805 1268q-184 0 -313 -123t-142 -320q-4 -109 0 -213q12 -194 142 -318t314 -124q183 0 313 124t141 318q4 104 0 213q-12 197 -142 320t-313 123zM805 1454q264 0 449 -180t196 -459q4 -96 0 -192q-10 -275 -196 -455
t-449 -180q-264 0 -450 179q-185 179 -195 456q-4 96 0 192q10 279 195 459q186 180 450 180z" />
    <glyph glyph-name="ordfeminine" unicode="&#xaa;" horiz-adv-x="980" 
d="M453 780q35 0 79 16t68 42q-6 55 -6 211v149q-53 29 -141 29q-131 0 -142 -129q-8 -94 0 -195q11 -123 142 -123zM436 555q-144 0 -240 94q-95 94 -106 250q-6 102 0 207q8 160 106 254t255 94q92 0 182 -30t137 -62t47 -96v-336q0 -82 34 -136q11 -20 41 -65t18 -91
t-48 -67q-88 -45 -145 25q-14 16 -39 55q-98 -96 -242 -96z" />
    <glyph glyph-name="guillemotleft" unicode="&#xab;" horiz-adv-x="1269" 
d="M612 732q0 110 103 183l252 183q45 32 93 28t82 -43t28 -91t-46 -81l-206 -151q-36 -28 0 -55l206 -152q41 -29 46 -81q6 -52 -28 -92t-82 -43t-93 28l-252 184q-103 73 -103 183zM78 732q0 110 102 183l252 183q45 32 93 28t82 -43t29 -91t-46 -81l-207 -151
q-18 -14 -18 -28t18 -27l207 -152q41 -29 46 -81t-29 -92t-82 -43t-93 28l-252 184q-102 73 -102 183z" />
    <glyph glyph-name="logicalnot" unicode="&#xac;" horiz-adv-x="1286" 
d="M1163 680v-354q0 -54 -38 -94t-92 -40t-93 40t-39 94v258h-647q-55 0 -94 39t-39 93t39 92t94 38h739q82 0 126 -47t44 -119z" />
    <glyph glyph-name="registered" unicode="&#xae;" horiz-adv-x="1275" 
d="M635 303q-209 0 -353 142t-155 356q-4 80 0 157q11 214 155 356t353 142t354 -142t156 -356q4 -77 0 -157q-9 -213 -155 -355t-355 -143zM569 797v-129q0 -30 -19 -50t-50 -20t-51 19t-21 51v415q0 33 20 55t56 21h162q82 0 134 -47t52 -123q0 -109 -92 -149l92 -127
q16 -29 16 -53t-20 -44t-56 -20t-53 31l-104 151q-10 18 -29 19h-37zM636 1307q-148 0 -246 -90q-138 -128 -111 -424q14 -158 111 -249t246 -91t246 91q136 128 109 423q-12 160 -109 250q-98 90 -246 90zM565 909h76q76 0 76 66t-72 65h-80v-131z" />
    <glyph glyph-name="macron" unicode="&#xaf;" 
d="M258 1782h324q46 0 78 -33t32 -80t-32 -80t-78 -33h-324q-47 0 -79 33t-32 80t32 80t79 33z" />
    <glyph glyph-name="degree" unicode="&#xb0;" horiz-adv-x="800" 
d="M287 1202q1 -47 33 -80q32 -32 80 -32t81 32t33 80q0 47 -33 81t-81 34t-80 -34t-33 -81zM115 1202q0 117 84 201q83 84 201 84t202 -83t84 -201t-84 -202q-84 -83 -201 -83t-201 84t-85 200z" />
    <glyph glyph-name="plusminus" unicode="&#xb1;" horiz-adv-x="1286" 
d="M512 428v260h-258q-55 0 -94 39t-39 93t39 92t94 38h258v258q0 54 39 94t93 40t92 -40q38 -38 38 -94v-258h256q55 0 94 -38t39 -92t-40 -93t-93 -39h-256v-260q0 -55 -38 -94t-91 -39t-93 40t-40 93zM1030 0h-776q-55 0 -94 39t-39 93t39 92t94 38h776q55 0 94 -38
t39 -92t-40 -93t-93 -39z" />
    <glyph glyph-name="twosuperior" unicode="&#xb2;" horiz-adv-x="909" 
d="M111 635q0 154 190 291q179 119 207 176q12 24 12 54t-22 54t-79 23q-56 0 -118 -66q-51 -43 -93 -43t-76 31t-34 75t36 92t120 90t186 42q158 0 239 -77t81 -185t-51 -170t-166 -142q-115 -79 -131 -139h247q55 0 93 -32q36 -33 36 -86t-36 -86t-93 -33h-419
q-59 0 -95 38q-34 38 -34 93z" />
    <glyph glyph-name="threesuperior" unicode="&#xb3;" horiz-adv-x="866" 
d="M217 1184q-49 0 -84 36t-35 86t34 83t85 32h361q55 -1 94 -33t39 -86t-58 -116l-86 -92q97 -25 147 -93t50 -161q0 -166 -131 -263t-359 -98q-47 0 -63 2q-51 4 -85 37t-34 83t33 81t88 31l84 -4q104 0 166 35q61 36 61 94q0 82 -96 82l-92 -13q-35 0 -60 23
q-24 24 -24 60t29 61l137 133h-201z" />
    <glyph glyph-name="acute" unicode="&#xb4;" 
d="M670 1787q0 -52 -64 -87l-278 -141q-76 -39 -130 18q-32 33 -32 85t63 87l277 143q77 42 132 -18q32 -35 32 -87z" />
    <glyph glyph-name="mu" unicode="&#xb5;" horiz-adv-x="1241" 
d="M158 -260v1223q0 57 39 99t96 42t98 -42t41 -99v-525q0 -90 50 -139t153 -49t184 53v660q0 59 41 100t98 41q58 0 100 -42t42 -99v-785q0 -47 -35 -69q-182 -127 -422 -127q-121 0 -211 51v-293q0 -59 -40 -100t-97 -41t-97 41t-40 100z" />
    <glyph glyph-name="mu" unicode="&#x3bc;" horiz-adv-x="1241" 
d="M158 -260v1223q0 57 39 99t96 42t98 -42t41 -99v-525q0 -90 50 -139t153 -49t184 53v660q0 59 41 100t98 41q58 0 100 -42t42 -99v-785q0 -47 -35 -69q-182 -127 -422 -127q-121 0 -211 51v-293q0 -59 -40 -100t-97 -41t-97 41t-40 100z" />
    <glyph glyph-name="paragraph" unicode="&#xb6;" horiz-adv-x="1560" 
d="M395 948q0 -219 260 -219h64v442h-68q-117 0 -187 -54t-69 -169zM856 -393q-57 0 -97 41t-40 100v713h-94q-223 0 -367 130q-143 130 -143 355q0 224 144 356t359 132h584q88 0 142 -54t55 -143v-1489q0 -59 -40 -100t-97 -41t-98 42q-40 42 -40 99v1411h-131v-1411
q0 -59 -40 -100t-97 -41z" />
    <glyph glyph-name="periodcentered" unicode="&#xb7;" horiz-adv-x="571" 
d="M285 903q53 0 90 -36t37 -89v-110q0 -53 -36 -89t-89 -36t-90 36t-37 89v110q0 53 36 89t89 36z" />
    <glyph glyph-name="cedilla" unicode="&#xb8;" 
d="M463 30q0 -20 -6 -44l-27 -62q98 -8 152 -65t53 -148q0 -193 -266 -286q-47 -18 -94 2q-46 20 -46 80t66 85q94 37 121 60q26 23 26 48q0 26 -15 42t-42 16l-70 -8q-43 0 -67 36t-8 77l61 164q27 68 82 67q37 0 59 -22t21 -42z" />
    <glyph glyph-name="onesuperior" unicode="&#xb9;" horiz-adv-x="718" 
d="M322 623v485l-101 -53q-45 -23 -90 -11t-70 54t-9 92q15 49 54 72l275 155q91 44 154 -20q35 -37 34 -90v-684q1 -53 -33 -89t-87 -36t-91 38q-36 38 -36 87z" />
    <glyph glyph-name="ordmasculine" unicode="&#xba;" horiz-adv-x="923" 
d="M461 780q57 0 96 39t44 112t0 143t-44 110t-96 41q-57 0 -96 -40t-46 -102q-2 -80 0 -161q5 -62 45 -102t97 -40zM461 553q-162 0 -264 99t-113 259q-8 90 0 185q10 154 114 256t263 102q160 0 264 -102t115 -256q6 -95 0 -185q-10 -160 -114 -259t-265 -99z" />
    <glyph glyph-name="guillemotright" unicode="&#xbb;" horiz-adv-x="1269" 
d="M655 732q0 -108 -100 -183l-254 -184q-43 -31 -92 -28t-82 43t-29 92t47 81l205 152q35 27 0 55l-205 151q-43 29 -47 81t31 91q31 39 80 43t92 -28l254 -183q100 -75 100 -183zM1190 732q0 -108 -100 -183l-254 -184q-42 -31 -92 -28t-82 43t-29 92q4 52 45 81l207 152
q18 14 18 27t-18 28l-207 151q-41 29 -45 81t31 91q32 39 80 43t92 -28l254 -183q100 -75 100 -183z" />
    <glyph glyph-name="onequarter" unicode="&#xbc;" horiz-adv-x="2068" 
d="M322 623v485l-101 -53q-45 -23 -90 -11t-70 54t-9 92q15 49 54 72l275 155q91 44 154 -20q35 -37 34 -90v-684q1 -53 -33 -89t-87 -36t-91 38q-36 38 -36 87zM543 109l522 1312q17 47 71 69t102 4t68 -68q20 -48 -1 -99l-523 -1313q-18 -48 -66 -70t-96 -4t-73 72
q-24 52 -4 97zM1624 389v268l-238 -268h238zM1835 389h61q41 0 73 -30q32 -29 32 -73t-30 -74t-75 -30h-63v-78q0 -40 -30 -72q-31 -32 -75 -32t-73 30t-29 74v74h-350q-68 0 -113 39t-45 101t68 139l362 411q57 68 128 68t115 -46t44 -110v-391z" />
    <glyph glyph-name="onehalf" unicode="&#xbd;" horiz-adv-x="2043" 
d="M1245 131q0 154 191 291q177 118 207 180t-11 104q-22 24 -78 24t-118 -66q-51 -43 -93 -43q-42 1 -76 31t-34 74t36 92t120 90t186 42q158 0 239 -77q80 -77 80 -185t-51 -170t-165 -142q-114 -79 -132 -138h248q55 0 92 -33t37 -86t-37 -86t-92 -33h-420q-59 0 -94 38
t-35 93zM322 623v485l-101 -53q-45 -23 -90 -11t-70 54t-9 92q15 49 54 72l275 155q91 44 154 -20q35 -37 34 -90v-684q1 -53 -33 -89t-87 -36t-91 38q-36 38 -36 87zM545 109l522 1312q17 47 71 69t102 4t68 -68q20 -48 -1 -99l-523 -1313q-18 -48 -66 -70t-96 -4t-73 71
q-24 53 -4 98z" />
    <glyph glyph-name="threequarters" unicode="&#xbe;" horiz-adv-x="2205" 
d="M690 109l522 1312q18 47 72 69t101 4q49 -18 69 -68q20 -48 0 -99l-524 -1313q-18 -48 -66 -70t-97 -4q-48 18 -72 70q-23 52 -5 99zM217 1184q-49 0 -84 36t-35 86t34 83t85 32h361q55 -1 94 -33t39 -86t-58 -116l-86 -92q97 -25 147 -93t50 -161q0 -166 -131 -263
t-359 -98q-182 0 -182 121q0 51 33 82t88 31l84 -4q104 0 166 35q61 36 61 94q0 82 -96 82l-92 -13q-35 0 -60 23q-24 24 -24 60t29 61l137 133h-201zM1774 389v268l-236 -268h236zM2046 182h-64v-57q0 -51 -26 -88t-78 -37q-51 0 -77 35t-25 90v53h-324q-184 0 -184 146
q0 57 84 151l313 356q102 119 201 99q119 -20 119 -176v-365h61q41 0 73 -30q31 -29 31 -73t-30 -74t-74 -30z" />
    <glyph glyph-name="questiondown" unicode="&#xbf;" horiz-adv-x="1128" 
d="M741 1333v-94q1 -51 -35 -86t-90 -35t-91 35q-36 35 -36 86v94q0 51 36 86t90 35t90 -36t36 -85zM896 420q60 0 99 -43t39 -93t-37 -100q-75 -96 -193 -147t-251 -51q-201 0 -327 112t-126 295q0 182 106 308t329 229q47 20 94 20t84 -35t37 -84q0 -90 -88 -129
q-150 -68 -218 -131t-68 -144t48 -126q47 -45 129 -45q139 0 235 109q48 55 108 55z" />
    <glyph glyph-name="Agrave" unicode="&#xc0;" horiz-adv-x="1415" 
d="M854 1660q0 -52 -32 -85t-68 -33t-62 14l-278 142q-64 35 -64 87t32 87q55 60 132 18l277 -143q63 -35 63 -87zM708 1180q-26 0 -34 -27l-168 -489h401l-166 489q-7 27 -33 27zM1374 125q0 -43 -39 -86t-91 -43q-108 0 -138 88l-113 330h-571l-113 -330q-16 -41 -53 -66
q-37 -24 -88 -24t-89 43t-38 85t8 64l389 1082q35 98 107 148t164 50q201 0 272 -198l385 -1082q8 -18 8 -61z" />
    <glyph glyph-name="Aacute" unicode="&#xc1;" horiz-adv-x="1415" 
d="M1053 1785q0 -52 -64 -87l-278 -142q-27 -14 -63 -14t-68 33t-31 85q0 52 63 87l277 143q77 42 132 -18q32 -35 32 -87zM708 1180q-26 0 -34 -27l-168 -489h401l-166 489q-7 27 -33 27zM1374 125q0 -43 -39 -86t-91 -43q-108 0 -138 88l-113 330h-571l-113 -330
q-16 -41 -53 -66q-37 -24 -88 -24t-89 43t-38 85t8 64l389 1082q35 98 107 148t164 50q201 0 272 -198l385 -1082q8 -18 8 -61z" />
    <glyph glyph-name="Acircumflex" unicode="&#xc2;" horiz-adv-x="1415" 
d="M1055 1657q0 -47 -33 -80t-71 -33t-74 27l-166 127l-166 -127q-41 -27 -78 -27t-70 33t-33 80t50 84l219 170q41 31 77 31t76 -31l220 -170q49 -37 49 -84zM708 1180q-26 0 -34 -27l-168 -489h401l-166 489q-7 27 -33 27zM1374 125q0 -43 -39 -86t-91 -43q-108 0 -138 88
l-113 330h-571l-113 -330q-16 -41 -53 -66q-37 -24 -88 -24t-89 43t-38 85t8 64l389 1082q35 98 107 148t164 50q201 0 272 -198l385 -1082q8 -18 8 -61z" />
    <glyph glyph-name="Atilde" unicode="&#xc3;" horiz-adv-x="1415" 
d="M562 1829q70 0 153 -38t113 -38t70 31t75 31t63 -31t27 -71q0 -40 -41 -81q-94 -90 -178 -90q-51 0 -136 39t-117 39t-72 -32q-41 -32 -75 -32t-62 31t-28 73t41 79q97 90 167 90zM708 1180q-26 0 -34 -27l-168 -489h401l-166 489q-7 27 -33 27zM1374 125q0 -43 -39 -86
t-91 -43q-108 0 -138 88l-113 330h-571l-113 -330q-16 -41 -53 -66q-37 -24 -88 -24t-89 43t-38 85t8 64l389 1082q35 98 107 148t164 50q201 0 272 -198l385 -1082q8 -18 8 -61z" />
    <glyph glyph-name="Adieresis" unicode="&#xc4;" horiz-adv-x="1415" 
d="M762 1683q0 55 38 95t94 39q56 0 94 -39q38 -38 38 -94t-38 -95t-94 -39t-94 39t-38 94zM391 1683q0 55 38 95t94 39q56 0 94 -39q38 -38 38 -94t-38 -95t-94 -39t-94 39t-38 94zM708 1180q-26 0 -34 -27l-168 -489h401l-166 489q-7 27 -33 27zM1374 125q0 -43 -39 -86
t-91 -43q-108 0 -138 88l-113 330h-571l-113 -330q-16 -41 -53 -66q-37 -24 -88 -24t-89 43t-38 85t8 64l389 1082q35 98 107 148t164 50q201 0 272 -198l385 -1082q8 -18 8 -61z" />
    <glyph glyph-name="Aring" unicode="&#xc5;" horiz-adv-x="1415" 
d="M629 1796q1 -34 23 -58t56 -24t56 24t22 58t-22 58t-56 24t-56 -24t-23 -58zM481 1797q0 93 68 160t161 67q92 0 160 -68q68 -66 68 -160t-68 -160t-160 -66t-161 68q-68 66 -68 159zM708 1180q-26 0 -34 -27l-168 -489h401l-166 489q-7 27 -33 27zM1374 125
q0 -43 -39 -86t-91 -43q-108 0 -138 88l-113 330h-571l-113 -330q-16 -41 -53 -66q-37 -24 -88 -24t-89 43t-38 85t8 64l389 1082q35 98 107 148t164 50q201 0 272 -198l385 -1082q8 -18 8 -61z" />
    <glyph glyph-name="AE" unicode="&#xc6;" horiz-adv-x="2191" 
d="M1067 684v496q-28 -3 -63 -54l-295 -442h358zM1067 201v237h-522l-258 -385q-31 -45 -86 -56t-101 17t-60 86q-13 57 15 103l738 1085q61 90 130 124t189 34h832q57 0 97 -38t40 -93t-41 -96t-96 -41h-596v-324h573q53 0 90 -36t37 -89t-38 -92t-89 -39h-573v-330h602
q53 0 94 -40t41 -95t-39 -94t-96 -39h-678q-96 0 -151 57q-54 58 -54 144z" />
    <glyph glyph-name="Ccedilla" unicode="&#xc7;" horiz-adv-x="1366" 
d="M729 1466q177 0 325 -86t212 -237q14 -39 14 -85t-43 -84t-94 -38q-74 0 -123 82q-94 178 -291 178q-145 0 -234 -96t-99 -240t-1 -286q11 -144 99 -236t235 -92q197 0 291 178q47 82 123 82q51 0 94 -38t43 -84t-14 -85q-58 -137 -188 -221t-287 -98l-21 -56
q98 -8 152 -65t53 -148q0 -193 -266 -286q-47 -18 -94 2q-46 20 -46 80t66 85q94 37 121 60q26 23 26 48q0 26 -15 42t-42 16l-72 -8q-43 0 -67 36t-6 77l45 123q-215 33 -355 190q-139 158 -155 381q-12 166 0 326q20 251 189 417t425 166z" />
    <glyph glyph-name="Egrave" unicode="&#xc8;" horiz-adv-x="1288" 
d="M736 1542q-36 0 -62 14l-279 142q-63 35 -63 87t32 87q55 60 132 18l276 -143q64 -35 64 -87t-32 -85t-68 -33zM365 1446h675q56 0 96 -38t40 -93t-41 -96t-95 -41h-598v-324h574q53 0 90 -36t37 -89t-38 -92t-89 -39h-574v-330h602q52 0 94 -40t42 -95t-39 -94t-97 -39
h-679q-94 0 -149 58q-54 58 -54 145v1042q0 86 54 144q55 57 149 57z" />
    <glyph glyph-name="Eacute" unicode="&#xc9;" horiz-adv-x="1288" 
d="M967 1785q0 -52 -64 -87l-278 -142q-27 -14 -63 -14t-68 33t-31 85q0 52 63 87l277 143q77 42 132 -18q32 -35 32 -87zM365 1446h675q56 0 96 -38t40 -93t-41 -96t-95 -41h-598v-324h574q53 0 90 -36t37 -89t-38 -92t-89 -39h-574v-330h602q52 0 94 -40t42 -95t-39 -94
t-97 -39h-679q-94 0 -149 58q-54 58 -54 145v1042q0 86 54 144q55 57 149 57z" />
    <glyph glyph-name="Ecircumflex" unicode="&#xca;" horiz-adv-x="1288" 
d="M1024 1657q0 -47 -33 -80t-71 -33t-74 27l-166 127l-166 -127q-41 -27 -78 -27q-38 0 -70 33t-32 80t49 84l219 170q41 31 77 31t77 -31l219 -170q49 -37 49 -84zM365 1446h675q56 0 96 -38t40 -93t-41 -96t-95 -41h-598v-324h574q53 0 90 -36t37 -89t-38 -92t-89 -39
h-574v-330h602q52 0 94 -40t42 -95t-39 -94t-97 -39h-679q-94 0 -149 58q-54 58 -54 145v1042q0 86 54 144q55 57 149 57z" />
    <glyph glyph-name="Edieresis" unicode="&#xcb;" horiz-adv-x="1288" 
d="M735 1681q0 55 38 95t94 39q57 0 95 -39q38 -38 38 -94t-38 -95t-94 -39t-95 39q-38 39 -38 94zM497 1815q56 0 94 -39q38 -38 38 -94t-38 -95t-94 -39t-95 39q-38 39 -37 94q0 55 37 95q39 39 95 39zM365 1446h675q56 0 96 -38t40 -93t-41 -96t-95 -41h-598v-324h574
q53 0 90 -36t37 -89t-38 -92t-89 -39h-574v-330h602q52 0 94 -40t42 -95t-39 -94t-97 -39h-679q-94 0 -149 58q-54 58 -54 145v1042q0 86 54 144q55 57 149 57z" />
    <glyph glyph-name="Igrave" unicode="&#xcc;" horiz-adv-x="591" 
d="M349 1542q-36 0 -62 14l-279 142q-63 35 -63 87t31 87q56 61 133 18l276 -143q63 -35 63 -87t-31 -85q-32 -33 -68 -33zM156 137v1174q0 59 42 101t100 42t98 -42t40 -101v-1174q0 -61 -40 -103t-98 -42t-100 43t-42 102z" />
    <glyph glyph-name="Iacute" unicode="&#xcd;" horiz-adv-x="591" 
d="M212 1542q-36 0 -68 33t-32 85t64 87l277 143q77 42 132 -18q31 -35 31 -87t-63 -87l-279 -142q-26 -14 -62 -14zM156 137v1174q0 59 42 101t100 42t98 -42t40 -101v-1174q0 -61 -40 -103t-98 -42t-100 43t-42 102z" />
    <glyph glyph-name="Icircumflex" unicode="&#xce;" horiz-adv-x="591" 
d="M637 1657q0 -47 -33 -80t-71 -33t-74 27l-166 127l-166 -127q-39 -27 -77 -27t-70 33t-33 80q0 47 49 84l219 170q41 31 77 31t77 -31l219 -170q49 -37 49 -84zM156 137v1174q0 59 42 101t100 42t98 -42t40 -101v-1174q0 -61 -40 -103t-98 -42t-100 43t-42 102z" />
    <glyph glyph-name="Idieresis" unicode="&#xcf;" horiz-adv-x="591" 
d="M352 1683q0 55 38 95t94 39q56 0 94 -39q38 -38 38 -94t-38 -95t-94 -39t-94 39t-38 94zM114 1817q56 0 94 -39q38 -38 38 -94t-38 -95t-94 -39t-95 39q-38 39 -37 94q0 55 37 95q39 39 95 39zM156 137v1174q0 59 42 101t100 42t98 -42t40 -101v-1174q0 -61 -40 -103
t-98 -42t-100 43t-42 102z" />
    <glyph glyph-name="Eth" unicode="&#xd0;" horiz-adv-x="1470" 
d="M442 1169v-325h232q51 0 87 -35t36 -87t-36 -88t-87 -36h-232v-324h242q366 1 391 359q6 80 2 168q-20 369 -393 368h-242zM678 0h-313q-94 0 -149 56q-54 56 -54 143v399h-72q-51 0 -87 36t-36 88t35 87t88 35h72v405q0 89 53 143t150 54h313q322 0 490 -163t188 -441
q8 -109 2 -221q-20 -285 -187 -453t-493 -168z" />
    <glyph glyph-name="Ntilde" unicode="&#xd1;" horiz-adv-x="1570" 
d="M933 1757q29 0 69 31t75 31t63 -31t28 -71t-42 -81q-94 -90 -178 -90q-51 0 -136 39t-117 39q-31 0 -71 -32q-79 -64 -138 -1q-28 31 -28 73t42 79q96 90 166 90t154 -38q83 -38 113 -38zM1130 1311q0 59 41 101t99 42t99 -42q40 -42 40 -101v-1104q0 -91 -56 -153
t-147 -62q-133 0 -205 125l-561 964h-4q4 -109 4 -344v-604q0 -61 -39 -103t-97 -42t-100 43t-42 102v1084q0 101 61 167t162 66q131 0 201 -121l547 -944h4q-6 203 -7 324v602z" />
    <glyph glyph-name="Ograve" unicode="&#xd2;" horiz-adv-x="1503" 
d="M830 1542q-36 0 -62 14l-279 142q-63 35 -63 87t32 87q55 60 132 18l276 -143q64 -35 64 -87t-32 -85t-68 -33zM750 246q147 0 245 96q97 96 109 246t2 266q-12 150 -112 246t-245 96q-147 0 -245 -96t-108 -238t0 -282q11 -142 109 -238t245 -96zM750 -25
q-258 0 -436 166q-177 166 -197 416q-12 166 0 326q20 251 197 417q176 166 434 166t439 -169t199 -414q12 -164 0 -326q-20 -248 -199 -415t-437 -167z" />
    <glyph glyph-name="Oacute" unicode="&#xd3;" horiz-adv-x="1503" 
d="M1063 1785q0 -52 -64 -87l-278 -142q-27 -14 -63 -14t-67 33t-31 85t63 87l276 143q77 42 132 -18q32 -35 32 -87zM750 246q147 0 245 96q97 96 109 246t2 266q-12 150 -112 246t-245 96q-147 0 -245 -96t-108 -238t0 -282q11 -142 109 -238t245 -96zM750 -25
q-258 0 -436 166q-177 166 -197 416q-12 166 0 326q20 251 197 417q176 166 434 166t439 -169t199 -414q12 -164 0 -326q-20 -248 -199 -415t-437 -167z" />
    <glyph glyph-name="Ocircumflex" unicode="&#xd4;" horiz-adv-x="1503" 
d="M1102 1657q0 -47 -33 -80t-71 -33t-74 27l-166 127l-166 -127q-41 -27 -78 -27t-70 33q-32 33 -32 80t49 84l219 170q41 31 77 31t77 -31l219 -170q49 -37 49 -84zM750 246q147 0 245 96q97 96 109 246t2 266q-12 150 -112 246t-245 96q-147 0 -245 -96t-108 -238t0 -282
q11 -142 109 -238t245 -96zM750 -25q-258 0 -436 166q-177 166 -197 416q-12 166 0 326q20 251 197 417q176 166 434 166t439 -169t199 -414q12 -164 0 -326q-20 -248 -199 -415t-437 -167z" />
    <glyph glyph-name="Otilde" unicode="&#xd5;" horiz-adv-x="1503" 
d="M600 1825q70 0 154 -38q83 -38 113 -38t70 31q81 63 137 0q28 -31 28 -71t-41 -81q-94 -90 -178 -90q-51 0 -137 39t-116 39q-32 0 -72 -32t-75 -32t-63 31t-27 73q0 42 41 79q96 90 166 90zM750 246q147 0 245 96q97 96 109 246t2 266q-12 150 -112 246t-245 96
q-147 0 -245 -96t-108 -238t0 -282q11 -142 109 -238t245 -96zM750 -25q-258 0 -436 166q-177 166 -197 416q-12 166 0 326q20 251 197 417q176 166 434 166t439 -169t199 -414q12 -164 0 -326q-20 -248 -199 -415t-437 -167z" />
    <glyph glyph-name="Odieresis" unicode="&#xd6;" horiz-adv-x="1503" 
d="M805 1683q0 55 38 95t94 39q56 0 94 -39q38 -38 38 -94t-38 -95t-94 -39t-94 39t-38 94zM434 1683q0 55 38 95t94 39q56 0 94 -39q38 -38 38 -94t-38 -95t-94 -39t-94 39t-38 94zM750 246q147 0 245 96q97 96 109 246t2 266q-12 150 -112 246t-245 96q-147 0 -245 -96
t-108 -238t0 -282q11 -142 109 -238t245 -96zM750 -25q-258 0 -436 166q-177 166 -197 416q-12 166 0 326q20 251 197 417q176 166 434 166t439 -169t199 -414q12 -164 0 -326q-20 -248 -199 -415t-437 -167z" />
    <glyph glyph-name="multiply" unicode="&#xd7;" horiz-adv-x="1286" 
d="M298 242q-52 0 -92 37t-40 93t39 95l252 252l-252 252q-39 39 -39 95t40 94t92 38t93 -41l252 -254l250 250q39 41 95 40t94 -42t36 -94t-39 -90l-250 -248l248 -244q39 -37 40 -91t-36 -95t-93 -42t-95 40l-250 248l-252 -252q-41 -41 -93 -41z" />
    <glyph glyph-name="Oslash" unicode="&#xd8;" horiz-adv-x="1511" 
d="M758 1196q-146 0 -244 -96t-110 -238q-22 -265 22 -379l485 678q-70 35 -153 35zM758 246q147 0 247 96q99 96 109 250q25 268 -33 395l-501 -696q80 -45 178 -45zM758 -25q-188 0 -338 93l-31 -43q-31 -43 -80 -49t-90 25q-41 30 -46 78t28 93l41 57q-102 141 -116 317
t-3 337q21 251 199 417t436 166q168 0 315 -82l23 33q29 41 80 47t90 -24t45 -79q6 -48 -25 -91l-29 -41q125 -154 139 -332t1 -340q-21 -248 -201 -415t-438 -167z" />
    <glyph glyph-name="Ugrave" unicode="&#xd9;" horiz-adv-x="1529" 
d="M946 1660q0 -52 -32 -85t-68 -33t-62 14l-278 142q-64 35 -64 87t32 87q55 60 132 18l277 -143q63 -35 63 -87zM1384 1311v-695q0 -284 -176 -462t-443 -178t-442 178q-175 180 -176 462v695q0 59 42 101q41 42 101 42t99 -41t39 -102v-705q0 -164 94 -262t244 -98
t244 98t94 262v705q0 59 41 101t100 42t99 -41t40 -102z" />
    <glyph glyph-name="Uacute" unicode="&#xda;" horiz-adv-x="1529" 
d="M672 1542q-36 0 -67 33t-31 85t63 87l276 143q77 43 133 -18q32 -35 32 -87t-64 -87l-279 -142q-27 -14 -63 -14zM1384 1311v-695q0 -284 -176 -462t-443 -178t-442 178q-175 180 -176 462v695q0 59 42 101q41 42 101 42t99 -41t39 -102v-705q0 -164 94 -262t244 -98
t244 98t94 262v705q0 59 41 101t100 42t99 -41t40 -102z" />
    <glyph glyph-name="Ucircumflex" unicode="&#xdb;" horiz-adv-x="1529" 
d="M1116 1657q0 -47 -33 -80t-71 -33t-74 27l-166 127l-166 -127q-42 -27 -78 -27t-69 33t-33 80t49 84l219 170q41 31 77 31t77 -31l219 -170q49 -37 49 -84zM1384 1311v-695q0 -284 -176 -462t-443 -178t-442 178q-175 180 -176 462v695q0 59 42 101q41 42 101 42t99 -41
t39 -102v-705q0 -164 94 -262t244 -98t244 98t94 262v705q0 59 41 101t100 42t99 -41t40 -102z" />
    <glyph glyph-name="Udieresis" unicode="&#xdc;" horiz-adv-x="1529" 
d="M819 1683q0 55 38 95t94 39q57 0 95 -39q38 -38 38 -94t-38 -95t-94 -39t-95 39q-38 39 -38 94zM581 1817q56 0 94 -39q38 -38 38 -94t-38 -95t-94 -39t-95 39q-38 39 -37 94q0 55 37 95q39 39 95 39zM1384 1311v-695q0 -284 -176 -462t-443 -178t-442 178
q-175 180 -176 462v695q0 59 42 101q41 42 101 42t99 -41t39 -102v-705q0 -164 94 -262t244 -98t244 98t94 262v705q0 59 41 101t100 42t99 -41t40 -102z" />
    <glyph glyph-name="Yacute" unicode="&#xdd;" horiz-adv-x="1351" 
d="M928 1785q0 -52 -64 -87l-278 -142q-27 -14 -63 -14q-35 0 -67 33t-32 85t63 87l277 143q77 42 132 -18q32 -35 32 -87zM23 1311q0 55 43 99q42 44 106 44t107 -55l397 -498l399 498q39 45 96 53t107 -31q45 -39 51 -98t-33 -109l-424 -509q-55 -64 -55 -117v-453
q0 -59 -41 -101t-99 -42t-100 43t-42 100v453q-1 43 -17 66q-16 24 -41 53l-420 507q-34 42 -34 97z" />
    <glyph glyph-name="Thorn" unicode="&#xde;" horiz-adv-x="1327" 
d="M442 502h291q242 0 242 225q1 103 -59 165t-177 62h-297v-452zM739 233h-297v-98q0 -61 -40 -103t-98 -42t-100 43t-42 102v1174q0 59 42 102t99 43t98 -43t41 -102v-103h316q213 0 357 -131q145 -131 145 -356t-145 -355t-376 -131z" />
    <glyph glyph-name="germandbls" unicode="&#xdf;" horiz-adv-x="1425" 
d="M1087 1167q1 -67 -23 -121t-52 -85q-77 -84 -76 -144q0 -40 26 -57q26 -18 44 -28q16 -10 57 -27q41 -18 65 -31q219 -106 220 -326q0 -143 -113 -253q-113 -109 -306 -109t-329 104q-49 41 -60 95q-12 54 18 94q30 39 83 47t111 -33q78 -61 154 -61t121 38q46 38 46 100
t-40 97q-39 35 -151 69t-167 92t-55 140t38 140q39 58 78 106t39 99q0 50 -42 84t-124 34q-225 0 -225 -230v-868q0 -59 -40 -101t-98 -42t-99 42q-40 42 -40 101v895q1 213 135 333t386 120q193 -1 306 -85t113 -229z" />
    <glyph glyph-name="agrave" unicode="&#xe0;" horiz-adv-x="1142" 
d="M788 1324q0 -52 -32 -85t-67 -33q-36 0 -62 15l-279 141q-63 35 -63 87t31 87q56 61 133 18l276 -143q63 -35 63 -87zM562 217q100 0 183 53v185q-235 70 -334 -4q-48 -37 -49 -97q0 -137 200 -137zM1010 694v-501q0 -63 -49 -97q-166 -113 -433 -112q-212 0 -322 102
t-110 252t104 244q104 96 318 96q98 0 227 -31v55q0 82 -45 121t-141 39q-97 0 -193 -31t-148 3t-52 100q0 88 90 125q119 51 301 51q453 0 453 -416z" />
    <glyph glyph-name="aacute" unicode="&#xe1;" horiz-adv-x="1142" 
d="M885 1449q0 -52 -64 -87l-278 -141q-76 -39 -130 18q-32 33 -32 85t63 87l277 143q77 42 132 -18q32 -35 32 -87zM562 217q100 0 183 53v185q-235 70 -334 -4q-48 -37 -49 -97q0 -137 200 -137zM1010 694v-501q0 -63 -49 -97q-166 -113 -433 -112q-212 0 -322 102
t-110 252t104 244q104 96 318 96q98 0 227 -31v55q0 82 -45 121t-141 39q-97 0 -193 -31t-148 3t-52 100q0 88 90 125q119 51 301 51q453 0 453 -416z" />
    <glyph glyph-name="acircumflex" unicode="&#xe2;" horiz-adv-x="1142" 
d="M932 1294q0 -47 -33 -80q-64 -64 -145 -6l-166 127l-166 -127q-84 -56 -148 6q-32 33 -32 80t49 84l219 170q41 31 77 31t77 -31l219 -170q49 -37 49 -84zM562 217q100 0 183 53v185q-235 70 -334 -4q-48 -37 -49 -97q0 -137 200 -137zM1010 694v-501q0 -63 -49 -97
q-166 -113 -433 -112q-212 0 -322 102t-110 252t104 244q104 96 318 96q98 0 227 -31v55q0 82 -45 121t-141 39q-97 0 -193 -31t-148 3t-52 100q0 88 90 125q119 51 301 51q453 0 453 -416z" />
    <glyph glyph-name="atilde" unicode="&#xe3;" horiz-adv-x="1142" 
d="M430 1497q70 0 154 -38q83 -38 113 -38t70 31t75 31q34 0 62 -31t28 -71t-41 -81q-94 -90 -178 -90q-51 0 -136 39t-117 39t-72 -32q-80 -64 -137 -1q-28 31 -28 73t41 79q96 90 166 90zM562 217q100 0 183 53v185q-235 70 -334 -4q-48 -37 -49 -97q0 -137 200 -137z
M1010 694v-501q0 -63 -49 -97q-166 -113 -433 -112q-212 0 -322 102t-110 252t104 244q104 96 318 96q98 0 227 -31v55q0 82 -45 121t-141 39q-97 0 -193 -31t-148 3t-52 100q0 88 90 125q119 51 301 51q453 0 453 -416z" />
    <glyph glyph-name="adieresis" unicode="&#xe4;" horiz-adv-x="1142" 
d="M769 1485q56 0 94 -39t38 -94q0 -54 -38 -94t-94 -40t-94 40q-38 38 -38 94t38 94q38 39 94 39zM398 1485q56 0 94 -39t38 -94t-37 -95q-39 -39 -95 -39t-94 40q-38 38 -38 94t38 94q38 39 94 39zM562 217q100 0 183 53v185q-235 70 -334 -4q-48 -37 -49 -97
q0 -137 200 -137zM1010 694v-501q0 -63 -49 -97q-166 -113 -433 -112q-212 0 -322 102t-110 252t104 244q104 96 318 96q98 0 227 -31v55q0 82 -45 121t-141 39q-97 0 -193 -31t-148 3t-52 100q0 88 90 125q119 51 301 51q453 0 453 -416z" />
    <glyph glyph-name="aring" unicode="&#xe5;" horiz-adv-x="1142" 
d="M502 1397q0 -35 22 -59t57 -24t57 24t21 59t-23 59t-56 23q-34 1 -56 -23t-22 -59zM354 1398q0 93 68 160q68 66 161 66t161 -66t67 -161q0 -94 -68 -160q-69 -66 -161 -66t-160 67t-68 160zM562 217q100 0 183 53v185q-235 70 -334 -4q-48 -37 -49 -97q0 -137 200 -137z
M1010 694v-501q0 -63 -49 -97q-166 -113 -433 -112q-212 0 -322 102t-110 252t104 244q104 96 318 96q98 0 227 -31v55q0 82 -45 121t-141 39q-97 0 -193 -31t-148 3t-52 100q0 88 90 125q119 51 301 51q453 0 453 -416z" />
    <glyph glyph-name="ae" unicode="&#xe6;" horiz-adv-x="1792" 
d="M1405 639q18 0 22 25q4 96 -50 152q-55 56 -159 56t-159 -64t-53 -169h399zM553 217q119 0 217 64q-33 76 -29 176q-239 62 -330 -6q-48 -37 -49 -97q1 -137 191 -137zM745 707q0 155 -183 155q-93 0 -214 -37q-84 -23 -133 11t-49 110t94 113q111 51 297 51
q233 0 340 -121q121 121 327 121t334 -123t134 -334q2 -20 2 -55q0 -145 -148 -145h-540v-21q0 -96 66 -147t169 -51q104 0 219 45q78 29 129 -9t51 -106q0 -70 -69 -109q-127 -71 -319 -71t-326 108q-170 -108 -390 -108t-330 103t-110 251t106 244t316 96q98 0 227 -31v60
z" />
    <glyph glyph-name="ccedilla" unicode="&#xe7;" horiz-adv-x="1146" 
d="M604 1110q203 0 327 -101t124 -204q0 -57 -37 -98q-36 -41 -102 -41t-103 61q-63 123 -203 123q-98 0 -154 -52t-66 -146t0 -194t66 -156t154 -56q139 0 205 121q39 63 103 63t102 -41q37 -41 37 -100q-1 -91 -103 -187t-274 -116l-27 -62q99 -8 153 -65t54 -148
q0 -193 -266 -286q-47 -18 -93 2t-46 80t63 85q94 37 121 60t27 48q0 26 -16 42t-42 16l-69 -8q-41 0 -66 36q-24 36 -10 77l47 127q-166 26 -274 142t-118 268q-11 152 -1 292q12 184 148 301t339 117z" />
    <glyph glyph-name="egrave" unicode="&#xe8;" horiz-adv-x="1167" 
d="M697 1206q-36 0 -62 15l-279 141q-63 35 -63 87t32 87q55 60 132 18l276 -143q63 -35 63 -87t-31 -85q-32 -33 -68 -33zM383 639h399q23 0 23 25q4 94 -51 151q-56 57 -158 57t-158 -62t-55 -171zM1069 635v-45q0 -137 -141 -137h-545v-21q1 -94 65 -146t167 -52t223 45
q76 29 128 -9t52 -106t-70 -109q-121 -71 -334 -71t-347 120t-150 314q-8 117 0 256q18 200 150 318t338 118t335 -130t129 -345z" />
    <glyph glyph-name="eacute" unicode="&#xe9;" horiz-adv-x="1167" 
d="M467 1411l276 143q77 43 133 -18q32 -35 32 -87t-64 -87l-279 -141q-75 -39 -130 18q-31 33 -31 85t63 87zM383 639h399q23 0 23 25q4 94 -51 151q-56 57 -158 57t-158 -62t-55 -171zM1069 635v-45q0 -137 -141 -137h-545v-21q1 -94 65 -146t167 -52t223 45q76 29 128 -9
t52 -106t-70 -109q-121 -71 -334 -71t-347 120t-150 314q-8 117 0 256q18 200 150 318t338 118t335 -130t129 -345z" />
    <glyph glyph-name="ecircumflex" unicode="&#xea;" horiz-adv-x="1167" 
d="M940 1321q0 -47 -33 -80t-71 -33t-74 27l-166 127l-166 -127q-41 -27 -78 -27q-38 0 -70 33t-32 80t49 84l219 170q41 31 77 31t77 -31l219 -170q49 -37 49 -84zM383 639h399q23 0 23 25q4 94 -51 151q-56 57 -158 57t-158 -62t-55 -171zM1069 635v-45q0 -137 -141 -137
h-545v-21q1 -94 65 -146t167 -52t223 45q76 29 128 -9t52 -106t-70 -109q-121 -71 -334 -71t-347 120t-150 314q-8 117 0 256q18 200 150 318t338 118t335 -130t129 -345z" />
    <glyph glyph-name="edieresis" unicode="&#xeb;" horiz-adv-x="1167" 
d="M789 1485q57 0 95 -39t38 -94q0 -54 -38 -94t-94 -40t-95 40q-38 38 -38 94t38 94q38 39 94 39zM419 1485q56 0 94 -39t38 -94q0 -54 -38 -94t-94 -40t-94 40q-38 38 -38 94t38 94q38 39 94 39zM383 639h399q23 0 23 25q4 94 -51 151q-56 57 -158 57t-158 -62t-55 -171z
M1069 635v-45q0 -137 -141 -137h-545v-21q1 -94 65 -146t167 -52t223 45q76 29 128 -9t52 -106t-70 -109q-121 -71 -334 -71t-347 120t-150 314q-8 117 0 256q18 200 150 318t338 118t335 -130t129 -345z" />
    <glyph glyph-name="igrave" unicode="&#xec;" horiz-adv-x="589" 
d="M295 1104q57 0 98 -41t41 -100v-832q0 -59 -40 -100t-97 -41t-98 42t-41 99v832q0 59 40 100t97 41zM479 1324q0 -52 -32 -85q-31 -33 -67 -33t-63 15l-278 141q-63 35 -63 87t31 87q55 60 132 18l277 -143q63 -35 63 -87z" />
    <glyph glyph-name="iacute" unicode="&#xed;" horiz-adv-x="589" 
d="M295 1104q57 0 98 -41t41 -100v-832q0 -59 -40 -100t-97 -41t-98 42t-41 99v832q0 59 40 100t97 41zM176 1411l277 143q77 42 132 -18q31 -35 31 -87t-63 -87l-279 -141q-75 -39 -130 18q-32 33 -32 85t64 87z" />
    <glyph glyph-name="icircumflex" unicode="&#xee;" horiz-adv-x="589" 
d="M645 1321q0 -47 -33 -80q-32 -33 -70 -33t-75 27l-166 127l-166 -127q-41 -27 -78 -27t-69 33t-33 80q0 47 49 84l219 170q41 31 77 31t77 -31l219 -170q49 -37 49 -84zM295 1104q57 0 98 -41t41 -100v-832q0 -59 -40 -100t-97 -41t-98 42t-41 99v832q0 59 40 100t97 41z
" />
    <glyph glyph-name="idieresis" unicode="&#xef;" horiz-adv-x="589" 
d="M295 1104q57 0 98 -41t41 -100v-832q0 -59 -40 -100t-97 -41t-98 42t-41 99v832q0 59 40 100t97 41zM484 1485q56 0 94 -39t38 -94t-37 -95q-39 -39 -95 -39t-94 40q-38 38 -38 94t38 94q38 39 94 39zM114 1485q56 0 94 -39t38 -94q0 -54 -38 -94t-94 -40t-95 39
q-37 39 -37 95t37 94q39 39 95 39z" />
    <glyph glyph-name="eth" unicode="&#xf0;" horiz-adv-x="1261" 
d="M603 791q-89 1 -144 -53t-63 -145t-1 -165q9 -74 65 -126t143 -52t143 52t67 136q4 55 0 166q-9 82 -65 134t-145 53zM609 -12q-204 0 -340 118t-152 302q-8 117 0 235q14 184 145 297t334 113q137 0 250 -80q-4 119 -66 207l-133 -58q-43 -18 -85 -4t-64 53
q-18 41 -1 85t60 61l47 20q-76 63 -33 150q19 37 63 51t91 -6q76 -39 133 -86l103 45q39 18 83 5t60 -55q18 -42 2 -85t-57 -60l-54 -22q94 -174 95 -416l-3 -418q0 -196 -137 -324t-341 -128z" />
    <glyph glyph-name="ntilde" unicode="&#xf1;" horiz-adv-x="1220" 
d="M714 1421q30 0 70 31t74 31q35 0 63 -31q27 -31 27 -71t-41 -81q-94 -90 -178 -90q-51 0 -136 39t-117 39t-72 -32q-79 -63 -137 -1q-27 31 -27 73t41 79q97 90 167 90t153 -38t113 -38zM1090 662v-531q0 -59 -39 -100t-97 -41t-98 42q-41 42 -41 99v518q0 93 -56 143
t-161 50t-182 -49v-662q0 -59 -39 -100t-96 -41t-99 42q-41 42 -41 99v766q0 67 55 105q54 38 168 73t261 35q229 0 347 -116t118 -332z" />
    <glyph glyph-name="ograve" unicode="&#xf2;" horiz-adv-x="1214" 
d="M811 1324q0 -52 -32 -85q-31 -33 -67 -33t-63 15l-278 141q-63 35 -63 87t31 87q55 60 132 18l277 -143q63 -35 63 -87zM610 848q-96 0 -154 -54t-66 -152t-1 -192q9 -96 67 -150t152 -54t153 54q58 54 65 149t1 191t-64 152q-57 56 -153 56zM609 1110q202 0 337 -117
q134 -117 148 -282t1 -329t-149 -282q-136 -116 -337 -116q-202 0 -339 116t-150 280t-1 330t150 283t340 117z" />
    <glyph glyph-name="oacute" unicode="&#xf3;" horiz-adv-x="1214" 
d="M895 1449q0 -52 -64 -87l-278 -141q-75 -39 -130 18q-31 33 -31 85t63 87l276 143q77 42 132 -18q32 -35 32 -87zM610 848q-96 0 -154 -54t-66 -152t-1 -192q9 -96 67 -150t152 -54t153 54q58 54 65 149t1 191t-64 152q-57 56 -153 56zM609 1110q202 0 337 -117
q134 -117 148 -282t1 -329t-149 -282q-136 -116 -337 -116q-202 0 -339 116t-150 280t-1 330t150 283t340 117z" />
    <glyph glyph-name="ocircumflex" unicode="&#xf4;" horiz-adv-x="1214" 
d="M956 1319q0 -47 -32 -80t-71 -33q-38 0 -75 27l-166 127l-166 -127q-42 -27 -78 -27t-69 33t-33 80t49 84l220 170q41 31 77 31t76 -31l219 -170q49 -37 49 -84zM610 848q-96 0 -154 -54t-66 -152t-1 -192q9 -96 67 -150t152 -54t153 54q58 54 65 149t1 191t-64 152
q-57 56 -153 56zM609 1110q202 0 337 -117q134 -117 148 -282t1 -329t-149 -282q-136 -116 -337 -116q-202 0 -339 116t-150 280t-1 330t150 283t340 117z" />
    <glyph glyph-name="otilde" unicode="&#xf5;" horiz-adv-x="1214" 
d="M722 1421q30 0 70 31t74 31t63 -31q27 -31 27 -71t-41 -81q-94 -90 -178 -90q-51 0 -136 39t-117 39t-72 -32q-79 -64 -137 -1q-27 31 -27 73t41 79q97 90 167 90t153 -38t113 -38zM610 848q-96 0 -154 -54t-66 -152t-1 -192q9 -96 67 -150t152 -54t153 54q58 54 65 149
t1 191t-64 152q-57 56 -153 56zM609 1110q202 0 337 -117q134 -117 148 -282t1 -329t-149 -282q-136 -116 -337 -116q-202 0 -339 116t-150 280t-1 330t150 283t340 117z" />
    <glyph glyph-name="odieresis" unicode="&#xf6;" horiz-adv-x="1214" 
d="M794 1485q56 0 94 -39t38 -94q0 -54 -38 -94t-94 -40t-95 39q-37 39 -37 95t37 94q39 39 95 39zM423 1485q56 0 94 -39t38 -94q0 -54 -38 -94t-94 -40t-94 40q-38 38 -38 94t38 94q38 39 94 39zM610 848q-96 0 -154 -54t-66 -152t-1 -192q9 -96 67 -150t152 -54t153 54
q58 54 65 149t1 191t-64 152q-57 56 -153 56zM609 1110q202 0 337 -117q134 -117 148 -282t1 -329t-149 -282q-136 -116 -337 -116q-202 0 -339 116t-150 280t-1 330t150 283t340 117z" />
    <glyph glyph-name="divide" unicode="&#xf7;" horiz-adv-x="1286" 
d="M487 291q1 63 47 108t108 45t108 -45t47 -108q0 -63 -46 -109q-47 -46 -109 -47q-62 1 -108 47t-47 109zM487 1146q1 62 47 108t108 46t108 -46t47 -108q0 -62 -46 -108q-47 -46 -109 -47q-62 1 -108 47t-47 108zM1030 584h-776q-55 0 -94 39t-39 93t39 92t94 38h776
q55 0 94 -38t39 -92t-40 -93t-93 -39z" />
    <glyph glyph-name="oslash" unicode="&#xf8;" horiz-adv-x="1226" 
d="M614 848q-94 0 -152 -54t-67 -150q-8 -95 -2 -181l314 368q-43 16 -93 17zM632 246q76 0 135 54q58 54 64 144q8 90 0 191l-317 -371q42 -18 118 -18zM614 1110q152 0 273 -70l28 33q31 37 78 39t80 -28t35 -76t-27 -82l-37 -43q50 -89 60 -213t-3 -288t-149 -282
q-136 -117 -338 -116q-158 0 -278 73l-27 -30q-33 -37 -80 -39t-79 28t-35 75q-2 46 30 83l35 41q-81 135 -55 495q12 166 150 283t339 117z" />
    <glyph glyph-name="ugrave" unicode="&#xf9;" horiz-adv-x="1220" 
d="M819 1324q0 -52 -32 -85q-31 -33 -67 -33t-63 15l-278 141q-63 35 -63 87t31 87q55 60 132 18l277 -143q63 -35 63 -87zM135 432v526q0 62 36 104t97 42q62 0 102 -42t40 -104v-522q0 -90 53 -140t155 -50t189 53v664q0 59 39 100t97 41t98 -41t40 -100v-766
q0 -66 -49 -97q-164 -116 -408 -116t-367 116q-122 116 -122 332z" />
    <glyph glyph-name="uacute" unicode="&#xfa;" horiz-adv-x="1220" 
d="M926 1449q0 -52 -64 -87l-278 -141q-76 -39 -130 18q-32 33 -32 85t63 87l277 143q77 42 132 -18q32 -35 32 -87zM135 432v526q0 62 36 104t97 42q62 0 102 -42t40 -104v-522q0 -90 53 -140t155 -50t189 53v664q0 59 39 100t97 41t98 -41t40 -100v-766q0 -66 -49 -97
q-164 -116 -408 -116t-367 116q-122 116 -122 332z" />
    <glyph glyph-name="ucircumflex" unicode="&#xfb;" horiz-adv-x="1220" 
d="M954 1321q0 -47 -32 -80t-71 -33q-38 0 -75 27l-166 127l-166 -127q-42 -27 -78 -27t-69 33t-33 80t49 84l219 170q41 31 77 31t77 -31l219 -170q49 -37 49 -84zM135 432v526q0 62 36 104t97 42q62 0 102 -42t40 -104v-522q0 -90 53 -140t155 -50t189 53v664q0 59 39 100
t97 41t98 -41t40 -100v-766q0 -66 -49 -97q-164 -116 -408 -116t-367 116q-122 116 -122 332z" />
    <glyph glyph-name="udieresis" unicode="&#xfc;" horiz-adv-x="1220" 
d="M802 1485q56 0 94 -39t38 -94q0 -54 -38 -94t-94 -40t-94 40q-38 38 -38 94t38 94q38 39 94 39zM431 1485q56 0 94 -39t38 -94q0 -54 -38 -94t-94 -40t-94 40q-38 38 -38 94t38 94q38 39 94 39zM135 432v526q0 62 36 104t97 42q62 0 102 -42t40 -104v-522q0 -90 53 -140
t155 -50t189 53v664q0 59 39 100t97 41t98 -41t40 -100v-766q0 -66 -49 -97q-164 -116 -408 -116t-367 116q-122 116 -122 332z" />
    <glyph glyph-name="yacute" unicode="&#xfd;" horiz-adv-x="1101" 
d="M926 1451q0 -52 -64 -87l-278 -141q-76 -39 -130 18q-32 33 -32 85t63 87l277 143q77 42 132 -18q32 -35 32 -87zM557 406q8 0 12 12l213 581q39 106 142 107q80 0 122 -65t9 -140l-383 -891q-121 -281 -273 -381q-59 -39 -114 -39t-96 36q-39 36 -39 98t61 106
q131 92 188 252l-352 821q-33 76 10 139t121 64q102 0 141 -107l226 -581q4 -12 12 -12z" />
    <glyph glyph-name="thorn" unicode="&#xfe;" horiz-adv-x="1228" 
d="M625 854q-51 0 -111 -19t-90 -42v-492q80 -55 205 -55q197 0 209 196q6 133 0 207q-16 205 -213 205zM424 -270q0 -58 -40 -100t-97 -42t-99 41q-41 41 -41 101v1595q0 59 39 101q40 42 98 42t99 -42t41 -101v-242q117 35 211 35q205 0 332 -114t145 -308
q12 -144 -3 -316t-133 -284t-321 -110q-121 0 -231 49v-305z" />
    <glyph glyph-name="ydieresis" unicode="&#xff;" horiz-adv-x="1101" 
d="M742 1485q56 0 94 -39t38 -94t-37 -95q-39 -39 -95 -39t-94 40q-38 38 -38 94t38 94q38 39 94 39zM372 1485q56 0 94 -39t38 -94q0 -54 -38 -94t-94 -40t-94 40q-38 38 -38 94t38 94q38 39 94 39zM557 406q8 0 12 12l213 581q39 106 142 107q80 0 122 -65t9 -140
l-383 -891q-121 -281 -273 -381q-59 -39 -114 -39t-96 36q-39 36 -39 98t61 106q131 92 188 252l-352 821q-33 76 10 139t121 64q102 0 141 -107l226 -581q4 -12 12 -12z" />
    <glyph glyph-name="Amacron" unicode="&#x100;" horiz-adv-x="1415" 
d="M549 1790h323q47 0 79 -33t32 -80t-32 -80t-79 -32h-323q-47 1 -79 33t-32 79t32 80t79 33zM708 1180q-26 0 -34 -27l-168 -489h401l-166 489q-7 27 -33 27zM1374 125q0 -43 -39 -86t-91 -43q-108 0 -138 88l-113 330h-571l-113 -330q-16 -41 -53 -66q-37 -24 -88 -24
t-89 43t-38 85t8 64l389 1082q35 98 107 148t164 50q201 0 272 -198l385 -1082q8 -18 8 -61z" />
    <glyph glyph-name="amacron" unicode="&#x101;" horiz-adv-x="1142" 
d="M422 1456h323q47 0 79 -33t32 -80t-32 -79t-79 -33h-323q-47 0 -79 33q-32 34 -32 80t32 79t79 33zM562 217q100 0 183 53v185q-235 70 -334 -4q-48 -37 -49 -97q0 -137 200 -137zM1010 694v-501q0 -63 -49 -97q-166 -113 -433 -112q-212 0 -322 102t-110 252t104 244
q104 96 318 96q98 0 227 -31v55q0 82 -45 121t-141 39q-97 0 -193 -31t-148 3t-52 100q0 88 90 125q119 51 301 51q453 0 453 -416z" />
    <glyph glyph-name="Abreve" unicode="&#x102;" horiz-adv-x="1415" 
d="M709 1731q78 0 106 88q25 72 98 71q43 0 73 -30t30 -60q0 -32 -8 -49q-31 -91 -111 -153q-81 -62 -189 -62t-188 61t-110 154q-8 16 -8 48t29 62q30 30 73 29q74 0 98 -71q29 -88 107 -88zM708 1180q-26 0 -34 -27l-168 -489h401l-166 489q-7 27 -33 27zM1374 125
q0 -43 -39 -86t-91 -43q-108 0 -138 88l-113 330h-571l-113 -330q-16 -41 -53 -66q-37 -24 -88 -24t-89 43t-38 85t8 64l389 1082q35 98 107 148t164 50q201 0 272 -198l385 -1082q8 -18 8 -61z" />
    <glyph glyph-name="abreve" unicode="&#x103;" horiz-adv-x="1142" 
d="M575 1395q78 0 107 88q25 72 98 71q43 0 73 -30t30 -60q0 -32 -9 -49q-30 -92 -110 -153q-80 -62 -189 -62t-189 62t-110 153q-8 16 -8 48t30 62t73 29q74 0 98 -71q28 -88 106 -88zM562 217q100 0 183 53v185q-235 70 -334 -4q-48 -37 -49 -97q0 -137 200 -137z
M1010 694v-501q0 -63 -49 -97q-166 -113 -433 -112q-212 0 -322 102t-110 252t104 244q104 96 318 96q98 0 227 -31v55q0 82 -45 121t-141 39q-97 0 -193 -31t-148 3t-52 100q0 88 90 125q119 51 301 51q453 0 453 -416z" />
    <glyph glyph-name="Aogonek" unicode="&#x104;" horiz-adv-x="1439" 
d="M710 1180q-24 0 -32 -27l-172 -489h401l-166 489q-7 27 -31 27zM709 1466q201 0 272 -198l383 -1078q18 -47 4 -96t-57 -76q-188 -111 -189 -194q0 -43 26 -67q52 -48 121 -7t113 -16q23 -31 17 -67t-37 -60q-80 -59 -186 -59t-179 72q-72 73 -71 183q0 166 182 281
l-115 330h-571l-113 -330q-18 -53 -72 -77q-55 -23 -109 -3t-76 74t-3 108l389 1082q35 98 107 148t164 50z" />
    <glyph glyph-name="aogonek" unicode="&#x105;" horiz-adv-x="1142" 
d="M362 352q0 -62 50 -100t154 -39q104 0 179 45v197q-235 70 -335 -4q-48 -37 -48 -99zM743 -164q0 -53 26 -79q48 -48 119 -7t116 -16q22 -31 16 -67t-37 -60q-81 -59 -187 -59t-178 72q-72 73 -72 178t56 186q-49 -4 -74 -4q-212 0 -322 104t-110 254t104 244
q104 96 318 96q98 0 227 -31v64q0 82 -45 123q-90 82 -346 2q-84 -23 -136 9t-52 95q0 84 94 121q129 57 297 57q453 0 453 -416v-534q-1 -64 -97 -109q-170 -78 -170 -223z" />
    <glyph glyph-name="Cacute" unicode="&#x106;" horiz-adv-x="1366" 
d="M1055 1785q0 -52 -64 -87l-278 -142q-27 -14 -63 -14t-68 33t-31 85q0 52 63 87l277 143q77 42 132 -18q32 -35 32 -87zM729 246q197 0 291 180q47 82 123 82q51 0 94 -38t43 -84t-14 -85q-66 -152 -213 -239t-324 -87q-256 0 -425 165t-189 417q-12 166 0 326
q20 251 189 417t425 166q175 0 323 -87t214 -238q14 -39 14 -85t-43 -84t-94 -38q-74 0 -123 82q-94 180 -291 180q-145 0 -235 -97t-100 -239t-1 -286q9 -142 99 -235t237 -93z" />
    <glyph glyph-name="cacute" unicode="&#x107;" horiz-adv-x="1146" 
d="M918 1449q0 -52 -64 -87l-279 -141q-75 -39 -130 18q-31 33 -31 85t63 87l277 143q77 42 132 -18q32 -35 32 -87zM610 246q137 0 205 125q35 63 101 63t104 -41q37 -41 37 -100q0 -101 -125 -205t-327 -104t-337 122t-151 308q-10 141 0 278q12 184 148 301t339 117
t327 -101t124 -204q0 -57 -37 -98q-38 -41 -104 -41t-101 61q-66 121 -203 121q-98 0 -154 -52t-66 -144t0 -192q10 -98 66 -156t154 -58z" />
    <glyph glyph-name="Cdotaccent" unicode="&#x10a;" horiz-adv-x="1366" 
d="M719 1817q55 0 94 -39q39 -38 39 -94t-39 -95t-94 -39t-94 39t-39 94t39 95t94 39zM729 246q197 0 291 180q47 82 123 82q51 0 94 -38t43 -84t-14 -85q-66 -152 -213 -239t-324 -87q-256 0 -425 165t-189 417q-12 166 0 326q20 251 189 417t425 166q175 0 323 -87
t214 -238q14 -39 14 -85t-43 -84t-94 -38q-74 0 -123 82q-94 180 -291 180q-145 0 -235 -97t-100 -239t-1 -286q9 -142 99 -235t237 -93z" />
    <glyph glyph-name="cdotaccent" unicode="&#x10b;" horiz-adv-x="1146" 
d="M598 1485q55 0 94 -39t39 -94q0 -54 -39 -94t-94 -40t-94 40q-39 38 -39 94t39 94q39 39 94 39zM610 246q137 0 205 125q35 63 101 63t104 -41q37 -41 37 -100q0 -101 -125 -205t-327 -104t-337 122t-151 308q-10 141 0 278q12 184 148 301t339 117t327 -101t124 -204
q0 -57 -37 -98q-38 -41 -104 -41t-101 61q-66 121 -203 121q-98 0 -154 -52t-66 -144t0 -192q10 -98 66 -156t154 -58z" />
    <glyph glyph-name="Ccaron" unicode="&#x10c;" horiz-adv-x="1366" 
d="M716 1544q-36 0 -77 31l-219 168q-49 39 -49 86t32 80q33 33 70 33t78 -27l166 -127l166 127q37 27 75 27t70 -33q33 -33 33 -80t-49 -86l-219 -168q-41 -31 -77 -31zM729 246q197 0 291 180q47 82 123 82q51 0 94 -38t43 -84t-14 -85q-66 -152 -213 -239t-324 -87
q-256 0 -425 165t-189 417q-12 166 0 326q20 251 189 417t425 166q175 0 323 -87t214 -238q14 -39 14 -85t-43 -84t-94 -38q-74 0 -123 82q-94 180 -291 180q-145 0 -235 -97t-100 -239t-1 -286q9 -142 99 -235t237 -93z" />
    <glyph glyph-name="ccaron" unicode="&#x10d;" horiz-adv-x="1146" 
d="M591 1208q-36 0 -77 31l-219 168q-49 39 -49 86t33 80t69 33t78 -27l166 -127l166 127q36 27 74 27t71 -33t33 -80t-49 -86l-219 -168q-41 -31 -77 -31zM610 246q137 0 205 125q35 63 101 63t104 -41q37 -41 37 -100q0 -101 -125 -205t-327 -104t-337 122t-151 308
q-10 141 0 278q12 184 148 301t339 117t327 -101t124 -204q0 -57 -37 -98q-38 -41 -104 -41t-101 61q-66 121 -203 121q-98 0 -154 -52t-66 -144t0 -192q10 -98 66 -156t154 -58z" />
    <glyph glyph-name="Dcaron" unicode="&#x10e;" horiz-adv-x="1468" 
d="M710 1544q-36 0 -77 31l-219 168q-49 39 -49 86t32 80q33 33 70 33t78 -27l166 -127l166 127q37 27 75 27t70 -33q33 -33 33 -80t-49 -86l-220 -168q-40 -31 -76 -31zM678 0h-313q-94 0 -149 56q-54 56 -54 143v1050q0 89 53 143t150 54h313q322 0 490 -163t188 -441
q8 -109 2 -221q-20 -285 -187 -453t-493 -168zM442 1171v-897h242q368 1 391 357q6 80 2 168q-20 373 -393 372h-242z" />
    <glyph glyph-name="dcaron" unicode="&#x10f;" horiz-adv-x="1429" 
d="M1296 1128q-44 0 -74 30t-30 63t31 94t30 115v65q0 53 30 87t81 34t81 -34t30 -87v-53q-1 -125 -64 -240q-43 -74 -115 -74zM608 246q52 0 112 20t87 43v484q-86 55 -215 55q-188 0 -201 -199q-8 -92 0 -198q12 -205 217 -205zM565 1110q123 0 242 -51v270q0 59 40 101
t97 40q57 0 97 -40t40 -101v-1122q0 -63 -55 -102t-171 -80t-253 -41q-209 0 -339 118t-146 308q-12 139 0 282q16 194 133 306t315 112z" />
    <glyph glyph-name="Dcroat" unicode="&#x110;" horiz-adv-x="1462" 
d="M436 274h242q367 0 391 359q6 92 0 184q-23 352 -391 352h-242v-325h230q53 0 88 -35q34 -35 34 -87t-34 -88t-88 -36h-230v-324zM672 0h-312q-96 0 -150 56t-54 143v399h-74q-53 0 -88 36t-35 88t35 87t88 35h74v401q0 85 54 143t150 58h312q322 0 490 -163t188 -441
q10 -119 0 -234q-18 -280 -188 -444t-490 -164z" />
    <glyph glyph-name="dcroat" unicode="&#x111;" horiz-adv-x="1234" 
d="M608 248q50 0 110 20t87 43v486q-86 55 -213 55q-184 0 -201 -205q-6 -88 0 -194q12 -205 217 -205zM565 1112q121 0 240 -51v115h-154q-49 0 -81 32t-32 79q0 48 32 79t81 31h160v35q0 36 37 64t98 28t98 -29t37 -63v-35h29q39 0 71 -29q31 -29 31 -82t-32 -82t-74 -28
h-25v-971q0 -63 -49 -96q-178 -127 -408 -127t-361 118q-130 118 -146 310q-12 141 0 284q16 194 133 306t315 112z" />
    <glyph glyph-name="Emacron" unicode="&#x112;" horiz-adv-x="1288" 
d="M516 1790h324q47 0 79 -33q31 -33 31 -80t-32 -80t-78 -32h-324q-47 1 -79 33t-31 79q0 47 31 80q32 33 79 33zM365 1446h675q56 0 96 -38t40 -93t-41 -96t-95 -41h-598v-324h574q53 0 90 -36t37 -89t-38 -92t-89 -39h-574v-330h602q52 0 94 -40t42 -95t-39 -94t-97 -39
h-679q-94 0 -149 58q-54 58 -54 145v1042q0 86 54 144q55 57 149 57z" />
    <glyph glyph-name="emacron" unicode="&#x113;" horiz-adv-x="1167" 
d="M430 1458h324q47 0 79 -33q31 -33 31 -79t-32 -80q-32 -33 -78 -33h-324q-47 0 -79 33t-32 80q0 48 32 80t79 32zM383 639h399q23 0 23 25q4 94 -51 151q-56 57 -158 57t-158 -62t-55 -171zM1069 635v-45q0 -137 -141 -137h-545v-21q1 -94 65 -146t167 -52t223 45
q76 29 128 -9t52 -106t-70 -109q-121 -71 -334 -71t-347 120t-150 314q-8 117 0 256q18 200 150 318t338 118t335 -130t129 -345z" />
    <glyph glyph-name="Edotaccent" unicode="&#x116;" horiz-adv-x="1288" 
d="M686 1817q55 0 94 -39q39 -38 39 -94t-39 -95t-94 -39t-94 39t-39 94t39 95t94 39zM365 1446h675q56 0 96 -38t40 -93t-41 -96t-95 -41h-598v-324h574q53 0 90 -36t37 -89t-38 -92t-89 -39h-574v-330h602q52 0 94 -40t42 -95t-39 -94t-97 -39h-679q-94 0 -149 58
q-54 58 -54 145v1042q0 86 54 144q55 57 149 57z" />
    <glyph glyph-name="edotaccent" unicode="&#x117;" horiz-adv-x="1167" 
d="M592 1483q55 0 94 -39t39 -94q0 -54 -39 -94t-94 -40t-94 40q-39 38 -39 94t39 94q39 39 94 39zM383 639h399q23 0 23 25q4 94 -51 151q-56 57 -158 57t-158 -62t-55 -171zM1069 635v-45q0 -137 -141 -137h-545v-21q1 -94 65 -146t167 -52t223 45q76 29 128 -9t52 -106
t-70 -109q-121 -71 -334 -71t-347 120t-150 314q-8 117 0 256q18 200 150 318t338 118t335 -130t129 -345z" />
    <glyph glyph-name="Eogonek" unicode="&#x118;" horiz-adv-x="1294" 
d="M365 0q-94 0 -149 57q-54 57 -54 144v1044q0 85 54 143t149 58h675q56 0 96 -38t40 -93t-41 -96t-95 -41h-598v-324h574q53 0 90 -36t37 -89t-38 -92t-89 -39h-574v-330h602q52 0 94 -40t42 -93q0 -80 -64 -115q-84 -37 -145 -91t-61 -101t25 -71q50 -47 122 -5
q27 18 59 14t54 -34q22 -29 16 -65t-37 -60q-81 -59 -187 -59t-177 71q-71 73 -71 185t93 196h-442z" />
    <glyph glyph-name="eogonek" unicode="&#x119;" horiz-adv-x="1169" 
d="M782 641q16 0 21 18q4 91 -51 151q-56 60 -156 60t-155 -63q-54 -64 -52 -166h393zM808 -453q-114 0 -187 67q-74 66 -74 176t69 192q-211 -2 -348 120t-151 320q-10 139 0 268q16 192 151 310q136 118 330 118t320 -105t149 -290q6 -61 6 -137q0 -135 -141 -135h-543
v-21q1 -98 63 -149t164 -51t220 46q78 29 130 -9q52 -39 52 -103t-57 -103q-6 -4 -39 -22q-33 -17 -41 -23t-35 -23t-34 -25q-8 -8 -26 -27q-18 -18 -29 -49q-31 -90 16 -137t116 -3q27 18 61 14t54 -32q46 -57 -18 -122t-178 -65z" />
    <glyph glyph-name="Ecaron" unicode="&#x11a;" horiz-adv-x="1288" 
d="M695 1544q-36 0 -77 31l-219 168q-49 39 -49 86t33 80t71 33t76 -27l166 -127l166 127q37 27 75 27t71 -33q32 -33 32 -80t-49 -86l-219 -168q-41 -31 -77 -31zM365 1446h675q56 0 96 -38t40 -93t-41 -96t-95 -41h-598v-324h574q53 0 90 -36t37 -89t-38 -92t-89 -39h-574
v-330h602q52 0 94 -40t42 -95t-39 -94t-97 -39h-679q-94 0 -149 58q-54 58 -54 145v1042q0 86 54 144q55 57 149 57z" />
    <glyph glyph-name="ecaron" unicode="&#x11b;" horiz-adv-x="1167" 
d="M601 1206q-36 0 -77 31l-219 168q-49 39 -49 86t33 80t71 33t76 -27l166 -127l166 127q37 27 75 27q39 0 71 -33t32 -80t-49 -86l-219 -168q-41 -31 -77 -31zM383 639h399q23 0 23 25q4 94 -51 151q-56 57 -158 57t-158 -62t-55 -171zM1069 635v-45q0 -137 -141 -137
h-545v-21q1 -94 65 -146t167 -52t223 45q76 29 128 -9t52 -106t-70 -109q-121 -71 -334 -71t-347 120t-150 314q-8 117 0 256q18 200 150 318t338 118t335 -130t129 -345z" />
    <glyph glyph-name="Gbreve" unicode="&#x11e;" horiz-adv-x="1431" 
d="M733 1731q78 0 107 88q25 72 98 71q43 0 73 -30q29 -30 29 -60q0 -32 -8 -49q-31 -92 -110 -154q-80 -61 -189 -61t-189 61t-110 154q-8 16 -8 48t30 62t72 29q74 0 99 -71q28 -88 106 -88zM1323 618v-112q0 -229 -167 -380t-422 -151t-427 166t-192 416q-12 166 0 326
q23 251 193 417t427 166q178 0 313 -75q134 -76 212 -213q22 -35 22 -85q0 -51 -40 -91t-102 -40t-106 66q-100 172 -299 172q-147 0 -235 -95t-102 -245t-1 -292q15 -140 105 -236t235 -96t228 74q82 75 82 184v49h-185q-55 0 -95 40t-40 95t39 93t96 38h268q90 0 142 -55
q51 -56 51 -136z" />
    <glyph glyph-name="gbreve" unicode="&#x11f;" horiz-adv-x="1226" 
d="M614 1395q78 0 107 88q25 72 98 71q43 0 73 -30t30 -60q0 -32 -9 -49q-31 -92 -111 -153q-80 -62 -188 -62t-188 62t-111 153q-8 16 -8 48t30 62t73 29q74 0 98 -71q28 -88 106 -88zM604 848q-199 0 -215 -205q-6 -70 0 -174q12 -201 203 -201q125 0 213 62v463
q-19 15 -77 35t-124 20zM1079 887v-826q0 -225 -141 -348t-356 -123q-168 0 -300 66t-132 156q0 51 34 88q35 37 84 37t133 -44q83 -45 183 -45t160 54t61 155v13q-115 -53 -254 -54q-195 0 -307 112t-127 294q-12 135 0 262q18 190 143 308t340 118q135 0 253 -41t177 -84
q49 -32 49 -98z" />
    <glyph glyph-name="Gdotaccent" unicode="&#x120;" horiz-adv-x="1431" 
d="M733 1815q55 0 94 -39q39 -38 39 -94t-39 -95t-94 -39t-94 39t-39 94t39 95t94 39zM1323 618v-112q0 -229 -167 -380t-422 -151t-427 166t-192 416q-12 166 0 326q23 251 193 417t427 166q178 0 313 -75q134 -76 212 -213q22 -35 22 -85q0 -51 -40 -91t-102 -40t-106 66
q-100 172 -299 172q-147 0 -235 -95t-102 -245t-1 -292q15 -140 105 -236t235 -96t228 74q82 75 82 184v49h-185q-55 0 -95 40t-40 95t39 93t96 38h268q90 0 142 -55q51 -56 51 -136z" />
    <glyph glyph-name="gdotaccent" unicode="&#x121;" horiz-adv-x="1226" 
d="M614 1485q54 0 94 -39t40 -94q0 -54 -39 -94t-95 -40t-94 40q-39 38 -39 94t39 94q39 39 94 39zM604 848q-199 0 -215 -205q-6 -70 0 -174q12 -201 203 -201q125 0 213 62v463q-19 15 -77 35t-124 20zM1079 887v-826q0 -225 -141 -348t-356 -123q-168 0 -300 66t-132 156
q0 51 34 88q35 37 84 37t133 -44q83 -45 183 -45t160 54t61 155v13q-115 -53 -254 -54q-195 0 -307 112t-127 294q-12 135 0 262q18 190 143 308t340 118q135 0 253 -41t177 -84q49 -32 49 -98z" />
    <glyph glyph-name="Gcommaaccent" unicode="&#x122;" horiz-adv-x="1431" 
d="M690 -584q-45 0 -73 29q-27 29 -27 60t30 95t29 115v76q0 49 28 82t77 33t79 -33t29 -82v-63q0 -129 -63 -240q-43 -72 -109 -72zM1323 618v-112q0 -229 -167 -380t-422 -151t-427 166t-192 416q-12 166 0 326q23 251 193 417t427 166q178 0 313 -75q134 -76 212 -213
q22 -35 22 -85q0 -51 -40 -91t-102 -40t-106 66q-100 172 -299 172q-147 0 -235 -95t-102 -245t-1 -292q15 -140 105 -236t235 -96t228 74q82 75 82 184v49h-185q-55 0 -95 40t-40 95t39 93t96 38h268q90 0 142 -55q51 -56 51 -136z" />
    <glyph glyph-name="gcommaaccent" unicode="&#x123;" horiz-adv-x="1226" 
d="M604 1204q-45 0 -73 29q-27 29 -27 59t30 96q30 65 29 115v76q0 49 28 82t77 33q48 0 78 -33t30 -82v-63q0 -129 -63 -240q-43 -72 -109 -72zM604 848q-199 0 -215 -205q-6 -70 0 -174q12 -201 203 -201q125 0 213 62v463q-19 15 -77 35t-124 20zM1079 887v-826
q0 -225 -141 -348t-356 -123q-168 0 -300 66t-132 156q0 51 34 88q35 37 84 37t133 -44q83 -45 183 -45t160 54t61 155v13q-115 -53 -254 -54q-195 0 -307 112t-127 294q-12 135 0 262q18 190 143 308t340 118q135 0 253 -41t177 -84q49 -32 49 -98z" />
    <glyph glyph-name="Imacron" unicode="&#x12a;" horiz-adv-x="591" 
d="M137 1790h324q47 0 79 -33t32 -80t-32 -80t-79 -32h-324q-47 1 -79 33t-31 79q0 47 31 80q32 33 79 33zM156 137v1174q0 59 42 101t100 42t98 -42t40 -101v-1174q0 -61 -40 -103t-98 -42t-100 43t-42 102z" />
    <glyph glyph-name="imacron" unicode="&#x12b;" horiz-adv-x="589" 
d="M295 1104q57 0 98 -41t41 -100v-832q0 -59 -40 -100t-97 -41t-98 42t-41 99v832q0 59 40 100t97 41zM135 1458h324q47 0 79 -33t32 -79t-32 -80q-32 -33 -79 -33h-324q-47 0 -79 33t-31 80q-1 48 31 80t79 32z" />
    <glyph glyph-name="Iogonek" unicode="&#x12e;" horiz-adv-x="591" 
d="M162 1311q0 59 42 101t100 42t98 -42t40 -101v-1174q0 -82 -61 -123q-147 -92 -148 -190q0 -43 26 -67q26 -23 60 -23q35 0 61 18t58 14t54 -32q44 -57 -18 -122t-178 -65t-188 73t-71 183q0 152 147 256q-23 35 -22 78v1174z" />
    <glyph glyph-name="iogonek" unicode="&#x12f;" horiz-adv-x="589" 
d="M440 1366q0 -61 -42 -105t-103 -44t-104 44q-42 44 -41 105q0 61 40 103q42 42 104 42t104 -42t42 -103zM290 -453q-116 0 -188 73t-71 183q0 156 151 265q-6 14 -15 32t-9 47v811q0 60 39 102t97 42t99 -42t41 -99v-826q1 -88 -69 -125q-137 -72 -138 -186q0 -43 26 -67
q51 -48 120 -5q27 18 59 14t53 -32q45 -57 -17 -122t-178 -65z" />
    <glyph glyph-name="Idotaccent" unicode="&#x130;" horiz-adv-x="591" 
d="M299 1817q55 0 94 -39q39 -38 39 -94t-39 -95t-94 -39t-94 39t-39 94t39 95t94 39zM156 137v1174q0 59 42 101t100 42t98 -42t40 -101v-1174q0 -61 -40 -103t-98 -42t-100 43t-42 102z" />
    <glyph glyph-name="dotlessi" unicode="&#x131;" horiz-adv-x="589" 
d="M295 1104q57 0 98 -41t41 -100v-832q0 -59 -40 -100t-97 -41t-98 42t-41 99v832q0 59 40 100t97 41z" />
    <glyph glyph-name="Kcommaaccent" unicode="&#x136;" horiz-adv-x="1333" 
d="M639 -584q-55 0 -83 29t-28 60t30 95t30 115v76q0 49 27 82q28 33 77 33t79 -33t30 -82v-63q-1 -129 -64 -240q-43 -72 -98 -72zM442 590v-453q0 -61 -40 -103t-98 -42t-100 43t-42 102v1174q0 59 42 101t100 42t98 -42t40 -101v-449q45 0 70 8t55 39l480 496
q39 45 100 47t100 -40t40 -93t-36 -90l-489 -492l483 -504q39 -45 42 -99t-35 -97t-99 -43t-104 45l-482 504q-29 33 -53 40t-72 7z" />
    <glyph glyph-name="kcommaaccent" unicode="&#x137;" horiz-adv-x="1144" 
d="M530 -584q-44 0 -72 29t-28 60t30 95t29 115v76q0 49 28 82t77 33t79 -33t29 -82v-63q0 -129 -63 -240q-43 -72 -109 -72zM285 1468q57 0 97 -41t40 -100v-643h22q57 0 103 47l317 328q46 49 106 49t97 -41t38 -94t-36 -90l-326 -322l316 -328q41 -45 43 -100t-37 -98
t-101 -43t-104 47l-313 338q-43 47 -98 47h-27v-293q0 -59 -39 -100t-96 -41t-99 42q-41 42 -41 99v1196q0 59 40 100q41 41 98 41z" />
    <glyph glyph-name="Lacute" unicode="&#x139;" horiz-adv-x="1181" 
d="M674 1787q0 -52 -64 -87l-278 -141q-76 -39 -130 18q-32 33 -32 85t63 87l277 143q77 42 132 -18q32 -35 32 -87zM172 164v1147q0 59 42 101t100 42t98 -42t41 -101v-1037h567q55 0 98 -42t43 -98t-41 -95t-100 -39h-684q-76 0 -120 47t-44 117z" />
    <glyph glyph-name="lacute" unicode="&#x13a;" horiz-adv-x="589" 
d="M129 1749l277 143q77 42 132 -18q32 -35 32 -87t-64 -87l-279 -141q-75 -39 -130 18q-31 33 -31 85t63 87zM295 1468q57 0 97 -42t40 -101v-1194q0 -59 -39 -100t-96 -41t-98 42t-41 99v1194q0 59 40 101t97 42z" />
    <glyph glyph-name="Lcommaaccent" unicode="&#x13b;" horiz-adv-x="1171" 
d="M602 -584q-55 0 -83 29q-27 29 -27 60t30 95t29 115v76q0 49 28 82q29 33 77 33t78 -33t30 -82v-63q-1 -129 -64 -240q-43 -72 -98 -72zM162 164v1147q0 59 42 101t100 42t98 -42t40 -101v-1037h568q55 0 98 -42t43 -98t-41 -95t-100 -39h-684q-76 0 -120 47t-44 117z
" />
    <glyph glyph-name="lcommaaccent" unicode="&#x13c;" horiz-adv-x="610" 
d="M262 -551q-55 0 -83 29q-27 30 -27 60t30 94t29 116v76q0 49 28 82q29 33 77 33t78 -33t30 -82v-64q-1 -128 -64 -239q-43 -72 -98 -72zM315 1468q57 0 97 -42t41 -101v-1194q0 -59 -39 -100q-38 -41 -96 -41t-99 42t-41 99v1194q0 59 40 101t97 42z" />
    <glyph glyph-name="Lcaron" unicode="&#x13d;" horiz-adv-x="1171" 
d="M729 1122q-45 0 -75 30t-30 63t31 94t31 114v66q0 53 30 87t81 34t81 -34t29 -87v-53q0 -125 -63 -240q-43 -74 -115 -74zM162 164v1147q0 59 42 101t100 42t98 -42t40 -101v-1037h568q55 0 98 -42t43 -98t-41 -95t-100 -39h-684q-76 0 -120 47t-44 117z" />
    <glyph glyph-name="lcaron" unicode="&#x13e;" horiz-adv-x="782" 
d="M651 1128q-45 0 -75 30t-29 63q0 33 31 94t30 115v65q0 53 30 87t81 34t81 -34t29 -87v-53q0 -125 -63 -240q-43 -74 -115 -74zM285 1468q57 0 97 -42t40 -101v-1194q0 -59 -39 -100t-96 -41t-99 42q-41 42 -41 99v1194q0 59 40 101q41 42 98 42z" />
    <glyph glyph-name="Lslash" unicode="&#x141;" horiz-adv-x="1165" 
d="M156 162v293l-47 -29q-47 -26 -95 -14t-75 55q-27 45 -16 93t57 77l176 106v568q0 59 42 101t100 42t98 -42t40 -101v-398l156 99q47 28 96 16t77 -56q29 -44 15 -95t-59 -78l-285 -174v-351h568q55 0 98 -42t43 -98t-41 -95t-100 -39h-685q-79 0 -121 46t-42 116z" />
    <glyph glyph-name="lslash" unicode="&#x142;" horiz-adv-x="743" 
d="M367 1468q57 0 98 -42t41 -101v-336l51 33q39 26 82 16t69 -49t14 -84t-50 -69l-166 -109v-596q0 -59 -40 -100t-97 -41t-99 42q-41 42 -41 99v418l-49 -31q-41 -20 -81 -8q-39 12 -63 50t-11 80q12 42 53 71l151 98v516q0 59 40 101q41 42 98 42z" />
    <glyph glyph-name="Nacute" unicode="&#x143;" horiz-adv-x="1570" 
d="M1180 1785q0 -52 -64 -87l-278 -142q-27 -14 -63 -14q-35 0 -67 33t-32 85t63 87l277 143q77 42 132 -18q32 -35 32 -87zM1130 1311q0 59 41 101t99 42t99 -42q40 -42 40 -101v-1104q0 -91 -56 -153t-147 -62q-133 0 -205 125l-561 964h-4q4 -109 4 -344v-604
q0 -61 -39 -103t-97 -42t-100 43t-42 102v1084q0 101 61 167t162 66q131 0 201 -121l547 -944h4q-6 203 -7 324v602z" />
    <glyph glyph-name="nacute" unicode="&#x144;" horiz-adv-x="1220" 
d="M922 1449q0 -52 -64 -87l-278 -141q-76 -39 -130 18q-32 33 -32 85t63 87l277 143q77 42 132 -18q32 -35 32 -87zM1090 662v-531q0 -59 -39 -100t-97 -41t-98 42q-41 42 -41 99v518q0 93 -56 143t-161 50t-182 -49v-662q0 -59 -39 -100t-96 -41t-99 42q-41 42 -41 99v766
q0 67 55 105q54 38 168 73t261 35q229 0 347 -116t118 -332z" />
    <glyph glyph-name="Ncommaaccent" unicode="&#x145;" horiz-adv-x="1570" 
d="M727 -582q-45 0 -73 29t-28 60t30 95t30 115v76q0 49 28 82t77 33t79 -33t29 -82v-63q0 -129 -63 -240q-43 -72 -109 -72zM1130 1311q0 59 41 101t99 42t99 -42q40 -42 40 -101v-1104q0 -91 -56 -153t-147 -62q-133 0 -205 125l-561 964h-4q4 -109 4 -344v-604
q0 -61 -39 -103t-97 -42t-100 43t-42 102v1084q0 101 61 167t162 66q131 0 201 -121l547 -944h4q-6 203 -7 324v602z" />
    <glyph glyph-name="ncommaaccent" unicode="&#x146;" horiz-adv-x="1220" 
d="M555 -584q-55 0 -83 29t-28 60t30 95t30 115v76q0 49 27 82q28 33 77 33t79 -33t30 -82v-63q-1 -129 -64 -240q-43 -72 -98 -72zM1090 662v-531q0 -59 -39 -100t-97 -41t-98 42q-41 42 -41 99v518q0 93 -56 143t-161 50t-182 -49v-662q0 -59 -39 -100t-96 -41t-99 42
q-41 42 -41 99v766q0 67 55 105q54 38 168 73t261 35q229 0 347 -116t118 -332z" />
    <glyph glyph-name="Ncaron" unicode="&#x147;" horiz-adv-x="1570" 
d="M814 1544q-36 0 -77 31l-219 168q-49 39 -49 86t33 80t71 33t76 -27l166 -127l166 127q37 27 75 27t70 -33t33 -80q0 -47 -49 -86l-219 -168q-41 -31 -77 -31zM1130 1311q0 59 41 101t99 42t99 -42q40 -42 40 -101v-1104q0 -91 -56 -153t-147 -62q-133 0 -205 125
l-561 964h-4q4 -109 4 -344v-604q0 -61 -39 -103t-97 -42t-100 43t-42 102v1084q0 101 61 167t162 66q131 0 201 -121l547 -944h4q-6 203 -7 324v602z" />
    <glyph glyph-name="ncaron" unicode="&#x148;" horiz-adv-x="1220" 
d="M599 1208q-36 0 -77 31l-219 168q-49 39 -49 86t33 80t69 33t78 -27l166 -127l166 127q37 27 75 27q39 0 71 -33t32 -80t-49 -86l-219 -168q-41 -31 -77 -31zM1090 662v-531q0 -59 -39 -100t-97 -41t-98 42q-41 42 -41 99v518q0 93 -56 143t-161 50t-182 -49v-662
q0 -59 -39 -100t-96 -41t-99 42q-41 42 -41 99v766q0 67 55 105q54 38 168 73t261 35q229 0 347 -116t118 -332z" />
    <glyph glyph-name="Omacron" unicode="&#x14c;" horiz-adv-x="1503" 
d="M592 1790h323q47 0 79 -33t32 -80t-32 -80t-79 -32h-323q-47 1 -79 33t-32 79t32 80t79 33zM750 246q147 0 245 96q97 96 109 246t2 266q-12 150 -112 246t-245 96q-147 0 -245 -96t-108 -238t0 -282q11 -142 109 -238t245 -96zM750 -25q-258 0 -436 166
q-177 166 -197 416q-12 166 0 326q20 251 197 417q176 166 434 166t439 -169t199 -414q12 -164 0 -326q-20 -248 -199 -415t-437 -167z" />
    <glyph glyph-name="omacron" unicode="&#x14d;" horiz-adv-x="1214" 
d="M446 1458h324q47 0 79 -33t32 -79t-32 -80q-32 -33 -79 -33h-324q-46 0 -78 33t-32 80q0 48 32 80t78 32zM610 848q-96 0 -154 -54t-66 -152t-1 -192q9 -96 67 -150t152 -54t153 54q58 54 65 149t1 191t-64 152q-57 56 -153 56zM609 1110q202 0 337 -117
q134 -117 148 -282t1 -329t-149 -282q-136 -116 -337 -116q-202 0 -339 116t-150 280t-1 330t150 283t340 117z" />
    <glyph glyph-name="Ohungarumlaut" unicode="&#x150;" horiz-adv-x="1503" 
d="M952 1542q-45 0 -81 32q-35 32 -35 76t28 76l199 218q33 38 80 38t82 -32t35 -78q0 -45 -29 -76l-199 -215q-35 -39 -80 -39zM570 1542q-44 0 -81 32t-37 76t29 76l199 218q29 38 78 38t84 -32t35 -78q0 -45 -29 -76l-199 -215q-35 -39 -79 -39zM750 246q147 0 245 96
q97 96 109 246t2 266q-12 150 -112 246t-245 96q-147 0 -245 -96t-108 -238t0 -282q11 -142 109 -238t245 -96zM750 -25q-258 0 -436 166q-177 166 -197 416q-12 166 0 326q20 251 197 417q176 166 434 166t439 -169t199 -414q12 -164 0 -326q-20 -248 -199 -415t-437 -167z
" />
    <glyph glyph-name="ohungarumlaut" unicode="&#x151;" horiz-adv-x="1255" 
d="M792 1206q-44 0 -80 32t-36 76t29 77l198 217q33 39 80 39t82 -33t35 -78t-29 -76l-199 -215q-36 -39 -80 -39zM410 1206q-44 0 -80 32q-37 32 -37 76t29 77l198 217q29 39 78 39t84 -33t35 -78t-29 -76l-199 -215q-35 -39 -79 -39zM610 848q-96 0 -154 -54t-66 -152
t-1 -192q9 -96 67 -150t152 -54t153 54q58 54 65 149t1 191t-64 152q-57 56 -153 56zM609 1110q202 0 337 -117q134 -117 148 -282t1 -329t-149 -282q-136 -116 -337 -116q-202 0 -339 116t-150 280t-1 330t150 283t340 117z" />
    <glyph glyph-name="OE" unicode="&#x152;" horiz-adv-x="2234" 
d="M788 1196q-182 0 -283 -99t-112 -266q-6 -113 0 -223q9 -166 111 -264t280 -98t320 16v920q-182 14 -316 14zM1985 0h-703q-63 0 -218 -12t-282 -13q-289 0 -469 169t-198 429q-12 147 0 287q18 262 199 434t468 172q121 0 277 -10t248 -10h673q58 0 98 -38t40 -93
t-40 -96t-96 -41h-598v-324h572q55 0 92 -36t37 -89t-38 -92t-89 -39h-574v-330h601q53 0 95 -41t42 -95t-40 -93t-97 -39z" />
    <glyph glyph-name="oe" unicode="&#x153;" horiz-adv-x="1880" 
d="M608 858q-94 0 -152 -54t-66 -154t0 -199t66 -153t152 -54t153 55q58 55 63 153t0 198t-63 154q-59 54 -153 54zM1309 881q-103 0 -159 -65t-54 -175h401q16 0 21 25q4 96 -52 156t-157 59zM1784 631q0 -178 -144 -178h-544v-21q0 -98 64 -151q127 -104 388 -5
q76 29 129 -9t54 -99q0 -86 -115 -136t-295 -50q-225 0 -360 147q-133 -143 -343 -143t-348 120q-137 120 -150 285q-13 166 -3 309q14 184 152 301t350 117t346 -143q133 143 346 143t343 -132t130 -355z" />
    <glyph glyph-name="Racute" unicode="&#x154;" horiz-adv-x="1388" 
d="M1026 1785q0 -52 -63 -87l-279 -142q-26 -14 -62 -14t-68 33t-32 85t64 87l276 143q78 43 132 -18q32 -35 32 -87zM442 760h297q246 0 246 206t-235 205h-308v-411zM616 502h-174v-367q0 -59 -41 -102t-98 -43t-99 43t-42 102v1129q0 78 49 130t137 52h420
q211 0 355 -128t145 -349q0 -168 -75 -278t-192 -146l265 -318q36 -39 34 -98t-40 -98q-46 -43 -104 -42t-99 42l-326 405q-29 34 -53 50t-62 16z" />
    <glyph glyph-name="racute" unicode="&#x155;" horiz-adv-x="800" 
d="M758 1447q0 -52 -64 -87l-278 -141q-76 -39 -130 18q-32 33 -32 85t63 87l277 143q77 42 132 -18q32 -35 32 -87zM795 952q0 -47 -35 -88t-94 -41q-20 1 -70 11t-84 8q-106 -4 -106 -133v-580q0 -59 -40 -99t-98 -40t-97 41q-40 41 -40 98v631q0 162 93 256t268 94
q110 0 176 -16q127 -35 127 -142z" />
    <glyph glyph-name="Rcommaaccent" unicode="&#x156;" horiz-adv-x="1388" 
d="M647 -584q-55 0 -83 29t-28 60t30 95t30 115v76q0 49 28 82t76 33t79 -33q30 -33 30 -82v-63q-1 -129 -64 -240q-43 -72 -98 -72zM442 760h297q246 0 246 206t-235 205h-308v-411zM616 502h-174v-367q0 -59 -41 -102t-98 -43t-99 43t-42 102v1129q0 78 49 130t137 52h420
q211 0 355 -128t145 -349q0 -168 -75 -278t-192 -146l265 -318q36 -39 34 -98t-40 -98q-46 -43 -104 -42t-99 42l-326 405q-29 34 -53 50t-62 16z" />
    <glyph glyph-name="rcommaaccent" unicode="&#x157;" horiz-adv-x="800" 
d="M215 -584q-55 0 -83 29t-28 60t30 95t30 115v76q0 49 27 82q28 33 77 33t79 -33t30 -82v-63q-1 -129 -64 -240q-43 -72 -98 -72zM795 952q0 -47 -35 -88t-94 -41q-20 1 -70 11t-84 8q-106 -4 -106 -133v-580q0 -59 -40 -99t-98 -40t-97 41q-40 41 -40 98v631
q0 162 93 256t268 94q110 0 176 -16q127 -35 127 -142z" />
    <glyph glyph-name="Rcaron" unicode="&#x158;" horiz-adv-x="1388" 
d="M699 1544q-36 0 -76 31l-220 168q-49 39 -49 86t33 80t71 33t77 -27l165 -127l166 127q37 27 75 27t71 -33q32 -33 32 -80t-49 -86l-219 -168q-41 -31 -77 -31zM442 760h297q246 0 246 206t-235 205h-308v-411zM616 502h-174v-367q0 -59 -41 -102t-98 -43t-99 43t-42 102
v1129q0 78 49 130t137 52h420q211 0 355 -128t145 -349q0 -168 -75 -278t-192 -146l265 -318q36 -39 34 -98t-40 -98q-46 -43 -104 -42t-99 42l-326 405q-29 34 -53 50t-62 16z" />
    <glyph glyph-name="rcaron" unicode="&#x159;" horiz-adv-x="800" 
d="M441 1206q-36 0 -76 31l-220 168q-49 39 -49 86t33 80t71 33t76 -27l166 -127l166 127q37 27 75 27t71 -33q32 -33 32 -80t-49 -86l-219 -168q-41 -31 -77 -31zM795 952q0 -47 -35 -88t-94 -41q-20 1 -70 11t-84 8q-106 -4 -106 -133v-580q0 -59 -40 -99t-98 -40t-97 41
q-40 41 -40 98v631q0 162 93 256t268 94q110 0 176 -16q127 -35 127 -142z" />
    <glyph glyph-name="Sacute" unicode="&#x15a;" horiz-adv-x="1302" 
d="M981 1785q0 -52 -63 -87l-279 -142q-27 -14 -63 -14t-67 33t-31 85t63 87l276 143q77 42 132 -18q32 -35 32 -87zM940 410q0 76 -72 112t-247 70q-258 54 -375 156t-117 292t147 308q147 119 375 118q309 0 447 -116q49 -42 49 -102t-39 -101t-89 -41t-108 29
q-119 57 -250 57t-191 -44t-60 -113t64 -105t226 -66q279 -51 401 -151t122 -294q1 -194 -147 -319t-402 -125q-313 0 -504 146q-76 59 -76 123t41 106q41 41 97 41t108 -39q141 -102 344 -102q120 0 188 42t68 118z" />
    <glyph glyph-name="sacute" unicode="&#x15b;" horiz-adv-x="1030" 
d="M819 1449q0 -52 -63 -87l-279 -141q-75 -39 -130 18q-31 33 -31 85t63 87l276 143q79 43 133 -18q32 -35 31 -87zM956 340q0 -166 -122 -261t-306 -95q-250 0 -391 118q-37 31 -45 81t22 91q30 42 78 48t99 -25q104 -68 252 -68t147 95q0 68 -119 96t-151 35
q-299 76 -299 313q0 162 116 252q117 90 321 90t314 -92q44 -35 46 -91t-33 -91q-68 -74 -178 -17q-90 45 -179 45q-145 0 -145 -88q0 -66 123 -92l145 -33q305 -74 305 -311z" />
    <glyph glyph-name="Scedilla" unicode="&#x15e;" horiz-adv-x="1302" 
d="M94 244q0 64 41 106q41 41 97 41t108 -39q147 -106 344 -106q118 0 186 45t68 122t-74 113t-243 72q-258 54 -375 154t-117 288t147 308q147 119 375 118q309 0 447 -116q49 -44 49 -104t-39 -100t-89 -40t-108 29q-123 61 -253 61t-188 -46t-58 -116t64 -106t224 -68
q279 -51 401 -149q122 -99 122 -287q-1 -188 -137 -311t-371 -136l-25 -53q98 -8 152 -65t55 -148q0 -193 -266 -286q-47 -18 -93 2t-46 80t63 85q94 37 121 60q26 23 26 48q0 26 -15 42t-42 16l-70 -8q-41 0 -65 36t-10 77l45 119q-231 27 -375 139q-76 59 -76 123z" />
    <glyph glyph-name="scedilla" unicode="&#x15f;" horiz-adv-x="1030" 
d="M535 219q75 0 115 30t40 75q0 68 -116 94t-156 37q-297 76 -297 317q0 160 121 253t305 93q90 0 179 -26t136 -67q47 -40 49 -94t-28 -87q-61 -74 -165 -22t-188 52q-150 0 -149 -96q0 -66 123 -94l147 -33q156 -37 231 -115q74 -78 74 -213q0 -137 -100 -229t-258 -110
l-25 -60q97 -8 151 -65t54 -148q0 -193 -266 -286q-47 -18 -93 2t-46 80t65 85q94 37 121 60t27 48q0 26 -16 42t-42 16l-71 -8q-43 0 -67 36q-23 36 -7 77l45 123q-186 23 -291 112q-39 31 -46 82t22 91t77 46t99 -24q109 -74 246 -74z" />
    <glyph glyph-name="Scaron" unicode="&#x160;" horiz-adv-x="1302" 
d="M673 1540q-36 0 -77 31l-219 168q-49 39 -49 86t32 80q61 61 148 6l166 -127l166 127q79 58 145 -6q33 -33 33 -80t-49 -86l-219 -168q-41 -31 -77 -31zM940 410q0 76 -72 112t-247 70q-258 54 -375 156t-117 292t147 308q147 119 375 118q309 0 447 -116q49 -42 49 -102
t-39 -101t-89 -41t-108 29q-119 57 -250 57t-191 -44t-60 -113t64 -105t226 -66q279 -51 401 -151t122 -294q1 -194 -147 -319t-402 -125q-313 0 -504 146q-76 59 -76 123t41 106q41 41 97 41t108 -39q141 -102 344 -102q120 0 188 42t68 118z" />
    <glyph glyph-name="scaron" unicode="&#x161;" horiz-adv-x="1030" 
d="M180 1468q0 48 33 80t70 33q37 0 77 -27l166 -127l166 127q37 27 75 27t71 -33q32 -33 32 -80t-49 -86l-219 -168q-76 -58 -153 0l-220 168q-49 38 -49 86zM956 340q0 -166 -122 -261t-306 -95q-250 0 -391 118q-37 31 -45 81t22 91q30 42 78 48t99 -25q104 -68 252 -68
t147 95q0 68 -119 96t-151 35q-299 76 -299 313q0 162 116 252q117 90 321 90t314 -92q44 -35 46 -91t-33 -91q-68 -74 -178 -17q-90 45 -179 45q-145 0 -145 -88q0 -66 123 -92l145 -33q305 -74 305 -311z" />
    <glyph glyph-name="Tcommaaccent" unicode="&#x162;" horiz-adv-x="1267" 
d="M571 -584q-45 0 -73 29t-27 60q0 31 30 95t29 115v76q0 49 28 82t77 33t79 -33t29 -82v-63q0 -129 -63 -240q-43 -72 -109 -72zM494 135v1036h-328q-59 0 -101 40q-42 41 -42 99t40 97q41 39 103 39h936q61 0 102 -39t41 -96t-43 -99t-100 -41h-328v-1036q0 -59 -40 -101
t-98 -42t-100 43t-42 100z" />
    <glyph glyph-name="tcommaaccent" unicode="&#x163;" horiz-adv-x="888" 
d="M420 -584q-55 0 -83 29t-28 60t30 95t30 115v76q0 49 27 82q28 33 77 33t79 -33t30 -82v-63q-1 -129 -64 -240q-43 -72 -98 -72zM829 147q-1 -163 -349 -163q-168 0 -262 110q-93 111 -93 293v809q0 59 40 101t97 42t97 -42t40 -101v-139h256q51 0 89 -35t38 -86t-38 -86
t-89 -35h-256v-422q0 -152 133 -151q45 0 123 20t126 -16t48 -99z" />
    <glyph glyph-name="Tcaron" unicode="&#x164;" horiz-adv-x="1267" 
d="M634 1544q-36 0 -77 31l-219 168q-49 39 -49 86t33 80q32 33 70 33t77 -27l166 -127l166 127q37 27 75 27t70 -33q33 -33 33 -80t-49 -86l-219 -168q-41 -31 -77 -31zM494 135v1036h-328q-59 0 -101 40q-42 41 -42 99t40 97q41 39 103 39h936q61 0 102 -39t41 -96
t-43 -99t-100 -41h-328v-1036q0 -59 -40 -101t-98 -42t-100 43t-42 100z" />
    <glyph glyph-name="tcaron" unicode="&#x165;" horiz-adv-x="862" 
d="M608 1128q-44 0 -74 30t-30 63t31 94t30 115v65q0 53 30 87t81 34t81 -34t29 -87v-53q0 -125 -63 -240q-43 -74 -115 -74zM829 147q-1 -163 -349 -163q-168 0 -262 110q-93 111 -93 293v809q0 59 40 101t97 42t97 -42t40 -101v-139h256q51 0 89 -35t38 -86t-38 -86
t-89 -35h-256v-422q0 -152 133 -151q45 0 123 20t126 -16t48 -99z" />
    <glyph glyph-name="Umacron" unicode="&#x16a;" horiz-adv-x="1529" 
d="M604 1788h324q47 0 79 -33q31 -33 31 -80t-32 -80t-78 -32h-324q-47 1 -79 33t-31 79q0 47 31 80q32 33 79 33zM1384 1311v-695q0 -284 -176 -462t-443 -178t-442 178q-175 180 -176 462v695q0 59 42 101q41 42 101 42t99 -41t39 -102v-705q0 -164 94 -262t244 -98
t244 98t94 262v705q0 59 41 101t100 42t99 -41t40 -102z" />
    <glyph glyph-name="umacron" unicode="&#x16b;" horiz-adv-x="1220" 
d="M442 1458h324q47 0 79 -33t32 -79t-32 -80q-32 -33 -79 -33h-324q-46 0 -78 33t-32 80q0 48 32 80t78 32zM135 432v526q0 62 36 104t97 42q62 0 102 -42t40 -104v-522q0 -90 53 -140t155 -50t189 53v664q0 59 39 100t97 41t98 -41t40 -100v-766q0 -66 -49 -97
q-164 -116 -408 -116t-367 116q-122 116 -122 332z" />
    <glyph glyph-name="Uring" unicode="&#x16e;" horiz-adv-x="1529" 
d="M686 1774q0 -35 23 -59q23 -23 57 -23t56 24t22 58t-23 58t-57 24t-56 -24q-22 -23 -22 -58zM539 1775q-1 93 67 159t161 67q93 0 161 -67q68 -66 68 -160t-68 -160t-161 -66t-161 67q-67 67 -67 160zM1384 1311v-695q0 -284 -176 -462t-443 -178t-442 178
q-175 180 -176 462v695q0 59 42 101q41 42 101 42t99 -41t39 -102v-705q0 -164 94 -262t244 -98t244 98t94 262v705q0 59 41 101t100 42t99 -41t40 -102z" />
    <glyph glyph-name="uring" unicode="&#x16f;" horiz-adv-x="1220" 
d="M522 1438q0 -35 23 -59q23 -23 57 -23t56 24t22 58t-23 58t-57 24t-56 -24t-22 -58zM375 1439q-1 93 67 159t161 67q93 0 161 -67q68 -66 68 -160t-68 -160t-161 -66t-161 67q-67 67 -67 160zM135 432v526q0 62 36 104t97 42q62 0 102 -42t40 -104v-522q0 -90 53 -140
t155 -50t189 53v664q0 59 39 100t97 41t98 -41t40 -100v-766q0 -66 -49 -97q-164 -116 -408 -116t-367 116q-122 116 -122 332z" />
    <glyph glyph-name="Uhungarumlaut" unicode="&#x170;" horiz-adv-x="1529" 
d="M952 1583q-45 0 -81 32q-35 32 -35 76t28 76l199 218q33 39 80 39t82 -34q35 -32 35 -77t-29 -76l-199 -215q-35 -39 -80 -39zM570 1583q-44 0 -81 32t-37 76t29 76l199 218q29 39 78 39t84 -34q35 -32 35 -77t-29 -76l-199 -215q-35 -39 -79 -39zM1384 1311v-695
q0 -284 -176 -462t-443 -178t-442 178q-175 180 -176 462v695q0 59 42 101q41 42 101 42t99 -41t39 -102v-705q0 -164 94 -262t244 -98t244 98t94 262v705q0 59 41 101t100 42t99 -41t40 -102z" />
    <glyph glyph-name="uhungarumlaut" unicode="&#x171;" horiz-adv-x="1220" 
d="M786 1208q-44 0 -80 32t-36 76t28 77l199 217q33 39 80 39t82 -33t35 -78t-29 -76l-199 -215q-35 -39 -80 -39zM404 1208q-44 0 -80 32t-37 76q0 44 28 77l199 217q29 39 78 39t84 -33t35 -78t-29 -76l-199 -215q-35 -39 -79 -39zM135 432v526q0 62 36 104t97 42
q62 0 102 -42t40 -104v-522q0 -90 53 -140t155 -50t189 53v664q0 59 39 100t97 41t98 -41t40 -100v-766q0 -66 -49 -97q-164 -116 -408 -116t-367 116q-122 116 -122 332z" />
    <glyph glyph-name="Uogonek" unicode="&#x172;" horiz-adv-x="1529" 
d="M799 -176q-1 -43 25 -67q26 -23 60 -23t62 18t62 14q32 -4 54 -33q22 -28 14 -65t-38 -61q-76 -59 -184 -59t-178 72q-72 73 -72 178t64 186q-229 31 -375 203q-145 173 -146 429v693q0 59 42 102q41 43 101 43t100 -42t40 -103v-703q0 -166 94 -263t242 -97t242 98
t94 264v701q0 61 41 103t100 42t96 -42t35 -105v-701q-2 -216 -100 -368t-270 -220q-205 -76 -205 -194z" />
    <glyph glyph-name="uogonek" unicode="&#x173;" horiz-adv-x="1230" 
d="M1081 958v-790q0 -59 -94 -102q-170 -86 -170 -224q0 -53 26 -79q27 -25 61 -25t63 20q68 39 112 -18q23 -31 17 -67t-37 -60q-80 -59 -187 -59q-106 0 -178 72t-72 176t56 188q-49 -4 -76 -4q-223 0 -345 116t-122 332v520q0 64 36 106t96 42q59 0 101 -43t42 -105v-512
q0 -90 55 -140t157 -50t185 45v661q0 60 39 102t97 42t98 -42t40 -102z" />
    <glyph glyph-name="Wcircumflex" unicode="&#x174;" horiz-adv-x="1966" 
d="M1331 1657q0 -47 -33 -80q-32 -33 -70 -33t-75 27l-166 127l-166 -127q-39 -27 -77 -27t-70 33q-33 33 -33 80t49 84l219 170q41 31 77 31t77 -31l219 -170q49 -37 49 -84zM45 1311q0 57 37 100t95 43t98 -30t49 -74l186 -1078q2 -8 8 -8t8 8l209 965q20 105 85 157
t143 52q79 0 143 -53t86 -156l213 -965q0 -14 12 -8q4 2 4 8l191 1078q8 44 47 74t97 30t94 -42t36 -99q0 -10 -4 -35l-242 -1090q-23 -102 -85 -156t-140 -54q-79 0 -145 54t-88 154l-213 942q-2 12 -11 7l-4 -7l-209 -944q-23 -102 -86 -154t-144 -52t-149 54t-90 156
l-227 1090q-4 21 -4 33z" />
    <glyph glyph-name="wcircumflex" unicode="&#x175;" horiz-adv-x="1658" 
d="M1072 1206q-38 0 -75 27l-166 127l-165 -127q-41 -27 -78 -27t-70 33t-33 80t50 84l219 170q40 31 76 31t77 -31l219 -170q50 -37 50 -84t-33 -80t-71 -33zM178 1106q111 0 135 -115l150 -672q2 -8 10 -8t10 8l144 615q18 78 71 125t129 47t131 -47t74 -125l146 -615
q0 -8 9 -8t11 8l145 672q27 115 136 115q77 0 113 -58t16 -137l-187 -735q-49 -193 -225 -192q-82 0 -142 49t-79 145l-135 561q-2 9 -12 9t-9 -9l-137 -559q-47 -196 -221 -196t-223 192l-189 735q-20 79 17 137t112 58z" />
    <glyph glyph-name="Ycircumflex" unicode="&#x176;" horiz-adv-x="1351" 
d="M1026 1657q0 -47 -33 -80t-71 -33t-74 27l-166 127l-166 -127q-41 -27 -78 -27q-38 0 -70 33t-32 80t49 84l219 170q41 31 77 31t77 -31l219 -170q49 -37 49 -84zM23 1311q0 55 43 99q42 44 106 44t107 -55l397 -498l399 498q39 45 96 53t107 -31q45 -39 51 -98t-33 -109
l-424 -509q-55 -64 -55 -117v-453q0 -59 -41 -101t-99 -42t-100 43t-42 100v453q-1 43 -17 66q-16 24 -41 53l-420 507q-34 42 -34 97z" />
    <glyph glyph-name="ycircumflex" unicode="&#x177;" horiz-adv-x="1101" 
d="M903 1321q0 -47 -33 -80q-32 -33 -70 -33t-75 27l-166 127l-166 -127q-41 -27 -77 -27t-70 33q-33 33 -33 80t49 84l219 170q41 31 77 31t77 -31l219 -170q49 -37 49 -84zM557 406q8 0 12 12l213 581q39 106 142 107q80 0 122 -65t9 -140l-383 -891q-121 -281 -273 -381
q-59 -39 -114 -39t-96 36q-39 36 -39 98t61 106q131 92 188 252l-352 821q-33 76 10 139t121 64q102 0 141 -107l226 -581q4 -12 12 -12z" />
    <glyph glyph-name="Ydieresis" unicode="&#x178;" horiz-adv-x="1351" 
d="M861 1712q56 0 94 -39t38 -94t-38 -94t-94 -39t-94 39t-38 94t38 94t94 39zM491 1712q56 0 94 -39t38 -94t-38 -94t-94 -39t-95 39q-38 39 -38 94t38 94q39 39 95 39zM23 1311q0 55 43 99q42 44 106 44t107 -55l397 -498l399 498q39 45 96 53t107 -31q45 -39 51 -98
t-33 -109l-424 -509q-55 -64 -55 -117v-453q0 -59 -41 -101t-99 -42t-100 43t-42 100v453q-1 43 -17 66q-16 24 -41 53l-420 507q-34 42 -34 97z" />
    <glyph glyph-name="Zacute" unicode="&#x179;" horiz-adv-x="1216" 
d="M891 1785q0 -52 -64 -87l-278 -142q-27 -14 -63 -14t-67 33t-31 85t63 87l276 143q77 42 132 -18q32 -35 32 -87zM1016 0h-737q-96 0 -152 51q-55 51 -55 130t61 155l639 833h-549q-57 0 -99 41q-42 42 -42 100t41 97t100 39h705q90 0 143 -51t53 -127t-67 -162
l-635 -832h594q57 0 99 -41t42 -98t-41 -96t-100 -39z" />
    <glyph glyph-name="zacute" unicode="&#x17a;" horiz-adv-x="991" 
d="M858 1449q0 -52 -63 -87l-279 -141q-75 -39 -130 18q-32 33 -32 85t64 87l276 143q78 43 132 -18q32 -35 32 -87zM801 254q57 0 96 -35t39 -91t-39 -92t-96 -36h-578q-76 0 -123 43t-47 110t45 117l492 559h-379q-57 0 -95 34t-38 90q0 57 38 93t95 35h557q115 0 152 -97
t-39 -183l-482 -547h402z" />
    <glyph glyph-name="Zdotaccent" unicode="&#x17b;" horiz-adv-x="1216" 
d="M596 1817q55 0 94 -39q39 -38 39 -94t-39 -95t-94 -39t-94 39t-39 94t39 95t94 39zM1016 0h-737q-96 0 -152 51q-55 51 -55 130t61 155l639 833h-549q-57 0 -99 41q-42 42 -42 100t41 97t100 39h705q90 0 143 -51t53 -127t-67 -162l-635 -832h594q57 0 99 -41t42 -98
t-41 -96t-100 -39z" />
    <glyph glyph-name="zdotaccent" unicode="&#x17c;" horiz-adv-x="991" 
d="M510 1483q55 0 94 -39t39 -94q0 -54 -39 -94t-94 -40t-94 40q-39 38 -39 94t39 94q39 39 94 39zM801 254q57 0 96 -35t39 -91t-39 -92t-96 -36h-578q-76 0 -123 43t-47 110t45 117l492 559h-379q-57 0 -95 34t-38 90q0 57 38 93t95 35h557q115 0 152 -97t-39 -183
l-482 -547h402z" />
    <glyph glyph-name="Zcaron" unicode="&#x17d;" horiz-adv-x="1216" 
d="M613 1544q-36 0 -76 31l-220 168q-49 39 -49 86t33 80t71 33t77 -27l165 -127l166 127q37 27 75 27t71 -33q32 -33 32 -80t-49 -86l-219 -168q-41 -31 -77 -31zM1016 0h-737q-96 0 -152 51q-55 51 -55 130t61 155l639 833h-549q-57 0 -99 41q-42 42 -42 100t41 97t100 39
h705q90 0 143 -51t53 -127t-67 -162l-635 -832h594q57 0 99 -41t42 -98t-41 -96t-100 -39z" />
    <glyph glyph-name="zcaron" unicode="&#x17e;" horiz-adv-x="991" 
d="M496 1208q-36 0 -76 31l-219 168q-49 39 -49 86t32 80q33 33 70 33t78 -27l166 -127l166 127q36 27 74 27t71 -33t33 -80t-49 -86l-220 -168q-41 -31 -77 -31zM801 254q57 0 96 -35t39 -91t-39 -92t-96 -36h-578q-76 0 -123 43t-47 110t45 117l492 559h-379q-57 0 -95 34
t-38 90q0 57 38 93t95 35h557q115 0 152 -97t-39 -183l-482 -547h402z" />
    <glyph glyph-name="florin" unicode="&#x192;" horiz-adv-x="1230" 
d="M874 836q58 0 100 -36t42 -93t-42 -95t-100 -37h-296l-271 -890q-16 -55 -68 -84q-53 -29 -109 -14t-85 71t-10 117l246 800h-54q-59 0 -99 35q-40 36 -40 94t40 95t99 37h133l109 346q41 132 139 202t228 70q215 0 344 -133q39 -43 37 -102t-39 -97q-46 -41 -98 -38
t-101 44q-49 50 -134 50t-110 -91l-78 -251h217z" />
    <glyph glyph-name="Scommaaccent" unicode="&#x218;" horiz-adv-x="1302" 
d="M612 -584q-44 0 -72 29t-28 60t30 95t29 115v76q0 49 28 82t77 33t79 -33t29 -82v-63q0 -129 -63 -240q-43 -72 -109 -72zM940 410q0 76 -72 112t-247 70q-258 54 -375 156t-117 292t147 308q147 119 375 118q309 0 447 -116q49 -42 49 -102t-39 -101t-89 -41t-108 29
q-119 57 -250 57t-191 -44t-60 -113t64 -105t226 -66q279 -51 401 -151t122 -294q1 -194 -147 -319t-402 -125q-313 0 -504 146q-76 59 -76 123t41 106q41 41 97 41t108 -39q141 -102 344 -102q120 0 188 42t68 118z" />
    <glyph glyph-name="scommaaccent" unicode="&#x219;" horiz-adv-x="1030" 
d="M479 -584q-45 0 -73 29t-27 60q0 31 30 95t29 115v76q0 49 28 82t77 33t79 -33t29 -82v-63q0 -129 -63 -240q-43 -72 -109 -72zM956 340q0 -166 -122 -261t-306 -95q-250 0 -391 118q-37 31 -45 81t22 91q30 42 78 48t99 -25q104 -68 252 -68t147 95q0 68 -119 96
t-151 35q-299 76 -299 313q0 162 116 252q117 90 321 90t314 -92q44 -35 46 -91t-33 -91q-68 -74 -178 -17q-90 45 -179 45q-145 0 -145 -88q0 -66 123 -92l145 -33q305 -74 305 -311z" />
    <glyph glyph-name="circumflex" unicode="&#x2c6;" 
d="M762 1653q0 -47 -33 -80t-71 -33t-74 27l-166 127l-166 -127q-39 -27 -77 -27t-71 33q-32 33 -32 80t49 84l219 170q41 31 77 31t77 -31l219 -170q49 -37 49 -84z" />
    <glyph glyph-name="caron" unicode="&#x2c7;" 
d="M417 1540q-36 0 -77 31l-219 168q-49 39 -49 86t32 80q63 63 148 6l166 -127l166 127q79 58 145 -6q33 -33 33 -80t-49 -86l-219 -168q-41 -31 -77 -31z" />
    <glyph glyph-name="breve" unicode="&#x2d8;" 
d="M418 1741q78 0 106 88q25 72 99 72q43 0 73 -30q30 -29 29 -61q0 -32 -8 -49q-31 -92 -111 -153q-80 -62 -188 -62t-189 62q-80 62 -110 153q-8 16 -8 48t29 62q30 30 73 30q74 0 98 -72q29 -88 107 -88z" />
    <glyph glyph-name="dotaccent" unicode="&#x2d9;" 
d="M418 1817q55 0 94 -39q39 -38 39 -94t-39 -95t-94 -39t-94 39t-39 94t39 95t94 39z" />
    <glyph glyph-name="ring" unicode="&#x2da;" horiz-adv-x="837" 
d="M344 1763q0 -35 23 -59t57 -23q34 0 56 24q22 25 22 59t-23 58t-57 24t-56 -24t-22 -59zM425 1538q-93 0 -161 66t-67 160q0 93 67 160q68 67 161 67t161 -67t68 -161q0 -93 -68 -159t-161 -66z" />
    <glyph glyph-name="ogonek" unicode="&#x2db;" 
d="M387 -177q0 -42 26 -66q27 -23 61 -23t61 18q68 39 112 -18q23 -31 17 -67t-37 -60q-80 -59 -187 -59q-106 0 -178 72q-72 73 -72 183q0 207 273 330q25 12 53 12q28 1 54 -25t26 -67t-49 -61q-78 -35 -119 -81t-41 -88z" />
    <glyph glyph-name="tilde" unicode="&#x2dc;" 
d="M540 1745q30 0 70 31q80 63 136 0q28 -31 28 -71t-41 -81q-94 -90 -178 -90q-51 0 -136 39t-117 39t-72 -32t-74 -32t-63 31q-27 31 -27 73t40 79q96 90 167 90t154 -38t113 -38z" />
    <glyph glyph-name="hungarumlaut" unicode="&#x2dd;" 
d="M516 1542q-45 0 -81 32t-36 76t29 76l199 218q33 38 80 38t81 -32t36 -78q0 -45 -29 -76l-199 -215q-35 -39 -80 -39zM134 1542q-44 0 -81 32t-37 76t29 76l199 218q29 38 78 38t84 -32t35 -78q0 -45 -29 -76l-199 -215q-35 -39 -79 -39z" />
    <glyph glyph-name="Wgrave" unicode="&#x1e80;" horiz-adv-x="1966" 
d="M1167 1660q1 -52 -31 -85t-68 -33t-62 14l-279 142q-63 35 -63 87t31 87q55 60 132 18l277 -143q63 -35 63 -87zM45 1311q0 57 37 100t95 43t98 -30t49 -74l186 -1078q2 -8 8 -8t8 8l209 965q20 105 85 157t143 52q79 0 143 -53t86 -156l213 -965q0 -14 12 -8q4 2 4 8
l191 1078q8 44 47 74t97 30t94 -42t36 -99q0 -10 -4 -35l-242 -1090q-23 -102 -85 -156t-140 -54q-79 0 -145 54t-88 154l-213 942q-2 12 -11 7l-4 -7l-209 -944q-23 -102 -86 -154t-144 -52t-149 54t-90 156l-227 1090q-4 21 -4 33z" />
    <glyph glyph-name="wgrave" unicode="&#x1e81;" horiz-adv-x="1658" 
d="M908 1210q-36 0 -62 15l-279 141q-63 35 -63 87t32 87t68 35t64 -16l276 -144q64 -35 64 -87t-32 -85t-68 -33zM178 1106q111 0 135 -115l150 -672q2 -8 10 -8t10 8l144 615q18 78 71 125t129 47t131 -47t74 -125l146 -615q0 -8 9 -8t11 8l145 672q27 115 136 115
q77 0 113 -58t16 -137l-187 -735q-49 -193 -225 -192q-82 0 -142 49t-79 145l-135 561q-2 9 -12 9t-9 -9l-137 -559q-47 -196 -221 -196t-223 192l-189 735q-20 79 17 137t112 58z" />
    <glyph glyph-name="Wacute" unicode="&#x1e82;" horiz-adv-x="1966" 
d="M1280 1785q0 -52 -63 -87l-279 -142q-26 -14 -62 -14t-68 33t-32 85t64 87l276 143q78 43 132 -18q32 -35 32 -87zM45 1311q0 57 37 100t95 43t98 -30t49 -74l186 -1078q2 -8 8 -8t8 8l209 965q20 105 85 157t143 52q79 0 143 -53t86 -156l213 -965q0 -14 12 -8q4 2 4 8
l191 1078q8 44 47 74t97 30t94 -42t36 -99q0 -10 -4 -35l-242 -1090q-23 -102 -85 -156t-140 -54q-79 0 -145 54t-88 154l-213 942q-2 12 -11 7l-4 -7l-209 -944q-23 -102 -86 -154t-144 -52t-149 54t-90 156l-227 1090q-4 21 -4 33z" />
    <glyph glyph-name="wacute" unicode="&#x1e83;" horiz-adv-x="1658" 
d="M682 1413l276 143q77 43 133 -18q31 -35 31 -87t-63 -87l-279 -141q-75 -39 -130 18q-32 33 -32 85t64 87zM178 1106q111 0 135 -115l150 -672q2 -8 10 -8t10 8l144 615q18 78 71 125t129 47t131 -47t74 -125l146 -615q0 -8 9 -8t11 8l145 672q27 115 136 115
q77 0 113 -58t16 -137l-187 -735q-49 -193 -225 -192q-82 0 -142 49t-79 145l-135 561q-2 9 -12 9t-9 -9l-137 -559q-47 -196 -221 -196t-223 192l-189 735q-20 79 17 137t112 58z" />
    <glyph glyph-name="Wdieresis" unicode="&#x1e84;" horiz-adv-x="1966" 
d="M1036 1681q0 55 38 95t94 39q56 0 94 -39q38 -38 38 -94t-38 -95t-94 -39t-94 39t-38 94zM798 1815q56 0 94 -39q38 -38 38 -94t-38 -95t-94 -39t-95 39q-38 39 -37 94q0 55 37 95q39 39 95 39zM45 1311q0 57 37 100t95 43t98 -30t49 -74l186 -1078q2 -8 8 -8t8 8
l209 965q20 105 85 157t143 52q79 0 143 -53t86 -156l213 -965q0 -14 12 -8q4 2 4 8l191 1078q8 44 47 74t97 30t94 -42t36 -99q0 -10 -4 -35l-242 -1090q-23 -102 -85 -156t-140 -54q-79 0 -145 54t-88 154l-213 942q-2 12 -11 7l-4 -7l-209 -944q-23 -102 -86 -154
t-144 -52t-149 54t-90 156l-227 1090q-4 21 -4 33z" />
    <glyph glyph-name="wdieresis" unicode="&#x1e85;" horiz-adv-x="1658" 
d="M1013 1485q56 0 94 -39t38 -94q0 -54 -38 -94t-94 -40t-94 40q-38 38 -38 94t38 94q38 39 94 39zM642 1485q56 0 94 -39t38 -94q0 -54 -38 -94t-94 -40t-94 40q-38 38 -38 94t38 94q38 39 94 39zM178 1106q111 0 135 -115l150 -672q2 -8 10 -8t10 8l144 615q18 78 71 125
t129 47t131 -47t74 -125l146 -615q0 -8 9 -8t11 8l145 672q27 115 136 115q77 0 113 -58t16 -137l-187 -735q-49 -193 -225 -192q-82 0 -142 49t-79 145l-135 561q-2 9 -12 9t-9 -9l-137 -559q-47 -196 -221 -196t-223 192l-189 735q-20 79 17 137t112 58z" />
    <glyph glyph-name="Ygrave" unicode="&#x1ef2;" horiz-adv-x="1351" 
d="M831 1660q1 -52 -31 -85t-68 -33t-62 14l-279 142q-63 35 -63 87t31 87q56 61 133 18l276 -143q63 -35 63 -87zM23 1311q0 55 43 99q42 44 106 44t107 -55l397 -498l399 498q39 45 96 53t107 -31q45 -39 51 -98t-33 -109l-424 -509q-55 -64 -55 -117v-453q0 -59 -41 -101
t-99 -42t-100 43t-42 100v453q-1 43 -17 66q-16 24 -41 53l-420 507q-34 42 -34 97z" />
    <glyph glyph-name="ygrave" unicode="&#x1ef3;" horiz-adv-x="1101" 
d="M700 1324q0 -52 -32 -85t-67 -33q-36 0 -62 15l-279 141q-63 35 -63 87t31 87q55 60 132 18l277 -143q63 -35 63 -87zM557 406q8 0 12 12l213 581q39 106 142 107q80 0 122 -65t9 -140l-383 -891q-121 -281 -273 -381q-59 -39 -114 -39t-96 36q-39 36 -39 98t61 106
q131 92 188 252l-352 821q-33 76 10 139t121 64q102 0 141 -107l226 -581q4 -12 12 -12z" />
    <glyph glyph-name="endash" unicode="&#x2013;" horiz-adv-x="1193" 
d="M94 588q0 57 41 98t101 41h720q58 0 100 -40t42 -97t-42 -98t-100 -41h-720q-59 0 -101 39q-41 41 -41 98z" />
    <glyph glyph-name="emdash" unicode="&#x2014;" horiz-adv-x="1939" 
d="M94 588q0 57 41 98t101 41h1466q59 0 100 -40t41 -97t-42 -98t-99 -41h-1466q-59 0 -101 39q-41 41 -41 98z" />
    <glyph glyph-name="quoteleft" unicode="&#x2018;" horiz-adv-x="477" 
d="M340 1130v-118q0 -51 -36 -86t-88 -35t-88 35t-36 86v106q0 148 54 238t135 90q49 0 81 -33t31 -67t-27 -94t-26 -122z" />
    <glyph glyph-name="quoteright" unicode="&#x2019;" horiz-adv-x="477" 
d="M391 1329v-106q0 -147 -53 -237t-135 -91q-49 0 -82 33t-33 67t28 94t27 121v119q0 51 36 86t88 35t88 -35t36 -86z" />
    <glyph glyph-name="quotesinglbase" unicode="&#x201a;" horiz-adv-x="477" 
d="M379 207v-109q-1 -143 -55 -235t-136 -92q-48 -1 -80 33t-32 67t27 93q28 60 28 124v119q0 49 35 84t87 35t89 -35t37 -84z" />
    <glyph glyph-name="quotedblleft" unicode="&#x201c;" horiz-adv-x="886" 
d="M477 1012v106q-1 148 53 238t136 90q48 0 80 -33t32 -67t-26 -94t-27 -122v-118q0 -51 -36 -86t-88 -35t-88 35t-36 86zM117 1012v106q0 148 53 238t135 90q49 0 81 -33t32 -67t-27 -94t-26 -122v-118q0 -51 -36 -86t-88 -35t-88 35t-36 86z" />
    <glyph glyph-name="quotedblright" unicode="&#x201d;" horiz-adv-x="886" 
d="M776 1329v-106q0 -147 -53 -237t-135 -91q-49 0 -82 33t-33 67t28 94t27 121v119q0 51 36 86t88 35t88 -35t36 -86zM416 1329v-106q0 -147 -54 -237t-135 -91q-49 0 -81 33t-32 67t27 94t27 121v119q0 51 36 86t88 35t88 -35t36 -86z" />
    <glyph glyph-name="quotedblbase" unicode="&#x201e;" horiz-adv-x="886" 
d="M416 207v-109q0 -143 -56 -235t-135 -92q-49 -1 -81 33t-32 67t28 93t28 124v119q0 49 35 84t87 35t89 -35t37 -84zM776 207v-109q0 -147 -54 -237t-134 -90q-49 -1 -82 33t-33 67t28 93t27 124v119q0 49 36 84t87 35t88 -35t37 -84z" />
    <glyph glyph-name="dagger" unicode="&#x2020;" horiz-adv-x="1189" 
d="M733 1053h250q59 0 100 -40t41 -97q0 -58 -41 -98t-100 -40h-250v-923q0 -59 -40 -101t-98 -41q-58 0 -98 41t-40 101v923h-250q-59 0 -101 40q-40 40 -40 98t40 97q41 40 101 40h250v258q0 57 41 100t97 43t97 -42t41 -101v-258z" />
    <glyph glyph-name="daggerdbl" unicode="&#x2021;" horiz-adv-x="1189" 
d="M733 1053h250q59 0 100 -40t41 -97q0 -58 -41 -98t-100 -40h-250v-391h250q59 0 100 -41t41 -98t-41 -96t-100 -39h-250v-258q0 -59 -40 -101t-98 -41q-58 0 -98 41t-40 101v258h-250q-59 0 -101 39q-40 39 -40 96t40 98q41 41 101 41h250v391h-250q-59 0 -101 40
q-40 40 -40 98t40 97q41 40 101 40h250v258q0 57 41 100t97 43t97 -42t41 -101v-258z" />
    <glyph glyph-name="bullet" unicode="&#x2022;" horiz-adv-x="966" 
d="M225 717q0 106 76 182t182 76q107 0 183 -76t76 -182t-76 -182t-182 -76t-183 76q-76 76 -76 182z" />
    <glyph glyph-name="ellipsis" unicode="&#x2026;" horiz-adv-x="1409" 
d="M234 342q53 0 90 -36t36 -89v-111q0 -53 -36 -89q-36 -35 -88 -35q-53 0 -91 35q-37 36 -36 89v111q0 53 35 89q37 36 90 36zM707 342q53 0 90 -36t37 -89v-111q0 -53 -36 -89q-36 -35 -89 -35t-91 35q-37 36 -36 89v111q0 53 35 89q37 36 90 36zM1172 342q53 0 90 -36
t36 -89v-111q0 -53 -36 -89q-36 -35 -88 -35q-53 0 -91 35q-37 36 -36 89v111q0 53 35 89q37 36 90 36z" />
    <glyph glyph-name="perthousand" unicode="&#x2030;" horiz-adv-x="2496" 
d="M2083 520q-51 0 -83 -33t-37 -82t0 -101t37 -84t83 -32t83 33t37 83t0 100t-37 83t-83 33zM2083 727q135 0 229 -92t103 -227q2 -53 0 -109q-9 -135 -103 -226t-229 -91t-231 91q-95 91 -101 226q-2 57 0 109q6 135 101 227q96 92 231 92zM1333 520q-51 0 -83 -33
t-37 -82t0 -101t37 -84t83 -32t83 33t37 83t0 100t-37 83t-83 33zM1333 727q135 0 229 -92t103 -227q2 -53 0 -109q-8 -135 -102 -226q-93 -91 -229 -91t-231 91t-102 226q-2 57 0 109q5 135 101 227t231 92zM406 387l735 846q35 41 91 44t95 -32t42 -91t-32 -93l-735 -844
q-35 -39 -90 -44t-94 29t-42 90t30 95zM392 1245q-50 0 -82 -33t-37 -81t-1 -100t37 -85t83 -33t83 33t38 83t0 100t-38 83t-83 33zM393 1454q135 0 229 -92t103 -227q2 -55 0 -109q-8 -135 -102 -227q-93 -92 -229 -92t-231 92t-104 225q-2 57 0 109q7 135 103 228t231 93z
" />
    <glyph glyph-name="guilsinglleft" unicode="&#x2039;" horiz-adv-x="735" 
d="M78 732q0 110 102 183l252 183q45 32 93 28t82 -43t29 -91t-46 -81l-207 -151q-18 -14 -18 -28t18 -27l207 -152q41 -29 46 -81t-29 -92t-82 -43t-93 28l-252 184q-102 73 -102 183z" />
    <glyph glyph-name="guilsinglright" unicode="&#x203a;" horiz-adv-x="735" 
d="M655 732q0 -108 -100 -183l-254 -184q-43 -31 -92 -28t-82 43t-29 92t47 81l205 152q35 27 0 55l-205 151q-43 29 -47 81t31 91q31 39 80 43t92 -28l254 -183q100 -75 100 -183z" />
    <glyph glyph-name="fraction" unicode="&#x2044;" horiz-adv-x="614" 
d="M-82 109l522 1312q18 47 72 69t101 4t67 -68q20 -48 0 -99l-522 -1313q-18 -48 -66 -70t-97 -4q-48 18 -73 71q-24 53 -4 98z" />
    <glyph glyph-name="Euro" unicode="&#x20ac;" horiz-adv-x="1327" 
d="M193 991h67q37 211 175 337t358 126q285 0 430 -156q39 -41 39 -96t-39 -93t-91 -38t-114 57q-84 78 -225 78q-98 0 -163 -58t-87 -157h264q51 0 87 -35t36 -85t-36 -84t-87 -33h-281v-72h281q51 0 87 -35t36 -85t-36 -84t-87 -34h-264q23 -98 87 -155t163 -58
q139 0 225 76q57 57 111 57q53 0 93 -37t40 -91t-39 -99q-143 -156 -430 -155q-221 0 -357 121q-135 122 -176 341h-67q-53 0 -90 34q-35 34 -35 84t35 85q36 35 90 35h57v72h-57q-53 0 -90 33q-35 34 -35 84t35 85q37 35 90 35z" />
    <glyph glyph-name="trademark" unicode="&#x2122;" horiz-adv-x="1423" 
d="M772 1419q41 -1 74 -25t41 -67l65 -287l68 287q8 41 41 67t72 25q100 0 118 -106l60 -377q13 -88 -57 -100q-36 -6 -62 13t-29 54l-41 318l-73 -297q-25 -86 -97 -86t-96 86l-74 299l-41 -320q-3 -35 -29 -54t-62 -12q-70 14 -56 99l59 375q19 108 119 108zM424 1266
v-353q0 -33 -22 -55t-54 -20q-32 0 -56 22q-22 22 -22 53v353h-114q-29 0 -51 22q-21 22 -21 50q0 30 21 52q22 22 51 21h379q31 1 51 -21t20 -52t-22 -52t-49 -20h-111z" />
    <glyph glyph-name="minus" unicode="&#x2212;" horiz-adv-x="1286" 
d="M1030 586h-776q-55 0 -94 39t-39 93t39 92t94 38h776q55 0 94 -38t39 -92t-40 -93t-93 -39z" />
    <glyph glyph-name="lessequal" unicode="&#x2264;" horiz-adv-x="1286" 
d="M559 856q0 -16 25 -31l409 -231q45 -27 59 -81t-14 -101q-29 -48 -80 -60t-98 15l-516 299q-123 72 -123 192t123 191l516 299q47 26 98 14t80 -59t15 -101t-60 -82l-409 -233q-25 -15 -25 -31zM932 -8h-580q-55 0 -94 39t-39 93t39 92t94 38h580q55 0 94 -38t39 -92
t-40 -93t-93 -39z" />
    <glyph glyph-name="greaterequal" unicode="&#x2265;" horiz-adv-x="1286" 
d="M1063 857q0 -120 -121 -191l-518 -299q-47 -27 -98 -15t-79 60t-15 101q13 54 59 81l409 231q25 15 25 31t-25 31l-409 233q-45 28 -59 82t14 101q29 47 80 59t98 -14l518 -299q121 -72 121 -192zM934 -8h-582q-53 0 -93 40t-40 93t39 91t94 38h582q55 0 93 -37t38 -92
t-38 -94t-93 -39z" />
    <glyph glyph-name="fl" unicode="&#xfb02;" horiz-adv-x="1484" 
d="M1198 1468q57 0 97 -42t40 -101v-1194q0 -59 -39 -100t-96 -41t-98 42t-41 99v1194q0 59 40 101t97 42zM219 1057v53q0 182 97 282t268 99q115 0 214 -30t99 -128q0 -49 -35 -84t-94 -35q-20 0 -72 10t-86 9q-117 0 -116 -133v-43h237q51 0 88 -35t37 -86t-37 -86
t-88 -35h-237v-680q0 -61 -39 -103t-97 -42t-99 42q-40 42 -40 103v680h-49q-53 0 -90 34t-37 86t37 87t90 35h49z" />
    <glyph glyph-name="Q.alt" horiz-adv-x="1515" 
d="M879 485v-221q100 35 162 122q63 87 73 211q10 123 -1 265t-111 240t-246 98t-244 -97t-110 -239t-2 -267q10 -124 72 -211t161 -122v221q0 49 35 86t85 37t88 -35t38 -88zM633 -213v199q-213 38 -354 196t-158 375q-16 166 0 326q20 251 198 417q177 166 435 166
t439 -169t202 -414q12 -164 0 -326q-19 -217 -161 -375t-355 -196v-199q0 -47 -37 -85t-86 -37t-86 36t-37 86z" />
    <glyph glyph-name="r.alt" horiz-adv-x="800" 
d="M502 1118q90 0 172 -20q106 -25 106 -133q0 -51 -35 -93t-102 -41q-14 1 -51 9q-38 8 -88 8t-98 -33v-680q0 -59 -39 -100t-97 -41t-98 42q-41 42 -41 99v789q0 41 35 71q58 49 152 86t184 37z" />
    <glyph glyph-name="zero.onum" horiz-adv-x="1292" 
d="M647 858q-117 0 -189 -62t-87 -184q-8 -72 0 -129q12 -121 86 -183q75 -62 191 -62t189 62t87 183q23 218 -87 313q-73 62 -190 62zM647 1118q213 0 361 -119t182 -319q20 -137 -2 -270q-33 -197 -180 -316q-146 -119 -360 -119t-362 120t-182 321q-23 131 0 270
q34 196 182 314t361 118z" />
    <glyph glyph-name="one.onum" horiz-adv-x="1046" 
d="M645 1106q53 0 91 -46t38 -97v-830q0 -59 -40 -100t-97 -41t-98 42t-41 99v647l-201 -78q-55 -20 -109 -2t-77 70q-25 52 -1 108t85 78l360 136q37 14 90 14z" />
    <glyph glyph-name="two.onum" horiz-adv-x="1243" 
d="M102 172q0 246 318 375q83 35 181 69q99 36 135 54q63 32 64 81q1 50 -45 83t-151 32q-150 0 -254 -90q-53 -41 -105 -41t-88 33t-36 84q0 74 76 127q161 131 405 131t366 -98t122 -244t-92 -226q-92 -79 -265 -123q-174 -44 -243 -77t-68 -84h555q53 0 92 -38t39 -92
t-38 -91t-93 -37h-701q-78 0 -126 45t-48 127z" />
    <glyph glyph-name="three.onum" horiz-adv-x="1245" 
d="M817 168q0 80 -57 129t-154 49q-39 0 -90 -11q-52 -11 -84 -11t-72 34q-38 34 -38 92t53 101l276 270h-442q-57 0 -99 41q-42 40 -42 98t41 98t100 40h633q76 0 126 -48t50 -120t-45 -115l-252 -248q170 -10 274 -123t105 -270q0 -272 -244 -423t-639 -140q-67 2 -105 38
t-42 94t39 102t106 42q254 -12 428 63t174 218z" />
    <glyph glyph-name="four.onum" horiz-adv-x="1382" 
d="M774 285v442l-334 -442h334zM1190 8h-137v-274q0 -56 -41 -98q-40 -42 -98 -42t-99 41t-41 99v274h-465q-100 0 -153 69t-33 159q6 41 41 86l504 653q92 123 191 123t147 -66t47 -166v-581h137q57 0 97 -39q40 -38 40 -96t-41 -100t-96 -42z" />
    <glyph glyph-name="five.onum" horiz-adv-x="1273" 
d="M719 600q209 0 327 -118t119 -302t-115 -316q-227 -259 -776 -259q-59 0 -99 37t-42 97t39 100t104 40q281 0 447 71t166 216q1 78 -59 123t-161 45t-286 -68q-100 -35 -157 6q-56 41 -56 123v516q0 95 54 141t136 46h588q60 0 100 -39t40 -96t-42 -99q-42 -41 -98 -41
h-510v-286q162 63 281 63z" />
    <glyph glyph-name="six.onum" horiz-adv-x="1400" 
d="M718 692q-130 0 -290 -76q-12 -362 297 -362q131 0 199 63t67 162q0 213 -273 213zM719 -20q-600 0 -565 770q18 340 193 526t493 186q168 0 210 -15t70 -31q55 -32 57 -101q1 -69 -36 -104t-105 -35q-12 0 -77 8t-109 8q-332 0 -395 -309q162 66 317 65q234 0 366 -128
t132 -338t-144 -356t-407 -146z" />
    <glyph glyph-name="seven.onum" horiz-adv-x="1118" 
d="M190 1098h721q78 0 127 -45t49 -109t-32 -115q-242 -375 -367 -623t-184 -493q-20 -75 -89 -99t-116 11q-88 47 -57 168q53 209 173 449t326 585h-551q-59 0 -100 39q-41 40 -41 98t41 96t100 38z" />
    <glyph glyph-name="eight.onum" horiz-adv-x="1427" 
d="M713 -18q-276 0 -425 115q-148 116 -149 304q0 252 230 349q-197 84 -197 311q0 185 143 289t397 104t397 -102q144 -102 144 -287q0 -219 -194 -315q227 -96 227 -349q0 -188 -148 -304q-149 -115 -425 -115zM712 610q-144 0 -218 -50t-74 -137t73 -136t223 -49t222 50
q74 50 74 136t-78 136t-222 50zM715 1204q-131 0 -199 -43t-68 -121t72 -120q70 -42 194 -43q124 0 194 44t69 123q0 160 -262 160z" />
    <glyph glyph-name="nine.onum" horiz-adv-x="1394" 
d="M676 401q125 0 289 74q8 369 -276 369q-144 0 -213 -62q-68 -62 -68 -166t72 -160t196 -55zM129 615q0 211 144 357t407 146q328 0 453 -210t108 -533q-20 -393 -235 -579t-641 -191q-61 0 -104 38q-42 38 -44 93q-4 55 34 99q39 44 119 47q306 11 418 91q113 80 144 230
q-154 -59 -318 -60q-225 0 -355 130t-130 342z" />
    <glyph glyph-name="sterling.alt" horiz-adv-x="1198" 
d="M229 819h105q4 12 28 135q51 262 166 381q116 119 302 119t276 -102q55 -70 8 -152q-61 -99 -180 -45q-57 27 -119 27q-63 0 -105 -58t-63 -160q-21 -103 -33 -145h232q53 0 93 -37t40 -92t-40 -92t-93 -37h-295q-43 -153 -65 -205t-23 -66q0 -14 22 -14h523q55 0 97 -42
t42 -99t-41 -96t-100 -39h-625q-84 0 -142 41q-59 41 -71 93t-8 102q4 51 45 139t67 186h-43q-57 0 -95 37t-38 92t39 92t94 37z" />
    <glyph glyph-name="commaaccent" 
d="M391 -551q-55 0 -83 29q-28 30 -28 60t30 94t30 116v76q0 49 28 82t76 33t79 -33q30 -33 30 -82v-64q-1 -128 -64 -239q-43 -72 -98 -72z" />
    <glyph glyph-name="caronSlovak" 
d="M381 1128q-45 0 -75 30t-30 63t31 94t31 115v65q0 53 30 87t81 34t81 -34t29 -87v-53q0 -125 -63 -240q-43 -74 -115 -74z" />
    <glyph glyph-name="g.alt" horiz-adv-x="1181" 
d="M57 -140q0 60 35 98t85 38t124 -51q141 -97 271 -97t190 30q59 30 59 67q0 61 -145 61h-201q-129 0 -206 56t-76 147q0 119 96 174q-197 98 -197 330q0 182 122 293t321 110q131 0 258 -65h239q51 0 88 -32t37 -82t-35 -86t-90 -36h-61q18 -43 18 -96q0 -155 -99 -267
t-284 -112h-47q-98 0 -98 -41t98 -41h168q164 0 266 -80q103 -80 103 -226t-133 -252t-393 -106t-441 148q-72 58 -72 118zM541 539q86 0 139 50t53 126t-51 125t-139 49q-89 0 -143 -49t-54 -125t54 -126t141 -50z" />
    <glyph glyph-name="gbreve.alt" horiz-adv-x="1181" 
d="M537 1389q78 0 106 88q25 72 98 71q43 0 73 -30t30 -60q0 -32 -8 -49q-31 -91 -111 -153q-81 -62 -189 -62t-188 61t-110 154q-8 16 -8 48t29 62q30 30 73 29q74 0 98 -71q29 -88 107 -88zM57 -140q0 60 35 98t85 38t124 -51q141 -97 271 -97t190 30q59 30 59 67
q0 61 -145 61h-201q-129 0 -206 56t-76 147q0 119 96 174q-197 98 -197 330q0 182 122 293t321 110q131 0 258 -65h239q51 0 88 -32t37 -82t-35 -86t-90 -36h-61q18 -43 18 -96q0 -155 -99 -267t-284 -112h-47q-98 0 -98 -41t98 -41h168q164 0 266 -80q103 -80 103 -226
t-133 -252t-393 -106t-441 148q-72 58 -72 118zM541 539q86 0 139 50t53 126t-51 125t-139 49q-89 0 -143 -49t-54 -125t54 -126t141 -50z" />
    <glyph glyph-name="gdotaccent.alt" horiz-adv-x="1181" 
d="M543 1491q55 0 94 -39t39 -94t-39 -94t-94 -39t-94 39t-39 94t39 94t94 39zM57 -140q0 60 35 98t85 38t124 -51q141 -97 271 -97t190 30q59 30 59 67q0 61 -145 61h-201q-129 0 -206 56t-76 147q0 119 96 174q-197 98 -197 330q0 182 122 293t321 110q131 0 258 -65h239
q51 0 88 -32t37 -82t-35 -86t-90 -36h-61q18 -43 18 -96q0 -155 -99 -267t-284 -112h-47q-98 0 -98 -41t98 -41h168q164 0 266 -80q103 -80 103 -226t-133 -252t-393 -106t-441 148q-72 58 -72 118zM541 539q86 0 139 50t53 126t-51 125t-139 49q-89 0 -143 -49t-54 -125
t54 -126t141 -50z" />
    <glyph glyph-name="gcommaaccent.alt" horiz-adv-x="1181" 
d="M686 1634v-92q0 -158 -59 -262q-49 -82 -133 -82q-49 0 -80 33t-31 67t26 90t25 119v127q0 51 36 86t89 35t90 -35t37 -86zM57 -140q0 60 35 98t85 38t124 -51q141 -97 271 -97t190 30q59 30 59 67q0 61 -145 61h-201q-129 0 -206 56t-76 147q0 119 96 174
q-197 98 -197 330q0 182 122 293t321 110q131 0 258 -65h239q51 0 88 -32t37 -82t-35 -86t-90 -36h-61q18 -43 18 -96q0 -155 -99 -267t-284 -112h-47q-98 0 -98 -41t98 -41h168q164 0 266 -80q103 -80 103 -226t-133 -252t-393 -106t-441 148q-72 58 -72 118zM541 539
q86 0 139 50t53 126t-51 125t-139 49q-89 0 -143 -49t-54 -125t54 -126t141 -50z" />
    <glyph glyph-name="ampersand.alt" horiz-adv-x="1466" 
d="M446 1044q0 -88 129 -163q150 31 201 65t51 98t-47 105t-141 41q-93 0 -143 -42t-50 -104zM1288 705q60 0 102 -39q42 -40 42 -98t-41 -98t-101 -40h-90q-34 -211 -186 -330q-152 -118 -394 -118t-389 119q-145 120 -145 311q0 238 250 352q-170 135 -170 306
q0 170 130 274t343 104t343 -106t130 -267q0 -162 -110 -257t-373 -175q-150 -41 -206 -89t-56 -127q-1 -79 71 -131t208 -52t228 74t97 196q10 190 174 191h143z" />
    <glyph glyph-name="racute.alt" horiz-adv-x="800" 
d="M294 1198q-36 0 -68 33t-32 85t64 87l277 143q77 42 132 -18q31 -35 31 -87t-63 -87l-279 -142q-26 -14 -62 -14zM502 1118q90 0 172 -20q106 -25 106 -133q0 -51 -35 -93t-102 -41q-14 1 -51 9q-38 8 -88 8t-98 -33v-680q0 -59 -39 -100t-97 -41t-98 42q-41 42 -41 99
v789q0 41 35 71q58 49 152 86t184 37z" />
    <glyph glyph-name="rcaron.alt" horiz-adv-x="800" 
d="M439 1198q-36 0 -77 31l-219 168q-49 39 -49 86t33 80q62 62 147 6l166 -127l166 127q80 58 146 -6q32 -33 32 -80t-49 -86l-219 -168q-41 -31 -77 -31zM502 1118q90 0 172 -20q106 -25 106 -133q0 -51 -35 -93t-102 -41q-14 1 -51 9q-38 8 -88 8t-98 -33v-680
q0 -59 -39 -100t-97 -41t-98 42q-41 42 -41 99v789q0 41 35 71q58 49 152 86t184 37z" />
    <glyph glyph-name="rcommaaccent.alt" horiz-adv-x="800" 
d="M217 -551q-45 0 -73 29q-28 30 -28 60t30 94t30 116v76q0 49 28 82t77 33t79 -33t29 -82v-64q0 -128 -63 -239q-43 -72 -109 -72zM502 1118q90 0 172 -20q106 -25 106 -133q0 -51 -35 -93t-102 -41q-14 1 -51 9q-38 8 -88 8t-98 -33v-680q0 -59 -39 -100t-97 -41t-98 42
q-41 42 -41 99v789q0 41 35 71q58 49 152 86t184 37z" />
    </font>
</defs>
</svg>
