<?xml version="1.0" standalone="no"?>
<!DOCTYPE svg PUBLIC "-//W3C//DTD SVG 1.1//EN" "http://www.w3.org/Graphics/SVG/1.1/DTD/svg11.dtd" >
<svg xmlns="http://www.w3.org/2000/svg">
<metadata>
Created by FontPrep 20130207 at Tue Nov  4 15:29:33 2014
 By Mauricio Duran
Copyright (c) 2010 by Miles Newlyn. All rights reserved.
</metadata>
<defs>
<font id="3514bbfe3786717879ec16cd33c289bb" horiz-adv-x='1024' >
  <font-face 
    font-family="Rubrik-Regular"
    font-weight="400"
    font-stretch="normal"
    units-per-em="2048"
    panose-1="2 0 5 3 0 0 0 2 0 4"
    ascent="1536"
    descent="-512"
    x-height="1055"
    cap-height="1444"
    bbox="-51.3478 -584 2160 1935"
    underline-thickness="143"
    underline-position="-62"
    unicode-range="U+0020-FB02"
  />
<missing-glyph horiz-adv-x="616" 
 />
    <glyph glyph-name="fi" unicode="fi" horiz-adv-x="1361" 
d="M1081 1077q35 1 60 -25t24 -61v-913q1 -37 -23 -62q-24 -24 -59 -24t-59 24t-25 62v913q-1 35 23 61t59 25zM1184 1346q0 -43 -30 -74t-73 -31t-71 31t-29 74q0 42 29 72q30 30 72 30t72 -30t30 -72zM227 1042v95q0 153 83 243t239 90q109 0 180 -22q66 -18 66 -78
q-1 -30 -21 -52t-50 -22t-82 10t-89 9q-160 0 -160 -191v-82h287q32 0 56 -22t24 -54t-24 -54t-56 -21h-287v-813q1 -37 -23 -62q-24 -24 -59 -24t-59 24t-25 62v813h-71q-33 -1 -57 21t-23 55q0 33 24 55t56 20h71z" />
    <glyph glyph-name=".notdef" horiz-adv-x="616" 
 />
    <glyph glyph-name=".null" horiz-adv-x="0" 
 />
    <glyph glyph-name="nonmarkingreturn" horiz-adv-x="681" 
 />
    <glyph glyph-name="space" unicode=" " horiz-adv-x="559" 
 />
    <glyph glyph-name="exclam" unicode="!" horiz-adv-x="440" 
d="M135 63v109q0 34 26 58q27 24 61 24t59 -25t24 -57v-109q-1 -33 -25 -57t-59 -24t-61 24t-25 57zM220 1436q34 0 59 -26t24 -60l-10 -811q0 -31 -22 -53q-21 -22 -51 -22t-52 24q-22 22 -21 51l-10 811q0 34 25 60q24 26 58 26z" />
    <glyph glyph-name="quotedbl" unicode="&#x22;" horiz-adv-x="714" 
d="M580 1354v-279q0 -35 -24 -57t-58 -23q-34 0 -58 23q-23 23 -22 57v279q0 34 24 58t57 24t57 -24t24 -58zM297 1354v-279q0 -35 -24 -57q-23 -22 -57 -23q-34 0 -58 24t-23 56v279q0 34 25 58q26 24 58 24t56 -24t23 -58z" />
    <glyph glyph-name="numbersign" unicode="#" horiz-adv-x="1314" 
d="M596 885l-98 -310h219l98 310h-219zM255 -18q-48 0 -68 34q-19 35 -5 76l107 332h-115q-36 0 -58 22t-22 54t24 54t58 21h166l98 310h-118q-35 -1 -59 21t-23 55q0 33 24 55t58 20h170l118 361q18 53 66 53t66 -35q19 -35 6 -76l-99 -303h217l119 361q17 53 65 53t67 -35
t7 -76l-100 -303h115q35 0 59 -22t23 -54q0 -32 -24 -54t-58 -21h-168l-99 -310h121q35 1 59 -21t24 -54t-24 -55q-24 -22 -59 -21h-172l-125 -387q-18 -55 -65 -55t-68 34q-20 35 -6 76l107 332h-220l-125 -387q-16 -55 -64 -55z" />
    <glyph glyph-name="dollar" unicode="$" 
d="M1120 417q0 -163 -119 -269t-303 -115v-135q0 -35 -22 -58q-22 -22 -52 -22t-54 24t-23 56v139q-207 18 -369 137q-45 33 -45 72q0 40 26 64q25 24 57 24t63 -25q160 -119 362 -119q147 0 228 58t81 158q0 102 -76 151t-298 97t-325 134q-101 86 -101 241t108 255
q109 100 289 117v133q1 32 23 56t54 24t54 -23t20 -57v-133q188 -25 293 -111q31 -24 31 -62t-25 -61t-50 -23t-66 23q-125 78 -276 78t-219 -61q-68 -60 -67 -156q0 -96 68 -139t234 -78q267 -55 383 -143t116 -251z" />
    <glyph glyph-name="percent" unicode="%" horiz-adv-x="1531" 
d="M1146 131q66 0 108 44q42 43 46 99t0 116t-46 104q-42 45 -108 45q-64 0 -106 -45q-42 -44 -48 -102q-5 -58 -1 -114t47 -102q43 -45 108 -45zM1146 688q124 0 212 -89t94 -214q2 -51 0 -102q-8 -127 -95 -215t-211 -88t-212 88q-113 113 -96 317q6 125 95 214t213 89z
M315 311l801 926q20 25 54 27t58 -18t24 -54q0 -33 -19 -57q-221 -252 -803 -926q-22 -23 -54 -25t-56 18t-24 54q0 32 19 55zM387 1303q-65 1 -107 -45t-48 -103t-1 -115q3 -58 47 -101q44 -44 110 -44t108 45q59 61 47 203q-4 70 -47 115t-109 45zM387 1452q125 0 212 -88
t93 -215q2 -51 0 -102q-8 -127 -94 -215t-211 -89t-213 89t-94 215q-4 53 0 102q4 127 93 215t214 88z" />
    <glyph glyph-name="ampersand" unicode="&#x26;" horiz-adv-x="1421" 
d="M295 370q0 -98 92 -164t266 -67q174 0 293 101l-428 387q-127 -49 -175 -105q-48 -54 -48 -152zM369 1077q0 -86 46 -148t134 -128q199 49 279 109t81 158q0 98 -66 156q-67 56 -205 56t-204 -58q-65 -59 -65 -145zM1200 700q36 0 58 -24t22 -60v-18q0 -184 -113 -348
l138 -121q25 -20 27 -53t-20 -60q-22 -28 -57 -28t-61 24l-133 119q-164 -149 -412 -149t-387 112t-139 285q0 246 262 356q-186 156 -186 327t116 272q117 102 322 102t324 -96t119 -248t-94 -248q-93 -96 -308 -164l371 -326q70 104 69 248q0 46 22 72t60 26z" />
    <glyph glyph-name="quotesingle" unicode="'" horiz-adv-x="434" 
d="M297 1354v-279q0 -35 -24 -57q-23 -22 -57 -23q-34 0 -58 24t-23 56v279q0 34 25 58q26 24 58 24t56 -24t23 -58z" />
    <glyph glyph-name="parenleft" unicode="(" horiz-adv-x="718" 
d="M326 633q0 -244 92 -466t266 -386q47 -47 12 -103q-18 -28 -53 -34t-65 18q-205 190 -311 444q-105 254 -105 526t105 527q105 254 311 443q32 26 66 20t52 -35q35 -55 -12 -102q-174 -164 -266 -386t-92 -466z" />
    <glyph glyph-name="parenright" unicode=")" horiz-adv-x="718" 
d="M393 633q0 244 -92 466t-266 386q-47 47 -12 102q20 29 54 35t64 -20q205 -188 311 -442t105 -527q0 -273 -105 -527t-311 -444q-31 -24 -65 -18t-53 34q-35 55 12 103q174 164 266 386t92 466z" />
    <glyph glyph-name="asterisk" unicode="*" horiz-adv-x="796" 
d="M399 1442q29 0 51 -22t19 -56l-10 -172q148 100 151 100q27 18 57 14t44 -30q32 -65 -31 -98l-170 -86l170 -84q25 -12 36 -39t-5 -60q-14 -25 -44 -29t-57 13l-153 96l12 -172q2 -35 -18 -57q-19 -22 -51 -21q-32 0 -52 22t-18 56l12 172l-154 -96q-26 -16 -56 -12
t-44 28q-16 33 -5 60t36 39l170 84l-170 86q-27 14 -37 40t5 54t45 34q30 5 56 -14l152 -100l-10 172q-2 34 19 56t50 22z" />
    <glyph glyph-name="plus" unicode="+" horiz-adv-x="1286" 
d="M563 279v358h-356q-35 -1 -60 23t-25 58t26 58q24 24 59 23h356v356q0 35 24 59q25 24 59 25q34 0 58 -25t23 -59v-356h352q35 0 60 -24q25 -23 25 -57t-26 -58q-24 -24 -59 -23h-352v-358q0 -35 -24 -60q-25 -25 -59 -25t-58 26q-24 24 -23 59z" />
    <glyph glyph-name="comma" unicode="," horiz-adv-x="438" 
d="M303 174v-53q0 -164 -51 -256q-33 -57 -77 -57q-43 0 -65 23q-22 24 -22 48q0 23 24 71t23 118v106q0 34 25 58q26 24 60 24t58 -24t25 -58z" />
    <glyph glyph-name="hyphen" unicode="-" horiz-adv-x="694" 
d="M590 586q0 -35 -26 -59t-60 -23h-314q-34 0 -60 24t-26 59t26 59t60 24h314q34 0 60 -24t26 -60z" />
    <glyph glyph-name="period" unicode="." horiz-adv-x="542" 
d="M219 264q35 0 60 -26t24 -60v-110q1 -37 -23 -62q-24 -24 -60 -24t-60 26t-25 60v110q1 34 25 60t59 26z" />
    <glyph glyph-name="slash" unicode="/" horiz-adv-x="714" 
d="M604 1491q31 14 63 3t44 -43t0 -65l-555 -1400q-12 -31 -43 -44t-63 -2t-45 43t1 64l555 1399q12 31 43 45z" />
    <glyph glyph-name="zero" unicode="0" horiz-adv-x="1425" 
d="M713 141q160 0 257 108q97 107 108 271t3 383q-10 181 -108 285t-260 104t-260 -104t-109 -285q-8 -219 3 -383t109 -271q98 -108 257 -108zM713 -20q-227 0 -375 153q-147 154 -162 397q-10 190 0 379q16 244 162 395q146 150 374 150t375 -152t162 -393q10 -188 0 -379
q-13 -244 -161 -397t-375 -153z" />
    <glyph glyph-name="one" unicode="1" horiz-adv-x="942" 
d="M573 1444q31 0 55 -26t23 -60v-1280q-1 -37 -25 -62q-24 -24 -59 -24t-59 26t-25 60v1141l-256 -142q-31 -18 -65 -10t-49 38q-17 31 -7 65t39 51l377 211q20 12 51 12z" />
    <glyph glyph-name="two" unicode="2" horiz-adv-x="1204" 
d="M121 119q0 133 76 245t241 230q274 195 336 256q90 94 91 198t-70 174q-72 71 -217 70q-186 0 -302 -145q-20 -27 -51 -36t-63 5t-41 50q-10 36 12 69q69 91 179 155t259 64q219 0 341 -114t122 -276t-89 -263q-89 -102 -300 -254t-281 -230t-73 -155h688q35 0 61 -23
t25 -57q0 -34 -25 -58t-61 -24h-737q-53 0 -87 32t-34 87z" />
    <glyph glyph-name="three" unicode="3" horiz-adv-x="1210" 
d="M274 -6q-66 0 -100 2t-60 24q-24 22 -24 59t27 59t79 18t113 -4q258 0 411 97t152 267q0 116 -76 182t-200 66q-45 0 -91 -8t-69 -8q-22 0 -46 22t-24 56t25 59l361 389h-578q-38 0 -62 22t-24 59t25 59t61 22h660q53 0 89 -33t36 -80t-29 -82l-316 -338q184 4 306 -103
q121 -108 120 -280q0 -246 -206 -386t-560 -140z" />
    <glyph glyph-name="four" unicode="4" horiz-adv-x="1361" 
d="M858 514v739l-557 -739h557zM1176 350h-152v-266q0 -36 -25 -60t-59 -24t-58 25t-24 59v266h-596q-63 0 -104 38t-39 92t39 104l544 725q37 49 59 73q57 64 126 66q137 0 137 -172v-762h152q34 0 58 -24t24 -58t-25 -58q-24 -24 -57 -24z" />
    <glyph glyph-name="five" unicode="5" horiz-adv-x="1241" 
d="M1112 553q0 -271 -234 -417t-638 -146q-39 0 -64 22t-24 60q0 38 24 60t60 22q336 0 522 98t186 297q0 106 -78 174t-219 68t-315 -91q-61 -27 -101 1q-39 28 -38 81v516q0 72 39 105q40 33 102 33h608q37 0 62 -24q24 -24 24 -58t-26 -58q-26 -23 -60 -22h-594v-404
q160 80 342 80t302 -112t120 -285z" />
    <glyph glyph-name="six" unicode="6" horiz-adv-x="1368" 
d="M705 758q-172 0 -365 -105q-14 -252 81 -382t273 -130t268 90q89 91 89 233t-87 218t-259 76zM1054 1276q-24 0 -84 8t-126 8q-207 0 -339 -122t-153 -343q195 88 373 88q227 -1 360 -121t133 -329t-134 -347t-379 -138q-199 0 -325 101t-172 268t-34 396q20 341 196 525
t474 184q121 0 209 -20q68 -16 67 -80q0 -33 -21 -56q-21 -22 -45 -22z" />
    <glyph glyph-name="seven" unicode="7" horiz-adv-x="1079" 
d="M156 1436h751q53 0 88 -31t35 -75t-26 -87q-291 -483 -405 -711t-173 -475q-16 -66 -80 -65q-23 0 -39 8q-59 29 -35 113q66 239 187 485t379 676h-682q-35 0 -61 24q-25 24 -25 58q0 36 24 58t62 22z" />
    <glyph glyph-name="eight" unicode="8" horiz-adv-x="1394" 
d="M698 -20q-260 0 -399 112t-139 301q0 137 69 230q70 92 185 129q-96 37 -158 117q-61 81 -61 196q0 185 131 287q132 102 370 102t370 -102t132 -279q0 -231 -215 -319q115 -37 183 -129t69 -230q0 -190 -138 -303q-139 -112 -399 -112zM689 664q-177 0 -268 -72
t-91 -191t90 -189t275 -71q185 0 279 73q93 72 93 188t-100 189q-101 73 -278 73zM698 1292q-172 0 -255 -60t-83 -169t90 -172t248 -63q156 0 244 65q88 66 88 178q0 221 -332 221z" />
    <glyph glyph-name="nine" unicode="9" horiz-adv-x="1357" 
d="M662 666q138 0 242 48q40 17 114 52v53q0 246 -82 360q-82 113 -264 113t-269 -87q-86 -87 -86 -234q1 -305 345 -305zM618 508q-204 0 -336 124t-132 337t134 349t375 136q526 0 527 -653v-60q-16 -409 -221 -575t-639 -176q-39 -2 -64 22q-24 24 -24 59q0 81 100 86
q230 12 276 24q46 11 100 27t83 39q29 21 67 53q99 81 137 292q-179 -84 -383 -84z" />
    <glyph glyph-name="colon" unicode=":" horiz-adv-x="567" 
d="M283 1022q35 0 59 -26t25 -60v-111q0 -37 -24 -61q-23 -24 -59 -25q-36 0 -61 26t-24 60v111q1 34 25 60t59 26zM283 264q35 0 59 -26t25 -60v-110q0 -37 -24 -62q-23 -24 -59 -24t-61 26t-24 60v110q0 35 24 61q25 25 60 25z" />
    <glyph glyph-name="semicolon" unicode=";" horiz-adv-x="567" 
d="M315 1022q35 0 60 -26t24 -60v-111q1 -37 -23 -61t-60 -25q-36 0 -60 26t-25 60v111q1 34 25 60t59 26zM399 174v-92q-5 -148 -57 -225q-33 -49 -73 -49t-60 21q-42 46 -10 104t32 135v106q0 34 24 58q23 24 59 24t60 -24t25 -58z" />
    <glyph glyph-name="less" unicode="&#x3c;" horiz-adv-x="1286" 
d="M221 717q0 76 92 153l557 453q30 23 62 21t55 -29t20 -62t-30 -55l-563 -453q-36 -28 0 -57l563 -452q27 -20 30 -56t-19 -62t-55 -28q-34 -2 -63 21l-557 452q-92 78 -92 154z" />
    <glyph glyph-name="equal" unicode="=" horiz-adv-x="1286" 
d="M1065 453h-844q-35 -1 -59 23t-25 58q0 34 25 57q25 24 59 23h844q35 0 59 -24t25 -57q-1 -34 -25 -57t-59 -23zM1065 823h-844q-35 0 -59 24q-24 23 -25 57q0 34 25 58t59 23h844q35 1 59 -23t25 -58q-1 -34 -25 -58t-59 -23z" />
    <glyph glyph-name="greater" unicode="&#x3e;" horiz-adv-x="1286" 
d="M1065 716q0 -76 -92 -153l-559 -452q-29 -23 -62 -21t-55 29q-20 27 -17 61t29 56l563 452q38 29 0 57l-563 453q-27 20 -29 55q-3 35 17 62q23 27 55 29t62 -21l559 -453q92 -78 92 -154z" />
    <glyph glyph-name="question" unicode="?" horiz-adv-x="1142" 
d="M432 63v109q0 34 25 58t59 24t60 -24q24 -24 24 -58v-109q0 -35 -25 -59t-59 -22q-34 0 -58 24q-26 24 -26 57zM202 1112q-36 0 -61 26q-51 53 -2 119q160 195 439 195q190 0 309 -110t119 -290t-100 -288q-100 -109 -335 -219q-72 -35 -115 8q-24 23 -24 55q0 55 57 82
q199 88 274 163t75 191t-69 182q-69 64 -182 64t-185 -32t-134 -109q-30 -37 -66 -37z" />
    <glyph glyph-name="at" unicode="@" horiz-adv-x="1767" 
d="M888 993q154 1 264 -107t110 -261v-242q0 -45 32 -78t75 -33q44 0 76 33t32 78v330q0 260 -172 423q-172 162 -413 162t-404 -156t-185 -397q-15 -175 5 -413t180 -371t380 -133q131 0 242 45q63 25 96 -23q18 -26 12 -58t-38 -50q-129 -68 -285 -68t-278 41t-224 120
t-169 209t-80 308t-1 400q21 300 231 500t517 200t523 -206t216 -527v-332q0 -109 -76 -185t-184 -75q-108 0 -182 77q-76 77 -76 183v231q0 94 -64 159q-65 65 -158 65q-94 0 -156 -65t-65 -145t-1 -147q6 -127 100 -180t199 -16q39 12 67 -4t33 -48q6 -32 -10 -57
q-35 -55 -184 -55q-148 0 -250 94t-109 256q-4 76 0 150q6 156 112 262t262 106z" />
    <glyph glyph-name="A" unicode="A" horiz-adv-x="1382" 
d="M692 1292q-39 0 -53 -41l-217 -612h539l-216 612q-14 41 -53 41zM1331 76q-1 -28 -23 -52q-22 -26 -59 -26q-59 0 -80 53l-151 428h-653l-152 -428q-19 -53 -69 -53t-72 26t-21 52q0 26 4 37l426 1187q57 156 212 156t208 -156l426 -1187q4 -9 4 -37z" />
    <glyph glyph-name="B" unicode="B" horiz-adv-x="1370" 
d="M1253 410q0 -211 -118 -311q-119 -99 -310 -99h-477q-68 0 -106 40t-37 99v1157q0 60 38 100t105 40h455q193 0 301 -106t108 -263q0 -252 -192 -319v-5q109 -27 171 -115t62 -218zM373 821h420q252 0 251 226q0 227 -251 227h-420v-453zM373 662v-500h430q279 0 278 252
q-1 116 -71 182t-187 66h-450z" />
    <glyph glyph-name="C" unicode="C" horiz-adv-x="1361" 
d="M727 141q123 0 223 67t148 177q23 53 78 53q28 0 54 -24t26 -46q0 -24 -7 -46q-61 -154 -205 -248t-317 -94q-243 0 -405 162t-179 409q-12 168 0 332q17 247 179 409t405 162q174 0 317 -93t205 -247q6 -20 6 -46q1 -26 -25 -48t-54 -23q-55 0 -78 54q-48 111 -148 177
t-223 64q-174 0 -287 -116t-126 -288t0 -342t126 -288q113 -117 287 -117z" />
    <glyph glyph-name="D" unicode="D" horiz-adv-x="1472" 
d="M688 0h-342q-66 0 -104 40t-37 99v1157q0 60 38 100t103 40h342q301 0 464 -166t179 -441q6 -117 0 -223q-16 -274 -179 -440t-464 -166zM688 1274h-315v-1112h315q227 0 345 118t130 330q6 113 0 213q-10 211 -128 331t-347 120z" />
    <glyph glyph-name="E" unicode="E" horiz-adv-x="1280" 
d="M348 1436h707q35 0 59 -24t25 -58q0 -34 -26 -57q-26 -24 -58 -23h-682v-471h663q35 0 59 -23q23 -22 23 -56t-24 -58t-58 -23h-663v-481h686q33 0 59 -24t25 -58q0 -34 -25 -56q-25 -24 -59 -24h-711q-68 0 -106 40t-37 99v1157q-1 60 37 100t106 40z" />
    <glyph glyph-name="F" unicode="F" horiz-adv-x="1216" 
d="M205 78v1218q0 60 38 100t105 40h703q37 0 61 -23t25 -57q0 -34 -26 -58q-26 -25 -60 -24h-678v-502h643q36 0 60 -24t24 -57t-26 -57t-58 -24h-643v-532q0 -35 -25 -61q-24 -25 -58 -25t-60 25q-25 26 -25 61z" />
    <glyph glyph-name="G" unicode="G" horiz-adv-x="1435" 
d="M1296 627v-135q0 -211 -156 -362q-156 -150 -400 -150t-412 162t-185 409q-12 168 0 332q19 243 187 407t411 164q175 0 311 -84t208 -231q8 -16 8 -45t-25 -54q-25 -24 -65 -24t-68 45q-53 109 -148 170t-219 61q-178 0 -297 -116t-133 -290t0 -342t134 -285
q120 -118 294 -118t282 93t107 239v127h-292q-35 0 -61 25q-25 25 -25 59t26 56q26 24 60 24h317q69 0 105 -39t36 -98z" />
    <glyph glyph-name="H" unicode="H" horiz-adv-x="1546" 
d="M205 78v1280q1 34 25 60t60 26t60 -25t23 -61v-559h798v559q0 34 25 60q24 26 60 26t60 -25t23 -61v-1280q1 -37 -23 -62q-24 -24 -59 -24t-61 26t-25 60v559h-798v-559q0 -37 -24 -62q-23 -24 -59 -24t-61 25q-24 26 -24 61z" />
    <glyph glyph-name="I" unicode="I" horiz-adv-x="579" 
d="M205 78v1280q1 34 25 60t60 26t60 -25t23 -61v-1280q0 -37 -24 -62q-23 -24 -59 -24t-61 25q-24 26 -24 61z" />
    <glyph glyph-name="J" unicode="J" horiz-adv-x="1056" 
d="M74 254q0 24 24 48t64 24q41 0 69 -50q74 -135 220 -135q102 0 172 72t69 207v938q0 34 25 60t61 26t59 -25q24 -25 23 -61v-950q0 -186 -119 -308t-290 -120q-121 0 -221 62q-99 63 -148 163q-8 25 -8 49z" />
    <glyph glyph-name="K" unicode="K" horiz-adv-x="1296" 
d="M1239 77q0 -32 -25 -58q-26 -25 -58 -25t-56 24l-598 578q-31 31 -57 39t-72 8v-565q0 -37 -24 -62q-25 -24 -59 -24t-60 26t-25 60v1280q1 34 25 60t60 26t60 -25t23 -61v-551q45 0 71 9t58 40l583 559q25 27 60 27t59 -25t23 -57q0 -32 -25 -57l-602 -572l614 -594
q25 -28 25 -60z" />
    <glyph glyph-name="L" unicode="L" horiz-adv-x="1138" 
d="M205 133v1225q1 34 25 60t60 26t60 -25t23 -61v-1196h669q35 0 61 -24q25 -24 25 -58t-24 -58q-24 -22 -62 -22h-700q-63 0 -100 38t-37 95z" />
    <glyph glyph-name="M" unicode="M" horiz-adv-x="1896" 
d="M1410 1284q-16 0 -26 -18l-266 -1112q-37 -156 -171 -156t-171 156l-266 1112q-8 18 -24 18t-21 -20l-168 -1207q-10 -68 -80 -67q-45 0 -67 30t-17 74l176 1196q13 82 61 122t117 40q141 0 177 -145l264 -1129q6 -20 22 -20t23 20l258 1129q14 69 62 107t116 38t116 -41
t60 -121l178 -1194q5 -45 -17 -76t-67 -30q-72 0 -82 67l-167 1207q-4 20 -20 20z" />
    <glyph glyph-name="N" unicode="N" horiz-adv-x="1574" 
d="M1208 199l-8 305v854q0 34 25 60t61 26t59 -25q24 -25 23 -61v-1219q0 -61 -38 -102t-97 -41q-88 0 -135 76l-727 1177h-4q6 -252 6 -317v-854q0 -37 -24 -62q-25 -24 -59 -24t-60 26t-25 60v1214q0 62 40 106t103 44q92 0 139 -80l717 -1163h4z" />
    <glyph glyph-name="O" unicode="O" horiz-adv-x="1492" 
d="M744 141q177 0 298 118q122 118 138 288t0 340t-138 288q-122 117 -298 117t-296 -116t-134 -288q-14 -171 -1 -341q14 -170 134 -288t297 -118zM744 -20q-244 0 -414 164t-187 407q-12 168 0 332q17 243 187 407t414 164t417 -165q172 -165 189 -406q12 -164 0 -332
q-16 -243 -188 -407t-418 -164z" />
    <glyph glyph-name="P" unicode="P" horiz-adv-x="1318" 
d="M741 537h-368v-459q0 -35 -26 -61q-27 -25 -59 -25t-58 26t-25 60v1220q0 58 37 98t102 40h414q197 0 331 -121t134 -330t-134 -329q-135 -119 -348 -119zM373 698h366q311 0 312 287q0 135 -75 212t-226 77h-377v-576z" />
    <glyph glyph-name="Q" unicode="Q" horiz-adv-x="1495" 
d="M743 141q88 0 166 31l-198 244q-17 22 -17 56t25 56t59 18q34 -3 56 -30l208 -258q122 123 138 291t0 338t-138 288q-122 117 -298 117t-296 -116t-134 -288q-14 -171 -1 -341q14 -170 134 -288t296 -118zM743 -20q-243 0 -413 164t-187 407q-12 168 0 332
q17 243 187 407t414 164t417 -165q172 -165 189 -406q12 -164 0 -332q-18 -256 -203 -420l190 -233q21 -27 19 -60t-27 -53t-57 -17t-53 27l-203 246q-128 -61 -273 -61z" />
    <glyph glyph-name="R" unicode="R" horiz-adv-x="1388" 
d="M373 721h368q313 0 314 274q0 131 -76 205t-227 74h-379v-553zM1268 78q0 -33 -26 -60q-26 -26 -62 -26t-60 28l-385 476q-29 35 -53 50t-61 15h-248v-483q0 -35 -26 -61q-27 -25 -59 -25t-58 26t-25 60v1220q0 58 37 98t102 40h418q197 0 330 -117t133 -309t-93 -291
q-93 -100 -255 -127l372 -461q19 -20 19 -53z" />
    <glyph glyph-name="S" unicode="S" horiz-adv-x="1267" 
d="M1178 396q0 -180 -140 -299q-140 -117 -397 -117q-258 0 -477 149q-43 27 -43 69q1 42 25 66t56 25q32 0 66 -25q174 -121 394 -121q164 0 254 69t92 179q0 109 -79 161t-311 97t-350 138q-116 93 -116 269t136 287t357 111q125 0 235 -32t169 -83q33 -27 33 -65t-24 -61
q-43 -44 -120 -3q-152 82 -306 82t-233 -68q-77 -68 -77 -170q0 -103 75 -155q76 -51 281 -92q272 -51 386 -141t114 -270z" />
    <glyph glyph-name="T" unicode="T" horiz-adv-x="1228" 
d="M532 78v1196h-409q-35 0 -61 24t-26 58q0 36 26 58q24 22 61 22h983q36 0 60 -23t24 -57t-25 -59q-25 -24 -59 -23h-406v-1196q0 -35 -24 -61q-24 -25 -60 -25t-60 26t-24 60z" />
    <glyph glyph-name="U" unicode="U" horiz-adv-x="1531" 
d="M1346 1358v-776q0 -266 -164 -434t-416 -168t-416 168t-164 434v776q0 34 25 60t59 26t60 -26q25 -26 24 -60v-774q0 -201 116 -322t296 -121t296 121t116 322v774q0 34 24 60t60 26t60 -26t24 -60z" />
    <glyph glyph-name="V" unicode="V" horiz-adv-x="1359" 
d="M47 1364q0 24 25 52q25 26 61 26q57 0 78 -56l444 -1222q9 -18 27 -18t23 18l444 1220q18 57 80 58q37 0 59 -27t23 -50q0 -23 -4 -40l-447 -1198q-55 -147 -181 -147t-181 147l-445 1198q-6 15 -6 39z" />
    <glyph glyph-name="W" unicode="W" horiz-adv-x="1896" 
d="M80 1370q0 24 22 48t56 24t58 -18t28 -44l258 -1241q2 -4 6 -4t6 4l305 1176q15 59 57 92t91 33t91 -33t56 -92l303 -1176q2 -6 6 -6t7 6l264 1241q16 61 82 62q38 0 60 -26t22 -49t-3 -30l-286 -1231q-13 -59 -55 -92q-42 -32 -91 -32t-92 32t-57 90l-303 1168
q-2 4 -5 4t-5 -4l-308 -1168q-16 -59 -56 -92q-40 -32 -90 -32t-93 34t-56 95l-276 1228q-2 9 -2 33z" />
    <glyph glyph-name="X" unicode="X" horiz-adv-x="1320" 
d="M1162 1442q38 0 63 -26q51 -53 4 -116l-463 -587l457 -582q20 -27 20 -59q-1 -32 -25 -55t-63 -23t-63 33l-430 551l-437 -553q-25 -31 -65 -31t-64 24t-24 56q0 31 20 57l459 584l-459 588q-20 27 -20 57t26 56q26 24 64 24q37 0 63 -33l434 -557l437 557q28 35 66 35z
" />
    <glyph glyph-name="Y" unicode="Y" horiz-adv-x="1325" 
d="M1204 1444q37 0 63 -25q25 -25 25 -59t-20 -55l-471 -578q-3 -6 -13 -16q-10 -9 -13 -15t-17 -24t-13 -62v-532q1 -37 -23 -62q-24 -24 -58 -24t-61 26q-26 26 -25 60v532q0 29 -6 40q-6 12 -6 18q-2 14 -14 25q-12 12 -30 36l-469 574q-20 23 -20 57q-1 34 25 58t64 24
t62 -31l478 -598l479 598q26 33 63 33z" />
    <glyph glyph-name="Z" unicode="Z" horiz-adv-x="1200" 
d="M1036 0h-780q-70 0 -111 38t-41 92t41 108l748 1036h-694q-35 0 -60 22t-25 58q0 34 26 58q24 24 59 24h731q70 0 110 -38t39 -89q0 -51 -47 -121l-741 -1026h745q35 0 61 -24q25 -24 25 -58t-24 -58q-24 -22 -62 -22z" />
    <glyph glyph-name="bracketleft" unicode="[" horiz-adv-x="739" 
d="M721 -276q0 -35 -26 -59t-60 -23h-322q-63 0 -98 36t-35 95v1720q0 55 36 93t97 38h322q35 0 61 -24t25 -58q0 -36 -26 -60t-60 -24h-287v-1651h287q35 0 61 -24t25 -59z" />
    <glyph glyph-name="backslash" unicode="\" horiz-adv-x="718" 
d="M-20 1448q-12 32 1 64t46 45t65 -1t43 -47l604 -1519q14 -33 0 -67t-47 -46q-32 -12 -64 3t-44 48z" />
    <glyph glyph-name="bracketright" unicode="]" horiz-adv-x="739" 
d="M18 -279q0 35 26 60t60 24h287v1651h-287q-34 0 -60 25t-26 59t26 58t60 24h320q63 0 98 -37t35 -94v-1720q0 -57 -35 -95t-98 -36h-320q-34 0 -60 23t-26 58z" />
    <glyph glyph-name="asciicircum" unicode="^" horiz-adv-x="1251" 
d="M626 1274q-17 0 -26 -21l-188 -501q-10 -33 -43 -46t-65 -1t-45 45t-1 61l188 487q56 146 178 146t181 -146l188 -487q12 -29 -2 -61t-46 -45q-31 -12 -63 1t-44 46l-187 501q-8 21 -25 21z" />
    <glyph glyph-name="underscore" unicode="_" horiz-adv-x="966" 
d="M967 -250v-153h-967v153h967z" />
    <glyph glyph-name="grave" unicode="`" horiz-adv-x="737" 
d="M580 1619q0 -36 -20 -56q-36 -35 -91 -9l-272 142q-37 20 -37 55t19 55q32 34 85 13l277 -144q39 -20 39 -56z" />
    <glyph glyph-name="a" unicode="a" horiz-adv-x="1150" 
d="M551 131q109 0 177 26t93 50v268q-177 45 -285 45t-178 -50t-69 -136q0 -203 262 -203zM821 702q0 236 -241 236q-117 0 -258 -53q-49 -18 -84 2t-35 67t53 72q136 66 326 66t296 -94t107 -289v-545q0 -47 -35 -68q-53 -39 -169 -77t-249 -37q-197 0 -303 95t-106 245
t106 245q106 94 306 95q127 0 286 -44v84z" />
    <glyph glyph-name="b" unicode="b" horiz-adv-x="1230" 
d="M643 936q-166 0 -289 -72v-643q37 -29 119 -57t152 -27q261 1 286 271q10 117 0 266q-16 262 -268 262zM188 172v1198q0 35 24 61q24 25 58 25t60 -26q25 -26 24 -60v-344q147 66 295 66q193 0 303 -106t127 -300q12 -147 0 -291q-16 -193 -134 -303t-318 -110
q-121 0 -234 41t-172 81q-33 23 -33 68z" />
    <glyph glyph-name="c" unicode="c" horiz-adv-x="1140" 
d="M610 137q84 0 156 44t106 130q25 55 69 55t67 -23q23 -24 22 -60q0 -93 -116 -197t-308 -104t-320 118q-126 118 -135 278q-9 162 0 325t137 276t319 113t305 -106t114 -195q0 -37 -22 -61t-56 -23q-55 0 -80 55q-35 86 -104 130q-70 44 -154 44q-129 0 -207 -71
t-87 -189t-1 -270q10 -119 87 -194t208 -75z" />
    <glyph glyph-name="d" unicode="d" horiz-adv-x="1230" 
d="M588 936q-252 0 -271 -260q-8 -125 0 -268q25 -270 289 -271q70 0 152 28t119 56v643q-123 72 -289 72zM877 1370q0 35 24 61q25 25 59 25t59 -24q24 -24 23 -62v-1198q0 -43 -34 -68q-55 -38 -168 -80t-236 -42q-200 0 -318 110t-134 303q-12 144 0 289q16 195 127 301
t303 107q147 0 295 -66v344z" />
    <glyph glyph-name="e" unicode="e" horiz-adv-x="1171" 
d="M856 606q25 0 27 25q8 139 -68 225t-216 86t-216 -90t-72 -246h545zM1044 647v-61q0 -119 -120 -119h-613v-33q0 -141 84 -221q85 -80 203 -80t268 53q51 20 85 -4t34 -64q0 -42 -47 -71t-140 -47t-184 -18q-210 0 -332 120t-132 320q-8 145 2 246q16 196 140 310
t318 114t314 -124t120 -321z" />
    <glyph glyph-name="f" unicode="f" horiz-adv-x="804" 
d="M227 1042v95q0 153 83 243t239 90q109 0 180 -22q66 -18 66 -78q-1 -30 -21 -52t-50 -22t-82 10t-89 9q-160 0 -160 -191v-82h287q32 0 56 -22t24 -54t-24 -54t-56 -21h-287v-813q1 -37 -23 -62q-24 -24 -59 -24t-59 24t-25 62v813h-71q-33 -1 -57 21t-23 55q0 33 24 55
t56 20h71z" />
    <glyph glyph-name="g" unicode="g" horiz-adv-x="1228" 
d="M602 934q-262 0 -287 -268q-10 -104 0 -238q18 -264 275 -264q94 0 173 28t111 56v612q-25 25 -114 50q-88 24 -158 24zM1040 893v-799q0 -227 -127 -351t-322 -124t-335 86q-72 45 -72 81t20 60t55 25q36 0 91 -33q115 -66 234 -66q118 0 204 76t86 211v21
q-147 -70 -318 -70t-283 110t-123 298q-8 129 0 258q12 188 129 302t317 114q123 0 240 -40t170 -77q34 -27 34 -82z" />
    <glyph glyph-name="h" unicode="h" horiz-adv-x="1249" 
d="M354 1370v-414q54 56 142 96t180 40q182 0 292 -109t109 -309v-596q-1 -37 -25 -62q-24 -24 -59 -24t-59 24t-23 62v581q0 129 -66 202q-67 73 -171 73t-188 -45q-83 -45 -132 -113v-698q0 -37 -24 -62q-24 -24 -59 -24t-59 24t-24 62v1292q0 35 24 61q24 25 58 25
t60 -25q24 -26 24 -61z" />
    <glyph glyph-name="i" unicode="i" horiz-adv-x="559" 
d="M279 1077q35 1 59 -25t24 -61v-913q0 -37 -24 -62q-24 -24 -58 -24t-59 24t-24 62v913q0 35 23 61q24 25 59 25zM381 1346q0 -43 -30 -74q-31 -31 -73 -31t-71 31t-29 74q0 42 29 72t72 30t73 -30t29 -72z" />
    <glyph glyph-name="j" unicode="j" horiz-adv-x="544" 
d="M367 1346q0 -43 -30 -74t-73 -31q-44 0 -72 31t-28 74q0 42 29 72t71 30t73 -30q30 -30 30 -72zM88 -391q-36 -1 -60 23t-24 57t25 59q88 96 121 183t32 219v841q0 35 24 61t58 26t60 -26q25 -26 24 -61v-835q0 -170 -48 -288t-150 -230q-25 -29 -62 -29z" />
    <glyph glyph-name="k" unicode="k" horiz-adv-x="1095" 
d="M946 1081q35 -1 59 -25q23 -24 23 -58t-24 -58l-404 -387l410 -416q57 -61 4 -121q-23 -26 -60 -24t-59 26l-391 402q-49 49 -113 49h-37v-391q0 -37 -24 -62q-24 -24 -58 -24q-36 0 -60 26t-24 60v1292q0 35 24 60q24 24 58 24t60 -24q25 -24 24 -60v-739h35
q68 0 115 47l383 377q24 26 59 26z" />
    <glyph glyph-name="l" unicode="l" horiz-adv-x="542" 
d="M270 1454q35 0 60 -24t24 -60v-1292q0 -37 -24 -62q-24 -24 -59 -24t-59 24t-24 62v1292q0 36 24 60t58 24z" />
    <glyph glyph-name="m" unicode="m" horiz-adv-x="1789" 
d="M1618 674v-596q0 -37 -24 -62q-24 -24 -58 -24t-60 24q-24 24 -24 62v586q0 270 -233 270q-156 0 -234 -109v-747q1 -37 -23 -62q-24 -24 -59 -24t-59 24t-25 62v604q0 252 -233 252q-131 0 -234 -68v-788q0 -37 -24 -62q-24 -24 -58 -24q-36 0 -60 24t-24 62v827
q0 45 43 80q139 107 357 107t313 -125q149 125 339 125q380 0 380 -418z" />
    <glyph glyph-name="n" unicode="n" 
d="M1075 674v-596q-1 -37 -23 -62q-22 -24 -58 -24t-60 24t-25 62v588q0 132 -78 200t-196 68q-168 0 -283 -68v-788q0 -37 -24 -62q-24 -24 -58 -24q-36 0 -60 24t-24 62v829q0 47 46 81t156 69t251 35q213 0 325 -108t111 -310z" />
    <glyph glyph-name="o" unicode="o" horiz-adv-x="1212" 
d="M606 936q-127 0 -205 -73t-86 -199t1 -252q9 -127 88 -201t202 -74t202 74t88 201t1 253q-8 127 -86 199t-205 72zM606 1092q190 0 318 -113t139 -293q10 -147 0 -291q-10 -180 -138 -297q-127 -116 -317 -116t-319 116t-139 297q-8 143 1 306t137 277t318 114z" />
    <glyph glyph-name="p" unicode="p" horiz-adv-x="1228" 
d="M633 936q-74 0 -158 -28t-123 -56v-639q119 -76 273 -76q268 0 286 260q10 154 0 269q-25 270 -278 270zM629 -18q-137 0 -277 65v-358q0 -35 -24 -61t-59 -26t-59 26t-24 61v1214q0 41 45 73t161 74t243 42q197 0 313 -111t131 -303q12 -144 0 -289q-16 -195 -133 -301
t-317 -106z" />
    <glyph glyph-name="q" unicode="q" horiz-adv-x="1230" 
d="M596 137q162 0 281 72v643q-39 28 -123 56t-156 28q-256 0 -281 -270q-8 -143 0 -267q18 -262 279 -262zM594 1092q127 0 245 -42t173 -83q31 -20 30 -64v-1214q0 -37 -24 -62t-58 -25q-36 0 -60 26t-23 61v358q-143 -66 -285 -65q-200 0 -312 106t-128 299
q-12 147 0 291q16 194 131 304t311 110z" />
    <glyph glyph-name="r" unicode="r" horiz-adv-x="774" 
d="M752 991q0 -29 -22 -53t-49 -23t-81 9t-92 8q-166 -2 -166 -184v-672q0 -35 -25 -60q-25 -24 -59 -24t-60 24q-24 24 -24 60v690q0 152 87 239t247 87q106 0 178 -23q66 -16 66 -78z" />
    <glyph glyph-name="s" unicode="s" horiz-adv-x="997" 
d="M903 309q-1 -151 -109 -239t-310 -88t-343 114q-25 20 -29 54t13 57q47 61 115 16q63 -47 121 -69q57 -22 159 -23q102 0 161 48q58 48 58 122q1 105 -153 143t-158 39q-289 74 -289 291q1 146 107 232t280 86t289 -88q29 -23 30 -60t-20 -55q-43 -49 -110 -10
q-104 61 -199 61q-215 0 -215 -160q-1 -98 135 -134q64 -17 129 -32l66 -16q272 -70 272 -289z" />
    <glyph glyph-name="t" unicode="t" horiz-adv-x="835" 
d="M176 319v891q0 35 24 60q24 24 58 24t60 -24q24 -24 24 -60v-168h309q31 0 55 -22t24 -54q0 -30 -24 -53t-55 -22h-309v-578q0 -82 39 -130t119 -48q37 0 164 37q50 12 78 -12t28 -72q0 -49 -79 -78t-199 -28q-158 0 -237 93t-79 244z" />
    <glyph glyph-name="u" unicode="u" 
d="M172 399v592q0 35 24 61t58 26t60 -26q24 -26 24 -61v-594q0 -121 73 -189t221 -69q148 0 263 76v776q0 35 24 61q25 26 59 26t58 -26t25 -61v-819q0 -45 -35 -68q-176 -122 -396 -122t-338 109q-120 109 -120 308z" />
    <glyph glyph-name="v" unicode="v" horiz-adv-x="1050" 
d="M914 1077q52 0 76 -37t7 -82l-313 -841q-50 -129 -158 -129t-155 127l-318 846q-19 45 7 81t76 37q50 0 73 -59l307 -850q4 -8 10 -8t11 8l301 842q25 65 76 65z" />
    <glyph glyph-name="w" unicode="w" horiz-adv-x="1662" 
d="M833 895q-9 0 -10 -8l-209 -783q-33 -129 -147 -129q-55 0 -96 33t-58 94l-237 861q-12 47 10 83q23 36 74 36t67 -60l232 -864q5 -16 12 -12q6 5 8 12l207 803q14 55 55 88t93 33t93 -34q40 -32 54 -90l207 -800q5 -16 12 -12q6 5 8 12l224 858q12 66 81 65q43 0 66 -37
t10 -81l-239 -861q-36 -127 -154 -127t-149 127l-203 785q-2 8 -11 8z" />
    <glyph glyph-name="x" unicode="x" horiz-adv-x="1114" 
d="M1012 73q0 -32 -24 -57q-24 -24 -62 -24t-62 31l-307 393l-305 -393q-25 -31 -64 -31q-38 0 -62 24t-24 57q0 32 21 54l330 418l-314 395q-20 22 -20 54t24 57q25 25 62 25t61 -32l289 -370l289 368q26 33 66 33q40 1 63 -23t23 -56t-21 -58l-311 -395l327 -416
q21 -22 21 -54z" />
    <glyph glyph-name="y" unicode="y" horiz-adv-x="1048" 
d="M134 1075q48 0 77 -59l317 -731q8 -16 17 0l289 725q24 66 76 66t77 -39q25 -38 6 -81l-385 -933q-57 -137 -136 -243q-130 -174 -222 -171q-34 -1 -58 21t-24 64t39 64q163 95 237 310l-389 888q-18 45 6 82q25 37 73 37z" />
    <glyph glyph-name="z" unicode="z" horiz-adv-x="1042" 
d="M854 154q34 0 58 -22t24 -54t-24 -56q-24 -22 -58 -22h-594q-66 0 -106 36t-39 91q0 55 41 106l608 668h-539q-33 0 -57 22q-24 23 -25 55q0 32 25 54t57 23h570q63 0 101 -33q38 -32 43 -92t-50 -121l-596 -655h561z" />
    <glyph glyph-name="braceleft" unicode="{" horiz-adv-x="778" 
d="M674 1456h-225q-27 0 -45 -17t-17 -44v-445q0 -213 -137 -305q137 -98 137 -305v-473q0 -27 16 -44t43 -18h228q34 -1 60 -25t26 -59t-26 -59t-60 -22h-240q-88 0 -151 62t-64 151v485q0 78 -23 131q-24 53 -75 94t-51 81t51 81q100 80 98 225v467q-1 85 61 145t146 60
h248q34 0 60 -24t26 -58t-26 -60q-26 -24 -60 -24z" />
    <glyph glyph-name="bar" unicode="|" horiz-adv-x="626" 
d="M307 1710q35 0 60 -26t24 -60v-1825q-1 -37 -25 -61t-59 -25q-35 0 -59 26t-25 60v1825q1 34 25 60t59 26z" />
    <glyph glyph-name="braceright" unicode="}" horiz-adv-x="778" 
d="M557 338v-485q0 -89 -62 -151t-151 -62h-240q-34 0 -60 24t-26 58t26 59t60 24h226q27 -1 44 17t17 45v473q0 207 137 305q-137 92 -137 305v445q0 27 -17 44t-44 17h-226q-34 0 -60 25t-26 59t26 58t60 24h248q84 0 144 -60t61 -145v-467q0 -145 99 -225q51 -41 51 -81
t-51 -81q-99 -80 -99 -225z" />
    <glyph glyph-name="asciitilde" unicode="~" horiz-adv-x="1296" 
d="M1153 741q0 -61 -66 -86q-147 -63 -233 -63t-211 53t-196 53t-173 -51q-55 -29 -94 -2t-39 79t66 77q149 63 233 63t209 -53t198 -53t175 51q55 29 93 1t38 -69z" />
    <glyph glyph-name="exclamdown" unicode="&#xa1;" horiz-adv-x="440" 
d="M135 1262v108q0 34 26 58q27 24 61 24t59 -25t24 -57v-108q-1 -33 -25 -58q-24 -24 -59 -24t-61 24t-25 58zM220 969q30 0 52 -22t21 -52l10 -811q-1 -34 -25 -60t-58 -26t-58 26t-25 60l10 811q0 29 22 51q21 22 51 23z" />
    <glyph glyph-name="cent" unicode="&#xa2;" horiz-adv-x="1032" 
d="M657 1372v-186q94 -16 167 -74t104 -135q10 -27 10 -49t-25 -46q-25 -22 -53 -22q-49 0 -74 55t-77 94q-53 38 -121 38q-104 0 -166 -65q-100 -105 -72 -361q10 -107 72 -169t148 -62q163 -1 218 134q20 47 72 47q28 1 52 -21t24 -41t-8 -44q-82 -184 -271 -221v-183
q1 -33 -21 -57t-52 -22q-30 0 -54 24q-23 24 -22 55v187q-133 25 -221 125q-87 101 -95 221t0 242t96 224t220 126v186q0 32 22 56t54 24q31 0 52 -24t21 -56z" />
    <glyph glyph-name="sterling" unicode="&#xa3;" horiz-adv-x="1157" 
d="M109 590q-35 0 -60 24t-25 58q0 36 26 58q24 22 59 22h106q-47 225 -47 280q0 180 116 301t336 121t384 -162q34 -34 34 -70t-22 -60t-58 -24q-35 0 -73 33q-68 61 -129 91t-152 30q-137 0 -204 -78t-66 -178q0 -58 21 -154t28 -130h303q34 0 60 -23t26 -57t-26 -58
q-26 -25 -60 -24h-283q23 -195 -104 -428h698q35 0 61 -24t26 -58t-26 -58q-24 -22 -61 -22h-757q-59 0 -93 31q-33 31 -33 73t36 111q104 207 86 375h-127z" />
    <glyph glyph-name="currency" unicode="&#xa4;" horiz-adv-x="1271" 
d="M637 997q-91 0 -153 -63t-68 -156q-4 -43 0 -130t67 -150q63 -64 153 -64t152 64q61 64 66 157q2 53 -1 134t-65 145t-151 63zM636 1147q132 0 234 -82l162 162q25 27 59 27q33 0 57 -24t24 -58t-25 -58l-174 -176q31 -66 34 -144t0 -154q-3 -77 -34 -142l174 -174
q25 -25 25 -60q0 -36 -24 -58t-56 -21t-60 26l-160 158q-98 -82 -236 -82t-237 82l-159 -158q-25 -25 -58 -26t-59 22q-23 23 -22 57t24 60l176 174q-35 72 -37 145t1 149t36 146l-174 176q-25 24 -26 58t24 58t59 24t56 -27l161 -162q103 82 235 82z" />
    <glyph glyph-name="yen" unicode="&#xa5;" horiz-adv-x="1325" 
d="M745 610v-8h246q33 0 57 -22t24 -56t-24 -56t-57 -22h-246v-368q1 -37 -23 -62q-24 -24 -58 -24t-61 26q-26 26 -25 60v368h-244q-35 0 -59 23q-23 23 -23 55t23 56q24 23 59 22h244v8q0 29 -6 40q-6 12 -6 18q-2 14 -20 31q-18 18 -24 30l-469 574q-23 29 -19 63t30 58
q26 22 63 18t57 -31l478 -598l479 598q23 29 57 32t63 -20t31 -57t-20 -61l-471 -578q-3 -6 -13 -16q-10 -9 -13 -15t-17 -24t-13 -62z" />
    <glyph glyph-name="brokenbar" unicode="&#xa6;" horiz-adv-x="626" 
d="M307 1710q35 0 60 -26t24 -60v-752q-1 -38 -25 -62t-59 -24t-59 26t-25 60v752q1 34 25 60t59 26zM307 637q35 0 60 -26t24 -60v-752q-1 -37 -25 -61t-59 -25q-35 0 -59 26t-25 60v752q1 35 25 61t59 25z" />
    <glyph glyph-name="section" unicode="&#xa7;" horiz-adv-x="1187" 
d="M854 557q0 51 -56 86t-194 67t-207 66q-43 -43 -43 -95t56 -87t196 -68t205 -63q43 43 43 94zM1010 568q0 -102 -74 -187q84 -83 84 -233t-119 -254t-303 -105q-125 0 -238 36q-114 36 -156 73q-42 36 -42 74t23 62q25 24 49 24t65 -21q135 -84 279 -84t208 60t64 142
t-29 110t-47 42q-18 15 -60 29t-69 21t-88 24q-199 51 -279 120t-81 173q0 104 73 184q-84 88 -84 236t120 252t304 104q124 0 224 -35q188 -66 188 -153q0 -33 -24 -57q-48 -48 -113 -1q-135 84 -269 84t-196 -61q-64 -61 -64 -140t50 -135q31 -34 141 -66q31 -9 102 -28
q201 -52 281 -120t80 -170z" />
    <glyph glyph-name="dieresis" unicode="&#xa8;" horiz-adv-x="737" 
d="M530 1743q39 0 66 -26q27 -25 27 -65t-27 -67t-66 -27q-40 0 -66 28q-26 26 -26 65t26 65t66 27zM207 1743q39 0 65 -27q26 -28 27 -66q0 -38 -27 -65q-28 -27 -66 -27t-65 28q-27 26 -27 66t28 66q26 26 65 25z" />
    <glyph glyph-name="copyright" unicode="&#xa9;" horiz-adv-x="1650" 
d="M816 412q156 0 210 125q18 39 48 39q67 -1 69 -60q0 -14 -10 -39q-37 -86 -117 -137t-204 -51t-220 96t-109 240q-10 94 0 194q9 139 107 235t222 95q124 0 204 -51t117 -135q10 -25 10 -47q1 -22 -19 -36q-20 -16 -49 -16t-49 37q-55 125 -210 125q-79 0 -137 -59
q-57 -59 -65 -138t-4 -200q8 -93 68 -155t138 -62zM825 1329q-207 0 -347 -131t-152 -354q-8 -123 0 -250q12 -223 152 -353t347 -130t345 130t153 353q8 127 0 250q-15 225 -153 355t-345 130zM824 1452q260 0 440 -174t188 -444q4 -115 0 -230q-8 -270 -188 -443
t-440 -173t-438 173q-179 173 -187 443q-4 115 0 230q8 270 187 444t438 174z" />
    <glyph glyph-name="ordfeminine" unicode="&#xaa;" horiz-adv-x="983" 
d="M449 709q55 1 115 29t100 71q-8 53 -9 135v301q-27 21 -87 37t-119 16q-193 0 -203 -196q-8 -102 0 -203q10 -190 203 -190zM817 557q-64 0 -112 109q-123 -111 -269 -111t-239 91q-93 92 -101 224t0 267t102 225t251 90q102 0 193 -31t136 -63q29 -23 29 -60v-378
q0 -86 16 -134t44 -86q28 -40 28 -70t-23 -52t-55 -21z" />
    <glyph glyph-name="guillemotleft" unicode="&#xab;" horiz-adv-x="1150" 
d="M518 721q0 80 90 151l246 197q30 23 62 20t54 -30t18 -60t-30 -55l-251 -196q-37 -29 0 -58l251 -198q27 -20 30 -54t-18 -62q-20 -26 -54 -28t-62 21l-246 196q-90 76 -90 156zM98 721q0 80 90 151l248 197q27 23 61 20t54 -30t17 -60t-29 -55l-252 -196q-37 -29 0 -58
l252 -198q27 -20 29 -54t-18 -62q-22 -26 -54 -28t-60 21l-248 196q-90 76 -90 156z" />
    <glyph glyph-name="logicalnot" unicode="&#xac;" horiz-adv-x="1286" 
d="M1163 664v-385q1 -35 -23 -60t-58 -25t-58 26q-24 24 -25 59v358h-792q-35 -1 -60 23t-25 58t26 58q24 24 59 23h821q63 0 99 -39t36 -96z" />
    <glyph glyph-name="registered" unicode="&#xae;" horiz-adv-x="1261" 
d="M626 367q-192 0 -324 134t-140 335q-4 74 0 149q8 201 140 334t324 133t323 -133q132 -133 141 -334q4 -75 0 -149q-8 -201 -140 -335t-324 -134zM430 1128q0 66 66 66h161q78 0 131 -46t54 -128q0 -123 -115 -158l121 -151q12 -13 12 -33t-14 -34t-34 -13q-20 0 -38 18
l-141 176q-12 18 -35 19h-74v-162q0 -49 -49 -49q-18 0 -32 14q-13 14 -13 35v446zM626 463q153 0 254 98t115 266q6 84 0 164q-14 168 -115 267q-101 100 -254 100t-253 -98t-115 -269q-22 -297 114 -430q100 -98 254 -98zM524 932h121q98 0 98 87t-94 87h-125v-174z" />
    <glyph glyph-name="macron" unicode="&#xaf;" horiz-adv-x="737" 
d="M205 1712h336q29 0 49 -20t20 -50t-20 -51q-20 -20 -49 -20h-336q-31 0 -51 20t-20 50q0 31 20 51t51 20z" />
    <glyph glyph-name="degree" unicode="&#xb0;" horiz-adv-x="714" 
d="M498 1203q0 57 -41 99t-101 42t-100 -42q-41 -41 -41 -99t41 -99t100 -41t101 41q41 41 41 99zM102 1203q0 105 75 180t179 75t180 -75t76 -180t-76 -180t-180 -75t-179 75t-75 180z" />
    <glyph glyph-name="plusminus" unicode="&#xb1;" horiz-adv-x="1286" 
d="M563 295v360h-356q-35 0 -60 24q-25 23 -25 57t25 58t60 23h356v357q0 36 25 60q24 24 58 24t58 -26q24 -24 23 -58v-357h352q35 1 60 -23t25 -58t-26 -58q-24 -24 -59 -23h-352v-360q0 -35 -24 -61q-23 -26 -57 -26t-58 28q-24 26 -25 59zM1079 0h-872q-35 0 -60 24
t-25 58t26 56q24 24 59 24h872q35 0 60 -24t25 -58t-26 -56q-24 -24 -59 -24z" />
    <glyph glyph-name="twosuperior" unicode="&#xb2;" horiz-adv-x="935" 
d="M145 610q0 156 205 301q14 10 58 39q146 95 183 164q17 33 17 74t-41 79t-129 38t-153 -82q-31 -39 -65 -39t-56 20t-23 50q0 30 19 55q40 59 116 101t175 42q147 0 227 -76t80 -187t-62 -182t-227 -184q-150 -96 -164 -170h395q35 1 58 -21q22 -22 22 -54t-22 -54
q-23 -20 -58 -20h-456q-43 0 -71 30t-28 76z" />
    <glyph glyph-name="threesuperior" unicode="&#xb3;" horiz-adv-x="884" 
d="M203 1268q-33 0 -56 22t-22 56q1 32 23 54t55 21h403q43 1 73 -25t30 -68t-43 -89l-140 -147q104 -14 169 -85t65 -176q0 -164 -131 -257t-361 -93q-46 0 -72 2t-49 24q-23 23 -23 53t24 52q22 22 55 21l78 -2q149 0 237 53t88 145q0 61 -41 97t-108 35l-88 -9
q-29 0 -51 18t-22 49q0 30 26 52l182 197h-301z" />
    <glyph glyph-name="acute" unicode="&#xb4;" horiz-adv-x="737" 
d="M517 1827q22 -1 42 -21q21 -20 21 -55t-39 -55l-277 -144q-16 -10 -41 -10t-44 20t-19 57q0 36 37 56l278 144q20 8 42 8z" />
    <glyph glyph-name="mu" unicode="&#xb5;" horiz-adv-x="1261" 
d="M197 -287v1272q-1 35 23 59t59 25q35 0 59 -25t24 -59v-588q0 -121 67 -191t210 -69q143 0 262 78v770q0 35 24 59q25 24 59 25q34 0 58 -25t25 -59v-817q0 -43 -31 -64q-182 -123 -413 -122q-156 0 -261 75v-344q0 -35 -24 -61t-58 -25q-34 -1 -58 25t-25 61z" />
    <glyph glyph-name="mu" unicode="&#x3bc;" horiz-adv-x="1261" 
d="M197 -287v1272q-1 35 23 59t59 25q35 0 59 -25t24 -59v-588q0 -121 67 -191t210 -69q143 0 262 78v770q0 35 24 59q25 24 59 25q34 0 58 -25t25 -59v-817q0 -43 -31 -64q-182 -123 -413 -122q-156 0 -261 75v-344q0 -35 -24 -61t-58 -25q-34 -1 -58 25t-25 61z" />
    <glyph glyph-name="paragraph" unicode="&#xb6;" horiz-adv-x="1452" 
d="M369 983q-1 -135 77 -211t236 -76h72v578h-80q-150 0 -228 -78t-77 -213zM838 -393q-35 1 -60 25t-24 61v842h-76q-213 -1 -347 119t-134 329t134 331t331 122h446q137 0 137 -136v-1607q-1 -35 -25 -61t-58 -26t-58 26t-25 61v1581h-159v-1581q0 -37 -24 -61t-58 -25z
" />
    <glyph glyph-name="periodcentered" unicode="&#xb7;" horiz-adv-x="542" 
d="M270 864q35 0 60 -26t24 -60v-110q0 -37 -24 -62q-24 -24 -59 -24q-37 0 -61 26t-24 60v110q0 34 24 60t60 26z" />
    <glyph glyph-name="cedilla" unicode="&#xb8;" horiz-adv-x="737" 
d="M362 63q59 0 60 -57q0 -12 -4 -24l-29 -74q84 -10 132 -58t48 -124q0 -170 -254 -254q-33 -12 -63 4t-31 60q0 44 49 61q94 37 126 65t32 54q0 62 -63 65l-64 -6q-33 -1 -52 27t-5 61l53 149q18 51 65 51z" />
    <glyph glyph-name="onesuperior" unicode="&#xb9;" horiz-adv-x="684" 
d="M324 575v648l-127 -68q-68 -35 -105 25q-16 28 -8 60t39 48l215 129q72 42 118 -6q24 -25 23 -63v-773q1 -33 -21 -55t-55 -22t-56 23t-23 54z" />
    <glyph glyph-name="ordmasculine" unicode="&#xba;" horiz-adv-x="958" 
d="M479 709q88 0 147 56q58 56 68 146q6 95 -2 185t-67 146t-147 56t-145 -56t-67 -146q-25 -240 68 -331q57 -56 145 -56zM480 555q-151 0 -253 98t-114 248q-10 104 0 205q12 150 114 248t253 98t253 -98t113 -248q10 -99 0 -205q-10 -152 -112 -249t-254 -97z" />
    <glyph glyph-name="guillemotright" unicode="&#xbb;" horiz-adv-x="1150" 
d="M633 721q0 -80 -90 -156l-246 -196q-29 -23 -61 -21t-55 29t-19 61t31 54l251 198q37 29 0 58l-251 196q-27 24 -30 56t18 59t55 30t61 -20l246 -197q90 -71 90 -151zM1053 721q0 -80 -90 -156l-248 -196q-29 -23 -61 -21t-54 29q-20 27 -17 61t29 54l252 198q37 29 0 58
l-252 196q-28 24 -30 56t18 59t54 30t61 -20l248 -197q90 -71 90 -151z" />
    <glyph glyph-name="onequarter" unicode="&#xbc;" horiz-adv-x="1976" 
d="M324 575v648l-127 -68q-66 -35 -105 29q-14 26 -4 58t35 46l237 133q54 33 97 -10q23 -23 22 -57v-779q1 -33 -21 -55t-55 -22t-56 23t-23 54zM498 39l561 1409q12 31 42 43q31 12 59 2t40 -41t0 -59l-557 -1411q-12 -29 -42 -41q-31 -12 -59 -2q-28 9 -41 39t-3 61z
M1559 350v389l-347 -389h347zM1702 350h80q30 0 52 -19t22 -51t-21 -52q-20 -20 -53 -19h-80v-135q0 -30 -20 -52t-53 -22q-32 0 -51 20t-19 54v133h-416q-49 0 -81 29q-32 30 -32 78t47 98l414 469q49 55 99 55t81 -33t31 -80v-473z" />
    <glyph glyph-name="onehalf" unicode="&#xbd;" horiz-adv-x="1941" 
d="M1149 106q0 156 205 302q14 10 58 38q295 191 159 317q-41 38 -129 38t-154 -82q-30 -39 -64 -39t-57 20t-23 50t19 55q41 59 117 101t174 42q147 0 227 -76t80 -187t-61 -182t-227 -184q-150 -96 -164 -169h395q36 0 58 -22t22 -54t-23 -54q-23 -20 -57 -20h-457
q-43 0 -71 30t-27 76zM324 575v648l-127 -68q-68 -35 -105 25q-16 28 -8 60t39 48l215 129q72 42 118 -6q24 -25 23 -63v-773q1 -33 -21 -55t-55 -22t-56 23t-23 54zM483 39l561 1409q12 31 42 43t59 2t41 -41t0 -59l-557 -1411q-12 -29 -42 -41t-59 -2q-29 9 -42 39t-3 61z
" />
    <glyph glyph-name="threequarters" unicode="&#xbe;" horiz-adv-x="2183" 
d="M721 39l561 1409q12 31 42 43t58 2t41 -41q12 -31 0 -59l-557 -1411q-12 -29 -42 -41t-58 -2q-28 9 -42 39q-13 30 -3 61zM203 1268q-33 0 -56 22t-22 56q1 32 23 54t55 21h403q43 1 73 -25t30 -68t-43 -89l-140 -147q104 -14 169 -85t65 -176q0 -164 -131 -257t-361 -93
q-46 0 -72 2t-49 24q-23 23 -23 53t24 52q22 22 55 21l78 -2q149 0 237 53t88 145q0 61 -41 97t-108 35l-88 -9q-29 0 -51 18t-22 49q0 30 26 52l182 197h-301zM1790 350v389l-346 -389h346zM1933 350h80q29 0 51 -19t23 -51q-1 -32 -21 -52t-53 -19h-80v-135q0 -30 -20 -52
t-52 -22t-52 20q-19 20 -19 54v133h-416q-49 0 -81 29q-31 30 -31 78t47 98l413 469q50 55 100 55t81 -33t30 -80v-473z" />
    <glyph glyph-name="questiondown" unicode="&#xbf;" horiz-adv-x="1142" 
d="M692 1370v-108q0 -33 -24 -58q-24 -24 -60 -24t-60 24t-24 58v108q0 34 25 58t59 24t58 -24q26 -24 26 -58zM922 322q38 0 62 -26t24 -58t-23 -62q-160 -195 -438 -194q-190 0 -309 110t-119 289q0 180 99 289t335 219q29 14 61 14q32 -1 55 -23q24 -22 23 -55
q0 -55 -57 -82q-199 -89 -274 -163t-75 -190t70 -182q68 -65 182 -65t185 33q72 33 133 109q29 37 66 37z" />
    <glyph glyph-name="Agrave" unicode="&#xc0;" horiz-adv-x="1382" 
d="M823 1617q0 -36 -20 -56q-35 -35 -90 -9l-273 142q-37 20 -37 55t26 62t79 6l276 -144q39 -20 39 -56zM692 1292q-39 0 -53 -41l-217 -612h539l-216 612q-14 41 -53 41zM1331 76q-1 -28 -23 -52q-22 -26 -59 -26q-59 0 -80 53l-151 428h-653l-152 -428q-19 -53 -69 -53
t-72 26t-21 52q0 26 4 37l426 1187q57 156 212 156t208 -156l426 -1187q4 -9 4 -37z" />
    <glyph glyph-name="Aacute" unicode="&#xc1;" horiz-adv-x="1382" 
d="M910 1825q22 -1 42 -21t20 -55t-38 -55l-277 -144q-17 -10 -41 -10t-44 20t-19 57q0 36 37 56l278 144q20 8 42 8zM692 1292q-39 0 -53 -41l-217 -612h539l-216 612q-14 41 -53 41zM1331 76q-1 -28 -23 -52q-22 -26 -59 -26q-59 0 -80 53l-151 428h-653l-152 -428
q-19 -53 -69 -53t-72 26t-21 52q0 26 4 37l426 1187q57 156 212 156t208 -156l426 -1187q4 -9 4 -37z" />
    <glyph glyph-name="Acircumflex" unicode="&#xc2;" horiz-adv-x="1382" 
d="M975 1612q-1 -32 -21 -51q-20 -21 -47 -21t-49 16l-166 125l-166 -125q-24 -16 -50 -16t-45 20t-19 54q0 33 28 53l191 143q35 25 59 25t62 -25l192 -143q31 -23 31 -55zM692 1292q-39 0 -53 -41l-217 -612h539l-216 612q-14 41 -53 41zM1331 76q-1 -28 -23 -52
q-22 -26 -59 -26q-59 0 -80 53l-151 428h-653l-152 -428q-19 -53 -69 -53t-72 26t-21 52q0 26 4 37l426 1187q57 156 212 156t208 -156l426 -1187q4 -9 4 -37z" />
    <glyph glyph-name="Atilde" unicode="&#xc3;" horiz-adv-x="1382" 
d="M801 1683q29 0 63 28t61 28q28 -1 46 -21t18 -50t-28 -54q-79 -70 -141 -70t-138 37t-104 37t-61 -28q-65 -54 -109 -5q-43 48 12 103q80 70 144 70t136 -38q72 -37 101 -37zM692 1292q-39 0 -53 -41l-217 -612h539l-216 612q-14 41 -53 41zM1331 76q-1 -28 -23 -52
q-22 -26 -59 -26q-59 0 -80 53l-151 428h-653l-152 -428q-19 -53 -69 -53t-72 26t-21 52q0 26 4 37l426 1187q57 156 212 156t208 -156l426 -1187q4 -9 4 -37z" />
    <glyph glyph-name="Adieresis" unicode="&#xc4;" horiz-adv-x="1382" 
d="M854 1743q39 0 66 -26q26 -25 26 -65t-26 -67t-66 -27q-39 0 -66 28q-27 26 -26 65q0 39 26 65t66 27zM530 1743q39 0 66 -27q27 -28 27 -66t-27 -65t-66 -27q-40 0 -66 28q-26 26 -26 66t26 66t66 25zM692 1292q-39 0 -53 -41l-217 -612h539l-216 612q-14 41 -53 41z
M1331 76q-1 -28 -23 -52q-22 -26 -59 -26q-59 0 -80 53l-151 428h-653l-152 -428q-19 -53 -69 -53t-72 26t-21 52q0 26 4 37l426 1187q57 156 212 156t208 -156l426 -1187q4 -9 4 -37z" />
    <glyph glyph-name="Aring" unicode="&#xc5;" horiz-adv-x="1382" 
d="M693 1829q-39 -1 -65 -27t-26 -64t27 -65t65 -27t63 28q25 26 25 64t-26 64t-63 27zM693 1542q-81 0 -139 58t-58 138q0 81 58 139t139 58t138 -58t57 -139q0 -80 -56 -138q-58 -58 -139 -58zM692 1292q-39 0 -53 -41l-217 -612h539l-216 612q-14 41 -53 41zM1331 76
q-1 -28 -23 -52q-22 -26 -59 -26q-59 0 -80 53l-151 428h-653l-152 -428q-19 -53 -69 -53t-72 26t-21 52q0 26 4 37l426 1187q57 156 212 156t208 -156l426 -1187q4 -9 4 -37z" />
    <glyph glyph-name="AE" unicode="&#xc6;" horiz-adv-x="2136" 
d="M1061 655v617q-37 0 -66 -45l-383 -572h449zM126 -8q-42 0 -66 26t-24 55q0 30 13 48l807 1198q78 117 240 117h813q35 0 61 -24t25 -58q0 -34 -26 -57q-26 -24 -60 -23h-680v-471h663q35 0 59 -23q23 -22 23 -56t-24 -58t-58 -23h-663v-481h684q35 0 61 -24t25 -58
q0 -34 -26 -56q-26 -24 -60 -24h-709q-68 0 -106 40t-37 99v357h-555l-313 -467q-25 -37 -67 -37z" />
    <glyph glyph-name="Ccedilla" unicode="&#xc7;" horiz-adv-x="1355" 
d="M727 1454q174 0 317 -93t205 -247q6 -20 6 -46q1 -26 -25 -48t-54 -23q-55 0 -78 54q-48 111 -148 177t-223 64q-174 0 -287 -116t-126 -288t0 -342t126 -288q113 -117 287 -117q123 0 223 67t148 177q23 53 78 53q28 0 54 -24t26 -46q0 -24 -7 -46q-55 -140 -178 -230
t-276 -108l-29 -76q82 -6 131 -56t49 -126q0 -168 -252 -254q-36 -12 -66 4t-30 60t51 61q92 37 124 65t32 54q1 28 -17 47t-47 20l-63 -8q-33 -1 -52 27t-5 61l43 123q-219 20 -362 178q-142 158 -159 387q-12 168 0 332q17 247 179 409t405 162z" />
    <glyph glyph-name="Egrave" unicode="&#xc8;" horiz-adv-x="1280" 
d="M840 1617q0 -36 -20 -56q-36 -35 -91 -9l-272 142q-37 20 -37 55t19 55q32 34 85 13l277 -144q39 -20 39 -56zM348 1436h707q35 0 59 -24t25 -58q0 -34 -26 -57q-26 -24 -58 -23h-682v-471h663q35 0 59 -23q23 -22 23 -56t-24 -58t-58 -23h-663v-481h686q33 0 59 -24
t25 -58q0 -34 -25 -56q-25 -24 -59 -24h-711q-68 0 -106 40t-37 99v1157q-1 60 37 100t106 40z" />
    <glyph glyph-name="Eacute" unicode="&#xc9;" horiz-adv-x="1280" 
d="M800 1825q22 -1 42 -21t20 -55t-39 -55l-276 -144q-16 -10 -41 -10t-44 20q-20 20 -20 57q0 36 37 56l279 144q20 8 42 8zM348 1436h707q35 0 59 -24t25 -58q0 -34 -26 -57q-26 -24 -58 -23h-682v-471h663q35 0 59 -23q23 -22 23 -56t-24 -58t-58 -23h-663v-481h686
q33 0 59 -24t25 -58q0 -34 -25 -56q-25 -24 -59 -24h-711q-68 0 -106 40t-37 99v1157q-1 60 37 100t106 40z" />
    <glyph glyph-name="Ecircumflex" unicode="&#xca;" horiz-adv-x="1280" 
d="M963 1612q-1 -32 -21 -51q-20 -21 -47 -21t-49 16l-166 125l-166 -125q-24 -16 -50 -16t-45 20t-19 54q0 33 28 53l190 143q34 25 58 25t63 -25l193 -143q31 -23 31 -55zM348 1436h707q35 0 59 -24t25 -58q0 -34 -26 -57q-26 -24 -58 -23h-682v-471h663q35 0 59 -23
q23 -22 23 -56t-24 -58t-58 -23h-663v-481h686q33 0 59 -24t25 -58q0 -34 -25 -56q-25 -24 -59 -24h-711q-68 0 -106 40t-37 99v1157q-1 60 37 100t106 40z" />
    <glyph glyph-name="Edieresis" unicode="&#xcb;" horiz-adv-x="1280" 
d="M849 1741q39 0 65 -27q26 -28 26 -66t-27 -65t-65 -27t-66 27q-27 27 -26 66q0 39 26 65t67 27zM432 1649q0 39 26 65t65 27q40 0 67 -27q26 -28 26 -66t-26 -65t-66 -27t-66 27t-26 66zM348 1436h707q35 0 59 -24t25 -58q0 -34 -26 -57q-26 -24 -58 -23h-682v-471h663
q35 0 59 -23q23 -22 23 -56t-24 -58t-58 -23h-663v-481h686q33 0 59 -24t25 -58q0 -34 -25 -56q-25 -24 -59 -24h-711q-68 0 -106 40t-37 99v1157q-1 60 37 100t106 40z" />
    <glyph glyph-name="Igrave" unicode="&#xcc;" horiz-adv-x="577" 
d="M426 1617q0 -36 -20 -56q-36 -36 -91 -9l-272 142q-37 20 -37 55t26 62t79 6l276 -144q39 -20 39 -56zM203 78v1280q1 34 25 60t60 26t60 -25t23 -61v-1280q0 -37 -24 -62q-23 -24 -59 -24t-61 25q-24 26 -24 61z" />
    <glyph glyph-name="Iacute" unicode="&#xcd;" horiz-adv-x="577" 
d="M492 1825q22 -1 42 -21t21 -55q0 -35 -39 -55l-276 -144q-16 -10 -41 -10t-44 20t-19 57q0 36 36 56l279 144q19 8 41 8zM203 78v1280q1 34 25 60t60 26t60 -25t23 -61v-1280q0 -37 -24 -62q-23 -24 -59 -24t-61 25q-24 26 -24 61z" />
    <glyph glyph-name="Icircumflex" unicode="&#xce;" horiz-adv-x="577" 
d="M72 1540q-26 0 -46 20t-20 54q0 33 29 53l190 143q35 25 59 25t62 -25l193 -143q31 -23 31 -55t-21 -51q-20 -21 -47 -21t-49 16l-166 125l-166 -125q-23 -16 -49 -16zM203 78v1280q1 34 25 60t60 26t60 -25t23 -61v-1280q0 -37 -24 -62q-23 -24 -59 -24t-61 25
q-24 26 -24 61z" />
    <glyph glyph-name="Idieresis" unicode="&#xcf;" horiz-adv-x="577" 
d="M358 1651q0 39 27 65t67 27q40 0 66 -26q26 -25 25 -65q0 -40 -27 -67q-28 -27 -66 -27t-65 28q-27 26 -27 65zM126 1743q40 0 67 -27q27 -28 27 -66t-28 -65q-26 -27 -65 -27t-66 28q-27 26 -27 66t26 66t66 25zM203 78v1280q1 34 25 60t60 26t60 -25t23 -61v-1280
q0 -37 -24 -62q-23 -24 -59 -24t-61 25q-24 26 -24 61z" />
    <glyph glyph-name="Eth" unicode="&#xd0;" horiz-adv-x="1472" 
d="M688 1274h-315v-483h323q33 0 57 -23q23 -24 23 -56t-24 -56t-56 -23h-323v-471h315q227 0 345 118t130 330q6 113 0 213q-10 211 -128 331t-347 120zM688 0h-342q-66 0 -104 40t-37 99v494h-131q-35 1 -58 23q-22 22 -22 56t22 56t58 23h131v505q0 60 38 100t103 40h342
q301 0 464 -166t179 -441q6 -117 0 -223q-16 -274 -179 -440t-464 -166z" />
    <glyph glyph-name="Ntilde" unicode="&#xd1;" horiz-adv-x="1574" 
d="M901 1688q29 0 63 28t62 27t45 -21q19 -20 19 -50t-29 -54q-81 -70 -143 -70t-136 37t-102 37t-63 -28q-33 -28 -61 -28t-46 21q-18 20 -18 48t28 57q80 70 144 70t136 -38q72 -36 101 -36zM1208 199l-8 305v854q0 34 25 60t61 26t59 -25q24 -25 23 -61v-1219
q0 -61 -38 -102t-97 -41q-88 0 -135 76l-727 1177h-4q6 -252 6 -317v-854q0 -37 -24 -62q-25 -24 -59 -24t-60 26t-25 60v1214q0 62 40 106t103 44q92 0 139 -80l717 -1163h4z" />
    <glyph glyph-name="Ograve" unicode="&#xd2;" horiz-adv-x="1492" 
d="M903 1617q0 -36 -20 -56q-35 -35 -90 -9l-273 142q-37 20 -37 55t26 62t79 6l276 -144q39 -20 39 -56zM744 141q177 0 298 118q122 118 138 288t0 340t-138 288q-122 117 -298 117t-296 -116t-134 -288q-14 -171 -1 -341q14 -170 134 -288t297 -118zM744 -20
q-244 0 -414 164t-187 407q-12 168 0 332q17 243 187 407t414 164t417 -165q172 -165 189 -406q12 -164 0 -332q-16 -243 -188 -407t-418 -164z" />
    <glyph glyph-name="Oacute" unicode="&#xd3;" horiz-adv-x="1492" 
d="M943 1825q22 -1 42 -21q21 -20 21 -55t-39 -55l-277 -144q-16 -10 -41 -10t-44 20t-19 57q0 36 37 56l278 144q20 8 42 8zM744 141q177 0 298 118q122 118 138 288t0 340t-138 288q-122 117 -298 117t-296 -116t-134 -288q-14 -171 -1 -341q14 -170 134 -288t297 -118z
M744 -20q-244 0 -414 164t-187 407q-12 168 0 332q17 243 187 407t414 164t417 -165q172 -165 189 -406q12 -164 0 -332q-16 -243 -188 -407t-418 -164z" />
    <glyph glyph-name="Ocircumflex" unicode="&#xd4;" horiz-adv-x="1492" 
d="M1030 1612q0 -32 -20 -51q-20 -21 -47 -21t-50 16l-165 125l-166 -125q-24 -16 -50 -16t-46 20t-19 54q0 33 29 53l190 143q34 25 58 25t63 -25l192 -143q31 -23 31 -55zM744 141q177 0 298 118q122 118 138 288t0 340t-138 288q-122 117 -298 117t-296 -116t-134 -288
q-14 -171 -1 -341q14 -170 134 -288t297 -118zM744 -20q-244 0 -414 164t-187 407q-12 168 0 332q17 243 187 407t414 164t417 -165q172 -165 189 -406q12 -164 0 -332q-16 -243 -188 -407t-418 -164z" />
    <glyph glyph-name="Otilde" unicode="&#xd5;" horiz-adv-x="1492" 
d="M854 1679q28 0 62 28t62 28q28 -1 46 -21t18 -50t-28 -54q-80 -70 -142 -70t-137 37t-103 37t-62 -28t-62 -28t-45 21q-19 20 -19 48t29 56q81 70 145 70t136 -37t100 -37zM744 141q177 0 298 118q122 118 138 288t0 340t-138 288q-122 117 -298 117t-296 -116t-134 -288
q-14 -171 -1 -341q14 -170 134 -288t297 -118zM744 -20q-244 0 -414 164t-187 407q-12 168 0 332q17 243 187 407t414 164t417 -165q172 -165 189 -406q12 -164 0 -332q-16 -243 -188 -407t-418 -164z" />
    <glyph glyph-name="Odieresis" unicode="&#xd6;" horiz-adv-x="1492" 
d="M817 1651q1 39 27 65t66 27q40 0 66 -26q26 -25 26 -65t-28 -67q-26 -27 -65 -27t-65 28q-26 26 -27 65zM585 1743q41 0 67 -27q26 -28 26 -66t-27 -65t-65 -27t-66 28q-26 26 -26 66t26 66t65 25zM744 141q177 0 298 118q122 118 138 288t0 340t-138 288
q-122 117 -298 117t-296 -116t-134 -288q-14 -171 -1 -341q14 -170 134 -288t297 -118zM744 -20q-244 0 -414 164t-187 407q-12 168 0 332q17 243 187 407t414 164t417 -165q172 -165 189 -406q12 -164 0 -332q-16 -243 -188 -407t-418 -164z" />
    <glyph glyph-name="multiply" unicode="&#xd7;" horiz-adv-x="1286" 
d="M172 330q0 35 25 59l329 330l-329 330q-25 25 -25 59t25 58t57 23t59 -26l330 -329l326 325q27 25 61 26t59 -25t23 -60t-27 -58l-325 -323l325 -322q25 -23 26 -57t-23 -60t-58 -25q-35 1 -61 26l-326 323l-330 -330q-27 -26 -59 -26t-58 24q-24 24 -24 58z" />
    <glyph glyph-name="Oslash" unicode="&#xd8;" horiz-adv-x="1495" 
d="M745 1292q-175 0 -295 -116t-134 -288q-14 -170 -3 -322q12 -152 97 -263l559 930q-106 59 -224 59zM745 141q178 0 299 118q122 118 138 288q16 169 2 323t-105 265l-557 -932q100 -62 223 -62zM745 -20q-170 0 -309 81l-26 -45q-16 -28 -46 -34t-57 9t-33 47t11 58
l34 58q-160 162 -174 397q-12 168 0 332q17 243 187 407t413 164q164 0 306 -82l28 45q16 27 46 34t57 -9q28 -16 32 -46t-12 -59l-33 -55q164 -160 183 -399q12 -164 0 -332q-16 -243 -188 -407t-419 -164z" />
    <glyph glyph-name="Ugrave" unicode="&#xd9;" horiz-adv-x="1531" 
d="M963 1617q-1 -36 -21 -56q-36 -35 -90 -9l-272 142q-37 20 -37 55t19 55q32 34 85 13l277 -144q39 -20 39 -56zM1346 1358v-776q0 -266 -164 -434t-416 -168t-416 168t-164 434v776q0 34 25 60t59 26t60 -26q25 -26 24 -60v-774q0 -201 116 -322t296 -121t296 121
t116 322v774q0 34 24 60t60 26t60 -26t24 -60z" />
    <glyph glyph-name="Uacute" unicode="&#xda;" horiz-adv-x="1531" 
d="M922 1825q22 -1 42 -21t21 -55q0 -35 -39 -55l-276 -144q-16 -10 -41 -10t-44 20t-19 57q0 36 36 56l279 144q19 8 41 8zM1346 1358v-776q0 -266 -164 -434t-416 -168t-416 168t-164 434v776q0 34 25 60t59 26t60 -26q25 -26 24 -60v-774q0 -201 116 -322t296 -121
t296 121t116 322v774q0 34 24 60t60 26t60 -26t24 -60z" />
    <glyph glyph-name="Ucircumflex" unicode="&#xdb;" horiz-adv-x="1531" 
d="M1049 1612q-1 -32 -21 -51q-20 -21 -47 -21t-49 16l-166 125l-166 -125q-24 -16 -50 -16t-45 20t-19 54q0 33 28 53l191 143q35 25 58 25t62 -25l193 -143q31 -23 31 -55zM1346 1358v-776q0 -266 -164 -434t-416 -168t-416 168t-164 434v776q0 34 25 60t59 26t60 -26
q25 -26 24 -60v-774q0 -201 116 -322t296 -121t296 121t116 322v774q0 34 24 60t60 26t60 -26t24 -60z" />
    <glyph glyph-name="Udieresis" unicode="&#xdc;" horiz-adv-x="1531" 
d="M928 1743q40 0 66 -26q26 -25 26 -65t-27 -67t-65 -27t-66 28q-27 26 -26 65q0 39 26 65t66 27zM604 1743q39 0 66 -27q26 -28 26 -66t-26 -65t-66 -27t-66 28q-26 26 -26 66t26 66t66 25zM1346 1358v-776q0 -266 -164 -434t-416 -168t-416 168t-164 434v776q0 34 25 60
t59 26t60 -26q25 -26 24 -60v-774q0 -201 116 -322t296 -121t296 121t116 322v774q0 34 24 60t60 26t60 -26t24 -60z" />
    <glyph glyph-name="Yacute" unicode="&#xdd;" horiz-adv-x="1325" 
d="M808 1825q22 -1 42 -21t20 -55t-39 -55l-276 -144q-16 -10 -41 -10t-44 20q-20 20 -20 57q0 36 37 56l279 144q20 8 42 8zM1204 1444q37 0 63 -25q25 -25 25 -59t-20 -55l-471 -578q-3 -6 -13 -16q-10 -9 -13 -15t-17 -24t-13 -62v-532q1 -37 -23 -62q-24 -24 -58 -24
t-61 26q-26 26 -25 60v532q0 29 -6 40q-6 12 -6 18q-2 14 -14 25q-12 12 -30 36l-469 574q-20 23 -20 57q-1 34 25 58t64 24t62 -31l478 -598l479 598q26 33 63 33z" />
    <glyph glyph-name="Thorn" unicode="&#xde;" horiz-adv-x="1318" 
d="M373 430h366q160 0 236 77t76 211t-76 212t-225 78h-377v-578zM741 268h-368v-190q0 -37 -24 -62q-23 -24 -59 -24t-61 26t-24 60v1288q1 34 25 60t59 26t59 -26t25 -60v-199h385q197 -1 331 -121t134 -329q-1 -209 -135 -329t-347 -120z" />
    <glyph glyph-name="germandbls" unicode="&#xdf;" horiz-adv-x="1357" 
d="M1014 1153q0 -63 -27 -117t-59 -87q-86 -87 -85 -145t37 -87t130 -66q274 -98 274 -325q0 -150 -113 -247t-291 -97t-321 114q-27 20 -31 56t14 60q18 26 50 31q33 5 65 -18q86 -66 129 -78t99 -12q106 0 170 51q63 52 63 136t-44 124t-164 80t-176 100q-58 60 -58 166
t87 188t87 156t-56 118t-161 44q-279 0 -279 -276v-944q0 -37 -24 -62q-24 -24 -59 -24t-59 24t-24 62v954q0 202 116 310t308 108t296 -83q106 -83 106 -214z" />
    <glyph glyph-name="agrave" unicode="&#xe0;" horiz-adv-x="1150" 
d="M782 1281q0 -36 -20 -56q-36 -36 -90 -8l-273 141q-37 20 -37 55t26 62t79 6l276 -144q39 -20 39 -56zM551 131q109 0 177 26t93 50v268q-177 45 -285 45t-178 -50t-69 -136q0 -203 262 -203zM821 702q0 236 -241 236q-117 0 -258 -53q-49 -18 -84 2t-35 67t53 72
q136 66 326 66t296 -94t107 -289v-545q0 -47 -35 -68q-53 -39 -169 -77t-249 -37q-197 0 -303 95t-106 245t106 245q106 94 306 95q127 0 286 -44v84z" />
    <glyph glyph-name="aacute" unicode="&#xe1;" horiz-adv-x="1150" 
d="M736 1489q22 -1 42 -21t20 -55t-38 -55l-277 -144q-16 -10 -41 -10t-44 20t-19 57q0 36 37 56l278 144q20 8 42 8zM551 131q109 0 177 26t93 50v268q-177 45 -285 45t-178 -50t-69 -136q0 -203 262 -203zM821 702q0 236 -241 236q-117 0 -258 -53q-49 -18 -84 2t-35 67
t53 72q136 66 326 66t296 -94t107 -289v-545q0 -47 -35 -68q-53 -39 -169 -77t-249 -37q-197 0 -303 95t-106 245t106 245q106 94 306 95q127 0 286 -44v84z" />
    <glyph glyph-name="acircumflex" unicode="&#xe2;" horiz-adv-x="1150" 
d="M797 1178q-27 0 -49 16l-166 125l-166 -125q-24 -16 -50 -16t-45 20t-19 52t28 55l190 143q34 25 58 25t63 -25l193 -143q30 -23 30 -55t-20 -52t-47 -20zM551 131q109 0 177 26t93 50v268q-177 45 -285 45t-178 -50t-69 -136q0 -203 262 -203zM821 702q0 236 -241 236
q-117 0 -258 -53q-49 -18 -84 2t-35 67t53 72q136 66 326 66t296 -94t107 -289v-545q0 -47 -35 -68q-53 -39 -169 -77t-249 -37q-197 0 -303 95t-106 245t106 245q106 94 306 95q127 0 286 -44v84z" />
    <glyph glyph-name="atilde" unicode="&#xe3;" horiz-adv-x="1150" 
d="M690 1352q29 0 63 28q33 28 61 27t46 -21t18 -50t-28 -54q-80 -70 -142 -70t-137 37t-103 37t-62 -28t-61 -28q-28 0 -46 21q-18 20 -18 48t28 57q81 70 145 70t136 -38q72 -36 100 -36zM551 131q109 0 177 26t93 50v268q-177 45 -285 45t-178 -50t-69 -136
q0 -203 262 -203zM821 702q0 236 -241 236q-117 0 -258 -53q-49 -18 -84 2t-35 67t53 72q136 66 326 66t296 -94t107 -289v-545q0 -47 -35 -68q-53 -39 -169 -77t-249 -37q-197 0 -303 95t-106 245t106 245q106 94 306 95q127 0 286 -44v84z" />
    <glyph glyph-name="adieresis" unicode="&#xe4;" horiz-adv-x="1150" 
d="M743 1411q39 0 66 -26q27 -25 27 -65t-27 -67t-66 -27t-65 28q-26 26 -27 65q1 39 27 65t65 27zM420 1411q40 0 66 -27q26 -28 26 -66t-27 -65t-65 -27t-66 28q-26 26 -26 66t26 66t66 25zM551 131q109 0 177 26t93 50v268q-177 45 -285 45t-178 -50t-69 -136
q0 -203 262 -203zM821 702q0 236 -241 236q-117 0 -258 -53q-49 -18 -84 2t-35 67t53 72q136 66 326 66t296 -94t107 -289v-545q0 -47 -35 -68q-53 -39 -169 -77t-249 -37q-197 0 -303 95t-106 245t106 245q106 94 306 95q127 0 286 -44v84z" />
    <glyph glyph-name="aring" unicode="&#xe5;" horiz-adv-x="1150" 
d="M492 1357q0 -38 26 -65q26 -26 65 -26q37 0 63 26t26 65t-26 65t-64 26t-64 -26t-26 -65zM385 1357q0 81 58 139q57 58 139 58t139 -58t57 -139t-57 -138t-138 -57t-139 56q-58 58 -59 139zM551 131q109 0 177 26t93 50v268q-177 45 -285 45t-178 -50t-69 -136
q0 -203 262 -203zM821 702q0 236 -241 236q-117 0 -258 -53q-49 -18 -84 2t-35 67t53 72q136 66 326 66t296 -94t107 -289v-545q0 -47 -35 -68q-53 -39 -169 -77t-249 -37q-197 0 -303 95t-106 245t106 245q106 94 306 95q127 0 286 -44v84z" />
    <glyph glyph-name="ae" unicode="&#xe6;" horiz-adv-x="1845" 
d="M1528 606q25 0 26 25q8 139 -68 225q-77 86 -217 86t-215 -90t-71 -246h545zM551 131q158 0 311 109q-45 109 -43 235q-179 45 -285 45t-176 -50t-69 -136q0 -203 262 -203zM819 702q0 236 -237 236q-115 0 -260 -53q-49 -18 -84 2t-35 67t53 72q135 66 326 66
q244 0 342 -158q125 158 339 158q213 0 333 -124t120 -321v-61q0 -119 -121 -119h-612v-33q0 -141 82 -221q83 -80 205 -80t268 53q51 20 85 -4t34 -66t-45 -69q-111 -65 -323 -65t-339 127q-61 -47 -176 -87t-242 -40q-197 0 -303 95t-106 245t106 245q106 94 306 95
q125 0 284 -44v84z" />
    <glyph glyph-name="ccedilla" unicode="&#xe7;" horiz-adv-x="1140" 
d="M607 1092q191 0 305 -106t114 -195q0 -37 -22 -61t-56 -23q-55 0 -80 55q-35 86 -104 130q-70 44 -154 44q-129 0 -207 -71t-87 -189t-1 -270q10 -119 87 -194t208 -75q84 0 156 44t106 130q25 55 69 55t67 -23q23 -24 22 -60q0 -85 -101 -185t-270 -114l-28 -76
q82 -6 131 -56t49 -126q0 -168 -252 -254q-35 -12 -65 4t-31 60q0 44 51 61q92 37 124 65t32 54q0 28 -18 47t-46 20l-63 -8q-33 0 -53 27q-19 28 -5 61l45 125q-166 24 -268 136t-111 264t0 315t137 276t319 113z" />
    <glyph glyph-name="egrave" unicode="&#xe8;" horiz-adv-x="1171" 
d="M780 1281q0 -36 -20 -56q-36 -36 -90 -8l-273 141q-37 20 -37 55t26 62t79 6l276 -144q39 -20 39 -56zM856 606q25 0 27 25q8 139 -68 225t-216 86t-216 -90t-72 -246h545zM1044 647v-61q0 -119 -120 -119h-613v-33q0 -141 84 -221q85 -80 203 -80t268 53q51 20 85 -4
t34 -64q0 -42 -47 -71t-140 -47t-184 -18q-210 0 -332 120t-132 320q-8 145 2 246q16 196 140 310t318 114t314 -124t120 -321z" />
    <glyph glyph-name="eacute" unicode="&#xe9;" horiz-adv-x="1171" 
d="M779 1489q22 -1 42 -21q21 -20 21 -55t-39 -55l-277 -144q-16 -10 -41 -10t-44 20t-19 57q0 36 37 56l278 144q20 8 42 8zM856 606q25 0 27 25q8 139 -68 225t-216 86t-216 -90t-72 -246h545zM1044 647v-61q0 -119 -120 -119h-613v-33q0 -141 84 -221q85 -80 203 -80
t268 53q51 20 85 -4t34 -64q0 -42 -47 -71t-140 -47t-184 -18q-210 0 -332 120t-132 320q-8 145 2 246q16 196 140 310t318 114t314 -124t120 -321z" />
    <glyph glyph-name="ecircumflex" unicode="&#xea;" horiz-adv-x="1171" 
d="M586 1500q24 0 63 -25l193 -144q30 -23 30 -55t-20 -51q-20 -21 -47 -21t-49 17l-166 125l-166 -125q-24 -17 -50 -17t-45 20t-19 54q0 33 28 53l190 144q34 25 58 25zM856 606q25 0 27 25q8 139 -68 225t-216 86t-216 -90t-72 -246h545zM1044 647v-61q0 -119 -120 -119
h-613v-33q0 -141 84 -221q85 -80 203 -80t268 53q51 20 85 -4t34 -64q0 -42 -47 -71t-140 -47t-184 -18q-210 0 -332 120t-132 320q-8 145 2 246q16 196 140 310t318 114t314 -124t120 -321z" />
    <glyph glyph-name="edieresis" unicode="&#xeb;" horiz-adv-x="1171" 
d="M763 1411q39 0 65 -26q26 -25 26 -65t-27 -67t-65 -27t-66 28q-27 26 -26 65q0 39 26 65t67 27zM346 1320q0 40 26 66t65 25q40 0 67 -27q26 -28 26 -66t-26 -65t-66 -27t-66 28q-26 26 -26 66zM856 606q25 0 27 25q8 139 -68 225t-216 86t-216 -90t-72 -246h545z
M1044 647v-61q0 -119 -120 -119h-613v-33q0 -141 84 -221q85 -80 203 -80t268 53q51 20 85 -4t34 -64q0 -42 -47 -71t-140 -47t-184 -18q-210 0 -332 120t-132 320q-8 145 2 246q16 196 140 310t318 114t314 -124t120 -321z" />
    <glyph glyph-name="igrave" unicode="&#xec;" horiz-adv-x="559" 
d="M279 1077q35 1 59 -25t24 -61v-915q0 -35 -24 -60q-24 -24 -58 -24q-36 0 -60 24t-23 60v915q0 35 23 61q24 25 59 25zM434 1281q0 -36 -20 -56q-36 -36 -90 -8l-273 141q-37 20 -37 55t26 62t79 6l276 -144q39 -20 39 -56z" />
    <glyph glyph-name="iacute" unicode="&#xed;" horiz-adv-x="559" 
d="M279 1077q35 1 59 -25t24 -61v-915q0 -35 -24 -60q-24 -24 -58 -24q-36 0 -60 24t-23 60v915q0 35 23 61q24 25 59 25zM488 1489q22 -1 42 -21t20 -55t-38 -55l-276 -144q-16 -10 -41 -10t-44 20t-19 57q0 36 36 56l278 144q20 8 42 8z" />
    <glyph glyph-name="icircumflex" unicode="&#xee;" horiz-adv-x="559" 
d="M286 1500q24 0 62 -25l193 -144q31 -23 31 -55t-21 -51q-20 -21 -47 -21t-49 17l-166 125l-166 -125q-23 -17 -49 -17t-46 20t-20 54q0 33 29 53l190 144q35 25 59 25zM279 1077q35 1 59 -25t24 -61v-915q0 -35 -24 -60q-24 -24 -58 -24q-36 0 -60 24t-23 60v915
q0 35 23 61q24 25 59 25z" />
    <glyph glyph-name="idieresis" unicode="&#xef;" horiz-adv-x="559" 
d="M279 1077q35 1 59 -25t24 -61v-915q0 -35 -24 -60q-24 -24 -58 -24q-36 0 -60 24t-23 60v915q0 35 23 61q24 25 59 25zM358 1319q0 39 27 65t67 27q40 0 66 -26q26 -25 25 -65q0 -40 -27 -67q-28 -27 -66 -27t-65 28q-27 26 -27 65zM126 1411q40 0 67 -27q27 -28 27 -66
t-28 -65q-26 -27 -65 -27t-66 28q-27 26 -27 66t26 66t66 25z" />
    <glyph glyph-name="eth" unicode="&#xf0;" horiz-adv-x="1220" 
d="M595 864q-120 0 -194 -68t-82 -192q-8 -122 1 -222t84 -170t191 -71q117 0 191 70t83 170t1 223q-8 124 -82 192t-193 68zM585 1024q177 0 294 -111q0 172 -91 279l-145 -66q-29 -14 -59 -4t-42 38q-11 28 0 57t40 43l80 36l-48 27q-37 18 -44 55t12 62q16 26 47 32
t59 -8q86 -45 139 -94l117 53q26 14 56 3t42 -40q12 -28 1 -56t-37 -40l-72 -33q109 -158 108 -426l-2 -415q0 -193 -128 -314q-128 -120 -314 -120t-311 114t-137 289q-6 121 0 244q12 175 135 285t300 110z" />
    <glyph glyph-name="ntilde" unicode="&#xf1;" 
d="M729 1352q29 0 63 28t62 27t45 -21q19 -20 19 -50t-29 -54q-81 -70 -143 -70t-136 37t-102 37t-63 -28q-65 -54 -109 -5q-43 48 12 103q80 70 144 70t136 -38q72 -36 101 -36zM1075 674v-596q-1 -37 -23 -62q-22 -24 -58 -24t-60 24t-25 62v588q0 132 -78 200t-196 68
q-168 0 -283 -68v-788q0 -37 -24 -62q-24 -24 -58 -24q-36 0 -60 24t-24 62v829q0 47 46 81t156 69t251 35q213 0 325 -108t111 -310z" />
    <glyph glyph-name="ograve" unicode="&#xf2;" horiz-adv-x="1212" 
d="M807 1281q-1 -36 -21 -56q-37 -36 -90 -8l-272 141q-37 20 -37 55t26 62t79 6l276 -144q39 -20 39 -56zM606 936q-127 0 -205 -73t-86 -199t1 -252q9 -127 88 -201t202 -74t202 74t88 201t1 253q-8 127 -86 199t-205 72zM606 1092q190 0 318 -113t139 -293
q10 -147 0 -291q-10 -180 -138 -297q-127 -116 -317 -116t-319 116t-139 297q-8 143 1 306t137 277t318 114z" />
    <glyph glyph-name="oacute" unicode="&#xf3;" horiz-adv-x="1212" 
d="M759 1489q22 -1 42 -21t20 -55t-39 -55l-276 -144q-16 -10 -41 -10t-44 20t-19 57q0 36 36 56l279 144q20 8 42 8zM606 936q-127 0 -205 -73t-86 -199t1 -252q9 -127 88 -201t202 -74t202 74t88 201t1 253q-8 127 -86 199t-205 72zM606 1092q190 0 318 -113t139 -293
q10 -147 0 -291q-10 -180 -138 -297q-127 -116 -317 -116t-319 116t-139 297q-8 143 1 306t137 277t318 114z" />
    <glyph glyph-name="ocircumflex" unicode="&#xf4;" horiz-adv-x="1212" 
d="M889 1274q-1 -32 -21 -51q-20 -21 -47 -21t-49 17l-166 124l-166 -124q-24 -17 -50 -17t-45 20t-19 53q0 32 28 54l191 144q35 25 59 25t62 -25l192 -144q31 -23 31 -55zM606 936q-127 0 -205 -73t-86 -199t1 -252q9 -127 88 -201t202 -74t202 74t88 201t1 253
q-8 127 -86 199t-205 72zM606 1092q190 0 318 -113t139 -293q10 -147 0 -291q-10 -180 -138 -297q-127 -116 -317 -116t-319 116t-139 297q-8 143 1 306t137 277t318 114z" />
    <glyph glyph-name="otilde" unicode="&#xf5;" horiz-adv-x="1212" 
d="M715 1352q29 0 63 28t61 27q28 -1 46 -21t18 -50t-29 -54q-80 -70 -141 -70t-137 37t-104 37t-61 -28q-65 -54 -109 -5q-43 48 12 103q80 70 144 70t136 -38q72 -36 101 -36zM606 936q-127 0 -205 -73t-86 -199t1 -252q9 -127 88 -201t202 -74t202 74t88 201t1 253
q-8 127 -86 199t-205 72zM606 1092q190 0 318 -113t139 -293q10 -147 0 -291q-10 -180 -138 -297q-127 -116 -317 -116t-319 116t-139 297q-8 143 1 306t137 277t318 114z" />
    <glyph glyph-name="odieresis" unicode="&#xf6;" horiz-adv-x="1212" 
d="M768 1411q39 0 66 -26q26 -25 26 -65t-26 -67t-66 -27q-39 0 -66 28q-27 26 -26 65q0 39 26 65t66 27zM444 1411q39 0 66 -27q27 -28 27 -66t-27 -65t-66 -27q-40 0 -66 28q-26 26 -26 66t26 66t66 25zM606 936q-127 0 -205 -73t-86 -199t1 -252q9 -127 88 -201t202 -74
t202 74t88 201t1 253q-8 127 -86 199t-205 72zM606 1092q190 0 318 -113t139 -293q10 -147 0 -291q-10 -180 -138 -297q-127 -116 -317 -116t-319 116t-139 297q-8 143 1 306t137 277t318 114z" />
    <glyph glyph-name="divide" unicode="&#xf7;" horiz-adv-x="1286" 
d="M535 337q0 44 31 76q32 31 76 31t77 -32t33 -75q0 -44 -33 -76t-77 -32t-76 32q-31 32 -31 76zM535 1099q0 44 31 76q32 31 76 31t77 -32t33 -75q0 -44 -33 -76t-77 -32t-76 32q-31 32 -31 76zM1079 637h-872q-35 -1 -60 23t-25 58t26 58q24 24 59 23h872q35 0 60 -24
q25 -23 25 -57t-25 -58q-25 -23 -60 -23z" />
    <glyph glyph-name="oslash" unicode="&#xf8;" horiz-adv-x="1214" 
d="M897 406q14 231 -12 335l-469 -542q78 -61 196 -61t196 73q79 74 89 195zM599 936q-120 0 -198 -73t-86 -199q-16 -246 15 -332l467 542q-78 62 -198 62zM597 1092q181 0 304 -95l47 54q20 27 53 29t57 -19q24 -20 26 -53t-19 -58l-61 -69q53 -94 61 -218t-2 -268
q-10 -180 -138 -297q-127 -116 -309 -116t-305 96l-47 -55q-20 -25 -53 -27t-57 18q-23 20 -24 54t20 55l61 70q-55 89 -62 217t2 291t137 277t309 114z" />
    <glyph glyph-name="ugrave" unicode="&#xf9;" 
d="M827 1281q0 -36 -20 -56q-36 -36 -90 -8l-273 141q-36 20 -36 55t19 55q32 34 85 13l276 -144q39 -20 39 -56zM172 399v592q0 35 24 61t58 26t60 -26q24 -26 24 -61v-594q0 -121 73 -189t221 -69q148 0 263 76v776q0 35 24 61q25 26 59 26t58 -26t25 -61v-819
q0 -45 -35 -68q-176 -122 -396 -122t-338 109q-120 109 -120 308z" />
    <glyph glyph-name="uacute" unicode="&#xfa;" 
d="M783 1489q22 -1 42 -21q21 -20 21 -55t-39 -55l-277 -144q-16 -10 -40 -10t-44 20t-20 57q0 36 37 56l278 144q20 8 42 8zM172 399v592q0 35 24 61t58 26t60 -26q24 -26 24 -61v-594q0 -121 73 -189t221 -69q148 0 263 76v776q0 35 24 61q25 26 59 26t58 -26t25 -61v-819
q0 -45 -35 -68q-176 -122 -396 -122t-338 109q-120 109 -120 308z" />
    <glyph glyph-name="ucircumflex" unicode="&#xfb;" 
d="M622 1500q24 0 62 -25l193 -144q31 -23 31 -55t-21 -51q-20 -21 -47 -21t-49 17l-166 125l-166 -125q-23 -17 -49 -17t-46 20t-20 54q0 33 29 53l190 144q35 25 59 25zM172 399v592q0 35 24 61t58 26t60 -26q24 -26 24 -61v-594q0 -121 73 -189t221 -69q148 0 263 76v776
q0 35 24 61q25 26 59 26t58 -26t25 -61v-819q0 -45 -35 -68q-176 -122 -396 -122t-338 109q-120 109 -120 308z" />
    <glyph glyph-name="udieresis" unicode="&#xfc;" 
d="M788 1411q39 0 66 -26q27 -25 27 -65t-27 -67t-66 -27q-40 0 -66 28q-26 26 -26 65t26 65t66 27zM465 1411q39 0 65 -27q26 -28 27 -66q0 -38 -27 -65q-28 -27 -66 -27t-65 28q-27 26 -27 66t28 66q26 26 65 25zM172 399v592q0 35 24 61t58 26t60 -26q24 -26 24 -61v-594
q0 -121 73 -189t221 -69q148 0 263 76v776q0 35 24 61q25 26 59 26t58 -26t25 -61v-819q0 -45 -35 -68q-176 -122 -396 -122t-338 109q-120 109 -120 308z" />
    <glyph glyph-name="yacute" unicode="&#xfd;" horiz-adv-x="1048" 
d="M775 1491q22 -1 42 -21q21 -20 21 -55t-39 -55l-277 -143q-16 -11 -41 -11t-44 20t-19 57q0 36 37 56l278 144q20 8 42 8zM134 1075q48 0 77 -59l317 -731q8 -16 17 0l289 725q24 66 76 66t77 -39q25 -38 6 -81l-385 -933q-57 -137 -136 -243q-130 -174 -222 -171
q-34 -1 -58 21t-24 64t39 64q163 95 237 310l-389 888q-18 45 6 82q25 37 73 37z" />
    <glyph glyph-name="thorn" unicode="&#xfe;" horiz-adv-x="1230" 
d="M633 936q-72 0 -156 -28t-123 -56v-639q119 -76 271 -76q270 0 286 260q10 154 0 269q-23 270 -278 270zM631 -18q-137 0 -277 65v-358q0 -37 -24 -62t-58 -25q-36 0 -60 26t-24 61v1681q0 35 24 60q24 24 58 24t60 -24q25 -24 24 -60v-342q147 63 289 64q195 0 307 -106
t129 -302q12 -143 0 -295q-16 -195 -132 -301t-316 -106z" />
    <glyph glyph-name="ydieresis" unicode="&#xff;" horiz-adv-x="1048" 
d="M698 1411q39 0 66 -26q27 -25 27 -65t-27 -67t-66 -27q-40 0 -66 28q-26 26 -26 65t26 65t66 27zM375 1411q39 0 65 -27q26 -28 27 -66q0 -38 -27 -65q-28 -27 -66 -27t-65 28q-27 26 -27 66t28 66q26 26 65 25zM134 1075q48 0 77 -59l317 -731q8 -16 17 0l289 725
q24 66 76 66t77 -39q25 -38 6 -81l-385 -933q-57 -137 -136 -243q-130 -174 -222 -171q-34 -1 -58 21t-24 64t39 64q163 95 237 310l-389 888q-18 45 6 82q25 37 73 37z" />
    <glyph glyph-name="Amacron" unicode="&#x100;" horiz-adv-x="1382" 
d="M524 1720h336q29 0 49 -20q21 -20 21 -50t-20 -50t-50 -21h-336q-31 0 -51 20q-20 21 -20 51t20 50t51 20zM692 1292q-39 0 -53 -41l-217 -612h539l-216 612q-14 41 -53 41zM1331 76q-1 -28 -23 -52q-22 -26 -59 -26q-59 0 -80 53l-151 428h-653l-152 -428
q-19 -53 -69 -53t-72 26t-21 52q0 26 4 37l426 1187q57 156 212 156t208 -156l426 -1187q4 -9 4 -37z" />
    <glyph glyph-name="amacron" unicode="&#x101;" horiz-adv-x="1150" 
d="M414 1386h336q29 0 49 -20t20 -50t-20 -50t-49 -21h-336q-32 1 -52 21t-20 50t20 50q21 20 52 20zM551 131q109 0 177 26t93 50v268q-177 45 -285 45t-178 -50t-69 -136q0 -203 262 -203zM821 702q0 236 -241 236q-117 0 -258 -53q-49 -18 -84 2t-35 67t53 72
q136 66 326 66t296 -94t107 -289v-545q0 -47 -35 -68q-53 -39 -169 -77t-249 -37q-197 0 -303 95t-106 245t106 245q106 94 306 95q127 0 286 -44v84z" />
    <glyph glyph-name="Abreve" unicode="&#x102;" horiz-adv-x="1382" 
d="M692 1675q41 0 74 26q33 27 45 71t66 45q29 -1 49 -21t20 -40t-6 -40q-24 -76 -92 -126t-156 -50t-156 50t-92 126q-6 18 -6 39t20 41t60 20q39 0 57 -49q10 -41 43 -67t74 -25zM692 1292q-39 0 -53 -41l-217 -612h539l-216 612q-14 41 -53 41zM1331 76q-1 -28 -23 -52
q-22 -26 -59 -26q-59 0 -80 53l-151 428h-653l-152 -428q-19 -53 -69 -53t-72 26t-21 52q0 26 4 37l426 1187q57 156 212 156t208 -156l426 -1187q4 -9 4 -37z" />
    <glyph glyph-name="abreve" unicode="&#x103;" horiz-adv-x="1150" 
d="M580 1339q42 0 74 26t44 71t66 45q29 0 55 -26t8 -75q-25 -76 -93 -126t-154 -50q-88 0 -156 50t-92 126q-6 18 -6 39t20 41t59 20t58 -48q10 -41 43 -67t74 -26zM551 131q109 0 177 26t93 50v268q-177 45 -285 45t-178 -50t-69 -136q0 -203 262 -203zM821 702
q0 236 -241 236q-117 0 -258 -53q-49 -18 -84 2t-35 67t53 72q136 66 326 66t296 -94t107 -289v-545q0 -47 -35 -68q-53 -39 -169 -77t-249 -37q-197 0 -303 95t-106 245t106 245q106 94 306 95q127 0 286 -44v84z" />
    <glyph glyph-name="Aogonek" unicode="&#x104;" horiz-adv-x="1435" 
d="M692 1292q-39 0 -53 -41l-217 -612h539l-216 612q-14 41 -53 41zM1100 -190q0 -47 30 -73t74 -26q44 -1 70 19t50 20t43 -18t19 -48t-28 -53q-72 -53 -167 -53t-162 62t-66 163q0 160 198 273l-143 403h-653l-152 -428q-19 -53 -69 -53t-72 26t-21 52q0 26 4 37l426 1187
q57 156 212 156t208 -156l422 -1177q31 -78 -47 -119q-176 -90 -176 -194z" />
    <glyph glyph-name="aogonek" unicode="&#x105;" horiz-adv-x="1150" 
d="M289 334q0 -203 262 -203q174 0 268 59v285q-175 45 -283 45t-178 -50t-69 -136zM719 -184q0 -51 31 -79q30 -28 72 -28q42 1 74 23q62 43 97 -6q15 -23 11 -51t-27 -44q-68 -53 -165 -53t-164 62q-66 62 -66 160q0 97 59 188q-51 -6 -109 -6q-197 0 -303 95t-106 245
t106 245q106 94 306 95q125 0 284 -44v84q0 124 -61 180t-178 56t-258 -53q-49 -18 -84 2t-35 67t52 72t146 45t181 21q190 0 296 -94t107 -289v-566q0 -48 -55 -73q-211 -98 -211 -254z" />
    <glyph glyph-name="Cacute" unicode="&#x106;" horiz-adv-x="1355" 
d="M927 1825q22 -1 42 -21t20 -55t-39 -55l-276 -144q-16 -10 -41 -10t-44 20t-19 57q0 36 36 56l279 144q20 8 42 8zM727 141q123 0 223 67t148 177q23 53 78 53q28 0 54 -24t26 -46q0 -24 -7 -46q-61 -154 -205 -248t-317 -94q-243 0 -405 162t-179 409q-12 168 0 332
q17 247 179 409t405 162q174 0 317 -93t205 -247q6 -20 6 -46q1 -26 -25 -48t-54 -23q-55 0 -78 54q-48 111 -148 177t-223 64q-174 0 -287 -116t-126 -288t0 -342t126 -288q113 -117 287 -117z" />
    <glyph glyph-name="cacute" unicode="&#x107;" horiz-adv-x="1140" 
d="M790 1489q22 -1 41 -21q21 -20 21 -55t-39 -55l-276 -144q-16 -10 -41 -10t-44 20q-20 20 -20 57q0 36 37 56l279 144q20 8 42 8zM610 137q84 0 156 44t106 130q25 55 69 55t67 -23q23 -24 22 -60q0 -93 -116 -197t-308 -104t-320 118q-126 118 -135 278q-9 162 0 325
t137 276t319 113t305 -106t114 -195q0 -37 -22 -61t-56 -23q-55 0 -80 55q-35 86 -104 130q-70 44 -154 44q-129 0 -207 -71t-87 -189t-1 -270q10 -119 87 -194t208 -75z" />
    <glyph glyph-name="Cdotaccent" unicode="&#x10a;" horiz-adv-x="1355" 
d="M723 1743q39 0 65 -27q26 -28 27 -66q0 -38 -27 -65q-28 -27 -66 -27t-65 28q-27 26 -26 65t27 65t65 27zM727 141q123 0 223 67t148 177q23 53 78 53q28 0 54 -24t26 -46q0 -24 -7 -46q-61 -154 -205 -248t-317 -94q-243 0 -405 162t-179 409q-12 168 0 332
q17 247 179 409t405 162q174 0 317 -93t205 -247q6 -20 6 -46q1 -26 -25 -48t-54 -23q-55 0 -78 54q-48 111 -148 177t-223 64q-174 0 -287 -116t-126 -288t0 -342t126 -288q113 -117 287 -117z" />
    <glyph glyph-name="cdotaccent" unicode="&#x10b;" horiz-adv-x="1140" 
d="M602 1411q39 0 66 -27q26 -28 26 -66t-26 -65t-66 -27t-66 28q-26 26 -26 65t26 65t66 27zM610 137q84 0 156 44t106 130q25 55 69 55t67 -23q23 -24 22 -60q0 -93 -116 -197t-308 -104t-320 118q-126 118 -135 278q-9 162 0 325t137 276t319 113t305 -106t114 -195
q0 -37 -22 -61t-56 -23q-55 0 -80 55q-35 86 -104 130q-70 44 -154 44q-129 0 -207 -71t-87 -189t-1 -270q10 -119 87 -194t208 -75z" />
    <glyph glyph-name="Ccaron" unicode="&#x10c;" horiz-adv-x="1355" 
d="M708 1540q-24 0 -59 25l-190 143q-29 20 -29 53t20 53t46 21q27 0 49 -16l166 -125l166 125q23 16 49 16t47 -20t21 -52t-31 -55l-193 -143q-38 -25 -62 -25zM727 141q123 0 223 67t148 177q23 53 78 53q28 0 54 -24t26 -46q0 -24 -7 -46q-61 -154 -205 -248t-317 -94
q-243 0 -405 162t-179 409q-12 168 0 332q17 247 179 409t405 162q174 0 317 -93t205 -247q6 -20 6 -46q1 -26 -25 -48t-54 -23q-55 0 -78 54q-48 111 -148 177t-223 64q-174 0 -287 -116t-126 -288t0 -342t126 -288q113 -117 287 -117z" />
    <glyph glyph-name="ccaron" unicode="&#x10d;" horiz-adv-x="1140" 
d="M592 1204q-24 0 -57 25l-191 143q-29 20 -29 54q-1 34 19 53q20 20 47 20t49 -16l166 -125l166 125q24 16 50 16t46 -20t20 -52t-30 -55l-193 -143q-39 -25 -63 -25zM610 137q84 0 156 44t106 130q25 55 69 55t67 -23q23 -24 22 -60q0 -93 -116 -197t-308 -104t-320 118
q-126 118 -135 278q-9 162 0 325t137 276t319 113t305 -106t114 -195q0 -37 -22 -61t-56 -23q-55 0 -80 55q-35 86 -104 130q-70 44 -154 44q-129 0 -207 -71t-87 -189t-1 -270q10 -119 87 -194t208 -75z" />
    <glyph glyph-name="Dcaron" unicode="&#x10e;" horiz-adv-x="1472" 
d="M710 1540q-24 0 -59 25l-190 143q-29 20 -29 53t20 53t46 21q27 0 49 -16l166 -125l166 125q23 16 49 16t47 -20t21 -52t-31 -55l-193 -143q-38 -25 -62 -25zM688 0h-342q-66 0 -104 40t-37 99v1157q0 60 38 100t103 40h342q301 0 464 -166t179 -441q6 -117 0 -223
q-16 -274 -179 -440t-464 -166zM688 1274h-315v-1112h315q227 0 345 118t130 330q6 113 0 213q-10 211 -128 331t-347 120z" />
    <glyph glyph-name="dcaron" unicode="&#x10f;" horiz-adv-x="1292" 
d="M1159 1193q0 23 28 77t27 110v45q0 35 23 59t57 24t56 -24q23 -24 22 -59v-41q0 -106 -57 -206q-31 -52 -71 -52t-62 22t-23 45zM588 936q-252 0 -271 -260q-8 -125 0 -268q25 -270 289 -271q70 0 152 28t119 56v643q-123 72 -289 72zM877 1370q0 35 24 61q25 25 59 25
t59 -24q24 -24 23 -62v-1198q0 -43 -34 -68q-55 -38 -168 -80t-236 -42q-200 0 -318 110t-134 303q-12 144 0 289q16 195 127 301t303 107q147 0 295 -66v344z" />
    <glyph glyph-name="Dcroat" unicode="&#x110;" horiz-adv-x="1470" 
d="M373 162h313q229 0 348 119t129 329q6 106 0 215q-10 211 -129 330t-348 119h-313v-483h321q35 0 58 -23q22 -22 22 -56t-22 -57t-58 -22h-321v-471zM686 0h-340q-66 0 -104 40t-37 99v494h-133q-35 1 -57 23q-21 22 -21 56t22 56t56 23h133v505q0 60 37 100t104 40h340
q301 0 465 -166t178 -441q6 -113 0 -223q-14 -274 -178 -440t-465 -166z" />
    <glyph glyph-name="dcroat" unicode="&#x111;" horiz-adv-x="1232" 
d="M588 936q-252 0 -271 -262q-8 -123 0 -266q25 -270 289 -271q70 0 152 28t119 56v643q-123 72 -289 72zM877 1184h-199q-36 0 -58 22t-22 56q0 32 23 54t57 21h199v37q0 31 23 56q24 24 60 24t59 -24q24 -24 23 -56v-37h45q33 1 57 -21t24 -56t-24 -55q-24 -22 -57 -21
h-45v-1012q0 -43 -34 -68q-57 -42 -169 -82t-235 -40q-200 0 -318 110t-134 303q-12 144 0 289q16 195 127 301t303 107q147 0 295 -66v158z" />
    <glyph glyph-name="Emacron" unicode="&#x112;" horiz-adv-x="1280" 
d="M516 1720h336q29 0 49 -20q21 -20 21 -50t-20 -50t-50 -21h-336q-31 0 -51 20q-21 21 -21 51t20 50t52 20zM348 1436h707q35 0 59 -24t25 -58q0 -34 -26 -57q-26 -24 -58 -23h-682v-471h663q35 0 59 -23q23 -22 23 -56t-24 -58t-58 -23h-663v-481h686q33 0 59 -24t25 -58
q0 -34 -25 -56q-25 -24 -59 -24h-711q-68 0 -106 40t-37 99v1157q-1 60 37 100t106 40z" />
    <glyph glyph-name="emacron" unicode="&#x113;" horiz-adv-x="1171" 
d="M420 1389h336q29 -1 49 -21t20 -50t-20 -50t-49 -21h-336q-31 1 -51 21q-21 20 -21 50t20 50t52 21zM856 606q25 0 27 25q8 139 -68 225t-216 86t-216 -90t-72 -246h545zM1044 647v-61q0 -119 -120 -119h-613v-33q0 -141 84 -221q85 -80 203 -80t268 53q51 20 85 -4
t34 -64q0 -42 -47 -71t-140 -47t-184 -18q-210 0 -332 120t-132 320q-8 145 2 246q16 196 140 310t318 114t314 -124t120 -321z" />
    <glyph glyph-name="Edotaccent" unicode="&#x116;" horiz-adv-x="1280" 
d="M700 1743q39 0 66 -27q27 -28 27 -66t-27 -65t-66 -27q-40 0 -66 28q-26 26 -26 65t26 65t66 27zM348 1436h707q35 0 59 -24t25 -58q0 -34 -26 -57q-26 -24 -58 -23h-682v-471h663q35 0 59 -23q23 -22 23 -56t-24 -58t-58 -23h-663v-481h686q33 0 59 -24t25 -58
q0 -34 -25 -56q-25 -24 -59 -24h-711q-68 0 -106 40t-37 99v1157q-1 60 37 100t106 40z" />
    <glyph glyph-name="edotaccent" unicode="&#x117;" horiz-adv-x="1171" 
d="M588 1409q40 0 66 -27q26 -28 26 -66t-27 -65t-65 -27t-66 28q-27 26 -26 65q0 39 26 65t66 27zM856 606q25 0 27 25q8 139 -68 225t-216 86t-216 -90t-72 -246h545zM1044 647v-61q0 -119 -120 -119h-613v-33q0 -141 84 -221q85 -80 203 -80t268 53q51 20 85 -4t34 -64
q0 -42 -47 -71t-140 -47t-184 -18q-210 0 -332 120t-132 320q-8 145 2 246q16 196 140 310t318 114t314 -124t120 -321z" />
    <glyph glyph-name="Eogonek" unicode="&#x118;" horiz-adv-x="1294" 
d="M348 0q-68 0 -106 40t-37 99v1157q0 60 38 100t105 40h707q35 0 59 -24t25 -58q0 -34 -26 -57q-26 -24 -58 -23h-682v-471h663q35 0 59 -23q23 -22 23 -56t-24 -56t-58 -23h-663v-483h686q33 0 59 -24t25 -56q0 -57 -58 -76q-90 -29 -150 -84q-61 -56 -61 -110t28 -78
t72 -23q44 -1 74 21q61 43 97 -6q14 -23 10 -51t-27 -44q-72 -53 -168 -53t-158 60t-63 155q0 129 121 207h-512z" />
    <glyph glyph-name="eogonek" unicode="&#x119;" horiz-adv-x="1173" 
d="M856 606q25 0 27 25q10 139 -68 225t-217 86t-215 -90t-72 -246h545zM1044 649v-63q0 -119 -120 -119h-613v-33q0 -141 83 -221q82 -80 204 -80t268 53q51 20 85 -4t34 -68q0 -46 -53 -71q-229 -111 -230 -236q0 -47 29 -71t69 -25t72 21q62 42 99 -7q37 -51 -25 -99
t-158 -48t-162 60t-65 158q0 97 90 188q-221 -14 -356 106t-145 334q-8 141 2 246q16 194 140 308t318 114t314 -123t120 -320z" />
    <glyph glyph-name="Ecaron" unicode="&#x11a;" horiz-adv-x="1280" 
d="M697 1540q-24 0 -58 25l-190 143q-29 20 -29 53t19 53t46 21q27 0 50 -16l165 -125l166 125q24 16 50 16t46 -20t21 -52q0 -32 -31 -55l-192 -143q-39 -25 -63 -25zM348 1436h707q35 0 59 -24t25 -58q0 -34 -26 -57q-26 -24 -58 -23h-682v-471h663q35 0 59 -23
q23 -22 23 -56t-24 -58t-58 -23h-663v-481h686q33 0 59 -24t25 -58q0 -34 -25 -56q-25 -24 -59 -24h-711q-68 0 -106 40t-37 99v1157q-1 60 37 100t106 40z" />
    <glyph glyph-name="ecaron" unicode="&#x11b;" horiz-adv-x="1171" 
d="M586 1202q-24 0 -58 25l-190 143q-29 22 -29 54q-1 32 19 52t47 21q27 0 49 -16l166 -125l166 125q24 16 50 16t46 -20t20 -52t-30 -55l-193 -143q-39 -25 -63 -25zM856 606q25 0 27 25q8 139 -68 225t-216 86t-216 -90t-72 -246h545zM1044 647v-61q0 -119 -120 -119
h-613v-33q0 -141 84 -221q85 -80 203 -80t268 53q51 20 85 -4t34 -64q0 -42 -47 -71t-140 -47t-184 -18q-210 0 -332 120t-132 320q-8 145 2 246q16 196 140 310t318 114t314 -124t120 -321z" />
    <glyph glyph-name="Gbreve" unicode="&#x11e;" horiz-adv-x="1435" 
d="M737 1675q41 0 74 26q33 27 45 71t66 45q29 -1 49 -21t20 -40t-6 -40q-25 -76 -93 -126t-155 -50t-155 50t-93 126q-6 18 -6 39q1 21 21 41t59 20t58 -49q11 -41 43 -67t73 -25zM1296 627v-135q0 -211 -156 -362q-156 -150 -400 -150t-412 162t-185 409q-12 168 0 332
q19 243 187 407t411 164q175 0 311 -84t208 -231q8 -16 8 -45t-25 -54q-25 -24 -65 -24t-68 45q-53 109 -148 170t-219 61q-178 0 -297 -116t-133 -290t0 -342t134 -285q120 -118 294 -118t282 93t107 239v127h-292q-35 0 -61 25q-25 25 -25 59t26 56q26 24 60 24h317
q69 0 105 -39t36 -98z" />
    <glyph glyph-name="gbreve" unicode="&#x11f;" horiz-adv-x="1228" 
d="M612 1339q41 0 74 26t45 71t66 45q29 -1 49 -21t20 -40t-6 -40q-24 -76 -92 -126t-156 -50t-156 50t-87 113q-20 63 5 88t64 25t58 -48q10 -41 42 -67t74 -26zM602 934q-262 0 -287 -268q-10 -104 0 -238q18 -264 275 -264q94 0 173 28t111 56v612q-25 25 -114 50
q-88 24 -158 24zM1040 893v-799q0 -227 -127 -351t-322 -124t-335 86q-72 45 -72 81t20 60t55 25q36 0 91 -33q115 -66 234 -66q118 0 204 76t86 211v21q-147 -70 -318 -70t-283 110t-123 298q-8 129 0 258q12 188 129 302t317 114q123 0 240 -40t170 -77q34 -27 34 -82z
" />
    <glyph glyph-name="Gdotaccent" unicode="&#x120;" horiz-adv-x="1435" 
d="M737 1741q39 0 66 -27q27 -28 27 -66t-28 -65q-26 -27 -65 -27t-65 27t-27 66q1 39 27 65t65 27zM1296 627v-135q0 -211 -156 -362q-156 -150 -400 -150t-412 162t-185 409q-12 168 0 332q19 243 187 407t411 164q175 0 311 -84t208 -231q8 -16 8 -45t-25 -54
q-25 -24 -65 -24t-68 45q-53 109 -148 170t-219 61q-178 0 -297 -116t-133 -290t0 -342t134 -285q120 -118 294 -118t282 93t107 239v127h-292q-35 0 -61 25q-25 25 -25 59t26 56q26 24 60 24h317q69 0 105 -39t36 -98z" />
    <glyph glyph-name="gdotaccent" unicode="&#x121;" horiz-adv-x="1228" 
d="M612 1411q39 0 66 -27q27 -28 27 -66t-27 -65t-66 -27q-40 0 -66 28q-26 26 -26 65t26 65t66 27zM602 934q-262 0 -287 -268q-10 -104 0 -238q18 -264 275 -264q94 0 173 28t111 56v612q-25 25 -114 50q-88 24 -158 24zM1040 893v-799q0 -227 -127 -351t-322 -124
t-335 86q-72 45 -72 81t20 60t55 25q36 0 91 -33q115 -66 234 -66q118 0 204 76t86 211v21q-147 -70 -318 -70t-283 110t-123 298q-8 129 0 258q12 188 129 302t317 114q123 0 240 -40t170 -77q34 -27 34 -82z" />
    <glyph glyph-name="Gcommaaccent" unicode="&#x122;" horiz-adv-x="1435" 
d="M819 -143v-60q0 -102 -51 -196q-33 -57 -77 -57q-43 0 -65 23q-22 24 -22 48q0 23 24 71t23 117v54q0 35 25 59q26 24 60 23t58 -25t25 -57zM1296 627v-135q0 -211 -156 -362q-156 -150 -400 -150t-412 162t-185 409q-12 168 0 332q19 243 187 407t411 164q175 0 311 -84
t208 -231q8 -16 8 -45t-25 -54q-25 -24 -65 -24t-68 45q-53 109 -148 170t-219 61q-178 0 -297 -116t-133 -290t0 -342t134 -285q120 -118 294 -118t282 93t107 239v127h-292q-35 0 -61 25q-25 25 -25 59t26 56q26 24 60 24h317q69 0 105 -39t36 -98z" />
    <glyph glyph-name="gcommaaccent" unicode="&#x123;" horiz-adv-x="1228" 
d="M737 1505v-59q0 -102 -51 -197q-33 -57 -88 -57q-32 0 -54 24t-22 48t24 71t23 117v53q0 35 25 59q26 24 60 24t59 -25q24 -25 24 -58zM602 934q-262 0 -287 -268q-10 -104 0 -238q18 -264 275 -264q94 0 173 28t111 56v612q-25 25 -114 50q-88 24 -158 24zM1040 893
v-799q0 -227 -127 -351t-322 -124t-335 86q-72 45 -72 81t20 60t55 25q36 0 91 -33q115 -66 234 -66q118 0 204 76t86 211v21q-147 -70 -318 -70t-283 110t-123 298q-8 129 0 258q12 188 129 302t317 114q123 0 240 -40t170 -77q34 -27 34 -82z" />
    <glyph glyph-name="Imacron" unicode="&#x12a;" horiz-adv-x="577" 
d="M121 1720h336q29 0 49 -20t20 -50t-20 -50t-49 -21h-336q-31 0 -51 20q-20 21 -20 51t20 50t51 20zM203 78v1280q1 34 25 60t60 26t60 -25t23 -61v-1280q0 -37 -24 -62q-23 -24 -59 -24t-61 25q-24 26 -24 61z" />
    <glyph glyph-name="imacron" unicode="&#x12b;" horiz-adv-x="559" 
d="M279 1077q35 1 59 -25t24 -61v-915q0 -35 -24 -60q-24 -24 -58 -24q-36 0 -60 24t-23 60v915q0 35 23 61q24 25 59 25zM115 1389h336q29 -1 49 -21t20 -50t-20 -50t-49 -21h-336q-31 1 -51 21t-21 50q1 30 21 50t51 21z" />
    <glyph glyph-name="Iogonek" unicode="&#x12e;" horiz-adv-x="579" 
d="M205 1358q1 34 25 60t60 26t60 -25t23 -61v-1272q0 -63 -45 -84q-164 -80 -164 -192q0 -47 30 -73t70 -26q40 -1 70 21q62 44 99 -6q38 -52 -24 -100q-63 -48 -157 -48t-160 62t-65 163q0 163 178 265v1290z" />
    <glyph glyph-name="iogonek" unicode="&#x12f;" horiz-adv-x="559" 
d="M381 1346q0 -43 -30 -74q-31 -31 -73 -31t-71 31t-29 74q0 42 29 72t72 30t73 -30t29 -72zM197 991q0 37 23 62q24 25 58 25t60 -26q26 -24 24 -59v-909q0 -59 -43 -82q-156 -80 -155 -192q0 -47 30 -73t70 -26q40 -1 71 21q61 43 97 -7q37 -51 -25 -99q-63 -48 -157 -48
t-159 62t-64 163q0 161 170 267v921z" />
    <glyph glyph-name="Idotaccent" unicode="&#x130;" horiz-adv-x="577" 
d="M289 1743q39 0 65 -27q26 -28 27 -66q0 -38 -27 -65q-28 -27 -66 -27t-65 28q-27 26 -26 65t27 65t65 27zM203 78v1280q1 34 25 60t60 26t60 -25t23 -61v-1280q0 -37 -24 -62q-23 -24 -59 -24t-61 25q-24 26 -24 61z" />
    <glyph glyph-name="dotlessi" unicode="&#x131;" horiz-adv-x="559" 
d="M279 1077q35 1 59 -25t24 -61v-915q0 -35 -24 -60q-24 -24 -58 -24q-36 0 -60 24t-23 60v915q0 35 23 61q24 25 59 25z" />
    <glyph glyph-name="Kcommaaccent" unicode="&#x136;" horiz-adv-x="1288" 
d="M758 -270v-60q0 -102 -51 -196q-33 -58 -77 -58t-66 24t-22 48t24 72t24 116v54q0 34 24 58t60 24t60 -24t24 -58zM1239 77q0 -32 -25 -58q-26 -25 -58 -25t-56 24l-598 578q-31 31 -57 39t-72 8v-565q0 -37 -24 -62q-25 -24 -59 -24t-60 26t-25 60v1280q1 34 25 60
t60 26t60 -25t23 -61v-551q45 0 71 9t58 40l583 559q25 27 60 27t59 -25t23 -57q0 -32 -25 -57l-602 -572l614 -594q25 -28 25 -60z" />
    <glyph glyph-name="kcommaaccent" unicode="&#x137;" horiz-adv-x="1087" 
d="M668 -143v-60q0 -102 -52 -196q-33 -57 -77 -57q-43 0 -65 23q-22 24 -22 48q0 23 24 71t24 117v54q0 35 24 59t60 23t60 -25t24 -57zM946 1081q35 -1 59 -25q23 -24 23 -58t-24 -58l-404 -387l410 -416q57 -61 4 -121q-23 -26 -60 -24t-59 26l-391 402q-49 49 -113 49
h-37v-391q0 -37 -24 -62q-24 -24 -58 -24q-36 0 -60 26t-24 60v1292q0 35 24 60q24 24 58 24t60 -24q25 -24 24 -60v-739h35q68 0 115 47l383 377q24 26 59 26z" />
    <glyph glyph-name="Lacute" unicode="&#x139;" horiz-adv-x="1159" 
d="M582 1829q22 -1 42 -21t21 -55q0 -35 -39 -55l-276 -144q-16 -10 -41 -10t-44 20t-19 57q0 36 36 56l279 144q19 8 41 8zM207 133v1225q1 34 25 60t60 26t60 -25t23 -61v-1196h669q35 0 61 -24q25 -24 25 -58t-24 -58q-24 -22 -62 -22h-700q-63 0 -100 38t-37 95z" />
    <glyph glyph-name="lacute" unicode="&#x13a;" horiz-adv-x="559" 
d="M431 1827q22 -1 42 -21q21 -20 21 -55t-39 -55l-277 -144q-16 -10 -41 -10t-44 20t-19 57q0 36 37 56l278 144q20 8 42 8zM279 1454q35 0 59 -24t24 -60v-1292q0 -37 -24 -62q-24 -24 -58 -24q-36 0 -60 24t-23 62v1292q0 35 23 60q24 24 59 24z" />
    <glyph glyph-name="Lcommaaccent" unicode="&#x13b;" horiz-adv-x="1157" 
d="M752 -270v-60q0 -102 -52 -196q-33 -58 -77 -58q-43 0 -65 24t-22 48t24 72t24 116v54q0 34 24 58t60 24t60 -24t24 -58zM205 133v1225q1 34 25 60t60 26t60 -25t23 -61v-1196h669q35 0 61 -24q25 -24 25 -58t-24 -58q-24 -22 -62 -22h-700q-63 0 -100 38t-37 95z" />
    <glyph glyph-name="lcommaaccent" unicode="&#x13c;" horiz-adv-x="606" 
d="M406 -143v-60q0 -102 -52 -196q-33 -57 -77 -57q-43 0 -65 23q-22 24 -22 48q0 23 24 71t24 117v54q0 35 24 59t60 23t60 -25t24 -57zM326 1454q36 0 60 -24t24 -60v-1292q0 -37 -24 -62q-24 -24 -60 -24t-59 24q-24 24 -23 62v1292q0 35 23 60q24 24 59 24z" />
    <glyph glyph-name="Lcaron" unicode="&#x13d;" horiz-adv-x="1157" 
d="M598 1191q0 23 28 77t27 110v45q0 35 23 59q22 24 56 24t56 -24t23 -59v-41q0 -106 -57 -206q-31 -52 -71 -52q-41 0 -63 22t-22 45zM205 133v1225q1 34 25 60t60 26t60 -25t23 -61v-1196h669q35 0 61 -24q25 -24 25 -58t-24 -58q-24 -22 -62 -22h-700q-63 0 -100 38
t-37 95z" />
    <glyph glyph-name="lcaron" unicode="&#x13e;" horiz-adv-x="630" 
d="M553 1380v45q0 35 22 59q23 24 57 24t56 -24t23 -59v-41q-1 -106 -58 -206q-31 -52 -71 -52t-62 22t-22 45t28 77t27 110zM270 1454q35 0 60 -24t24 -60v-1292q0 -37 -24 -62q-24 -24 -59 -24t-59 24t-24 62v1292q0 36 24 60t58 24z" />
    <glyph glyph-name="Lslash" unicode="&#x141;" horiz-adv-x="1157" 
d="M205 133v416l-88 -53q-29 -18 -62 -12t-49 36q-16 29 -9 61t36 50l172 106v621q1 34 25 60t59 26t59 -26t25 -60v-518l194 121q29 18 61 10t49 -37t10 -61t-36 -48l-278 -174v-489h669q35 0 61 -24q25 -24 25 -58t-24 -58q-24 -22 -62 -22h-702q-63 0 -99 38t-36 95z" />
    <glyph glyph-name="lslash" unicode="&#x142;" horiz-adv-x="659" 
d="M332 1454q36 0 60 -24t24 -60v-475l90 57q26 16 58 12t48 -32q16 -27 8 -59t-32 -48l-172 -112v-635q0 -37 -24 -62q-24 -24 -60 -24t-59 24q-24 24 -23 62v528l-90 -57q-27 -16 -58 -9t-47 31q-16 29 -9 59t36 48l168 108v584q0 35 23 60q24 24 59 24z" />
    <glyph glyph-name="Nacute" unicode="&#x143;" horiz-adv-x="1574" 
d="M1002 1825q22 -1 42 -21t20 -55t-38 -55l-276 -144q-16 -10 -41 -10t-44 20t-19 57q0 36 36 56l279 144q19 8 41 8zM1208 199l-8 305v854q0 34 25 60t61 26t59 -25q24 -25 23 -61v-1219q0 -61 -38 -102t-97 -41q-88 0 -135 76l-727 1177h-4q6 -252 6 -317v-854
q0 -37 -24 -62q-25 -24 -59 -24t-60 26t-25 60v1214q0 62 40 106t103 44q92 0 139 -80l717 -1163h4z" />
    <glyph glyph-name="nacute" unicode="&#x144;" 
d="M779 1489q22 -1 42 -21q21 -20 21 -55t-39 -55l-277 -144q-16 -10 -41 -10t-44 20t-19 57q0 36 37 56l278 144q20 8 42 8zM1075 674v-596q-1 -37 -23 -62q-22 -24 -58 -24t-60 24t-25 62v588q0 132 -78 200t-196 68q-168 0 -283 -68v-788q0 -37 -24 -62q-24 -24 -58 -24
q-36 0 -60 24t-24 62v829q0 47 46 81t156 69t251 35q213 0 325 -108t111 -310z" />
    <glyph glyph-name="Ncommaaccent" unicode="&#x145;" horiz-adv-x="1574" 
d="M877 -270v-60q0 -102 -52 -196q-33 -58 -77 -58t-66 24t-20 48q0 24 24 72t23 116v54q1 34 25 58t59 24t59 -24t25 -58zM1208 199l-8 305v854q0 34 25 60t61 26t59 -25q24 -25 23 -61v-1219q0 -61 -38 -102t-97 -41q-88 0 -135 76l-727 1177h-4q6 -252 6 -317v-854
q0 -37 -24 -62q-25 -24 -59 -24t-60 26t-25 60v1214q0 62 40 106t103 44q92 0 139 -80l717 -1163h4z" />
    <glyph glyph-name="ncommaaccent" unicode="&#x146;" 
d="M711 -143v-60q0 -102 -52 -196q-33 -57 -77 -57t-66 23q-22 24 -20 48q0 23 24 71t23 117v54q1 35 25 59t59 23t59 -25t25 -57zM1075 674v-596q-1 -37 -23 -62q-22 -24 -58 -24t-60 24t-25 62v588q0 132 -78 200t-196 68q-168 0 -283 -68v-788q0 -37 -24 -62
q-24 -24 -58 -24q-36 0 -60 24t-24 62v829q0 47 46 81t156 69t251 35q213 0 325 -108t111 -310z" />
    <glyph glyph-name="Ncaron" unicode="&#x147;" horiz-adv-x="1574" 
d="M788 1540q-24 0 -59 25l-190 143q-29 20 -29 53t19 53t47 21q28 0 49 -16l166 -125l165 125q23 16 50 16t47 -20t20 -52t-31 -55l-192 -143q-38 -25 -62 -25zM1208 199l-8 305v854q0 34 25 60t61 26t59 -25q24 -25 23 -61v-1219q0 -61 -38 -102t-97 -41q-88 0 -135 76
l-727 1177h-4q6 -252 6 -317v-854q0 -37 -24 -62q-25 -24 -59 -24t-60 26t-25 60v1214q0 62 40 106t103 44q92 0 139 -80l717 -1163h4z" />
    <glyph glyph-name="ncaron" unicode="&#x148;" 
d="M618 1204q-24 0 -59 25l-190 143q-29 20 -29 54t19 53q19 20 47 20t49 -16l166 -125l165 125q23 16 50 16t47 -20t20 -52t-31 -55l-192 -143q-38 -25 -62 -25zM1075 674v-596q-1 -37 -23 -62q-22 -24 -58 -24t-60 24t-25 62v588q0 132 -78 200t-196 68q-168 0 -283 -68
v-788q0 -37 -24 -62q-24 -24 -58 -24q-36 0 -60 24t-24 62v829q0 47 46 81t156 69t251 35q213 0 325 -108t111 -310z" />
    <glyph glyph-name="Omacron" unicode="&#x14c;" horiz-adv-x="1492" 
d="M580 1720h335q29 0 49 -20t21 -50q0 -30 -20 -50t-50 -21h-335q-31 0 -52 20q-20 21 -20 51t20 50q21 20 52 20zM744 141q177 0 298 118q122 118 138 288t0 340t-138 288q-122 117 -298 117t-296 -116t-134 -288q-14 -171 -1 -341q14 -170 134 -288t297 -118zM744 -20
q-244 0 -414 164t-187 407q-12 168 0 332q17 243 187 407t414 164t417 -165q172 -165 189 -406q12 -164 0 -332q-16 -243 -188 -407t-418 -164z" />
    <glyph glyph-name="omacron" unicode="&#x14d;" horiz-adv-x="1212" 
d="M438 1389h336q29 -1 49 -21q21 -20 21 -50t-20 -50t-50 -21h-336q-31 1 -51 21t-20 50t20 50t51 21zM606 936q-127 0 -205 -73t-86 -199t1 -252q9 -127 88 -201t202 -74t202 74t88 201t1 253q-8 127 -86 199t-205 72zM606 1092q190 0 318 -113t139 -293q10 -147 0 -291
q-10 -180 -138 -297q-127 -116 -317 -116t-319 116t-139 297q-8 143 1 306t137 277t318 114z" />
    <glyph glyph-name="Ohungarumlaut" unicode="&#x150;" horiz-adv-x="1492" 
d="M813 1612q0 31 23 49l204 188q18 19 46 19t50 -20t22 -52q0 -31 -23 -51l-203 -186q-54 -41 -98 1q-22 20 -21 52zM510 1612q0 31 20 49l205 188q52 41 95 -2q22 -20 22 -51t-23 -51l-202 -186q-53 -43 -97 1q-20 20 -20 52zM744 141q177 0 298 118q122 118 138 288
t0 340t-138 288q-122 117 -298 117t-296 -116t-134 -288q-14 -171 -1 -341q14 -170 134 -288t297 -118zM744 -20q-244 0 -414 164t-187 407q-12 168 0 332q17 243 187 407t414 164t417 -165q172 -165 189 -406q12 -164 0 -332q-16 -243 -188 -407t-418 -164z" />
    <glyph glyph-name="ohungarumlaut" unicode="&#x151;" horiz-adv-x="1220" 
d="M984 1460q0 -31 -23 -51l-203 -186q-53 -41 -98 2q-22 20 -22 51t24 49l204 188q18 19 46 19t50 -20t22 -52zM336 1276q0 31 20 49l205 188q52 41 95 -2q22 -20 22 -51t-23 -51l-202 -186q-53 -43 -97 1q-20 20 -20 52zM606 936q-127 0 -205 -73t-86 -199t1 -252
q9 -127 88 -201t202 -74t202 74t88 201t1 253q-8 127 -86 199t-205 72zM606 1092q190 0 318 -113t139 -293q10 -147 0 -291q-10 -180 -138 -297q-127 -116 -317 -116t-319 116t-139 297q-8 143 1 306t137 277t318 114z" />
    <glyph glyph-name="OE" unicode="&#x152;" horiz-adv-x="2189" 
d="M793 1292q-227 0 -351 -127t-133 -338q-6 -115 0 -233q10 -207 133 -330t351 -123q180 1 313 19v1116q-156 16 -313 16zM1966 0h-774q-27 0 -158 -10t-243 -10q-297 0 -466 168t-184 440q-6 123 0 246q13 272 185 446t467 174q104 0 246 -9t202 -9h721q34 0 60 -24
t26 -58t-26 -57q-26 -24 -60 -23h-690v-471h674q34 0 58 -23q24 -22 24 -56t-25 -56t-57 -23h-674v-483h694q34 0 60 -24t26 -58t-26 -56q-26 -24 -60 -24z" />
    <glyph glyph-name="oe" unicode="&#x153;" horiz-adv-x="1925" 
d="M606 936q-127 0 -205 -73t-86 -199t1 -252q9 -127 88 -201t202 -74t202 74t88 201t1 253q-8 127 -86 199t-205 72zM1347 942q-141 0 -217 -90t-71 -246h545q23 0 26 25q8 139 -67 225q-76 86 -216 86zM1792 647v-61q0 -119 -119 -119h-614v-33q0 -143 85 -222
q86 -79 204 -79t264 53q51 20 86 -4t35 -66q0 -81 -186 -116q-93 -18 -181 -18q-264 0 -385 186q-129 -186 -375 -186q-188 0 -317 118t-139 295q-8 143 1 306t137 277t318 114q250 0 379 -187q123 186 373 187q198 0 316 -124t118 -321z" />
    <glyph glyph-name="Racute" unicode="&#x154;" horiz-adv-x="1388" 
d="M888 1825q22 -1 42 -21t20 -55t-39 -55l-276 -144q-16 -10 -41 -10t-44 20q-20 20 -20 57q0 36 37 56l279 144q20 8 42 8zM373 721h368q313 0 314 274q0 131 -76 205t-227 74h-379v-553zM1268 78q0 -33 -26 -60q-26 -26 -62 -26t-60 28l-385 476q-29 35 -53 50t-61 15
h-248v-483q0 -35 -26 -61q-27 -25 -59 -25t-58 26t-25 60v1220q0 58 37 98t102 40h418q197 0 330 -117t133 -309t-93 -291q-93 -100 -255 -127l372 -461q19 -20 19 -53z" />
    <glyph glyph-name="racute" unicode="&#x155;" horiz-adv-x="772" 
d="M620 1487q22 -1 42 -21t20 -55t-39 -55l-276 -144q-16 -10 -41 -10t-44 20q-20 20 -20 57q0 36 37 56l279 144q20 8 42 8zM752 991q0 -29 -22 -53t-49 -23t-81 9t-92 8q-166 -2 -166 -184v-672q0 -35 -25 -60q-25 -24 -59 -24t-60 24q-24 24 -24 60v690q0 152 87 239
t247 87q106 0 178 -23q66 -16 66 -78z" />
    <glyph glyph-name="Rcommaaccent" unicode="&#x156;" horiz-adv-x="1388" 
d="M776 -270v-60q0 -102 -51 -196q-33 -58 -77 -58t-66 24t-21 48q0 24 24 72t23 116v54q0 34 25 58t59 24t60 -24q24 -24 24 -58zM373 721h368q313 0 314 274q0 131 -76 205t-227 74h-379v-553zM1268 78q0 -33 -26 -60q-26 -26 -62 -26t-60 28l-385 476q-29 35 -53 50
t-61 15h-248v-483q0 -35 -26 -61q-27 -25 -59 -25t-58 26t-25 60v1220q0 58 37 98t102 40h418q197 0 330 -117t133 -309t-93 -291q-93 -100 -255 -127l372 -461q19 -20 19 -53z" />
    <glyph glyph-name="rcommaaccent" unicode="&#x157;" horiz-adv-x="772" 
d="M344 -143v-60q0 -102 -51 -196q-33 -57 -77 -57t-66 23q-22 24 -21 48q0 23 24 71t23 117v54q0 35 25 59t59 23t60 -25q24 -24 24 -57zM752 991q0 -29 -22 -53t-49 -23t-81 9t-92 8q-166 -2 -166 -184v-672q0 -35 -25 -60q-25 -24 -59 -24t-60 24q-24 24 -24 60v690
q0 152 87 239t247 87q106 0 178 -23q66 -16 66 -78z" />
    <glyph glyph-name="Rcaron" unicode="&#x158;" horiz-adv-x="1388" 
d="M691 1540q-24 0 -58 25l-191 143q-28 20 -28 53t19 53t46 21q27 0 49 -16l166 -125l166 125q24 16 50 16t46 -20t20 -52t-30 -55l-192 -143q-39 -25 -63 -25zM373 721h368q313 0 314 274q0 131 -76 205t-227 74h-379v-553zM1268 78q0 -33 -26 -60q-26 -26 -62 -26t-60 28
l-385 476q-29 35 -53 50t-61 15h-248v-483q0 -35 -26 -61q-27 -25 -59 -25t-58 26t-25 60v1220q0 58 37 98t102 40h418q197 0 330 -117t133 -309t-93 -291q-93 -100 -255 -127l372 -461q19 -20 19 -53z" />
    <glyph glyph-name="rcaron" unicode="&#x159;" horiz-adv-x="772" 
d="M454 1202q-24 0 -59 25l-190 143q-29 22 -29 54t20 52t46 21q27 0 49 -16l166 -125l166 125q23 16 49 16t47 -20t21 -52t-31 -55l-193 -143q-38 -25 -62 -25zM752 991q0 -29 -22 -53t-49 -23t-81 9t-92 8q-166 -2 -166 -184v-672q0 -35 -25 -60q-25 -24 -59 -24t-60 24
q-24 24 -24 60v690q0 152 87 239t247 87q106 0 178 -23q66 -16 66 -78z" />
    <glyph glyph-name="Sacute" unicode="&#x15a;" horiz-adv-x="1267" 
d="M832 1825q22 -1 42 -21t20 -55t-38 -55l-276 -144q-16 -10 -41 -10t-44 20t-19 57q0 36 36 56l279 144q19 8 41 8zM1178 396q0 -180 -140 -299q-140 -117 -397 -117q-258 0 -477 149q-43 27 -43 69q1 42 25 66t56 25q32 0 66 -25q174 -121 394 -121q164 0 254 69t92 179
q0 109 -79 161t-311 97t-350 138q-116 93 -116 269t136 287t357 111q125 0 235 -32t169 -83q33 -27 33 -65t-24 -61q-43 -44 -120 -3q-152 82 -306 82t-233 -68q-77 -68 -77 -170q0 -103 75 -155q76 -51 281 -92q272 -51 386 -141t114 -270z" />
    <glyph glyph-name="sacute" unicode="&#x15b;" horiz-adv-x="1001" 
d="M669 1489q22 -1 42 -21t20 -55t-39 -55l-276 -144q-16 -10 -41 -10t-44 20t-19 57q0 36 36 56l279 144q20 8 42 8zM913 309q-1 -151 -109 -239t-310 -88t-342 114q-25 20 -29 54t12 57q47 61 115 16q64 -47 122 -69t159 -23q101 0 160 48q58 48 59 122q0 105 -154 143
t-158 39q-289 74 -288 291q0 146 106 232t280 86t289 -88q29 -23 30 -60t-19 -55q-43 -49 -111 -10q-104 61 -199 61q-215 0 -215 -160q-1 -98 135 -134q64 -17 129 -32l66 -16q272 -70 272 -289z" />
    <glyph glyph-name="Scedilla" unicode="&#x15e;" horiz-adv-x="1267" 
d="M121 198q-1 42 25 66t57 25q31 0 65 -25q176 -123 394 -123q162 0 254 70t92 180q0 109 -79 161t-311 97t-350 138q-116 93 -116 269t136 287t380 111t383 -119q31 -27 31 -61t-24 -60q-42 -47 -120 -4q-139 82 -300 82t-239 -68q-77 -68 -77 -170q0 -103 75 -155
q76 -51 281 -92q272 -51 386 -141t114 -270t-136 -296q-136 -117 -374 -118l-31 -74q82 -6 131 -56t49 -126q0 -170 -252 -254q-35 -12 -65 4t-31 60q0 44 51 61q92 37 124 65t32 54q0 28 -18 47t-46 20l-61 -8q-35 -1 -54 27t-5 61l45 123q-205 27 -373 143q-43 27 -43 69z
" />
    <glyph glyph-name="scedilla" unicode="&#x15f;" horiz-adv-x="1001" 
d="M537 1092q175 0 292 -93q27 -20 27 -56t-18 -54q-43 -49 -113 -10q-109 61 -199 61q-215 0 -215 -160q-1 -101 135 -135q187 -47 197 -47q270 -68 270 -289q0 -135 -88 -221t-239 -102l-31 -78q82 -6 132 -56t50 -126q0 -170 -252 -254q-35 -12 -65 4t-31 60q0 44 51 61
q94 37 125 63t31 54q0 26 -17 46t-47 21l-61 -6q-35 -1 -53 27t-6 61l43 121q-188 16 -303 112q-23 20 -28 54t11 57q47 61 115 16q47 -33 75 -48q82 -44 195 -44q112 0 171 48q58 48 59 122q0 106 -164 148q-25 6 -64 14t-84 20q-289 74 -288 291q0 142 106 230t281 88z
" />
    <glyph glyph-name="Scaron" unicode="&#x160;" horiz-adv-x="1267" 
d="M634 1536q-24 0 -59 25l-190 143q-29 20 -29 53t20 53t46 20q27 0 49 -15l166 -125l166 125q23 16 49 16q26 -1 47 -21t21 -52t-31 -54l-193 -143q-38 -25 -62 -25zM1178 396q0 -180 -140 -299q-140 -117 -397 -117q-258 0 -477 149q-43 27 -43 69q1 42 25 66t56 25
q32 0 66 -25q174 -121 394 -121q164 0 254 69t92 179q0 109 -79 161t-311 97t-350 138q-116 93 -116 269t136 287t357 111q125 0 235 -32t169 -83q33 -27 33 -65t-24 -61q-43 -44 -120 -3q-152 82 -306 82t-233 -68q-77 -68 -77 -170q0 -103 75 -155q76 -51 281 -92
q272 -51 386 -141t114 -270z" />
    <glyph glyph-name="scaron" unicode="&#x161;" horiz-adv-x="1001" 
d="M219 1401q-1 33 19 53t47 20t49 -16l166 -125l166 125q55 39 96 -4q20 -20 20 -52t-30 -54l-193 -144q-39 -24 -63 -24t-58 24l-190 144q-29 20 -29 53zM913 309q-1 -151 -109 -239t-310 -88t-342 114q-25 20 -29 54t12 57q47 61 115 16q64 -47 122 -69t159 -23
q101 0 160 48q58 48 59 122q0 105 -154 143t-158 39q-289 74 -288 291q0 146 106 232t280 86t289 -88q29 -23 30 -60t-19 -55q-43 -49 -111 -10q-104 61 -199 61q-215 0 -215 -160q-1 -98 135 -134q64 -17 129 -32l66 -16q272 -70 272 -289z" />
    <glyph glyph-name="Tcommaaccent" unicode="&#x162;" horiz-adv-x="1228" 
d="M700 -270v-60q0 -102 -51 -196q-33 -58 -77 -58t-66 24t-21 48q0 24 24 72t23 116v54q0 34 25 58t59 24t60 -24q24 -24 24 -58zM532 78v1196h-409q-35 0 -61 24t-26 58q0 36 26 58q24 22 61 22h983q36 0 60 -23t24 -57t-25 -59q-25 -24 -59 -23h-406v-1196q0 -35 -24 -61
q-24 -25 -60 -25t-60 26t-24 60z" />
    <glyph glyph-name="tcommaaccent" unicode="&#x163;" horiz-adv-x="837" 
d="M549 -143v-60q0 -102 -51 -196q-33 -57 -77 -57t-66 23q-21 24 -21 48q0 23 24 71t23 117v54q0 35 25 59q26 24 60 23t58 -25t25 -57zM174 319v891q0 35 24 60q24 24 58 24t60 -24q24 -24 24 -60v-168h309q31 0 55 -22t23 -54q0 -30 -24 -53t-54 -22h-309v-578
q0 -82 39 -130t119 -48q37 0 164 37q50 12 78 -12t28 -72q0 -49 -79 -78t-200 -28q-159 0 -237 93t-78 244z" />
    <glyph glyph-name="Tcaron" unicode="&#x164;" horiz-adv-x="1228" 
d="M611 1540q-24 0 -58 25l-191 143q-28 20 -28 53t19 53t46 21q27 0 50 -16l165 -125l166 125q24 16 50 16t46 -20t21 -52q0 -32 -31 -55l-192 -143q-39 -25 -63 -25zM532 78v1196h-409q-35 0 -61 24t-26 58q0 36 26 58q24 22 61 22h983q36 0 60 -23t24 -57t-25 -59
q-25 -24 -59 -23h-406v-1196q0 -35 -24 -61q-24 -25 -60 -25t-60 26t-24 60z" />
    <glyph glyph-name="tcaron" unicode="&#x165;" horiz-adv-x="833" 
d="M438 1193q0 23 28 77t28 110v45q0 35 22 59t56 24t57 -24t22 -59v-41q0 -106 -57 -206q-31 -52 -71 -52q-41 0 -63 22t-22 45zM174 319v891q0 35 24 60q24 24 58 24t60 -24q24 -24 24 -60v-168h309q31 0 55 -22t23 -54q0 -30 -24 -53t-54 -22h-309v-578q0 -82 39 -130
t119 -48q37 0 164 37q50 12 78 -12t28 -72q0 -49 -79 -78t-200 -28q-159 0 -237 93t-78 244z" />
    <glyph glyph-name="Umacron" unicode="&#x16a;" horiz-adv-x="1531" 
d="M598 1718h336q29 0 49 -20q21 -20 21 -50t-20 -50t-50 -21h-336q-31 0 -51 20q-21 21 -21 51t20 50t52 20zM1346 1358v-776q0 -266 -164 -434t-416 -168t-416 168t-164 434v776q0 34 25 60t59 26t60 -26q25 -26 24 -60v-774q0 -201 116 -322t296 -121t296 121t116 322
v774q0 34 24 60t60 26t60 -26t24 -60z" />
    <glyph glyph-name="umacron" unicode="&#x16b;" 
d="M457 1389h336q29 -1 49 -21t20 -50t-20 -50t-49 -21h-336q-31 1 -51 21t-20 50t20 50t51 21zM172 399v592q0 35 24 61t58 26t60 -26q24 -26 24 -61v-594q0 -121 73 -189t221 -69q148 0 263 76v776q0 35 24 61q25 26 59 26t58 -26t25 -61v-819q0 -45 -35 -68
q-176 -122 -396 -122t-338 109q-120 109 -120 308z" />
    <glyph glyph-name="Uring" unicode="&#x16e;" horiz-adv-x="1531" 
d="M676 1738q0 -38 26 -65t65 -27q37 0 63 28q26 26 26 64t-26 64t-64 27q-38 -1 -64 -27t-26 -64zM767 1542q-81 0 -139 58t-59 138q1 81 59 139t139 58t138 -58t57 -139q0 -80 -56 -138q-58 -58 -139 -58zM1346 1358v-776q0 -266 -164 -434t-416 -168t-416 168t-164 434
v776q0 34 25 60t59 26t60 -26q25 -26 24 -60v-774q0 -201 116 -322t296 -121t296 121t116 322v774q0 34 24 60t60 26t60 -26t24 -60z" />
    <glyph glyph-name="uring" unicode="&#x16f;" 
d="M535 1402q1 -38 27 -65t64 -27t64 28q26 26 25 64q0 38 -26 64q-25 26 -63 27q-38 -1 -64 -27t-27 -64zM428 1402q0 81 58 139t140 58t138 -58q57 -58 57 -139t-57 -138q-57 -58 -138 -58q-82 0 -140 58t-58 138zM172 399v592q0 35 24 61t58 26t60 -26q24 -26 24 -61
v-594q0 -121 73 -189t221 -69q148 0 263 76v776q0 35 24 61q25 26 59 26t58 -26t25 -61v-819q0 -45 -35 -68q-176 -122 -396 -122t-338 109q-120 109 -120 308z" />
    <glyph glyph-name="Uhungarumlaut" unicode="&#x170;" horiz-adv-x="1531" 
d="M1182 1796q0 -31 -23 -51l-203 -186q-53 -42 -97 2q-21 20 -21 51t22 49l205 188q18 19 46 19q27 0 49 -20t22 -52zM535 1612q0 31 20 49l205 188q52 41 95 -2q22 -20 22 -51t-23 -51l-203 -186q-23 -19 -49 -19t-47 20q-20 20 -20 52zM1346 1358v-776q0 -266 -164 -434
t-416 -168t-416 168t-164 434v776q0 34 25 60t59 26t60 -26q25 -26 24 -60v-774q0 -201 116 -322t296 -121t296 121t116 322v774q0 34 24 60t60 26t60 -26t24 -60z" />
    <glyph glyph-name="uhungarumlaut" unicode="&#x171;" 
d="M684 1278q0 31 23 49l204 189q18 18 46 18t50 -20t22 -52q0 -31 -23 -51l-203 -186q-53 -41 -97 1q-22 20 -22 52zM381 1278q0 31 20 49l205 189q22 18 48 18t48 -20t21 -52q0 -31 -23 -51l-202 -186q-52 -43 -96 1q-20 20 -21 52zM172 399v592q0 35 24 61t58 26t60 -26
q24 -26 24 -61v-594q0 -121 73 -189t221 -69q148 0 263 76v776q0 35 24 61q25 26 59 26t58 -26t25 -61v-819q0 -45 -35 -68q-176 -122 -396 -122t-338 109q-120 109 -120 308z" />
    <glyph glyph-name="Uogonek" unicode="&#x172;" horiz-adv-x="1531" 
d="M776 -185q0 -52 29 -78t72 -26q43 -1 75 21q62 42 97 -6q16 -23 12 -51t-27 -44q-72 -53 -168 -53t-163 62t-67 161q0 98 79 183q-233 16 -381 181q-147 165 -148 417v768q0 34 25 60t59 26t60 -26q25 -26 24 -60v-766q0 -201 116 -322t296 -121t296 121t116 322v766
q0 34 24 60t60 26t60 -26t24 -60v-768q0 -205 -100 -355t-271 -213q-99 -37 -149 -92t-50 -107z" />
    <glyph glyph-name="uogonek" unicode="&#x173;" horiz-adv-x="1269" 
d="M1061 983v-840q0 -47 -53 -73q-213 -96 -213 -252q1 -51 31 -79t75 -28q45 1 73 23t54 17q27 -5 43 -27t11 -48q-5 -27 -27 -43q-76 -55 -169 -55t-160 62t-67 162q0 99 62 186q-53 -6 -109 -6q-200 0 -320 110t-120 307v584q0 37 24 61t58 25q34 0 60 -25q24 -25 24 -61
v-586q0 -119 75 -189t199 -69q184 0 283 58v786q0 37 24 61q23 24 59 25q36 -1 60 -25t23 -61z" />
    <glyph glyph-name="Wcircumflex" unicode="&#x174;" horiz-adv-x="1937" 
d="M754 1540q-26 0 -46 20t-20 54q0 33 29 53l190 143q35 25 59 25t62 -25l193 -143q31 -23 31 -55t-21 -51q-20 -21 -47 -21t-49 16l-166 125l-166 -125q-23 -16 -49 -16zM76 1370q0 24 22 48t56 24t58 -18t28 -44l258 -1241q2 -4 6 -4t6 4l305 1176q14 59 56 92
q41 33 91 33t92 -33t56 -92l303 -1176q2 -6 6 -6t6 6l265 1241q16 61 82 62q39 0 65 -31t14 -74l-286 -1231q-13 -59 -55 -92q-42 -32 -91 -32t-92 32t-57 90l-303 1168q-2 4 -5 4t-6 -4l-307 -1168q-16 -59 -56 -92q-40 -32 -90 -32t-93 34t-56 95l-276 1228q-2 9 -2 33z
" />
    <glyph glyph-name="wcircumflex" unicode="&#x175;" horiz-adv-x="1662" 
d="M1114 1274q0 -32 -20 -51q-20 -21 -48 -21t-49 17l-166 124l-165 -124q-55 -39 -96 4q-19 20 -19 52t29 54l190 144q34 25 58 25t63 -25l192 -144q31 -23 31 -55zM833 895q-9 0 -10 -8l-209 -783q-33 -129 -147 -129q-55 0 -96 33t-58 94l-237 861q-12 47 10 83
q23 36 74 36t67 -60l232 -864q5 -16 12 -12q6 5 8 12l207 803q14 55 55 88t93 33t93 -34q40 -32 54 -90l207 -800q5 -16 12 -12q6 5 8 12l224 858q12 66 81 65q43 0 66 -37t10 -81l-239 -861q-36 -127 -154 -127t-149 127l-203 785q-2 8 -11 8z" />
    <glyph glyph-name="Ycircumflex" unicode="&#x176;" horiz-adv-x="1325" 
d="M946 1612q0 -32 -20 -51q-20 -21 -47 -21t-50 16l-165 125l-166 -125q-24 -16 -50 -16t-46 20t-19 54q0 33 29 53l190 143q34 25 58 25t63 -25l192 -143q31 -23 31 -55zM1204 1444q37 0 63 -25q25 -25 25 -59t-20 -55l-471 -578q-3 -6 -13 -16q-10 -9 -13 -15t-17 -24
t-13 -62v-532q1 -37 -23 -62q-24 -24 -58 -24t-61 26q-26 26 -25 60v532q0 29 -6 40q-6 12 -6 18q-2 14 -14 25q-12 12 -30 36l-469 574q-20 23 -20 57q-1 34 25 58t64 24t62 -31l478 -598l479 598q26 33 63 33z" />
    <glyph glyph-name="ycircumflex" unicode="&#x177;" horiz-adv-x="1048" 
d="M819 1276q0 -32 -20 -51q-20 -21 -47 -21t-50 17l-165 125l-166 -125q-55 -39 -96 4q-19 20 -19 53t29 53l190 144q35 25 59 25t62 -25l192 -144q31 -23 31 -55zM134 1075q48 0 77 -59l317 -731q8 -16 17 0l289 725q24 66 76 66t77 -39q25 -38 6 -81l-385 -933
q-57 -137 -136 -243q-130 -174 -222 -171q-34 -1 -58 21t-24 64t39 64q163 95 237 310l-389 888q-18 45 6 82q25 37 73 37z" />
    <glyph glyph-name="Ydieresis" unicode="&#x178;" horiz-adv-x="1325" 
d="M823 1454q-39 0 -65 27t-27 65q1 38 27 66q26 26 66 26t66 -26t26 -66t-28 -66q-26 -26 -65 -26zM499 1638q41 0 67 -26t26 -66t-27 -66t-65 -26t-66 27q-26 27 -26 65t25 66q26 26 66 26zM1204 1444q37 0 63 -25q25 -25 25 -59t-20 -55l-471 -578q-3 -6 -13 -16
q-10 -9 -13 -15t-17 -24t-13 -62v-532q1 -37 -23 -62q-24 -24 -58 -24t-61 26q-26 26 -25 60v532q0 29 -6 40q-6 12 -6 18q-2 14 -14 25q-12 12 -30 36l-469 574q-20 23 -20 57q-1 34 25 58t64 24t62 -31l478 -598l479 598q26 33 63 33z" />
    <glyph glyph-name="Zacute" unicode="&#x179;" horiz-adv-x="1200" 
d="M787 1825q22 -1 42 -21q21 -20 21 -55t-39 -55l-276 -144q-16 -10 -41 -10t-44 20q-20 20 -20 57q0 36 37 56l278 144q20 8 42 8zM1036 0h-780q-70 0 -111 38t-41 92t41 108l748 1036h-694q-35 0 -60 22t-25 58q0 34 26 58q24 24 59 24h731q70 0 110 -38t39 -89
q0 -51 -47 -121l-741 -1026h745q35 0 61 -24q25 -24 25 -58t-24 -58q-24 -22 -62 -22z" />
    <glyph glyph-name="zacute" unicode="&#x17a;" horiz-adv-x="1005" 
d="M697 1489q22 -1 42 -21q21 -20 21 -55t-39 -55l-277 -144q-16 -10 -40 -10t-44 20t-20 57q0 36 37 56l278 144q20 8 42 8zM829 154q35 0 59 -22t24 -54t-24 -56q-24 -22 -59 -22h-593q-66 0 -106 36t-40 91t41 106l608 668h-538q-33 0 -58 22q-25 23 -25 55t26 54
q24 22 57 23h569q63 0 101 -33q38 -32 43 -92t-50 -121l-596 -655h561z" />
    <glyph glyph-name="Zdotaccent" unicode="&#x17b;" horiz-adv-x="1200" 
d="M598 1743q39 0 66 -27q26 -28 26 -66t-26 -65t-66 -27q-39 0 -66 28q-27 26 -26 65q0 39 26 65t66 27zM1036 0h-780q-70 0 -111 38t-41 92t41 108l748 1036h-694q-35 0 -60 22t-25 58q0 34 26 58q24 24 59 24h731q70 0 110 -38t39 -89q0 -51 -47 -121l-741 -1026h745
q35 0 61 -24q25 -24 25 -58t-24 -58q-24 -22 -62 -22z" />
    <glyph glyph-name="zdotaccent" unicode="&#x17c;" horiz-adv-x="1005" 
d="M494 1409q40 0 66 -27q26 -28 26 -66t-27 -65t-65 -27t-66 28q-27 26 -27 65t27 65t66 27zM829 154q35 0 59 -22t24 -54t-24 -56q-24 -22 -59 -22h-593q-66 0 -106 36t-40 91t41 106l608 668h-538q-33 0 -58 22q-25 23 -25 55t26 54q24 22 57 23h569q63 0 101 -33
q38 -32 43 -92t-50 -121l-596 -655h561z" />
    <glyph glyph-name="Zcaron" unicode="&#x17d;" horiz-adv-x="1200" 
d="M613 1540q-24 0 -58 25l-190 143q-29 20 -29 53t19 53t47 21q28 0 49 -16l165 -125l166 125q24 16 50 16t46 -20t21 -52q0 -32 -31 -55l-192 -143q-39 -25 -63 -25zM1036 0h-780q-70 0 -111 38t-41 92t41 108l748 1036h-694q-35 0 -60 22t-25 58q0 34 26 58q24 24 59 24
h731q70 0 110 -38t39 -89q0 -51 -47 -121l-741 -1026h745q35 0 61 -24q25 -24 25 -58t-24 -58q-24 -22 -62 -22z" />
    <glyph glyph-name="zcaron" unicode="&#x17e;" horiz-adv-x="1005" 
d="M486 1204q-24 0 -58 25l-190 143q-29 20 -29 54t19 53q18 20 46 20t50 -16l165 -125l166 125q23 16 49 16t48 -20q20 -20 20 -52t-31 -55l-192 -143q-39 -25 -63 -25zM829 154q35 0 59 -22t24 -54t-24 -56q-24 -22 -59 -22h-593q-66 0 -106 36t-40 91t41 106l608 668
h-538q-33 0 -58 22q-25 23 -25 55t26 54q24 22 57 23h569q63 0 101 -33q38 -32 43 -92t-50 -121l-596 -655h561z" />
    <glyph glyph-name="florin" unicode="&#x192;" horiz-adv-x="1175" 
d="M840 797q34 0 58 -22q24 -21 24 -55t-24 -56t-58 -23h-351l-303 -995q-10 -34 -41 -52t-63 -8t-50 43q-17 33 -5 72l288 940h-92q-33 0 -57 23q-24 22 -25 56q0 34 24 56t58 21h142l129 413q35 119 122 181q88 61 205 61q201 0 318 -121q23 -23 23 -57t-26 -58
q-24 -24 -55 -22t-57 29q-76 71 -174 71t-140 -34t-65 -109l-108 -354h303z" />
    <glyph glyph-name="Scommaaccent" unicode="&#x218;" horiz-adv-x="1267" 
d="M739 -143v-60q0 -102 -51 -196q-33 -57 -77 -57q-43 0 -65 23q-22 24 -22 48q0 23 24 71t23 117v54q0 35 25 59q26 24 60 23t58 -25t25 -57zM1178 396q0 -180 -140 -299q-140 -117 -397 -117q-258 0 -477 149q-43 27 -43 69q1 42 25 66t56 25q32 0 66 -25
q174 -121 394 -121q164 0 254 69t92 179q0 109 -79 161t-311 97t-350 138q-116 93 -116 269t136 287t357 111q125 0 235 -32t169 -83q33 -27 33 -65t-24 -61q-43 -44 -120 -3q-152 82 -306 82t-233 -68q-77 -68 -77 -170q0 -103 75 -155q76 -51 281 -92q272 -51 386 -141
t114 -270z" />
    <glyph glyph-name="scommaaccent" unicode="&#x219;" horiz-adv-x="1001" 
d="M614 -143v-60q0 -102 -51 -196q-33 -57 -77 -57t-66 23q-22 24 -21 48q0 23 24 71t23 117v54q0 35 25 59t59 23t60 -25q24 -24 24 -57zM913 309q-1 -151 -109 -239t-310 -88t-342 114q-25 20 -29 54t12 57q47 61 115 16q64 -47 122 -69t159 -23q101 0 160 48
q58 48 59 122q0 105 -154 143t-158 39q-289 74 -288 291q0 146 106 232t280 86t289 -88q29 -23 30 -60t-19 -55q-43 -49 -111 -10q-104 61 -199 61q-215 0 -215 -160q-1 -98 135 -134q64 -17 129 -32l66 -16q272 -70 272 -289z" />
    <glyph glyph-name="circumflex" unicode="&#x2c6;" horiz-adv-x="737" 
d="M649 1608q0 -32 -20 -52t-47 -20t-50 16l-165 125l-166 -125q-23 -16 -49 -16t-47 20q-19 20 -19 52t29 55l190 143q35 25 59 25t62 -25l192 -143q31 -23 31 -55z" />
    <glyph glyph-name="caron" unicode="&#x2c7;" horiz-adv-x="737" 
d="M364 1536q-24 0 -59 25l-190 143q-29 20 -29 53t19 53t47 20t49 -15l166 -125l165 125q23 16 50 16q27 -1 47 -21t20 -52t-31 -54l-192 -143q-38 -25 -62 -25z" />
    <glyph glyph-name="breve" unicode="&#x2d8;" horiz-adv-x="737" 
d="M369 1686q41 0 73 26t45 70q12 45 66 45q29 0 55 -26t8 -75q-24 -76 -92 -126t-156 -50t-155 50q-68 50 -92 126q-6 18 -6 39t20 41t59 20t58 -48q10 -40 43 -66t74 -26z" />
    <glyph glyph-name="dotaccent" unicode="&#x2d9;" horiz-adv-x="737" 
d="M369 1743q39 0 65 -27q26 -28 27 -66q0 -38 -27 -65q-28 -27 -66 -27t-65 28q-27 26 -27 65t27 65t66 27z" />
    <glyph glyph-name="ring" unicode="&#x2da;" horiz-adv-x="741" 
d="M293 1728q1 -38 27 -65t64 -27t64 27t25 65q0 38 -26 64q-25 26 -63 27q-38 -1 -64 -27t-27 -64zM384 1532q-82 0 -140 58t-58 138q0 81 58 139t140 58q81 0 138 -58q58 -58 58 -139q0 -80 -58 -138t-138 -58z" />
    <glyph glyph-name="ogonek" unicode="&#x2db;" horiz-adv-x="737" 
d="M315 -190q0 -47 30 -73t74 -26q44 -1 74 21q61 43 97 -6q16 -23 11 -51t-28 -44q-73 -53 -167 -53t-161 62t-67 163q0 172 252 306q14 8 38 8q24 -1 42 -19t18 -51t-41 -51q-172 -78 -172 -186z" />
    <glyph glyph-name="tilde" unicode="&#x2dc;" horiz-adv-x="737" 
d="M483 1675q29 0 63 28t62 28q28 -1 45 -21q19 -20 19 -50t-29 -54q-80 -70 -142 -70t-136 37t-103 37q-28 0 -62 -28t-62 -28t-46 20t-18 49q0 28 28 56q80 70 144 70t136 -37t101 -37z" />
    <glyph glyph-name="hungarumlaut" unicode="&#x2dd;" horiz-adv-x="737" 
d="M354 1612q0 31 23 49l205 188q18 19 46 19t50 -20t21 -52q0 -31 -23 -51l-203 -186q-53 -41 -97 1q-22 20 -22 52zM394 1796q0 -31 -23 -51l-203 -186q-24 -19 -50 -19t-46 20t-20 52q0 31 20 49l204 188q53 41 96 -2q22 -20 22 -51z" />
    <glyph glyph-name="Wgrave" unicode="&#x1e80;" horiz-adv-x="1937" 
d="M1122 1617q0 -36 -20 -56q-35 -35 -90 -9l-273 142q-37 20 -37 55t26 62t79 6l276 -144q39 -20 39 -56zM76 1370q0 24 22 48t56 24t58 -18t28 -44l258 -1241q2 -4 6 -4t6 4l305 1176q14 59 56 92q41 33 91 33t92 -33t56 -92l303 -1176q2 -6 6 -6t6 6l265 1241
q16 61 82 62q39 0 65 -31t14 -74l-286 -1231q-13 -59 -55 -92q-42 -32 -91 -32t-92 32t-57 90l-303 1168q-2 4 -5 4t-6 -4l-307 -1168q-16 -59 -56 -92q-40 -32 -90 -32t-93 34t-56 95l-276 1228q-2 9 -2 33z" />
    <glyph glyph-name="wgrave" unicode="&#x1e81;" horiz-adv-x="1662" 
d="M993 1281q0 -36 -20 -56q-36 -36 -90 -8l-273 141q-37 20 -37 55t26 62t79 6l276 -144q39 -20 39 -56zM833 895q-9 0 -10 -8l-209 -783q-33 -129 -147 -129q-55 0 -96 33t-58 94l-237 861q-12 47 10 83q23 36 74 36t67 -60l232 -864q5 -16 12 -12q6 5 8 12l207 803
q14 55 55 88t93 33t93 -34q40 -32 54 -90l207 -800q5 -16 12 -12q6 5 8 12l224 858q12 66 81 65q43 0 66 -37t10 -81l-239 -861q-36 -127 -154 -127t-149 127l-203 785q-2 8 -11 8z" />
    <glyph glyph-name="Wacute" unicode="&#x1e82;" horiz-adv-x="1937" 
d="M1162 1825q22 -1 42 -21t20 -55t-38 -55l-277 -144q-16 -10 -41 -10t-44 20t-19 57q0 36 37 56l278 144q20 8 42 8zM76 1370q0 24 22 48t56 24t58 -18t28 -44l258 -1241q2 -4 6 -4t6 4l305 1176q14 59 56 92q41 33 91 33t92 -33t56 -92l303 -1176q2 -6 6 -6t6 6l265 1241
q16 61 82 62q39 0 65 -31t14 -74l-286 -1231q-13 -59 -55 -92q-42 -32 -91 -32t-92 32t-57 90l-303 1168q-2 4 -5 4t-6 -4l-307 -1168q-16 -59 -56 -92q-40 -32 -90 -32t-93 34t-56 95l-276 1228q-2 9 -2 33z" />
    <glyph glyph-name="wacute" unicode="&#x1e83;" horiz-adv-x="1662" 
d="M986 1489q22 -1 42 -21t20 -55t-38 -55l-277 -144q-16 -10 -41 -10t-44 20t-19 57q0 36 37 56l278 144q20 8 42 8zM833 895q-9 0 -10 -8l-209 -783q-33 -129 -147 -129q-55 0 -96 33t-58 94l-237 861q-12 47 10 83q23 36 74 36t67 -60l232 -864q5 -16 12 -12q6 5 8 12
l207 803q14 55 55 88t93 33t93 -34q40 -32 54 -90l207 -800q5 -16 12 -12q6 5 8 12l224 858q12 66 81 65q43 0 66 -37t10 -81l-239 -861q-36 -127 -154 -127t-149 127l-203 785q-2 8 -11 8z" />
    <glyph glyph-name="Wdieresis" unicode="&#x1e84;" horiz-adv-x="1937" 
d="M1038 1649q0 39 26 65t67 27q40 0 66 -27q26 -28 26 -66t-27 -65t-66 -27q-40 0 -66 27t-26 66zM806 1741q40 0 66 -27q26 -28 27 -66q0 -38 -27 -65q-28 -27 -66 -27t-65 27t-26 66q-1 39 25 65t66 27zM76 1370q0 24 22 48t56 24t58 -18t28 -44l258 -1241q2 -4 6 -4t6 4
l305 1176q14 59 56 92q41 33 91 33t92 -33t56 -92l303 -1176q2 -6 6 -6t6 6l265 1241q16 61 82 62q39 0 65 -31t14 -74l-286 -1231q-13 -59 -55 -92q-42 -32 -91 -32t-92 32t-57 90l-303 1168q-2 4 -5 4t-6 -4l-307 -1168q-16 -59 -56 -92q-40 -32 -90 -32t-93 34t-56 95
l-276 1228q-2 9 -2 33z" />
    <glyph glyph-name="wdieresis" unicode="&#x1e85;" horiz-adv-x="1662" 
d="M993 1411q39 0 66 -26q27 -25 27 -65t-28 -67q-26 -27 -65 -27t-65 28q-26 26 -27 65q1 39 27 65t65 27zM670 1411q40 0 66 -27q26 -28 26 -66t-27 -65t-65 -27t-66 28q-26 26 -26 66t26 66t66 25zM833 895q-9 0 -10 -8l-209 -783q-33 -129 -147 -129q-55 0 -96 33
t-58 94l-237 861q-12 47 10 83q23 36 74 36t67 -60l232 -864q5 -16 12 -12q6 5 8 12l207 803q14 55 55 88t93 33t93 -34q40 -32 54 -90l207 -800q5 -16 12 -12q6 5 8 12l224 858q12 66 81 65q43 0 66 -37t10 -81l-239 -861q-36 -127 -154 -127t-149 127l-203 785q-2 8 -11 8
z" />
    <glyph glyph-name="Ygrave" unicode="&#x1ef2;" horiz-adv-x="1325" 
d="M784 1617q0 -36 -20 -56q-35 -35 -90 -9l-273 142q-37 20 -37 55t20 55q32 34 85 13l276 -144q39 -20 39 -56zM1204 1444q37 0 63 -25q25 -25 25 -59t-20 -55l-471 -578q-3 -6 -13 -16q-10 -9 -13 -15t-17 -24t-13 -62v-532q1 -37 -23 -62q-24 -24 -58 -24t-61 26
q-26 26 -25 60v532q0 29 -6 40q-6 12 -6 18q-2 14 -14 25q-12 12 -30 36l-469 574q-20 23 -20 57q-1 34 25 58t64 24t62 -31l478 -598l479 598q26 33 63 33z" />
    <glyph glyph-name="ygrave" unicode="&#x1ef3;" horiz-adv-x="1048" 
d="M678 1281q0 -36 -20 -56q-37 -36 -91 -8l-272 141q-37 20 -37 55t26 62t78 6l277 -144q39 -20 39 -56zM134 1075q48 0 77 -59l317 -731q8 -16 17 0l289 725q24 66 76 66t77 -39q25 -38 6 -81l-385 -933q-57 -137 -136 -243q-130 -174 -222 -171q-34 -1 -58 21t-24 64
t39 64q163 95 237 310l-389 888q-18 45 6 82q25 37 73 37z" />
    <glyph glyph-name="endash" unicode="&#x2013;" horiz-adv-x="1222" 
d="M109 587q-1 35 25 59t61 24h833q36 0 60 -25t24 -59t-25 -59q-25 -24 -59 -23h-833q-35 0 -61 24q-25 25 -25 59z" />
    <glyph glyph-name="emdash" unicode="&#x2014;" horiz-adv-x="1968" 
d="M109 587q-1 35 25 59t61 24h1579q36 0 60 -25t24 -59t-25 -58q-25 -25 -59 -24h-1579q-35 0 -61 24q-25 25 -25 59z" />
    <glyph glyph-name="quoteleft" unicode="&#x2018;" horiz-adv-x="438" 
d="M283 1165v-90q0 -33 -24 -57q-23 -24 -57 -23q-34 0 -58 23t-23 57v86q0 127 55 223q29 52 71 52q41 0 65 -22t24 -45t-26 -79t-27 -125z" />
    <glyph glyph-name="quoteright" unicode="&#x2019;" horiz-adv-x="438" 
d="M330 1364v-86q0 -127 -56 -223q-28 -51 -70 -51t-66 22t-24 44t28 78q26 56 26 126v90q0 32 24 56t57 24t57 -24t24 -56z" />
    <glyph glyph-name="quotesinglbase" unicode="&#x201a;" horiz-adv-x="438" 
d="M303 162v-84q0 -127 -57 -223q-29 -51 -71 -51q-43 0 -65 21q-22 22 -22 45q0 22 27 78t26 126v88q0 34 24 58q23 24 57 24t58 -24t23 -58z" />
    <glyph glyph-name="quotedblleft" unicode="&#x201c;" horiz-adv-x="729" 
d="M408 1075v86q0 127 55 223q29 52 71 52t66 -22t23 -45q0 -23 -27 -79t-27 -125v-90q1 -33 -23 -57t-58 -23t-57 23t-23 57zM125 1075v86q0 127 57 223q27 52 69 52q41 0 65 -22t24 -45t-27 -79t-26 -125v-90q0 -33 -24 -57q-23 -24 -57 -23t-58 23t-23 57z" />
    <glyph glyph-name="quotedblright" unicode="&#x201d;" horiz-adv-x="729" 
d="M616 1364v-86q0 -127 -55 -223q-29 -51 -71 -51t-66 22t-23 44q0 22 27 78t27 126v90q-1 32 23 56t58 24t57 -24t23 -56zM334 1364v-86q0 -127 -55 -223q-29 -51 -71 -51t-66 22t-24 44t28 78q26 56 26 126v90q0 32 24 56t58 24t56 -24q24 -24 24 -56z" />
    <glyph glyph-name="quotedblbase" unicode="&#x201e;" horiz-adv-x="729" 
d="M334 162v-84q0 -127 -55 -223q-29 -51 -71 -51t-66 21q-24 22 -24 45q0 22 28 78q26 56 26 126v88q0 34 24 58t58 24t58 -24q22 -24 22 -58zM616 162v-84q0 -127 -55 -223q-29 -51 -71 -51t-66 21q-24 22 -23 45q0 22 27 78t27 126v88q-1 34 23 58t59 24t57 -24t22 -58z
" />
    <glyph glyph-name="dagger" unicode="&#x2020;" horiz-adv-x="1017" 
d="M592 1006h297q35 0 59 -25t25 -59q0 -34 -25 -59q-25 -24 -59 -23h-297v-1041q0 -37 -24 -61t-58 -25q-34 0 -60 26q-24 26 -24 60v1041h-295q-37 0 -61 24t-25 58q0 36 25 60t61 24h295v360q0 34 25 60t59 26t58 -26t24 -60v-360z" />
    <glyph glyph-name="daggerdbl" unicode="&#x2021;" horiz-adv-x="1017" 
d="M592 1006h297q35 0 59 -25t25 -59q0 -34 -25 -59q-25 -24 -59 -23h-297v-514h297q35 0 59 -24t25 -60q0 -36 -25 -59q-25 -24 -59 -23h-297v-361q0 -37 -24 -61t-58 -25q-34 0 -60 25q-24 25 -24 61v361h-295q-37 0 -61 24t-25 59q0 35 25 59t61 24h295v514h-295
q-37 0 -61 24t-25 58q0 36 25 60t61 24h295v360q0 34 25 60t59 26t58 -26t24 -60v-360z" />
    <glyph glyph-name="bullet" unicode="&#x2022;" horiz-adv-x="966" 
d="M225 717q0 106 76 182t182 76q107 0 183 -76t76 -182t-76 -182t-182 -76t-183 76q-76 76 -76 182z" />
    <glyph glyph-name="ellipsis" unicode="&#x2026;" horiz-adv-x="1314" 
d="M219 264q35 0 60 -26t24 -60v-110q1 -37 -23 -62q-24 -24 -60 -24t-60 26t-25 60v110q1 34 25 60t59 26zM659 264q35 0 60 -26t24 -60v-110q1 -37 -23 -62q-24 -24 -60 -24t-60 26t-25 60v110q1 34 25 60t59 26zM1096 264q36 0 60 -26t24 -60v-110q0 -37 -24 -62
q-24 -24 -60 -24t-60 26q-25 26 -24 60v110q0 35 24 61q25 25 60 25z" />
    <glyph glyph-name="perthousand" unicode="&#x2030;" horiz-adv-x="2242" 
d="M315 311l801 926q20 25 54 27t58 -18t24 -54q0 -33 -19 -57q-221 -252 -803 -926q-22 -23 -54 -25t-56 18t-24 54q0 32 19 55zM1852 539q-64 0 -106 -45q-42 -44 -47 -102t-1 -114t47 -102q43 -45 107 -45t109 45q44 46 48 100t0 112t-48 105q-45 46 -109 46zM1853 688
q125 0 212 -88t94 -215q2 -51 0 -102q-9 -127 -95 -215t-211 -88t-213 89t-94 214q-4 53 0 102q4 125 93 214t214 89zM1146 131q66 0 108 44q42 43 46 99t0 116t-46 104q-42 45 -108 45q-64 0 -106 -45q-42 -44 -48 -102q-5 -58 -1 -114t47 -102q43 -45 108 -45zM1146 688
q124 0 212 -89t94 -214q2 -51 0 -102q-8 -127 -95 -215t-211 -88t-212 88q-113 113 -96 317q6 125 95 214t213 89zM387 1303q-65 1 -107 -45t-48 -103t-1 -115q3 -58 47 -101q44 -44 110 -44t108 45q59 61 47 203q-4 70 -47 115t-109 45zM387 1452q125 0 212 -88t93 -215
q2 -51 0 -102q-8 -127 -94 -215t-211 -89t-213 89t-94 215q-4 53 0 102q4 127 93 215t214 88z" />
    <glyph glyph-name="guilsinglleft" unicode="&#x2039;" horiz-adv-x="731" 
d="M98 721q0 80 90 151l248 197q27 23 61 20t54 -30t17 -60t-29 -55l-252 -196q-37 -29 0 -58l252 -198q27 -20 29 -54t-18 -62q-22 -26 -54 -28t-60 21l-248 196q-90 76 -90 156z" />
    <glyph glyph-name="guilsinglright" unicode="&#x203a;" horiz-adv-x="731" 
d="M633 718q0 -83 -90 -153l-246 -196q-29 -23 -61 -21t-54 29q-24 27 -20 61t31 54l251 198q37 29 0 58l-251 196q-27 20 -30 54t18 61t55 30t61 -20l246 -197q90 -71 90 -154z" />
    <glyph glyph-name="fraction" unicode="&#x2044;" horiz-adv-x="614" 
d="M-47 39l561 1409q12 31 42 43t58 2t41 -41q12 -31 0 -59l-557 -1411q-12 -29 -42 -41t-58 -2q-28 9 -42 39q-13 30 -3 61z" />
    <glyph glyph-name="Euro" unicode="&#x20ac;" horiz-adv-x="1331" 
d="M178 918h98q20 240 160 387t390 147q251 0 401 -160q25 -24 25 -58t-24 -56t-58 -23q-34 0 -82 47t-112 70t-167 22q-162 0 -254 -101t-109 -275h375q33 0 57 -22t24 -54t-24 -52q-24 -22 -57 -22h-383v-100h383q33 0 57 -22t24 -54t-24 -52q-24 -22 -57 -22h-375
q16 -176 108 -277t255 -102q179 0 280 95q51 47 83 47t56 -24q24 -23 24 -57t-25 -59q-150 -160 -418 -159q-233 0 -372 147q-138 147 -161 389h-98q-34 0 -56 20t-22 54q0 32 23 54t55 22h94v100h-94q-34 0 -56 20t-22 54t22 54q22 22 56 22z" />
    <glyph glyph-name="trademark" unicode="&#x2122;" horiz-adv-x="1300" 
d="M691 1419q60 0 77 -59l90 -354l92 354q14 59 74 59t74 -69l69 -394q8 -47 -32 -57q-47 -10 -56 39l-59 373l-92 -348q-16 -61 -68 -61t-69 61l-93 346l-59 -371q-8 -49 -55 -39q-41 6 -33 57l67 394q13 69 73 69zM379 1325v-381q0 -18 -13 -30t-32 -13q-43 0 -43 43v381
h-133q-18 0 -32 12q-13 11 -13 31t13 32t32 13h352q16 0 28 -12q12 -11 13 -31q0 -20 -12 -32t-29 -13h-131z" />
    <glyph glyph-name="minus" unicode="&#x2212;" horiz-adv-x="1286" 
d="M1079 637h-872q-35 -1 -60 23t-25 58t26 58q24 24 59 23h872q35 0 60 -24q25 -23 25 -57t-25 -58q-25 -23 -60 -23z" />
    <glyph glyph-name="lessequal" unicode="&#x2264;" horiz-adv-x="1286" 
d="M236 740q0 95 104 159l584 336q30 18 62 10t49 -38q17 -29 9 -63t-36 -50l-568 -322q-24 -14 -24 -30t24 -31l568 -322q28 -16 36 -51t-9 -64q-17 -28 -50 -36t-61 8l-584 336q-104 63 -104 158zM969 -20h-652q-35 0 -59 24t-25 58q0 34 25 57t59 22h652q35 -1 59 -23
t25 -56q-1 -34 -25 -58t-59 -24z" />
    <glyph glyph-name="greaterequal" unicode="&#x2265;" horiz-adv-x="1286" 
d="M250 1208q18 29 51 37t61 -10l584 -336q102 -61 102 -159t-102 -158l-584 -336q-30 -16 -62 -8t-50 36q-16 29 -8 64t37 51l567 322q25 14 24 30q0 16 -24 31l-567 322q-29 16 -37 50t8 64zM969 -20h-652q-35 0 -59 24t-25 58q0 34 25 57t59 22h652q35 -1 59 -23t25 -57
q-1 -35 -25 -58t-59 -23z" />
    <glyph glyph-name="fl" unicode="&#xfb02;" horiz-adv-x="1355" 
d="M1083 1454q35 0 60 -24t24 -60v-1292q1 -37 -23 -62q-24 -24 -60 -24t-60 24t-23 62v1292q-1 36 23 60t59 24zM227 1042v95q0 153 83 243t239 90q109 0 180 -22q66 -18 66 -78q-1 -30 -21 -52t-50 -22t-82 10t-89 9q-160 0 -160 -191v-82h287q32 0 56 -22t24 -54t-24 -54
t-56 -21h-287v-813q1 -37 -23 -62q-24 -24 -59 -24t-59 24t-25 62v813h-71q-33 -1 -57 21t-23 55q0 33 24 55t56 20h71z" />
    <glyph glyph-name="Q.alt" horiz-adv-x="1495" 
d="M825 403v-256q147 27 245 139q96 112 112 272t0 329q-16 170 -138 288q-122 117 -299 117q-175 0 -295 -116t-136 -287q-16 -170 -2 -331q14 -160 110 -272t244 -139v256q0 35 23 59t57 24t57 -24q22 -24 22 -59zM666 -254v240q-215 27 -360 184q-144 158 -161 381
q-16 168 0 332q15 243 185 407t416 164t416 -165q171 -165 188 -406q12 -164 0 -332q-16 -223 -162 -381t-363 -184v-240q1 -34 -23 -58t-57 -24t-56 24t-23 58z" />
    <glyph glyph-name="r.alt" horiz-adv-x="772" 
d="M677 915l-140 17q-123 0 -195 -62v-786q0 -34 -25 -60t-59 -26t-60 26q-24 26 -24 60v825q0 41 35 70q118 111 315 111q86 0 156 -18t70 -81q0 -29 -22 -53t-51 -23z" />
    <glyph glyph-name="zero.onum" horiz-adv-x="1288" 
d="M643 940q-147 0 -243 -83q-144 -125 -111 -417q16 -150 111 -232q94 -82 242 -83q148 0 245 83q143 124 110 417q-15 151 -111 233t-243 82zM644 1094q206 0 346 -119q219 -186 165 -576q-25 -195 -166 -313t-346 -117q-205 0 -347 120t-167 323q-45 390 168 566
q141 116 347 116z" />
    <glyph glyph-name="one.onum" horiz-adv-x="942" 
d="M585 1079q29 1 53 -25t24 -61v-915q0 -37 -25 -62q-25 -24 -59 -24t-60 26q-25 26 -24 60v796l-279 -120q-33 -14 -65 -3t-48 42q-14 31 -1 63t46 47l383 164q25 12 55 12z" />
    <glyph glyph-name="two.onum" horiz-adv-x="1204" 
d="M202 756q-76 0 -77 77q0 37 39 82q59 74 174 124t252 51q219 0 332 -94t112 -240q0 -119 -90 -204t-298 -144q-208 -58 -287 -112t-78 -134h698q33 0 59 -25t25 -59q0 -34 -25 -56t-59 -22h-737q-55 0 -89 34t-34 99q-2 150 97 240t302 152q203 63 277 113q73 50 73 124
t-67 124q-69 50 -191 50t-206 -39t-124 -90t-78 -51z" />
    <glyph glyph-name="three.onum" horiz-adv-x="1210" 
d="M872 135q0 115 -76 181t-200 67q-45 0 -91 -8t-69 -8q-22 1 -46 23t-24 56t25 58l361 389h-578q-38 1 -62 23t-24 58t25 58t61 23h660q53 0 89 -33t36 -80t-29 -82l-316 -338q184 4 306 -103q121 -108 120 -280q0 -264 -233 -405t-631 -119q-36 2 -60 24q-24 21 -26 57
t26 60t70 21q309 -27 498 70q188 97 188 288z" />
    <glyph glyph-name="four.onum" horiz-adv-x="1361" 
d="M858 162v725l-557 -725h557zM1176 0h-152v-268q0 -35 -25 -60q-25 -24 -59 -24t-58 24t-24 60v268h-596q-63 0 -104 38t-39 91t39 102l544 711q37 49 59 74q57 65 126 65q137 0 137 -172v-747h152q34 0 58 -23t24 -57t-25 -58q-24 -24 -57 -24z" />
    <glyph glyph-name="five.onum" horiz-adv-x="1241" 
d="M1112 172q0 -270 -234 -416t-638 -147q-39 -1 -64 21t-24 61q0 39 24 61t60 21q336 0 522 98t186 297q0 106 -78 174t-219 68t-315 -91q-60 -27 -100 1t-39 81v517q-1 72 39 104t102 33h608q37 0 62 -24q24 -25 24 -59t-26 -57t-60 -22h-594v-404q160 80 342 80
q182 -1 302 -113t120 -284z" />
    <glyph glyph-name="six.onum" horiz-adv-x="1368" 
d="M705 758q-172 0 -365 -105q-14 -252 81 -382t273 -130t268 90q89 91 89 233t-87 218t-259 76zM1054 1276q-24 0 -84 8t-126 8q-207 0 -339 -122t-153 -343q195 88 373 88q227 -1 360 -121t133 -329t-134 -347t-379 -138q-199 0 -325 101t-172 268t-34 396q20 341 196 525
t474 184q121 0 209 -20q68 -16 67 -80q0 -33 -21 -56q-21 -22 -45 -22z" />
    <glyph glyph-name="seven.onum" horiz-adv-x="1079" 
d="M156 1055h751q53 0 88 -31t35 -75t-26 -87q-291 -483 -405 -710t-173 -476q-12 -45 -50 -59t-69 2q-59 27 -35 113q66 238 187 484t379 677h-682q-35 -1 -61 23q-25 24 -25 59t24 57t62 23z" />
    <glyph glyph-name="eight.onum" horiz-adv-x="1394" 
d="M698 -20q-260 0 -399 112t-139 301q0 137 69 230q70 92 185 129q-96 37 -158 117q-61 81 -61 196q0 185 131 287q132 102 370 102t370 -102t132 -279q0 -231 -215 -319q115 -37 183 -129t69 -230q0 -190 -138 -303q-139 -112 -399 -112zM689 664q-177 0 -268 -72
t-91 -191t90 -189t275 -71q185 0 279 73q93 72 93 188t-100 189q-101 73 -278 73zM698 1292q-172 0 -255 -60t-83 -169t90 -172t248 -63q156 0 244 65q88 66 88 178q0 221 -332 221z" />
    <glyph glyph-name="nine.onum" horiz-adv-x="1357" 
d="M662 350q132 0 242 48q40 17 114 53q8 272 -73 399t-286 127q-170 0 -256 -87t-86 -235q1 -305 345 -305zM150 653q0 213 134 349t375 137q549 0 527 -713q-16 -408 -221 -574t-639 -178q-37 -2 -62 21q-24 23 -26 57t20 60t107 30t168 13q82 8 159 31q76 24 105 46
t67 53q99 82 137 291q-180 -84 -364 -83q-223 -1 -355 123t-132 337z" />
    <glyph glyph-name="sterling.alt" horiz-adv-x="1202" 
d="M201 754h139l45 211q51 257 160 373t291 116q125 0 221 -65q59 -41 24 -106t-112 -23q-76 33 -150 32q-105 0 -167 -77t-103 -269q-20 -98 -43 -192h334q38 0 62 -22t24 -58t-25 -53q-25 -18 -61 -19h-371q-70 -260 -133 -393q-10 -19 -10 -33t22 -14h674q32 0 58 -24
t26 -58t-25 -58q-25 -22 -61 -22h-668q-88 0 -140 41t-52 117q0 40 14 73l53 127q39 98 78 244h-104q-37 0 -61 20t-24 54t24 56t61 22z" />
    <glyph glyph-name="commaaccent" horiz-adv-x="737" 
d="M475 -143v-60q0 -102 -51 -196q-33 -57 -77 -57q-43 0 -65 23q-22 24 -22 48q0 23 24 71t23 117v54q0 35 25 59q26 24 60 23t58 -25t25 -57z" />
    <glyph glyph-name="caronSlovak" horiz-adv-x="737" 
d="M262 1193q0 23 28 77t27 110v45q0 35 23 59q22 24 56 24t57 -24t22 -59v-41q0 -106 -57 -206q-31 -52 -71 -52q-41 0 -63 22t-22 45z" />
    <glyph glyph-name="g.alt" horiz-adv-x="1122" 
d="M511 481q119 0 189 65t70 167q0 103 -69 165t-189 62t-190 -62q-72 -62 -72 -166t72 -167q72 -64 189 -64zM53 -112q-1 36 21 58q22 21 61 21t72 -45q123 -168 338 -168q125 0 203 42t77 118q0 115 -192 115h-197q-132 0 -200 56t-68 140q0 115 104 168q-84 49 -133 134
t-49 186q0 159 115 269t305 110q106 0 219 -50h264q33 0 57 -22t24 -54t-24 -54t-57 -21h-119q57 -80 58 -180q0 -154 -110 -260t-290 -109h-34q-168 0 -168 -82q0 -68 104 -67h211q170 0 261 -74t91 -206q1 -132 -117 -225q-118 -94 -308 -94t-309 62q-120 62 -179 151
q-31 45 -31 81z" />
    <glyph glyph-name="gbreve.alt" horiz-adv-x="1122" 
d="M506 1329q41 0 74 26q33 27 45 71t65 44q29 0 54 -25t5 -88q-19 -63 -87 -113t-156 -50t-156 50t-92 126q-6 18 -6 39t20 41t60 20t57 -49q10 -41 43 -67t74 -25zM511 481q119 0 189 65t70 167q0 103 -69 165t-189 62t-190 -62q-72 -62 -72 -166t72 -167q72 -64 189 -64z
M53 -112q-1 36 21 58q22 21 61 21t72 -45q123 -168 338 -168q125 0 203 42t77 118q0 115 -192 115h-197q-132 0 -200 56t-68 140q0 115 104 168q-84 49 -133 134t-49 186q0 159 115 269t305 110q106 0 219 -50h264q33 0 57 -22t24 -54t-24 -54t-57 -21h-119q57 -80 58 -180
q0 -154 -110 -260t-290 -109h-34q-168 0 -168 -82q0 -68 104 -67h211q170 0 261 -74t91 -206q1 -132 -117 -225q-118 -94 -308 -94t-309 62q-120 62 -179 151q-31 45 -31 81z" />
    <glyph glyph-name="gdotaccent.alt" horiz-adv-x="1122" 
d="M514 1419q39 -1 66 -27q26 -26 26 -65t-26 -65t-66 -27q-40 0 -66 27q-26 28 -26 66t26 64t66 27zM511 481q119 0 189 65t70 167q0 103 -69 165t-189 62t-190 -62q-72 -62 -72 -166t72 -167q72 -64 189 -64zM53 -112q-1 36 21 58q22 21 61 21t72 -45q123 -168 338 -168
q125 0 203 42t77 118q0 115 -192 115h-197q-132 0 -200 56t-68 140q0 115 104 168q-84 49 -133 134t-49 186q0 159 115 269t305 110q106 0 219 -50h264q33 0 57 -22t24 -54t-24 -54t-57 -21h-119q57 -80 58 -180q0 -154 -110 -260t-290 -109h-34q-168 0 -168 -82
q0 -68 104 -67h211q170 0 261 -74t91 -206q1 -132 -117 -225q-118 -94 -308 -94t-309 62q-120 62 -179 151q-31 45 -31 81z" />
    <glyph glyph-name="gcommaaccent.alt" horiz-adv-x="1122" 
d="M586 1513v-59q0 -102 -51 -197q-33 -57 -89 -57q-32 0 -54 24t-22 48t24 71t24 117v53q0 35 24 59q25 24 60 24q36 0 60 -26q24 -24 24 -57zM511 481q119 0 189 65t70 167q0 103 -69 165t-189 62t-190 -62q-72 -62 -72 -166t72 -167q72 -64 189 -64zM53 -112q-1 36 21 58
q22 21 61 21t72 -45q123 -168 338 -168q125 0 203 42t77 118q0 115 -192 115h-197q-132 0 -200 56t-68 140q0 115 104 168q-84 49 -133 134t-49 186q0 159 115 269t305 110q106 0 219 -50h264q33 0 57 -22t24 -54t-24 -54t-57 -21h-119q57 -80 58 -180q0 -154 -110 -260
t-290 -109h-34q-168 0 -168 -82q0 -68 104 -67h211q170 0 261 -74t91 -206q1 -132 -117 -225q-118 -94 -308 -94t-309 62q-120 62 -179 151q-31 45 -31 81z" />
    <glyph glyph-name="ampersand.alt" horiz-adv-x="1421" 
d="M358 1055q0 -63 34 -115t71 -79q37 -26 92 -56q207 41 281 93t74 152t-70 166q-70 64 -205 64t-206 -64t-71 -161zM1321 631q35 0 61 -24q26 -25 25 -59q0 -34 -25 -59t-59 -24h-137q-14 -225 -167 -354t-395 -129t-382 112q-141 112 -142 287q0 256 271 358
q-183 135 -183 311t124 283t324 107t322 -104t121 -270q-1 -165 -109 -258q-108 -92 -328 -142t-295 -112t-75 -171t94 -175t271 -67q175 0 281 96q106 97 112 245t131 149h160z" />
    <glyph glyph-name="racute.alt" horiz-adv-x="772" 
d="M651 1356q0 -35 -39 -56l-276 -143q-16 -10 -41 -10t-44 20q-19 21 -19 57t36 56l279 143q52 21 78 -6q26 -26 26 -61zM677 915l-140 17q-123 0 -195 -62v-786q0 -34 -25 -60t-59 -26t-60 26q-24 26 -24 60v825q0 41 35 70q118 111 315 111q86 0 156 -18t70 -81
q0 -29 -22 -53t-51 -23z" />
    <glyph glyph-name="rcaron.alt" horiz-adv-x="772" 
d="M170 1360q0 33 19 53q19 21 47 21t49 -17l166 -125l165 125q23 17 50 17t47 -20t20 -52t-31 -55l-192 -144q-38 -25 -62 -25t-59 25l-190 144q-29 20 -29 53zM677 915l-140 17q-123 0 -195 -62v-786q0 -34 -25 -60t-59 -26t-60 26q-24 26 -24 60v825q0 41 35 70
q118 111 315 111q86 0 156 -18t70 -81q0 -29 -22 -53t-51 -23z" />
    <glyph glyph-name="rcommaaccent.alt" horiz-adv-x="772" 
d="M354 -143v-60q0 -102 -51 -196q-33 -57 -77 -57t-66 23q-22 24 -21 48q0 23 24 71t23 117v54q0 35 25 59t59 23t60 -25q24 -24 24 -57zM677 915l-140 17q-123 0 -195 -62v-786q0 -34 -25 -60t-59 -26t-60 26q-24 26 -24 60v825q0 41 35 70q118 111 315 111q86 0 156 -18
t70 -81q0 -29 -22 -53t-51 -23z" />
    </font>
</defs>
</svg>
