<?xml version="1.0" standalone="no"?>
<!DOCTYPE svg PUBLIC "-//W3C//DTD SVG 1.1//EN" "http://www.w3.org/Graphics/SVG/1.1/DTD/svg11.dtd" >
<svg xmlns="http://www.w3.org/2000/svg">
<metadata>
Created by FontPrep 20130207 at Tue Nov  4 15:29:31 2014
 By Mauricio Duran
Copyright (c) 2010 by Miles Newlyn. All rights reserved.
</metadata>
<defs>
<font id="8cd6542f0d36f4fcddee03fdbfea50a0" horiz-adv-x='1024' >
  <font-face 
    font-family="Rubrik-Medium"
    font-weight="500"
    font-stretch="normal"
    units-per-em="2048"
    panose-1="2 0 5 3 0 0 0 2 0 4"
    ascent="1536"
    descent="-512"
    x-height="1067"
    cap-height="1446"
    bbox="-67.5333 -584 2276 1964"
    underline-thickness="143"
    underline-position="-62"
    unicode-range="U+0020-FB02"
  />
<missing-glyph horiz-adv-x="616" 
 />
    <glyph glyph-name="fi" unicode="fi" horiz-adv-x="1415" 
d="M1128 1090q45 0 77 -33t32 -78v-877q0 -46 -32 -78t-76 -32q-45 0 -77 33t-32 77v877q0 47 32 79t76 32zM1249 1356q0 -51 -35 -88t-87 -37t-87 37t-34 88q0 51 34 86q35 35 87 35t87 -35t35 -86zM752 1257l-172 19q-139 0 -140 -162v-65h262q43 0 73 -28t30 -69
q0 -40 -30 -68t-73 -28h-262v-752q0 -48 -32 -80t-76 -32q-45 0 -77 33t-32 79v752h-61q-41 0 -71 28t-30 68t29 69q29 28 72 28h61v75q0 168 90 261t252 94q115 0 196 -24t81 -101q0 -39 -28 -68t-62 -29z" />
    <glyph glyph-name=".notdef" horiz-adv-x="616" 
 />
    <glyph glyph-name=".null" horiz-adv-x="0" 
 />
    <glyph glyph-name="nonmarkingreturn" horiz-adv-x="681" 
 />
    <glyph glyph-name="space" unicode=" " horiz-adv-x="573" 
 />
    <glyph glyph-name="exclam" unicode="!" horiz-adv-x="464" 
d="M129 82v102q0 41 30 71q29 30 73 30t74 -30t30 -71v-102q0 -41 -30 -70q-30 -28 -74 -28t-74 28t-29 70zM232 1440q46 0 78 -33t30 -78l-12 -766q-2 -41 -30 -67t-67 -27t-67 27t-27 67l-12 766q-2 45 30 78q31 33 77 33z" />
    <glyph glyph-name="quotedbl" unicode="&#x22;" horiz-adv-x="755" 
d="M635 1341v-294q0 -43 -29 -72q-30 -29 -72 -29t-71 30t-29 71v294q0 41 29 70t72 29t71 -28t29 -71zM322 1341v-294q0 -41 -29 -71t-72 -30t-71 30t-29 71v294q0 41 29 70q30 29 72 29t71 -29t29 -70z" />
    <glyph glyph-name="numbersign" unicode="#" horiz-adv-x="1378" 
d="M627 870l-90 -282h215l88 282h-213zM180 397q-42 0 -72 28t-30 68q0 39 31 67t73 28h154l88 282h-90q-45 0 -75 28t-30 69t31 69t74 27h155l101 305q27 80 89 80t87 -41t8 -92l-80 -252h211l101 305q27 80 89 80t87 -41t8 -92l-82 -252h88q43 0 74 -28q30 -29 30 -69
t-30 -68t-74 -28h-154l-90 -282h92q43 0 74 -28t31 -68t-31 -67q-31 -28 -74 -28h-157l-111 -344q-20 -68 -92 -67q-53 0 -79 42t-9 91l90 278h-215l-111 -344q-20 -68 -92 -67q-53 0 -79 42t-9 91l90 278h-90z" />
    <glyph glyph-name="dollar" unicode="$" horiz-adv-x="1249" 
d="M1135 430q0 -164 -115 -274t-301 -125v-111q0 -43 -28 -73q-27 -29 -67 -29t-69 30t-29 72v115q-213 29 -354 137q-57 45 -57 96t32 82q33 31 75 31t83 -31q145 -113 336 -112q129 0 200 48t71 134t-71 128t-284 88t-318 134t-105 247t108 262q109 103 284 126v108
q0 41 29 72t69 31t68 -30t27 -73v-106q186 -20 293 -111q39 -32 39 -78t-29 -79t-70 -33t-86 29q-113 71 -250 71t-197 -52q-61 -52 -61 -132t62 -117t221 -69q266 -58 380 -150t114 -256z" />
    <glyph glyph-name="percent" unicode="%" horiz-adv-x="1622" 
d="M1232 530q-58 0 -96 -40t-43 -93t0 -107t43 -93t96 -39t96 39t43 91t0 107t-43 95t-96 40zM390 1276q-58 0 -96 -39t-43 -93t-1 -108t43 -94q39 -39 97 -39t96 39t42 92q4 52 0 108t-42 95t-96 39zM354 342l781 893q25 31 67 33t72 -23q29 -25 31 -67t-23 -70l-780 -893
q-25 -31 -67 -35q-43 -4 -71 22t-32 70t22 70zM390 1452q130 0 220 -90t97 -219q2 -53 0 -107q-9 -131 -99 -220t-219 -89t-220 89t-97 220q-2 55 0 107q4 129 96 219t222 90zM1232 707q130 -1 220 -91t96 -221q2 -53 0 -104q-8 -131 -97 -221t-219 -90t-221 90t-98 219
q-2 55 0 106q5 129 97 221t222 91z" />
    <glyph glyph-name="ampersand" unicode="&#x26;" horiz-adv-x="1402" 
d="M623 1239q-109 0 -169 -50q-60 -51 -61 -123q0 -72 41 -124t121 -111q167 43 233 95t66 134q0 83 -61 131t-170 48zM313 389q0 -85 85 -143t240 -58t253 72l-385 352q-109 -43 -151 -90t-42 -133zM1181 721q47 0 75 -32t28 -77v-14q0 -170 -100 -324l110 -96
q33 -29 39 -72q7 -42 -21 -78t-73 -39t-80 27l-112 101q-174 -135 -421 -135t-390 116t-144 299q0 113 66 205t190 150q-176 141 -176 310t122 274q122 106 328 106t326 -102t119 -248q0 -148 -82 -245t-272 -167l311 -274q47 84 51 196q2 53 30 86t76 33z" />
    <glyph glyph-name="quotesingle" unicode="'" horiz-adv-x="442" 
d="M322 1341v-294q0 -41 -29 -71t-72 -30t-71 30t-29 71v294q0 41 29 70q30 29 72 29t71 -29t29 -70z" />
    <glyph glyph-name="parenleft" unicode="(" horiz-adv-x="729" 
d="M352 633q0 -487 334 -805q29 -29 34 -66q5 -36 -19 -72q-25 -36 -69 -45t-85 25q-203 190 -306 442t-104 521q0 268 104 520q103 252 306 442q41 35 86 26t69 -45t18 -73q-5 -37 -34 -65q-334 -318 -334 -805z" />
    <glyph glyph-name="parenright" unicode=")" horiz-adv-x="729" 
d="M377 633q0 483 -334 805q-63 63 -18 137q27 39 71 47t86 -27q201 -190 304 -442q104 -252 104 -520t-104 -520t-304 -443q-41 -34 -86 -26t-68 45q-48 76 15 139q334 322 334 805z" />
    <glyph glyph-name="asterisk" unicode="*" horiz-adv-x="823" 
d="M537 1092l153 -70q39 -16 51 -50t-4 -67t-51 -40t-72 16l-139 96l14 -162q3 -43 -21 -69t-56 -26t-57 26q-24 26 -21 69l14 162l-139 -96q-37 -23 -72 -16t-51 40t-4 67t51 50l154 70l-154 69q-39 16 -51 50t4 67t51 40t72 -15l139 -97l-14 162q-2 43 21 69q24 25 57 25
q32 0 56 -26t21 -68l-14 -162l139 97q37 23 72 15t51 -40q16 -33 4 -67t-51 -50z" />
    <glyph glyph-name="plus" unicode="+" horiz-adv-x="1286" 
d="M541 301v311h-312q-45 0 -75 31t-31 75q0 44 31 74t75 29h312v312q1 45 31 75t74 31q44 0 74 -31t30 -75v-312h307q45 1 76 -29t31 -74t-32 -75t-75 -31h-307v-311q0 -45 -30 -76t-74 -31t-75 32q-30 32 -30 75z" />
    <glyph glyph-name="comma" unicode="," horiz-adv-x="456" 
d="M332 190v-71q0 -160 -56 -258q-39 -68 -106 -68q-41 0 -67 28q-25 29 -25 57t23 79q24 51 24 117v116q0 41 30 71q31 30 73 30t73 -30t31 -71z" />
    <glyph glyph-name="hyphen" unicode="-" horiz-adv-x="681" 
d="M592 588q0 -45 -33 -77t-78 -32h-280q-47 0 -79 32t-32 77t33 77t78 31h280q47 0 79 -32t32 -76z" />
    <glyph glyph-name="period" unicode="." horiz-adv-x="555" 
d="M125 195q1 45 29 75t72 31q44 0 75 -31t31 -75v-109q0 -45 -30 -75q-30 -29 -74 -29t-74 30t-29 74v109z" />
    <glyph glyph-name="slash" unicode="/" horiz-adv-x="749" 
d="M684 1493q41 -16 58 -57t-1 -84l-534 -1350q-17 -43 -59 -60t-82 -1t-58 57q-16 41 0 84l537 1348q16 43 57 61t82 2z" />
    <glyph glyph-name="zero" unicode="0" horiz-adv-x="1443" 
d="M721 1247q-147 0 -237 -94q-90 -95 -97 -279q-8 -184 2 -336q11 -152 99 -249q88 -96 234 -96t234 96q88 97 98 249t3 336q-9 184 -99 279q-90 94 -237 94zM721 -16q-237 0 -387 152t-166 394q-14 193 0 383q16 247 166 395t386 148t388 -150t168 -393q14 -193 0 -383
q-16 -244 -168 -395t-387 -151z" />
    <glyph glyph-name="one" unicode="1" horiz-adv-x="989" 
d="M609 1434q40 0 70 -33t30 -76v-1223q0 -46 -32 -78t-77 -32t-77 33t-31 77v1039l-234 -131q-39 -23 -83 -12q-44 12 -65 52t-10 84q12 44 54 66l387 217q28 17 68 17z" />
    <glyph glyph-name="two" unicode="2" horiz-adv-x="1222" 
d="M113 143q0 135 77 249q78 114 246 231q258 179 330 249t72 160t-60 150t-190 61q-168 0 -275 -129q-68 -76 -143 -39q-41 21 -55 67t14 91q67 91 183 155t270 64q225 0 351 -116t126 -276t-85 -268t-333 -282q-190 -139 -240 -191t-55 -102h635q45 0 78 -32
q33 -31 33 -77t-32 -77t-79 -31h-723q-63 0 -104 38t-41 105z" />
    <glyph glyph-name="three" unicode="3" horiz-adv-x="1226" 
d="M1065 526q0 -264 -243 -406t-632 -126q-46 2 -76 31t-33 75t33 79q36 34 91 30q281 -17 462 65t181 248q0 96 -65 152t-173 57q-41 0 -94 -11q-52 -11 -80 -11q-28 1 -59 29t-31 72t37 79l317 328h-510q-46 -1 -78 31t-32 77t32 77t78 32h648q63 0 107 -38t44 -96
t-39 -102l-282 -293q174 0 286 -106t111 -273z" />
    <glyph glyph-name="four" unicode="4" horiz-adv-x="1370" 
d="M823 547v606l-467 -606h467zM1169 336h-135v-227q0 -45 -30 -78t-75 -33q-44 0 -75 32t-31 79v227h-547q-78 0 -122 46t-45 105q0 59 57 136l520 680q98 131 188 131t126 -56q34 -56 34 -127v-704h135q45 0 76 -29t31 -73q0 -45 -33 -77t-74 -32z" />
    <glyph glyph-name="five" unicode="5" horiz-adv-x="1257" 
d="M1137 559q0 -271 -240 -419t-641 -148q-47 0 -80 28t-35 77q-2 48 31 78t82 30q311 0 488 86t178 260q0 94 -71 151q-158 127 -491 -22q-80 -31 -128 4t-48 100v490q0 82 47 121t117 39h600q47 0 78 -31t31 -76t-33 -78t-76 -32h-555v-320q152 70 303 70q203 0 323 -115
t120 -293z" />
    <glyph glyph-name="six" unicode="6" horiz-adv-x="1382" 
d="M1024 471q0 125 -81 191t-235 65q-154 0 -327 -90q-8 -219 79 -334t248 -115q160 0 238 79t78 204zM1036 1233q-8 0 -74 9t-133 9q-165 0 -287 -106t-147 -295q168 80 353 80q229 0 362 -124t133 -333t-139 -351t-393 -142q-320 0 -447 223q-120 208 -98 545
q18 342 194 527t486 185q109 0 207 -20q92 -20 92 -105q0 -45 -29 -73t-80 -29z" />
    <glyph glyph-name="seven" unicode="7" horiz-adv-x="1095" 
d="M172 1434h737q66 0 107 -38t41 -88t-29 -102q-272 -446 -386 -670t-171 -460q-25 -84 -106 -84q-33 0 -54 14q-51 31 -51 92q0 25 6 45q61 221 179 457t350 621h-623q-47 1 -79 31t-32 76t32 76t79 30z" />
    <glyph glyph-name="eight" unicode="8" horiz-adv-x="1409" 
d="M705 -20q-266 0 -410 114q-143 115 -143 303q0 133 64 223q65 89 177 130q-209 74 -209 317q0 185 138 289t382 104t381 -103t138 -284q0 -229 -205 -321q114 -41 178 -131t64 -224q0 -189 -144 -303t-411 -114zM699 641q-163 0 -245 -62q-82 -63 -83 -167
q0 -104 82 -164q83 -60 251 -60t253 62t85 162q0 102 -90 166t-253 63zM1006 1063q0 190 -302 190t-303 -192q0 -99 81 -155q80 -56 222 -56t222 57t80 156z" />
    <glyph glyph-name="nine" unicode="9" horiz-adv-x="1374" 
d="M358 966q0 -128 77 -197t215 -69t242 42q38 15 101 46q6 233 -67 345q-74 111 -243 111t-247 -76q-78 -74 -78 -202zM338 207q336 0 469 89q57 38 103 108t65 165q-170 -74 -334 -73q-233 0 -367 127q-133 127 -133 341q-1 214 139 353t390 139q571 0 540 -727
q-16 -399 -224 -569t-642 -170q-51 0 -84 28t-33 75q0 46 30 80t81 34z" />
    <glyph glyph-name="colon" unicode=":" horiz-adv-x="552" 
d="M174 193q0 45 28 75t73 31q44 0 75 -31t31 -75v-109q0 -45 -30 -75q-30 -29 -74 -29q-43 0 -73 30t-30 74v109zM174 922q0 46 28 76t73 30q44 0 75 -31t31 -75v-109q0 -45 -30 -75t-74 -30q-43 0 -73 32q-30 30 -30 73v109z" />
    <glyph glyph-name="semicolon" unicode=";" horiz-adv-x="552" 
d="M205 922q1 46 29 76t72 30t75 -31t31 -75v-109q0 -45 -30 -75t-73 -30t-73 32q-30 30 -31 73v109zM408 190v-100q-2 -106 -41 -202t-119 -95q-35 0 -59 22t-29 52v37q0 4 22 57q23 53 23 113v116q0 43 28 72q29 29 72 29t73 -30t30 -71z" />
    <glyph glyph-name="less" unicode="&#x3c;" horiz-adv-x="1286" 
d="M449 717q0 -14 18 -29l522 -420q35 -28 39 -70t-24 -77t-71 -38q-42 -3 -77 26l-547 442q-94 80 -94 166t94 166l547 442q35 29 77 26t71 -38q28 -35 24 -78t-39 -70l-522 -420q-18 -14 -18 -28z" />
    <glyph glyph-name="equal" unicode="=" horiz-adv-x="1286" 
d="M1042 414h-798q-43 0 -75 30t-32 75q0 44 31 74t76 30h798q45 0 76 -30t31 -73q0 -42 -32 -74t-75 -32zM1042 813h-798q-45 0 -76 31t-31 75q0 43 31 73t76 30h798q45 0 76 -30t31 -74t-32 -74q-32 -31 -75 -31z" />
    <glyph glyph-name="greater" unicode="&#x3e;" horiz-adv-x="1286" 
d="M1071 717q0 -86 -94 -166l-547 -442q-35 -29 -77 -26q-43 3 -71 38t-24 78t39 69l522 420q38 29 0 57l-522 420q-35 27 -39 70t25 78t71 38t76 -26l547 -442q94 -80 94 -166z" />
    <glyph glyph-name="question" unicode="?" horiz-adv-x="1136" 
d="M410 84v102q0 41 29 70q30 29 73 29t74 -29t30 -70v-102q0 -41 -30 -71q-30 -29 -74 -29q-43 0 -73 29q-29 30 -29 71zM211 1071q-45 0 -77 34t-32 73t31 77q164 205 440 205q195 0 317 -114t122 -295q0 -182 -102 -299t-332 -224q-39 -16 -76 -16t-68 28t-31 68
q0 70 74 105q176 77 248 147t72 171q-1 101 -61 159t-156 59t-158 -31q-64 -32 -123 -104q-43 -43 -88 -43z" />
    <glyph glyph-name="at" unicode="@" horiz-adv-x="1794" 
d="M622 218q-101 95 -102 259v158q0 156 110 261t270 105t272 -105t114 -263v-234q0 -41 28 -69t66 -29q38 0 66 29q27 29 27 69v306q0 251 -169 405q-168 154 -402 154t-392 -148t-178 -377q-14 -178 3 -396t171 -347t368 -129q121 0 242 49q80 29 125 -35q20 -31 12 -71
t-45 -62q-127 -74 -329 -74q-289 0 -506 174t-240 496q-14 236 0 412q19 304 237 500t533 196t539 -204t225 -525v-315q0 -123 -82 -203q-83 -80 -201 -80t-201 83t-83 198v210q0 84 -56 142t-141 59q-84 0 -140 -58t-56 -143v-133q1 -111 79 -156t172 -14q39 10 70 -9
t39 -55t-10 -67q-34 -59 -184 -59t-251 95z" />
    <glyph glyph-name="A" unicode="A" horiz-adv-x="1398" 
d="M699 1237q-32 0 -42 -31l-196 -555h475l-195 555q-10 31 -42 31zM1352 98q0 -32 -30 -67t-79 -35q-76 0 -102 72l-135 383h-615l-135 -385q-27 -70 -102 -70q-49 0 -78 33t-29 67t6 51l410 1139q61 176 236 176t239 -176l408 -1139q6 -17 6 -49z" />
    <glyph glyph-name="B" unicode="B" horiz-adv-x="1372" 
d="M1268 414q0 -206 -122 -310t-319 -104h-471q-80 0 -125 48t-45 120v1104q0 72 45 120t125 48h457q195 0 305 -108t109 -267q0 -238 -187 -315v-2q106 -31 167 -119t61 -215zM406 838h380q221 0 222 198q0 197 -222 197h-380v-395zM406 643v-434h395q244 0 243 219
q0 100 -62 158t-167 57h-409z" />
    <glyph glyph-name="C" unicode="C" horiz-adv-x="1363" 
d="M727 188q111 0 200 58t134 157q37 66 100 66q39 0 73 -30q34 -29 34 -65t-13 -63q-61 -153 -206 -243t-320 -91q-250 0 -415 164t-183 414q-16 166 0 328q18 249 183 413t413 164q175 0 321 -90t207 -244q13 -26 13 -62t-34 -66t-73 -29q-63 0 -100 65q-45 100 -134 158
t-200 59q-160 1 -261 -109q-102 -110 -114 -268t0 -316t112 -264t263 -106z" />
    <glyph glyph-name="D" unicode="D" horiz-adv-x="1470" 
d="M684 0h-330q-80 0 -124 47t-44 121v1106q0 74 44 120t124 46h330q309 0 475 -164t182 -440q8 -109 2 -224q-18 -280 -183 -446t-476 -166zM686 1223h-278v-1006h278q211 0 319 107q107 107 117 297q8 117 2 192q-23 410 -438 410z" />
    <glyph glyph-name="E" unicode="E" horiz-adv-x="1284" 
d="M356 1440h686q47 0 80 -31t33 -76t-34 -78t-79 -32h-634v-396h618q43 -1 73 -29q29 -28 29 -71t-32 -74t-70 -30h-618v-406h641q43 0 77 -33q34 -32 33 -76q0 -44 -32 -76t-78 -32h-693q-80 0 -125 48t-45 120v1106q0 72 45 119t125 47z" />
    <glyph glyph-name="F" unicode="F" horiz-adv-x="1226" 
d="M186 104v1170q0 72 45 119t125 47h678q47 0 81 -31t34 -76t-34 -78t-81 -32h-626v-426h596q44 0 76 -32t32 -76t-33 -76t-75 -31h-596v-478q0 -48 -33 -80t-79 -32t-78 34t-32 78z" />
    <glyph glyph-name="G" unicode="G" horiz-adv-x="1433" 
d="M1309 623v-125q0 -219 -161 -370t-410 -151t-419 165t-188 413q-16 166 0 328q18 245 188 411t420 166q173 0 309 -81t209 -224q17 -27 17 -63t-32 -69q-32 -32 -82 -32t-85 56q-109 205 -334 204q-164 1 -269 -107q-106 -108 -120 -270t0 -318t120 -262t269 -106
q162 0 257 82t96 205v98h-246q-45 0 -76 32t-31 76t31 74t76 29h297q78 0 121 -46t43 -115z" />
    <glyph glyph-name="H" unicode="H" horiz-adv-x="1540" 
d="M186 104v1229q0 47 33 80t79 33t78 -33t32 -80v-510h727v510q0 45 32 79q33 34 79 34t78 -33t32 -80v-1229q0 -48 -32 -80t-78 -32t-79 34t-32 78v508h-727v-508q0 -48 -32 -80t-78 -32t-79 34t-33 78z" />
    <glyph glyph-name="I" unicode="I" horiz-adv-x="589" 
d="M184 104v1229q0 45 33 79t79 34t78 -33t32 -80v-1229q0 -48 -32 -80t-78 -32t-79 34t-33 78z" />
    <glyph glyph-name="J" unicode="J" horiz-adv-x="1085" 
d="M66 280q0 32 29 63q30 32 83 32t90 -60q70 -127 205 -127q92 0 155 65q62 65 62 185v895q0 45 33 79t79 34t78 -33t31 -80v-897q0 -201 -128 -330t-312 -129q-131 0 -237 66q-105 66 -156 172q-12 33 -12 65z" />
    <glyph glyph-name="K" unicode="K" horiz-adv-x="1314" 
d="M1262 102q0 -44 -32 -76t-76 -32t-79 35l-543 542q-30 33 -54 40t-70 7v-514q0 -48 -32 -80t-78 -32t-79 34t-33 78v1229q0 45 33 79t79 34t78 -33t32 -80v-499q44 0 68 8t56 39l535 528q35 37 82 37t76 -33t29 -75t-31 -72l-549 -531l555 -553q33 -37 33 -80z" />
    <glyph glyph-name="L" unicode="L" horiz-adv-x="1148" 
d="M186 147v1186q0 45 33 79t79 34t78 -33t32 -80v-1116h620q43 0 77 -33q34 -32 34 -76t-32 -76t-79 -32h-694q-70 0 -109 42t-39 105z" />
    <glyph glyph-name="M" unicode="M" horiz-adv-x="1918" 
d="M1794 88q0 -32 -29 -66t-77 -34t-80 26t-35 64l-146 1126q-2 18 -18 19q-14 0 -18 -17l-234 -1030q-21 -88 -73 -134t-126 -46q-153 0 -196 180l-236 1028q-4 18 -18 19q-14 0 -19 -19l-143 -1126q-4 -39 -36 -65q-32 -25 -80 -25t-76 34q-29 34 -29 66t2 41l162 1124
q14 99 70 149q57 50 139 50t140 -47t79 -141l225 -1012q4 -18 20 -18t19 18l221 1012q20 94 76 141t140 47t140 -50t70 -149l164 -1124q2 -9 2 -41z" />
    <glyph glyph-name="N" unicode="N" horiz-adv-x="1572" 
d="M406 106q0 -48 -32 -80t-78 -32t-78 34t-32 78v1154q0 78 48 131t126 53q113 0 172 -98l639 -1067h5q0 25 -4 100t-5 219v735q0 47 33 80t78 33t77 -33t31 -80v-1159q0 -76 -47 -128t-122 -52q-111 0 -168 94l-646 1081h-6l9 -329v-734z" />
    <glyph glyph-name="O" unicode="O" horiz-adv-x="1497" 
d="M748 188q164 0 274 109t124 266q13 157 0 314t-125 266q-111 109 -273 109t-273 -110q-111 -108 -124 -264t0 -315t123 -267t274 -108zM748 -23q-250 0 -424 165t-193 413q-16 166 0 328q19 245 193 411t424 166t426 -167t192 -410q16 -164 0 -328q-16 -246 -192 -412
t-426 -166z" />
    <glyph glyph-name="P" unicode="P" horiz-adv-x="1323" 
d="M741 485h-335v-381q0 -44 -33 -78t-78 -34t-77 34t-32 78v1178q0 70 42 114t118 44h412q203 0 342 -130t139 -348t-138 -348q-139 -129 -360 -129zM406 702h331q281 0 281 261q0 121 -69 191t-204 69h-339v-521z" />
    <glyph glyph-name="Q" unicode="Q" horiz-adv-x="1499" 
d="M748 188q61 0 120 17l-166 209q-26 32 -22 74t33 65q33 31 78 29t73 -39l178 -224q92 101 104 251t0 307q-13 157 -125 266q-111 109 -273 109t-273 -110q-111 -108 -124 -264t0 -315t123 -267t274 -108zM748 -23q-250 0 -424 165t-193 413q-16 166 0 328q19 245 193 411
t424 166t426 -167t192 -410q16 -164 0 -328q-18 -244 -186 -405l176 -218q28 -34 22 -76t-37 -68t-73 -24t-72 37l-188 232q-123 -56 -260 -56z" />
    <glyph glyph-name="R" unicode="R" horiz-adv-x="1388" 
d="M406 743h333q281 0 281 242t-270 242h-344v-484zM618 535h-212v-431q0 -46 -33 -80t-78 -34t-77 34t-32 80v1176q0 70 42 115t118 45h418q205 0 341 -120t136 -333q0 -174 -86 -274t-231 -131l331 -406q29 -33 27 -80t-36 -78q-34 -30 -79 -28t-75 37l-359 442
q-29 35 -53 51t-62 15z" />
    <glyph glyph-name="S" unicode="S" horiz-adv-x="1284" 
d="M1198 404q0 -184 -144 -306t-414 -121q-270 0 -474 150q-57 41 -57 93t32 84q33 32 76 32t84 -31q164 -117 371 -117q143 0 224 60t81 154t-78 139t-270 84q-256 49 -372 145t-116 278q-1 182 141 298t365 114q287 0 426 -119q35 -33 35 -81t-29 -78t-67 -29
q-38 0 -86 25q-132 74 -278 74t-216 -60q-70 -58 -70 -146t71 -134t255 -81q274 -51 392 -147t118 -280z" />
    <glyph glyph-name="T" unicode="T" horiz-adv-x="1247" 
d="M514 104v1119h-371q-47 -1 -80 31t-33 78t33 77t80 31h961q47 0 80 -31t33 -77t-34 -78t-79 -31h-369v-1119q0 -48 -32 -80q-31 -32 -77 -32t-79 34t-33 78z" />
    <glyph glyph-name="U" unicode="U" horiz-adv-x="1531" 
d="M1362 1333v-735q0 -274 -169 -447t-427 -173t-428 172q-170 174 -170 448v735q0 45 34 79t79 34t77 -33t31 -80v-741q-1 -184 105 -294t272 -110t270 110t105 294v741q0 47 33 80q32 33 78 33t78 -33t32 -80z" />
    <glyph glyph-name="V" unicode="V" horiz-adv-x="1378" 
d="M45 1344q0 32 30 66t79 34q78 0 104 -74l410 -1147q8 -18 22 -18t23 18l407 1141q29 80 107 80q49 0 86 -42t14 -112l-418 -1134q-69 -178 -223 -178t-217 178l-418 1136q-6 20 -6 52z" />
    <glyph glyph-name="W" unicode="W" horiz-adv-x="1921" 
d="M74 1346q0 32 27 66q28 34 73 34t76 -24t39 -58l225 -1163q2 -4 6 -4t6 4l265 1079q18 80 69 122q50 42 112 42t114 -43t71 -121l264 -1079q2 -6 6 -6t7 6l227 1153q8 44 39 68q32 24 76 24t74 -33t30 -78q0 -12 -4 -28l-270 -1172q-16 -74 -66 -116t-112 -42t-113 42
t-70 114l-266 1071q-2 4 -5 4t-5 -4l-267 -1069q-18 -74 -68 -116t-115 -42t-117 42t-68 118l-258 1170q-2 7 -2 39z" />
    <glyph glyph-name="X" unicode="X" horiz-adv-x="1337" 
d="M1150 1444q52 0 86 -33t34 -78t-25 -76l-432 -542l424 -537q29 -39 29 -79q0 -41 -33 -73t-86 -32t-86 43l-393 498l-396 -500q-31 -41 -85 -41t-87 33q-32 33 -32 75t26 74l428 539l-426 545q-29 37 -24 86q4 48 43 76t84 22t73 -43l396 -506l399 506q31 43 83 43z" />
    <glyph glyph-name="Y" unicode="Y" horiz-adv-x="1337" 
d="M1193 1446q50 0 83 -35t33 -78t-27 -71l-448 -547q-4 -7 -14 -17t-12 -15t-16 -23t-14 -62v-494q0 -48 -32 -80t-78 -32t-78 34q-33 34 -33 78v494q0 14 -3 26t-5 25q-2 12 -19 31q-18 18 -30 37l-445 545q-27 32 -27 74t33 76t82 34t84 -41l441 -553l442 551
q33 43 83 43z" />
    <glyph glyph-name="Z" unicode="Z" horiz-adv-x="1206" 
d="M1026 0h-760q-82 0 -129 44t-47 110t49 129l699 940h-627q-47 -1 -80 31t-33 78t33 77t80 31h717q80 0 126 -44t46 -106t-58 -141l-690 -932h674q47 0 80 -32q33 -33 33 -77t-33 -76t-80 -32z" />
    <glyph glyph-name="bracketleft" unicode="[" horiz-adv-x="763" 
d="M750 -252q0 -45 -32 -76t-79 -30h-346q-66 0 -104 39t-37 102v1700q0 61 36 101q37 40 105 40h346q47 0 79 -30t32 -76t-33 -77q-33 -32 -78 -32h-270v-1554h270q45 0 78 -31t33 -76z" />
    <glyph glyph-name="backslash" unicode="\" horiz-adv-x="765" 
d="M49 1559q41 15 83 -3t58 -61l588 -1470q16 -45 -1 -87t-59 -58t-84 1q-42 18 -59 64l-587 1470q-16 41 2 85t59 59z" />
    <glyph glyph-name="bracketright" unicode="]" horiz-adv-x="763" 
d="M14 -252q0 45 33 76t78 31h270v1554h-270q-45 0 -78 31t-33 77q0 45 32 75t79 30h346q69 0 105 -39t36 -102v-1700q0 -63 -38 -103t-103 -38h-346q-47 0 -79 32t-32 76z" />
    <glyph glyph-name="asciicircum" unicode="^" horiz-adv-x="1173" 
d="M587 1206q-15 0 -24 -20l-157 -449q-14 -41 -56 -58t-81 -2q-40 15 -58 57t-4 79l184 475q61 156 195 156t196 -156l183 -475q14 -37 -3 -79q-18 -42 -58 -57t-81 2t-55 58l-158 449q-8 20 -23 20z" />
    <glyph glyph-name="underscore" unicode="_" horiz-adv-x="966" 
d="M967 -225v-185h-967v185h967z" />
    <glyph glyph-name="grave" unicode="`" horiz-adv-x="782" 
d="M544 1542q-25 0 -55 12l-276 144q-51 27 -51 70q0 44 26 70t56 26q31 0 49 -13l278 -143q49 -27 49 -70q0 -44 -25 -70q-26 -26 -51 -26z" />
    <glyph glyph-name="a" unicode="a" horiz-adv-x="1146" 
d="M324 336q0 -166 250 -166q134 0 212 63v228q-139 35 -241 35q-101 0 -161 -41t-60 -119zM995 707v-533q0 -53 -39 -80q-61 -41 -173 -78t-253 -36q-204 0 -312 98t-108 248t107 249q106 98 309 99q115 0 260 -35v68q0 104 -54 151t-162 47t-234 -45q-66 -20 -108 6
t-42 84q0 60 72 92q127 61 313 62q424 0 424 -397z" />
    <glyph glyph-name="b" unicode="b" horiz-adv-x="1228" 
d="M641 895q-152 0 -254 -64v-571q35 -28 105 -50t131 -22q233 0 256 240q6 88 0 240q-16 227 -238 227zM170 188v1164q0 47 32 79q32 31 77 31t77 -32t31 -78v-308q135 59 268 60q195 0 309 -110t130 -302q14 -128 -1 -306t-139 -292t-327 -114q-129 0 -243 42t-164 78
t-50 88z" />
    <glyph glyph-name="c" unicode="c" horiz-adv-x="1144" 
d="M610 188q168 0 236 148q31 59 85 59q54 1 83 -31t28 -79q0 -96 -119 -201q-120 -104 -317 -104q-198 0 -328 120t-145 301q-8 147 2 310q11 163 143 278t328 115t315 -104q118 -104 117 -201q0 -47 -28 -79t-83 -32q-54 0 -83 60q-68 147 -234 147q-114 0 -182 -60
t-78 -165q-10 -134 0 -242t76 -174t184 -66z" />
    <glyph glyph-name="d" unicode="d" horiz-adv-x="1232" 
d="M606 188q61 0 131 24t105 50v569q-102 63 -252 64q-225 0 -238 -227q-10 -136 0 -240q18 -240 254 -240zM573 1104q137 0 269 -60v308q0 45 31 78q32 32 77 32t77 -32t32 -78v-1164q0 -55 -49 -90q-49 -34 -163 -76t-245 -42q-203 0 -327 114t-140 307q-12 144 0 291
q16 196 130 304t308 108z" />
    <glyph glyph-name="e" unicode="e" horiz-adv-x="1169" 
d="M821 629q23 0 25 24q8 115 -59 187t-191 72t-188 -76q-66 -76 -62 -207h475zM1057 645v-57q0 -59 -33 -95t-98 -36h-580v-25q0 -122 74 -188t184 -66t248 49q63 25 105 -5t42 -84t-55 -87q-117 -71 -329 -71t-340 122t-140 318q-8 115 0 254q13 198 143 314t330 116
t324 -126q125 -126 125 -333z" />
    <glyph glyph-name="f" unicode="f" horiz-adv-x="849" 
d="M752 1257l-172 19q-139 0 -140 -162v-65h262q43 0 73 -28t30 -69q0 -40 -30 -68t-73 -28h-262v-752q0 -48 -32 -80t-76 -32q-45 0 -77 33t-32 79v752h-61q-41 0 -71 28t-30 68t29 69q29 28 72 28h61v75q0 168 90 261t252 94q115 0 196 -24t81 -101q0 -39 -28 -68t-62 -29
z" />
    <glyph glyph-name="g" unicode="g" horiz-adv-x="1228" 
d="M602 895q-233 0 -252 -238q-8 -96 0 -211q16 -236 244 -235q80 0 150 25t98 49v546q-20 20 -102 42q-81 22 -138 22zM1059 895v-825q0 -227 -137 -346t-336 -119t-336 86q-90 55 -90 123q0 38 26 66t74 28q47 0 138 -50q92 -50 188 -50t177 65q81 66 81 182v21
q-135 -63 -281 -64q-190 0 -304 112t-126 296q-10 135 0 262q16 190 135 306t326 116q129 0 244 -41t168 -77t53 -91z" />
    <glyph glyph-name="h" unicode="h" horiz-adv-x="1239" 
d="M387 1352v-359q49 47 127 79t164 32q188 0 298 -112t109 -320v-568q1 -48 -31 -80t-77 -32t-77 33t-32 79v553q0 113 -58 175t-148 63q-171 0 -275 -127v-666q0 -46 -31 -78q-32 -32 -76 -32t-77 33t-33 77v1250q0 47 32 79q32 31 77 31t77 -32t31 -78z" />
    <glyph glyph-name="i" unicode="i" horiz-adv-x="573" 
d="M287 1090q45 0 77 -33t31 -78v-877q1 -46 -31 -78t-76 -32t-77 33t-33 77v877q0 47 32 79t77 32zM408 1356q0 -51 -35 -88t-87 -37t-87 37t-35 88t35 86t87 35t87 -35t35 -86z" />
    <glyph glyph-name="j" unicode="j" horiz-adv-x="561" 
d="M395 1355q0 -50 -36 -87t-86 -37t-85 37q-34 37 -34 88t34 86q35 35 86 35t86 -36t35 -86zM166 178v801q0 47 32 79t76 32t77 -33q32 -33 32 -78v-772q0 -187 -52 -319t-157 -240q-33 -35 -77 -35q-43 -1 -71 23t-35 67t27 88q86 96 117 179t31 208z" />
    <glyph glyph-name="k" unicode="k" horiz-adv-x="1122" 
d="M170 1350q0 46 30 78t77 32q46 0 78 -32t32 -78v-695h29q61 0 108 47l353 355q33 35 79 36t76 -32q31 -33 31 -75t-31 -73l-366 -356l366 -377q33 -35 35 -78q2 -42 -30 -76t-79 -34t-79 35l-355 372q-47 49 -106 50h-31v-347q0 -46 -32 -78t-77 -32q-44 0 -76 33t-32 77
v1248z" />
    <glyph glyph-name="l" unicode="l" horiz-adv-x="555" 
d="M279 1460q45 0 77 -33t31 -77v-1248q0 -46 -31 -78q-32 -32 -76 -32t-77 33t-33 77v1248q0 46 32 78t77 32z" />
    <glyph glyph-name="m" unicode="m" horiz-adv-x="1775" 
d="M1622 672v-570q0 -46 -32 -78t-77 -32t-77 33t-31 77v557q0 236 -203 236q-129 0 -201 -90v-703q-1 -46 -31 -78t-75 -32t-78 33t-33 77v572q0 221 -200 221q-85 1 -115 -13q-29 -14 -43 -20t-22 -10t-15 -8l-6 -6v-736q0 -46 -32 -78t-76 -32q-45 0 -77 33t-32 77v801
q0 51 47 90q149 111 359 111t313 -121q154 121 325 121q412 0 412 -432z" />
    <glyph glyph-name="n" unicode="n" 
d="M1081 672v-570q-1 -46 -31 -78t-75 -32t-78 33t-33 77v560q0 117 -67 175q-68 58 -170 58q-150 0 -244 -57v-736q0 -46 -32 -78t-76 -32q-45 0 -77 33t-32 77v805q0 55 43 84q55 43 167 78t257 35q221 0 335 -112t113 -320z" />
    <glyph glyph-name="o" unicode="o" horiz-adv-x="1214" 
d="M607 895q-113 1 -181 -63t-76 -168q-10 -145 0 -246q10 -102 78 -166t178 -64t180 65q68 65 76 158t2 253q-6 102 -76 166t-181 65zM607 1104q196 0 328 -115t144 -297q10 -145 -1 -309t-144 -284q-133 -119 -327 -119q-195 0 -327 120t-147 299q-8 147 3 311t143 279
t328 115z" />
    <glyph glyph-name="p" unicode="p" horiz-adv-x="1226" 
d="M627 895q-63 0 -137 -25t-107 -51v-563q35 -24 103 -46t137 -22q236 0 251 230q8 110 0 237q-18 240 -247 240zM383 -293q0 -45 -32 -78t-77 -33q-44 0 -76 32t-32 79v1202q0 39 33 62q63 45 180 89t252 44q203 0 323 -114t138 -306q12 -144 0 -289q-16 -195 -134 -305
t-319 -110q-115 0 -256 61v-334z" />
    <glyph glyph-name="q" unicode="q" horiz-adv-x="1232" 
d="M600 895q-230 0 -248 -236q-10 -106 0 -239q12 -231 244 -232q141 0 248 64v567q-33 27 -107 51t-137 25zM596 1104q135 0 253 -42t179 -87q31 -20 31 -66v-1202q0 -47 -31 -79t-76 -32q-44 0 -76 34q-32 32 -32 77v334q-145 -61 -262 -61q-199 0 -315 109t-132 304
q-12 147 0 291q16 192 137 306t324 114z" />
    <glyph glyph-name="r" unicode="r" horiz-adv-x="796" 
d="M770 979q0 -39 -27 -71t-75 -31q-12 0 -64 10t-90 8q-141 -2 -141 -164v-631q0 -44 -32 -76t-77 -32t-77 32t-31 76v666q0 158 89 248t255 90q106 0 188 -24t82 -101z" />
    <glyph glyph-name="s" unicode="s" horiz-adv-x="1011" 
d="M926 317q0 -153 -116 -245t-296 -92q-236 0 -377 116q-31 27 -37 68t17 72q55 76 143 20q111 -80 264 -80q90 0 140 37q49 37 49 90t-33 82q-32 29 -142 55t-114 27q-297 74 -297 307q0 152 114 241t298 89t301 -96q32 -27 32 -71t-22 -69q-51 -61 -141 -14
q-88 51 -189 51q-184 0 -184 -127q0 -42 32 -68t109 -46l160 -37q289 -72 289 -310z" />
    <glyph glyph-name="t" unicode="t" horiz-adv-x="854" 
d="M801 119q1 -141 -317 -139q-154 0 -240 101t-86 267v856q0 47 31 79q32 32 77 32t77 -33t32 -78v-155h282q43 0 73 -28t30 -69q0 -40 -30 -68t-73 -28h-282v-510q0 -162 145 -162q35 0 148 31q59 13 96 -17t37 -79z" />
    <glyph glyph-name="u" unicode="u" 
d="M154 416v559q0 49 28 82q29 33 77 33t80 -33t32 -82v-557q0 -106 63 -168t185 -62t233 68v721q0 47 32 80t77 33t77 -33t31 -80v-793q0 -55 -41 -82q-176 -122 -404 -122t-349 114q-121 115 -121 322z" />
    <glyph glyph-name="v" unicode="v" horiz-adv-x="1073" 
d="M912 1087q70 0 102 -49q33 -49 10 -108l-293 -783q-59 -159 -194 -159t-195 157l-293 789q-23 61 10 109q33 49 81 49q90 1 118 -82l268 -768q2 -8 10 -8t11 8l264 762q31 83 101 83z" />
    <glyph glyph-name="w" unicode="w" horiz-adv-x="1660" 
d="M830 825q-10 0 -9 -8l-176 -678q-41 -160 -182 -159q-66 0 -115 38t-69 117l-216 809q-16 60 14 104t87 44q86 0 108 -91l189 -770q2 -8 10 -8t10 8l176 707q17 74 65 114t110 40t108 -40t66 -114l176 -707q2 -8 10 -8t10 8l189 768q23 93 117 93q48 0 78 -44t13 -104
l-217 -807q-41 -158 -185 -158t-183 158l-172 680q-2 8 -12 8z" />
    <glyph glyph-name="x" unicode="x" horiz-adv-x="1126" 
d="M1036 93q0 -39 -32 -71t-80 -32q-49 0 -80 41l-281 350l-280 -352q-33 -39 -82 -39t-80 32t-31 74t27 72l307 379l-291 362q-29 35 -29 75t33 72t81 32t79 -39l264 -336l266 334q33 41 82 41t81 -32t32 -73t-29 -76l-288 -360l303 -379q28 -35 28 -75z" />
    <glyph glyph-name="y" unicode="y" horiz-adv-x="1073" 
d="M547 340q6 0 8 6l254 658q31 86 101 86t104 -50q33 -50 8 -108l-385 -916q-57 -139 -134 -240q-135 -177 -237 -175q-42 1 -72 29t-30 79t45 82q139 86 215 283l-373 858q-25 59 9 108t90 50q82 0 110 -82l277 -662q4 -6 10 -6z" />
    <glyph glyph-name="z" unicode="z" horiz-adv-x="1036" 
d="M838 201q44 0 76 -29t32 -72q0 -44 -32 -72t-76 -28h-584q-70 0 -114 39t-44 98t43 113l555 618h-463q-45 0 -75 28t-31 71q0 43 32 71t74 29h562q123 0 147 -111q18 -77 -45 -151l-543 -604h486z" />
    <glyph glyph-name="braceleft" unicode="{" horiz-adv-x="829" 
d="M705 1409h-209q-27 0 -44 -17t-18 -44v-398q0 -213 -137 -305q137 -98 137 -305v-426q0 -25 18 -43t42 -18h211q45 0 77 -31t33 -76q0 -45 -32 -76t-78 -30h-256q-94 0 -163 68t-69 163v467q0 78 -23 131q-24 53 -75 94t-51 81t51 81q100 80 98 225v467q1 85 61 145
t144 60h283q47 0 79 -31t31 -75t-33 -76q-32 -31 -77 -31z" />
    <glyph glyph-name="bar" unicode="|" horiz-adv-x="622" 
d="M307 1710q45 0 77 -33t32 -80v-1773q0 -47 -32 -79t-77 -32t-77 33t-31 78v1773q0 47 31 80q32 33 77 33z" />
    <glyph glyph-name="braceright" unicode="}" horiz-adv-x="829" 
d="M612 338v-467q0 -94 -68 -163t-163 -68h-256q-47 0 -79 30t-32 76q0 45 33 76t78 31h211q25 0 42 18t17 43v426q0 207 137 305q-137 92 -137 305v398q0 27 -17 44t-44 17h-209q-45 0 -78 31t-33 76q0 46 32 76t79 30h283q84 0 144 -60t60 -145v-467q0 -145 99 -225
q51 -41 51 -81t-51 -81q-99 -80 -99 -225z" />
    <glyph glyph-name="asciitilde" unicode="~" horiz-adv-x="1316" 
d="M1198 756q0 -80 -84 -113q-164 -70 -250 -70q-86 1 -212 53t-194 52t-152 -42t-137 -6q-52 36 -52 91q0 78 86 115q162 68 247 68q86 0 210 -53q124 -52 197 -52t157 42t134 6t50 -91z" />
    <glyph glyph-name="exclamdown" unicode="&#xa1;" horiz-adv-x="464" 
d="M129 1251v103q0 42 30 70q29 28 73 28t74 -29t30 -69v-103q0 -41 -30 -71t-74 -29q-44 -1 -74 29t-29 71zM232 967q38 0 66 -27t30 -68l12 -766q2 -46 -30 -78t-78 -32t-78 32t-29 78l12 766q0 39 28 67q29 28 67 28z" />
    <glyph glyph-name="cent" unicode="&#xa2;" horiz-adv-x="1007" 
d="M655 1350v-170q90 -20 158 -74t97 -130q29 -75 -20 -117q-32 -28 -69 -28q-66 0 -90 60q-25 53 -72 85t-104 32q-172 0 -190 -195q-8 -98 0 -195q20 -190 190 -190q123 0 176 115q25 59 90 59q37 0 68 -28t31 -56t-9 -51q-78 -174 -256 -217v-166q1 -43 -27 -73
q-28 -29 -68 -29t-68 30t-29 72v170q-129 29 -212 127q-83 99 -90 217t1 235t90 217t211 130v170q0 42 29 72q28 30 68 30t68 -30t27 -72z" />
    <glyph glyph-name="sterling" unicode="&#xa3;" horiz-adv-x="1183" 
d="M135 571q-47 0 -80 30t-33 76t33 75t80 28h84q-39 182 -39 242q0 184 118 307t348 123t390 -160q45 -45 45 -91q-1 -46 -31 -76q-30 -29 -73 -29t-90 37q-119 109 -248 109t-185 -66q-56 -64 -56 -133t18 -154q20 -84 24 -109h269q47 0 79 -28t31 -74q0 -45 -33 -76
t-77 -31h-246q16 -164 -82 -354h633q43 0 77 -33q33 -33 33 -78q0 -46 -32 -76t-78 -30h-731q-70 0 -110 38t-40 85t37 127q90 178 76 321h-111z" />
    <glyph glyph-name="currency" unicode="&#xa4;" horiz-adv-x="1269" 
d="M635 965q-78 -1 -131 -53q-52 -52 -58 -124t-2 -144q4 -73 58 -124t133 -51q78 0 132 51q54 50 57 120t-1 145t-57 127t-131 53zM637 1149q121 0 217 -74l147 148q29 33 72 33t72 -30q29 -28 27 -70t-31 -73l-162 -163q27 -63 30 -133t2 -140t-32 -131l162 -164
q31 -32 31 -72t-28 -70q-30 -30 -71 -29t-72 32l-145 154q-104 -80 -219 -80t-223 80l-146 -154q-32 -31 -72 -32t-70 29t-29 71t32 71l162 164q-29 61 -31 131q-2 69 1 139t30 134l-162 163q-31 31 -32 73t28 71t72 29t71 -33l148 -148q100 74 221 74z" />
    <glyph glyph-name="yen" unicode="&#xa5;" horiz-adv-x="1337" 
d="M778 610h201q45 0 77 -28t32 -73q0 -44 -32 -73t-77 -28h-201v-304q0 -48 -32 -80t-78 -32t-77 34q-32 34 -32 78v304h-201q-48 0 -78 28t-30 72q0 45 31 74t77 28h201q-5 33 -13 47q-9 14 -13 24t-31 36l-447 545q-31 37 -26 83q4 45 39 75t83 25t76 -40l441 -553
l442 551q29 37 76 42t82 -24t40 -75t-26 -84l-448 -547q-4 -6 -30 -36t-26 -69z" />
    <glyph glyph-name="brokenbar" unicode="&#xa6;" horiz-adv-x="622" 
d="M307 1710q45 0 77 -33t32 -80v-700q0 -47 -32 -79t-77 -32t-77 33t-31 78v700q0 47 31 80q32 33 77 33zM307 637q45 0 77 -33t32 -80v-700q0 -47 -32 -79t-77 -32t-77 33t-31 78v700q0 47 31 80q32 33 77 33z" />
    <glyph glyph-name="section" unicode="&#xa7;" horiz-adv-x="1175" 
d="M834 564q0 42 -54 75t-178 62t-201 61l-4 -6q-31 -35 -31 -79q0 -43 56 -77q55 -34 196 -65q109 -29 181 -58l4 6q31 39 31 81zM1020 580q0 -104 -76 -189q84 -87 84 -237t-122 -258t-314 -107q-123 0 -238 38t-164 77t-49 90t32 81q32 29 71 29t67 -18q133 -82 261 -82
t182 49q55 49 55 126t-57 111q-58 34 -234 78t-259 117t-83 179t76 186q-84 88 -84 236t123 258q123 108 331 108t361 -117q47 -39 47 -88t-30 -81q-57 -61 -165 6t-225 67t-169 -49t-52 -116t42 -112q25 -28 89 -46q64 -19 129 -37q205 -53 288 -124t83 -175z" />
    <glyph glyph-name="dieresis" unicode="&#xa8;" horiz-adv-x="782" 
d="M563 1778q47 0 79 -32t32 -79t-32 -80t-79 -33t-79 33t-32 79t32 79t79 33zM219 1778q47 0 79 -33t32 -79t-32 -79t-79 -33t-79 33t-31 80q0 47 31 79q32 32 79 32z" />
    <glyph glyph-name="copyright" unicode="&#xa9;" horiz-adv-x="1632" 
d="M819 438q125 0 176 105q19 47 59 47q78 0 81 -74q0 -20 -13 -51q-34 -78 -116 -126t-204 -48t-217 93t-110 237q-8 79 2 209q11 130 107 224t218 93q122 0 204 -48q84 -48 114 -123t-6 -109q-20 -19 -59 -19t-60 47q-51 106 -176 106q-80 0 -131 -54q-51 -55 -56 -127
t-1 -187q6 -87 57 -141t131 -54zM816 1298q-196 0 -330 -129t-148 -342q-8 -109 0 -217q14 -211 148 -341t330 -130t331 130t147 341q8 109 0 217q-14 213 -148 342t-330 129zM815 1452q260 0 442 -180t193 -455q4 -98 0 -196q-10 -273 -192 -453t-443 -180q-260 0 -442 180
t-193 453q-4 98 0 196q10 275 192 455t443 180z" />
    <glyph glyph-name="ordfeminine" unicode="&#xaa;" horiz-adv-x="983" 
d="M451 741q47 0 99 24t85 58q-8 61 -8 133v269q-68 41 -176 41q-164 0 -175 -166q-12 -96 0 -199q11 -160 175 -160zM435 555q-146 0 -239 93t-104 247q-6 106 0 215q8 158 104 250t253 92q98 0 189 -30t134 -60q41 -31 41 -78v-360q1 -76 17 -120t55 -97q27 -43 17 -81
t-42 -57q-76 -39 -125 23q-27 35 -43 67q-111 -104 -257 -104z" />
    <glyph glyph-name="guillemotleft" unicode="&#xab;" horiz-adv-x="1204" 
d="M561 726q0 93 96 167l248 190q37 27 77 24t67 -36t23 -75t-38 -66l-231 -176q-37 -29 0 -58l231 -176q33 -24 37 -66q3 -42 -23 -75t-66 -36t-77 24l-248 192q-96 74 -96 167zM90 726q0 93 94 167l250 190q35 27 75 24q41 -3 67 -36t23 -75t-36 -66l-231 -176
q-37 -29 0 -58l231 -176q33 -24 36 -66t-24 -75t-67 -36t-74 24l-250 192q-94 74 -94 167z" />
    <glyph glyph-name="logicalnot" unicode="&#xac;" horiz-adv-x="1286" 
d="M1163 672v-373q1 -45 -29 -76t-74 -31t-75 32t-31 75v313h-725q-45 0 -75 31t-31 75q0 44 31 74t75 29h783q72 1 112 -41t39 -108z" />
    <glyph glyph-name="registered" unicode="&#xae;" horiz-adv-x="1267" 
d="M631 338q-199 0 -337 138t-149 343q-2 78 0 154q11 205 149 343t337 138t337 -138t148 -343q2 -76 0 -154q-10 -205 -148 -343t-337 -138zM602 821h-57v-145q-1 -27 -17 -43q-16 -17 -41 -17t-41 18t-16 42v432q0 31 18 50t52 20h162q80 0 133 -48t53 -131
q0 -121 -98 -157l100 -129q14 -20 14 -43t-17 -39q-17 -17 -43 -17t-46 25l-123 166q-12 16 -33 16zM631 1335q-152 0 -251 -95q-139 -134 -112 -429q12 -162 112 -258t250 -96q151 0 250 95q141 135 113 429q-14 164 -112 259t-250 95zM543 922h100q88 0 88 76t-84 77h-104
v-153z" />
    <glyph glyph-name="macron" unicode="&#xaf;" horiz-adv-x="782" 
d="M229 1743h330q39 0 65 -25q26 -26 26 -64t-26 -64t-65 -25h-330q-39 -1 -65 25t-25 65q-1 39 25 63t65 25z" />
    <glyph glyph-name="degree" unicode="&#xb0;" horiz-adv-x="708" 
d="M225 1202q0 -53 38 -90t91 -37t91 37t38 90t-38 91t-91 38t-91 -38t-38 -91zM354 934q-112 0 -190 80t-78 189q0 110 79 190t189 80t190 -80q79 -80 79 -190q0 -109 -79 -189t-190 -80z" />
    <glyph glyph-name="plusminus" unicode="&#xb1;" horiz-adv-x="1286" 
d="M541 356v314h-312q-45 0 -75 30t-31 74q0 43 31 74t75 31h312v311q0 43 30 75q31 31 74 31t74 -32t31 -74v-311h307q45 0 76 -31t31 -74t-32 -74t-75 -30h-307v-314q0 -46 -30 -76t-74 -30t-74 32t-31 74zM1057 0h-828q-45 0 -75 31t-31 75q0 44 31 73q31 30 75 30h828
q45 0 76 -30t31 -74q0 -45 -32 -75t-75 -30z" />
    <glyph glyph-name="twosuperior" unicode="&#xb2;" horiz-adv-x="923" 
d="M129 629q0 156 199 301q18 12 71 47t82 57t57 59q59 81 -3 147q-31 32 -106 32t-136 -74q-43 -43 -79 -43t-64 27q-28 28 -29 62q0 34 22 65q41 59 118 101t177 42q154 0 238 -78t84 -187t-52 -179t-198 -166q-10 -6 -34 -22t-35 -24q-95 -61 -103 -104h344q43 0 73 -26
q29 -26 29 -68q0 -43 -30 -69t-72 -25h-426q-61 0 -94 34t-33 91z" />
    <glyph glyph-name="threesuperior" unicode="&#xb3;" horiz-adv-x="876" 
d="M276 1004q0 32 27 59l162 166h-256q-41 1 -68 29t-26 69q0 41 26 68q27 27 68 26h383q49 -1 83 -29t34 -76t-50 -102l-114 -120q101 -20 159 -90t58 -168q0 -164 -131 -259t-359 -96q-46 0 -76 2t-58 28q-28 25 -28 65t27 68t70 28l82 -6q129 0 205 45t75 123
q1 52 -33 80t-94 28l-88 -10q-30 0 -54 20t-24 52z" />
    <glyph glyph-name="acute" unicode="&#xb4;" horiz-adv-x="782" 
d="M621 1768q0 -42 -50 -70l-278 -144q-29 -12 -55 -12t-51 27t-25 71t51 68l276 143q21 13 51 13t56 -27t25 -69z" />
    <glyph glyph-name="mu" unicode="&#xb5;" horiz-adv-x="1253" 
d="M178 -274v1249q0 45 31 78t76 33t77 -34q32 -32 33 -77v-559q-1 -106 59 -166t184 -62q124 0 226 66v721q0 47 32 79t77 32t77 -34q32 -32 31 -77v-803q0 -43 -32 -66q-176 -125 -416 -124q-141 0 -238 63v-319q1 -47 -31 -79t-77 -32t-77 33t-32 78z" />
    <glyph glyph-name="mu" unicode="&#x3bc;" horiz-adv-x="1253" 
d="M178 -274v1249q0 45 31 78t76 33t77 -34q32 -32 33 -77v-559q-1 -106 59 -166t184 -62q124 0 226 66v721q0 47 32 79t77 32t77 -34q32 -32 31 -77v-803q0 -43 -32 -66q-176 -125 -416 -124q-141 0 -238 63v-319q1 -47 -31 -79t-77 -32t-77 33t-32 78z" />
    <glyph glyph-name="paragraph" unicode="&#xb6;" horiz-adv-x="1501" 
d="M381 969q0 -125 74 -191t215 -65h67v510h-73q-135 -1 -209 -65t-74 -189zM846 -393q-45 0 -77 33t-32 77v785h-84q-219 0 -356 125t-137 342t139 344t344 127h508q78 4 122 -42t44 -120v-1561q0 -45 -32 -77t-77 -33q-44 0 -76 33t-32 77v1506h-146v-1506q0 -47 -32 -79
t-76 -31z" />
    <glyph glyph-name="periodcentered" unicode="&#xb7;" horiz-adv-x="555" 
d="M174 776q0 45 28 76t73 31q44 0 75 -31t31 -76v-108q0 -45 -30 -75t-74 -30q-43 0 -73 30t-30 75v108z" />
    <glyph glyph-name="cedilla" unicode="&#xb8;" horiz-adv-x="782" 
d="M440 8q0 -12 -6 -24l-26 -70q90 -6 141 -59t51 -136q0 -180 -260 -270q-41 -14 -78 4q-37 19 -37 69t58 72q91 37 121 63t30 52q0 25 -16 43t-45 19l-66 -9q-37 0 -58 32t-7 69l57 155q23 60 64 60q77 0 77 -70z" />
    <glyph glyph-name="onesuperior" unicode="&#xb9;" horiz-adv-x="700" 
d="M328 596v573l-119 -59q-37 -18 -74 -9t-56 43t-7 75t45 57l254 143q23 15 59 15t63 -29q28 -29 27 -72v-737q0 -43 -26 -71q-26 -27 -67 -27q-42 0 -71 29q-28 30 -28 69z" />
    <glyph glyph-name="ordmasculine" unicode="&#xba;" horiz-adv-x="942" 
d="M471 741q74 0 124 45t56 131q6 87 0 171t-56 130t-124 46t-124 -46t-56 -130t1 -170t56 -132q49 -45 123 -45zM471 553q-156 0 -258 100t-115 256q-6 94 0 189q12 152 116 253t257 101q154 0 257 -101t116 -253q6 -93 0 -189q-12 -156 -114 -256t-259 -100z" />
    <glyph glyph-name="guillemotright" unicode="&#xbb;" horiz-adv-x="1204" 
d="M643 726q0 -93 -94 -167l-250 -192q-35 -27 -75 -24t-66 36t-24 75q3 42 36 66l231 176q37 29 0 58l-231 176q-33 24 -36 66t24 75q26 33 66 36t75 -24l250 -190q94 -74 94 -167zM1116 726q0 -93 -96 -167l-250 -192q-35 -27 -75 -24q-39 3 -67 36t-23 75t38 66l231 176
q37 29 0 58l-231 176q-33 24 -38 66t23 75t68 36t74 -24l250 -190q96 -74 96 -167z" />
    <glyph glyph-name="onequarter" unicode="&#xbc;" horiz-adv-x="2019" 
d="M324 596v573l-115 -59q-37 -18 -74 -9t-56 43t-7 75t45 57l254 143q23 15 59 15t63 -29q28 -29 27 -72v-737q0 -43 -26 -71q-26 -27 -70 -27q-43 0 -72 29q-28 30 -28 69zM510 70l543 1366q18 43 58 57t77 -1t51 -52t-2 -78l-543 -1366q-16 -37 -51 -53t-75 -2t-56 53
t-2 76zM1587 369v329l-293 -329h293zM1763 369h70q37 0 63 -25q26 -24 25 -62q0 -38 -25 -63t-63 -24h-70v-107q1 -36 -25 -62t-64 -26t-62 25t-25 63v105h-383q-57 1 -95 35t-38 89t55 115l392 442q51 62 111 62t97 -38t37 -95v-434z" />
    <glyph glyph-name="onehalf" unicode="&#xbd;" horiz-adv-x="1988" 
d="M1194 125q0 156 199 301q18 12 71 47t82 57t57 59q61 82 -4 147q-31 32 -105 32t-136 -74q-43 -43 -79 -43t-65 27q-28 28 -28 62t22 65q41 59 118 101t177 42q154 0 238 -78t84 -187t-52 -179t-198 -166q-10 -6 -34 -22t-35 -24q-95 -61 -103 -104h344q43 0 73 -26
t30 -68t-30 -68t-73 -26h-426q-61 0 -94 34t-33 91zM328 596v573l-119 -59q-37 -18 -74 -9t-56 43t-7 75t45 57l254 143q23 15 59 15t63 -29q28 -29 27 -72v-737q0 -43 -26 -71q-26 -27 -67 -27q-42 0 -71 29q-28 30 -28 69zM512 70l543 1366q18 43 58 57t77 -1t51 -52
t-2 -78l-543 -1366q-16 -37 -51 -53t-75 -2t-56 53t-2 76z" />
    <glyph glyph-name="threequarters" unicode="&#xbe;" horiz-adv-x="2193" 
d="M707 70l542 1366q19 43 59 57t76 -2q38 -14 52 -51t-2 -78l-543 -1366q-16 -37 -51 -53t-75 -2t-56 53t-2 76zM276 1004q0 32 27 59l162 166h-256q-41 1 -68 29t-26 69q0 41 26 68q27 27 68 26h383q49 -1 83 -29t34 -76t-50 -102l-114 -120q101 -20 159 -90t58 -168
q0 -164 -131 -259t-359 -96q-162 0 -161 94q0 41 26 69q27 28 70 28l82 -6q129 0 205 45t75 123q1 52 -33 80t-94 28l-88 -10q-30 0 -54 20t-24 52zM1782 369v329l-293 -329h293zM2030 195h-72v-74q0 -121 -87 -121t-87 121v72h-342q-176 0 -176 124q0 31 15 59t69 87
l309 352q84 92 135 111q25 10 53 6q111 -8 111 -170v-393h72q36 0 62 -25q26 -24 26 -62t-24 -62t-64 -25z" />
    <glyph glyph-name="questiondown" unicode="&#xbf;" horiz-adv-x="1136" 
d="M713 1354v-103q0 -41 -30 -69t-73 -29q-44 0 -74 29t-30 69v103q0 40 31 70t73 30t73 -30q30 -30 30 -70zM911 367q45 0 77 -34t32 -73t-31 -78q-164 -205 -440 -205q-195 0 -317 114t-122 296t103 299q102 117 332 223q90 37 143 -11q31 -28 31 -69q0 -70 -74 -104
q-176 -77 -248 -147q-71 -70 -71 -172t60 -159q60 -59 156 -59t158 32q64 32 123 104q43 43 88 43z" />
    <glyph glyph-name="Agrave" unicode="&#xc0;" horiz-adv-x="1398" 
d="M759 1540q-25 0 -54 12l-277 144q-51 25 -51 69q-1 45 25 71t57 26t49 -13l278 -143q50 -27 50 -70q0 -44 -26 -70t-51 -26zM699 1237q-32 0 -42 -31l-196 -555h475l-195 555q-10 31 -42 31zM1352 98q0 -32 -30 -67t-79 -35q-76 0 -102 72l-135 383h-615l-135 -385
q-27 -70 -102 -70q-49 0 -78 33t-29 67t6 51l410 1139q61 176 236 176t239 -176l408 -1139q6 -17 6 -49z" />
    <glyph glyph-name="Aacute" unicode="&#xc1;" horiz-adv-x="1398" 
d="M1008 1766q0 -42 -50 -70l-278 -144q-28 -12 -54 -12t-52 27t-26 69t52 70l277 143q20 13 50 13q29 0 55 -27t26 -69zM699 1237q-32 0 -42 -31l-196 -555h475l-195 555q-10 31 -42 31zM1352 98q0 -32 -30 -67t-79 -35q-76 0 -102 72l-135 383h-615l-135 -385
q-27 -70 -102 -70q-49 0 -78 33t-29 67t6 51l410 1139q61 176 236 176t239 -176l408 -1139q6 -17 6 -49z" />
    <glyph glyph-name="Acircumflex" unicode="&#xc2;" horiz-adv-x="1398" 
d="M1012 1634q0 -40 -26 -66t-56 -26t-64 21l-166 127l-165 -127q-70 -45 -118 6q-26 27 -26 65t39 68l203 153q33 29 67 29t68 -29l205 -153q39 -29 39 -68zM699 1237q-32 0 -42 -31l-196 -555h475l-195 555q-10 31 -42 31zM1352 98q0 -32 -30 -67t-79 -35q-76 0 -102 72
l-135 383h-615l-135 -385q-27 -70 -102 -70q-49 0 -78 33t-29 67t6 51l410 1139q61 176 236 176t239 -176l408 -1139q6 -17 6 -49z" />
    <glyph glyph-name="Atilde" unicode="&#xc3;" horiz-adv-x="1398" 
d="M564 1790q66 0 143 -38t107 -38t67 30t67 30t54 -26q22 -26 22 -58t-35 -68q-84 -78 -164 -78q-51 0 -131 37t-108 37t-67 -29q-73 -56 -122 -3q-23 26 -22 59q0 33 35 67q88 78 154 78zM699 1237q-32 0 -42 -31l-196 -555h475l-195 555q-10 31 -42 31zM1352 98
q0 -32 -30 -67t-79 -35q-76 0 -102 72l-135 383h-615l-135 -385q-27 -70 -102 -70q-49 0 -78 33t-29 67t6 51l410 1139q61 176 236 176t239 -176l408 -1139q6 -17 6 -49z" />
    <glyph glyph-name="Adieresis" unicode="&#xc4;" horiz-adv-x="1398" 
d="M872 1554q-46 0 -78 33t-32 79t32 79t79 33q46 0 78 -32t32 -79t-32 -80t-79 -33zM418 1667q0 47 32 79t77 32q46 0 79 -33t33 -79t-32 -79t-79 -33q-46 0 -78 33t-32 80zM699 1237q-32 0 -42 -31l-196 -555h475l-195 555q-10 31 -42 31zM1352 98q0 -32 -30 -67t-79 -35
q-76 0 -102 72l-135 383h-615l-135 -385q-27 -70 -102 -70q-49 0 -78 33t-29 67t6 51l410 1139q61 176 236 176t239 -176l408 -1139q6 -17 6 -49z" />
    <glyph glyph-name="Aring" unicode="&#xc5;" horiz-adv-x="1398" 
d="M614 1754q0 -36 25 -62t59 -25q34 0 61 26q25 25 25 61t-25 62q-26 26 -61 26q-36 0 -60 -26t-24 -62zM487 1754q1 86 63 148t149 62t149 -60t63 -148q0 -88 -62 -150q-61 -62 -149 -62t-150 62t-63 148zM699 1237q-32 0 -42 -31l-196 -555h475l-195 555q-10 31 -42 31z
M1352 98q0 -32 -30 -67t-79 -35q-76 0 -102 72l-135 383h-615l-135 -385q-27 -70 -102 -70q-49 0 -78 33t-29 67t6 51l410 1139q61 176 236 176t239 -176l408 -1139q6 -17 6 -49z" />
    <glyph glyph-name="AE" unicode="&#xc6;" horiz-adv-x="2160" 
d="M1063 670v553q-33 0 -66 -49l-342 -504h408zM1063 168v301h-541l-286 -428q-25 -37 -68 -45t-81 14t-48 69q-10 46 14 79l774 1145q53 77 115 107t162 30h817q47 0 80 -32t33 -77t-34 -77t-79 -31h-639v-398h621q43 -1 73 -29t31 -70q0 -42 -32 -73t-72 -30h-621v-406
h643q45 0 79 -32q34 -33 34 -77t-33 -76t-80 -32h-692q-80 0 -125 48t-45 120z" />
    <glyph glyph-name="Ccedilla" unicode="&#xc7;" horiz-adv-x="1359" 
d="M727 1460q175 0 321 -90t207 -244q13 -26 13 -62t-34 -66t-73 -29q-63 0 -100 65q-45 100 -133 158t-201 57q-160 -1 -261 -109q-102 -108 -114 -266t0 -316q12 -159 112 -264t263 -106q111 0 200 58t134 157q37 66 100 66q39 0 73 -30q34 -29 34 -65t-13 -63
q-55 -137 -181 -225t-281 -104l-25 -68q90 -6 141 -59t52 -136q0 -180 -261 -270q-42 -14 -78 4q-36 17 -36 69t57 72q92 37 122 63t30 52q-1 25 -17 43t-45 19l-65 -9q-37 0 -59 32t-7 69l43 123q-217 26 -357 184t-157 385q-16 166 0 328q18 249 183 413t413 164z" />
    <glyph glyph-name="Egrave" unicode="&#xc8;" horiz-adv-x="1284" 
d="M761 1540q-25 0 -54 12l-277 144q-51 25 -51 69q-1 45 25 71t57 26t49 -13l278 -143q50 -27 50 -70q0 -44 -26 -70t-51 -26zM356 1440h686q47 0 80 -31t33 -76t-34 -78t-79 -32h-634v-396h618q43 -1 73 -29q29 -28 29 -71t-32 -74t-70 -30h-618v-406h641q43 0 77 -33
q34 -32 33 -76q0 -44 -32 -76t-78 -32h-693q-80 0 -125 48t-45 120v1106q0 72 45 119t125 47z" />
    <glyph glyph-name="Eacute" unicode="&#xc9;" horiz-adv-x="1284" 
d="M528 1540q-26 0 -52 27t-26 69t52 70l276 143q20 13 50 13t56 -27t26 -69t-50 -70l-278 -144q-28 -12 -54 -12zM356 1440h686q47 0 80 -31t33 -76t-34 -78t-79 -32h-634v-396h618q43 -1 73 -29q29 -28 29 -71t-32 -74t-70 -30h-618v-406h641q43 0 77 -33q34 -32 33 -76
q0 -44 -32 -76t-78 -32h-693q-80 0 -125 48t-45 120v1106q0 72 45 119t125 47z" />
    <glyph glyph-name="Ecircumflex" unicode="&#xca;" horiz-adv-x="1284" 
d="M989 1634q1 -40 -25 -66t-56 -26t-64 21l-166 127l-166 -127q-69 -45 -118 6q-26 27 -26 65t40 68l202 153q32 29 66 29t69 -29l205 -153q39 -29 39 -68zM356 1440h686q47 0 80 -31t33 -76t-34 -78t-79 -32h-634v-396h618q43 -1 73 -29q29 -28 29 -71t-32 -74t-70 -30
h-618v-406h641q43 0 77 -33q34 -32 33 -76q0 -44 -32 -76t-78 -32h-693q-80 0 -125 48t-45 120v1106q0 72 45 119t125 47z" />
    <glyph glyph-name="Edieresis" unicode="&#xcb;" horiz-adv-x="1284" 
d="M857 1776q46 0 78 -32t32 -79t-32 -80t-79 -33t-79 33t-32 80t33 79t79 32zM511 1776q46 0 79 -32t33 -79t-32 -80t-79 -33t-79 33t-32 80t32 79t78 32zM356 1440h686q47 0 80 -31t33 -76t-34 -78t-79 -32h-634v-396h618q43 -1 73 -29q29 -28 29 -71t-32 -74t-70 -30
h-618v-406h641q43 0 77 -33q34 -32 33 -76q0 -44 -32 -76t-78 -32h-693q-80 0 -125 48t-45 120v1106q0 72 45 119t125 47z" />
    <glyph glyph-name="Igrave" unicode="&#xcc;" horiz-adv-x="583" 
d="M436 1636q0 -44 -26 -70t-50 -26q-26 0 -55 12l-276 144q-51 25 -51 69q0 45 25 71q26 26 57 26t49 -13l278 -143q49 -27 49 -70zM180 104v1229q0 45 33 79t79 34t78 -33t31 -80v-1229q1 -48 -31 -80t-78 -32t-79 34t-33 78z" />
    <glyph glyph-name="Iacute" unicode="&#xcd;" horiz-adv-x="583" 
d="M584 1766q0 -42 -49 -70l-279 -144q-28 -12 -54 -12t-52 27t-25 69q0 42 51 70l277 143q20 13 50 13q29 0 55 -27t26 -69zM180 104v1229q0 45 33 79t79 34t78 -33t31 -80v-1229q1 -48 -31 -80t-78 -32t-79 34t-33 78z" />
    <glyph glyph-name="Icircumflex" unicode="&#xce;" horiz-adv-x="583" 
d="M600 1634q0 -40 -26 -66t-56 -26t-63 21l-166 127l-166 -127q-69 -45 -118 6q-25 27 -25 65t38 68l203 153q33 29 67 29t68 -29l205 -153q39 -29 39 -68zM180 104v1229q0 45 33 79t79 34t78 -33t31 -80v-1229q1 -48 -31 -80t-78 -32t-79 34t-33 78z" />
    <glyph glyph-name="Idieresis" unicode="&#xcf;" horiz-adv-x="583" 
d="M465 1778q47 0 79 -32t32 -79t-32 -80t-79 -33t-79 33t-32 79t32 79t79 33zM121 1778q47 0 79 -33t32 -79t-32 -79t-79 -33t-79 33t-32 80t32 79t79 32zM180 104v1229q0 45 33 79t79 34t78 -33t31 -80v-1229q1 -48 -31 -80t-78 -32t-79 34t-33 78z" />
    <glyph glyph-name="Eth" unicode="&#xd0;" horiz-adv-x="1472" 
d="M686 1223h-280v-408h280q43 0 71 -29q27 -28 27 -70t-28 -71t-70 -29h-280v-399h280q211 0 319 107q107 107 117 297q8 117 2 192q-23 410 -438 410zM684 0h-330q-80 0 -124 47t-44 121v448h-104q-43 0 -72 30t-28 71q0 41 28 69t72 29h104v459q0 74 44 120t124 46h330
q309 0 475 -164t182 -440q8 -109 2 -224q-18 -280 -183 -446t-476 -166z" />
    <glyph glyph-name="Ntilde" unicode="&#xd1;" horiz-adv-x="1572" 
d="M666 1794q66 0 144 -38q76 -38 106 -38t67 30t68 30t53 -26q52 -60 -12 -126q-84 -78 -164 -78q-51 0 -131 37t-109 37q-28 0 -66 -29q-74 -57 -122 -3q-23 26 -23 59t35 67q88 78 154 78zM406 106q0 -48 -32 -80t-78 -32t-78 34t-32 78v1154q0 78 48 131t126 53
q113 0 172 -98l639 -1067h5q0 25 -4 100t-5 219v735q0 47 33 80t78 33t77 -33t31 -80v-1159q0 -76 -47 -128t-122 -52q-111 0 -168 94l-646 1081h-6l9 -329v-734z" />
    <glyph glyph-name="Ograve" unicode="&#xd2;" horiz-adv-x="1497" 
d="M915 1636q1 -44 -25 -70t-52 -26t-54 12l-276 144q-51 25 -51 69q-1 45 25 71t57 26t49 -13l278 -143q49 -27 49 -70zM748 188q164 0 274 109t124 266q13 157 0 314t-125 266q-111 109 -273 109t-273 -110q-111 -108 -124 -264t0 -315t123 -267t274 -108zM748 -23
q-250 0 -424 165t-193 413q-16 166 0 328q19 245 193 411t424 166t426 -167t192 -410q16 -164 0 -328q-16 -246 -192 -412t-426 -166z" />
    <glyph glyph-name="Oacute" unicode="&#xd3;" horiz-adv-x="1497" 
d="M648 1540q-26 0 -52 27t-24 69q0 42 51 70l276 143q62 32 106 -14q25 -27 25 -69t-49 -70l-279 -144q-28 -12 -54 -12zM748 188q164 0 274 109t124 266q13 157 0 314t-125 266q-111 109 -273 109t-273 -110q-111 -108 -124 -264t0 -315t123 -267t274 -108zM748 -23
q-250 0 -424 165t-193 413q-16 166 0 328q19 245 193 411t424 166t426 -167t192 -410q16 -164 0 -328q-16 -246 -192 -412t-426 -166z" />
    <glyph glyph-name="Ocircumflex" unicode="&#xd4;" horiz-adv-x="1497" 
d="M1063 1634q0 -40 -26 -66q-25 -26 -55 -26t-64 21l-166 127l-166 -127q-70 -45 -118 6q-26 27 -26 65t39 68l203 153q32 29 66 29t69 -29l205 -153q39 -29 39 -68zM748 188q164 0 274 109t124 266q13 157 0 314t-125 266q-111 109 -273 109t-273 -110
q-111 -108 -124 -264t0 -315t123 -267t274 -108zM748 -23q-250 0 -424 165t-193 413q-16 166 0 328q19 245 193 411t424 166t426 -167t192 -410q16 -164 0 -328q-16 -246 -192 -412t-426 -166z" />
    <glyph glyph-name="Otilde" unicode="&#xd5;" horiz-adv-x="1497" 
d="M612 1786q66 0 142 -38t107 -38q30 0 67 30q71 58 123 1q51 -57 -15 -123q-84 -78 -164 -78q-51 0 -131 37q-81 37 -109 37t-66 -29t-68 -29t-54 26q-53 60 13 126q89 78 155 78zM748 188q164 0 274 109t124 266q13 157 0 314t-125 266q-111 109 -273 109t-273 -110
q-111 -108 -124 -264t0 -315t123 -267t274 -108zM748 -23q-250 0 -424 165t-193 413q-16 166 0 328q19 245 193 411t424 166t426 -167t192 -410q16 -164 0 -328q-16 -246 -192 -412t-426 -166z" />
    <glyph glyph-name="Odieresis" unicode="&#xd6;" horiz-adv-x="1497" 
d="M923 1778q45 0 77 -32t32 -79t-32 -80t-78 -33t-79 33q-32 33 -32 79t33 79t79 33zM577 1778q47 0 79 -33t32 -79t-32 -79t-78 -33t-79 33q-32 33 -32 80t32 79t78 32zM748 188q164 0 274 109t124 266q13 157 0 314t-125 266q-111 109 -273 109t-273 -110
q-111 -108 -124 -264t0 -315t123 -267t274 -108zM748 -23q-250 0 -424 165t-193 413q-16 166 0 328q19 245 193 411t424 166t426 -167t192 -410q16 -164 0 -328q-16 -246 -192 -412t-426 -166z" />
    <glyph glyph-name="multiply" unicode="&#xd7;" horiz-adv-x="1286" 
d="M1010 252q-44 0 -76 31l-291 290l-295 -294q-31 -33 -73 -34q-41 -1 -73 29t-32 75q0 46 31 77l295 293l-295 295q-33 31 -33 76q0 44 33 74t75 29t72 -32l295 -295l291 291q33 31 77 31q45 0 75 -32t28 -76t-31 -72l-290 -289l288 -285q31 -29 33 -73q2 -45 -29 -77
t-75 -32z" />
    <glyph glyph-name="Oslash" unicode="&#xd8;" horiz-adv-x="1501" 
d="M752 1251q-162 -1 -273 -109t-124 -265q-29 -349 57 -494l534 817q-90 51 -194 51zM752 188q164 0 274 109t124 266q13 157 3 283t-68 221l-540 -823q90 -56 207 -56zM752 -23q-182 0 -324 89l-29 -46q-23 -34 -61 -40t-72 16q-33 22 -38 62q-5 38 18 73l37 57
q-133 156 -148 367q-16 166 0 328q19 245 193 411t424 166q166 0 309 -82l26 39q23 33 62 40t72 -15t37 -62t-17 -73l-31 -47q143 -160 160 -377q16 -164 0 -328q-16 -246 -192 -412t-426 -166z" />
    <glyph glyph-name="Ugrave" unicode="&#xd9;" horiz-adv-x="1531" 
d="M954 1636q0 -44 -26 -70t-50 -26q-26 0 -55 12l-276 144q-51 25 -51 69q0 45 26 71t56 26q31 0 49 -13l278 -143q49 -27 49 -70zM1362 1333v-735q0 -274 -169 -447t-427 -173t-428 172q-170 174 -170 448v735q0 45 34 79t79 34t77 -33t31 -80v-741q-1 -184 105 -294
t272 -110t270 110t105 294v741q0 47 33 80q32 33 78 33t78 -33t32 -80z" />
    <glyph glyph-name="Uacute" unicode="&#xda;" horiz-adv-x="1531" 
d="M1026 1766q0 -42 -49 -70l-279 -144q-28 -12 -54 -12t-52 27t-25 69q0 42 51 70l277 143q20 13 50 13q29 0 55 -27t26 -69zM1362 1333v-735q0 -274 -169 -447t-427 -173t-428 172q-170 174 -170 448v735q0 45 34 79t79 34t77 -33t31 -80v-741q-1 -184 105 -294t272 -110
t270 110t105 294v741q0 47 33 80q32 33 78 33t78 -33t32 -80z" />
    <glyph glyph-name="Ucircumflex" unicode="&#xdb;" horiz-adv-x="1531" 
d="M1079 1634q1 -40 -25 -66t-56 -26t-64 21l-166 127l-166 -127q-69 -45 -118 6q-26 27 -26 65t40 68l202 153q33 29 67 29t69 -29l204 -153q39 -29 39 -68zM1362 1333v-735q0 -274 -169 -447t-427 -173t-428 172q-170 174 -170 448v735q0 45 34 79t79 34t77 -33t31 -80
v-741q-1 -184 105 -294t272 -110t270 110t105 294v741q0 47 33 80q32 33 78 33t78 -33t32 -80z" />
    <glyph glyph-name="Udieresis" unicode="&#xdc;" horiz-adv-x="1531" 
d="M939 1778q46 0 78 -32t32 -79t-32 -80t-79 -33t-79 33t-32 79t33 79t79 33zM593 1778q46 0 79 -33t33 -79t-32 -79t-79 -33t-79 33t-32 80t32 79t78 32zM1362 1333v-735q0 -274 -169 -447t-427 -173t-428 172q-170 174 -170 448v735q0 45 34 79t79 34t77 -33t31 -80v-741
q-1 -184 105 -294t272 -110t270 110t105 294v741q0 47 33 80q32 33 78 33t78 -33t32 -80z" />
    <glyph glyph-name="Yacute" unicode="&#xdd;" horiz-adv-x="1337" 
d="M897 1766q0 -42 -49 -70l-279 -144q-29 -12 -55 -12t-50 27q-26 27 -26 69t51 70l277 143q20 13 50 13t56 -27t25 -69zM1193 1446q50 0 83 -35t33 -78t-27 -71l-448 -547q-4 -7 -14 -17t-12 -15t-16 -23t-14 -62v-494q0 -48 -32 -80t-78 -32t-78 34q-33 34 -33 78v494
q0 14 -3 26t-5 25q-2 12 -19 31q-18 18 -30 37l-445 545q-27 32 -27 74t33 76t82 34t84 -41l441 -553l442 551q33 43 83 43z" />
    <glyph glyph-name="Thorn" unicode="&#xde;" horiz-adv-x="1323" 
d="M406 463h331q143 -1 211 69t68 190t-69 190t-202 71h-339v-520zM741 252h-335v-148q0 -46 -32 -80t-78 -34t-78 34t-32 80v1235q0 47 32 80t78 33t78 -33t32 -80v-155h352q203 0 342 -125t139 -341q-1 -216 -139 -341t-359 -125z" />
    <glyph glyph-name="germandbls" unicode="&#xdf;" horiz-adv-x="1388" 
d="M1049 1159q0 -82 -41 -145q-41 -64 -81 -112t-40 -96t36 -75q35 -27 155 -75q232 -94 235 -320q0 -148 -113 -252t-295 -104t-327 112q-37 31 -44 76q-8 45 16 78t66 39t82 -24q42 -30 60 -41q54 -32 142 -33q89 -1 143 41q55 42 55 116t-42 110q-42 38 -159 76t-172 98
q-55 58 -55 144t41 144t82 108t41 108t-50 98t-143 38q-254 -4 -254 -254v-912q0 -48 -32 -80t-77 -32q-44 0 -76 34t-32 78v928q0 205 125 320t354 114q180 0 290 -83t110 -222z" />
    <glyph glyph-name="agrave" unicode="&#xe0;" horiz-adv-x="1146" 
d="M784 1300q0 -44 -26 -70t-50 -26q-26 0 -55 13l-276 143q-51 25 -51 69q0 45 26 71t56 26q31 0 49 -13l278 -143q49 -27 49 -70zM324 336q0 -166 250 -166q134 0 212 63v228q-139 35 -241 35q-101 0 -161 -41t-60 -119zM995 707v-533q0 -53 -39 -80q-61 -41 -173 -78
t-253 -36q-204 0 -312 98t-108 248t107 249q106 98 309 99q115 0 260 -35v68q0 104 -54 151t-162 47t-234 -45q-66 -20 -108 6t-42 84q0 60 72 92q127 61 313 62q424 0 424 -397z" />
    <glyph glyph-name="aacute" unicode="&#xe1;" horiz-adv-x="1146" 
d="M838 1430q0 -42 -50 -70l-278 -143q-28 -13 -54 -13t-52 27t-26 69t52 70l277 143q20 13 50 13q29 0 55 -27t26 -69zM324 336q0 -166 250 -166q134 0 212 63v228q-139 35 -241 35q-101 0 -161 -41t-60 -119zM995 707v-533q0 -53 -39 -80q-61 -41 -173 -78t-253 -36
q-204 0 -312 98t-108 248t107 249q106 98 309 99q115 0 260 -35v68q0 104 -54 151t-162 47t-234 -45q-66 -20 -108 6t-42 84q0 60 72 92q127 61 313 62q424 0 424 -397z" />
    <glyph glyph-name="acircumflex" unicode="&#xe2;" horiz-adv-x="1146" 
d="M895 1272q0 -38 -26 -66q-47 -49 -119 -6l-166 127l-166 -127q-31 -20 -62 -20q-30 0 -56 26t-26 66q0 39 39 67l203 154q32 29 66 29t69 -29l205 -154q39 -29 39 -67zM324 336q0 -166 250 -166q134 0 212 63v228q-139 35 -241 35q-101 0 -161 -41t-60 -119zM995 707
v-533q0 -53 -39 -80q-61 -41 -173 -78t-253 -36q-204 0 -312 98t-108 248t107 249q106 98 309 99q115 0 260 -35v68q0 104 -54 151t-162 47t-234 -45q-66 -20 -108 6t-42 84q0 60 72 92q127 61 313 62q424 0 424 -397z" />
    <glyph glyph-name="atilde" unicode="&#xe3;" horiz-adv-x="1146" 
d="M444 1458q66 0 142 -38t107 -38q30 0 67 30q38 30 68 30t53 -26q53 -60 -13 -126q-84 -78 -163 -78q-51 0 -131 37t-110 37q-28 0 -66 -29q-73 -56 -122 -3q-23 26 -22 59q0 33 35 67q89 78 155 78zM324 336q0 -166 250 -166q134 0 212 63v228q-139 35 -241 35
q-101 0 -161 -41t-60 -119zM995 707v-533q0 -53 -39 -80q-61 -41 -173 -78t-253 -36q-204 0 -312 98t-108 248t107 249q106 98 309 99q115 0 260 -35v68q0 104 -54 151t-162 47t-234 -45q-66 -20 -108 6t-42 84q0 60 72 92q127 61 313 62q424 0 424 -397z" />
    <glyph glyph-name="adieresis" unicode="&#xe4;" horiz-adv-x="1146" 
d="M755 1446q46 0 78 -32q31 -32 31 -79t-32 -80t-78 -33q-47 0 -79 34q-32 32 -32 78t33 79t79 33zM409 1446q47 0 79 -33t32 -79t-32 -79t-78 -33t-79 34q-32 32 -32 79t32 79t78 32zM324 336q0 -166 250 -166q134 0 212 63v228q-139 35 -241 35q-101 0 -161 -41t-60 -119
zM995 707v-533q0 -53 -39 -80q-61 -41 -173 -78t-253 -36q-204 0 -312 98t-108 248t107 249q106 98 309 99q115 0 260 -35v68q0 104 -54 151t-162 47t-234 -45q-66 -20 -108 6t-42 84q0 60 72 92q127 61 313 62q424 0 424 -397z" />
    <glyph glyph-name="aring" unicode="&#xe5;" horiz-adv-x="1146" 
d="M498 1375q0 -35 24 -61t60 -26q34 0 60 26t26 62t-26 61t-60 25t-60 -25q-24 -26 -24 -62zM371 1375q0 87 62 149q61 62 149 61q88 0 150 -60q62 -61 62 -149t-62 -149t-149 -61t-149 60q-62 62 -63 149zM324 336q0 -166 250 -166q134 0 212 63v228q-139 35 -241 35
q-101 0 -161 -41t-60 -119zM995 707v-533q0 -53 -39 -80q-61 -41 -173 -78t-253 -36q-204 0 -312 98t-108 248t107 249q106 98 309 99q115 0 260 -35v68q0 104 -54 151t-162 47t-234 -45q-66 -20 -108 6t-42 84q0 60 72 92q127 61 313 62q424 0 424 -397z" />
    <glyph glyph-name="ae" unicode="&#xe6;" horiz-adv-x="1820" 
d="M1470 629q20 0 25 24q6 119 -59 190q-66 71 -190 71t-190 -78t-63 -207h477zM324 342q0 -174 241 -174q125 0 256 90q-39 94 -39 209q-143 37 -241 37q-97 0 -157 -43t-60 -119zM1706 641v-53q0 -131 -131 -131h-580v-25q0 -122 74 -188q75 -66 183 -66t249 49
q63 25 105 -5t43 -83q0 -53 -56 -88q-117 -71 -321 -71t-332 122q-66 -47 -176 -85t-234 -37q-204 0 -312 100t-108 250t106 243q105 94 310 95q115 0 260 -35v76q0 104 -54 152t-160 48t-236 -47q-66 -20 -108 6t-42 84q0 57 72 90q135 61 313 62q236 0 340 -146
q129 146 335 146t333 -126t127 -337z" />
    <glyph glyph-name="ccedilla" unicode="&#xe7;" horiz-adv-x="1144" 
d="M606 1104q196 0 315 -104q118 -104 117 -201q0 -47 -28 -79t-83 -32q-54 0 -83 60q-68 147 -234 147q-114 0 -182 -60t-78 -181q-10 -122 0 -228t77 -172t183 -66q166 0 236 150q31 59 85 59q54 1 84 -31t29 -79q0 -85 -103 -185t-273 -116l-27 -72q90 -6 141 -59
t52 -136q0 -180 -259 -270q-41 -14 -79 4q-38 19 -37 69q0 50 57 72q92 37 122 63t30 51q0 26 -16 44t-44 19l-67 -9q-37 0 -59 32q-21 32 -7 69l45 125q-164 26 -269 140t-118 273q-8 147 2 310q11 163 143 278t328 115z" />
    <glyph glyph-name="egrave" unicode="&#xe8;" horiz-adv-x="1169" 
d="M788 1300q0 -44 -26 -70t-50 -26q-26 0 -55 13l-276 143q-51 25 -51 69q0 45 26 71t56 26q31 0 49 -13l278 -143q49 -27 49 -70zM821 629q23 0 25 24q8 115 -59 187t-191 72t-188 -76q-66 -76 -62 -207h475zM1057 645v-57q0 -59 -33 -95t-98 -36h-580v-25q0 -122 74 -188
t184 -66t248 49q63 25 105 -5t42 -84t-55 -87q-117 -71 -329 -71t-340 122t-140 318q-8 115 0 254q13 198 143 314t330 116t324 -126q125 -126 125 -333z" />
    <glyph glyph-name="eacute" unicode="&#xe9;" horiz-adv-x="1169" 
d="M465 1370l276 143q62 32 106 -14q25 -27 25 -69t-49 -70l-278 -143q-29 -13 -55 -13t-51 27t-25 69t51 70zM821 629q23 0 25 24q8 115 -59 187t-191 72t-188 -76q-66 -76 -62 -207h475zM1057 645v-57q0 -59 -33 -95t-98 -36h-580v-25q0 -122 74 -188t184 -66t248 49
q63 25 105 -5t42 -84t-55 -87q-117 -71 -329 -71t-340 122t-140 318q-8 115 0 254q13 198 143 314t330 116t324 -126q125 -126 125 -333z" />
    <glyph glyph-name="ecircumflex" unicode="&#xea;" horiz-adv-x="1169" 
d="M903 1298q1 -40 -25 -66t-56 -26t-64 21l-166 127l-166 -127q-69 -45 -118 6q-26 27 -26 65t40 68l202 154q32 29 66 29t69 -29l205 -154q39 -29 39 -68zM821 629q23 0 25 24q8 115 -59 187t-191 72t-188 -76q-66 -76 -62 -207h475zM1057 645v-57q0 -59 -33 -95t-98 -36
h-580v-25q0 -122 74 -188t184 -66t248 49q63 25 105 -5t42 -84t-55 -87q-117 -71 -329 -71t-340 122t-140 318q-8 115 0 254q13 198 143 314t330 116t324 -126q125 -126 125 -333z" />
    <glyph glyph-name="edieresis" unicode="&#xeb;" horiz-adv-x="1169" 
d="M775 1446q46 0 78 -32t32 -79t-32 -80t-79 -33t-79 34q-31 32 -31 78t32 79q33 33 79 33zM429 1446q46 0 79 -33t33 -79t-32 -79t-79 -33t-79 34q-32 32 -32 79t32 79t78 32zM821 629q23 0 25 24q8 115 -59 187t-191 72t-188 -76q-66 -76 -62 -207h475zM1057 645v-57
q0 -59 -33 -95t-98 -36h-580v-25q0 -122 74 -188t184 -66t248 49q63 25 105 -5t42 -84t-55 -87q-117 -71 -329 -71t-340 122t-140 318q-8 115 0 254q13 198 143 314t330 116t324 -126q125 -126 125 -333z" />
    <glyph glyph-name="igrave" unicode="&#xec;" horiz-adv-x="573" 
d="M287 1090q45 0 77 -33t31 -78v-877q-1 -48 -31 -80t-75 -32t-77 34t-32 78v877q0 47 31 79t76 32zM455 1300q0 -44 -26 -70t-51 -26t-54 13l-277 143q-51 25 -51 69q0 45 26 71t56 26t49 -13l279 -143q49 -27 49 -70z" />
    <glyph glyph-name="iacute" unicode="&#xed;" horiz-adv-x="573" 
d="M287 1090q45 0 77 -33t31 -78v-877q-1 -48 -31 -80t-75 -32t-77 34t-32 78v877q0 47 31 79t76 32zM582 1430q0 -42 -50 -70l-278 -143q-28 -13 -54 -13t-52 27t-26 69t52 70l277 143q20 13 50 13q29 0 55 -27t26 -69z" />
    <glyph glyph-name="icircumflex" unicode="&#xee;" horiz-adv-x="573" 
d="M606 1298q0 -40 -26 -66t-55 -26q-30 0 -64 21l-166 127l-166 -127q-69 -45 -118 6q-25 27 -25 65t39 68l202 154q33 29 67 29t68 -29l205 -154q39 -29 39 -68zM287 1090q45 0 77 -33t31 -78v-877q-1 -48 -31 -80t-75 -32t-77 34t-32 78v877q0 47 31 79t76 32z" />
    <glyph glyph-name="idieresis" unicode="&#xef;" horiz-adv-x="573" 
d="M287 1090q45 0 77 -33t31 -78v-877q-1 -48 -31 -80t-75 -32t-77 34t-32 78v877q0 47 31 79t76 32zM465 1446q47 0 79 -32t32 -79t-32 -80t-79 -33t-79 34q-32 32 -32 78t32 79t79 33zM121 1446q47 0 79 -33t32 -79t-32 -79t-79 -33t-79 34q-32 32 -32 79t32 79t79 32z
" />
    <glyph glyph-name="eth" unicode="&#xf0;" horiz-adv-x="1239" 
d="M598 831q-104 0 -170 -61t-74 -171q-8 -111 0 -199t75 -150t169 -62t169 62t75 162t2 198q-8 98 -75 160t-171 61zM1063 844v-418q0 -195 -133 -321q-132 -125 -326 -125t-324 118t-145 297q-8 113 -2 240q14 180 141 292t320 111q152 0 270 -96q-4 145 -82 242l-137 -60
q-35 -14 -71 -3t-52 44q-14 35 -1 70t50 51l62 27l-15 10q-41 27 -51 68t8 67q17 33 53 44t74 -5q82 -43 138 -92l110 49q33 14 70 3t51 -46t1 -70t-48 -49l-63 -28q102 -164 102 -420z" />
    <glyph glyph-name="ntilde" unicode="&#xf1;" 
d="M722 1382q30 0 66 30t68 30t54 -26t22 -58t-35 -68q-84 -78 -164 -78q-51 0 -131 37t-108 37t-67 -29q-75 -57 -122 -3q-23 26 -22 59q0 33 34 67q89 78 155 78t143 -38t107 -38zM1081 672v-570q-1 -46 -31 -78t-75 -32t-78 33t-33 77v560q0 117 -67 175q-68 58 -170 58
q-150 0 -244 -57v-736q0 -46 -32 -78t-76 -32q-45 0 -77 33t-32 77v805q0 55 43 84q55 43 167 78t257 35q221 0 335 -112t113 -320z" />
    <glyph glyph-name="ograve" unicode="&#xf2;" horiz-adv-x="1214" 
d="M809 1300q0 -44 -26 -70t-51 -26t-54 13l-277 143q-51 25 -51 69q0 45 26 71t56 26t49 -13l279 -143q49 -27 49 -70zM607 895q-113 1 -181 -63t-76 -168q-10 -145 0 -246q10 -102 78 -166t178 -64t180 65q68 65 76 158t2 253q-6 102 -76 166t-181 65zM607 1104
q196 0 328 -115t144 -297q10 -145 -1 -309t-144 -284q-133 -119 -327 -119q-195 0 -327 120t-147 299q-8 147 3 311t143 279t328 115z" />
    <glyph glyph-name="oacute" unicode="&#xf3;" horiz-adv-x="1214" 
d="M854 1430q0 -42 -49 -70l-279 -143q-28 -13 -54 -13t-52 27t-25 69q0 42 51 70l277 143q20 13 50 13q29 0 55 -27t26 -69zM607 895q-113 1 -181 -63t-76 -168q-10 -145 0 -246q10 -102 78 -166t178 -64t180 65q68 65 76 158t2 253q-6 102 -76 166t-181 65zM607 1104
q196 0 328 -115t144 -297q10 -145 -1 -309t-144 -284q-133 -119 -327 -119q-195 0 -327 120t-147 299q-8 147 3 311t143 279t328 115z" />
    <glyph glyph-name="ocircumflex" unicode="&#xf4;" horiz-adv-x="1214" 
d="M920 1296q0 -40 -26 -66t-56 -26t-64 21l-166 127l-166 -127q-70 -45 -117 6q-26 27 -26 65t39 68l203 154q33 29 67 29t68 -29l205 -154q39 -29 39 -68zM607 895q-113 1 -181 -63t-76 -168q-10 -145 0 -246q10 -102 78 -166t178 -64t180 65q68 65 76 158t2 253
q-6 102 -76 166t-181 65zM607 1104q196 0 328 -115t144 -297q10 -145 -1 -309t-144 -284q-133 -119 -327 -119q-195 0 -327 120t-147 299q-8 147 3 311t143 279t328 115z" />
    <glyph glyph-name="otilde" unicode="&#xf5;" horiz-adv-x="1214" 
d="M718 1382q30 0 66 30t68 30t54 -26t22 -58t-35 -68q-84 -78 -164 -78q-51 0 -131 37t-109 37t-67 -29q-74 -57 -121 -3q-23 26 -22 59q0 33 34 67q89 78 155 78t143 -38t107 -38zM607 895q-113 1 -181 -63t-76 -168q-10 -145 0 -246q10 -102 78 -166t178 -64t180 65
q68 65 76 158t2 253q-6 102 -76 166t-181 65zM607 1104q196 0 328 -115t144 -297q10 -145 -1 -309t-144 -284q-133 -119 -327 -119q-195 0 -327 120t-147 299q-8 147 3 311t143 279t328 115z" />
    <glyph glyph-name="odieresis" unicode="&#xf6;" horiz-adv-x="1214" 
d="M779 1446q46 0 78 -32t32 -79t-32 -80t-79 -33t-79 34q-31 32 -31 78t32 79q33 33 79 33zM433 1446q46 0 79 -33t33 -79t-32 -79t-79 -33t-79 34q-32 32 -31 79q0 47 31 79q32 32 78 32zM607 895q-113 1 -181 -63t-76 -168q-10 -145 0 -246q10 -102 78 -166t178 -64
t180 65q68 65 76 158t2 253q-6 102 -76 166t-181 65zM607 1104q196 0 328 -115t144 -297q10 -145 -1 -309t-144 -284q-133 -119 -327 -119q-195 0 -327 120t-147 299q-8 147 3 311t143 279t328 115z" />
    <glyph glyph-name="divide" unicode="&#xf7;" horiz-adv-x="1286" 
d="M514 315q0 53 38 91t91 38t91 -38t38 -90q0 -54 -38 -92t-91 -38t-91 38t-38 91zM514 1120q0 51 38 90t91 39t91 -39t38 -90t-38 -90t-91 -39t-91 39t-38 90zM1057 612h-828q-45 0 -75 31t-31 75q0 44 31 74t75 29h828q45 1 76 -29t31 -74t-32 -75t-75 -31z" />
    <glyph glyph-name="oslash" unicode="&#xf8;" horiz-adv-x="1220" 
d="M594 895q-98 0 -168 -65t-78 -166q-14 -201 6 -279l404 471q-66 39 -164 39zM620 188q102 0 172 64q72 64 82 174q12 178 -6 279l-409 -478q59 -39 161 -39zM594 1104q178 0 305 -84l35 41q28 31 66 34t65 -22q31 -23 31 -65t-25 -68l-47 -53q49 -82 59 -211t-1 -293
t-144 -284q-134 -119 -312 -119t-304 88l-37 -43q-27 -31 -66 -33t-67 22t-28 65q-1 40 23 66l50 58q-53 95 -61 219t4 288q11 164 143 279q133 115 311 115z" />
    <glyph glyph-name="ugrave" unicode="&#xf9;" 
d="M823 1300q1 -44 -25 -70t-52 -26t-54 13l-276 143q-51 25 -51 69q-1 45 25 71t57 26t49 -13l278 -143q49 -27 49 -70zM156 416v559q0 49 28 82q29 33 77 33t80 -33t32 -82v-557q0 -106 63 -168t185 -62t233 68v721q0 47 32 80t77 33t77 -33t31 -80v-793q0 -55 -41 -82
q-176 -122 -404 -122t-348 114q-122 114 -122 322z" />
    <glyph glyph-name="uacute" unicode="&#xfa;" 
d="M883 1430q0 -42 -49 -70l-279 -143q-29 -13 -55 -13t-50 27q-26 27 -26 69t51 70l277 143q20 13 50 13t56 -27t25 -69zM156 416v559q0 49 28 82q29 33 77 33t80 -33t32 -82v-557q0 -106 63 -168t185 -62t233 68v721q0 47 32 80t77 33t77 -33t31 -80v-793q0 -55 -41 -82
q-176 -122 -404 -122t-348 114q-122 114 -122 322z" />
    <glyph glyph-name="ucircumflex" unicode="&#xfb;" 
d="M928 1298q0 -40 -26 -66t-56 -26t-64 21l-166 127l-165 -127q-70 -45 -118 6q-26 27 -26 65t39 68l203 154q33 29 67 29t68 -29l205 -154q39 -29 39 -68zM156 416v559q0 49 28 82q29 33 77 33t80 -33t32 -82v-557q0 -106 63 -168t185 -62t233 68v721q0 47 32 80t77 33
t77 -33t31 -80v-793q0 -55 -41 -82q-176 -122 -404 -122t-348 114q-122 114 -122 322z" />
    <glyph glyph-name="udieresis" unicode="&#xfc;" 
d="M793 1446q47 0 79 -32t31 -79q0 -47 -32 -80q-33 -33 -79 -33t-78 34q-32 32 -32 78t32 79t79 33zM449 1446q47 0 79 -33t31 -79q0 -46 -32 -79q-33 -33 -79 -33t-78 34q-32 32 -32 79t32 79t79 32zM156 416v559q0 49 28 82q29 33 77 33t80 -33t32 -82v-557
q0 -106 63 -168t185 -62t233 68v721q0 47 32 80t77 33t77 -33t31 -80v-793q0 -55 -41 -82q-176 -122 -404 -122t-348 114q-122 114 -122 322z" />
    <glyph glyph-name="yacute" unicode="&#xfd;" horiz-adv-x="1073" 
d="M796 1528q30 0 56 -27t25 -69q0 -42 -50 -70l-278 -143q-29 -13 -55 -13t-51 27t-25 71t51 68l276 144q21 12 51 12zM547 340q6 0 8 6l254 658q31 86 101 86t104 -50q33 -50 8 -108l-385 -916q-57 -139 -134 -240q-135 -177 -237 -175q-42 1 -72 29t-30 79t45 82
q139 86 215 283l-373 858q-25 59 9 108t90 50q82 0 110 -82l277 -662q4 -6 10 -6z" />
    <glyph glyph-name="thorn" unicode="&#xfe;" horiz-adv-x="1228" 
d="M629 895q-63 0 -134 -25t-108 -51v-563q104 -68 240 -68q236 0 252 230q6 153 0 241q-18 236 -250 236zM387 -293q0 -47 -31 -79q-32 -32 -76 -32t-77 34q-33 32 -33 77v1643q0 46 32 78t77 32t77 -33t31 -77v-306q131 59 252 60q201 0 319 -111t134 -289t2 -309
q-16 -195 -133 -305t-320 -110q-113 0 -254 61v-334z" />
    <glyph glyph-name="ydieresis" unicode="&#xff;" horiz-adv-x="1073" 
d="M718 1446q46 0 78 -32t32 -79t-32 -80t-79 -33t-79 34q-32 32 -32 78t33 79t79 33zM372 1446q46 0 79 -33t33 -79t-32 -79t-79 -33t-79 34q-32 32 -32 79t32 79t78 32zM547 340q6 0 8 6l254 658q31 86 101 86t104 -50q33 -50 8 -108l-385 -916q-57 -139 -134 -240
q-135 -177 -237 -175q-42 1 -72 29t-30 79t45 82q139 86 215 283l-373 858q-25 59 9 108t90 50q82 0 110 -82l277 -662q4 -6 10 -6z" />
    <glyph glyph-name="Amacron" unicode="&#x100;" horiz-adv-x="1398" 
d="M535 1751h329q39 0 65 -25q25 -26 25 -64t-26 -64t-64 -25h-329q-39 -1 -65 25t-26 65t26 63t65 25zM699 1237q-32 0 -42 -31l-196 -555h475l-195 555q-10 31 -42 31zM1352 98q0 -32 -30 -67t-79 -35q-76 0 -102 72l-135 383h-615l-135 -385q-27 -70 -102 -70
q-49 0 -78 33t-29 67t6 51l410 1139q61 176 236 176t239 -176l408 -1139q6 -17 6 -49z" />
    <glyph glyph-name="amacron" unicode="&#x101;" horiz-adv-x="1146" 
d="M418 1417h330q38 -1 64 -25t26 -63t-26 -65t-64 -25h-330q-39 0 -65 26q-25 27 -25 65t25 63q26 24 65 24zM324 336q0 -166 250 -166q134 0 212 63v228q-139 35 -241 35q-101 0 -161 -41t-60 -119zM995 707v-533q0 -53 -39 -80q-61 -41 -173 -78t-253 -36q-204 0 -312 98
t-108 248t107 249q106 98 309 99q115 0 260 -35v68q0 104 -54 151t-162 47t-234 -45q-66 -20 -108 6t-42 84q0 60 72 92q127 61 313 62q424 0 424 -397z" />
    <glyph glyph-name="Abreve" unicode="&#x102;" horiz-adv-x="1398" 
d="M700 1700q84 0 113 90q16 61 82 61q35 1 59 -25t25 -50q0 -24 -6 -43q-29 -83 -102 -139t-171 -56t-171 55t-101 140q-6 19 -6 43t24 50q25 26 60 25q66 0 82 -61q28 -90 112 -90zM699 1237q-32 0 -42 -31l-196 -555h475l-195 555q-10 31 -42 31zM1352 98q0 -32 -30 -67
t-79 -35q-76 0 -102 72l-135 383h-615l-135 -385q-27 -70 -102 -70q-49 0 -78 33t-29 67t6 51l410 1139q61 176 236 176t239 -176l408 -1139q6 -17 6 -49z" />
    <glyph glyph-name="abreve" unicode="&#x103;" horiz-adv-x="1146" 
d="M578 1364q84 0 112 90q16 61 82 62q36 0 60 -26t24 -50t-6 -43q-29 -84 -101 -140q-73 -55 -171 -55t-171 55t-102 140q-6 18 -6 43q0 24 25 50t59 26q66 0 82 -62q29 -90 113 -90zM324 336q0 -166 250 -166q134 0 212 63v228q-139 35 -241 35q-101 0 -161 -41t-60 -119z
M995 707v-533q0 -53 -39 -80q-61 -41 -173 -78t-253 -36q-204 0 -312 98t-108 248t107 249q106 98 309 99q115 0 260 -35v68q0 104 -54 151t-162 47t-234 -45q-66 -20 -108 6t-42 84q0 60 72 92q127 61 313 62q424 0 424 -397z" />
    <glyph glyph-name="Aogonek" unicode="&#x104;" horiz-adv-x="1437" 
d="M699 1237q-32 0 -42 -31l-196 -555h475l-195 555q-10 31 -42 31zM699 1462q175 0 239 -176l403 -1132q35 -94 -49 -144q-182 -98 -182 -194q0 -45 28 -70t66 -25q38 -1 69 19t59 16t46 -26q18 -27 12 -58t-30 -51q-78 -57 -177 -57t-168 68t-69 171q1 164 191 277
l-131 371h-615l-135 -385q-14 -42 -57 -60t-85 -2t-60 58q-17 42 -1 85l410 1139q61 176 236 176z" />
    <glyph glyph-name="aogonek" unicode="&#x105;" horiz-adv-x="1146" 
d="M541 502q-97 0 -157 -42t-60 -121t58 -124t180 -45t224 51v244q-147 37 -245 37zM824 -281q38 0 75 25q55 37 100 -14q19 -27 13 -58t-31 -51q-78 -57 -177 -57t-169 68t-70 166q0 99 58 188q-29 -4 -93 -4q-204 0 -312 98t-108 248t106 247q105 96 310 97q98 0 260 -39
v74q0 104 -54 152t-160 48t-236 -47q-66 -20 -108 6t-42 86q0 58 72 90q128 62 322 62t305 -97t110 -300v-551q1 -58 -73 -93q-190 -86 -191 -237q0 -53 28 -80q27 -27 65 -27z" />
    <glyph glyph-name="Cacute" unicode="&#x106;" horiz-adv-x="1359" 
d="M1018 1766q0 -42 -49 -70l-279 -144q-28 -12 -54 -12t-52 27t-25 69q0 42 51 70l277 143q61 32 105 -14q26 -27 26 -69zM727 188q111 0 200 58t134 157q37 66 100 66q39 0 73 -30q34 -29 34 -65t-13 -63q-61 -153 -206 -243t-320 -91q-250 0 -415 164t-183 414
q-16 166 0 328q18 249 183 413t413 164q175 0 321 -90t207 -244q13 -26 13 -62t-34 -66t-73 -29q-63 0 -100 65q-45 100 -134 158t-200 59q-160 1 -261 -109q-102 -110 -114 -268t0 -316t112 -264t263 -106z" />
    <glyph glyph-name="cacute" unicode="&#x107;" horiz-adv-x="1144" 
d="M881 1430q0 -42 -50 -70l-278 -143q-29 -13 -55 -13t-51 27t-25 69t51 70l277 143q20 13 50 13t56 -27t25 -69zM610 188q168 0 236 148q31 59 85 59q54 1 83 -31t28 -79q0 -96 -119 -201q-120 -104 -317 -104q-198 0 -328 120t-145 301q-8 147 2 310q11 163 143 278
t328 115t315 -104q118 -104 117 -201q0 -47 -28 -79t-83 -32q-54 0 -83 60q-68 147 -234 147q-114 0 -182 -60t-78 -165q-10 -134 0 -242t76 -174t184 -66z" />
    <glyph glyph-name="Cdotaccent" unicode="&#x10a;" horiz-adv-x="1359" 
d="M721 1778q45 0 78 -33t33 -79t-32 -79t-79 -33t-79 33t-32 79t33 79t78 33zM727 188q111 0 200 58t134 157q37 66 100 66q39 0 73 -30q34 -29 34 -65t-13 -63q-61 -153 -206 -243t-320 -91q-250 0 -415 164t-183 414q-16 166 0 328q18 249 183 413t413 164q175 0 321 -90
t207 -244q13 -26 13 -62t-34 -66t-73 -29q-63 0 -100 65q-45 100 -134 158t-200 59q-160 1 -261 -109q-102 -110 -114 -268t0 -316t112 -264t263 -106z" />
    <glyph glyph-name="cdotaccent" unicode="&#x10b;" horiz-adv-x="1144" 
d="M600 1446q47 0 79 -33t32 -79t-32 -79t-79 -33t-79 34q-32 32 -32 78t32 79t79 33zM610 188q168 0 236 148q31 59 85 59q54 1 83 -31t28 -79q0 -96 -119 -201q-120 -104 -317 -104q-198 0 -328 120t-145 301q-8 147 2 310q11 163 143 278t328 115t315 -104
q118 -104 117 -201q0 -47 -28 -79t-83 -32q-54 0 -83 60q-68 147 -234 147q-114 0 -182 -60t-78 -165q-10 -134 0 -242t76 -174t184 -66z" />
    <glyph glyph-name="Ccaron" unicode="&#x10c;" horiz-adv-x="1359" 
d="M712 1542q-34 0 -67 29l-203 153q-39 27 -39 67t26 67q52 54 118 4l166 -125l166 125q69 48 119 -4q26 -27 26 -67t-39 -67l-205 -153q-34 -29 -68 -29zM727 188q111 0 200 58t134 157q37 66 100 66q39 0 73 -30q34 -29 34 -65t-13 -63q-61 -153 -206 -243t-320 -91
q-250 0 -415 164t-183 414q-16 166 0 328q18 249 183 413t413 164q175 0 321 -90t207 -244q13 -26 13 -62t-34 -66t-73 -29q-63 0 -100 65q-45 100 -134 158t-200 59q-160 1 -261 -109q-102 -110 -114 -268t0 -316t112 -264t263 -106z" />
    <glyph glyph-name="ccaron" unicode="&#x10d;" horiz-adv-x="1144" 
d="M593 1206q-34 0 -67 29l-202 154q-39 27 -39 67t25 66q26 26 58 26t60 -22l166 -125l166 125q68 48 120 -4q26 -26 26 -66t-40 -67l-204 -154q-35 -29 -69 -29zM610 188q168 0 236 148q31 59 85 59q54 1 83 -31t28 -79q0 -96 -119 -201q-120 -104 -317 -104
q-198 0 -328 120t-145 301q-8 147 2 310q11 163 143 278t328 115t315 -104q118 -104 117 -201q0 -47 -28 -79t-83 -32q-54 0 -83 60q-68 147 -234 147q-114 0 -182 -60t-78 -165q-10 -134 0 -242t76 -174t184 -66z" />
    <glyph glyph-name="Dcaron" unicode="&#x10e;" horiz-adv-x="1470" 
d="M710 1542q-34 0 -67 29l-203 153q-39 27 -39 67t26 67q52 54 118 4l166 -125l166 125q69 48 119 -4q26 -27 26 -67t-39 -67l-205 -153q-34 -29 -68 -29zM684 0h-330q-80 0 -124 47t-44 121v1106q0 74 44 120t124 46h330q309 0 475 -164t182 -440q8 -109 2 -224
q-18 -280 -183 -446t-476 -166zM686 1223h-278v-1006h278q211 0 319 107q107 107 117 297q8 117 2 192q-23 410 -438 410z" />
    <glyph glyph-name="dcaron" unicode="&#x10f;" horiz-adv-x="1353" 
d="M1231 1403v55q0 43 25 71q26 27 69 27t69 -28t25 -70v-47q0 -117 -61 -221q-35 -62 -84 -62t-75 25q-25 25 -25 52t28 85t29 113zM606 188q61 0 131 24t105 50v569q-102 63 -252 64q-225 0 -238 -227q-10 -136 0 -240q18 -240 254 -240zM573 1104q137 0 269 -60v308
q0 45 31 78q32 32 77 32t77 -32t32 -78v-1164q0 -55 -49 -90q-49 -34 -163 -76t-245 -42q-203 0 -327 114t-140 307q-12 144 0 291q16 196 130 304t308 108z" />
    <glyph glyph-name="Dcroat" unicode="&#x110;" horiz-adv-x="1466" 
d="M401 217h281q412 0 438 404q6 102 0 200q-27 401 -438 402h-281v-408h281q43 0 71 -29q27 -28 27 -70t-28 -71t-70 -29h-281v-399zM680 0h-328q-80 0 -125 48t-45 120v448h-104q-43 0 -72 29t-29 71t28 70t73 29h104v457q0 72 45 120t125 48h328q309 0 476 -164t183 -440
q6 -115 0 -228q-18 -276 -184 -442t-475 -166z" />
    <glyph glyph-name="dcroat" unicode="&#x111;" 
d="M606 188q61 0 131 24t105 50v569q-102 63 -236 63t-189 -56t-65 -180t0 -230q18 -240 254 -240zM573 1104q137 0 269 -60v136h-176q-41 0 -69 26t-28 67t28 67t69 26h182v23q0 35 30 69t76 35q46 0 75 -35q30 -35 30 -69v-23h39q34 0 62 -26t28 -68t-28 -67
q-28 -26 -64 -25h-37v-992q0 -55 -49 -90q-49 -34 -162 -76t-246 -42q-203 0 -327 114t-140 307q-12 144 0 291q16 196 130 304t308 108z" />
    <glyph glyph-name="Emacron" unicode="&#x112;" horiz-adv-x="1284" 
d="M516 1751h330q38 0 64 -25q26 -26 26 -64t-26 -64t-64 -25h-330q-38 -1 -64 25t-26 65t26 63t64 25zM356 1440h686q47 0 80 -31t33 -76t-34 -78t-79 -32h-634v-396h618q43 -1 73 -29q29 -28 29 -71t-32 -74t-70 -30h-618v-406h641q43 0 77 -33q34 -32 33 -76
q0 -44 -32 -76t-78 -32h-693q-80 0 -125 48t-45 120v1106q0 72 45 119t125 47z" />
    <glyph glyph-name="emacron" unicode="&#x113;" horiz-adv-x="1169" 
d="M426 1419h330q38 -1 64 -25t26 -63t-26 -65t-64 -25h-330q-39 0 -65 26q-25 27 -25 65t25 63q26 24 65 24zM821 629q23 0 25 24q8 115 -59 187t-191 72t-188 -76q-66 -76 -62 -207h475zM1057 645v-57q0 -59 -33 -95t-98 -36h-580v-25q0 -122 74 -188t184 -66t248 49
q63 25 105 -5t42 -84t-55 -87q-117 -71 -329 -71t-340 122t-140 318q-8 115 0 254q13 198 143 314t330 116t324 -126q125 -126 125 -333z" />
    <glyph glyph-name="Edotaccent" unicode="&#x116;" horiz-adv-x="1284" 
d="M694 1778q47 0 79 -33t32 -79t-32 -79t-79 -33t-79 33q-31 33 -31 79t31 79q32 33 79 33zM356 1440h686q47 0 80 -31t33 -76t-34 -78t-79 -32h-634v-396h618q43 -1 73 -29q29 -28 29 -71t-32 -74t-70 -30h-618v-406h641q43 0 77 -33q34 -32 33 -76q0 -44 -32 -76t-78 -32
h-693q-80 0 -125 48t-45 120v1106q0 72 45 119t125 47z" />
    <glyph glyph-name="edotaccent" unicode="&#x117;" horiz-adv-x="1169" 
d="M590 1444q45 0 78 -32q32 -32 32 -79t-32 -80t-78 -33q-47 0 -79 34q-32 32 -32 79t33 79t78 32zM821 629q23 0 25 24q8 115 -59 187t-191 72t-188 -76q-66 -76 -62 -207h475zM1057 645v-57q0 -59 -33 -95t-98 -36h-580v-25q0 -122 74 -188t184 -66t248 49q63 25 105 -5
t42 -84t-55 -87q-117 -71 -329 -71t-340 122t-140 318q-8 115 0 254q13 198 143 314t330 116t324 -126q125 -126 125 -333z" />
    <glyph glyph-name="Eogonek" unicode="&#x118;" horiz-adv-x="1294" 
d="M356 0q-80 0 -125 48t-45 120v1106q0 72 45 119t125 47h686q47 0 80 -31t33 -76t-34 -78t-79 -32h-636v-400h620q43 1 73 -27q29 -28 29 -69t-30 -72t-72 -30h-620v-408h643q43 0 77 -33t33 -75q0 -72 -61 -97q-88 -33 -148 -87t-59 -105q0 -51 27 -75q28 -24 66 -24
q38 -1 68 19q62 40 103 -10q20 -27 14 -58t-32 -51q-74 -57 -174 -57t-168 66t-68 176q0 112 109 194h-480z" />
    <glyph glyph-name="eogonek" unicode="&#x119;" horiz-adv-x="1171" 
d="M823 629q20 0 23 20q8 117 -59 189t-191 72t-188 -74q-64 -72 -60 -207h475zM723 -168q0 -62 27 -86q28 -25 64 -25q36 -1 66 19t58 16t47 -26q41 -54 -21 -110t-166 -56t-174 63q-69 63 -69 165t80 192q-215 -10 -350 110t-150 326q-8 162 0 258q15 194 145 310t330 116
t323 -126q124 -126 124 -333v-59q0 -129 -129 -129h-580v-25q0 -122 73 -188t181 -66t250 49q63 25 105 -5t42 -85t-55 -86q-109 -57 -165 -107t-56 -112z" />
    <glyph glyph-name="Ecaron" unicode="&#x11a;" horiz-adv-x="1284" 
d="M697 1542q-34 0 -66 29l-203 153q-39 27 -39 67t26 67q53 55 117 4l166 -125l166 125q70 48 120 -4q26 -27 26 -67t-39 -67l-205 -153q-35 -29 -69 -29zM356 1440h686q47 0 80 -31t33 -76t-34 -78t-79 -32h-634v-396h618q43 -1 73 -29q29 -28 29 -71t-32 -74t-70 -30
h-618v-406h641q43 0 77 -33q34 -32 33 -76q0 -44 -32 -76t-78 -32h-693q-80 0 -125 48t-45 120v1106q0 72 45 119t125 47z" />
    <glyph glyph-name="ecaron" unicode="&#x11b;" horiz-adv-x="1169" 
d="M595 1204q-34 0 -67 29l-202 153q-39 27 -39 67t25 67q26 26 58 26t60 -22l166 -125l166 125q68 48 120 -4q26 -27 26 -67t-40 -67l-204 -153q-35 -29 -69 -29zM821 629q23 0 25 24q8 115 -59 187t-191 72t-188 -76q-66 -76 -62 -207h475zM1057 645v-57q0 -59 -33 -95
t-98 -36h-580v-25q0 -122 74 -188t184 -66t248 49q63 25 105 -5t42 -84t-55 -87q-117 -71 -329 -71t-340 122t-140 318q-8 115 0 254q13 198 143 314t330 116t324 -126q125 -126 125 -333z" />
    <glyph glyph-name="Gbreve" unicode="&#x11e;" horiz-adv-x="1433" 
d="M735 1700q84 0 113 90q16 61 82 61q36 1 60 -25t24 -50t-6 -43q-29 -83 -102 -139t-171 -56t-171 55t-101 140q-6 19 -6 43t24 50q25 26 60 25q66 0 82 -61q28 -90 112 -90zM1309 623v-125q0 -219 -161 -370t-410 -151t-419 165t-188 413q-16 166 0 328q18 245 188 411
t420 166q173 0 309 -81t209 -224q17 -27 17 -63t-32 -69q-32 -32 -82 -32t-85 56q-109 205 -334 204q-164 1 -269 -107q-106 -108 -120 -270t0 -318t120 -262t269 -106q162 0 257 82t96 205v98h-246q-45 0 -76 32t-31 76t31 74t76 29h297q78 0 121 -46t43 -115z" />
    <glyph glyph-name="gbreve" unicode="&#x11f;" horiz-adv-x="1228" 
d="M614 1364q84 0 113 90q16 61 82 62q35 0 59 -26t25 -50q0 -24 -6 -43q-29 -83 -102 -139t-171 -56t-171 55t-101 140q-6 18 -6 43q0 24 24 50t60 26q66 0 82 -62q28 -90 112 -90zM602 895q-233 0 -252 -238q-8 -96 0 -211q16 -236 244 -235q80 0 150 25t98 49v546
q-20 20 -102 42q-81 22 -138 22zM1059 895v-825q0 -227 -137 -346t-336 -119t-336 86q-90 55 -90 123q0 38 26 66t74 28q47 0 138 -50q92 -50 188 -50t177 65q81 66 81 182v21q-135 -63 -281 -64q-190 0 -304 112t-126 296q-10 135 0 262q16 190 135 306t326 116
q129 0 244 -41t168 -77t53 -91z" />
    <glyph glyph-name="Gdotaccent" unicode="&#x120;" horiz-adv-x="1433" 
d="M735 1776q47 0 79 -32t32 -79t-32 -80t-79 -33t-79 33t-31 80q0 47 31 79q32 32 79 32zM1309 623v-125q0 -219 -161 -370t-410 -151t-419 165t-188 413q-16 166 0 328q18 245 188 411t420 166q173 0 309 -81t209 -224q17 -27 17 -63t-32 -69q-32 -32 -82 -32t-85 56
q-109 205 -334 204q-164 1 -269 -107q-106 -108 -120 -270t0 -318t120 -262t269 -106q162 0 257 82t96 205v98h-246q-45 0 -76 32t-31 76t31 74t76 29h297q78 0 121 -46t43 -115z" />
    <glyph glyph-name="gdotaccent" unicode="&#x121;" horiz-adv-x="1228" 
d="M614 1446q45 0 78 -33t33 -79t-32 -79t-79 -33q-46 0 -78 34q-32 32 -32 78t32 79t78 33zM602 895q-233 0 -252 -238q-8 -96 0 -211q16 -236 244 -235q80 0 150 25t98 49v546q-20 20 -102 42q-81 22 -138 22zM1059 895v-825q0 -227 -137 -346t-336 -119t-336 86
q-90 55 -90 123q0 38 26 66t74 28q47 0 138 -50q92 -50 188 -50t177 65q81 66 81 182v21q-135 -63 -281 -64q-190 0 -304 112t-126 296q-10 135 0 262q16 190 135 306t326 116q129 0 244 -41t168 -77t53 -91z" />
    <glyph glyph-name="Gcommaaccent" unicode="&#x122;" horiz-adv-x="1433" 
d="M694 -518q-42 0 -66 22t-24 48q0 24 28 86t27 114v96q0 39 23 65q24 26 62 26t62 -26t23 -65v-90q0 -117 -57 -221q-35 -55 -78 -55zM1309 623v-125q0 -219 -161 -370t-410 -151t-419 165t-188 413q-16 166 0 328q18 245 188 411t420 166q173 0 309 -81t209 -224
q17 -27 17 -63t-32 -69q-32 -32 -82 -32t-85 56q-109 205 -334 204q-164 1 -269 -107q-106 -108 -120 -270t0 -318t120 -262t269 -106q162 0 257 82t96 205v98h-246q-45 0 -76 32t-31 76t31 74t76 29h297q78 0 121 -46t43 -115z" />
    <glyph glyph-name="gcommaaccent" unicode="&#x123;" horiz-adv-x="1228" 
d="M612 1180q-42 0 -66 22t-24 47q0 23 28 85t28 116v96q0 39 22 65q23 25 62 25q38 0 62 -26t24 -64v-90q-1 -117 -58 -221q-35 -55 -78 -55zM602 895q-233 0 -252 -238q-8 -96 0 -211q16 -236 244 -235q80 0 150 25t98 49v546q-20 20 -102 42q-81 22 -138 22zM1059 895
v-825q0 -227 -137 -346t-336 -119t-336 86q-90 55 -90 123q0 38 26 66t74 28q47 0 138 -50q92 -50 188 -50t177 65q81 66 81 182v21q-135 -63 -281 -64q-190 0 -304 112t-126 296q-10 135 0 262q16 190 135 306t326 116q129 0 244 -41t168 -77t53 -91z" />
    <glyph glyph-name="Imacron" unicode="&#x12a;" horiz-adv-x="583" 
d="M129 1751h330q39 0 65 -25q26 -26 25 -64q0 -38 -26 -64t-64 -25h-330q-39 -1 -65 25t-25 65q-1 39 25 63t65 25zM180 104v1229q0 45 33 79t79 34t78 -33t31 -80v-1229q1 -48 -31 -80t-78 -32t-79 34t-33 78z" />
    <glyph glyph-name="imacron" unicode="&#x12b;" horiz-adv-x="573" 
d="M287 1090q45 0 77 -33t31 -78v-877q-1 -48 -31 -80t-75 -32t-77 34t-32 78v877q0 47 31 79t76 32zM123 1419h330q39 -1 65 -25t25 -63q0 -39 -26 -65t-64 -25h-330q-39 0 -65 26q-26 27 -26 65t26 63q26 24 65 24z" />
    <glyph glyph-name="Iogonek" unicode="&#x12e;" horiz-adv-x="583" 
d="M184 1333q0 45 33 79t79 34t78 -33t32 -80v-1229q0 -61 -58 -96q-152 -84 -151 -192q-1 -45 27 -70t65 -25t71 23q53 39 101 -14q41 -54 -21 -110t-168 -56q-104 0 -172 68t-67 171q0 149 160 258q-8 16 -9 43v1229z" />
    <glyph glyph-name="iogonek" unicode="&#x12f;" horiz-adv-x="573" 
d="M410 1356q0 -51 -36 -88t-87 -37t-86 37t-35 88t35 86t86 35t87 -35t36 -86zM193 -184q1 -45 29 -70t65 -25q37 -1 65 19t58 16q29 -4 47 -26q41 -54 -21 -110t-166 -56t-173 68t-68 171q0 158 155 260q-6 18 -6 66v850q0 47 32 79t77 32t77 -32t31 -77v-872
q0 -72 -55 -103q-147 -82 -147 -190z" />
    <glyph glyph-name="Idotaccent" unicode="&#x130;" horiz-adv-x="583" 
d="M293 1778q47 0 79 -33t32 -79t-32 -79t-79 -33t-79 33t-32 79t32 79t79 33zM180 104v1229q0 45 33 79t79 34t78 -33t31 -80v-1229q1 -48 -31 -80t-78 -32t-79 34t-33 78z" />
    <glyph glyph-name="dotlessi" unicode="&#x131;" horiz-adv-x="573" 
d="M287 1090q45 0 77 -33t31 -78v-877q-1 -48 -31 -80t-75 -32t-77 34t-32 78v877q0 47 31 79t76 32z" />
    <glyph glyph-name="Kcommaaccent" unicode="&#x136;" horiz-adv-x="1308" 
d="M633 -518q-43 0 -67 22t-24 48q0 24 28 86t28 114v96q0 39 23 65t61 26t62 -26t24 -65v-90q0 -117 -57 -221q-35 -55 -78 -55zM1262 102q0 -44 -32 -76t-76 -32t-79 35l-543 542q-30 33 -54 40t-70 7v-514q0 -48 -32 -80t-78 -32t-79 34t-33 78v1229q0 45 33 79t79 34
t78 -33t32 -80v-499q44 0 68 8t56 39l535 528q35 37 82 37t76 -33t29 -75t-31 -72l-549 -531l555 -553q33 -37 33 -80z" />
    <glyph glyph-name="kcommaaccent" unicode="&#x137;" horiz-adv-x="1114" 
d="M504 -313v96q0 39 22 65t62 25q38 0 62 -26t24 -64v-90q-1 -117 -58 -221q-35 -56 -78 -56q-42 0 -66 23t-24 47t28 86t28 115zM170 1350q0 46 30 78t77 32q46 0 78 -32t32 -78v-695h29q61 0 108 47l353 355q33 35 79 36t76 -32q31 -33 31 -75t-31 -73l-366 -356
l366 -377q33 -35 35 -78q2 -42 -30 -76t-79 -34t-79 35l-355 372q-47 49 -106 50h-31v-347q0 -46 -32 -78t-77 -32q-44 0 -76 33t-32 77v1248z" />
    <glyph glyph-name="Lacute" unicode="&#x139;" horiz-adv-x="1169" 
d="M276 1542q-26 0 -52 27t-26 71t52 68l276 143q62 32 106 -14q26 -27 26 -69t-50 -70l-278 -144q-28 -12 -54 -12zM193 147v1186q0 45 32 79q33 34 79 34t78 -33t32 -80v-1116h620q43 0 77 -33q34 -32 34 -76t-32 -76t-79 -32h-694q-70 0 -109 42q-38 42 -38 105z" />
    <glyph glyph-name="lacute" unicode="&#x13a;" horiz-adv-x="573" 
d="M146 1542q-26 0 -51 27t-25 71t51 68l276 143q62 32 106 -14q25 -27 25 -69t-49 -70l-278 -144q-29 -12 -55 -12zM287 1460q45 0 77 -33t31 -77v-1248q-1 -46 -31 -78t-75 -32t-78 33t-33 77v1248q0 46 32 78t77 32z" />
    <glyph glyph-name="Lcommaaccent" unicode="&#x13b;" horiz-adv-x="1163" 
d="M524 -514q0 24 28 86t28 115v96q0 39 22 65t62 25q38 0 62 -26t24 -64v-90q-1 -117 -58 -221q-35 -56 -78 -56q-42 0 -66 23t-24 47zM186 147v1186q0 45 33 79t79 34t78 -33t32 -80v-1116h620q43 0 77 -33q34 -32 34 -76t-32 -76t-79 -32h-694q-70 0 -109 42t-39 105z
" />
    <glyph glyph-name="lcommaaccent" unicode="&#x13c;" horiz-adv-x="608" 
d="M178 -514q0 24 28 86t27 115v96q0 39 23 65q24 26 62 25q38 0 62 -26t23 -64v-90q0 -117 -57 -221q-35 -56 -78 -56q-42 0 -66 23t-24 47zM322 1460q44 0 76 -33t32 -77v-1248q0 -46 -31 -78t-75 -32t-78 33q-33 33 -33 77v1248q0 46 32 78t77 32z" />
    <glyph glyph-name="Lcaron" unicode="&#x13d;" horiz-adv-x="1163" 
d="M610 1201q0 27 29 85t29 113v55q0 43 25 71q26 27 69 27q42 0 68 -28t26 -70v-47q0 -117 -61 -221q-35 -62 -85 -62t-74 25q-26 25 -26 52zM186 147v1186q0 45 33 79t79 34t78 -33t32 -80v-1116h620q43 0 77 -33q34 -32 34 -76t-32 -76t-79 -32h-694q-70 0 -109 42
t-39 105z" />
    <glyph glyph-name="lcaron" unicode="&#x13e;" horiz-adv-x="700" 
d="M520 1205q0 27 29 85t29 113v55q0 43 25 71q26 27 69 27q42 0 68 -28t26 -70v-47q0 -117 -61 -221q-35 -62 -85 -62t-74 25q-26 25 -26 52zM279 1460q45 0 77 -33t31 -77v-1248q0 -46 -31 -78q-32 -32 -76 -32t-77 33t-33 77v1248q0 46 32 78t77 32z" />
    <glyph glyph-name="Lslash" unicode="&#x141;" horiz-adv-x="1161" 
d="M182 147v359l-69 -43q-37 -23 -76 -13t-62 46q-20 38 -11 76t44 61l174 106v594q0 45 33 79t78 34t78 -33t32 -80v-461l175 111q36 23 76 13t62 -46q22 -34 12 -74q-9 -40 -44 -63l-281 -174v-422h621q45 0 79 -32q34 -33 34 -77t-33 -76t-80 -32h-692q-70 0 -110 42
t-40 105z" />
    <glyph glyph-name="lslash" unicode="&#x142;" horiz-adv-x="698" 
d="M348 1460q45 0 77 -33t32 -77v-412l71 47q33 20 71 12t58 -40q21 -33 11 -69t-41 -57l-170 -112v-617q0 -46 -32 -78t-76 -32t-76 33t-31 77v478l-74 -45q-31 -17 -67 -9t-55 40t-10 68t44 58l162 105v553q0 46 30 78t76 32z" />
    <glyph glyph-name="Nacute" unicode="&#x143;" horiz-adv-x="1572" 
d="M734 1540q-26 0 -52 27t-24 69q0 42 51 70l276 143q62 32 106 -14q25 -27 25 -69t-49 -70l-279 -144q-28 -12 -54 -12zM406 106q0 -48 -32 -80t-78 -32t-78 34t-32 78v1154q0 78 48 131t126 53q113 0 172 -98l639 -1067h5q0 25 -4 100t-5 219v735q0 47 33 80t78 33
t77 -33t31 -80v-1159q0 -76 -47 -128t-122 -52q-111 0 -168 94l-646 1081h-6l9 -329v-734z" />
    <glyph glyph-name="nacute" unicode="&#x144;" 
d="M879 1430q0 -42 -50 -70l-278 -143q-29 -13 -55 -13t-51 27t-25 69t51 70l277 143q62 32 106 -14q26 -27 25 -69zM1081 672v-570q-1 -46 -31 -78t-75 -32t-78 33t-33 77v560q0 117 -67 175q-68 58 -170 58q-150 0 -244 -57v-736q0 -46 -32 -78t-76 -32q-45 0 -77 33
t-32 77v805q0 55 43 84q55 43 167 78t257 35q221 0 335 -112t113 -320z" />
    <glyph glyph-name="Ncommaaccent" unicode="&#x145;" horiz-adv-x="1572" 
d="M743 -518q-43 0 -67 22t-23 48q0 24 28 86t28 114v96q0 39 22 65q23 26 62 26t63 -26t23 -65v-90q-1 -117 -58 -221q-35 -55 -78 -55zM406 106q0 -48 -32 -80t-78 -32t-78 34t-32 78v1154q0 78 48 131t126 53q113 0 172 -98l639 -1067h5q0 25 -4 100t-5 219v735
q0 47 33 80t78 33t77 -33t31 -80v-1159q0 -76 -47 -128t-122 -52q-111 0 -168 94l-646 1081h-6l9 -329v-734z" />
    <glyph glyph-name="ncommaaccent" unicode="&#x146;" 
d="M479 -514q0 24 28 86t28 115v96q1 39 23 65t61 25q39 0 63 -26t23 -64v-90q-1 -117 -58 -221q-35 -56 -78 -56t-67 23t-23 47zM1081 672v-570q-1 -46 -31 -78t-75 -32t-78 33t-33 77v560q0 117 -67 175q-68 58 -170 58q-150 0 -244 -57v-736q0 -46 -32 -78t-76 -32
q-45 0 -77 33t-32 77v805q0 55 43 84q55 43 167 78t257 35q221 0 335 -112t113 -320z" />
    <glyph glyph-name="Ncaron" unicode="&#x147;" horiz-adv-x="1572" 
d="M800 1542q-34 0 -67 29l-203 153q-38 27 -38 67t25 67q26 26 58 26t60 -22l166 -125l166 125q69 48 119 -4q26 -27 26 -67t-39 -67l-205 -153q-34 -29 -68 -29zM406 106q0 -48 -32 -80t-78 -32t-78 34t-32 78v1154q0 78 48 131t126 53q113 0 172 -98l639 -1067h5
q0 25 -4 100t-5 219v735q0 47 33 80t78 33t77 -33t31 -80v-1159q0 -76 -47 -128t-122 -52q-111 0 -168 94l-646 1081h-6l9 -329v-734z" />
    <glyph glyph-name="ncaron" unicode="&#x148;" 
d="M609 1206q-34 0 -66 29l-203 154q-39 27 -39 67t26 66q53 55 117 4l166 -125l166 125q70 48 120 -4q26 -26 26 -66t-39 -67l-205 -154q-35 -29 -69 -29zM1081 672v-570q-1 -46 -31 -78t-75 -32t-78 33t-33 77v560q0 117 -67 175q-68 58 -170 58q-150 0 -244 -57v-736
q0 -46 -32 -78t-76 -32q-45 0 -77 33t-32 77v805q0 55 43 84q55 43 167 78t257 35q221 0 335 -112t113 -320z" />
    <glyph glyph-name="Omacron" unicode="&#x14c;" horiz-adv-x="1497" 
d="M586 1751h329q39 0 65 -25q26 -26 26 -64t-26 -64t-65 -25h-329q-39 -1 -65 25t-25 65q0 39 26 63t64 25zM748 188q164 0 274 109t124 266q13 157 0 314t-125 266q-111 109 -273 109t-273 -110q-111 -108 -124 -264t0 -315t123 -267t274 -108zM748 -23q-250 0 -424 165
t-193 413q-16 166 0 328q19 245 193 411t424 166t426 -167t192 -410q16 -164 0 -328q-16 -246 -192 -412t-426 -166z" />
    <glyph glyph-name="omacron" unicode="&#x14d;" horiz-adv-x="1214" 
d="M442 1419h330q39 -1 65 -25q25 -24 25 -63t-26 -65t-64 -25h-330q-38 0 -64 26q-26 27 -26 65t26 62t64 25zM607 895q-113 1 -181 -63t-76 -168q-10 -145 0 -246q10 -102 78 -166t178 -64t180 65q68 65 76 158t2 253q-6 102 -76 166t-181 65zM607 1104q196 0 328 -115
t144 -297q10 -145 -1 -309t-144 -284q-133 -119 -327 -119q-195 0 -327 120t-147 299q-8 147 3 311t143 279t328 115z" />
    <glyph glyph-name="Ohungarumlaut" unicode="&#x150;" horiz-adv-x="1497" 
d="M913 1540q-35 0 -63 26t-27 64q0 38 27 62l201 200q27 27 63 27t63 -26q28 -27 28 -63t-25 -61l-203 -200q-29 -29 -64 -29zM573 1540q-35 0 -63 26t-27 64q0 38 25 62l203 200q20 27 59 27t67 -26q28 -27 28 -63t-27 -61l-201 -200q-29 -29 -64 -29zM748 188
q164 0 274 109t124 266q13 157 0 314t-125 266q-111 109 -273 109t-273 -110q-111 -108 -124 -264t0 -315t123 -267t274 -108zM748 -23q-250 0 -424 165t-193 413q-16 166 0 328q19 245 193 411t424 166t426 -167t192 -410q16 -164 0 -328q-16 -246 -192 -412t-426 -166z
" />
    <glyph glyph-name="ohungarumlaut" unicode="&#x151;" horiz-adv-x="1236" 
d="M746 1204q-34 0 -63 26q-28 26 -28 64t27 62l201 200q27 27 63 27q36 1 63 -25q28 -26 28 -62t-25 -62l-203 -201q-29 -29 -63 -29zM406 1204q-34 0 -63 26q-28 26 -28 64t25 62l203 200q20 27 59 27q39 1 67 -25t28 -62t-27 -62l-201 -201q-29 -29 -63 -29zM607 895
q-113 1 -181 -63t-76 -168q-10 -145 0 -246q10 -102 78 -166t178 -64t180 65q68 65 76 158t2 253q-6 102 -76 166t-181 65zM607 1104q196 0 328 -115t144 -297q10 -145 -1 -309t-144 -284q-133 -119 -327 -119q-195 0 -327 120t-147 299q-8 147 3 311t143 279t328 115z" />
    <glyph glyph-name="OE" unicode="&#x152;" horiz-adv-x="2209" 
d="M788 1251q-202 -1 -316 -117t-124 -305q-6 -115 0 -229q10 -188 123 -300t301 -112t334 19v1026q-166 18 -318 18zM1974 0h-741q-43 0 -185 -11t-262 -12q-294 0 -466 169t-191 436q-10 133 0 264q15 268 191 441t468 173q114 0 262 -10t222 -10h698q47 0 80 -32t33 -77
t-34 -77t-79 -31h-645v-398h627q44 -1 74 -29t30 -70t-32 -73t-72 -30h-627v-406h649q45 0 79 -32q34 -33 34 -77t-33 -76t-80 -32z" />
    <glyph glyph-name="oe" unicode="&#x153;" horiz-adv-x="1904" 
d="M1330 913q-124 1 -190 -75t-63 -209h475q20 0 25 24q6 119 -58 190q-65 70 -189 70zM607 895q-113 0 -181 -62t-76 -165q-10 -147 0 -250t78 -166q68 -64 178 -64t180 64q68 64 76 158t2 258q-6 102 -74 165q-69 62 -183 62zM1788 588q0 -59 -33 -95t-96 -36h-582v-25
q0 -122 75 -188q74 -66 182 -66t249 49q63 25 105 -5t43 -84q0 -54 -56 -87q-119 -72 -332 -71q-244 0 -370 170q-135 -170 -367 -170q-194 0 -326 120t-147 301q-8 147 3 310q12 163 144 278t326 115q240 0 369 -166q131 166 347 166t341 -126t125 -333v-57z" />
    <glyph glyph-name="Racute" unicode="&#x154;" horiz-adv-x="1388" 
d="M985 1766q0 -42 -49 -70l-279 -144q-29 -12 -55 -12t-50 27q-26 27 -26 69t52 70l276 143q20 13 50 13t56 -27t25 -69zM406 743h333q281 0 281 242t-270 242h-344v-484zM618 535h-212v-431q0 -46 -33 -80t-78 -34t-77 34t-32 80v1176q0 70 42 115t118 45h418
q205 0 341 -120t136 -333q0 -174 -86 -274t-231 -131l331 -406q29 -33 27 -80t-36 -78q-34 -30 -79 -28t-75 37l-359 442q-29 35 -53 51t-62 15z" />
    <glyph glyph-name="racute" unicode="&#x155;" horiz-adv-x="784" 
d="M717 1428q0 -42 -49 -70l-279 -144q-29 -12 -55 -12t-50 27q-26 27 -26 71t51 68l277 143q62 32 106 -14q26 -27 25 -69zM770 979q0 -39 -27 -71t-75 -31q-12 0 -64 10t-90 8q-141 -2 -141 -164v-631q0 -44 -32 -76t-77 -32t-77 32t-31 76v666q0 158 89 248t255 90
q106 0 188 -24t82 -101z" />
    <glyph glyph-name="Rcommaaccent" unicode="&#x156;" horiz-adv-x="1388" 
d="M557 -514q0 24 28 86t27 115v96q0 39 23 65t61 25q38 0 63 -26q24 -26 23 -64v-90q0 -117 -57 -221q-35 -56 -78 -56t-67 23t-23 47zM406 743h333q281 0 281 242t-270 242h-344v-484zM618 535h-212v-431q0 -46 -33 -80t-78 -34t-77 34t-32 80v1176q0 70 42 115t118 45
h418q205 0 341 -120t136 -333q0 -174 -86 -274t-231 -131l331 -406q29 -33 27 -80t-36 -78q-34 -30 -79 -28t-75 37l-359 442q-29 35 -53 51t-62 15z" />
    <glyph glyph-name="rcommaaccent" unicode="&#x157;" horiz-adv-x="784" 
d="M180 -217q0 39 23 65t61 25q38 0 63 -26q24 -26 23 -64v-90q0 -117 -57 -221q-35 -56 -78 -56t-67 23t-24 47t29 86q28 62 27 115v96zM770 979q0 -39 -27 -71t-75 -31q-12 0 -64 10t-90 8q-141 -2 -141 -164v-631q0 -44 -32 -76t-77 -32t-77 32t-31 76v666q0 158 89 248
t255 90q106 0 188 -24t82 -101z" />
    <glyph glyph-name="Rcaron" unicode="&#x158;" horiz-adv-x="1388" 
d="M695 1542q-34 0 -66 29l-203 153q-39 27 -39 67t26 67q53 55 117 4l166 -125l166 125q70 48 120 -4q26 -27 26 -67t-39 -67l-205 -153q-35 -29 -69 -29zM406 743h333q281 0 281 242t-270 242h-344v-484zM618 535h-212v-431q0 -46 -33 -80t-78 -34t-77 34t-32 80v1176
q0 70 42 115t118 45h418q205 0 341 -120t136 -333q0 -174 -86 -274t-231 -131l331 -406q29 -33 27 -80t-36 -78q-34 -30 -79 -28t-75 37l-359 442q-29 35 -53 51t-62 15z" />
    <glyph glyph-name="rcaron" unicode="&#x159;" horiz-adv-x="784" 
d="M450 1204q-34 0 -67 29l-203 153q-39 27 -39 67t26 67q52 54 118 4l166 -125l165 125q70 48 120 -4q26 -27 26 -67t-39 -67l-205 -153q-34 -29 -68 -29zM770 979q0 -39 -27 -71t-75 -31q-12 0 -64 10t-90 8q-141 -2 -141 -164v-631q0 -44 -32 -76t-77 -32t-77 32t-31 76
v666q0 158 89 248t255 90q106 0 188 -24t82 -101z" />
    <glyph glyph-name="Sacute" unicode="&#x15a;" horiz-adv-x="1284" 
d="M934 1766q0 -42 -49 -70l-279 -144q-28 -12 -54 -12t-52 27t-25 69q0 42 51 70l277 143q20 13 50 13q29 0 55 -27t26 -69zM1198 404q0 -184 -144 -306t-414 -121q-270 0 -474 150q-57 41 -57 93t32 84q33 32 76 32t84 -31q164 -117 371 -117q143 0 224 60t81 154t-78 139
t-270 84q-256 49 -372 145t-116 278q-1 182 141 298t365 114q287 0 426 -119q35 -33 35 -81t-29 -78t-67 -29q-38 0 -86 25q-132 74 -278 74t-216 -60q-70 -58 -70 -146t71 -134t255 -81q274 -51 392 -147t118 -280z" />
    <glyph glyph-name="sacute" unicode="&#x15b;" horiz-adv-x="1013" 
d="M770 1430q0 -42 -49 -70l-279 -143q-28 -13 -54 -13t-52 27t-25 69q0 42 51 70l277 143q20 13 50 13q29 0 55 -27t26 -69zM934 317q0 -153 -116 -245t-296 -92q-236 0 -377 116q-31 27 -36 68q-6 41 16 72q55 76 143 20q111 -80 264 -80q90 0 140 37q49 37 49 90t-33 82
t-142 55t-114 27q-297 74 -297 307q0 152 114 241q115 89 299 89t300 -96q33 -27 33 -71t-23 -69q-51 -61 -141 -14q-88 51 -189 51q-184 0 -184 -127q0 -42 32 -68t109 -46l160 -37q289 -72 289 -310z" />
    <glyph glyph-name="Scedilla" unicode="&#x15e;" horiz-adv-x="1284" 
d="M109 220q0 52 32 84q33 32 76 32t84 -31q164 -117 371 -117q143 0 224 60t81 154t-78 139t-270 84q-256 49 -372 145t-116 278q-1 182 141 298t365 114q287 0 426 -119q35 -33 35 -81t-29 -78t-67 -29q-38 0 -86 25q-132 74 -278 74t-216 -60q-70 -58 -70 -146t71 -134
t255 -81q274 -51 392 -147t118 -277t-136 -301t-374 -129l-26 -63q90 -6 141 -59t51 -136q0 -180 -260 -270q-41 -14 -78 4q-37 19 -37 69t58 72q91 37 121 63t30 51q0 26 -16 44t-43 19l-68 -9q-37 0 -58 32t-7 69l45 121q-219 27 -375 143q-57 41 -57 93z" />
    <glyph glyph-name="scedilla" unicode="&#x15f;" horiz-adv-x="1011" 
d="M524 176q90 0 140 37q49 37 49 90t-33 82q-32 29 -136 53t-122 29q-295 74 -295 307q0 152 114 241t298 89t301 -96q32 -27 32 -71t-22 -69q-47 -61 -141 -14q-88 51 -189 51q-184 0 -184 -127q0 -78 121 -108q175 -43 182 -43q287 -72 287 -310q0 -139 -94 -228
t-248 -105l-27 -70q88 -6 139 -59t52 -136q0 -180 -259 -270q-41 -14 -77 4q-36 19 -37 69q0 50 55 72q94 37 123 62t29 52q0 26 -16 44t-44 19l-65 -9q-37 0 -60 32q-22 32 -8 69l45 121q-182 16 -297 112q-31 27 -37 68t17 72q55 76 143 20q115 -80 264 -80z" />
    <glyph glyph-name="Scaron" unicode="&#x160;" horiz-adv-x="1284" 
d="M652 1538q-34 0 -66 29l-203 153q-39 27 -39 67q0 41 26 67t58 26t59 -22l166 -125l166 125q70 49 120 -5q26 -27 26 -67t-39 -66l-205 -153q-35 -29 -69 -29zM1198 404q0 -184 -144 -306t-414 -121q-270 0 -474 150q-57 41 -57 93t32 84q33 32 76 32t84 -31
q164 -117 371 -117q143 0 224 60t81 154t-78 139t-270 84q-256 49 -372 145t-116 278q-1 182 141 298t365 114q287 0 426 -119q35 -33 35 -81t-29 -78t-67 -29q-38 0 -86 25q-132 74 -278 74t-216 -60q-70 -58 -70 -146t71 -134t255 -81q274 -51 392 -147t118 -280z" />
    <glyph glyph-name="scaron" unicode="&#x161;" horiz-adv-x="1013" 
d="M203 1431q-1 41 25 67t58 26t60 -23l166 -125l166 125q34 23 64 23t56 -27t26 -67t-40 -66l-204 -154q-69 -57 -136 0l-202 154q-39 27 -39 67zM934 317q0 -153 -116 -245t-296 -92q-236 0 -377 116q-31 27 -36 68q-6 41 16 72q55 76 143 20q111 -80 264 -80q90 0 140 37
q49 37 49 90t-33 82t-142 55t-114 27q-297 74 -297 307q0 152 114 241q115 89 299 89t300 -96q33 -27 33 -71t-23 -69q-51 -61 -141 -14q-88 51 -189 51q-184 0 -184 -127q0 -42 32 -68t109 -46l160 -37q289 -72 289 -310z" />
    <glyph glyph-name="Tcommaaccent" unicode="&#x162;" horiz-adv-x="1247" 
d="M514 104v1119h-371q-47 -1 -80 31t-33 78t33 77t80 31h961q47 0 80 -31t33 -77t-34 -78t-79 -31h-369v-1119q0 -48 -32 -80q-31 -32 -77 -32t-79 34t-33 78zM487 -514q0 24 28 86t28 115v96q1 39 23 65t61 25q39 0 63 -26t23 -64v-90q-1 -117 -58 -221q-35 -56 -78 -56
t-67 23t-23 47z" />
    <glyph glyph-name="tcommaaccent" unicode="&#x163;" horiz-adv-x="860" 
d="M317 -514q0 24 28 86t28 115v96q1 39 23 65t61 25q39 0 63 -26t23 -64v-90q-1 -117 -58 -221q-35 -56 -78 -56t-67 23t-23 47zM795 119q1 -141 -317 -139q-154 0 -240 101t-86 267v856q0 47 31 79q32 32 77 32t77 -33t32 -78v-155h282q43 0 73 -28t30 -69q0 -40 -30 -68
t-73 -28h-282v-510q0 -162 145 -162q35 0 148 31q59 13 96 -17t37 -79z" />
    <glyph glyph-name="Tcaron" unicode="&#x164;" horiz-adv-x="1247" 
d="M622 1542q-34 0 -67 29l-203 153q-39 27 -39 67t26 67q52 54 118 4l166 -125l165 125q70 48 120 -4q26 -27 26 -67t-39 -67l-205 -153q-34 -29 -68 -29zM514 104v1119h-371q-47 -1 -80 31t-33 78t33 77t80 31h961q47 0 80 -31t33 -77t-34 -78t-79 -31h-369v-1119
q0 -48 -32 -80q-31 -32 -77 -32t-79 34t-33 78z" />
    <glyph glyph-name="tcaron" unicode="&#x165;" horiz-adv-x="845" 
d="M467 1205q0 27 29 85t28 113v55q0 43 26 71q26 27 68 27t69 -28q26 -28 26 -70v-47q-1 -117 -62 -221q-35 -62 -84 -62t-75 25t-25 52zM795 119q1 -141 -317 -139q-154 0 -240 101t-86 267v856q0 47 31 79q32 32 77 32t77 -33t32 -78v-155h282q43 0 73 -28t30 -69
q0 -40 -30 -68t-73 -28h-282v-510q0 -162 145 -162q35 0 148 31q59 13 96 -17t37 -79z" />
    <glyph glyph-name="Umacron" unicode="&#x16a;" horiz-adv-x="1531" 
d="M602 1749h330q38 0 64 -25q26 -26 26 -64t-26 -64t-64 -25h-330q-38 -1 -64 25t-26 65t26 63t64 25zM1362 1333v-735q0 -274 -169 -447t-427 -173t-428 172q-170 174 -170 448v735q0 45 34 79t79 34t77 -33t31 -80v-741q-1 -184 105 -294t272 -110t270 110t105 294v741
q0 47 33 80q32 33 78 33t78 -33t32 -80z" />
    <glyph glyph-name="umacron" unicode="&#x16b;" 
d="M451 1419h329q39 -1 65 -25q25 -24 25 -63t-26 -65t-64 -25h-329q-39 0 -65 26q-26 27 -26 65t26 62t65 25zM156 416v559q0 49 28 82q29 33 77 33t80 -33t32 -82v-557q0 -106 63 -168t185 -62t233 68v721q0 47 32 80t77 33t77 -33t31 -80v-793q0 -55 -41 -82
q-176 -122 -404 -122t-348 114q-122 114 -122 322z" />
    <glyph glyph-name="Uring" unicode="&#x16e;" horiz-adv-x="1531" 
d="M682 1754q0 -36 25 -62t59 -25q34 0 60 26q26 25 26 61t-26 62t-60 26t-60 -26q-24 -26 -24 -62zM555 1754q0 86 62 148q61 62 149 62t150 -60t62 -148t-62 -150t-149 -62t-149 62t-63 148zM1362 1333v-735q0 -274 -169 -447t-427 -173t-428 172q-170 174 -170 448v735
q0 45 34 79t79 34t77 -33t31 -80v-741q-1 -184 105 -294t272 -110t270 110t105 294v741q0 47 33 80q32 33 78 33t78 -33t32 -80z" />
    <glyph glyph-name="uring" unicode="&#x16f;" 
d="M530 1418q0 -36 25 -62t59 -25q34 0 61 26q25 25 25 61t-25 62q-26 26 -61 26q-36 0 -60 -26t-24 -62zM403 1418q1 86 63 148t149 62t149 -60t63 -148q0 -88 -62 -150q-61 -62 -149 -62t-150 62t-63 148zM156 416v559q0 49 28 82q29 33 77 33t80 -33t32 -82v-557
q0 -106 63 -168t185 -62t233 68v721q0 47 32 80t77 33t77 -33t31 -80v-793q0 -55 -41 -82q-176 -122 -404 -122t-348 114q-122 114 -122 322z" />
    <glyph glyph-name="Uhungarumlaut" unicode="&#x170;" horiz-adv-x="1531" 
d="M926 1540q-34 0 -63 26q-27 26 -27 64t26 62l201 200q27 27 63 27t63 -26q28 -27 28 -63t-25 -61l-203 -200q-29 -29 -63 -29zM586 1540q-34 0 -63 26q-27 26 -27 64t24 62l203 200q20 27 59 27t67 -26q28 -27 28 -63t-27 -61l-201 -200q-29 -29 -63 -29zM1362 1333v-735
q0 -274 -169 -447t-427 -173t-428 172q-170 174 -170 448v735q0 45 34 79t79 34t77 -33t31 -80v-741q-1 -184 105 -294t272 -110t270 110t105 294v741q0 47 33 80q32 33 78 33t78 -33t32 -80z" />
    <glyph glyph-name="uhungarumlaut" unicode="&#x171;" 
d="M768 1206q-34 0 -62 26t-28 64t27 62l200 201q27 27 63 27t64 -26t27 -62q0 -36 -25 -62l-203 -201q-29 -29 -63 -29zM428 1206q-34 0 -62 26t-28 64t24 62l203 201q19 27 59 27t68 -26t27 -62q0 -36 -27 -62l-200 -201q-29 -29 -64 -29zM156 416v559q0 49 28 82
q29 33 77 33t80 -33t32 -82v-557q0 -106 63 -168t185 -62t233 68v721q0 47 32 80t77 33t77 -33t31 -80v-793q0 -55 -41 -82q-176 -122 -404 -122t-348 114q-122 114 -122 322z" />
    <glyph glyph-name="Uogonek" unicode="&#x172;" horiz-adv-x="1531" 
d="M786 -184q0 -45 28 -70t67 -25q39 -1 69 19t58 16q29 -4 47 -26q18 -27 12 -58t-31 -51q-78 -57 -177 -57t-168 68t-69 169q0 102 72 183q-231 23 -379 191q-147 169 -147 423v729q0 47 33 80t79 33t78 -33t31 -80v-735q-1 -184 105 -294t272 -110t270 110t105 294v735
q0 47 33 80q32 33 78 33t78 -33t32 -80v-729q0 -211 -101 -364q-102 -152 -274 -218q-201 -76 -201 -200z" />
    <glyph glyph-name="uogonek" unicode="&#x173;" horiz-adv-x="1253" 
d="M1071 973v-817q0 -53 -72 -88q-195 -90 -194 -240q0 -51 29 -78q28 -26 68 -26t69 20t57 16t47 -28q18 -24 12 -56q-6 -31 -30 -51q-72 -57 -175 -57t-171 66t-68 167q0 100 57 189q-78 -10 -94 -10q-209 0 -330 114t-120 322v555q0 49 29 81q30 32 77 32t79 -34
q32 -32 32 -79v-553q0 -104 65 -167q66 -62 172 -63q152 0 242 56v729q0 47 32 79t77 32t77 -34q32 -32 33 -77z" />
    <glyph glyph-name="Wcircumflex" unicode="&#x174;" horiz-adv-x="1949" 
d="M1288 1634q0 -40 -26 -66t-55 -26q-30 0 -64 21l-166 127l-166 -127q-69 -45 -118 6q-25 27 -25 65t39 68l202 153q33 29 67 29t68 -29l205 -153q39 -29 39 -68zM63 1346q0 32 28 66t73 34t76 -24t39 -58l225 -1163q2 -4 6 -4t6 4l264 1079q18 80 70 122t112 42
q62 0 114 -43t71 -121l264 -1079q2 -6 6 -6t6 6l228 1153q8 44 39 68q32 24 76 24t74 -33t30 -78q0 -12 -4 -28l-271 -1172q-16 -74 -66 -116q-49 -42 -111 -42t-113 42t-70 114l-266 1071q-2 4 -5 4t-6 -4l-266 -1069q-18 -74 -68 -116t-115 -42t-117 42t-68 118l-258 1170
q-3 7 -3 39z" />
    <glyph glyph-name="wcircumflex" unicode="&#x175;" horiz-adv-x="1660" 
d="M1141 1296q0 -40 -26 -66q-25 -26 -55 -26t-65 21l-166 127l-165 -127q-70 -45 -118 6q-26 27 -26 65t39 68l203 154q32 29 66 29t69 -29l205 -154q39 -29 39 -68zM830 825q-10 0 -9 -8l-176 -678q-41 -160 -182 -159q-66 0 -115 38t-69 117l-216 809q-16 60 14 104
t87 44q86 0 108 -91l189 -770q2 -8 10 -8t10 8l176 707q17 74 65 114t110 40t108 -40t66 -114l176 -707q2 -8 10 -8t10 8l189 768q23 93 117 93q48 0 78 -44t13 -104l-217 -807q-41 -158 -185 -158t-183 158l-172 680q-2 8 -12 8z" />
    <glyph glyph-name="Ycircumflex" unicode="&#x176;" horiz-adv-x="1337" 
d="M981 1634q0 -40 -26 -66q-25 -26 -55 -26t-64 21l-166 127l-166 -127q-70 -45 -118 6q-26 27 -26 65t39 68l203 153q32 29 66 29t69 -29l205 -153q39 -29 39 -68zM1193 1446q50 0 83 -35t33 -78t-27 -71l-448 -547q-4 -7 -14 -17t-12 -15t-16 -23t-14 -62v-494
q0 -48 -32 -80t-78 -32t-78 34q-33 34 -33 78v494q0 14 -3 26t-5 25q-2 12 -19 31q-18 18 -30 37l-445 545q-27 32 -27 74t33 76t82 34t84 -41l441 -553l442 551q33 43 83 43z" />
    <glyph glyph-name="ycircumflex" unicode="&#x177;" horiz-adv-x="1073" 
d="M856 1298q0 -40 -26 -66t-56 -26t-63 21l-166 127l-166 -127q-69 -45 -118 6q-25 27 -25 65t38 68l203 154q33 29 67 29t68 -29l205 -154q39 -29 39 -68zM547 340q6 0 8 6l254 658q31 86 101 86t104 -50q33 -50 8 -108l-385 -916q-57 -139 -134 -240q-135 -177 -237 -175
q-42 1 -72 29t-30 79t45 82q139 86 215 283l-373 858q-25 59 9 108t90 50q82 0 110 -82l277 -662q4 -6 10 -6z" />
    <glyph glyph-name="Ydieresis" unicode="&#x178;" horiz-adv-x="1337" 
d="M729 1563q0 47 33 79t79 31q46 0 78 -32q31 -33 31 -79t-32 -79t-78 -33q-47 0 -79 33t-32 80zM385 1563q0 47 32 79t78 31q47 0 79 -32q32 -33 32 -79t-32 -79t-78 -33t-79 33q-32 33 -32 80zM1193 1446q50 0 83 -35t33 -78t-27 -71l-448 -547q-4 -7 -14 -17t-12 -15
t-16 -23t-14 -62v-494q0 -48 -32 -80t-78 -32t-78 34q-33 34 -33 78v494q0 14 -3 26t-5 25q-2 12 -19 31q-18 18 -30 37l-445 545q-27 32 -27 74t33 76t82 34t84 -41l441 -553l442 551q33 43 83 43z" />
    <glyph glyph-name="Zacute" unicode="&#x179;" horiz-adv-x="1206" 
d="M486 1540q-26 0 -51 27t-25 69t51 70l276 143q20 13 50 13t56 -27q25 -27 25 -69t-49 -70l-278 -144q-29 -12 -55 -12zM1026 0h-760q-82 0 -129 44t-47 110t49 129l699 940h-627q-47 -1 -80 31t-33 78t33 77t80 31h717q80 0 126 -44t46 -106t-58 -141l-690 -932h674
q47 0 80 -32q33 -33 33 -77t-33 -76t-80 -32z" />
    <glyph glyph-name="zacute" unicode="&#x17a;" horiz-adv-x="999" 
d="M805 1430q0 -42 -49 -70l-279 -143q-29 -13 -55 -13t-50 27q-26 27 -26 69t51 70l277 143q62 32 106 -14q26 -27 25 -69zM815 201q45 0 77 -29t32 -72q0 -44 -32 -72t-77 -28h-584q-69 0 -113 39t-44 98t43 113l555 618h-463q-45 0 -76 28t-31 71t32 71t75 29h561
q123 0 148 -111q17 -77 -46 -151l-542 -604h485z" />
    <glyph glyph-name="Zdotaccent" unicode="&#x17b;" horiz-adv-x="1206" 
d="M598 1778q45 0 78 -33t33 -79t-32 -79t-79 -33t-79 33t-32 79t33 79t78 33zM1026 0h-760q-82 0 -129 44t-47 110t49 129l699 940h-627q-47 -1 -80 31t-33 78t33 77t80 31h717q80 0 126 -44t46 -106t-58 -141l-690 -932h674q47 0 80 -32q33 -33 33 -77t-33 -76t-80 -32z
" />
    <glyph glyph-name="zdotaccent" unicode="&#x17c;" horiz-adv-x="999" 
d="M500 1444q45 0 78 -32q32 -32 32 -79t-32 -80t-78 -33q-47 0 -79 34q-32 32 -32 79t33 79t78 32zM815 201q45 0 77 -29t32 -72q0 -44 -32 -72t-77 -28h-584q-69 0 -113 39t-44 98t43 113l555 618h-463q-45 0 -76 28t-31 71t32 71t75 29h561q123 0 148 -111
q17 -77 -46 -151l-542 -604h485z" />
    <glyph glyph-name="Zcaron" unicode="&#x17d;" horiz-adv-x="1206" 
d="M613 1542q-34 0 -66 29l-203 153q-39 27 -39 67t26 67q52 54 118 4l165 -125l166 125q70 48 120 -4q26 -27 26 -67t-39 -67l-205 -153q-35 -29 -69 -29zM1026 0h-760q-82 0 -129 44t-47 110t49 129l699 940h-627q-47 -1 -80 31t-33 78t33 77t80 31h717q80 0 126 -44
t46 -106t-58 -141l-690 -932h674q47 0 80 -32q33 -33 33 -77t-33 -76t-80 -32z" />
    <glyph glyph-name="zcaron" unicode="&#x17e;" horiz-adv-x="999" 
d="M492 1206q-34 0 -66 29l-203 154q-39 27 -39 67t26 66q52 54 118 4l166 -125l165 125q70 48 120 -4q26 -26 26 -66t-39 -67l-205 -154q-35 -29 -69 -29zM815 201q45 0 77 -29t32 -72q0 -44 -32 -72t-77 -28h-584q-69 0 -113 39t-44 98t43 113l555 618h-463q-45 0 -76 28
t-31 71t32 71t75 29h561q123 0 148 -111q17 -77 -46 -151l-542 -604h485z" />
    <glyph glyph-name="florin" unicode="&#x192;" horiz-adv-x="1202" 
d="M856 815q45 0 77 -29q32 -28 32 -72t-32 -74t-77 -30h-326l-288 -946q-14 -46 -54 -68t-84 -9q-42 13 -66 55t-7 92l268 876h-74q-45 0 -77 30t-32 74t32 72q30 28 77 29h137l119 383q39 125 131 190t215 64q209 0 330 -125q31 -33 30 -79t-30 -74q-67 -68 -143 0
t-157 67q-81 0 -117 -29t-54 -90l-94 -307h264z" />
    <glyph glyph-name="Scommaaccent" unicode="&#x218;" horiz-adv-x="1284" 
d="M526 -514q0 24 28 86t28 115v96q0 39 22 65t62 25q38 0 62 -26t24 -64v-90q-1 -117 -58 -221q-35 -56 -78 -56q-42 0 -66 23t-24 47zM1198 404q0 -184 -144 -306t-414 -121q-270 0 -474 150q-57 41 -57 93t32 84q33 32 76 32t84 -31q164 -117 371 -117q143 0 224 60
t81 154t-78 139t-270 84q-256 49 -372 145t-116 278q-1 182 141 298t365 114q287 0 426 -119q35 -33 35 -81t-29 -78t-67 -29q-38 0 -86 25q-132 74 -278 74t-216 -60q-70 -58 -70 -146t71 -134t255 -81q274 -51 392 -147t118 -280z" />
    <glyph glyph-name="scommaaccent" unicode="&#x219;" horiz-adv-x="1013" 
d="M397 -514q0 24 28 86t28 115v96q1 39 23 65t61 25q39 0 63 -26t23 -64v-90q-1 -117 -58 -221q-35 -56 -78 -56t-67 23t-23 47zM934 317q0 -153 -116 -245t-296 -92q-236 0 -377 116q-31 27 -36 68q-6 41 16 72q55 76 143 20q111 -80 264 -80q90 0 140 37q49 37 49 90
t-33 82t-142 55t-114 27q-297 74 -297 307q0 152 114 241q115 89 299 89t300 -96q33 -27 33 -71t-23 -69q-51 -61 -141 -14q-88 51 -189 51q-184 0 -184 -127q0 -42 32 -68t109 -46l160 -37q289 -72 289 -310z" />
    <glyph glyph-name="circumflex" unicode="&#x2c6;" horiz-adv-x="782" 
d="M619 1538q-30 0 -64 21l-166 127l-166 -127q-69 -45 -118 6q-25 27 -25 65t39 68l203 153q32 29 66 29t69 -29l205 -153q38 -29 38 -68q0 -40 -26 -66t-55 -26z" />
    <glyph glyph-name="caron" unicode="&#x2c7;" horiz-adv-x="782" 
d="M388 1538q-34 0 -66 29l-203 153q-39 27 -39 67q0 41 26 67t57 26q32 0 60 -22l166 -125l166 125q69 48 120 -5q26 -27 26 -67t-39 -66l-205 -153q-35 -29 -69 -29z" />
    <glyph glyph-name="breve" unicode="&#x2d8;" horiz-adv-x="782" 
d="M391 1710q84 0 113 90q16 61 82 62q36 0 60 -26t24 -50t-6 -43q-29 -84 -102 -139q-73 -56 -171 -56t-171 56t-101 139q-6 18 -6 43q1 24 25 50t59 26q66 0 82 -62q28 -90 112 -90z" />
    <glyph glyph-name="dotaccent" unicode="&#x2d9;" horiz-adv-x="782" 
d="M391 1778q47 0 79 -33t32 -79t-32 -79t-79 -33t-79 33t-32 79t32 79t79 33z" />
    <glyph glyph-name="ring" unicode="&#x2da;" horiz-adv-x="784" 
d="M401 1831q-35 1 -59 -25t-25 -62q0 -36 25 -62q26 -26 60 -26t60 26t26 62t-26 62t-61 25zM614 1745q0 -87 -62 -149t-150 -62t-150 62t-62 148q0 87 62 148q62 62 150 62t150 -60t62 -149z" />
    <glyph glyph-name="ogonek" unicode="&#x2db;" horiz-adv-x="782" 
d="M348 -184q0 -45 28 -70t66 -25q38 -1 69 19t59 16t46 -26q18 -27 12 -58t-30 -51q-78 -57 -177 -57t-168 68t-69 171q0 193 262 316q18 10 44 10q26 1 48 -21t22 -58t-44 -56q-168 -76 -168 -178z" />
    <glyph glyph-name="tilde" unicode="&#x2dc;" horiz-adv-x="782" 
d="M509 1706q31 0 67 30q72 59 120 4q23 -26 23 -59t-35 -67q-84 -78 -164 -78q-51 0 -131 37q-81 37 -109 37t-66 -29t-68 -29t-54 26q-53 59 12 126q88 78 154 78t144 -38q77 -38 107 -38z" />
    <glyph glyph-name="hungarumlaut" unicode="&#x2dd;" horiz-adv-x="782" 
d="M464 1540q-34 0 -62 26t-28 64t27 62l201 200q27 27 63 27q35 0 63 -26q28 -27 28 -63t-25 -61l-203 -200q-30 -29 -64 -29zM124 1540q-34 0 -62 26t-28 64t25 62l203 200q20 27 60 27t66 -26q28 -27 28 -63t-27 -61l-201 -200q-30 -29 -64 -29z" />
    <glyph glyph-name="Wgrave" unicode="&#x1e80;" horiz-adv-x="1949" 
d="M1143 1636q0 -44 -26 -70t-51 -26t-54 12l-277 144q-51 25 -51 69q0 45 26 71t56 26t49 -13l279 -143q49 -27 49 -70zM63 1346q0 32 28 66t73 34t76 -24t39 -58l225 -1163q2 -4 6 -4t6 4l264 1079q18 80 70 122t112 42q62 0 114 -43t71 -121l264 -1079q2 -6 6 -6t6 6
l228 1153q8 44 39 68q32 24 76 24t74 -33t30 -78q0 -12 -4 -28l-271 -1172q-16 -74 -66 -116q-49 -42 -111 -42t-113 42t-70 114l-266 1071q-2 4 -5 4t-6 -4l-266 -1069q-18 -74 -68 -116t-115 -42t-117 42t-68 118l-258 1170q-3 7 -3 39z" />
    <glyph glyph-name="wgrave" unicode="&#x1e81;" horiz-adv-x="1660" 
d="M999 1302q1 -44 -25 -70t-52 -26t-54 13l-276 143q-51 27 -51 70q-1 44 25 70t57 26t49 -12l278 -144q49 -27 49 -70zM830 825q-10 0 -9 -8l-176 -678q-41 -160 -182 -159q-66 0 -115 38t-69 117l-216 809q-16 60 14 104t87 44q86 0 108 -91l189 -770q2 -8 10 -8t10 8
l176 707q17 74 65 114t110 40t108 -40t66 -114l176 -707q2 -8 10 -8t10 8l189 768q23 93 117 93q48 0 78 -44t13 -104l-217 -807q-41 -158 -185 -158t-183 158l-172 680q-2 8 -12 8z" />
    <glyph glyph-name="Wacute" unicode="&#x1e82;" horiz-adv-x="1949" 
d="M868 1540q-26 0 -52 27t-26 69t52 70l276 143q20 13 50 13t56 -27t26 -69t-50 -70l-278 -144q-28 -12 -54 -12zM63 1346q0 32 28 66t73 34t76 -24t39 -58l225 -1163q2 -4 6 -4t6 4l264 1079q18 80 70 122t112 42q62 0 114 -43t71 -121l264 -1079q2 -6 6 -6t6 6l228 1153
q8 44 39 68q32 24 76 24t74 -33t30 -78q0 -12 -4 -28l-271 -1172q-16 -74 -66 -116q-49 -42 -111 -42t-113 42t-70 114l-266 1071q-2 4 -5 4t-6 -4l-266 -1069q-18 -74 -68 -116t-115 -42t-117 42t-68 118l-258 1170q-3 7 -3 39z" />
    <glyph glyph-name="wacute" unicode="&#x1e83;" horiz-adv-x="1660" 
d="M1000 1528q30 0 56 -27t26 -69t-50 -70l-278 -143q-28 -13 -54 -13t-52 27t-26 71t52 68l276 144q20 12 50 12zM830 825q-10 0 -9 -8l-176 -678q-41 -160 -182 -159q-66 0 -115 38t-69 117l-216 809q-16 60 14 104t87 44q86 0 108 -91l189 -770q2 -8 10 -8t10 8l176 707
q17 74 65 114t110 40t108 -40t66 -114l176 -707q2 -8 10 -8t10 8l189 768q23 93 117 93q48 0 78 -44t13 -104l-217 -807q-41 -158 -185 -158t-183 158l-172 680q-2 8 -12 8z" />
    <glyph glyph-name="Wdieresis" unicode="&#x1e84;" horiz-adv-x="1949" 
d="M1148 1776q46 0 78 -32t32 -79t-32 -80t-79 -33t-79 33t-32 80t33 79t79 32zM802 1776q46 0 79 -32t33 -79t-32 -80t-79 -33t-79 33t-32 80t32 79t78 32zM63 1346q0 32 28 66t73 34t76 -24t39 -58l225 -1163q2 -4 6 -4t6 4l264 1079q18 80 70 122t112 42q62 0 114 -43
t71 -121l264 -1079q2 -6 6 -6t6 6l228 1153q8 44 39 68q32 24 76 24t74 -33t30 -78q0 -12 -4 -28l-271 -1172q-16 -74 -66 -116q-49 -42 -111 -42t-113 42t-70 114l-266 1071q-2 4 -5 4t-6 -4l-266 -1069q-18 -74 -68 -116t-115 -42t-117 42t-68 118l-258 1170q-3 7 -3 39z
" />
    <glyph glyph-name="wdieresis" unicode="&#x1e85;" horiz-adv-x="1660" 
d="M1001 1446q47 0 79 -32t32 -79t-32 -80t-79 -33t-79 34q-32 32 -31 78q-1 46 31 79t79 33zM657 1446q47 0 79 -33t32 -79t-32 -79t-79 -33t-79 34q-32 32 -31 79q-1 47 31 79t79 32zM830 825q-10 0 -9 -8l-176 -678q-41 -160 -182 -159q-66 0 -115 38t-69 117l-216 809
q-16 60 14 104t87 44q86 0 108 -91l189 -770q2 -8 10 -8t10 8l176 707q17 74 65 114t110 40t108 -40t66 -114l176 -707q2 -8 10 -8t10 8l189 768q23 93 117 93q48 0 78 -44t13 -104l-217 -807q-41 -158 -185 -158t-183 158l-172 680q-2 8 -12 8z" />
    <glyph glyph-name="Ygrave" unicode="&#x1ef2;" horiz-adv-x="1337" 
d="M807 1636q0 -44 -26 -70t-51 -26t-54 12l-277 144q-51 25 -51 69q0 45 26 71t56 26t49 -13l279 -143q49 -27 49 -70zM1193 1446q50 0 83 -35t33 -78t-27 -71l-448 -547q-4 -7 -14 -17t-12 -15t-16 -23t-14 -62v-494q0 -48 -32 -80t-78 -32t-78 34q-33 34 -33 78v494
q0 14 -3 26t-5 25q-2 12 -19 31q-18 18 -30 37l-445 545q-27 32 -27 74t33 76t82 34t84 -41l441 -553l442 551q33 43 83 43z" />
    <glyph glyph-name="ygrave" unicode="&#x1ef3;" horiz-adv-x="1073" 
d="M688 1300q0 -44 -26 -70t-50 -26q-26 0 -55 13l-276 143q-51 25 -51 69q0 45 25 71q27 26 57 26t48 -13l279 -143q49 -27 49 -70zM547 340q6 0 8 6l254 658q31 86 101 86t104 -50q33 -50 8 -108l-385 -916q-57 -139 -134 -240q-135 -177 -237 -175q-42 1 -72 29t-30 79
t45 82q139 86 215 283l-373 858q-25 59 9 108t90 50q82 0 110 -82l277 -662q4 -6 10 -6z" />
    <glyph glyph-name="endash" unicode="&#x2013;" horiz-adv-x="1208" 
d="M102 588q0 45 33 77t78 31h782q47 0 79 -32t32 -76q0 -45 -33 -77t-78 -32h-782q-47 0 -79 32t-32 77z" />
    <glyph glyph-name="emdash" unicode="&#x2014;" horiz-adv-x="1953" 
d="M102 588q0 45 33 77t78 31h1528q47 0 79 -32t32 -76q0 -45 -34 -77q-32 -32 -77 -32h-1528q-47 0 -79 32t-32 77z" />
    <glyph glyph-name="quoteleft" unicode="&#x2018;" horiz-adv-x="456" 
d="M309 1149v-102q1 -41 -29 -71t-72 -30t-72 30t-30 71v94q0 135 60 235q37 63 102 64q39 0 67 -27q27 -27 27 -55t-26 -86t-27 -123z" />
    <glyph glyph-name="quoteright" unicode="&#x2019;" horiz-adv-x="456" 
d="M358 1348v-95q0 -135 -57 -235q-41 -64 -92 -64t-79 27t-28 55t28 86t28 123v103q0 40 28 70t71 30q41 0 71 -30t30 -70z" />
    <glyph glyph-name="quotesinglbase" unicode="&#x201a;" horiz-adv-x="456" 
d="M338 182v-94q0 -135 -59 -235q-37 -63 -103 -64q-38 0 -66 27t-28 55q0 27 27 85t26 124v102q0 41 30 71t72 30q41 0 71 -30t30 -71z" />
    <glyph glyph-name="quotedblleft" unicode="&#x201c;" horiz-adv-x="800" 
d="M438 1047v94q0 135 60 235q37 63 102 64q39 0 67 -27q27 -27 27 -55t-26 -86t-27 -123v-102q0 -41 -30 -71q-29 -30 -71 -30t-72 30t-30 71zM121 1047v94q0 135 57 235q40 64 92 64t80 -27t27 -55q0 -28 -28 -86t-27 -123v-102q0 -41 -29 -71t-71 -30t-72 30t-29 71z" />
    <glyph glyph-name="quotedblright" unicode="&#x201d;" horiz-adv-x="800" 
d="M690 1348v-95q0 -135 -57 -235q-41 -64 -93 -64t-78 27q-28 27 -28 55t28 86t27 123v103q0 40 29 70t71 30q41 0 71 -30t30 -70zM373 1348v-95q0 -135 -60 -235q-37 -63 -102 -64q-39 0 -67 27t-28 55t28 86q26 58 26 123v103q0 40 30 70t72 30t71 -30q30 -30 30 -70z
" />
    <glyph glyph-name="quotedblbase" unicode="&#x201e;" horiz-adv-x="800" 
d="M371 182v-94q0 -139 -58 -235q-37 -63 -90 -63t-80 26q-27 27 -27 55q0 27 28 85q26 58 26 124v102q0 41 30 71t72 30t70 -30q29 -30 29 -71zM690 182v-94q0 -135 -57 -235q-41 -63 -93 -63t-78 26q-28 27 -28 55q0 27 28 85t27 124v102q0 41 29 71t71 30q41 0 71 -30
t30 -71z" />
    <glyph glyph-name="dagger" unicode="&#x2020;" horiz-adv-x="1097" 
d="M657 1028h275q45 0 78 -32q32 -32 32 -76t-32 -77q-32 -32 -78 -32h-275v-987q1 -47 -31 -79t-77 -32t-77 33t-32 78v987h-274q-47 0 -80 32t-33 77q0 44 33 76t80 32h274v313q0 45 32 78t77 33t77 -33t31 -78v-313z" />
    <glyph glyph-name="daggerdbl" unicode="&#x2021;" horiz-adv-x="1097" 
d="M657 1028h275q45 0 78 -32q32 -32 32 -76t-32 -77q-32 -32 -78 -32h-275v-457h275q45 0 78 -32q32 -32 32 -76q0 -45 -32 -77t-78 -32h-275v-313q1 -47 -31 -79t-77 -32t-77 32t-32 79v313h-274q-47 0 -80 32t-33 77t33 77t80 31h274v457h-274q-47 0 -80 32t-33 77
q0 44 33 76t80 32h274v313q0 45 32 78t77 33t77 -33t31 -78v-313z" />
    <glyph glyph-name="bullet" unicode="&#x2022;" horiz-adv-x="966" 
d="M225 717q0 106 76 182t182 76q107 0 183 -76t76 -182t-76 -182t-182 -76t-183 76q-76 76 -76 182z" />
    <glyph glyph-name="ellipsis" unicode="&#x2026;" horiz-adv-x="1357" 
d="M123 195q1 45 29 75t72 31q44 0 75 -31t31 -75v-109q0 -45 -30 -75q-30 -29 -73 -29t-73 30t-31 74v109zM578 195q0 45 28 75t73 31q44 0 75 -31t30 -75v-109q0 -45 -30 -75q-30 -29 -72 -29q-43 0 -74 30t-30 74v109zM1028 195q0 45 28 75t73 31q44 0 75 -31t31 -75
v-109q0 -45 -30 -75q-30 -29 -73 -29q-44 0 -74 30t-30 74v109z" />
    <glyph glyph-name="perthousand" unicode="&#x2030;" horiz-adv-x="2359" 
d="M1232 530q-58 0 -96 -40t-43 -93t0 -107t43 -93t96 -39t96 39t43 91t0 107t-43 95t-96 40zM1959 530q-58 0 -96 -40t-43 -93t-1 -107t43 -93t97 -39t96 39t42 91t0 107t-42 95t-96 40zM390 1276q-58 0 -96 -39t-43 -93t-1 -108t43 -94q39 -39 97 -39t96 39t42 92
q4 52 0 108t-42 95t-96 39zM354 342l781 893q25 31 67 33t72 -23q29 -25 31 -67t-23 -70l-780 -893q-25 -31 -67 -35q-43 -4 -71 22t-32 70t22 70zM390 1452q130 0 220 -90t97 -219q2 -53 0 -107q-9 -131 -99 -220t-219 -89t-220 89t-97 220q-2 55 0 107q4 129 96 219
t222 90zM1959 707q130 -1 220 -91t96 -221q2 -53 0 -104q-8 -131 -98 -221t-219 -90t-220 90t-98 219q-2 55 0 106q4 129 96 221t223 91zM1232 707q130 -1 220 -91t96 -221q2 -53 0 -104q-8 -131 -97 -221t-219 -90t-221 90t-98 219q-2 55 0 106q5 129 97 221t222 91z" />
    <glyph glyph-name="guilsinglleft" unicode="&#x2039;" horiz-adv-x="733" 
d="M90 726q0 93 94 167l250 190q35 27 75 24q41 -3 67 -36t23 -75t-36 -66l-231 -176q-37 -29 0 -58l231 -176q33 -24 36 -66t-24 -75t-67 -36t-74 24l-250 192q-94 74 -94 167z" />
    <glyph glyph-name="guilsinglright" unicode="&#x203a;" horiz-adv-x="733" 
d="M643 726q0 -93 -94 -167l-250 -192q-35 -27 -75 -24t-66 36t-24 75q3 42 36 66l231 176q37 29 0 58l-231 176q-33 24 -36 66t24 75q26 33 66 36t75 -24l250 -190q94 -74 94 -167z" />
    <glyph glyph-name="fraction" unicode="&#x2044;" horiz-adv-x="614" 
d="M-61 70l542 1366q19 43 59 57t76 -2q38 -14 52 -51t-2 -78l-543 -1366q-16 -37 -51 -53t-75 -2t-56 53t-2 76z" />
    <glyph glyph-name="Euro" unicode="&#x20ac;" horiz-adv-x="1329" 
d="M184 952h86q27 228 166 368t365 140q266 0 424 -164q33 -36 33 -78t-32 -73q-30 -31 -72 -31t-91 45q-95 92 -245 92t-229 -81t-97 -218h323q43 0 72 -28t29 -68q0 -41 -30 -68t-71 -26h-336v-88h336q41 0 71 -28t30 -68t-30 -67q-30 -28 -71 -28h-323q16 -137 96 -216
t213 -79q94 0 150 18t112 68q47 48 90 48t74 -32q66 -68 -2 -151q-147 -160 -424 -159q-227 0 -364 137q-136 137 -167 366h-86q-42 0 -70 28t-28 68q0 39 29 67t69 28h78v88h-78q-42 0 -70 26t-28 68q0 40 28 68t70 28z" />
    <glyph glyph-name="trademark" unicode="&#x2122;" horiz-adv-x="1355" 
d="M727 1419q76 0 96 -76l78 -321l82 324q8 33 34 53t58 20q80 0 94 -86l64 -387q10 -63 -41 -76q-29 -8 -49 8t-25 44l-51 348l-84 -324q-15 -74 -79 -74t-83 74l-84 324l-51 -348q-4 -27 -24 -42t-50 -10q-53 10 -41 76l64 387q16 86 92 86zM399 1298v-368q0 -25 -17 -41
q-17 -17 -43 -17t-42 16t-16 42v368h-123q-23 0 -40 16q-18 16 -18 42q0 25 18 41t40 16h362q25 0 41 -16q17 -16 17 -41t-18 -41t-40 -17h-121z" />
    <glyph glyph-name="minus" unicode="&#x2212;" horiz-adv-x="1286" 
d="M1057 612h-828q-45 0 -75 31t-31 75q0 44 31 74t75 29h828q45 1 76 -29t31 -74t-32 -75t-75 -31z" />
    <glyph glyph-name="lessequal" unicode="&#x2264;" horiz-adv-x="1286" 
d="M481 795q0 -16 25 -31l495 -281q35 -23 47 -65t-12 -80q-20 -39 -61 -49t-80 12l-553 320q-113 67 -113 175t113 171l553 319q39 22 79 12t62 -48q23 -38 12 -81t-47 -63l-495 -281q-25 -14 -25 -30zM952 -12h-618q-45 0 -76 30t-31 75q0 44 31 74t76 30h618q45 0 76 -30
t31 -74q0 -45 -32 -75t-75 -30z" />
    <glyph glyph-name="greaterequal" unicode="&#x2265;" horiz-adv-x="1286" 
d="M1055 795q0 -109 -111 -174l-553 -320q-39 -23 -80 -13t-63 49q-22 38 -11 82t48 64l495 281q25 14 25 30t-25 31l-495 281q-37 20 -48 63q-12 43 11 81q24 38 64 48t79 -12l553 -319q111 -63 111 -172zM952 -12h-618q-43 0 -75 30t-32 75q0 44 31 74t76 30h618
q45 0 76 -30t31 -74q0 -45 -31 -75t-76 -30z" />
    <glyph glyph-name="fl" unicode="&#xfb02;" horiz-adv-x="1415" 
d="M1139 1460q45 0 77 -33t31 -77v-1248q-1 -46 -31 -78t-75 -32t-78 33t-33 77v1248q0 46 32 78t77 32zM752 1257l-172 19q-139 0 -140 -162v-65h262q43 0 73 -28t30 -69q0 -40 -30 -68t-73 -28h-262v-752q0 -48 -32 -80t-76 -32q-45 0 -77 33t-32 79v752h-61q-41 0 -71 28
t-30 68t29 69q29 28 72 28h61v75q0 168 90 261t252 94q115 0 196 -24t81 -101q0 -39 -28 -68t-62 -29z" />
    <glyph glyph-name="Q.alt" horiz-adv-x="1503" 
d="M752 543q44 0 76 -33t32 -78v-229q121 33 200 133t91 242t-1 299t-125 266q-113 109 -275 109t-272 -110q-110 -108 -123 -264t-2 -300t89 -244t201 -133v231q0 47 32 79t77 32zM860 -225q0 -47 -31 -79t-75 -32t-78 33q-33 33 -33 78v211q-213 34 -353 192t-157 377
q-12 166 0 328q19 245 193 411t424 166t426 -167t194 -410q12 -164 0 -328q-16 -217 -158 -375t-352 -192v-213z" />
    <glyph glyph-name="r.alt" horiz-adv-x="786" 
d="M156 918q0 82 174 151q88 35 178 35t173 -22t83 -103q0 -39 -28 -71t-81 -31q-18 0 -60 9t-71 9q-96 0 -153 -43v-746q0 -46 -31 -78t-76 -32t-77 33t-31 77v812z" />
    <glyph glyph-name="zero.onum" horiz-adv-x="1290" 
d="M645 903q-133 0 -219 -74q-129 -111 -100 -368q14 -135 100 -210t219 -75t219 75q128 111 101 367q-15 137 -101 211t-219 74zM645 1106q209 0 353 -119t173 -321q20 -123 0 -260q-29 -197 -173 -315t-354 -118t-353 119t-172 322q-20 125 0 262q29 198 173 314t353 116z
" />
    <glyph glyph-name="one.onum" horiz-adv-x="989" 
d="M612 1092q39 0 70 -35t31 -78v-877q0 -46 -32 -78t-77 -32t-77 33t-31 77v729l-244 -100q-45 -18 -86 -4t-60 55q-18 41 -1 84t65 62l373 151q30 13 69 13z" />
    <glyph glyph-name="two.onum" horiz-adv-x="1222" 
d="M614 903q-194 0 -303 -112q-43 -43 -89 -43t-72 26t-27 72q0 47 55 102q164 152 406 152t358 -96q117 -96 117 -234t-89 -218q-88 -80 -284 -146t-271 -104t-75 -91h637q43 0 75 -32t32 -75q0 -44 -32 -74q-30 -30 -75 -30h-719q-66 0 -106 40t-39 114q-2 135 92 229
t274 162q252 90 303 125q52 35 52 94t-56 99q-58 40 -164 40z" />
    <glyph glyph-name="three.onum" horiz-adv-x="1226" 
d="M1065 160q0 -264 -243 -406t-632 -127q-46 2 -76 31t-33 75t33 80t91 29q281 -18 462 65t181 249q0 96 -65 152t-173 57q-41 1 -94 -11q-52 -12 -80 -12t-59 29t-31 73t37 78l317 328h-510q-46 0 -78 32t-32 76t32 77q32 32 78 32h648q63 0 107 -38q44 -39 44 -97
t-39 -101l-282 -292q174 -1 286 -107t111 -272z" />
    <glyph glyph-name="four.onum" horiz-adv-x="1370" 
d="M819 217v582l-430 -582h430zM1208 0h-172v-295q0 -45 -32 -78t-76 -33q-45 0 -77 32t-32 79v295h-510q-82 0 -128 54t-38 114t41 104l502 670q98 131 191 131q160 0 159 -227v-629h172q45 0 76 -32q31 -31 31 -75t-32 -77t-75 -33z" />
    <glyph glyph-name="five.onum" horiz-adv-x="1257" 
d="M1135 164q0 -272 -239 -420t-640 -147q-47 1 -79 29t-34 77t30 79t81 30q311 0 488 85t178 259q0 94 -70 153q-153 129 -494 -24q-80 -31 -127 3t-47 99v520q0 82 47 121t117 39h600q47 0 78 -30q31 -31 31 -75t-33 -76t-76 -32h-555v-356q152 74 303 73q203 -1 322 -115
t119 -292z" />
    <glyph glyph-name="six.onum" horiz-adv-x="1382" 
d="M1024 471q0 125 -81 191t-235 65q-154 0 -327 -90q-8 -219 79 -334t248 -115q160 0 238 79t78 204zM1036 1233q-8 0 -74 9t-133 9q-165 0 -287 -106t-147 -295q168 80 353 80q229 0 362 -124t133 -333t-139 -351t-393 -142q-320 0 -447 223q-120 208 -98 545
q18 342 194 527t486 185q109 0 207 -20q92 -20 92 -105q0 -45 -29 -73t-80 -29z" />
    <glyph glyph-name="seven.onum" horiz-adv-x="1095" 
d="M172 1067h737q66 0 107 -38t41 -89t-29 -100q-268 -430 -389 -670t-180 -487q-15 -61 -69 -79t-91 7q-70 39 -43 137q61 229 184 477t355 633h-623q-47 0 -79 30t-32 76t32 74t79 29z" />
    <glyph glyph-name="eight.onum" horiz-adv-x="1409" 
d="M705 -18q-266 0 -410 113q-143 114 -143 302q0 133 64 223q65 89 177 130q-209 74 -209 313q0 185 136 287t382 102t383 -102t138 -281q0 -225 -205 -317q114 -41 178 -131t64 -224q0 -187 -144 -301t-411 -114zM698 643q-162 0 -244 -63q-82 -64 -83 -168
q0 -104 82 -166q83 -62 251 -64q168 0 253 64t85 166t-91 166t-253 65zM705 1257q-152 0 -228 -54t-76 -149q0 -94 81 -150q80 -56 222 -56t222 56t80 152t-74 148q-74 53 -227 53z" />
    <glyph glyph-name="nine.onum" horiz-adv-x="1374" 
d="M683 924q-169 0 -247 -75t-78 -203t77 -196t218 -69q141 0 239 42q38 15 101 46q6 233 -67 344q-74 111 -243 111zM338 -113q336 0 469 89q57 38 103 108t65 166q-170 -74 -334 -74q-233 0 -367 127q-133 127 -133 341q-1 214 139 353t390 140q571 0 540 -727
q-16 -400 -224 -570t-642 -170q-51 0 -84 29t-33 75t30 80t81 33z" />
    <glyph glyph-name="sterling.alt" horiz-adv-x="1200" 
d="M211 784h127q16 68 37 174q51 258 163 376t283 118t258 -82q59 -51 19 -125q-49 -82 -146 -35q-61 29 -140 29t-133 -67t-89 -240l-33 -148h289q45 0 77 -28q31 -28 31 -74q0 -45 -32 -73t-76 -27h-342q-51 -190 -111 -320q-2 -4 -4 -10t-4 -10t-2 -9q0 -16 25 -16h608
q43 0 76 -33q32 -33 32 -78q0 -46 -32 -76t-78 -30h-647q-90 0 -151 49q-60 49 -60 114t21 117t53 124q32 71 59 178h-78q-47 0 -79 28t-32 73t32 73t79 28z" />
    <glyph glyph-name="commaaccent" horiz-adv-x="782" 
d="M366 -518q-42 0 -66 22t-24 48q0 24 28 86t28 114v96q0 39 22 65q23 26 62 26q38 0 62 -26t24 -65v-90q-1 -117 -58 -221q-35 -55 -78 -55z" />
    <glyph glyph-name="caronSlovak" horiz-adv-x="782" 
d="M268 1205q0 27 29 85t29 113v55q0 43 25 71q26 27 69 27q42 0 68 -28t26 -70v-47q0 -117 -61 -221q-35 -62 -85 -62t-74 25q-26 25 -26 52z" />
    <glyph glyph-name="g.alt" horiz-adv-x="1150" 
d="M524 514q102 0 165 56t63 144t-60 142q-60 55 -166 55q-104 0 -168 -55t-63 -142q0 -87 63 -144q64 -56 166 -56zM57 -115q0 37 28 63t70 25q42 0 57 -12l32 -24t22 -19q154 -121 314 -121q106 0 179 38t73 82q-1 103 -189 101h-178q-121 0 -209 56t-88 151q0 94 106 164
q-84 51 -134 135t-50 189q0 165 118 277t308 112q115 0 244 -62h241q51 0 84 -26t33 -70q0 -43 -26 -72t-78 -28h-90q35 -53 34 -135q0 -147 -105 -256t-290 -109h-37q-131 0 -131 -57t137 -58h156q164 0 263 -81t99 -220t-122 -236q-123 -98 -340 -98t-374 96t-157 195z
" />
    <glyph glyph-name="gbreve.alt" horiz-adv-x="1150" 
d="M520 1368q84 0 113 90q16 61 82 62q35 0 59 -26t25 -50q0 -24 -6 -43q-29 -84 -102 -139q-73 -56 -171 -56t-171 56t-101 139q-6 18 -6 43q0 24 24 50t60 26q66 0 82 -62q28 -90 112 -90zM524 514q102 0 165 56t63 144t-60 142q-60 55 -166 55q-104 0 -168 -55t-63 -142
q0 -87 63 -144q64 -56 166 -56zM57 -115q0 37 28 63t70 25q42 0 57 -12l32 -24t22 -19q154 -121 314 -121q106 0 179 38t73 82q-1 103 -189 101h-178q-121 0 -209 56t-88 151q0 94 106 164q-84 51 -134 135t-50 189q0 165 118 277t308 112q115 0 244 -62h241q51 0 84 -26
t33 -70q0 -43 -26 -72t-78 -28h-90q35 -53 34 -135q0 -147 -105 -256t-290 -109h-37q-131 0 -131 -57t137 -58h156q164 0 263 -81t99 -220t-122 -236q-123 -98 -340 -98t-374 96t-157 195z" />
    <glyph glyph-name="gdotaccent.alt" horiz-adv-x="1150" 
d="M522 1446q47 0 79 -33t32 -79t-32 -79t-79 -33t-79 34q-31 32 -31 78t31 79q32 33 79 33zM524 514q102 0 165 56t63 144t-60 142q-60 55 -166 55q-104 0 -168 -55t-63 -142q0 -87 63 -144q64 -56 166 -56zM57 -115q0 37 28 63t70 25q42 0 57 -12l32 -24t22 -19
q154 -121 314 -121q106 0 179 38t73 82q-1 103 -189 101h-178q-121 0 -209 56t-88 151q0 94 106 164q-84 51 -134 135t-50 189q0 165 118 277t308 112q115 0 244 -62h241q51 0 84 -26t33 -70q0 -43 -26 -72t-78 -28h-90q35 -53 34 -135q0 -147 -105 -256t-290 -109h-37
q-131 0 -131 -57t137 -58h156q164 0 263 -81t99 -220t-122 -236q-123 -98 -340 -98t-374 96t-157 195z" />
    <glyph glyph-name="gcommaaccent.alt" horiz-adv-x="1150" 
d="M485 1188q-43 0 -67 22t-23 48q0 24 28 85t28 115v96q0 39 22 65q23 26 62 26t63 -26t23 -65v-90q-1 -117 -58 -221q-35 -55 -78 -55zM524 514q102 0 165 56t63 144t-60 142q-60 55 -166 55q-104 0 -168 -55t-63 -142q0 -87 63 -144q64 -56 166 -56zM57 -115q0 37 28 63
t70 25q42 0 57 -12l32 -24t22 -19q154 -121 314 -121q106 0 179 38t73 82q-1 103 -189 101h-178q-121 0 -209 56t-88 151q0 94 106 164q-84 51 -134 135t-50 189q0 165 118 277t308 112q115 0 244 -62h241q51 0 84 -26t33 -70q0 -43 -26 -72t-78 -28h-90q35 -53 34 -135
q0 -147 -105 -256t-290 -109h-37q-131 0 -131 -57t137 -58h156q164 0 263 -81t99 -220t-122 -236q-123 -98 -340 -98t-374 96t-157 195z" />
    <glyph glyph-name="ampersand.alt" horiz-adv-x="1441" 
d="M399 1051q0 -121 166 -211q180 35 244 80q63 45 63 129t-59 137t-176 53t-177 -53t-61 -135zM1153 666h154q47 0 79 -32t33 -77q0 -45 -33 -77t-77 -31h-117q-23 -219 -175 -344q-153 -123 -395 -123t-385 116q-142 116 -143 297q0 246 260 357q-176 133 -176 308
t126 279q126 105 333 105t332 -104t125 -270q0 -165 -109 -259t-360 -160q-176 -41 -243 -97t-67 -151t84 -155t242 -60t256 86t104 226q10 166 152 166z" />
    <glyph glyph-name="racute.alt" horiz-adv-x="786" 
d="M680 1421q0 -43 -49 -69l-279 -144q-28 -12 -54 -12t-52 27t-25 69q0 42 51 70l277 143q20 13 50 13q29 0 55 -27t26 -70zM156 918q0 82 174 151q88 35 178 35t173 -22t83 -103q0 -39 -28 -71t-81 -31q-18 0 -60 9t-71 9q-96 0 -153 -43v-746q0 -46 -31 -78t-76 -32
t-77 33t-31 77v812z" />
    <glyph glyph-name="rcaron.alt" horiz-adv-x="786" 
d="M133 1422q0 40 26 67q25 27 57 27t60 -23l166 -125l166 125q33 23 64 23q30 0 56 -27t26 -67t-39 -66l-205 -154q-69 -57 -135 0l-203 154q-39 26 -39 66zM156 918q0 82 174 151q88 35 178 35t173 -22t83 -103q0 -39 -28 -71t-81 -31q-18 0 -60 9t-71 9q-96 0 -153 -43
v-746q0 -46 -31 -78t-76 -32t-77 33t-31 77v812z" />
    <glyph glyph-name="rcommaaccent.alt" horiz-adv-x="786" 
d="M381 -174v-72q0 -160 -55 -258q-39 -68 -107 -67q-41 -1 -67 27t-25 57q0 29 24 79t23 117v117q0 41 30 71q30 29 73 29t73 -30t31 -70zM156 918q0 82 174 151q88 35 178 35t173 -22t83 -103q0 -39 -28 -71t-81 -31q-18 0 -60 9t-71 9q-96 0 -153 -43v-746q0 -46 -31 -78
t-76 -32t-77 33t-31 77v812z" />
    </font>
</defs>
</svg>
