<?xml version="1.0" standalone="no"?>
<!DOCTYPE svg PUBLIC "-//W3C//DTD SVG 1.1//EN" "http://www.w3.org/Graphics/SVG/1.1/DTD/svg11.dtd" >
<svg xmlns="http://www.w3.org/2000/svg">
<metadata>
Created by FontPrep 20130207 at Tue Nov  4 15:29:30 2014
 By Mauricio Duran
Copyright (c) 2010 by Miles Newlyn. All rights reserved.
</metadata>
<defs>
<font id="b0fc516c2e171469475ff4de637d44bb" horiz-adv-x='1024' >
  <font-face 
    font-family="Rubrik-Light"
    font-weight="300"
    font-stretch="normal"
    units-per-em="2048"
    panose-1="2 0 5 3 0 0 0 2 0 4"
    ascent="1536"
    descent="-512"
    x-height="1042"
    cap-height="1440"
    bbox="-39.0411 -584 2062 1906"
    underline-thickness="143"
    underline-position="-62"
    unicode-range="U+0020-FB02"
  />
<missing-glyph horiz-adv-x="616" 
 />
    <glyph glyph-name="fi" unicode="fi" horiz-adv-x="1312" 
d="M1038 1065q25 0 43 -17t19 -44v-951q0 -27 -18 -44t-43 -17q-26 0 -42 17t-16 44v951q0 27 16 44t41 17zM1122 1337q0 -35 -24 -59t-60 -25q-36 0 -58 25q-22 26 -22 60t23 58t57 24t60 -24q24 -24 24 -59zM537 1462q217 0 217 -70q0 -60 -58 -63q-12 0 -61 9t-107 10
q-178 0 -178 -213v-97h309q25 0 42 -17t17 -41t-18 -40t-41 -16h-309v-871q0 -27 -16 -44t-42 -17t-43 18t-18 43v871h-79q-27 0 -44 16q-18 16 -18 41t18 41t44 16h79v111q0 141 77 227t229 86z" />
    <glyph glyph-name=".notdef" horiz-adv-x="616" 
 />
    <glyph glyph-name=".null" horiz-adv-x="0" 
 />
    <glyph glyph-name="nonmarkingreturn" horiz-adv-x="681" 
 />
    <glyph glyph-name="space" unicode=" " horiz-adv-x="546" 
 />
    <glyph glyph-name="exclam" unicode="!" horiz-adv-x="419" 
d="M143 47v113q1 27 21 46t47 19t46 -19t19 -46v-113q0 -27 -19 -46t-46 -19t-47 19t-21 46zM211 461q-23 0 -39 17t-16 40l-6 852q0 27 17 44q17 18 43 18t42 -18t18 -44l-6 -852q0 -25 -15 -41t-38 -16z" />
    <glyph glyph-name="quotedbl" unicode="&#x22;" horiz-adv-x="677" 
d="M524 1368v-266q0 -29 -16 -47q-16 -19 -42 -19t-43 20t-17 46v266q0 27 17 45q17 19 43 19t42 -18t16 -46zM272 1368v-266q0 -29 -16 -47q-16 -19 -42 -19t-43 20t-17 46v266q0 27 17 45q17 19 43 19t42 -18t16 -46z" />
    <glyph glyph-name="numbersign" unicode="#" horiz-adv-x="1257" 
d="M565 895l-106 -330h231l107 330h-232zM170 446q-27 0 -45 18q-19 18 -19 43q0 26 18 42t44 16h168l106 330h-133q-27 0 -44 17t-17 43t17 42t44 17h172l131 395q18 41 56 41t51 -27q14 -27 2 -59l-115 -350h230l131 395q12 41 52 41t53 -27t1 -59l-112 -350h129
q27 0 44 -16t17 -43q0 -26 -18 -43t-43 -17h-172l-105 -330h135q27 0 44 -16q18 -16 18 -42t-18 -43t-44 -18h-178l-137 -426q-10 -38 -51 -38t-55 26q-13 27 -1 60l123 378h-231l-137 -426q-13 -38 -53 -38t-54 26t-2 60l123 378h-125z" />
    <glyph glyph-name="dollar" unicode="$" horiz-adv-x="1247" 
d="M1106 398q0 -161 -123 -261t-305 -104v-158q0 -25 -16 -41t-39 -16t-39 17t-17 40v162q-223 20 -381 137q-34 26 -34 54t16 45t41 17t49 -18q162 -122 350 -122t284 62q95 62 95 178t-80 173t-314 107t-332 135q-97 83 -97 235t110 249q111 97 293 108v157q1 25 17 42
q16 18 39 18t39 -18t16 -42v-161q184 -18 295 -107q25 -20 25 -47t-17 -44t-37 -17t-51 18q-135 86 -297 86t-238 -71t-76 -181t80 -159q80 -48 300 -94t332 -132t112 -247z" />
    <glyph glyph-name="percent" unicode="%" horiz-adv-x="1449" 
d="M1067 561q-76 0 -126 -51q-50 -50 -55 -118t-1 -134t54 -116t127 -50t128 50t55 130q4 47 0 117t-55 121t-127 51zM1067 672q121 0 204 -84t89 -205q4 -57 0 -115q-8 -123 -90 -206q-82 -82 -203 -82t-205 82t-90 206q-4 59 0 115q4 121 89 205t206 84zM274 283l830 952
q14 20 39 22t43 -13t19 -40q1 -26 -31 -60t-814 -933q-14 -19 -38 -21t-42 12q-17 14 -19 40q-1 25 13 41zM385 1341q-76 0 -126 -51q-50 -50 -55 -118t-1 -134t54 -115q50 -51 127 -51t128 50t55 131q4 47 0 117t-55 120q-51 51 -127 51zM385 1452q121 0 204 -84t89 -205
q4 -57 0 -114q-8 -123 -90 -206t-203 -83t-205 83t-90 206q-4 59 0 114q4 121 89 205t206 84z" />
    <glyph glyph-name="ampersand" unicode="&#x26;" horiz-adv-x="1394" 
d="M254 362q0 -112 106 -187t294 -75t321 121l-467 426q-135 -43 -195 -108q-59 -65 -59 -177zM632 1317q-156 1 -230 -69q-76 -70 -76 -166t55 -162t164 -146q223 56 312 120t89 176t-79 180q-79 67 -235 67zM1200 684q59 0 60 -63v-23q0 -199 -115 -365l147 -131
q23 -20 25 -47t-14 -47t-43 -20t-48 18l-147 133q-168 -157 -413 -157t-381 110t-136 283q0 246 275 358q-203 164 -203 332t111 269q112 102 315 102t319 -98t117 -251q0 -155 -102 -249t-328 -156l416 -371q88 131 88 291q-2 82 57 82z" />
    <glyph glyph-name="quotesingle" unicode="'" horiz-adv-x="425" 
d="M272 1368v-266q0 -29 -16 -47q-16 -19 -42 -19t-43 20t-17 46v266q0 27 17 45q17 19 43 19t42 -18t16 -46z" />
    <glyph glyph-name="parenleft" unicode="(" horiz-adv-x="710" 
d="M301 633q0 -250 96 -487t283 -406q39 -33 10 -76q-12 -18 -37 -22t-47 14q-205 190 -312 445q-108 255 -108 531t108 532q108 255 312 446q24 18 48 14t36 -22q29 -43 -10 -76q-186 -170 -282 -406t-97 -487z" />
    <glyph glyph-name="parenright" unicode=")" horiz-adv-x="710" 
d="M410 633q0 251 -96 487t-283 406q-16 14 -20 37q-3 23 9 41t37 21t47 -15q205 -190 313 -446q107 -256 107 -531t-108 -531t-312 -446q-24 -18 -48 -15t-36 21t-9 41t20 37q187 170 283 406t96 487z" />
    <glyph glyph-name="asterisk" unicode="*" horiz-adv-x="772" 
d="M387 756q-25 0 -40 16t-15 43l2 184l-164 -98q-18 -14 -44 -9t-38 28q-25 51 23 75l182 97l-180 94q-44 24 -25 76q10 20 34 26t44 -6l168 -100l-2 184q0 27 15 43t40 16t40 -16t15 -43l-2 -184l164 100q18 14 44 8t38 -28q20 -47 -24 -74l-181 -96l176 -95
q57 -31 29 -82q-29 -49 -82 -16l-164 100l2 -184q0 -27 -15 -43t-40 -16z" />
    <glyph glyph-name="plus" unicode="+" horiz-adv-x="1286" 
d="M586 258v399h-393q-27 -1 -45 17t-19 44q0 26 18 42t46 16h393v400q0 27 17 45t43 18t42 -18t17 -45v-400h395q27 0 45 -16t18 -42t-19 -43t-44 -18h-395v-399q-1 -27 -17 -45t-43 -18t-43 18t-16 45z" />
    <glyph glyph-name="comma" unicode="," horiz-adv-x="421" 
d="M279 158v-37q0 -160 -52 -252q-23 -47 -59 -47t-51 19q-17 19 -17 39t22 64t21 115v99q-1 29 19 47t48 18t48 -19t21 -46z" />
    <glyph glyph-name="hyphen" unicode="-" horiz-adv-x="706" 
d="M586 588q0 -27 -18 -43t-44 -17h-342q-27 0 -44 18t-17 43q0 26 17 41t44 15h342q26 0 44 -15t18 -42z" />
    <glyph glyph-name="period" unicode="." horiz-adv-x="530" 
d="M211 231q29 0 48 -20t20 -49v-111q-1 -31 -19 -50t-48 -19t-49 20t-20 49v111q-1 29 19 49t49 20z" />
    <glyph glyph-name="slash" unicode="/" horiz-adv-x="681" 
d="M605 1494q23 9 45 1t31 -31t-1 -45l-571 -1448q-8 -20 -31 -30t-43 -2q-51 20 -33 75l571 1448q8 23 32 32z" />
    <glyph glyph-name="zero" unicode="0" horiz-adv-x="1409" 
d="M423 1220q-105 -112 -117 -319t-1 -387t117 -290q106 -112 282 -112t282 112q106 110 118 290t0 387t-118 319t-281 112q-176 0 -282 -112zM704 1450q222 0 365 -148t156 -389q10 -193 0 -381q-11 -240 -155 -390t-365 -148q-221 0 -365 149q-143 150 -156 389
q-10 188 0 381q12 241 156 389q142 148 364 148z" />
    <glyph glyph-name="one" unicode="1" horiz-adv-x="897" 
d="M525 1440q30 0 52 -22t21 -58v-1307q0 -27 -16 -44t-42 -17t-44 17t-19 44v1237l-272 -149q-63 -31 -89 23t27 83l299 166q53 27 83 27z" />
    <glyph glyph-name="two" unicode="2" horiz-adv-x="1187" 
d="M127 98q0 131 75 241t240 230q281 201 342 262q100 96 107 216v22q0 106 -81 186t-241 80q-205 0 -325 -159q-16 -29 -54 -29t-55 30q-18 30 2 62q59 89 169 151t257 62q211 0 329 -110t118 -272t-85 -259q-85 -98 -337 -281q-208 -143 -275 -230t-67 -181h733
q27 -1 44 -19t17 -43t-17 -41t-44 -16h-754q-43 0 -71 26t-27 72z" />
    <glyph glyph-name="three" unicode="3" horiz-adv-x="1198" 
d="M1020 512q0 -242 -202 -380t-556 -138q-66 0 -96 2q-65 4 -68 61q0 25 18 43t50 16q33 -2 113 -3q287 0 453 104t167 295q0 129 -88 205t-227 76q-51 -1 -90 -7t-57 -6t-36 18t-18 42q0 25 16 41l385 432h-626q-25 0 -43 17t-19 42q0 25 18 42t44 18h671q43 0 74 -27
q56 -49 10 -129l-338 -371l37 2q176 1 292 -111t116 -284z" />
    <glyph glyph-name="four" unicode="4" horiz-adv-x="1353" 
d="M891 481v846l-643 -846h643zM1184 365h-174v-302q0 -25 -16 -44t-43 -19q-26 0 -43 18t-17 45v302h-645q-49 1 -85 29t-36 74t37 95l622 815q53 66 111 66q83 0 104 -63q11 -30 11 -46v-854h174q25 0 41 -16t16 -40t-17 -42t-40 -18z" />
    <glyph glyph-name="five" unicode="5" horiz-adv-x="1228" 
d="M1092 545q0 -267 -226 -411t-643 -144q-27 0 -45 16t-18 41q0 61 76 62q348 1 542 111t195 329q0 117 -90 193t-223 77q-133 0 -260 -53q-24 -10 -32 -15t-30 -15q-20 -10 -23 -13q-53 -25 -84 -5t-30 60v539q0 115 121 115h620q25 0 43 -18q19 -18 19 -42q0 -25 -18 -42
t-44 -17h-627v-467q159 88 345 88t309 -110t123 -279z" />
    <glyph glyph-name="six" unicode="6" horiz-adv-x="1355" 
d="M1077 457q-1 323 -385 323q-196 0 -393 -110q-15 -283 93 -427q108 -145 302 -145t289 100q94 100 94 259zM1046 1325q-18 0 -84 8t-122 8q-228 0 -372 -143t-163 -395q201 96 412 96t345 -117q134 -118 134 -324t-129 -343t-367 -138q-290 0 -414 205t-104 555
q20 351 194 537t464 186q113 0 200 -16q55 -10 56 -62q0 -23 -16 -40t-34 -17z" />
    <glyph glyph-name="seven" unicode="7" horiz-adv-x="1062" 
d="M330 -8q-57 0 -58 57q0 10 4 35q70 256 195 509t408 720h-740q-27 0 -44 17t-17 42t17 42t44 18h764q45 0 73 -25t28 -62t-21 -73q-311 -520 -425 -748t-173 -483q-10 -49 -55 -49z" />
    <glyph glyph-name="eight" unicode="8" horiz-adv-x="1382" 
d="M689 -18q-253 0 -386 110t-133 297q0 141 74 237t190 126q-98 28 -165 108t-66 219q0 173 127 273q128 100 360 100t358 -100t126 -273q0 -240 -224 -327q123 -39 193 -130t69 -231q0 -189 -135 -299t-388 -110zM682 690q-190 0 -291 -82q-102 -82 -102 -215t99 -213
t301 -80t303 82q102 82 102 214t-111 213t-301 81zM686 1335q-186 1 -274 -69t-88 -192t97 -194t268 -71q171 0 266 72t96 196q0 258 -365 258z" />
    <glyph glyph-name="nine" unicode="9" horiz-adv-x="1341" 
d="M653 641q143 0 266 51q46 18 123 56q0 317 -83 453t-308 136q-186 0 -279 -96t-93 -264q-1 -336 374 -336zM307 109q125 0 212 8t185 37t161 82q145 124 171 378q-184 -92 -399 -92t-346 120t-131 335t129 347t362 132q274 0 392 -173t118 -513q-1 -430 -201 -605
t-651 -175q-59 0 -63 55q-2 25 15 45t46 19z" />
    <glyph glyph-name="colon" unicode=":" horiz-adv-x="579" 
d="M291 231q29 0 48 -20t19 -49v-111q0 -31 -18 -50t-48 -19t-49 20t-20 49v111q-1 29 19 49t49 20zM291 1018q29 0 48 -20t19 -50v-110q0 -30 -18 -50t-48 -20t-49 20t-20 50v110q-1 30 19 50t49 20z" />
    <glyph glyph-name="semicolon" unicode=";" horiz-adv-x="579" 
d="M324 1018q29 0 48 -20t19 -50v-110q0 -30 -18 -50t-48 -20t-50 20q-19 20 -19 50v110q0 30 20 50t48 20zM391 158v-84q-5 -139 -41 -195q-37 -57 -72 -57t-52 20q-33 38 -1 91q31 52 31 126v99q0 29 19 47t49 18t48 -19q19 -19 19 -46z" />
    <glyph glyph-name="less" unicode="&#x3c;" horiz-adv-x="1286" 
d="M225 717q0 68 88 141l574 465q49 39 88 -6q16 -20 12 -46t-24 -42l-598 -484q-36 -28 0 -57l600 -485q20 -16 23 -41t-13 -45q-39 -45 -88 -6l-574 464q-88 74 -88 142z" />
    <glyph glyph-name="equal" unicode="=" horiz-adv-x="1286" 
d="M1087 483h-888q-27 -1 -44 17t-17 44t16 42q18 16 45 16h888q27 0 45 -16t17 -42t-19 -44t-43 -17zM1087 834h-888q-27 0 -44 16t-17 42t16 43q18 17 45 17h888q27 0 45 -17t17 -43t-19 -42t-43 -16z" />
    <glyph glyph-name="greater" unicode="&#x3e;" horiz-adv-x="1286" 
d="M1057 716q0 -68 -88 -141l-574 -464q-49 -39 -88 6q-16 20 -13 45t23 41l601 485q18 14 18 28t-18 29l-599 484q-20 16 -24 42t12 46q39 45 88 6l574 -465q88 -74 88 -142z" />
    <glyph glyph-name="question" unicode="?" horiz-adv-x="1146" 
d="M453 47v113q0 27 21 46q22 19 48 19t45 -19q20 -19 21 -46v-113q0 -27 -20 -46t-47 -19q-26 0 -47 19t-21 46zM192 1153q-28 0 -45 18q-18 17 -18 39t18 47q154 195 435 195q186 0 301 -109t115 -289t-96 -280q-95 -100 -339 -217q-27 -10 -49 -10t-39 17q-18 17 -18 51
t45 55q219 96 298 177t79 212t-80 204t-208 73q-129 0 -207 -38q-78 -36 -144 -120q-20 -25 -48 -25z" />
    <glyph glyph-name="at" unicode="@" horiz-adv-x="1744" 
d="M883 127q-156 0 -259 93t-112 255q-4 70 0 141q6 156 108 262t263 107q162 0 260 -100t98 -244v-281q0 -51 35 -85q35 -33 84 -33t84 34t35 84v361q0 266 -175 429q-176 163 -426 163t-416 -159t-186 -417q-16 -178 3 -397q23 -268 191 -409q169 -140 390 -140
q121 0 242 49q47 18 76 -18q12 -18 7 -45t-30 -39q-121 -64 -271 -64t-266 40q-418 144 -463 646q-17 192 1 392q20 292 222 486t500 194t510 -197q210 -197 209 -504v-362q1 -98 -69 -168t-168 -70t-169 69t-71 169v262q0 96 -67 166q-68 69 -173 69t-178 -70
q-72 -71 -71 -188q-4 -59 0 -123q9 -145 119 -207t225 -12q37 12 61 1t31 -36q14 -61 -51 -83t-133 -21z" />
    <glyph glyph-name="A" unicode="A" horiz-adv-x="1370" 
d="M686 1337q-43 0 -63 -53l-238 -657h596l-236 659q-16 51 -59 51zM1315 54q-1 -16 -17 -35t-50 -19t-50 39l-172 469h-686l-168 -469q-16 -39 -53 -39t-53 27t-7 57l447 1225q51 143 179 143t179 -141l447 -1227q4 -14 4 -30z" />
    <glyph glyph-name="B" unicode="B" horiz-adv-x="1370" 
d="M1241 406q0 -210 -117 -308t-303 -98h-481q-55 0 -85 33t-30 82v1202q0 49 30 82t85 33h455q190 0 298 -106t107 -259q0 -256 -196 -324v-2q111 -25 174 -115t63 -220zM344 801h453q281 0 280 258q0 254 -280 254h-453v-512zM344 682v-561h459q313 0 313 280
q0 131 -79 206t-206 75h-487z" />
    <glyph glyph-name="C" unicode="C" horiz-adv-x="1357" 
d="M727 100q135 0 246 74t157 195q16 41 48 41t50 -16q17 -16 17 -34t-4 -30q-59 -156 -201 -252t-313 -96q-237 0 -395 162t-174 407q-12 164 0 332q16 243 174 405t395 162q172 0 313 -96t201 -252q4 -12 4 -30t-17 -34t-49 -16t-49 41q-47 123 -157 197q-111 74 -246 73
q-186 0 -310 -126q-125 -126 -139 -308q-14 -181 0 -365t138 -309t311 -125z" />
    <glyph glyph-name="D" unicode="D" horiz-adv-x="1472" 
d="M692 0h-354q-53 0 -83 33t-30 82v1202q0 49 30 82t83 33h354q293 0 454 -167t173 -440q6 -117 0 -223q-12 -268 -175 -435t-452 -167zM688 1313h-344v-1192h344q246 0 373 128t139 353q6 121 0 229q-14 227 -140 355t-372 127z" />
    <glyph glyph-name="E" unicode="E" horiz-adv-x="1275" 
d="M340 1432h719q27 0 45 -16t18 -43q0 -26 -18 -43t-45 -17h-715v-531h700q30 0 48 -16t18 -43t-19 -45t-47 -19h-700v-538h719q27 1 45 -17t18 -44t-18 -43t-45 -17h-723q-55 0 -85 33t-30 82v1202q0 49 30 82t85 33z" />
    <glyph glyph-name="F" unicode="F" horiz-adv-x="1208" 
d="M225 53v1264q0 49 30 82t85 33h721q27 0 44 -16t17 -43q0 -26 -17 -43t-44 -17h-717v-557h680q27 0 44 -16t17 -43q0 -26 -17 -43t-44 -17h-680v-584q0 -27 -17 -44t-42 -17t-43 18t-17 43z" />
    <glyph glyph-name="G" unicode="G" horiz-adv-x="1435" 
d="M1284 637v-154q0 -203 -148 -353t-390 -148q-242 0 -408 162t-182 407q-12 164 0 332q16 239 183 403t406 164q173 0 311 -88t201 -242q12 -32 -7 -58t-54 -26t-53 39q-57 121 -161 189t-239 67q-186 0 -317 -126q-132 -126 -148 -308q-16 -183 0 -363t146 -307t317 -127
t305 102t117 267v158h-338q-27 0 -44 16t-17 43t17 43t44 16h346q53 -1 83 -31t30 -77z" />
    <glyph glyph-name="H" unicode="H" horiz-adv-x="1550" 
d="M225 53v1325q-1 27 17 44q18 18 43 18t42 -18t17 -44v-602h864v602q0 27 18 44q18 18 44 18q25 0 41 -18t16 -44v-1325q0 -27 -16 -44t-41 -17t-43 18t-19 43v604h-864v-604q0 -27 -17 -44t-43 -17t-42 17t-17 44z" />
    <glyph glyph-name="I" unicode="I" horiz-adv-x="567" 
d="M225 53v1325q-1 27 17 44q18 18 43 18t42 -18t17 -44v-1325q0 -27 -17 -44t-43 -17t-42 17t-17 44z" />
    <glyph glyph-name="J" unicode="J" horiz-adv-x="1028" 
d="M82 226q0 20 17 37t49 17t51 -36q74 -141 231 -142q113 0 190 78t76 223v975q0 27 18 44q18 18 42 18q25 0 42 -18t17 -44v-995q0 -176 -112 -289t-273 -112q-111 0 -205 60t-139 155q-4 9 -4 29z" />
    <glyph glyph-name="K" unicode="K" horiz-adv-x="1280" 
d="M344 666v-613q0 -27 -17 -44t-42 -17t-42 18t-18 43v1325q-1 27 17 44q18 18 43 18t42 -18t17 -44v-594h14q59 0 119 52l627 587q20 17 44 17t40 -18t16 -44q0 -25 -18 -43l-656 -604l672 -635q41 -37 4 -84q-14 -20 -38 -20t-48 18l-643 606q-51 49 -119 50h-14z" />
    <glyph glyph-name="L" unicode="L" horiz-adv-x="1130" 
d="M225 121v1257q-1 27 17 44q18 18 43 18t42 -18t17 -44v-1257h715q23 -1 42 -19t19 -43t-18 -42t-43 -17h-713q-57 0 -89 35t-32 86z" />
    <glyph glyph-name="M" unicode="M" horiz-adv-x="1875" 
d="M934 0q-110 0 -143 133l-295 1186q-6 23 -26 23t-26 -25l-188 -1272q-10 -55 -57 -55q-33 0 -49 22t-13 47l191 1268q18 125 143 125q53 0 91 -30t50 -79l303 -1214q5 -23 25 -23t25 23l299 1214q12 49 50 79t92 30t93 -32t47 -93l195 -1268q4 -27 -11 -49
q-14 -22 -42 -20q-28 0 -46 14t-20 35l-192 1278q-4 25 -25 24q-18 0 -25 -22l-299 -1186q-37 -133 -147 -133z" />
    <glyph glyph-name="N" unicode="N" horiz-adv-x="1574" 
d="M1233 418v960q0 27 17 44q17 18 42 18t42 -18t18 -44v-1272q0 -46 -29 -78t-70 -32q-72 0 -110 59l-797 1264h-6q4 -160 4 -301v-965q0 -25 -17 -43t-42 -18t-42 18t-18 43v1272q0 53 30 85t90 32t101 -64l789 -1251h4q-6 246 -6 291z" />
    <glyph glyph-name="O" unicode="O" horiz-adv-x="1488" 
d="M744 100q190 0 320 126t147 308t0 364t-148 308t-321 125q-190 0 -318 -126q-130 -126 -146 -307q-16 -182 0 -364t146 -308t320 -126zM742 -18q-242 0 -406 162t-180 407q-12 164 0 332q16 243 181 405t405 162t407 -163q168 -163 184 -404q12 -168 0 -332
q-16 -245 -183 -407t-408 -162z" />
    <glyph glyph-name="P" unicode="P" horiz-adv-x="1314" 
d="M741 561h-397v-508q0 -25 -18 -43t-42 -18t-41 18t-18 43v1262q0 49 32 83t87 34h414q190 0 319 -117t129 -319t-129 -318t-336 -117zM344 680h399q174 0 257 85t83 231t-84 232t-245 85h-410v-633z" />
    <glyph glyph-name="Q" unicode="Q" horiz-adv-x="1490" 
d="M715 458q0 22 16 39t43 17t45 -20l230 -281q141 123 160 313t2 372t-148 308t-321 125q-190 0 -318 -126q-130 -126 -146 -307q-16 -182 0 -364t146 -308t317 -126q115 0 209 47l-219 269q-16 20 -16 42zM1290 -227q-33 0 -51 20l-213 260q-127 -72 -285 -71
q-241 0 -405 162t-180 407q-12 164 0 332q16 243 181 405t405 162t407 -163q168 -163 184 -404q12 -168 0 -332q-18 -266 -209 -430l205 -250q25 -27 9 -63t-48 -35z" />
    <glyph glyph-name="R" unicode="R" horiz-adv-x="1388" 
d="M344 705h381q362 0 362 303q0 141 -85 223t-248 82h-410v-608zM1253 48q0 -24 -17 -40t-44 -16t-45 22l-404 506q-29 35 -53 50t-61 16h-285v-533q0 -25 -18 -43t-42 -18t-41 18t-18 43v1262q0 49 32 83t87 34h414q200 0 324 -113t124 -303q0 -363 -377 -416l412 -512
q12 -16 12 -40z" />
    <glyph glyph-name="S" unicode="S" horiz-adv-x="1253" 
d="M133 180q-1 28 17 46t44 18t82 -40q148 -106 353 -106q204 0 307 79q102 79 102 203t-87 183t-325 103t-351 136q-111 91 -111 264q0 172 126 278t364 106t378 -117q23 -18 23 -46q-1 -28 -17 -45t-41 -17t-47 18q-147 88 -321 88t-260 -77q-86 -78 -86 -194
q1 -116 79 -174t324 -104q246 -47 360 -133t114 -265t-135 -291q-134 -112 -370 -111q-281 0 -491 147q-31 23 -31 51z" />
    <glyph glyph-name="T" unicode="T" horiz-adv-x="1212" 
d="M549 53v1260h-443q-27 0 -45 17t-18 42t18 42t45 18h1000q27 0 44 -18t17 -42q0 -25 -18 -42t-43 -17h-438v-1260q0 -27 -16 -44t-44 -17q-27 0 -43 17t-16 44z" />
    <glyph glyph-name="U" unicode="U" horiz-adv-x="1531" 
d="M1329 1378v-813q0 -258 -160 -421q-159 -162 -403 -162t-404 162t-159 421v813q0 27 17 44q17 18 43 18t42 -18t17 -44v-803q0 -215 124 -345t320 -130t320 130t124 345v803q0 27 18 44q18 18 43 18q26 0 42 -18t16 -44z" />
    <glyph glyph-name="V" unicode="V" horiz-adv-x="1343" 
d="M53 1386q1 16 17 35t50 19t50 -37l473 -1280q7 -23 27 -23t28 23l473 1276q13 41 53 41t56 -27t4 -57l-465 -1254q-45 -120 -147 -120t-148 120l-467 1256q-4 12 -4 28z" />
    <glyph glyph-name="W" unicode="W" horiz-adv-x="1875" 
d="M152 1444q40 0 51 -47l286 -1291q0 -6 8 -10t13 10l326 1231q27 103 124 103t125 -103l320 -1233q5 -14 13 -10t7 10l293 1289q10 51 52 51t58 -23q15 -23 7 -55l-295 -1286q-25 -98 -123 -98t-123 98l-325 1233q-3 10 -11 10t-10 -10l-330 -1233q-24 -98 -122 -98
t-123 98l-287 1286q-8 30 9 54t57 24z" />
    <glyph glyph-name="X" unicode="X" horiz-adv-x="1304" 
d="M1171 1440q27 0 43 -16q33 -35 5 -81l-494 -630l487 -621q29 -48 -4 -80q-18 -18 -45 -18t-45 24l-465 600l-467 -600q-18 -24 -45 -24t-45 18t-18 38t14 42l486 623l-490 626q-12 18 -12 41t16 40q16 18 44 18t46 -25l469 -606l473 608q19 23 47 23z" />
    <glyph glyph-name="Y" unicode="Y" horiz-adv-x="1312" 
d="M1214 1442q26 0 44 -18q38 -38 2 -83l-488 -602q-4 -6 -27 -32t-26 -49q-2 -23 -2 -35v-570q1 -27 -17 -44t-43 -17t-42 18t-17 43v570q0 45 -25 75q-4 6 -17 22t-17 21l-486 600q-16 20 -16 43t18 40q18 18 44 18t44 -23l514 -639l512 639q19 23 45 23z" />
    <glyph glyph-name="Z" unicode="Z" horiz-adv-x="1191" 
d="M1044 0h-796q-59 0 -93 32t-34 78t29 87l792 1116h-752q-27 0 -45 17t-18 42t18 42t45 18h740q59 0 94 -33t35 -77t-39 -101l-784 -1100h808q26 -1 44 -19t18 -43t-18 -42t-44 -17z" />
    <glyph glyph-name="bracketleft" unicode="[" horiz-adv-x="714" 
d="M692 -301q0 -25 -17 -41t-44 -16h-297q-59 0 -92 36t-33 86v1737q0 53 33 88t92 35h297q27 0 44 -16t17 -41t-18 -43t-43 -19h-303v-1745h303q25 0 43 -18t18 -43z" />
    <glyph glyph-name="backslash" unicode="\" horiz-adv-x="677" 
d="M-27 1470q-10 26 -1 52t33 34q23 8 47 -3t34 -35l619 -1561q10 -25 0 -49t-34 -33q-23 -8 -47 2t-32 35z" />
    <glyph glyph-name="bracketright" unicode="]" horiz-adv-x="714" 
d="M23 -303q0 25 18 42t43 17h303v1747h-303q-23 -1 -42 17t-19 43t17 42t44 17h299q57 0 90 -36t33 -87v-1737q0 -53 -32 -88t-91 -34h-299q-27 0 -44 16t-17 41z" />
    <glyph glyph-name="asciicircum" unicode="^" horiz-adv-x="1320" 
d="M661 1335q-19 0 -28 -20l-213 -551q-27 -55 -82 -35q-23 8 -34 34t-1 48l193 496q57 141 166 141t163 -141l193 -496q10 -23 0 -49t-34 -33q-24 -8 -48 2t-33 33l-215 551q-8 20 -27 20z" />
    <glyph glyph-name="underscore" unicode="_" horiz-adv-x="966" 
d="M967 -274v-125h-967v125h967z" />
    <glyph glyph-name="grave" unicode="`" 
d="M543 1600q0 -28 -22 -49t-60 -1l-277 142q-28 16 -28 44t15 43t36 15t33 -8l274 -144q29 -14 29 -42z" />
    <glyph glyph-name="a" unicode="a" horiz-adv-x="1150" 
d="M551 98q80 0 165 26t134 62v301q-186 51 -314 51t-203 -60q-75 -62 -75 -161q0 -219 293 -219zM969 711v-561q0 -37 -27 -56q-55 -41 -165 -77t-245 -35q-188 0 -290 90t-102 241t104 245q106 94 299 93q133 0 307 -47v88q0 140 -68 204t-200 64t-273 -59q-39 -16 -65 0
t-25 51q0 35 37 56q138 72 326 72q386 -2 387 -369z" />
    <glyph glyph-name="b" unicode="b" horiz-adv-x="1230" 
d="M647 965q-94 0 -185 -26t-138 -54v-699q41 -32 133 -62t168 -30q292 0 323 293q10 127 0 291q-23 287 -301 287zM205 1386q0 26 17 44t42 18t42 -17t18 -45v-376q166 70 317 69q193 0 301 -103t125 -298q12 -145 0 -287q-16 -195 -129 -303t-311 -108q-115 0 -228 43
t-166 81q-29 18 -28 56v1226z" />
    <glyph glyph-name="c" unicode="c" horiz-adv-x="1138" 
d="M610 94q92 0 172 49t115 144q18 55 68 55q52 0 53 -67t-98 -176q-47 -50 -129 -85t-179 -34q-196 0 -318 116t-132 295q-8 141 0 287q8 180 133 291t317 110q96 1 178 -33q137 -56 199 -181q25 -48 25 -83q0 -63 -58 -63q-45 0 -63 55q-33 92 -112 141t-171 50
q-141 0 -231 -80t-96 -207q-10 -176 0 -298t98 -204t229 -82z" />
    <glyph glyph-name="d" unicode="d" horiz-adv-x="1230" 
d="M606 94q78 0 169 30t132 62v699q-47 29 -138 55t-185 25q-141 0 -213 -71q-72 -70 -86 -220t0 -287q31 -293 321 -293zM571 1079q171 0 336 -69v376q-1 26 17 44t43 18t42 -17t17 -45v-1226q0 -37 -27 -56q-49 -40 -163 -82t-232 -42q-200 0 -312 108t-128 303
q-12 144 0 287q16 195 126 298t281 103z" />
    <glyph glyph-name="e" unicode="e" horiz-adv-x="1175" 
d="M887 590q29 0 31 28q12 156 -75 251t-244 95t-239 -98t-79 -276h606zM1036 651v-67q0 -109 -118 -109h-637v-41q0 -160 91 -250t244 -90q113 0 263 56q41 14 67 -4t25 -49q0 -32 -35 -52q-109 -65 -318 -65q-208 0 -326 120t-128 326q-6 111 2 238q14 192 135 304
t313 112t306 -121q116 -120 116 -308z" />
    <glyph glyph-name="f" unicode="f" horiz-adv-x="763" 
d="M537 1462q217 0 217 -70q0 -60 -58 -63q-12 0 -61 9t-107 10q-178 0 -178 -213v-97h309q25 0 42 -17t17 -41t-18 -40t-41 -16h-309v-871q0 -27 -16 -44t-42 -17t-43 18t-18 43v871h-79q-27 0 -44 16q-18 16 -18 41t18 41t44 16h79v111q0 141 77 227t229 86z" />
    <glyph glyph-name="g" unicode="g" horiz-adv-x="1228" 
d="M600 965q-293 0 -317 -293q-10 -119 0 -262q20 -289 317 -289q186 0 303 94v672q-21 21 -123 50q-102 28 -180 28zM1022 911v-831q0 -211 -117 -334t-315 -123t-344 90q-47 29 -47 62t17 49t41 16t69 -26q121 -74 262 -74t228 87t87 245v12q-168 -82 -313 -82
q-192 0 -302 108t-126 304q-10 129 0 258q16 199 129 303t309 104q123 0 236 -36t159 -70q27 -21 27 -62z" />
    <glyph glyph-name="h" unicode="h" horiz-adv-x="1253" 
d="M324 1386v-462q61 68 156 112t194 43q178 0 284 -104t107 -301v-621q0 -25 -16 -43t-41 -18t-43 18t-19 43v611q0 141 -72 221t-189 80q-117 -1 -211 -55t-150 -132v-725q0 -25 -18 -43t-42 -18q-25 0 -42 18t-17 43v1333q0 26 16 44t41 18q26 0 44 -18t18 -44z" />
    <glyph glyph-name="i" unicode="i" horiz-adv-x="546" 
d="M272 1065q25 0 43 -17t19 -44v-951q0 -27 -18 -44t-43 -17q-26 0 -42 17t-16 44v951q0 27 16 44t41 17zM356 1337q0 -35 -24 -59t-60 -25q-36 0 -58 25q-22 26 -22 60t23 58t57 24t60 -24q24 -24 24 -59z" />
    <glyph glyph-name="j" unicode="j" horiz-adv-x="528" 
d="M338 1337q0 -35 -24 -59t-60 -25q-36 0 -58 24q-22 23 -22 59t23 60t59 24t58 -24q24 -24 24 -59zM83 -391q-28 0 -45 16q-18 16 -18 42t17 44q90 95 125 185t35 225v883q0 27 16 44t42 17t43 -17t17 -44v-893q0 -159 -44 -265t-142 -217q-18 -20 -46 -20z" />
    <glyph glyph-name="k" unicode="k" horiz-adv-x="1069" 
d="M1010 49q0 -25 -18 -41t-41 -16q-24 0 -44 16l-422 428q-49 49 -120 49h-41v-432q0 -27 -18 -44t-42 -17q-25 0 -42 18t-17 43v1333q0 28 17 46t43 18t42 -18t17 -46v-780h43q68 0 118 51l408 398q20 16 43 16t40 -17t17 -41t-22 -46l-434 -416l452 -457q21 -20 21 -45z
" />
    <glyph glyph-name="l" unicode="l" horiz-adv-x="528" 
d="M205 1386q0 28 16 46t42 18t43 -18t18 -46v-1333q0 -25 -18 -43t-42 -18q-25 0 -42 18t-17 43v1333z" />
    <glyph glyph-name="m" unicode="m" horiz-adv-x="1804" 
d="M1616 705v-652q0 -27 -16 -44t-43 -17q-26 0 -43 17t-17 44v641q0 270 -262 271q-152 0 -283 -107q18 -78 19 -153v-652q-1 -27 -17 -44t-42 -17t-43 17t-17 44v641q0 139 -62 205t-172 66q-110 1 -149 -11q-111 -32 -143 -65v-836q0 -27 -18 -44t-43 -17q-26 0 -42 17
t-16 44v856q0 41 39 68q135 102 339 102t314 -121q51 36 82 54t105 43t151 24q193 0 286 -98t93 -276z" />
    <glyph glyph-name="n" unicode="n" horiz-adv-x="1255" 
d="M1067 668v-615q0 -27 -16 -44t-42 -17t-43 17t-18 44v611q0 150 -86 226t-221 75q-188 0 -317 -80v-832q0 -27 -16 -44t-43 -17q-26 0 -43 17t-17 44v854q0 41 28 62q55 41 163 75t249 35q207 0 315 -107t107 -304z" />
    <glyph glyph-name="o" unicode="o" horiz-adv-x="1212" 
d="M606 965q-139 0 -227 -81t-96 -208q-10 -174 1 -297t99 -204t223 -81t222 81q86 81 98 204t2 297q-8 127 -95 208q-88 81 -227 81zM605 1079q185 -1 310 -113t133 -272t-1 -321q-9 -160 -133 -277q-124 -116 -308 -116t-309 116t-133 276t-1 321t132 273t310 113z" />
    <glyph glyph-name="p" unicode="p" horiz-adv-x="1232" 
d="M637 965q-80 0 -174 -30t-137 -63v-694q45 -32 129 -58t170 -26q301 0 319 287q10 164 0 293q-25 291 -307 291zM621 -20q-133 0 -295 71v-379q0 -27 -18 -44t-43 -17q-26 0 -42 17t-16 44v1227q0 39 29 59q52 37 168 79t235 42q195 0 305 -104t123 -299q12 -143 0 -295
q-14 -195 -127 -298t-319 -103z" />
    <glyph glyph-name="q" unicode="q" horiz-adv-x="1230" 
d="M596 94q90 0 178 26t133 54v698q-43 33 -138 63t-175 30q-284 0 -309 -295q-10 -106 0 -291q18 -285 311 -285zM594 1079q120 0 234 -41t156 -69t42 -68v-1229q0 -27 -17 -44t-42 -17t-42 17t-18 44v379q-166 -72 -307 -71q-198 0 -308 104t-126 299q-12 147 0 289
q16 195 125 301t303 106z" />
    <glyph glyph-name="r" unicode="r" horiz-adv-x="753" 
d="M735 999q0 -20 -16 -36q-17 -17 -41 -17t-72 9t-88 10q-104 1 -154 -49t-51 -156v-705q0 -27 -16 -45t-42 -18t-43 18t-17 45v711q0 147 84 230t237 83q100 0 170 -20q49 -14 49 -60z" />
    <glyph glyph-name="s" unicode="s" horiz-adv-x="985" 
d="M514 -20q-229 0 -369 116q-45 43 -14 88q14 20 41 24q26 4 62 -24q36 -26 62 -42q78 -47 206 -47q126 -1 192 55t66 130q0 76 -42 116t-138 65l-162 39q-268 66 -268 276q0 139 99 221t265 82t279 -84q23 -18 25 -45t-13 -45q-35 -37 -86 -6q-106 66 -205 66
q-246 0 -246 -185q0 -116 150 -154q173 -44 184 -44q276 -76 277 -283q1 -145 -99 -232t-266 -87z" />
    <glyph glyph-name="t" unicode="t" horiz-adv-x="817" 
d="M193 1214q0 28 17 46t42 18t42 -18t17 -46v-176h330q25 0 43 -17t18 -41t-18 -40t-43 -16h-330v-639q0 -87 41 -139t109 -52t127 19t82 26q22 6 46 -9t24 -53t-60 -61q-98 -37 -199 -36q-145 0 -217 87t-71 228v919z" />
    <glyph glyph-name="u" unicode="u" horiz-adv-x="1257" 
d="M188 387v617q0 27 18 44t42 17q25 0 42 -17t17 -44v-623q0 -133 82 -210q83 -77 243 -77t300 88v822q0 27 16 44t42 17t43 -17t18 -44v-846q0 -39 -27 -56q-176 -123 -408 -122q-188 0 -308 108t-120 299z" />
    <glyph glyph-name="v" unicode="v" horiz-adv-x="1030" 
d="M916 1065q37 0 52 -26t5 -56l-336 -901q-35 -94 -120 -94t-118 92l-342 903q-12 33 5 57q18 24 52 25q34 0 50 -39l344 -917q2 -10 10 -11q8 0 10 11l334 911q17 45 54 45z" />
    <glyph glyph-name="w" unicode="w" horiz-adv-x="1667" 
d="M145 1069q37 0 52 -47l262 -930q4 -10 10 -10t10 10l228 869q12 53 48 81t79 27q98 0 127 -111l229 -866q4 -10 10 -10t10 10l258 932q12 45 50 45t56 -26q17 -26 7 -56l-262 -917q-29 -98 -121 -99q-43 0 -77 26t-46 73l-231 882q-2 8 -10 8t-11 -8l-237 -880
q-27 -100 -120 -100t-120 98l-262 917q-8 33 8 57t53 25z" />
    <glyph glyph-name="x" unicode="x" horiz-adv-x="1101" 
d="M991 48q0 -24 -16 -41t-46 -17t-48 26l-328 430l-330 -432q-20 -24 -48 -24t-45 18t-17 42t14 40l350 451l-327 426q-14 16 -14 40t16 41t44 17t48 -27l307 -403l303 401q22 29 50 29t45 -18t17 -43t-14 -41l-325 -424l350 -451q14 -16 14 -40z" />
    <glyph glyph-name="y" unicode="y" horiz-adv-x="1028" 
d="M116 1065q38 0 54 -39l350 -795q4 -8 8 -8t9 8l317 787q20 47 58 47t54 -29t1 -61l-387 -948q-54 -135 -134 -243q-124 -167 -217 -167q-25 0 -41 16t-16 48t39 51q154 75 254 331l-406 914q-14 33 2 61q17 28 55 27z" />
    <glyph glyph-name="z" unicode="z" horiz-adv-x="1046" 
d="M870 115q25 1 41 -17q17 -18 17 -42t-16 -40t-42 -16h-626q-51 0 -83 30t-32 74t35 86l659 738h-602q-25 0 -42 15t-17 40t16 42t43 17h590q59 0 92 -32t33 -80t-51 -105l-641 -710h626z" />
    <glyph glyph-name="braceleft" unicode="{" horiz-adv-x="729" 
d="M645 1503h-242q-27 0 -44 -17t-17 -44v-492q0 -213 -137 -305q137 -98 137 -305v-518q0 -27 18 -44t46 -18h239q25 0 43 -18t18 -43t-16 -42q-18 -17 -45 -17h-237q-76 0 -130 54t-55 132v512q0 78 -23 131q-24 53 -76 95t-52 80t52 80q101 81 99 226v486q1 78 55 132
t130 54h237q27 0 44 -16t17 -41t-18 -43t-43 -19z" />
    <glyph glyph-name="bar" unicode="|" horiz-adv-x="626" 
d="M308 1710q26 0 42 -17t17 -44v-1874q-1 -27 -17 -44t-42 -17t-43 18t-17 43v1874q0 27 17 44t43 17z" />
    <glyph glyph-name="braceright" unicode="}" horiz-adv-x="729" 
d="M328 1503h-242q-25 1 -43 19t-18 43t17 41t44 16h238q76 0 130 -54t54 -132v-486q0 -146 99 -226q52 -42 52 -80t-52 -80q-101 -81 -99 -226v-512q0 -78 -54 -132t-130 -54h-238q-27 0 -44 17t-17 42t18 43t43 18h240q27 0 45 18t18 44v518q0 207 137 305
q-137 92 -137 305v492q0 27 -17 44t-44 17z" />
    <glyph glyph-name="asciitilde" unicode="~" horiz-adv-x="1275" 
d="M1112 722q0 -36 -47 -54q-133 -60 -219 -60t-211 54t-201 53q-76 0 -172 -51q-45 -20 -72 -4q-26 16 -26 52q0 38 47 56q135 59 220 59t210 -53t202 -53t175 55q38 20 66 1t28 -55z" />
    <glyph glyph-name="exclamdown" unicode="&#xa1;" horiz-adv-x="419" 
d="M143 1274v112q1 26 21 46t47 20t46 -19t19 -47v-112q0 -27 -19 -46q-19 -20 -46 -20t-47 20t-21 46zM210 2q-26 0 -43 17t-17 44l6 852q0 23 16 40t39 17t38 -16t15 -41l6 -852q-2 -27 -18 -44t-42 -17z" />
    <glyph glyph-name="cent" unicode="&#xa2;" horiz-adv-x="1052" 
d="M662 1393v-201q201 -27 280 -207q8 -16 8 -39t-17 -40t-50 -17t-45 37q-30 72 -92 114t-138 43q-120 1 -190 -71t-80 -185t0 -225t80 -180q70 -70 190 -70q76 0 137 41t91 109q14 45 47 45q33 -1 49 -17t16 -38t-8 -37q-90 -184 -278 -215v-199q0 -25 -16 -42t-40 -17
q-22 0 -40 18q-17 18 -17 41v199q-137 23 -230 122q-92 100 -99 228t0 252q6 126 100 228t229 122v201q0 25 16 42t40 17q25 0 41 -17t16 -42z" />
    <glyph glyph-name="sterling" unicode="&#xa3;" horiz-adv-x="1134" 
d="M274 1049q0 -75 60 -322h332q27 0 44 -16t17 -42t-18 -43t-43 -18h-320q14 -102 -18 -235t-101 -254h760q25 1 42 -17t17 -44t-16 -42q-18 -16 -45 -16h-782q-49 0 -77 26t-28 60t33 100q121 232 96 422h-141q-23 0 -42 18t-19 44q0 25 18 41t43 16h125q-55 248 -55 317
q0 174 113 291q114 117 315 117q236 0 387 -160q29 -30 29 -56t-17 -41q-16 -15 -43 -15t-77 48q-113 109 -275 108t-238 -88t-76 -199z" />
    <glyph glyph-name="currency" unicode="&#xa4;" horiz-adv-x="1275" 
d="M638 1026q-101 0 -171 -70t-76 -174q-4 -43 0 -138t75 -165q71 -69 172 -69t171 70t74 171q2 57 -1 146t-73 159t-171 70zM638 1145q144 0 249 -92l174 178q41 45 92 2q16 -16 16 -44t-18 -46l-186 -189q39 -76 43 -174q2 0 0 -63v-64q0 -90 -43 -172l186 -186
q18 -18 18 -45t-16 -45q-47 -41 -92 2l-172 174q-102 -92 -252 -92t-250 92l-172 -174q-49 -41 -92 -2q-18 18 -19 45q0 27 21 45l184 186q-37 71 -40 153t0 165t40 155l-186 189q-18 18 -19 46q0 28 19 44q47 43 92 -2l174 -178q105 92 249 92z" />
    <glyph glyph-name="yen" unicode="&#xa5;" horiz-adv-x="1312" 
d="M1214 1442q26 0 44 -18q38 -38 2 -83l-488 -602q-4 -6 -27 -32t-26 -49q-2 -23 -2 -35v-29h282q25 0 42 -16t17 -38t-18 -40q-18 -16 -41 -17h-282v-430q1 -27 -17 -44t-43 -17t-42 18t-17 43v430h-285q-25 -1 -41 15t-16 40t16 40t41 16h285v29q0 45 -25 75q-4 6 -17 22
t-17 21l-486 600q-16 20 -16 43t18 40q18 18 44 18t44 -23l514 -639l512 639q19 23 45 23z" />
    <glyph glyph-name="brokenbar" unicode="&#xa6;" horiz-adv-x="626" 
d="M308 1710q26 0 42 -17t17 -44v-801q1 -25 -17 -43q-18 -19 -43 -19t-42 18t-17 44v801q0 27 17 44t43 17zM248 575q0 27 17 45t43 17q26 0 42 -17t17 -45v-800q-1 -27 -17 -44t-42 -17t-43 18t-17 43v800z" />
    <glyph glyph-name="section" unicode="&#xa7;" horiz-adv-x="1196" 
d="M342 690q0 -62 58 -102t194 -71q136 -32 237 -75q44 35 44 101q-1 67 -58 103t-213 75t-219 72l-4 -5q-39 -36 -39 -98zM617 1329q-141 0 -217 -71t-74 -177q0 -106 74 -156t260 -93t264 -108t77 -166q0 -101 -73 -185q84 -84 84 -234t-115 -250t-295 -100
q-124 0 -236 36t-165 81q-23 18 -23 46t16 44t38 16q24 0 55 -20q131 -84 293 -84t238 70q75 70 75 166q0 95 -48 145t-164 82q-36 10 -114 30q-195 51 -273 116t-77 167q0 102 74 182q-84 82 -84 232t115 250t292 100q229 0 377 -117q23 -16 23 -44t-16 -45t-38 -17t-55 18
q-147 86 -288 86z" />
    <glyph glyph-name="dieresis" unicode="&#xa8;" 
d="M501 1714q33 0 55 -22t22 -55q0 -31 -23 -53t-55 -22t-53 22t-21 54t21 54q22 22 54 22zM196 1714q32 0 54 -22t20 -55q0 -31 -22 -53t-52 -22q-32 0 -55 22t-23 54t23 54t55 22z" />
    <glyph glyph-name="copyright" unicode="&#xa9;" horiz-adv-x="1667" 
d="M1149 927q0 -48 -55 -48q-27 0 -39 30q-64 140 -233 140q-88 0 -153 -66t-73 -156t-1 -196t73 -173t154 -67q168 0 233 137q11 33 37 33t42 -13q16 -12 15 -32q0 -20 -8 -39q-37 -88 -117 -138t-188 -50q-143 0 -238 97q-94 97 -106 243q-8 90 0 186q10 141 105 237
t223 97q247 0 321 -184q8 -16 8 -38zM832 1350q-218 0 -364 -142t-155 -391q-4 -100 0 -188q9 -253 155 -397t364 -144t362 140q145 140 160 380q6 113 0 221q-18 241 -162 381t-360 140zM833 1448q257 0 433 -179t186 -446q2 -104 0 -209q-10 -266 -186 -447t-431 -181
t-434 181q-178 181 -186 447q-2 104 0 209q8 276 184 451q177 174 434 174z" />
    <glyph glyph-name="ordfeminine" unicode="&#xaa;" horiz-adv-x="983" 
d="M449 680q63 0 130 33t109 84q-10 74 -10 266v199q-30 23 -96 42t-133 19q-215 0 -232 -217q-8 -102 0 -207q17 -219 232 -219zM434 555q-144 0 -237 90q-91 91 -101 227t-2 234q8 162 102 252t253 90q104 0 196 -31t137 -63q20 -20 21 -47v-392q0 -98 16 -149t55 -104
q18 -31 12 -57t-28 -38q-53 -33 -90 19q-31 35 -51 88q-139 -119 -283 -119z" />
    <glyph glyph-name="guillemotleft" unicode="&#xab;" horiz-adv-x="1101" 
d="M475 714q0 67 88 142l246 201q20 18 47 16t43 -23q16 -22 13 -48t-23 -41l-273 -218q-18 -14 -18 -28t18 -29l273 -219q20 -16 23 -43t-13 -47q-16 -21 -43 -23t-47 15l-246 204q-88 74 -88 141zM104 714q0 67 89 142l243 201q22 18 48 16t43 -23q17 -22 15 -48t-24 -41
l-272 -218q-36 -28 0 -57l272 -219q20 -16 24 -43t-14 -47q-18 -21 -44 -23t-48 15l-243 204q-89 74 -89 141z" />
    <glyph glyph-name="logicalnot" unicode="&#xac;" horiz-adv-x="1286" 
d="M1161 657v-401q0 -27 -16 -44t-42 -17t-43 18t-18 43v403h-858q-27 -1 -44 17t-17 44t17 42t44 16h854q57 0 90 -34t33 -87z" />
    <glyph glyph-name="registered" unicode="&#xae;" horiz-adv-x="1257" 
d="M624 397q-185 0 -312 123q-126 123 -134 316q-4 88 0 176q8 194 134 316t312 122t311 -123q126 -123 132 -315q8 -88 0 -176q-6 -193 -132 -316t-311 -123zM594 864h-86v-178q0 -37 -41 -37q-14 0 -26 11q-11 11 -11 26v463q0 27 16 44t46 17h161q76 0 130 -47t55 -131
q0 -125 -127 -160l131 -155q16 -15 16 -31t-11 -28t-31 -10q-20 0 -34 20l-151 180q-14 16 -37 16zM623 1370q-154 0 -253 -93q-142 -133 -114 -443q14 -170 114 -264t253 -95q154 1 253 95q140 134 113 446q-14 168 -113 261t-253 93zM508 938h137q111 0 111 99t-107 100
h-141v-199z" />
    <glyph glyph-name="macron" unicode="&#xaf;" 
d="M180 1683h344q23 0 38 -15q16 -15 16 -38t-16 -37t-38 -14h-344q-20 0 -36 15q-15 15 -15 37t14 37t37 15z" />
    <glyph glyph-name="degree" unicode="&#xb0;" horiz-adv-x="722" 
d="M205 1190q0 -66 46 -112q45 -46 111 -46t112 46t46 112t-46 113t-112 47t-111 -47q-46 -47 -46 -113zM102 1191q0 105 77 182t182 77t183 -77t77 -182q0 -105 -77 -182q-76 -77 -182 -77t-183 77t-77 182z" />
    <glyph glyph-name="plusminus" unicode="&#xb1;" horiz-adv-x="1286" 
d="M586 242v397h-400q-27 0 -45 17t-18 43t18 42t45 17h400v399q0 27 17 45t43 18t42 -16q16 -18 17 -47v-399h395q27 0 45 -16t18 -43q0 -26 -19 -43t-44 -17h-395v-397q-1 -29 -17 -46q-16 -18 -42 -18t-43 18t-17 46zM1100 0h-914q-27 0 -45 17t-18 43t18 42t45 17h914
q27 -1 45 -17t18 -42t-19 -43t-44 -17z" />
    <glyph glyph-name="twosuperior" unicode="&#xb2;" horiz-adv-x="948" 
d="M162 596q0 154 211 307q15 10 77 51t96 68t68 74t33 100q0 53 -48 99t-136 46q-117 0 -191 -98q-24 -33 -52 -33t-43 16t-15 39q0 24 14 44q100 143 287 143q137 0 216 -75t79 -187q0 -78 -45 -154q-27 -45 -150 -131q-33 -23 -119 -80q-156 -109 -172 -211h445
q25 0 42 -15t17 -40t-17 -41t-42 -16h-471q-37 0 -61 25q-23 26 -23 69z" />
    <glyph glyph-name="threesuperior" unicode="&#xb3;" horiz-adv-x="892" 
d="M199 1309q-27 0 -43 17t-17 40q0 55 60 55h419q37 -1 64 -23t27 -59t-39 -77l-176 -172q114 -8 190 -81t76 -182q0 -162 -132 -254t-360 -92q-49 0 -69 2q-59 4 -60 56q0 49 60 51h77q166 0 271 63q104 63 104 172q0 68 -51 113t-119 45l-102 -8q-27 0 -45 15t-19 42
q0 27 21 47l229 230h-366z" />
    <glyph glyph-name="acute" unicode="&#xb4;" 
d="M494 1794q18 0 33 -15t15 -44t-28 -43l-278 -144q-18 -6 -34 -6t-31 16t-15 42t28 42l277 144q15 8 33 8z" />
    <glyph glyph-name="mu" unicode="&#xb5;" horiz-adv-x="1269" 
d="M213 -299v1300q0 27 17 45t42 19q25 0 42 -18t18 -46v-620q0 -133 75 -211t211 -78q182 0 318 86v823q0 27 16 45t41 19q25 0 43 -18t19 -46v-845q0 -43 -31 -60q-158 -115 -410 -114q-186 0 -282 98v-379q0 -27 -18 -44t-43 -17q-26 0 -42 17t-16 44z" />
    <glyph glyph-name="mu" unicode="&#x3bc;" horiz-adv-x="1269" 
d="M213 -299v1300q0 27 17 45t42 19q25 0 42 -18t18 -46v-620q0 -133 75 -211t211 -78q182 0 318 86v823q0 27 16 45t41 19q25 0 43 -18t19 -46v-845q0 -43 -31 -60q-158 -115 -410 -114q-186 0 -282 98v-379q0 -27 -18 -44t-43 -17q-26 0 -42 17t-16 44z" />
    <glyph glyph-name="paragraph" unicode="&#xb6;" horiz-adv-x="1406" 
d="M352 997q0 -143 84 -228t258 -85h76v629h-76q-174 -1 -258 -87t-84 -229zM889 -332q-1 -27 -17 -44t-42 -17t-43 17t-17 44v895h-72q-207 0 -336 116q-129 117 -129 317t129 318t334 118h371q117 0 117 -105v-1659q0 -25 -18 -43t-42 -18q-25 0 -42 18t-17 43v1645h-176
v-1645z" />
    <glyph glyph-name="periodcentered" unicode="&#xb7;" horiz-adv-x="530" 
d="M266 848q29 0 48 -20t20 -50v-110q0 -30 -18 -50t-49 -20q-30 0 -49 20t-19 50v110q0 30 19 50t48 20z" />
    <glyph glyph-name="cedilla" unicode="&#xb8;" 
d="M356 51q49 0 50 -51q0 -10 -5 -18l-28 -82q74 -4 121 -52t47 -118q0 -156 -246 -238q-29 -10 -53 4t-25 51q0 37 45 52q158 60 158 123q0 29 -18 49t-46 20l-59 -8q-29 1 -46 25t-7 55l53 145q10 43 59 43z" />
    <glyph glyph-name="onesuperior" unicode="&#xb9;" horiz-adv-x="667" 
d="M324 555v717l-136 -76q-53 -29 -82 21q-12 23 -5 49t30 34l221 125q49 19 69 -3q21 -23 21 -48v-819q0 -25 -16 -41t-42 -16t-43 17t-17 40z" />
    <glyph glyph-name="ordmasculine" unicode="&#xba;" horiz-adv-x="974" 
d="M487 680q100 0 169 66t77 170q8 106 -1 193t-78 153t-167 66t-168 -66q-69 -64 -77 -161t-1 -193t76 -163q70 -65 170 -65zM488 557q-146 0 -248 99t-115 247q-10 100 0 205q13 146 115 244t247 98t247 -97t116 -245q10 -103 0 -205q-14 -150 -116 -248
q-100 -98 -246 -98z" />
    <glyph glyph-name="guillemotright" unicode="&#xbb;" horiz-adv-x="1101" 
d="M627 714q0 -67 -88 -141l-246 -204q-20 -17 -47 -15t-43 22t-14 48q3 27 24 43l272 219q38 29 0 57l-272 218q-19 15 -23 41t12 48t44 24q27 2 47 -17l246 -201q88 -75 88 -142zM997 714q0 -67 -88 -141l-243 -204q-23 -17 -49 -15t-43 22t-14 48q3 27 24 43l272 219
q18 14 18 28t-18 29l-272 218q-20 15 -24 41t14 48q17 22 43 24t49 -17l243 -201q88 -75 88 -142z" />
    <glyph glyph-name="onequarter" unicode="&#xbc;" horiz-adv-x="1939" 
d="M1532 330v467l-397 -467h397zM1642 330h89q25 0 43 -16t18 -42q0 -25 -17 -40t-44 -15h-89v-156q0 -25 -14 -43t-39 -18q-57 0 -57 61v156h-420q-45 0 -74 26q-28 27 -28 67t39 83l417 494q45 51 88 51t66 -27t22 -69v-512zM328 555v725l-140 -76q-55 -29 -82 17
q-12 23 -5 47t30 32l221 125q50 20 72 -9q14 -17 14 -42v-819q0 -25 -15 -41t-40 -16t-40 17t-15 40zM451 14l573 1444q8 23 32 33t46 2t33 -32q10 -24 0 -48l-572 -1442q-8 -23 -31 -31q-22 -8 -46 0q-24 9 -34 30t-1 44z" />
    <glyph glyph-name="onehalf" unicode="&#xbd;" horiz-adv-x="1896" 
d="M1112 92q0 154 211 307q15 9 77 51t96 68t68 74q34 47 34 100q0 54 -49 100q-48 46 -136 46q-117 0 -190 -99q-25 -33 -53 -33q-58 1 -58 56q0 23 14 43q100 143 287 143q137 0 216 -75t79 -172t-39 -161q-39 -63 -274 -218q-156 -109 -172 -211h444q25 1 42 -15t17 -41
t-17 -41t-42 -16h-471q-36 0 -60 26t-24 68zM457 18l571 1440q8 23 31 33t47 2t33 -32q10 -24 0 -48l-572 -1442q-7 -23 -31 -33t-48 1q-52 22 -31 79zM328 555v725l-140 -76q-55 -29 -82 17q-12 23 -5 47t30 32l221 125q50 20 72 -9q14 -17 14 -42v-819q0 -25 -15 -41
t-40 -16t-40 17t-15 40z" />
    <glyph glyph-name="threequarters" unicode="&#xbe;" horiz-adv-x="2174" 
d="M1802 330v467l-399 -467h399zM723 14l573 1444q8 23 32 33t46 1t32 -32q9 -23 1 -47l-571 -1442q-23 -57 -80 -34q-23 8 -33 31t0 46zM199 1309q-27 0 -43 17t-17 40q0 55 60 55h419q37 -1 64 -23t27 -59t-39 -77l-176 -172q114 -8 190 -81t76 -182q0 -162 -132 -254
t-360 -92q-49 0 -69 2q-59 4 -60 56q0 49 60 51h77q166 0 271 63q104 63 104 172q0 68 -51 113t-119 45l-102 -8q-27 0 -45 15t-19 42q0 27 21 47l229 230h-366zM1913 330h88q25 0 43 -16t18 -42q0 -25 -17 -40t-44 -15h-88v-156q-1 -25 -15 -43t-38 -18q-57 0 -58 61v156
h-420q-46 0 -74 26q-28 27 -28 67t39 83l418 494q45 51 88 51t65 -27t23 -69v-512z" />
    <glyph glyph-name="questiondown" unicode="&#xbf;" horiz-adv-x="1146" 
d="M672 1386v-112q0 -27 -22 -46q-50 -43 -93 0q-20 19 -20 46v112q0 26 20 46t46 20q25 0 47 -20t22 -46zM932 281q27 -1 45 -19t18 -40t-18 -46q-154 -195 -434 -194q-186 0 -301 108t-115 289q0 180 95 280t339 218q27 10 49 10q22 1 39 -17q19 -18 19 -52t-45 -54
q-219 -96 -298 -177t-79 -212t80 -204t208 -73t206 37t145 121q20 25 47 25z" />
    <glyph glyph-name="Agrave" unicode="&#xc0;" horiz-adv-x="1370" 
d="M811 1598q0 -28 -15 -43q-14 -15 -32 -15t-35 8l-276 142q-29 16 -29 44t15 43t36 15t33 -8l274 -144q29 -14 29 -42zM686 1337q-43 0 -63 -53l-238 -657h596l-236 659q-16 51 -59 51zM1315 54q-1 -16 -17 -35t-50 -19t-50 39l-172 469h-686l-168 -469q-16 -39 -53 -39
t-53 27t-7 57l447 1225q51 143 179 143t179 -141l447 -1227q4 -14 4 -30z" />
    <glyph glyph-name="Aacute" unicode="&#xc1;" horiz-adv-x="1370" 
d="M892 1792q18 0 33 -15t15 -44t-29 -43l-278 -144q-18 -6 -34 -6t-31 15t-15 42t29 43l276 144q16 8 34 8zM686 1337q-43 0 -63 -53l-238 -657h596l-236 659q-16 51 -59 51zM1315 54q-1 -16 -17 -35t-50 -19t-50 39l-172 469h-686l-168 -469q-16 -39 -53 -39t-53 27t-7 57
l447 1225q51 143 179 143t179 -141l447 -1227q4 -14 4 -30z" />
    <glyph glyph-name="Acircumflex" unicode="&#xc2;" horiz-adv-x="1370" 
d="M938 1597q0 -57 -53 -57q-20 0 -35 12l-166 123l-166 -123q-14 -12 -38 -12t-38 15t-14 41t25 42l178 131q23 20 50 20t54 -20l180 -131q23 -14 23 -41zM686 1337q-43 0 -63 -53l-238 -657h596l-236 659q-16 51 -59 51zM1315 54q-1 -16 -17 -35t-50 -19t-50 39l-172 469
h-686l-168 -469q-16 -39 -53 -39t-53 27t-7 57l447 1225q51 143 179 143t179 -141l447 -1227q4 -14 4 -30z" />
    <glyph glyph-name="Atilde" unicode="&#xc3;" horiz-adv-x="1370" 
d="M792 1655q28 -1 58 25t54 26t40 -15t16 -40t-24 -45q-72 -62 -133 -62t-131 37t-97 37t-59 -26t-54 -26q-24 0 -39 16q-15 15 -15 41t24 44q72 61 132 61t130 -36q70 -37 98 -37zM686 1337q-43 0 -63 -53l-238 -657h596l-236 659q-16 51 -59 51zM1315 54q-1 -16 -17 -35
t-50 -19t-50 39l-172 469h-686l-168 -469q-16 -39 -53 -39t-53 27t-7 57l447 1225q51 143 179 143t179 -141l447 -1227q4 -14 4 -30z" />
    <glyph glyph-name="Adieresis" unicode="&#xc4;" horiz-adv-x="1370" 
d="M837 1714q33 0 55 -22t22 -55q0 -31 -24 -53q-22 -22 -54 -22t-53 22t-21 54t21 54q22 22 54 22zM531 1714q32 0 54 -22q21 -22 21 -55q0 -31 -22 -53t-53 -22q-33 0 -55 22t-22 54t23 54q22 22 54 22zM686 1337q-43 0 -63 -53l-238 -657h596l-236 659q-16 51 -59 51z
M1315 54q-1 -16 -17 -35t-50 -19t-50 39l-172 469h-686l-168 -469q-16 -39 -53 -39t-53 27t-7 57l447 1225q51 143 179 143t179 -141l447 -1227q4 -14 4 -30z" />
    <glyph glyph-name="Aring" unicode="&#xc5;" horiz-adv-x="1370" 
d="M590 1722q0 -40 28 -66t66 -26q39 0 67 27q27 27 27 65t-27 67q-28 28 -68 28q-41 0 -67 -28t-26 -67zM500 1722q0 76 54 130t130 54t130 -54t54 -130t-54 -130t-130 -54t-130 54t-54 130zM686 1337q-43 0 -63 -53l-238 -657h596l-236 659q-16 51 -59 51zM1315 54
q-1 -16 -17 -35t-50 -19t-50 39l-172 469h-686l-168 -469q-16 -39 -53 -39t-53 27t-7 57l447 1225q51 143 179 143t179 -141l447 -1227q4 -14 4 -30z" />
    <glyph glyph-name="AE" unicode="&#xc6;" horiz-adv-x="2111" 
d="M1061 643v666q-43 0 -70 -41l-420 -625h490zM1061 115v405h-572l-333 -500q-32 -50 -90 -17q-20 11 -25 38q-6 27 6 47l838 1243q68 100 207 101h804q27 0 44 -18q18 -18 18 -43q0 -26 -18 -44t-44 -18h-716v-527h700q29 0 47 -16q19 -16 19 -43t-20 -45t-46 -19h-700
v-536h721q25 -1 43 -19t18 -44t-17 -43t-44 -17h-725q-55 0 -85 33t-30 82z" />
    <glyph glyph-name="Ccedilla" unicode="&#xc7;" horiz-adv-x="1351" 
d="M727 1450q172 0 313 -96t201 -252q4 -12 4 -30t-17 -34t-49 -16t-49 41q-47 123 -157 197q-111 74 -246 73q-186 0 -310 -126q-125 -126 -139 -308q-14 -181 0 -365t138 -309t311 -125q135 0 246 74t157 195q17 41 49 41t49 -16t17 -34t-4 -30q-51 -136 -173 -230
t-273 -112l-29 -88q74 -4 121 -52t47 -118q0 -156 -248 -238q-28 -10 -52 4t-24 51t43 52q160 60 160 123q0 29 -17 49t-46 20l-60 -8q-29 1 -46 25t-7 55l43 123q-221 14 -365 172q-143 158 -159 393q-12 164 0 332q16 243 175 405t396 162z" />
    <glyph glyph-name="Egrave" unicode="&#xc8;" horiz-adv-x="1275" 
d="M840 1598q0 -28 -16 -43t-32 -15q-18 0 -34 8l-277 142q-29 16 -29 44t16 43q15 15 36 15t33 -8l274 -144q29 -14 29 -42zM340 1432h719q27 0 45 -16t18 -43q0 -26 -18 -43t-45 -17h-715v-531h700q30 0 48 -16t18 -43t-19 -45t-47 -19h-700v-538h719q27 1 45 -17t18 -44
t-18 -43t-45 -17h-723q-55 0 -85 33t-30 82v1202q0 49 30 82t85 33z" />
    <glyph glyph-name="Eacute" unicode="&#xc9;" horiz-adv-x="1275" 
d="M769 1792q18 0 33 -15t15 -44t-29 -43l-278 -144q-18 -6 -34 -6t-31 15t-15 42t29 43l276 144q16 8 34 8zM340 1432h719q27 0 45 -16t18 -43q0 -26 -18 -43t-45 -17h-715v-531h700q30 0 48 -16t18 -43t-19 -45t-47 -19h-700v-538h719q27 1 45 -17t18 -44t-18 -43t-45 -17
h-723q-55 0 -85 33t-30 82v1202q0 49 30 82t85 33z" />
    <glyph glyph-name="Ecircumflex" unicode="&#xca;" horiz-adv-x="1275" 
d="M934 1597q0 -57 -53 -57q-20 0 -35 12l-166 123l-166 -123q-14 -12 -38 -12t-38 15t-14 41t25 42l178 131q23 20 50 20t54 -20l180 -131q23 -14 23 -41zM340 1432h719q27 0 45 -16t18 -43q0 -26 -18 -43t-45 -17h-715v-531h700q30 0 48 -16t18 -43t-19 -45t-47 -19h-700
v-538h719q27 1 45 -17t18 -44t-18 -43t-45 -17h-723q-55 0 -85 33t-30 82v1202q0 49 30 82t85 33z" />
    <glyph glyph-name="Edieresis" unicode="&#xcb;" horiz-adv-x="1275" 
d="M843 1712q33 0 55 -22t22 -55q0 -31 -23 -53t-55 -22t-52 22q-22 22 -22 54t22 54t53 22zM538 1712q32 0 54 -22t20 -55q0 -31 -22 -53t-52 -22q-32 0 -55 22t-23 54t23 54t55 22zM340 1432h719q27 0 45 -16t18 -43q0 -26 -18 -43t-45 -17h-715v-531h700q30 0 48 -16
t18 -43t-19 -45t-47 -19h-700v-538h719q27 1 45 -17t18 -44t-18 -43t-45 -17h-723q-55 0 -85 33t-30 82v1202q0 49 30 82t85 33z" />
    <glyph glyph-name="Igrave" unicode="&#xcc;" horiz-adv-x="569" 
d="M418 1598q0 -28 -16 -43t-32 -15q-17 0 -34 8l-277 142q-29 16 -29 44t16 43q15 15 36 15t33 -8l274 -144q29 -14 29 -42zM225 53v1325q-1 27 17 44q18 18 43 18t42 -18t17 -44v-1325q0 -27 -17 -44t-43 -17t-42 17t-17 44z" />
    <glyph glyph-name="Iacute" unicode="&#xcd;" horiz-adv-x="569" 
d="M482 1792q18 0 33 -15t15 -44t-28 -43l-279 -144q-17 -6 -33 -6t-31 15t-15 42t28 43l277 144q15 8 33 8zM225 53v1325q-1 27 17 44q18 18 43 18t42 -18t17 -44v-1325q0 -27 -17 -44t-43 -17t-42 17t-17 44z" />
    <glyph glyph-name="Icircumflex" unicode="&#xce;" horiz-adv-x="569" 
d="M541 1597q0 -57 -54 -57q-20 0 -34 12l-166 123l-166 -123q-14 -12 -38 -12t-38 15t-14 41t24 42l178 131q23 20 51 20t54 -20l180 -131q23 -14 23 -41zM225 53v1325q-1 27 17 44q18 18 43 18t42 -18t17 -44v-1325q0 -27 -17 -44t-43 -17t-42 17t-17 44z" />
    <glyph glyph-name="Idieresis" unicode="&#xcf;" horiz-adv-x="569" 
d="M437 1714q32 0 55 -22q22 -22 22 -55q0 -31 -22 -53t-55 -22q-31 0 -53 22t-22 54t22 54t53 22zM132 1714q32 0 54 -22t21 -55q0 -31 -22 -53q-21 -22 -53 -22t-54 22t-23 54q1 32 23 54t54 22zM225 53v1325q-1 27 17 44q18 18 43 18t42 -18t17 -44v-1325q0 -27 -17 -44
t-43 -17t-42 17t-17 44z" />
    <glyph glyph-name="Eth" unicode="&#xd0;" horiz-adv-x="1472" 
d="M688 1313h-344v-545h361q27 0 44 -16t17 -42t-17 -43t-44 -18h-361v-528h344q246 0 373 128t139 353q6 121 0 229q-14 227 -140 355t-372 127zM692 0h-354q-53 0 -83 33t-30 82v534h-159q-27 -1 -43 17q-17 18 -17 44t16 42t44 16h159v549q0 49 30 82t83 33h354
q293 0 454 -167t173 -440q6 -117 0 -223q-12 -268 -175 -435t-452 -167z" />
    <glyph glyph-name="Ntilde" unicode="&#xd1;" horiz-adv-x="1574" 
d="M892 1659q28 -1 58 25t55 26q23 0 39 -15t16 -40t-24 -45q-72 -62 -132 -62t-132 37t-98 37t-57 -26t-55 -26t-39 16q-15 15 -15 41t24 44q72 61 132 61t130 -36q70 -37 98 -37zM1233 418v960q0 27 17 44q17 18 42 18t42 -18t18 -44v-1272q0 -46 -29 -78t-70 -32
q-72 0 -110 59l-797 1264h-6q4 -160 4 -301v-965q0 -25 -17 -43t-42 -18t-42 18t-18 43v1272q0 53 30 85t90 32t101 -64l789 -1251h4q-6 246 -6 291z" />
    <glyph glyph-name="Ograve" unicode="&#xd2;" horiz-adv-x="1488" 
d="M891 1598q0 -28 -15 -43q-14 -15 -32 -15t-35 8l-277 142q-28 16 -28 44t15 43t36 15t33 -8l274 -144q29 -14 29 -42zM744 100q190 0 320 126t147 308t0 364t-148 308t-321 125q-190 0 -318 -126q-130 -126 -146 -307q-16 -182 0 -364t146 -308t320 -126zM742 -18
q-242 0 -406 162t-180 407q-12 164 0 332q16 243 181 405t405 162t407 -163q168 -163 184 -404q12 -168 0 -332q-16 -245 -183 -407t-408 -162z" />
    <glyph glyph-name="Oacute" unicode="&#xd3;" horiz-adv-x="1488" 
d="M933 1792q18 0 33 -15t15 -44t-29 -43l-278 -144q-18 -6 -34 -6t-31 15t-15 42t29 43l276 144q16 8 34 8zM744 100q190 0 320 126t147 308t0 364t-148 308t-321 125q-190 0 -318 -126q-130 -126 -146 -307q-16 -182 0 -364t146 -308t320 -126zM742 -18q-242 0 -406 162
t-180 407q-12 164 0 332q16 243 181 405t405 162t407 -163q168 -163 184 -404q12 -168 0 -332q-16 -245 -183 -407t-408 -162z" />
    <glyph glyph-name="Ocircumflex" unicode="&#xd4;" horiz-adv-x="1488" 
d="M946 1540q-22 0 -37 12l-166 123l-165 -123q-14 -12 -38 -12t-38 15t-14 41t24 42l178 131q22 20 50 20t55 -20l180 -131q23 -14 23 -41t-15 -42t-37 -15zM744 100q190 0 320 126t147 308t0 364t-148 308t-321 125q-190 0 -318 -126q-130 -126 -146 -307q-16 -182 0 -364
t146 -308t320 -126zM742 -18q-242 0 -406 162t-180 407q-12 164 0 332q16 243 181 405t405 162t407 -163q168 -163 184 -404q12 -168 0 -332q-16 -245 -183 -407t-408 -162z" />
    <glyph glyph-name="Otilde" unicode="&#xd5;" horiz-adv-x="1488" 
d="M626 1724q60 0 130 -36t97 -37q29 -1 59 25t54 26t40 -15t16 -40t-25 -45q-72 -62 -133 -62t-131 37q-71 37 -97 37t-58 -26t-55 -26q-24 0 -39 16q-15 15 -15 41t25 44q72 61 132 61zM744 100q190 0 320 126t147 308t0 364t-148 308t-321 125q-190 0 -318 -126
q-130 -126 -146 -307q-16 -182 0 -364t146 -308t320 -126zM742 -18q-242 0 -406 162t-180 407q-12 164 0 332q16 243 181 405t405 162t407 -163q168 -163 184 -404q12 -168 0 -332q-16 -245 -183 -407t-408 -162z" />
    <glyph glyph-name="Odieresis" unicode="&#xd6;" horiz-adv-x="1488" 
d="M896 1714q32 0 54 -22t23 -55q0 -31 -23 -53q-22 -22 -54 -22t-54 22t-21 54q-1 32 21 54t54 22zM591 1714q31 0 53 -22t22 -55q0 -31 -22 -53t-54 -22t-54 22t-22 54t22 54t55 22zM744 100q190 0 320 126t147 308t0 364t-148 308t-321 125q-190 0 -318 -126
q-130 -126 -146 -307q-16 -182 0 -364t146 -308t320 -126zM742 -18q-242 0 -406 162t-180 407q-12 164 0 332q16 243 181 405t405 162t407 -163q168 -163 184 -404q12 -168 0 -332q-16 -245 -183 -407t-408 -162z" />
    <glyph glyph-name="multiply" unicode="&#xd7;" horiz-adv-x="1286" 
d="M174 310q0 26 19 44l366 367l-366 362q-18 18 -19 44q0 26 16 42q43 39 91 -4l362 -364l358 358q19 19 47 21t45 -16t16 -44q-1 -25 -19 -41l-363 -358l363 -359q18 -16 19 -42t-15 -44q-18 -18 -45 -17t-48 20l-358 358l-362 -365q-47 -43 -91 -4q-16 16 -16 42z" />
    <glyph glyph-name="Oslash" unicode="&#xd8;" horiz-adv-x="1486" 
d="M739 100q193 0 323 126t146 308t0 360q-16 177 -135 298l-571 -1028q104 -64 237 -64zM422 1205q-128 -126 -146 -307t-1 -361t139 -306l571 1031q-109 70 -246 69q-188 0 -317 -126zM1117 1450q30 0 51 -24t1 -60l-36 -66q180 -160 198 -417q12 -168 0 -332
q-16 -244 -183 -407t-409 -162q-162 0 -295 77l-26 -47q-16 -30 -45 -30t-50 24t-1 57l32 62q-182 162 -200 426q-12 164 0 332q16 243 181 405t404 162q164 0 303 -84l29 51q16 33 46 33z" />
    <glyph glyph-name="Ugrave" unicode="&#xd9;" horiz-adv-x="1531" 
d="M971 1598q1 -28 -15 -43t-33 -15t-34 8l-277 142q-28 16 -28 44t15 43t36 15t33 -8l274 -144q29 -14 29 -42zM1329 1378v-813q0 -258 -160 -421q-159 -162 -403 -162t-404 162t-159 421v813q0 27 17 44q17 18 43 18t42 -18t17 -44v-803q0 -215 124 -345t320 -130t320 130
t124 345v803q0 27 18 44q18 18 43 18q26 0 42 -18t16 -44z" />
    <glyph glyph-name="Uacute" unicode="&#xda;" horiz-adv-x="1531" 
d="M900 1792q18 0 33 -15t15 -44t-28 -43l-279 -144q-18 -6 -34 -6q-17 0 -31 15t-14 42t28 43l276 144q16 8 34 8zM1329 1378v-813q0 -258 -160 -421q-159 -162 -403 -162t-404 162t-159 421v813q0 27 17 44q17 18 43 18t42 -18t17 -44v-803q0 -215 124 -345t320 -130
t320 130t124 345v803q0 27 18 44q18 18 43 18q26 0 42 -18t16 -44z" />
    <glyph glyph-name="Ucircumflex" unicode="&#xdb;" horiz-adv-x="1531" 
d="M1020 1597q0 -57 -53 -57q-20 0 -35 12l-166 123l-166 -123q-14 -12 -38 -12t-38 15t-14 41t25 42l178 131q23 20 50 20t54 -20l180 -131q23 -14 23 -41zM1329 1378v-813q0 -258 -160 -421q-159 -162 -403 -162t-404 162t-159 421v813q0 27 17 44q17 18 43 18t42 -18
t17 -44v-803q0 -215 124 -345t320 -130t320 130t124 345v803q0 27 18 44q18 18 43 18q26 0 42 -18t16 -44z" />
    <glyph glyph-name="Udieresis" unicode="&#xdc;" horiz-adv-x="1531" 
d="M919 1714q33 0 55 -22t22 -55q0 -31 -24 -53q-22 -22 -54 -22t-53 22t-21 54t21 54q22 22 54 22zM613 1714q32 0 54 -22q21 -22 21 -55q0 -31 -22 -53t-53 -22q-33 0 -55 22t-22 54t23 54q22 22 54 22zM1329 1378v-813q0 -258 -160 -421q-159 -162 -403 -162t-404 162
t-159 421v813q0 27 17 44q17 18 43 18t42 -18t17 -44v-803q0 -215 124 -345t320 -130t320 130t124 345v803q0 27 18 44q18 18 43 18q26 0 42 -18t16 -44z" />
    <glyph glyph-name="Yacute" unicode="&#xdd;" horiz-adv-x="1312" 
d="M802 1792q18 0 33 -15t15 -44t-29 -43l-278 -144q-18 -6 -34 -6t-31 15t-15 42t29 43l276 144q16 8 34 8zM1214 1442q26 0 44 -18q38 -38 2 -83l-488 -602q-4 -6 -27 -32t-26 -49q-2 -23 -2 -35v-570q1 -27 -17 -44t-43 -17t-42 18t-17 43v570q0 45 -25 75q-4 6 -17 22
t-17 21l-486 600q-16 20 -16 43t18 40q18 18 44 18t44 -23l514 -639l512 639q19 23 45 23z" />
    <glyph glyph-name="Thorn" unicode="&#xde;" horiz-adv-x="1314" 
d="M344 401h399q340 0 340 314q0 145 -83 231t-246 86h-410v-631zM741 283h-397v-230q0 -27 -17 -44t-42 -17t-42 17t-18 44v1338q1 27 17 44t41 17t43 -17t18 -44v-240h414q190 0 319 -117q129 -116 129 -318t-129 -318t-336 -115z" />
    <glyph glyph-name="germandbls" unicode="&#xdf;" horiz-adv-x="1329" 
d="M985 1145q0 -63 -28 -117q-27 -54 -61 -84q-88 -82 -89 -146q0 -65 33 -97q33 -31 153 -69q119 -38 193 -117t74 -198q0 -153 -112 -245t-282 -92t-323 116q-16 16 -21 42q-4 26 11 45t40 23t39 -4q14 -9 44 -31q28 -22 35 -27t33 -19t43 -17q17 -2 47 -8t63 -6
q119 0 191 56t71 150q0 93 -45 135t-170 87q-124 44 -182 104t-58 169q0 59 29 110t62 81q93 82 92 163q-1 82 -64 130t-178 48q-301 0 -301 -297v-977q0 -25 -18 -43t-42 -18q-25 0 -42 18t-17 43v979q0 197 108 301q109 105 289 105t281 -82q102 -82 102 -211z" />
    <glyph glyph-name="agrave" unicode="&#xe0;" horiz-adv-x="1155" 
d="M395 1398q-1 28 15 43t36 15t33 -8l275 -143q28 -15 28 -43q-1 -56 -53 -58q-12 0 -29 8l-276 142q-29 16 -29 44zM551 98q80 0 165 26t134 62v301q-186 51 -314 51t-203 -60q-75 -62 -75 -161q0 -219 293 -219zM969 711v-561q0 -37 -27 -56q-55 -41 -165 -77t-245 -35
q-188 0 -290 90t-102 241t104 245q106 94 299 93q133 0 307 -47v88q0 140 -68 204t-200 64t-273 -59q-39 -16 -65 0t-25 51q0 35 37 56q138 72 326 72q386 -2 387 -369z" />
    <glyph glyph-name="aacute" unicode="&#xe1;" horiz-adv-x="1155" 
d="M718 1456q18 0 33 -15t15 -44t-29 -43l-278 -144q-18 -6 -34 -6t-31 16t-15 42q0 27 29 43l276 143q16 8 34 8zM551 98q80 0 165 26t134 62v301q-186 51 -314 51t-203 -60q-75 -62 -75 -161q0 -219 293 -219zM969 711v-561q0 -37 -27 -56q-55 -41 -165 -77t-245 -35
q-188 0 -290 90t-102 241t104 245q106 94 299 93q133 0 307 -47v88q0 140 -68 204t-200 64t-273 -59q-39 -16 -65 0t-25 51q0 35 37 56q138 72 326 72q386 -2 387 -369z" />
    <glyph glyph-name="acircumflex" unicode="&#xe2;" horiz-adv-x="1155" 
d="M836 1235q0 -57 -54 -57q-20 0 -34 12l-166 123l-166 -123q-14 -12 -38 -12t-38 15t-14 41t24 42l178 131q22 20 50 20t55 -20l180 -131q23 -14 23 -41zM551 98q80 0 165 26t134 62v301q-186 51 -314 51t-203 -60q-75 -62 -75 -161q0 -219 293 -219zM969 711v-561
q0 -37 -27 -56q-55 -41 -165 -77t-245 -35q-188 0 -290 90t-102 241t104 245q106 94 299 93q133 0 307 -47v88q0 140 -68 204t-200 64t-273 -59q-39 -16 -65 0t-25 51q0 35 37 56q138 72 326 72q386 -2 387 -369z" />
    <glyph glyph-name="atilde" unicode="&#xe3;" horiz-adv-x="1155" 
d="M689 1323q28 0 59 26q30 25 54 25t40 -15t16 -40t-24 -45q-72 -62 -134 -62t-131 37q-71 37 -97 37t-58 -26t-55 -25q-25 0 -39 15t-14 41t24 44q72 61 132 61t130 -36q70 -37 97 -37zM551 98q80 0 165 26t134 62v301q-186 51 -314 51t-203 -60q-75 -62 -75 -161
q0 -219 293 -219zM969 711v-561q0 -37 -27 -56q-55 -41 -165 -77t-245 -35q-188 0 -290 90t-102 241t104 245q106 94 299 93q133 0 307 -47v88q0 140 -68 204t-200 64t-273 -59q-39 -16 -65 0t-25 51q0 35 37 56q138 72 326 72q386 -2 387 -369z" />
    <glyph glyph-name="adieresis" unicode="&#xe4;" horiz-adv-x="1155" 
d="M659 1306q-1 32 21 54t54 22t54 -22t23 -54q0 -32 -23 -54q-22 -22 -54 -22t-54 22t-21 54zM352 1306q0 32 22 54t55 22q31 0 53 -22t22 -54t-22 -54t-54 -22t-54 22t-22 54zM551 98q80 0 165 26t134 62v301q-186 51 -314 51t-203 -60q-75 -62 -75 -161q0 -219 293 -219z
M969 711v-561q0 -37 -27 -56q-55 -41 -165 -77t-245 -35q-188 0 -290 90t-102 241t104 245q106 94 299 93q133 0 307 -47v88q0 140 -68 204t-200 64t-273 -59q-39 -16 -65 0t-25 51q0 35 37 56q138 72 326 72q386 -2 387 -369z" />
    <glyph glyph-name="aring" unicode="&#xe5;" horiz-adv-x="1155" 
d="M487 1341q0 -39 28 -65t67 -27q38 0 66 27q28 28 28 66t-28 66t-68 28t-66 -28q-27 -28 -27 -67zM397 1341q1 76 55 130q54 55 130 55t130 -54t54 -131q0 -76 -54 -130t-130 -54t-130 54t-55 130zM551 98q80 0 165 26t134 62v301q-186 51 -314 51t-203 -60
q-75 -62 -75 -161q0 -219 293 -219zM969 711v-561q0 -37 -27 -56q-55 -41 -165 -77t-245 -35q-188 0 -290 90t-102 241t104 245q106 94 299 93q133 0 307 -47v88q0 140 -68 204t-200 64t-273 -59q-39 -16 -65 0t-25 51q0 35 37 56q138 72 326 72q386 -2 387 -369z" />
    <glyph glyph-name="ae" unicode="&#xe6;" horiz-adv-x="1150" 
d="M1573 590q29 0 31 28q12 156 -75 251t-244 95t-241 -100t-77 -274h606zM551 96q184 0 346 121q-51 117 -47 270q-186 51 -314 51t-203 -60q-75 -62 -75 -161q0 -221 293 -221zM1722 651v-67q0 -109 -118 -109h-637v-41q0 -160 91 -250t245 -90q109 0 262 56q41 14 67 -4
t25 -49q0 -32 -35 -52q-110 -65 -326 -65t-333 137q-61 -49 -179 -93t-252 -44q-188 0 -290 91t-102 242t104 245q106 94 299 93q133 0 307 -47v88q0 140 -68 204t-202 64t-271 -59q-39 -16 -65 0t-25 51q0 35 37 56q139 72 315 71q272 0 361 -174q131 174 364 174
q194 0 310 -120t116 -308z" />
    <glyph glyph-name="ccedilla" unicode="&#xe7;" horiz-adv-x="1138" 
d="M1014 782q0 -63 -58 -63q-45 0 -63 55q-33 92 -112 141t-171 50q-141 0 -231 -80t-96 -207q-8 -201 0 -289q10 -131 98 -213t229 -82q92 0 171 49t116 144q18 55 68 55q23 0 37 -16t16 -45q0 -79 -100 -183t-267 -116l-30 -84q73 -4 121 -50t49 -118q0 -156 -244 -236
q-29 -12 -55 2t-25 52q0 38 43 51q160 51 160 129q0 27 -16 45t-46 18l-63 -8q-31 1 -46 25t-5 55l45 123q-164 20 -266 133q-101 113 -110 263t-1 296q8 180 133 291t317 110q96 1 178 -33q137 -56 199 -181q25 -48 25 -83z" />
    <glyph glyph-name="egrave" unicode="&#xe8;" horiz-adv-x="1175" 
d="M389 1398q0 28 15 43t36 15t33 -8l275 -143q28 -15 28 -43q-1 -56 -53 -58q-12 0 -29 8l-276 142q-29 16 -29 44zM887 590q29 0 31 28q12 156 -75 251t-244 95t-239 -98t-79 -276h606zM1036 651v-67q0 -109 -118 -109h-637v-41q0 -160 91 -250t244 -90q113 0 263 56
q41 14 67 -4t25 -49q0 -32 -35 -52q-109 -65 -318 -65q-208 0 -326 120t-128 326q-6 111 2 238q14 192 135 304t313 112t306 -121q116 -120 116 -308z" />
    <glyph glyph-name="eacute" unicode="&#xe9;" horiz-adv-x="1175" 
d="M769 1456q18 0 33 -15t15 -44t-29 -43l-278 -144q-18 -6 -34 -6t-31 16t-15 42q0 27 29 43l276 143q16 8 34 8zM887 590q29 0 31 28q12 156 -75 251t-244 95t-239 -98t-79 -276h606zM1036 651v-67q0 -109 -118 -109h-637v-41q0 -160 91 -250t244 -90q113 0 263 56
q41 14 67 -4t25 -49q0 -32 -35 -52q-109 -65 -318 -65q-208 0 -326 120t-128 326q-6 111 2 238q14 192 135 304t313 112t306 -121q116 -120 116 -308z" />
    <glyph glyph-name="ecircumflex" unicode="&#xea;" horiz-adv-x="1175" 
d="M840 1262q0 -55 -54 -58q-20 0 -34 13l-166 122l-166 -122q-14 -13 -38 -13t-38 16t-14 40q0 26 24 43l178 131q22 20 50 20t55 -20l180 -131q23 -13 23 -41zM887 590q29 0 31 28q12 156 -75 251t-244 95t-239 -98t-79 -276h606zM1036 651v-67q0 -109 -118 -109h-637v-41
q0 -160 91 -250t244 -90q113 0 263 56q41 14 67 -4t25 -49q0 -32 -35 -52q-109 -65 -318 -65q-208 0 -326 120t-128 326q-6 111 2 238q14 192 135 304t313 112t306 -121q116 -120 116 -308z" />
    <glyph glyph-name="edieresis" unicode="&#xeb;" horiz-adv-x="1175" 
d="M753 1382q33 0 55 -22t22 -54t-24 -54q-22 -22 -54 -22t-53 22t-21 54t21 54q22 22 54 22zM447 1382q32 0 54 -22q21 -22 21 -54t-22 -54t-53 -22q-33 0 -55 22t-22 54t23 54q22 22 54 22zM887 590q29 0 31 28q12 156 -75 251t-244 95t-239 -98t-79 -276h606zM1036 651
v-67q0 -109 -118 -109h-637v-41q0 -160 91 -250t244 -90q113 0 263 56q41 14 67 -4t25 -49q0 -32 -35 -52q-109 -65 -318 -65q-208 0 -326 120t-128 326q-6 111 2 238q14 192 135 304t313 112t306 -121q116 -120 116 -308z" />
    <glyph glyph-name="igrave" unicode="&#xec;" horiz-adv-x="546" 
d="M274 1065q25 0 43 -18t19 -43v-951q0 -25 -18 -43t-42 -18q-25 0 -42 18t-17 43v951q0 27 16 44t41 17zM418 1262q0 -28 -22 -48t-60 -2l-277 142q-29 16 -29 44t16 43q15 15 36 15t33 -8l274 -143q29 -15 29 -43z" />
    <glyph glyph-name="iacute" unicode="&#xed;" horiz-adv-x="546" 
d="M274 1065q25 0 43 -18t19 -43v-951q0 -25 -18 -43t-42 -18q-25 0 -42 18t-17 43v951q0 27 16 44t41 17zM478 1456q18 0 33 -15t15 -44t-28 -43l-279 -144q-17 -6 -33 -6t-31 16t-15 42q0 27 28 43l276 143q16 8 34 8z" />
    <glyph glyph-name="icircumflex" unicode="&#xee;" horiz-adv-x="546" 
d="M539 1262q0 -55 -54 -58q-20 0 -34 13l-166 122l-166 -122q-14 -13 -38 -13t-38 16t-14 40q0 26 24 43l178 131q23 20 51 20t54 -20l180 -131q23 -13 23 -41zM274 1065q25 0 43 -18t19 -43v-951q0 -25 -18 -43t-42 -18q-25 0 -42 18t-17 43v951q0 27 16 44t41 17z" />
    <glyph glyph-name="idieresis" unicode="&#xef;" horiz-adv-x="546" 
d="M274 1065q25 0 43 -18t19 -43v-951q0 -25 -18 -43t-42 -18q-25 0 -42 18t-17 43v951q0 27 16 44t41 17zM437 1382q32 0 55 -22q22 -22 22 -54t-22 -54t-55 -22q-31 0 -53 22t-22 54t22 54t53 22zM55 1306q1 32 23 54t54 22t54 -22t21 -54q0 -32 -22 -54q-21 -22 -53 -22
t-54 22t-23 54z" />
    <glyph glyph-name="eth" unicode="&#xf0;" horiz-adv-x="1212" 
d="M591 897q-132 0 -216 -78q-84 -77 -92 -211t1 -244t93 -190t213 -80t212 79t92 189t1 246t-90 212t-214 77zM1020 819v-416q0 -188 -124 -306q-124 -117 -303 -117t-299 112t-132 285q-6 123 0 248q12 171 132 279t300 108t299 -123q0 190 -107 307l-147 -70
q-55 -26 -77 26t30 79l100 47q-37 25 -73 45t-44 46t7 44q10 21 34 27t56 -10q68 -39 139 -97l129 62q20 12 45 5t35 -31q10 -25 0 -47t-33 -32l-90 -43q123 -152 123 -428z" />
    <glyph glyph-name="ntilde" unicode="&#xf1;" horiz-adv-x="1259" 
d="M736 1323q28 0 59 26q31 25 55 25t39 -15q16 -15 16 -40t-24 -45q-73 -62 -133 -62t-132 37t-98 37t-56 -26q-32 -26 -56 -25q-24 0 -38 15q-16 15 -16 41t25 44q72 61 132 61q59 0 129 -36q70 -37 98 -37zM1069 668v-615q0 -27 -16 -44t-42 -17t-43 17t-18 44v611
q0 150 -86 226t-221 75q-188 0 -317 -80v-832q0 -27 -16 -44t-43 -17q-26 0 -43 17t-17 44v854q0 41 29 62q54 41 162 75t249 35q207 0 315 -107t107 -304z" />
    <glyph glyph-name="ograve" unicode="&#xf2;" horiz-adv-x="1212" 
d="M807 1262q0 -56 -53 -58q-12 0 -29 8l-276 142q-29 16 -29 44t15 43t36 15t33 -8l274 -143q29 -15 29 -43zM606 965q-139 0 -227 -81t-96 -208q-10 -174 1 -297t99 -204t223 -81t222 81q86 81 98 204t2 297q-8 127 -95 208q-88 81 -227 81zM605 1079q185 -1 310 -113
t133 -272t-1 -321q-9 -160 -133 -277q-124 -116 -308 -116t-309 116t-133 276t-1 321t132 273t310 113z" />
    <glyph glyph-name="oacute" unicode="&#xf3;" horiz-adv-x="1212" 
d="M744 1456q18 0 33 -15t15 -44t-28 -43l-279 -144q-17 -6 -33 -6t-31 16t-15 42q0 27 28 43l277 143q15 8 33 8zM606 965q-139 0 -227 -81t-96 -208q-10 -174 1 -297t99 -204t223 -81t222 81q86 81 98 204t2 297q-8 127 -95 208q-88 81 -227 81zM605 1079q185 -1 310 -113
t133 -272t-1 -321q-9 -160 -133 -277q-124 -116 -308 -116t-309 116t-133 276t-1 321t132 273t310 113z" />
    <glyph glyph-name="ocircumflex" unicode="&#xf4;" horiz-adv-x="1212" 
d="M402 1202q-24 0 -38 16t-14 40q0 26 25 42l178 132q23 20 50 20t54 -20l181 -132q22 -14 22 -41q-1 -55 -53 -57q-20 0 -35 12l-166 123l-166 -123q-14 -12 -38 -12zM606 965q-139 0 -227 -81t-96 -208q-10 -174 1 -297t99 -204t223 -81t222 81q86 81 98 204t2 297
q-8 127 -95 208q-88 81 -227 81zM605 1079q185 -1 310 -113t133 -272t-1 -321q-9 -160 -133 -277q-124 -116 -308 -116t-309 116t-133 276t-1 321t132 273t310 113z" />
    <glyph glyph-name="otilde" unicode="&#xf5;" horiz-adv-x="1212" 
d="M714 1323q28 0 58 26q30 25 54 25t40 -15t16 -40t-24 -45q-72 -62 -133 -62t-132 37t-97 37t-57 -26t-55 -25q-24 0 -39 15t-15 41t24 44q72 61 132 61t130 -36q70 -37 98 -37zM606 965q-139 0 -227 -81t-96 -208q-10 -174 1 -297t99 -204t223 -81t222 81q86 81 98 204
t2 297q-8 127 -95 208q-88 81 -227 81zM605 1079q185 -1 310 -113t133 -272t-1 -321q-9 -160 -133 -277q-124 -116 -308 -116t-309 116t-133 276t-1 321t132 273t310 113z" />
    <glyph glyph-name="odieresis" unicode="&#xf6;" horiz-adv-x="1212" 
d="M684 1306q0 32 22 54t53 22q33 0 55 -22t22 -54t-23 -54t-55 -22t-52 22q-22 22 -22 54zM454 1382q32 0 54 -22t20 -54q0 -32 -22 -54t-52 -22q-32 0 -55 22t-23 54t23 54t55 22zM606 965q-139 0 -227 -81t-96 -208q-10 -174 1 -297t99 -204t223 -81t222 81q86 81 98 204
t2 297q-8 127 -95 208q-88 81 -227 81zM605 1079q185 -1 310 -113t133 -272t-1 -321q-9 -160 -133 -277q-124 -116 -308 -116t-309 116t-133 276t-1 321t132 273t310 113z" />
    <glyph glyph-name="divide" unicode="&#xf7;" horiz-adv-x="1286" 
d="M644 266q-36 0 -62 26t-27 63q0 36 27 63q26 26 62 26t62 -26t26 -63t-26 -63t-62 -26zM644 991q-36 1 -62 27t-27 62q0 36 27 62q26 26 62 26t62 -26t26 -62t-26 -62t-62 -27zM1100 657h-914q-27 -1 -45 17t-18 44t18 42t45 16h914q27 0 45 -16t18 -42t-19 -44t-44 -17z
" />
    <glyph glyph-name="oslash" unicode="&#xf8;" horiz-adv-x="1210" 
d="M604 965q-139 0 -227 -81t-96 -208q-17 -298 26 -395l522 604q-86 80 -225 80zM602 94q137 0 224 81q86 81 98 204t2 297q-2 53 -27 108l-522 -606q88 -84 225 -84zM600 1079q182 0 305 -106l62 71q41 49 88 9q41 -39 2 -86l-74 -84q57 -92 63 -221t-1 -289
q-9 -160 -133 -277q-124 -116 -307 -116t-306 110l-57 -67q-16 -17 -40 -21t-44 12t-22 42q-1 26 18 46l69 80q-57 96 -63 223t1 288t132 273t307 113z" />
    <glyph glyph-name="ugrave" unicode="&#xf9;" horiz-adv-x="1259" 
d="M444 1398q0 28 16 43t36 15t32 -8l275 -143q29 -15 29 -43q-1 -56 -54 -58q-12 0 -28 8l-277 142q-29 16 -29 44zM188 387v617q0 27 18 44t42 17q25 0 42 -17t17 -44v-623q0 -133 82 -210q83 -77 243 -77t300 88v822q0 27 16 44t42 17t43 -17t18 -44v-846q0 -39 -27 -56
q-176 -123 -408 -122q-188 0 -308 108t-120 299z" />
    <glyph glyph-name="uacute" unicode="&#xfa;" horiz-adv-x="1259" 
d="M765 1456q18 0 33 -15t15 -44t-29 -43l-278 -144q-18 -6 -34 -6t-31 16t-15 42q0 27 29 43l276 143q16 8 34 8zM188 387v617q0 27 18 44t42 17q25 0 42 -17t17 -44v-623q0 -133 82 -210q83 -77 243 -77t300 88v822q0 27 16 44t42 17t43 -17t18 -44v-846q0 -39 -27 -56
q-176 -123 -408 -122q-188 0 -308 108t-120 299z" />
    <glyph glyph-name="ucircumflex" unicode="&#xfb;" horiz-adv-x="1259" 
d="M887 1262q0 -55 -53 -58q-20 0 -35 13l-166 122l-166 -122q-14 -13 -38 -13t-38 16t-14 40q0 26 24 43l179 131q23 20 50 20t54 -20l180 -131q23 -13 23 -41zM188 387v617q0 27 18 44t42 17q25 0 42 -17t17 -44v-623q0 -133 82 -210q83 -77 243 -77t300 88v822
q0 27 16 44t42 17t43 -17t18 -44v-846q0 -39 -27 -56q-176 -123 -408 -122q-188 0 -308 108t-120 299z" />
    <glyph glyph-name="udieresis" unicode="&#xfc;" horiz-adv-x="1259" 
d="M783 1382q32 0 55 -22q22 -22 22 -54t-22 -54t-55 -22q-31 0 -53 22t-22 54t22 54q21 22 53 22zM401 1306q1 32 23 54t54 22t54 -22t21 -54q0 -32 -22 -54q-21 -22 -53 -22t-54 22t-23 54zM188 387v617q0 27 18 44t42 17q25 0 42 -17t17 -44v-623q0 -133 82 -210
q83 -77 243 -77t300 88v822q0 27 16 44t42 17t43 -17t18 -44v-846q0 -39 -27 -56q-176 -123 -408 -122q-188 0 -308 108t-120 299z" />
    <glyph glyph-name="yacute" unicode="&#xfd;" horiz-adv-x="1028" 
d="M753 1458q19 0 33 -15t14 -44t-28 -43l-278 -144q-18 -6 -34 -6t-31 16t-15 42q0 27 28 43l277 143q16 8 34 8zM116 1065q38 0 54 -39l350 -795q4 -8 8 -8t9 8l317 787q20 47 58 47t54 -29t1 -61l-387 -948q-54 -135 -134 -243q-124 -167 -217 -167q-25 0 -41 16t-16 48
t39 51q154 75 254 331l-406 914q-14 33 2 61q17 28 55 27z" />
    <glyph glyph-name="thorn" unicode="&#xfe;" horiz-adv-x="1230" 
d="M637 965q-80 0 -175 -30t-138 -63v-694q45 -32 130 -58t171 -26q299 0 321 287q10 164 0 293q-27 291 -309 291zM618 -20q-133 0 -294 71v-379q0 -27 -18 -44t-42 -17q-25 0 -42 17t-17 44v1714q0 28 16 46t42 18t43 -18t18 -46v-380q170 74 340 74t278 -104
q106 -103 123 -296q12 -140 -2 -316t-129 -280t-316 -104z" />
    <glyph glyph-name="ydieresis" unicode="&#xff;" horiz-adv-x="1028" 
d="M606 1306q0 32 22 54t53 22q33 0 55 -22t22 -54t-23 -54t-55 -22t-52 22q-22 22 -22 54zM299 1306q1 32 23 54t54 22t54 -22t21 -54q0 -32 -22 -54q-21 -22 -53 -22t-54 22t-23 54zM116 1065q38 0 54 -39l350 -795q4 -8 8 -8t9 8l317 787q20 47 58 47t54 -29t1 -61
l-387 -948q-54 -135 -134 -243q-124 -167 -217 -167q-25 0 -41 16t-16 48t39 51q154 75 254 331l-406 914q-14 33 2 61q17 28 55 27z" />
    <glyph glyph-name="Amacron" unicode="&#x100;" horiz-adv-x="1370" 
d="M512 1692h344q23 0 38 -16t15 -38t-15 -36t-38 -15h-344q-20 -1 -36 15t-15 38q0 22 14 36q14 16 37 16zM686 1337q-43 0 -63 -53l-238 -657h596l-236 659q-16 51 -59 51zM1315 54q-1 -16 -17 -35t-50 -19t-50 39l-172 469h-686l-168 -469q-16 -39 -53 -39t-53 27t-7 57
l447 1225q51 143 179 143t179 -141l447 -1227q4 -14 4 -30z" />
    <glyph glyph-name="amacron" unicode="&#x101;" horiz-adv-x="1155" 
d="M410 1358h344q23 0 38 -16t15 -38t-15 -36t-38 -15h-344q-20 1 -36 15t-16 37t14 38t38 15zM551 98q80 0 165 26t134 62v301q-186 51 -314 51t-203 -60q-75 -62 -75 -161q0 -219 293 -219zM969 711v-561q0 -37 -27 -56q-55 -41 -165 -77t-245 -35q-188 0 -290 90
t-102 241t104 245q106 94 299 93q133 0 307 -47v88q0 140 -68 204t-200 64t-273 -59q-39 -16 -65 0t-25 51q0 35 37 56q138 72 326 72q386 -2 387 -369z" />
    <glyph glyph-name="Abreve" unicode="&#x102;" horiz-adv-x="1370" 
d="M684 1651q43 -1 77 27t44 69q14 41 46 41t54 -23t2 -78q-19 -55 -81 -101t-142 -46t-142 46t-85 114q-6 18 -6 36t17 34t40 18q45 0 55 -41t44 -69t77 -27zM686 1337q-43 0 -63 -53l-238 -657h596l-236 659q-16 51 -59 51zM1315 54q-1 -16 -17 -35t-50 -19t-50 39
l-172 469h-686l-168 -469q-16 -39 -53 -39t-53 27t-7 57l447 1225q51 143 179 143t179 -141l447 -1227q4 -14 4 -30z" />
    <glyph glyph-name="abreve" unicode="&#x103;" horiz-adv-x="1155" 
d="M584 1315q42 -1 76 27t45 69q14 41 46 41t49 -17t17 -35t-6 -36q-23 -68 -85 -114t-142 -46t-143 46q-62 46 -85 114q-6 18 -6 36t18 35t40 17q45 0 55 -41t44 -69t77 -27zM551 98q80 0 165 26t134 62v301q-186 51 -314 51t-203 -60q-75 -62 -75 -161q0 -219 293 -219z
M969 711v-561q0 -37 -27 -56q-55 -41 -165 -77t-245 -35q-188 0 -290 90t-102 241t104 245q106 94 299 93q133 0 307 -47v88q0 140 -68 204t-200 64t-273 -59q-39 -16 -65 0t-25 51q0 35 37 56q138 72 326 72q386 -2 387 -369z" />
    <glyph glyph-name="Aogonek" unicode="&#x104;" horiz-adv-x="1435" 
d="M684 1333q-45 0 -59 -41l-240 -661h596l-238 661q-14 41 -59 41zM1092 -195q0 -102 110 -102q52 1 80 23q54 43 88 -5q14 -18 10 -42t-22 -37q-76 -52 -165 -52t-151 58t-63 155q0 156 207 269l-160 436h-686l-168 -469q-10 -23 -33 -33t-47 -2t-32 32q-9 24 -1 48
l441 1233q49 135 184 135t184 -135l439 -1223q25 -68 -43 -98q-172 -80 -172 -191z" />
    <glyph glyph-name="aogonek" unicode="&#x105;" horiz-adv-x="1155" 
d="M258 317q0 -219 293 -219q190 0 299 78v311q-373 109 -517 -10q-75 -62 -75 -160zM711 -193q-1 -51 31 -79t79 -27t77 23q57 44 91 -3q14 -18 9 -42t-25 -39q-63 -50 -157 -50t-156 58t-62 158q0 99 59 184q-78 -8 -125 -8q-190 0 -291 89t-101 241t104 246
q106 94 299 93q133 0 307 -47v94q0 142 -68 202t-200 60t-273 -59q-37 -16 -63 2t-27 52q0 34 37 55q54 26 152 48t186 21q176 0 275 -89t100 -277v-561q0 -44 -31 -62q-227 -131 -227 -283z" />
    <glyph glyph-name="Cacute" unicode="&#x106;" horiz-adv-x="1351" 
d="M912 1792q18 0 33 -15t15 -44t-28 -43l-279 -144q-17 -6 -33 -6t-31 15t-15 42t28 43l277 144q15 8 33 8zM727 100q135 0 246 74t157 195q16 41 48 41t50 -16q17 -16 17 -34t-4 -30q-59 -156 -201 -252t-313 -96q-237 0 -395 162t-174 407q-12 164 0 332q16 243 174 405
t395 162q172 0 313 -96t201 -252q4 -12 4 -30t-17 -34t-49 -16t-49 41q-47 123 -157 197q-111 74 -246 73q-186 0 -310 -126q-125 -126 -139 -308q-14 -181 0 -365t138 -309t311 -125z" />
    <glyph glyph-name="cacute" unicode="&#x107;" horiz-adv-x="1138" 
d="M775 1456q18 0 33 -15t15 -44t-28 -43l-279 -144q-18 -6 -34 -6t-30 16t-16 42q0 27 29 43l276 143q16 8 34 8zM610 94q92 0 172 49t115 144q18 55 68 55q52 0 53 -67t-98 -176q-47 -50 -129 -85t-179 -34q-196 0 -318 116t-132 295q-8 141 0 287q8 180 133 291t317 110
q96 1 178 -33q137 -56 199 -181q25 -48 25 -83q0 -63 -58 -63q-45 0 -63 55q-33 92 -112 141t-171 50q-141 0 -231 -80t-96 -207q-10 -176 0 -298t98 -204t229 -82z" />
    <glyph glyph-name="Cdotaccent" unicode="&#x10a;" horiz-adv-x="1351" 
d="M725 1714q33 0 55 -22t21 -55q0 -31 -22 -53q-23 -22 -55 -22t-54 22t-21 54q-1 32 21 54t55 22zM727 100q135 0 246 74t157 195q16 41 48 41t50 -16q17 -16 17 -34t-4 -30q-59 -156 -201 -252t-313 -96q-237 0 -395 162t-174 407q-12 164 0 332q16 243 174 405t395 162
q172 0 313 -96t201 -252q4 -12 4 -30t-17 -34t-49 -16t-49 41q-47 123 -157 197q-111 74 -246 73q-186 0 -310 -126q-125 -126 -139 -308q-14 -181 0 -365t138 -309t311 -125z" />
    <glyph glyph-name="cdotaccent" unicode="&#x10b;" horiz-adv-x="1138" 
d="M604 1382q32 0 54 -22t22 -54t-22 -54t-54 -22t-54 22t-22 54t22 54t54 22zM610 94q92 0 172 49t115 144q18 55 68 55q52 0 53 -67t-98 -176q-47 -50 -129 -85t-179 -34q-196 0 -318 116t-132 295q-8 141 0 287q8 180 133 291t317 110q96 1 178 -33q137 -56 199 -181
q25 -48 25 -83q0 -63 -58 -63q-45 0 -63 55q-33 92 -112 141t-171 50q-141 0 -231 -80t-96 -207q-10 -176 0 -298t98 -204t229 -82z" />
    <glyph glyph-name="Ccaron" unicode="&#x10c;" horiz-adv-x="1351" 
d="M507 1790q24 0 38 -12l166 -125l166 125q15 12 37 12t36 -15t14 -42t-22 -41l-180 -131q-58 -43 -105 0l-178 131q-25 16 -25 42t15 41q14 15 38 15zM727 100q135 0 246 74t157 195q16 41 48 41t50 -16q17 -16 17 -34t-4 -30q-59 -156 -201 -252t-313 -96
q-237 0 -395 162t-174 407q-12 164 0 332q16 243 174 405t395 162q172 0 313 -96t201 -252q4 -12 4 -30t-17 -34t-49 -16t-49 41q-47 123 -157 197q-111 74 -246 73q-186 0 -310 -126q-125 -126 -139 -308q-14 -181 0 -365t138 -309t311 -125z" />
    <glyph glyph-name="ccaron" unicode="&#x10d;" horiz-adv-x="1138" 
d="M344 1398q0 56 53 56q23 0 37 -12l166 -125l166 125q14 12 37 12t37 -15t14 -42t-23 -41l-180 -131q-59 -43 -104 0l-178 131q-25 16 -25 42zM610 94q92 0 172 49t115 144q18 55 68 55q52 0 53 -67t-98 -176q-47 -50 -129 -85t-179 -34q-196 0 -318 116t-132 295
q-8 141 0 287q8 180 133 291t317 110q96 1 178 -33q137 -56 199 -181q25 -48 25 -83q0 -63 -58 -63q-45 0 -63 55q-33 92 -112 141t-171 50q-141 0 -231 -80t-96 -207q-10 -176 0 -298t98 -204t229 -82z" />
    <glyph glyph-name="Dcaron" unicode="&#x10e;" horiz-adv-x="1472" 
d="M509 1790q24 0 38 -12l166 -125l166 125q15 12 37 12t36 -15t14 -42t-22 -41l-180 -131q-58 -43 -105 0l-178 131q-25 16 -25 42t15 41q14 15 38 15zM692 0h-354q-53 0 -83 33t-30 82v1202q0 49 30 82t83 33h354q293 0 454 -167t173 -440q6 -117 0 -223
q-12 -268 -175 -435t-452 -167zM688 1313h-344v-1192h344q246 0 373 128t139 353q6 121 0 229q-14 227 -140 355t-372 127z" />
    <glyph glyph-name="dcaron" unicode="&#x10f;" horiz-adv-x="1234" 
d="M1212 1128q-55 0 -55 58q0 16 26 66t25 108v37q0 29 16 47t42 18q27 0 44 -18t17 -47v-37q0 -103 -53 -191q-23 -41 -62 -41zM606 94q78 0 169 30t132 62v699q-47 29 -138 55t-185 25q-141 0 -213 -71q-72 -70 -86 -220t0 -287q31 -293 321 -293zM571 1079q171 0 336 -69
v376q-1 26 17 44t43 18t42 -17t17 -45v-1226q0 -37 -27 -56q-49 -40 -163 -82t-232 -42q-200 0 -312 108t-128 303q-12 144 0 287q16 195 126 298t281 103z" />
    <glyph glyph-name="Dcroat" unicode="&#x110;" horiz-adv-x="1474" 
d="M344 121h346q244 0 369 127t141 354q8 113 0 227q-16 227 -141 355t-369 129h-346v-543h363q27 0 43 -16t16 -42t-16 -43t-43 -18h-363v-530zM694 0h-352q-55 0 -86 33t-31 82v536h-157q-27 -1 -44 17q-18 18 -18 44t18 42t44 16h157v547q0 49 31 82t86 33h352
q293 0 454 -167t173 -440q6 -109 0 -219q-14 -274 -174 -440t-453 -166z" />
    <glyph glyph-name="dcroat" unicode="&#x111;" horiz-adv-x="1232" 
d="M606 92q78 0 168 30t131 62v701q-47 29 -137 55t-184 25q-281 0 -299 -283q-12 -186 0 -295q25 -295 321 -295zM570 1079q170 0 335 -69v190h-192q-25 0 -42 16t-17 40t16 40q18 16 43 17h192v57q1 31 19 50q18 20 43 20t42 -20t17 -50v-57h86q27 -1 43 -17t16 -38
t-17 -40q-17 -17 -42 -18h-86v-1040q0 -37 -27 -56q-49 -40 -163 -82t-232 -42q-198 0 -310 108t-128 303q-12 144 0 287q16 195 125 298t279 103z" />
    <glyph glyph-name="Emacron" unicode="&#x112;" horiz-adv-x="1275" 
d="M512 1692h344q23 0 38 -16t15 -38t-15 -36t-38 -15h-344q-20 -1 -36 15t-15 38q0 22 14 36q14 16 37 16zM340 1432h719q27 0 45 -16t18 -43q0 -26 -18 -43t-45 -17h-715v-531h700q30 0 48 -16t18 -43t-19 -45t-47 -19h-700v-538h719q27 1 45 -17t18 -44t-18 -43t-45 -17
h-723q-55 0 -85 33t-30 82v1202q0 49 30 82t85 33z" />
    <glyph glyph-name="emacron" unicode="&#x113;" horiz-adv-x="1175" 
d="M416 1360h344q23 0 38 -15t15 -38t-15 -37t-38 -15h-344q-23 -1 -37 15t-14 38t14 37t37 15zM887 590q29 0 31 28q12 156 -75 251t-244 95t-239 -98t-79 -276h606zM1036 651v-67q0 -109 -118 -109h-637v-41q0 -160 91 -250t244 -90q113 0 263 56q41 14 67 -4t25 -49
q0 -32 -35 -52q-109 -65 -318 -65q-208 0 -326 120t-128 326q-6 111 2 238q14 192 135 304t313 112t306 -121q116 -120 116 -308z" />
    <glyph glyph-name="Edotaccent" unicode="&#x116;" horiz-adv-x="1275" 
d="M707 1714q33 0 55 -22t20 -55q0 -31 -22 -53t-54 -22t-54 22t-22 54t22 54t55 22zM340 1432h719q27 0 45 -16t18 -43q0 -26 -18 -43t-45 -17h-715v-531h700q30 0 48 -16t18 -43t-19 -45t-47 -19h-700v-538h719q27 1 45 -17t18 -44t-18 -43t-45 -17h-723q-55 0 -85 33
t-30 82v1202q0 49 30 82t85 33z" />
    <glyph glyph-name="edotaccent" unicode="&#x117;" horiz-adv-x="1175" 
d="M588 1380q32 0 54 -22t22 -54t-22 -54t-54 -22t-54 22t-22 54t22 54t54 22zM887 590q29 0 31 28q12 156 -75 251t-244 95t-239 -98t-79 -276h606zM1036 651v-67q0 -109 -118 -109h-637v-41q0 -160 91 -250t244 -90q113 0 263 56q41 14 67 -4t25 -49q0 -32 -35 -52
q-109 -65 -318 -65q-208 0 -326 120t-128 326q-6 111 2 238q14 192 135 304t313 112t306 -121q116 -120 116 -308z" />
    <glyph glyph-name="Eogonek" unicode="&#x118;" horiz-adv-x="1294" 
d="M1044 780q64 0 64 -57q0 -27 -18 -44t-46 -17h-700v-541h719q27 1 45 -17t18 -43q0 -51 -53 -63q-96 -25 -155 -81q-60 -55 -60 -111t31 -82t75 -27t76 25q58 45 93 -1q14 -18 10 -42t-23 -37q-76 -52 -163 -52t-149 56t-63 143q1 131 136 211h-541q-55 0 -85 33t-30 82
v1202q0 49 30 82t85 33h719q27 0 45 -16t18 -43q0 -26 -18 -43t-45 -17h-715v-533h700z" />
    <glyph glyph-name="eogonek" unicode="&#x119;" horiz-adv-x="1175" 
d="M887 590q29 0 31 28q12 158 -75 252t-243 94t-240 -98t-79 -276h606zM686 -207q0 -43 30 -69t68 -25q38 0 91 34q52 35 84 -13t-30 -89q-61 -41 -149 -41t-149 56t-61 152q0 98 98 186q-229 -20 -361 102q-131 123 -143 340q-6 111 2 238q12 192 134 304t314 112
t307 -121q116 -120 115 -308v-67q0 -109 -116 -109h-639v-41q0 -158 90 -249t224 -91t284 56q41 14 67 -4t25 -53q0 -36 -49 -56q-236 -100 -236 -244z" />
    <glyph glyph-name="Ecaron" unicode="&#x11a;" horiz-adv-x="1275" 
d="M501 1790q24 0 38 -12l166 -125l165 125q14 12 37 12t37 -15t14 -42t-22 -41l-180 -131q-58 -43 -105 0l-178 131q-25 16 -25 42t15 41q14 15 38 15zM340 1432h719q27 0 45 -16t18 -43q0 -26 -18 -43t-45 -17h-715v-531h700q30 0 48 -16t18 -43t-19 -45t-47 -19h-700
v-538h719q27 1 45 -17t18 -44t-18 -43t-45 -17h-723q-55 0 -85 33t-30 82v1202q0 49 30 82t85 33z" />
    <glyph glyph-name="ecaron" unicode="&#x11b;" horiz-adv-x="1175" 
d="M382 1452q24 0 38 -12l166 -125l166 125q14 12 36 12t37 -15t15 -42t-23 -41l-180 -131q-58 -43 -105 0l-178 131q-24 16 -24 42t14 41t38 15zM887 590q29 0 31 28q12 156 -75 251t-244 95t-239 -98t-79 -276h606zM1036 651v-67q0 -109 -118 -109h-637v-41
q0 -160 91 -250t244 -90q113 0 263 56q41 14 67 -4t25 -49q0 -32 -35 -52q-109 -65 -318 -65q-208 0 -326 120t-128 326q-6 111 2 238q14 192 135 304t313 112t306 -121q116 -120 116 -308z" />
    <glyph glyph-name="Gbreve" unicode="&#x11e;" horiz-adv-x="1435" 
d="M741 1651q43 -1 77 27t44 69q14 41 46 41t54 -22q21 -22 2 -78q-18 -56 -80 -102t-142 -46t-143 46q-62 46 -85 114q-6 18 -6 36t17 34t40 18q45 0 55 -41t44 -69t77 -27zM1284 637v-154q0 -203 -148 -353t-390 -148q-242 0 -408 162t-182 407q-12 164 0 332
q16 239 183 403t406 164q173 0 311 -88t201 -242q12 -32 -7 -58t-54 -26t-53 39q-57 121 -161 189t-239 67q-186 0 -317 -126q-132 -126 -148 -308q-16 -183 0 -363t146 -307t317 -127t305 102t117 267v158h-338q-27 0 -44 16t-17 43t17 43t44 16h346q53 -1 83 -31t30 -77z
" />
    <glyph glyph-name="gbreve" unicode="&#x11f;" horiz-adv-x="1228" 
d="M612 1315q43 -1 77 27t44 69q14 41 46 41t54 -22t3 -78t-81 -102q-63 -46 -143 -46t-142 46t-85 114q-6 18 -6 36t17 35t40 17q46 0 56 -41t44 -69t76 -27zM600 965q-293 0 -317 -293q-10 -119 0 -262q20 -289 317 -289q186 0 303 94v672q-21 21 -123 50q-102 28 -180 28
zM1022 911v-831q0 -211 -117 -334t-315 -123t-344 90q-47 29 -47 62t17 49t41 16t69 -26q121 -74 262 -74t228 87t87 245v12q-168 -82 -313 -82q-192 0 -302 108t-126 304q-10 129 0 258q16 199 129 303t309 104q123 0 236 -36t159 -70q27 -21 27 -62z" />
    <glyph glyph-name="Gdotaccent" unicode="&#x120;" horiz-adv-x="1435" 
d="M741 1712q33 0 55 -22t22 -55q0 -31 -22 -53t-55 -22t-55 22t-20 54q0 32 21 54t54 22zM1284 637v-154q0 -203 -148 -353t-390 -148q-242 0 -408 162t-182 407q-12 164 0 332q16 239 183 403t406 164q173 0 311 -88t201 -242q12 -32 -7 -58t-54 -26t-53 39
q-57 121 -161 189t-239 67q-186 0 -317 -126q-132 -126 -148 -308q-16 -183 0 -363t146 -307t317 -127t305 102t117 267v158h-338q-27 0 -44 16t-17 43t17 43t44 16h346q53 -1 83 -31t30 -77z" />
    <glyph glyph-name="gdotaccent" unicode="&#x121;" horiz-adv-x="1228" 
d="M612 1382q33 0 55 -22q21 -22 21 -54t-22 -54t-54 -22t-54 22t-22 54t22 54q21 22 54 22zM600 965q-293 0 -317 -293q-10 -119 0 -262q20 -289 317 -289q186 0 303 94v672q-21 21 -123 50q-102 28 -180 28zM1022 911v-831q0 -211 -117 -334t-315 -123t-344 90
q-47 29 -47 62t17 49t41 16t69 -26q121 -74 262 -74t228 87t87 245v12q-168 -82 -313 -82q-192 0 -302 108t-126 304q-10 129 0 258q16 199 129 303t309 104q123 0 236 -36t159 -70q27 -21 27 -62z" />
    <glyph glyph-name="Gcommaaccent" unicode="&#x122;" horiz-adv-x="1435" 
d="M682 -584q-58 0 -57 56q0 16 23 65q24 49 24 111v114q0 25 16 42q16 18 41 18t41 -18t16 -44v-88q0 -131 -57 -225q-21 -31 -47 -31zM1284 637v-154q0 -203 -148 -353t-390 -148q-242 0 -408 162t-182 407q-12 164 0 332q16 239 183 403t406 164q173 0 311 -88t201 -242
q12 -32 -7 -58t-54 -26t-53 39q-57 121 -161 189t-239 67q-186 0 -317 -126q-132 -126 -148 -308q-16 -183 0 -363t146 -307t317 -127t305 102t117 267v158h-338q-27 0 -44 16t-17 43t17 43t44 16h346q53 -1 83 -31t30 -77z" />
    <glyph glyph-name="gcommaaccent" unicode="&#x123;" horiz-adv-x="1228" 
d="M543 1186q0 22 23 71q24 49 24 111v115q0 25 16 42t41 17t41 -17t17 -44v-88q-1 -132 -58 -226q-21 -31 -47 -31t-42 15q-15 13 -15 35zM600 965q-293 0 -317 -293q-10 -119 0 -262q20 -289 317 -289q186 0 303 94v672q-21 21 -123 50q-102 28 -180 28zM1022 911v-831
q0 -211 -117 -334t-315 -123t-344 90q-47 29 -47 62t17 49t41 16t69 -26q121 -74 262 -74t228 87t87 245v12q-168 -82 -313 -82q-192 0 -302 108t-126 304q-10 129 0 258q16 199 129 303t309 104q123 0 236 -36t159 -70q27 -21 27 -62z" />
    <glyph glyph-name="Imacron" unicode="&#x12a;" horiz-adv-x="569" 
d="M113 1692h344q23 0 38 -16t15 -38t-15 -36t-38 -15h-344q-23 -1 -37 15t-14 38t14 36q14 16 37 16zM225 53v1325q-1 27 17 44q18 18 43 18t42 -18t17 -44v-1325q0 -27 -17 -44t-43 -17t-42 17t-17 44z" />
    <glyph glyph-name="imacron" unicode="&#x12b;" horiz-adv-x="546" 
d="M274 1065q25 0 43 -18t19 -43v-951q0 -25 -18 -43t-42 -18q-25 0 -42 18t-17 43v951q0 27 16 44t41 17zM102 1360h344q23 0 38 -15q16 -15 16 -38t-16 -37t-38 -15h-344q-20 -1 -35 15t-15 38t13 37q14 15 37 15z" />
    <glyph glyph-name="Iogonek" unicode="&#x12e;" horiz-adv-x="569" 
d="M135 -195q0 -51 31 -77t78 -25q46 1 74 23t52 18t38 -23q34 -47 -28 -89t-148 -42t-148 58t-61 155q0 160 202 277v1290q-1 27 17 44t43 18q59 0 59 -62v-1309q0 -53 -37 -67q-172 -76 -172 -189z" />
    <glyph glyph-name="iogonek" unicode="&#x12f;" horiz-adv-x="546" 
d="M358 1337q0 -35 -24 -59t-59 -25q-35 0 -59 25q-24 26 -24 60t24 58t60 24t59 -24t23 -59zM135 -195q0 -51 32 -77t76 -27q45 -1 75 23q56 43 91 -3q35 -47 -27 -89t-148 -42t-148 58t-63 155q0 164 190 273q4 4 4 16v903q0 25 17 43t41 18t42 -16q18 -18 19 -43v-934
q0 -47 -37 -65q-164 -82 -164 -193z" />
    <glyph glyph-name="Idotaccent" unicode="&#x130;" horiz-adv-x="569" 
d="M285 1714q33 0 55 -22t20 -55q0 -31 -22 -53t-54 -22t-54 22t-22 54t22 54t55 22zM225 53v1325q-1 27 17 44q18 18 43 18t42 -18t17 -44v-1325q0 -27 -17 -44t-43 -17t-42 17t-17 44z" />
    <glyph glyph-name="dotlessi" unicode="&#x131;" horiz-adv-x="528" 
d="M262 1065q25 0 43 -18t19 -43v-951q0 -25 -18 -43t-42 -18q-25 0 -42 18t-17 43v951q0 27 16 44t41 17z" />
    <glyph glyph-name="Kcommaaccent" unicode="&#x136;" horiz-adv-x="1267" 
d="M621 -584q-56 0 -58 56q0 16 24 65t23 111v114q0 25 16 42q16 18 42 18q25 0 41 -18t16 -44v-88q0 -131 -57 -225q-20 -31 -47 -31zM344 666v-613q0 -27 -17 -44t-42 -17t-42 18t-18 43v1325q-1 27 17 44q18 18 43 18t42 -18t17 -44v-594h14q59 0 119 52l627 587
q20 17 44 17t40 -18t16 -44q0 -25 -18 -43l-656 -604l672 -635q41 -37 4 -84q-14 -20 -38 -20t-48 18l-643 606q-51 49 -119 50h-14z" />
    <glyph glyph-name="kcommaaccent" unicode="&#x137;" horiz-adv-x="1062" 
d="M531 -584q-58 0 -58 56q0 16 24 65t23 111v114q0 25 16 42q16 18 42 18q24 0 40 -18t17 -44v-88q0 -131 -57 -225q-20 -31 -47 -31zM1012 49q0 -25 -18 -41t-41 -16q-24 0 -44 16l-422 428q-49 49 -120 49h-41v-432q0 -27 -18 -44t-42 -17q-25 0 -42 18t-17 43v1333
q0 28 17 46t43 18t42 -18t17 -46v-780h43q68 0 118 51l408 398q20 16 43 16t40 -17t17 -41t-22 -46l-434 -416l452 -457q21 -20 21 -45z" />
    <glyph glyph-name="Lacute" unicode="&#x139;" horiz-adv-x="1150" 
d="M585 1796q19 0 33 -15t14 -44t-28 -43l-278 -144q-18 -6 -34 -6t-31 16t-15 42q0 27 28 43l277 143q16 8 34 8zM223 121v1257q-1 27 17 44q18 18 43 18t42 -18t17 -44v-1257h715q23 -1 42 -19t19 -43t-18 -42t-43 -17h-713q-57 0 -89 35t-32 86z" />
    <glyph glyph-name="lacute" unicode="&#x13a;" horiz-adv-x="546" 
d="M417 1794q18 0 33 -15t15 -44t-29 -43l-278 -144q-18 -6 -34 -6t-31 16t-15 42t28 42l277 144q16 8 34 8zM215 1386q0 28 16 46t42 18t43 -18t18 -46v-1333q0 -25 -18 -43t-42 -18q-25 0 -42 18t-17 43v1333z" />
    <glyph glyph-name="Lcommaaccent" unicode="&#x13b;" horiz-adv-x="1153" 
d="M628 -584q-56 0 -59 56q0 16 24 65t23 111v114q0 25 18 42q18 18 41 18q24 0 40 -18t16 -44v-88q0 -131 -57 -225q-20 -31 -46 -31zM225 121v1257q-1 27 17 44q18 18 43 18t42 -18t17 -44v-1257h715q23 -1 42 -19t19 -43t-18 -42t-43 -17h-713q-57 0 -89 35t-32 86z" />
    <glyph glyph-name="lcommaaccent" unicode="&#x13c;" horiz-adv-x="602" 
d="M277 -467q-58 0 -58 55q0 16 24 66t23 110v115q0 27 16 43t42 16q25 0 41 -16q16 -18 16 -45v-88q0 -131 -57 -225q-20 -31 -47 -31zM270 1386q0 28 16 46t43 18q26 0 43 -18t17 -46v-1333q0 -25 -17 -43t-42 -18t-42 18t-18 43v1333z" />
    <glyph glyph-name="Lcaron" unicode="&#x13d;" horiz-adv-x="1153" 
d="M655 1128q-55 0 -55 58q0 16 26 66t25 108v37q-1 29 15 47t43 18t44 -18t17 -47v-37q0 -103 -53 -191q-23 -41 -62 -41zM225 121v1257q-1 27 17 44q18 18 43 18t42 -18t17 -44v-1257h715q23 -1 42 -19t19 -43t-18 -42t-43 -17h-713q-57 0 -89 35t-32 86z" />
    <glyph glyph-name="lcaron" unicode="&#x13e;" horiz-adv-x="565" 
d="M543 1128q-55 0 -56 58q0 16 26 66t26 108v37q0 29 15 47t42 18t44 -18t17 -47v-37q0 -103 -53 -191q-23 -41 -61 -41zM207 1386q0 28 16 46t42 18t43 -18t18 -46v-1333q0 -25 -18 -43t-42 -18q-25 0 -42 18t-17 43v1333z" />
    <glyph glyph-name="Lslash" unicode="&#x141;" horiz-adv-x="1153" 
d="M225 121v469l-104 -66q-49 -33 -86 19q-14 23 -8 47t26 37l172 106v645q-1 27 17 44q18 18 44 18t42 -18t16 -44v-571l211 133q23 14 49 8t38 -26q13 -20 7 -46t-26 -38l-279 -174v-543h715q25 -1 43 -19t18 -44t-17 -42t-44 -16h-711q-57 0 -90 35t-33 86z" />
    <glyph glyph-name="lslash" unicode="&#x142;" horiz-adv-x="626" 
d="M317 1450q25 0 42 -18t18 -46v-532l108 70q23 14 47 9t39 -25t9 -47q-6 -26 -29 -40l-174 -112v-656q1 -25 -17 -43t-43 -18t-42 18t-17 43v578l-106 -70q-20 -14 -48 -8t-41 28q-14 21 -9 45t28 40l176 112v608q0 28 17 46t42 18z" />
    <glyph glyph-name="Nacute" unicode="&#x143;" horiz-adv-x="1574" 
d="M968 1792q18 0 32 -15t16 -44q0 -29 -29 -43l-278 -144q-18 -6 -34 -6t-31 15q-16 15 -16 42t29 43l277 144q16 8 34 8zM1233 418v960q0 27 17 44q17 18 42 18t42 -18t18 -44v-1272q0 -46 -29 -78t-70 -32q-72 0 -110 59l-797 1264h-6q4 -160 4 -301v-965q0 -25 -17 -43
t-42 -18t-42 18t-18 43v1272q0 53 30 85t90 32t101 -64l789 -1251h4q-6 246 -6 291z" />
    <glyph glyph-name="nacute" unicode="&#x144;" horiz-adv-x="1259" 
d="M761 1456q18 0 33 -15t15 -44t-29 -43l-278 -144q-18 -6 -34 -6t-31 16t-15 42q0 27 29 43l276 143q16 8 34 8zM1069 668v-615q0 -27 -16 -44t-42 -17t-43 17t-18 44v611q0 150 -86 226t-221 75q-188 0 -317 -80v-832q0 -27 -16 -44t-43 -17q-26 0 -43 17t-17 44v854
q0 41 29 62q54 41 162 75t249 35q207 0 315 -107t107 -304z" />
    <glyph glyph-name="Ncommaaccent" unicode="&#x145;" horiz-adv-x="1574" 
d="M748 -584q-56 0 -58 56q0 16 24 65t23 111v114q1 25 17 42q16 18 41 18t41 -18t16 -44v-88q0 -131 -57 -225q-20 -31 -47 -31zM1233 418v960q0 27 17 44q17 18 42 18t42 -18t18 -44v-1272q0 -46 -29 -78t-70 -32q-72 0 -110 59l-797 1264h-6q4 -160 4 -301v-965
q0 -25 -17 -43t-42 -18t-42 18t-18 43v1272q0 53 30 85t90 32t101 -64l789 -1251h4q-6 246 -6 291z" />
    <glyph glyph-name="ncommaaccent" unicode="&#x146;" horiz-adv-x="1259" 
d="M586 -584q-56 0 -58 56q0 16 24 65t23 111v114q-1 25 17 42q18 18 42 18t40 -18t16 -44v-88q0 -131 -57 -225q-21 -31 -47 -31zM1069 668v-615q0 -27 -16 -44t-42 -17t-43 17t-18 44v611q0 150 -86 226t-221 75q-188 0 -317 -80v-832q0 -27 -16 -44t-43 -17q-26 0 -43 17
t-17 44v854q0 41 29 62q54 41 162 75t249 35q207 0 315 -107t107 -304z" />
    <glyph glyph-name="Ncaron" unicode="&#x147;" horiz-adv-x="1574" 
d="M526 1734q0 26 14 41t39 15q24 0 37 -12l166 -125l166 125q14 12 37 12t37 -15t14 -42t-22 -41l-180 -131q-59 -44 -105 0l-178 131q-25 16 -25 42zM1233 418v960q0 27 17 44q17 18 42 18t42 -18t18 -44v-1272q0 -46 -29 -78t-70 -32q-72 0 -110 59l-797 1264h-6
q4 -160 4 -301v-965q0 -25 -17 -43t-42 -18t-42 18t-18 43v1272q0 53 30 85t90 32t101 -64l789 -1251h4q-6 246 -6 291z" />
    <glyph glyph-name="ncaron" unicode="&#x148;" horiz-adv-x="1259" 
d="M425 1454q24 0 38 -12l166 -125l166 125q15 12 37 12t36 -15t14 -42t-22 -41l-180 -131q-58 -43 -105 0l-178 131q-25 16 -25 42t15 41q14 15 38 15zM1069 668v-615q0 -27 -16 -44t-42 -17t-43 17t-18 44v611q0 150 -86 226t-221 75q-188 0 -317 -80v-832q0 -27 -16 -44
t-43 -17q-26 0 -43 17t-17 44v854q0 41 29 62q54 41 162 75t249 35q207 0 315 -107t107 -304z" />
    <glyph glyph-name="Omacron" unicode="&#x14c;" horiz-adv-x="1488" 
d="M571 1692h344q23 0 38 -16t15 -38t-14 -36q-16 -14 -39 -15h-344q-23 -1 -37 15t-14 38t14 36q14 16 37 16zM744 100q190 0 320 126t147 308t0 364t-148 308t-321 125q-190 0 -318 -126q-130 -126 -146 -307q-16 -182 0 -364t146 -308t320 -126zM742 -18q-242 0 -406 162
t-180 407q-12 164 0 332q16 243 181 405t405 162t407 -163q168 -163 184 -404q12 -168 0 -332q-16 -245 -183 -407t-408 -162z" />
    <glyph glyph-name="omacron" unicode="&#x14d;" horiz-adv-x="1212" 
d="M434 1360h344q23 0 38 -15t15 -38t-15 -37t-38 -15h-344q-20 -1 -36 15t-15 38q0 22 14 37t37 15zM606 965q-139 0 -227 -81t-96 -208q-10 -174 1 -297t99 -204t223 -81t222 81q86 81 98 204t2 297q-8 127 -95 208q-88 81 -227 81zM605 1079q185 -1 310 -113t133 -272
t-1 -321q-9 -160 -133 -277q-124 -116 -308 -116t-309 116t-133 276t-1 321t132 273t310 113z" />
    <glyph glyph-name="Ohungarumlaut" unicode="&#x150;" horiz-adv-x="1488" 
d="M867 1540q-21 0 -35 15t-14 39t20 42l204 172q42 26 70 -4q14 -14 14 -39t-18 -41l-207 -174q-14 -10 -34 -10zM595 1540q-20 0 -35 15t-15 39t20 42l205 172q14 10 35 10t35 -14t14 -39t-18 -41l-207 -174q-14 -10 -34 -10zM744 100q190 0 320 126t147 308t0 364
t-148 308t-321 125q-190 0 -318 -126q-130 -126 -146 -307q-16 -182 0 -364t146 -308t320 -126zM742 -18q-242 0 -406 162t-180 407q-12 164 0 332q16 243 181 405t405 162t407 -163q168 -163 184 -404q12 -168 0 -332q-16 -245 -183 -407t-408 -162z" />
    <glyph glyph-name="ohungarumlaut" unicode="&#x151;" horiz-adv-x="1204" 
d="M736 1204q-20 0 -35 16t-15 38q0 24 21 42l204 173q16 10 36 10q20 -1 34 -15t14 -38t-18 -41l-207 -175q-14 -10 -34 -10zM464 1204q-20 0 -35 16t-15 38q0 24 20 42l205 173q14 10 35 10q21 -1 35 -15t14 -38t-18 -41l-207 -175q-14 -10 -34 -10zM606 965
q-139 0 -227 -81t-96 -208q-10 -174 1 -297t99 -204t223 -81t222 81q86 81 98 204t2 297q-8 127 -95 208q-88 81 -227 81zM605 1079q185 -1 310 -113t133 -272t-1 -321q-9 -160 -133 -277q-124 -116 -308 -116t-309 116t-133 276t-1 321t132 273t310 113z" />
    <glyph glyph-name="OE" unicode="&#x152;" horiz-adv-x="2168" 
d="M797 1331q-246 0 -378 -138t-147 -366q-6 -121 0 -237q14 -226 146 -358t379 -132q186 1 309 19v1194q-135 18 -309 18zM1937 780q62 0 64 -57q-1 -27 -19 -44t-45 -17h-712v-541h733q25 1 43 -17t18 -44t-17 -43t-44 -17h-803q-10 0 -132 -9t-228 -9q-299 0 -464 169
t-177 445q-6 113 0 225q10 277 178 453t465 176q98 0 234 -9t183 -9h740q27 0 44 -16t17 -43q0 -26 -18 -43t-43 -17h-729v-533h712z" />
    <glyph glyph-name="oe" unicode="&#x153;" horiz-adv-x="1943" 
d="M1367 965q-157 -1 -240 -99t-76 -276h604q29 0 31 28q12 156 -75 252t-244 95zM606 965q-139 0 -227 -81t-96 -208q-10 -174 1 -297t99 -204t223 -81t222 81t98 214q10 94 0 289q-8 127 -94 207t-226 80zM1804 584q0 -109 -118 -109h-635v-41q0 -162 91 -251t242 -89
q109 0 263 56q41 14 67 -4t25 -49q0 -32 -35 -52q-104 -66 -318 -65q-276 0 -393 210q-133 -211 -387 -210q-184 0 -309 116t-135 295q-8 141 1 303t133 274t310 111q126 0 228 -56t159 -153q125 209 381 209q199 0 315 -120t115 -308v-67z" />
    <glyph glyph-name="Racute" unicode="&#x154;" horiz-adv-x="1388" 
d="M870 1792q18 0 32 -15q16 -15 16 -44t-29 -43l-279 -144q-18 -6 -34 -6t-30 15q-16 15 -16 42t29 43l277 144q16 8 34 8zM344 705h381q362 0 362 303q0 141 -85 223t-248 82h-410v-608zM1253 48q0 -24 -17 -40t-44 -16t-45 22l-404 506q-29 35 -53 50t-61 16h-285v-533
q0 -25 -18 -43t-42 -18t-41 18t-18 43v1262q0 49 32 83t87 34h414q200 0 324 -113t124 -303q0 -363 -377 -416l412 -512q12 -16 12 -40z" />
    <glyph glyph-name="racute" unicode="&#x155;" horiz-adv-x="759" 
d="M601 1454q18 0 33 -15t15 -44t-28 -43l-279 -144q-18 -6 -34 -6t-30 16t-16 42q0 27 29 43l276 143q16 8 34 8zM735 999q0 -20 -16 -36q-17 -17 -41 -17t-72 9t-88 10q-104 1 -154 -49t-51 -156v-705q0 -27 -16 -45t-42 -18t-43 18t-17 45v711q0 147 84 230t237 83
q100 0 170 -20q49 -14 49 -60z" />
    <glyph glyph-name="Rcommaaccent" unicode="&#x156;" horiz-adv-x="1388" 
d="M644 -584q-58 0 -58 56q0 16 23 65q24 49 24 111v114q0 25 17 42q17 18 41 18t40 -18t17 -44v-88q-1 -131 -58 -225q-20 -31 -46 -31zM344 705h381q362 0 362 303q0 141 -85 223t-248 82h-410v-608zM1253 48q0 -24 -17 -40t-44 -16t-45 22l-404 506q-29 35 -53 50t-61 16
h-285v-533q0 -25 -18 -43t-42 -18t-41 18t-18 43v1262q0 49 32 83t87 34h414q200 0 324 -113t124 -303q0 -363 -377 -416l412 -512q12 -16 12 -40z" />
    <glyph glyph-name="rcommaaccent" unicode="&#x157;" horiz-adv-x="759" 
d="M208 -584q-58 0 -58 56q0 16 23 65q24 49 24 111v114q0 25 16 42q16 18 41 18t41 -18t16 -44v-88q0 -131 -57 -225q-20 -31 -46 -31zM735 999q0 -20 -16 -36q-17 -17 -41 -17t-72 9t-88 10q-104 1 -154 -49t-51 -156v-705q0 -27 -16 -45t-42 -18t-43 18t-17 45v711
q0 147 84 230t237 83q100 0 170 -20q49 -14 49 -60z" />
    <glyph glyph-name="Rcaron" unicode="&#x158;" horiz-adv-x="1388" 
d="M438 1734q0 26 14 41t39 15q24 0 37 -12l166 -125l166 125q14 12 37 12t37 -15t14 -42t-22 -41l-181 -131q-59 -43 -104 0l-178 131q-25 16 -25 42zM344 705h381q362 0 362 303q0 141 -85 223t-248 82h-410v-608zM1253 48q0 -24 -17 -40t-44 -16t-45 22l-404 506
q-29 35 -53 50t-61 16h-285v-533q0 -25 -18 -43t-42 -18t-41 18t-18 43v1262q0 49 32 83t87 34h414q200 0 324 -113t124 -303q0 -363 -377 -416l412 -512q12 -16 12 -40z" />
    <glyph glyph-name="rcaron" unicode="&#x159;" horiz-adv-x="759" 
d="M261 1452q24 0 38 -12l166 -125l166 125q14 12 37 12t37 -15t14 -42t-23 -41l-180 -131q-59 -43 -104 0l-179 131q-25 16 -25 42t15 41q14 15 38 15zM735 999q0 -20 -16 -36q-17 -17 -41 -17t-72 9t-88 10q-104 1 -154 -49t-51 -156v-705q0 -27 -16 -45t-42 -18t-43 18
t-17 45v711q0 147 84 230t237 83q100 0 170 -20q49 -14 49 -60z" />
    <glyph glyph-name="Sacute" unicode="&#x15a;" horiz-adv-x="1253" 
d="M810 1792q18 0 33 -15t15 -44t-29 -43l-278 -144q-18 -6 -34 -6t-31 15t-15 42t29 43l276 144q16 8 34 8zM133 180q-1 28 17 46t44 18t82 -40q148 -106 353 -106q204 0 307 79q102 79 102 203t-87 183t-325 103t-351 136q-111 91 -111 264q0 172 126 278t364 106
t378 -117q23 -18 23 -46q-1 -28 -17 -45t-41 -17t-47 18q-147 88 -321 88t-260 -77q-86 -78 -86 -194q1 -116 79 -174t324 -104q246 -47 360 -133t114 -265t-135 -291q-134 -112 -370 -111q-281 0 -491 147q-31 23 -31 51z" />
    <glyph glyph-name="sacute" unicode="&#x15b;" horiz-adv-x="989" 
d="M646 1456q18 0 33 -15t15 -44t-28 -43l-279 -144q-18 -6 -34 -6q-17 0 -31 16t-14 42q0 27 28 43l276 143q16 8 34 8zM528 -20q-229 0 -368 116q-45 43 -15 88q14 20 41 24q26 4 62 -24q36 -26 62 -42q78 -47 206 -47q127 -1 193 55q65 56 65 130q0 76 -42 116t-138 65
l-162 39q-268 66 -268 276q0 139 99 221t265 82t279 -84q23 -18 26 -45t-14 -45q-35 -37 -86 -6q-106 66 -205 66q-246 0 -245 -185q-1 -116 149 -154q173 -44 184 -44q276 -76 277 -283q0 -145 -99 -232t-266 -87z" />
    <glyph glyph-name="Scedilla" unicode="&#x15e;" horiz-adv-x="1253" 
d="M133 180q-1 28 17 46t44 18t82 -40q148 -106 353 -106q204 0 307 79q102 79 102 203t-87 184t-325 104t-351 134q-111 91 -111 264q0 172 126 278t364 106t378 -117q23 -18 23 -46q-1 -28 -17 -45t-41 -17t-47 18q-147 88 -321 88t-260 -77q-86 -78 -86 -194
q1 -116 79 -173t324 -105t360 -133q114 -86 114 -265t-138 -292q-137 -113 -377 -110l-33 -84q74 -4 123 -50t49 -118q0 -156 -243 -236q-31 -12 -56 1t-25 50t44 52q166 53 166 131q0 27 -20 45t-50 18l-61 -4q-29 1 -45 25t-5 55l46 121q-205 25 -371 141q-31 23 -31 51z
" />
    <glyph glyph-name="scedilla" unicode="&#x15f;" horiz-adv-x="985" 
d="M760 280q0 76 -42 116t-138 65l-162 39q-268 66 -268 274q0 141 99 223t265 82t279 -84q23 -18 25 -45t-13 -45q-33 -41 -86 -6q-106 66 -205 66q-246 0 -246 -185q0 -59 46 -104t258 -87q26 -5 30 -7q276 -76 277 -283q0 -131 -84 -218t-228 -99l-32 -82q73 -4 123 -52
t51 -118q0 -141 -248 -238q-27 -10 -51 4t-25 51q0 37 43 52q160 61 160 123q0 29 -18 49t-46 20l-61 -8q-29 1 -46 25t-5 55l43 117q-184 10 -310 116q-20 16 -23 43q-7 61 50 69q26 2 62 -24t62 -42q78 -47 206 -47q126 -1 192 55q66 54 66 130z" />
    <glyph glyph-name="Scaron" unicode="&#x160;" horiz-adv-x="1253" 
d="M622 1536q-28 0 -51 20l-178 132q-25 16 -25 42q1 54 54 56q23 0 37 -12l166 -125l166 125q15 12 37 12t36 -16t14 -42t-22 -40l-180 -132q-26 -20 -54 -20zM133 180q-1 28 17 46t44 18t82 -40q148 -106 353 -106q204 0 307 79q102 79 102 203t-87 183t-325 103t-351 136
q-111 91 -111 264q0 172 126 278t364 106t378 -117q23 -18 23 -46q-1 -28 -17 -45t-41 -17t-47 18q-147 88 -321 88t-260 -77q-86 -78 -86 -194q1 -116 79 -174t324 -104q246 -47 360 -133t114 -265t-135 -291q-134 -112 -370 -111q-281 0 -491 147q-31 23 -31 51z" />
    <glyph glyph-name="scaron" unicode="&#x161;" horiz-adv-x="989" 
d="M488 1180q-28 0 -50 20l-178 131q-24 16 -24 42q1 55 53 57q23 0 37 -13l166 -125l165 125q14 13 37 13t37 -16q15 -16 15 -42q0 -27 -23 -41l-180 -131q-27 -20 -55 -20zM528 -20q-229 0 -368 116q-45 43 -15 88q14 20 41 24q26 4 62 -24q36 -26 62 -42q78 -47 206 -47
q127 -1 193 55q65 56 65 130q0 76 -42 116t-138 65l-162 39q-268 66 -268 276q0 139 99 221t265 82t279 -84q23 -18 26 -45t-14 -45q-35 -37 -86 -6q-106 66 -205 66q-246 0 -245 -185q-1 -116 149 -154q173 -44 184 -44q276 -76 277 -283q0 -145 -99 -232t-266 -87z" />
    <glyph glyph-name="Tcommaaccent" unicode="&#x162;" horiz-adv-x="1212" 
d="M566 -584q-58 0 -58 56q0 16 23 65q24 49 24 111v114q0 25 17 42q17 18 41 18t40 -18t17 -44v-88q-1 -131 -58 -225q-20 -31 -46 -31zM549 53v1260h-443q-27 0 -45 17t-18 42t18 42t45 18h1000q27 0 44 -18t17 -42q0 -25 -18 -42t-43 -17h-438v-1260q0 -27 -16 -44
t-44 -17q-27 0 -43 17t-16 44z" />
    <glyph glyph-name="tcommaaccent" unicode="&#x163;" horiz-adv-x="817" 
d="M424 -584q-58 0 -57 56q0 16 23 65q24 49 24 111v114q0 25 16 42q16 18 41 18t41 -18t16 -44v-88q0 -131 -57 -225q-21 -31 -47 -31zM197 1214q0 28 17 46t42 18t42 -18t17 -46v-176h330q25 0 43 -17t18 -41t-18 -40t-43 -16h-330v-639q0 -87 41 -139t110 -52t124 18
q54 18 81 26q25 7 49 -8t24 -53t-60 -61q-98 -37 -199 -36q-145 0 -217 87t-71 228v919z" />
    <glyph glyph-name="Tcaron" unicode="&#x164;" horiz-adv-x="1212" 
d="M350 1734q0 26 14 41t38 15t38 -12l166 -125l166 125q14 12 37 12t37 -15t14 -42t-22 -41l-181 -131q-59 -43 -104 0l-178 131q-25 16 -25 42zM549 53v1260h-443q-27 0 -45 17t-18 42t18 42t45 18h1000q27 0 44 -18t17 -42q0 -25 -18 -42t-43 -17h-438v-1260
q0 -27 -16 -44t-44 -17q-27 0 -43 17t-16 44z" />
    <glyph glyph-name="tcaron" unicode="&#x165;" horiz-adv-x="821" 
d="M526 1128q-55 0 -55 58q0 16 26 66t25 108v37q0 29 16 47t42 18q27 0 44 -18t17 -47v-37q0 -103 -53 -191q-23 -41 -62 -41zM197 1214q0 28 17 46t42 18t42 -18t17 -46v-176h330q25 0 43 -17t18 -41t-18 -40t-43 -16h-330v-639q0 -87 41 -139t110 -52t124 18q54 18 81 26
q25 7 49 -8t24 -53t-60 -61q-98 -37 -199 -36q-145 0 -217 87t-71 228v919z" />
    <glyph glyph-name="Umacron" unicode="&#x16a;" horiz-adv-x="1531" 
d="M594 1690h344q23 0 38 -16t15 -38q0 -23 -15 -37t-38 -14h-344q-20 0 -36 14q-15 14 -15 37q0 22 14 38t37 16zM1329 1378v-813q0 -258 -160 -421q-159 -162 -403 -162t-404 162t-159 421v813q0 27 17 44q17 18 43 18t42 -18t17 -44v-803q0 -215 124 -345t320 -130
t320 130t124 345v803q0 27 18 44q18 18 43 18q26 0 42 -18t16 -44z" />
    <glyph glyph-name="umacron" unicode="&#x16b;" horiz-adv-x="1259" 
d="M461 1360h344q23 0 38 -15t15 -38t-15 -37t-38 -15h-344q-23 -1 -37 15t-14 38t14 37t37 15zM188 387v617q0 27 18 44t42 17q25 0 42 -17t17 -44v-623q0 -133 82 -210q83 -77 243 -77t300 88v822q0 27 16 44t42 17t43 -17t18 -44v-846q0 -39 -27 -56q-176 -123 -408 -122
q-188 0 -308 108t-120 299z" />
    <glyph glyph-name="Uring" unicode="&#x16e;" horiz-adv-x="1531" 
d="M672 1722q0 -40 28 -66t66 -26q39 0 67 27q27 27 27 65t-27 67q-28 28 -68 28q-41 0 -67 -28t-26 -67zM582 1722q0 76 54 130t130 54t130 -54t54 -130t-54 -130t-130 -54t-130 54t-54 130zM1329 1378v-813q0 -258 -160 -421q-159 -162 -403 -162t-404 162t-159 421v813
q0 27 17 44q17 18 43 18t42 -18t17 -44v-803q0 -215 124 -345t320 -130t320 130t124 345v803q0 27 18 44q18 18 43 18q26 0 42 -18t16 -44z" />
    <glyph glyph-name="uring" unicode="&#x16f;" horiz-adv-x="1259" 
d="M539 1386q-1 -40 27 -66t67 -26t67 27t27 65q0 38 -28 67q-29 28 -67 28t-66 -28t-27 -67zM449 1386q0 76 54 130t130 55q76 0 130 -54q54 -55 54 -131t-54 -130t-130 -54t-130 54t-54 130zM188 387v617q0 27 18 44t42 17q25 0 42 -17t17 -44v-623q0 -133 82 -210
q83 -77 243 -77t300 88v822q0 27 16 44t42 17t43 -17t18 -44v-846q0 -39 -27 -56q-176 -123 -408 -122q-188 0 -308 108t-120 299z" />
    <glyph glyph-name="Uhungarumlaut" unicode="&#x170;" horiz-adv-x="1531" 
d="M867 1540q-21 0 -35 15t-14 39t20 42l204 172q42 26 70 -4q14 -14 14 -39t-18 -41l-207 -174q-14 -10 -34 -10zM595 1540q-20 0 -35 15t-15 39t20 42l205 172q14 10 35 10t35 -14t14 -39t-18 -41l-207 -174q-14 -10 -34 -10zM1329 1378v-813q0 -258 -160 -421
q-159 -162 -403 -162t-404 162t-159 421v813q0 27 17 44q17 18 43 18t42 -18t17 -44v-803q0 -215 124 -345t320 -130t320 130t124 345v803q0 27 18 44q18 18 43 18q26 0 42 -18t16 -44z" />
    <glyph glyph-name="uhungarumlaut" unicode="&#x171;" horiz-adv-x="1259" 
d="M688 1261q0 24 21 42l204 172q16 10 36 10q20 -1 34 -15t14 -40t-18 -39l-207 -174q-14 -11 -34 -11t-35 16t-15 39zM416 1261q0 24 20 42l205 172q14 10 35 10q21 -1 35 -15t14 -40t-18 -39l-207 -174q-14 -11 -34 -11t-35 16t-15 39zM188 387v617q0 27 18 44t42 17
q25 0 42 -17t17 -44v-623q0 -133 82 -210q83 -77 243 -77t300 88v822q0 27 16 44t42 17t43 -17t18 -44v-846q0 -39 -27 -56q-176 -123 -408 -122q-188 0 -308 108t-120 299z" />
    <glyph glyph-name="Uogonek" unicode="&#x172;" horiz-adv-x="1531" 
d="M764 -194q0 -52 31 -78t81 -25t79 23q52 42 89 -5q14 -18 10 -42t-24 -37q-76 -52 -164 -52t-151 58t-64 155q0 96 84 181q-233 10 -383 171t-149 410v805q0 27 17 44q17 18 43 18t42 -18t17 -44v-795q0 -215 124 -345t320 -130t320 130t124 345v795q0 27 18 44
q18 18 43 18q26 0 42 -18t16 -44v-805q0 -201 -98 -345t-268 -206q-109 -41 -154 -98q-45 -58 -45 -110z" />
    <glyph glyph-name="uogonek" unicode="&#x173;" horiz-adv-x="1286" 
d="M1053 1004v-869q0 -45 -37 -63q-106 -56 -168 -118t-62 -149q0 -51 32 -81t77 -31q45 0 94 39q18 14 41 11t37 -21t10 -43q-4 -24 -22 -37q-70 -52 -161 -52q-90 0 -154 60t-64 151q0 90 61 187q-78 -8 -121 -8q-188 0 -308 108t-120 299v617q0 25 18 43t41 18
q24 0 42 -18t18 -43v-623q0 -131 85 -209t224 -78q203 0 318 66v844q0 25 17 43t42 18t43 -18t17 -43z" />
    <glyph glyph-name="Wcircumflex" unicode="&#x174;" horiz-adv-x="1925" 
d="M1164 1540q-22 0 -38 12l-165 123l-166 -123q-14 -12 -38 -12t-38 15t-14 41t24 42l178 131q23 20 51 20t54 -20l180 -131q22 -14 22 -41t-14 -42t-36 -15zM154 1444q40 0 51 -47l287 -1291q0 -6 8 -10t12 10l326 1231q27 103 124 103t125 -103l320 -1233q5 -14 13 -10
t7 10l293 1289q10 51 52 51t58 -23q15 -23 7 -55l-295 -1286q-25 -98 -123 -98t-123 98l-325 1233q-4 10 -10 10t-11 -10l-329 -1233q-25 -98 -123 -98t-123 98l-287 1286q-8 30 9 54t57 24z" />
    <glyph glyph-name="wcircumflex" unicode="&#x175;" horiz-adv-x="1667" 
d="M628 1202q-24 0 -38 16t-14 40q0 26 24 42l178 132q22 20 50 20t55 -20l180 -132q23 -14 23 -41q-1 -55 -54 -57q-20 0 -35 12l-166 123l-165 -123q-14 -12 -38 -12zM145 1069q37 0 52 -47l262 -930q4 -10 10 -10t10 10l228 869q12 53 48 81t79 27q98 0 127 -111
l229 -866q4 -10 10 -10t10 10l258 932q12 45 50 45t56 -26q17 -26 7 -56l-262 -917q-29 -98 -121 -99q-43 0 -77 26t-46 73l-231 882q-2 8 -10 8t-11 -8l-237 -880q-27 -100 -120 -100t-120 98l-262 917q-8 33 8 57t53 25z" />
    <glyph glyph-name="Ycircumflex" unicode="&#x176;" horiz-adv-x="1312" 
d="M858 1540q-22 0 -37 12l-166 123l-166 -123q-13 -12 -37 -12t-38 15t-14 41t24 42l178 131q22 20 50 20t55 -20l180 -131q23 -14 23 -41t-15 -42t-37 -15zM1214 1442q26 0 44 -18q38 -38 2 -83l-488 -602q-4 -6 -27 -32t-26 -49q-2 -23 -2 -35v-570q1 -27 -17 -44
t-43 -17t-42 18t-17 43v570q0 45 -25 75q-4 6 -17 22t-17 21l-486 600q-16 20 -16 43t18 40q18 18 44 18t44 -23l514 -639l512 639q19 23 45 23z" />
    <glyph glyph-name="ycircumflex" unicode="&#x177;" horiz-adv-x="1028" 
d="M526 1454q28 0 54 -20l180 -131q22 -13 22 -41q-1 -55 -53 -58q-20 0 -35 13l-166 122l-166 -122q-14 -13 -38 -13t-37 16q-15 16 -15 40q0 26 25 43l178 131q23 20 51 20zM116 1065q38 0 54 -39l350 -795q4 -8 8 -8t9 8l317 787q20 47 58 47t54 -29t1 -61l-387 -948
q-54 -135 -134 -243q-124 -167 -217 -167q-25 0 -41 16t-16 48t39 51q154 75 254 331l-406 914q-14 33 2 61q17 28 55 27z" />
    <glyph glyph-name="Ydieresis" unicode="&#x178;" horiz-adv-x="1312" 
d="M810 1610q32 0 54 -23t23 -55q0 -32 -23 -52q-22 -22 -54 -22t-54 22t-21 54q-1 32 21 54t54 22zM505 1610q31 0 53 -23t22 -55t-22 -52q-22 -22 -54 -22t-54 22t-22 54t22 54t55 22zM1214 1442q26 0 44 -18q38 -38 2 -83l-488 -602q-4 -6 -27 -32t-26 -49q-2 -23 -2 -35
v-570q1 -27 -17 -44t-43 -17t-42 18t-17 43v570q0 45 -25 75q-4 6 -17 22t-17 21l-486 600q-16 20 -16 43t18 40q18 18 44 18t44 -23l514 -639l512 639q19 23 45 23z" />
    <glyph glyph-name="Zacute" unicode="&#x179;" horiz-adv-x="1191" 
d="M786 1792q18 0 32 -15q16 -15 16 -44t-29 -43l-279 -144q-18 -6 -34 -6t-30 15q-16 15 -16 42t29 43l277 144q16 8 34 8zM1044 0h-796q-59 0 -93 32t-34 78t29 87l792 1116h-752q-27 0 -45 17t-18 42t18 42t45 18h740q59 0 94 -33t35 -77t-39 -101l-784 -1100h808
q26 -1 44 -19t18 -43t-18 -42t-44 -17z" />
    <glyph glyph-name="zacute" unicode="&#x17a;" horiz-adv-x="1013" 
d="M671 1456q19 0 33 -15t14 -44t-28 -43l-278 -144q-18 -6 -34 -6t-31 16t-15 42q0 27 28 43l277 143q16 8 34 8zM846 115q25 1 41 -17t16 -42t-15 -40t-42 -16h-627q-51 0 -83 30t-32 74t35 86l660 738h-602q-25 0 -42 15t-18 40q1 25 17 42t43 17h589q59 0 93 -31
q33 -33 33 -81t-52 -105l-641 -710h627z" />
    <glyph glyph-name="Zdotaccent" unicode="&#x17b;" horiz-adv-x="1191" 
d="M598 1714q32 0 54 -22t22 -55q0 -31 -22 -53t-54 -22t-54 22t-22 54t22 54t54 22zM1044 0h-796q-59 0 -93 32t-34 78t29 87l792 1116h-752q-27 0 -45 17t-18 42t18 42t45 18h740q59 0 94 -33t35 -77t-39 -101l-784 -1100h808q26 -1 44 -19t18 -43t-18 -42t-44 -17z" />
    <glyph glyph-name="zdotaccent" unicode="&#x17c;" horiz-adv-x="1013" 
d="M485 1380q33 0 55 -22t22 -54t-22 -54t-55 -22t-55 22t-20 54q0 32 21 54t54 22zM846 115q25 1 41 -17t16 -42t-15 -40t-42 -16h-627q-51 0 -83 30t-32 74t35 86l660 738h-602q-25 0 -42 15t-18 40q1 25 17 42t43 17h589q59 0 93 -31q33 -33 33 -81t-52 -105l-641 -710
h627z" />
    <glyph glyph-name="Zcaron" unicode="&#x17d;" horiz-adv-x="1191" 
d="M360 1734q0 26 14 41t39 15q24 0 38 -12l165 -125l166 125q14 12 37 12t37 -15t14 -42t-22 -41l-180 -131q-59 -44 -105 0l-178 131q-25 16 -25 42zM1044 0h-796q-59 0 -93 32t-34 78t29 87l792 1116h-752q-27 0 -45 17t-18 42t18 42t45 18h740q59 0 94 -33t35 -77
t-39 -101l-784 -1100h808q26 -1 44 -19t18 -43t-18 -42t-44 -17z" />
    <glyph glyph-name="zcaron" unicode="&#x17e;" horiz-adv-x="1013" 
d="M231 1398q1 26 15 41t38 15t38 -12l165 -125l166 125q14 12 37 12t37 -15q15 -15 15 -42t-23 -41l-180 -131q-59 -44 -105 0l-178 131q-25 16 -25 42zM846 115q25 1 41 -17t16 -42t-15 -40t-42 -16h-627q-51 0 -83 30t-32 74t35 86l660 738h-602q-25 0 -42 15t-18 40
q1 25 17 42t43 17h589q59 0 93 -31q33 -33 33 -81t-52 -105l-641 -710h627z" />
    <glyph glyph-name="florin" unicode="&#x192;" horiz-adv-x="1155" 
d="M827 780q25 0 41 -15t16 -37t-16 -40q-18 -16 -41 -16h-374l-316 -1043q-7 -25 -29 -38t-47 -6t-35 32t-3 51l309 1004h-109q-23 0 -40 16t-17 39t16 38t41 15h142l137 443q37 113 120 171t191 58q193 0 309 -117q16 -16 16 -41t-16 -41t-41 -13t-41 20q-80 84 -215 83
q-96 1 -143 -39t-74 -128l-121 -396h340z" />
    <glyph glyph-name="Scommaaccent" unicode="&#x218;" horiz-adv-x="1253" 
d="M612 -584q-58 0 -57 56q0 16 24 65t23 111v114q0 25 16 42q16 18 41 18t41 -18t17 -44v-88q-1 -131 -58 -225q-21 -31 -47 -31zM133 180q-1 28 17 46t44 18t82 -40q148 -106 353 -106q204 0 307 79q102 79 102 203t-87 183t-325 103t-351 136q-111 91 -111 264
q0 172 126 278t364 106t378 -117q23 -18 23 -46q-1 -28 -17 -45t-41 -17t-47 18q-147 88 -321 88t-260 -77q-86 -78 -86 -194q1 -116 79 -174t324 -104q246 -47 360 -133t114 -265t-135 -291q-134 -112 -370 -111q-281 0 -491 147q-31 23 -31 51z" />
    <glyph glyph-name="scommaaccent" unicode="&#x219;" horiz-adv-x="989" 
d="M478 -584q-58 0 -58 56q0 16 23 65q24 49 24 111v114q0 25 16 42q16 18 41 18t41 -18t17 -44v-88q-1 -131 -58 -225q-20 -31 -46 -31zM528 -20q-229 0 -368 116q-45 43 -15 88q14 20 41 24q26 4 62 -24q36 -26 62 -42q78 -47 206 -47q127 -1 193 55q65 56 65 130
q0 76 -42 116t-138 65l-162 39q-268 66 -268 276q0 139 99 221t265 82t279 -84q23 -18 26 -45t-14 -45q-35 -37 -86 -6q-106 66 -205 66q-246 0 -245 -185q-1 -116 149 -154q173 -44 184 -44q276 -76 277 -283q0 -145 -99 -232t-266 -87z" />
    <glyph glyph-name="circumflex" unicode="&#x2c6;" 
d="M550 1536q-22 0 -38 12l-166 123l-166 -123q-14 -12 -38 -12t-38 15t-14 41t25 42l178 131q23 20 50 20t54 -20l181 -131q22 -14 22 -41t-14 -42t-36 -15z" />
    <glyph glyph-name="caron" unicode="&#x2c7;" 
d="M342 1536q-28 0 -49 20l-178 132q-25 16 -25 42q0 54 53 56q23 0 37 -12l166 -125l166 125q14 12 37 12t37 -16t14 -42t-22 -40l-181 -132q-27 -20 -55 -20z" />
    <glyph glyph-name="breve" unicode="&#x2d8;" 
d="M348 1661q43 0 77 28t44 68q14 41 46 41t54 -22t3 -78q-20 -56 -82 -102t-142 -46t-142 46t-85 114q-6 18 -6 36t17 35t40 17q45 0 55 -41t44 -69t77 -27z" />
    <glyph glyph-name="dotaccent" unicode="&#x2d9;" 
d="M348 1714q32 0 54 -22t22 -55q0 -31 -22 -53t-54 -22t-54 22t-22 54t22 54t54 22z" />
    <glyph glyph-name="ring" unicode="&#x2da;" horiz-adv-x="700" 
d="M272 1713q0 -41 28 -67t67 -26t67 27t27 65q0 38 -28 67q-29 27 -67 27t-66 -26t-28 -67zM182 1712q0 76 54 130t131 54q76 0 130 -54t54 -130t-54 -130t-130 -54q-77 0 -131 54t-54 130z" />
    <glyph glyph-name="ogonek" unicode="&#x2db;" 
d="M287 -195q0 -102 109 -102q50 1 80 23q55 42 89 -5q14 -18 10 -42t-22 -37q-76 -52 -165 -52t-151 58t-63 155q0 168 244 293q12 8 30 8t34 -15t18 -43q0 -28 -37 -48q-176 -80 -176 -193z" />
    <glyph glyph-name="tilde" unicode="&#x2dc;" 
d="M234 1720q60 0 130 -36t98 -37t58 25t54 26t40 -16t16 -40t-24 -45q-72 -61 -132 -61t-132 37t-98 37t-57 -26t-55 -26t-39 16q-15 15 -15 41t24 44q72 61 132 61z" />
    <glyph glyph-name="hungarumlaut" unicode="&#x2dd;" 
d="M386 1540q-20 0 -35 15t-15 39t20 42l205 172q42 26 70 -4q14 -14 14 -39t-18 -41l-207 -174q-14 -10 -34 -10zM114 1540q-20 0 -35 15t-15 39t20 42l205 172q14 10 35 10q20 0 34 -14t14 -39t-18 -41l-207 -174q-13 -10 -33 -10z" />
    <glyph glyph-name="Wgrave" unicode="&#x1e80;" horiz-adv-x="1925" 
d="M1102 1598q0 -28 -16 -43t-32 -15q-17 0 -34 8l-277 142q-29 16 -29 44t16 43q15 15 36 15t33 -8l274 -144q29 -14 29 -42zM154 1444q40 0 51 -47l287 -1291q0 -6 8 -10t12 10l326 1231q27 103 124 103t125 -103l320 -1233q5 -14 13 -10t7 10l293 1289q10 51 52 51
t58 -23q15 -23 7 -55l-295 -1286q-25 -98 -123 -98t-123 98l-325 1233q-4 10 -10 10t-11 -10l-329 -1233q-25 -98 -123 -98t-123 98l-287 1286q-8 30 9 54t57 24z" />
    <glyph glyph-name="wgrave" unicode="&#x1e81;" horiz-adv-x="1667" 
d="M602 1398q0 28 15 43t36 15t33 -8l275 -143q29 -15 29 -43q-1 -56 -54 -58q-12 0 -29 8l-276 142q-29 16 -29 44zM145 1069q37 0 52 -47l262 -930q4 -10 10 -10t10 10l228 869q12 53 48 81t79 27q98 0 127 -111l229 -866q4 -10 10 -10t10 10l258 932q12 45 50 45t56 -26
q17 -26 7 -56l-262 -917q-29 -98 -121 -99q-43 0 -77 26t-46 73l-231 882q-2 8 -10 8t-11 -8l-237 -880q-27 -100 -120 -100t-120 98l-262 917q-8 33 8 57t53 25z" />
    <glyph glyph-name="Wacute" unicode="&#x1e82;" horiz-adv-x="1925" 
d="M1152 1792q18 0 33 -15t15 -44t-29 -43l-278 -144q-18 -6 -34 -6t-31 15t-15 42t29 43l276 144q16 8 34 8zM154 1444q40 0 51 -47l287 -1291q0 -6 8 -10t12 10l326 1231q27 103 124 103t125 -103l320 -1233q5 -14 13 -10t7 10l293 1289q10 51 52 51t58 -23q15 -23 7 -55
l-295 -1286q-25 -98 -123 -98t-123 98l-325 1233q-4 10 -10 10t-11 -10l-329 -1233q-25 -98 -123 -98t-123 98l-287 1286q-8 30 9 54t57 24z" />
    <glyph glyph-name="wacute" unicode="&#x1e83;" horiz-adv-x="1667" 
d="M972 1456q18 0 33 -15t15 -44t-29 -43l-278 -144q-18 -6 -34 -6t-31 16t-15 42q0 27 29 43l276 143q16 8 34 8zM145 1069q37 0 52 -47l262 -930q4 -10 10 -10t10 10l228 869q12 53 48 81t79 27q98 0 127 -111l229 -866q4 -10 10 -10t10 10l258 932q12 45 50 45t56 -26
q17 -26 7 -56l-262 -917q-29 -98 -121 -99q-43 0 -77 26t-46 73l-231 882q-2 8 -10 8t-11 -8l-237 -880q-27 -100 -120 -100t-120 98l-262 917q-8 33 8 57t53 25z" />
    <glyph glyph-name="Wdieresis" unicode="&#x1e84;" horiz-adv-x="1925" 
d="M1113 1712q33 0 55 -22t22 -55q0 -31 -23 -53t-55 -22t-52 22q-22 22 -22 54t22 54t53 22zM808 1712q32 0 54 -22t21 -55q0 -31 -22 -53q-21 -22 -53 -22t-54 22t-23 54q1 32 23 54t54 22zM154 1444q40 0 51 -47l287 -1291q0 -6 8 -10t12 10l326 1231q27 103 124 103
t125 -103l320 -1233q5 -14 13 -10t7 10l293 1289q10 51 52 51t58 -23q15 -23 7 -55l-295 -1286q-25 -98 -123 -98t-123 98l-325 1233q-4 10 -10 10t-11 -10l-329 -1233q-25 -98 -123 -98t-123 98l-287 1286q-8 30 9 54t57 24z" />
    <glyph glyph-name="wdieresis" unicode="&#x1e85;" horiz-adv-x="1667" 
d="M909 1306q-1 32 21 54t54 22t54 -22t23 -54q0 -32 -23 -54q-22 -22 -54 -22t-54 22t-21 54zM602 1306q0 32 22 54t55 22q31 0 53 -22t22 -54t-22 -54t-54 -22t-54 22t-22 54zM145 1069q37 0 52 -47l262 -930q4 -10 10 -10t10 10l228 869q12 53 48 81t79 27q98 0 127 -111
l229 -866q4 -10 10 -10t10 10l258 932q12 45 50 45t56 -26q17 -26 7 -56l-262 -917q-29 -98 -121 -99q-43 0 -77 26t-46 73l-231 882q-2 8 -10 8t-11 -8l-237 -880q-27 -100 -120 -100t-120 98l-262 917q-8 33 8 57t53 25z" />
    <glyph glyph-name="Ygrave" unicode="&#x1ef2;" horiz-adv-x="1312" 
d="M768 1598q0 -28 -15 -43t-33 -15t-34 8l-276 142q-29 16 -29 44t15 43t36 15t33 -8l274 -144q29 -14 29 -42zM1214 1442q26 0 44 -18q38 -38 2 -83l-488 -602q-4 -6 -27 -32t-26 -49q-2 -23 -2 -35v-570q1 -27 -17 -44t-43 -17t-42 18t-17 43v570q0 45 -25 75
q-4 6 -17 22t-17 21l-486 600q-16 20 -16 43t18 40q18 18 44 18t44 -23l514 -639l512 639q19 23 45 23z" />
    <glyph glyph-name="ygrave" unicode="&#x1ef3;" horiz-adv-x="1028" 
d="M670 1262q0 -28 -22 -49t-60 -1l-277 142q-29 16 -29 44t16 43q15 15 36 15t33 -8l274 -143q29 -15 29 -43zM116 1065q38 0 54 -39l350 -795q4 -8 8 -8t9 8l317 787q20 47 58 47t54 -29t1 -61l-387 -948q-54 -135 -134 -243q-124 -167 -217 -167q-25 0 -41 16t-16 48
t39 51q154 75 254 331l-406 914q-14 33 2 61q17 28 55 27z" />
    <glyph glyph-name="endash" unicode="&#x2013;" horiz-adv-x="1234" 
d="M178 526q-27 0 -44 18t-17 43q0 26 17 42t44 16h879q27 0 44 -16t17 -42t-17 -43t-44 -18h-879z" />
    <glyph glyph-name="emdash" unicode="&#x2014;" horiz-adv-x="1980" 
d="M178 526q-27 0 -44 18t-17 43q0 26 17 42t44 16h1624q27 0 45 -16q19 -16 19 -42t-20 -43t-44 -18h-1624z" />
    <glyph glyph-name="quoteleft" unicode="&#x2018;" horiz-adv-x="421" 
d="M256 1178v-74q0 -29 -17 -48q-17 -20 -43 -20t-44 20t-19 48v74q0 123 55 215q23 39 54 39t50 -18t19 -38q1 -20 -27 -73t-28 -125z" />
    <glyph glyph-name="quoteright" unicode="&#x2019;" horiz-adv-x="421" 
d="M305 1376v-73q0 -123 -55 -216q-23 -39 -54 -39t-50 18t-19 38t28 74t27 125v73q0 29 18 48q18 20 43 20q26 0 44 -20t18 -48z" />
    <glyph glyph-name="quotesinglbase" unicode="&#x201a;" horiz-adv-x="421" 
d="M270 145v-75q0 -123 -53 -215q-23 -39 -55 -39t-50 17q-20 17 -20 37t27 74t26 126v75q1 27 19 46t45 19t44 -18q17 -20 17 -47z" />
    <glyph glyph-name="quotedblleft" unicode="&#x201c;" horiz-adv-x="663" 
d="M379 1104v74q0 123 55 215q23 39 54 39t50 -18t19 -38t-27 -73t-26 -125v-74q0 -27 -18 -47q-18 -21 -45 -21q-26 0 -44 20t-18 48zM129 1104v74q0 123 53 215q23 39 55 39t51 -18t19 -38q-1 -20 -27 -73t-26 -125v-74q0 -29 -18 -48q-18 -20 -46 -20t-44 20
q-17 20 -17 48z" />
    <glyph glyph-name="quotedblright" unicode="&#x201d;" horiz-adv-x="663" 
d="M551 1376v-73q0 -123 -55 -216q-23 -39 -54 -39t-50 18t-19 38q1 20 27 74t26 125v73q0 27 18 47q18 21 44 21t44 -20t19 -48zM301 1376v-73q0 -123 -55 -216q-23 -39 -55 -39t-50 18t-18 38t27 74t26 125v73q0 27 18 47q18 21 45 21q26 0 44 -20t18 -48z" />
    <glyph glyph-name="quotedblbase" unicode="&#x201e;" horiz-adv-x="663" 
d="M301 145v-75q0 -123 -55 -215q-23 -39 -54 -39t-50 17t-19 37t27 74t26 126v75q0 27 18 46t45 19q26 0 44 -18q18 -20 18 -47zM551 145v-75q0 -123 -55 -215q-23 -39 -54 -39t-50 17t-19 37q1 20 27 74t26 126v75q0 27 18 46t44 19t44 -18q18 -20 19 -47z" />
    <glyph glyph-name="dagger" unicode="&#x2020;" horiz-adv-x="948" 
d="M532 985h316q27 0 45 -16t18 -42t-18 -43t-45 -18h-316v-1091q0 -27 -16 -44t-41 -17t-43 18q-18 20 -18 43v1091h-316q-27 0 -44 18t-17 43q0 26 17 42t44 16h316v406q0 27 17 44t43 17t42 -17t16 -44v-406z" />
    <glyph glyph-name="daggerdbl" unicode="&#x2021;" horiz-adv-x="948" 
d="M532 985h316q27 0 45 -16t18 -42t-18 -43t-45 -18h-316v-565h316q27 0 45 -18t18 -43t-18 -41t-45 -17h-316v-407q0 -27 -16 -44t-41 -17t-43 18t-18 43v407h-316q-27 0 -44 16t-17 42q0 25 17 43t44 18h316v565h-316q-27 0 -44 18t-17 43q0 26 17 42t44 16h316v406
q0 27 17 44t43 17t42 -17t16 -44v-406z" />
    <glyph glyph-name="bullet" unicode="&#x2022;" horiz-adv-x="966" 
d="M225 717q0 106 76 182t182 76q107 0 183 -76t76 -182t-76 -182t-182 -76t-183 76q-76 76 -76 182z" />
    <glyph glyph-name="ellipsis" unicode="&#x2026;" horiz-adv-x="1273" 
d="M211 231q29 0 48 -20t20 -49v-111q-1 -31 -19 -50t-48 -19t-49 20t-20 49v111q-1 29 19 49t49 20zM639 231q29 0 48 -20t20 -49v-111q-1 -31 -19 -50t-48 -19t-49 20t-20 49v111q-1 29 19 49t49 20zM1063 231q29 0 48 -20t19 -49v-111q0 -31 -18 -50t-48 -19t-49 20
t-20 49v111q-1 29 19 49t49 20z" />
    <glyph glyph-name="perthousand" unicode="&#x2030;" horiz-adv-x="2138" 
d="M1755 561q-76 0 -126 -51q-50 -50 -55 -118t-1 -134t54 -116t127 -50t128 50t55 130q4 47 0 117t-55 121t-127 51zM1755 672q121 0 204 -84t89 -205q4 -57 0 -115q-8 -123 -90 -206q-82 -82 -203 -82t-205 82t-90 206q-4 59 0 115q4 121 89 205t206 84zM1067 561
q-76 0 -126 -51q-50 -50 -55 -118t-1 -134t54 -116t127 -50t128 50t55 130q4 47 0 117t-55 121t-127 51zM1067 672q121 0 204 -84t89 -205q4 -57 0 -115q-8 -123 -90 -206q-82 -82 -203 -82t-205 82t-90 206q-4 59 0 115q4 121 89 205t206 84zM274 283l830 952q14 20 39 22
t43 -13t19 -40q1 -26 -31 -60t-814 -933q-14 -19 -38 -21t-42 12q-17 14 -19 40q-1 25 13 41zM385 1341q-76 0 -126 -51q-50 -50 -55 -118t-1 -134t54 -115q50 -51 127 -51t128 50t55 131q4 47 0 117t-55 120q-51 51 -127 51zM385 1452q121 0 204 -84t89 -205q4 -57 0 -114
q-8 -123 -90 -206t-203 -83t-205 83t-90 206q-4 59 0 114q4 121 89 205t206 84z" />
    <glyph glyph-name="guilsinglleft" unicode="&#x2039;" horiz-adv-x="731" 
d="M104 714q0 67 89 142l243 201q22 18 48 15q26 -2 42 -24t14 -47t-22 -40l-272 -218q-36 -28 0 -57l272 -219q47 -41 8 -90q-41 -47 -90 -8l-243 204q-89 74 -89 141z" />
    <glyph glyph-name="guilsinglright" unicode="&#x203a;" horiz-adv-x="731" 
d="M627 714q0 -67 -88 -141l-246 -204q-20 -17 -47 -15t-43 22t-14 48q3 27 24 43l272 219q38 29 0 57l-272 218q-19 15 -23 41t12 48t44 24q27 2 47 -17l246 -201q88 -75 88 -142z" />
    <glyph glyph-name="fraction" unicode="&#x2044;" horiz-adv-x="614" 
d="M-33 18l572 1440q8 23 30 33q23 10 47 2t33 -32q10 -24 0 -48l-571 -1442q-8 -23 -32 -33t-48 1q-52 22 -31 79z" />
    <glyph glyph-name="Euro" unicode="&#x20ac;" horiz-adv-x="1335" 
d="M174 889h111q14 249 152 405t389 156t403 -160q18 -18 18 -43t-17 -42t-41 -17t-74 46q-107 99 -299 98q-190 -1 -294 -121t-116 -322h423q25 1 42 -17t17 -42t-18 -40t-41 -16h-430v-112h430q25 0 42 -16t17 -41q0 -24 -18 -41t-41 -17h-423q12 -205 114 -327t293 -122
q195 0 301 98q50 46 74 46t42 -16q17 -16 17 -42q0 -25 -18 -45q-154 -159 -403 -159t-389 158t-152 409h-111q-27 0 -44 17t-17 41t17 40t44 17h107v112h-107q-27 0 -44 16t-17 42q0 24 17 40t44 17z" />
    <glyph glyph-name="trademark" unicode="&#x2122;" horiz-adv-x="1247" 
d="M661 1419q46 0 58 -47l102 -389l103 389q14 47 58 47t54 -53l70 -399q8 -37 -25 -43t-37 28l-65 402l-100 -375q-13 -53 -57 -53t-60 53l-100 373l-66 -402q-4 -32 -37 -26t-24 41l67 401q13 53 59 53zM360 1352v-394q0 -12 -10 -22t-22 -10t-22 10q-9 10 -9 22v394h-141
q-31 0 -31 30q0 12 9 22t22 9h342q14 0 23 -9t9 -22q0 -31 -32 -30h-138z" />
    <glyph glyph-name="minus" unicode="&#x2212;" horiz-adv-x="1286" 
d="M1102 657h-918q-27 -1 -44 17t-17 44t17 42t44 16h918q27 0 44 -16t17 -42t-18 -44t-43 -17z" />
    <glyph glyph-name="lessequal" unicode="&#x2264;" horiz-adv-x="1286" 
d="M354 692q0 -16 25 -30l633 -365q22 -12 28 -37t-6 -47q-31 -49 -86 -16l-608 352q-102 61 -102 144t102 143l608 354q57 30 86 -19q12 -20 5 -46t-27 -38l-633 -364q-25 -15 -25 -31zM987 -20h-688q-27 0 -44 17t-17 43t17 42t44 16h688q27 0 44 -16t17 -42t-18 -43
t-43 -17z" />
    <glyph glyph-name="greaterequal" unicode="&#x2265;" horiz-adv-x="1286" 
d="M934 692q0 16 -25 31l-633 364q-20 12 -27 38t5 46q29 49 86 19l608 -354q102 -58 102 -142t-102 -145l-608 -352q-55 -33 -86 16q-12 23 -6 47t28 37l633 365q25 14 25 30zM989 -20h-688q-25 0 -43 17t-18 43t17 42t44 16h688q27 0 44 -16t17 -42t-16 -43
q-18 -17 -45 -17z" />
    <glyph glyph-name="fl" unicode="&#xfb02;" horiz-adv-x="1302" 
d="M979 1386q0 28 16 46t42 18t43 -18t18 -46v-1333q0 -25 -18 -43t-42 -18q-25 0 -42 18t-17 43v1333zM537 1462q217 0 217 -70q0 -60 -58 -63q-12 0 -61 9t-107 10q-178 0 -178 -213v-97h309q25 0 42 -17t17 -41t-18 -40t-41 -16h-309v-871q0 -27 -16 -44t-42 -17t-43 18
t-18 43v871h-79q-27 0 -44 16q-18 16 -18 41t18 41t44 16h79v111q0 141 77 227t229 86z" />
    <glyph glyph-name="Q.alt" horiz-adv-x="1486" 
d="M801 371v-269q171 20 283 142t128 298q16 174 -1 356t-148 308t-321 125q-190 0 -318 -126q-130 -126 -146 -307t-1 -356t127 -297t278 -143v269q0 27 17 46t43 19t42 -19t17 -46zM682 -270v256q-217 20 -364 179q-146 159 -162 386q-12 164 0 332q16 243 181 405
t405 162t407 -163q168 -163 184 -404q12 -168 0 -332q-17 -227 -165 -386t-367 -179v-256q-1 -29 -17 -47q-16 -19 -42 -19t-43 20t-17 46z" />
    <glyph glyph-name="r.alt" horiz-adv-x="759" 
d="M313 63q0 -27 -16 -45t-42 -18t-43 18t-17 45v842q0 35 30 66q117 108 303 108q102 0 166 -18q43 -12 43 -55q0 -23 -14 -39t-41 -17l-139 15q-141 0 -230 -72v-830z" />
    <glyph glyph-name="zero.onum" horiz-adv-x="1284" 
d="M642 973q-161 0 -264 -94q-153 -140 -120 -449q20 -164 122 -257t263 -93q160 0 264 94t121 258q30 311 -122 448q-104 93 -264 93zM644 1083q202 1 342 -121t161 -327q10 -109 -2 -234q-21 -195 -161 -315t-341 -119q-201 0 -339 122t-163 329q-41 370 163 546
q138 118 340 119z" />
    <glyph glyph-name="one.onum" horiz-adv-x="897" 
d="M558 1067q20 0 37 -17t17 -44v-953q0 -27 -16 -44t-42 -17t-43 18t-17 43v858l-312 -137q-26 -10 -50 -3t-34 30q-23 53 29 82l395 176q16 8 36 8z" />
    <glyph glyph-name="two.onum" horiz-adv-x="1187" 
d="M225 0q-98 0 -98 120q0 155 118 245q62 47 129 77q66 30 226 80q160 52 226 106t65 138q0 84 -75 141t-212 57t-226 -43q-89 -45 -125 -101t-69 -56q-59 0 -59 57q0 31 27 70q55 78 173 133t257 55q212 0 320 -90t108 -222t-83 -211q-83 -78 -304 -144t-299 -130
t-78 -163h733q29 -1 46 -17t17 -43t-17 -43t-46 -16h-754z" />
    <glyph glyph-name="three.onum" horiz-adv-x="1198" 
d="M1018 127q0 -244 -193 -381t-549 -137q-37 0 -105 4t-73 57q-2 27 16 45t44 17q68 -6 131 -6q283 0 447 105t163 294q0 129 -87 204t-224 74q-51 0 -92 -6q-42 -6 -58 -6q-16 1 -36 19t-19 43q0 25 16 45l400 426h-641q-25 0 -43 17t-19 42q0 25 18 42t44 17h680
q40 0 68 -26t28 -66t-29 -73l-336 -357q188 12 319 -99q130 -112 130 -294z" />
    <glyph glyph-name="four.onum" horiz-adv-x="1353" 
d="M891 119v811l-586 -811h586zM1237 0h-225v-328q0 -25 -18 -43t-43 -18q-26 0 -43 17t-17 44v328h-604q-39 0 -72 29t-33 75t37 99l539 753q25 33 36 46q11 14 39 30q27 16 69 16t76 -31q34 -32 34 -93v-805h225q25 -1 42 -17t17 -41t-18 -43t-41 -18z" />
    <glyph glyph-name="five.onum" horiz-adv-x="1228" 
d="M1092 160q0 -266 -228 -410t-641 -143q-29 0 -47 16t-18 44t17 43t40 16q362 0 560 108t198 326q0 124 -88 200t-232 76q-98 0 -168 -20t-155 -68q-62 -30 -96 -10t-33 65v523q0 59 33 88q34 29 81 28h627q25 0 43 -17q19 -17 19 -42t-18 -42t-44 -17h-627v-459
q159 88 345 88q186 -1 309 -111t123 -282z" />
    <glyph glyph-name="six.onum" horiz-adv-x="1355" 
d="M1077 457q-1 323 -385 323q-196 0 -393 -110q-15 -283 93 -427q108 -145 302 -145t289 100q94 100 94 259zM1046 1325q-18 0 -84 8t-122 8q-228 0 -372 -143t-163 -395q201 96 412 96t345 -117q134 -118 134 -324t-129 -343t-367 -138q-290 0 -414 205t-104 555
q20 351 194 537t464 186q117 0 200 -16q55 -12 56 -64q0 -23 -16 -39t-34 -16z" />
    <glyph glyph-name="seven.onum" horiz-adv-x="1062" 
d="M139 1042h764q45 0 73 -24t28 -62q0 -37 -21 -73q-311 -519 -425 -747t-173 -484q-14 -49 -55 -49q-76 0 -54 92q70 256 195 509t408 720h-740q-27 0 -44 17t-17 42t17 42t44 17z" />
    <glyph glyph-name="eight.onum" horiz-adv-x="1382" 
d="M689 -18q-253 0 -386 110t-133 297q0 141 74 237t190 126q-98 28 -165 108t-66 219q0 173 127 273q128 100 360 100t358 -100t126 -273q0 -240 -224 -327q123 -39 193 -130t69 -231q0 -189 -135 -299t-388 -110zM682 690q-190 0 -291 -82q-102 -82 -102 -215t99 -213
t301 -80t303 82q102 82 102 214t-111 213t-301 81zM686 1335q-186 1 -274 -69t-88 -192t97 -194t268 -71q171 0 266 72t96 196q0 258 -365 258z" />
    <glyph glyph-name="nine.onum" horiz-adv-x="1341" 
d="M653 336q143 0 266 51q46 18 123 55q0 306 -85 448t-306 142q-186 0 -279 -96t-93 -264q-1 -336 374 -336zM307 -197q125 1 212 9t185 36t161 82q61 52 109 148t62 231q-184 -92 -399 -92t-346 120t-131 335t129 347t362 132q274 0 392 -173t118 -513q-1 -430 -201 -605
t-651 -175q-59 0 -63 55q-2 25 15 44t46 19z" />
    <glyph glyph-name="sterling.alt" horiz-adv-x="1206" 
d="M188 725h154q16 74 51 242q51 253 157 369t286 116q125 0 211 -55q51 -31 22 -82q-29 -45 -91 -13t-172 31q-108 0 -180 -83t-114 -294q-12 -59 -51 -231h375q27 0 44 -15t17 -40q0 -55 -59 -56h-406q-78 -297 -153 -448q-11 -20 -11 -34t23 -13h739q23 1 41 -17
q19 -18 19 -44t-18 -42t-46 -16h-719q-158 0 -157 125q0 38 35 113q83 178 130 376h-127q-59 0 -59 56q0 25 16 40t43 15z" />
    <glyph glyph-name="commaaccent" 
d="M322 -467q-56 0 -58 55q0 16 24 66t23 110v115q1 27 17 43t41 16t41 -16q16 -18 16 -45v-88q0 -131 -57 -225q-20 -31 -47 -31z" />
    <glyph glyph-name="caronSlovak" 
d="M324 1128q-55 0 -56 58q0 16 26 66t25 108v37q-1 29 15 47t43 18t44 -18t17 -47v-37q0 -103 -53 -191q-23 -41 -61 -41z" />
    <glyph glyph-name="g.alt" horiz-adv-x="1105" 
d="M504 457q129 1 209 71t80 184t-76 182t-210 67q-134 0 -213 -69q-79 -70 -79 -182t80 -182t209 -71zM124 -55q28 0 60 -42t62 -72q30 -31 110 -63t204 -32t205 52t81 122t-49 116t-162 46h-213q-116 0 -184 45t-68 111t34 105q34 40 87 54q-98 49 -150 135
q-51 86 -51 185q0 153 113 263t303 109q102 0 207 -41h274q23 0 41 -17t18 -42t-18 -42t-41 -17h-145q72 -92 71 -209q1 -156 -109 -260t-282 -105h-18q-211 0 -211 -92q0 -61 133 -61h207q150 0 244 -73t94 -203t-112 -215q-111 -85 -315 -85t-342 90t-139 178q0 60 61 60z
" />
    <glyph glyph-name="gbreve.alt" horiz-adv-x="1105" 
d="M502 1313q43 -1 77 27t44 69q14 41 46 41t49 -17t17 -35t-6 -36q-23 -68 -85 -114t-142 -46t-143 46q-62 46 -85 114q-6 18 -6 36t18 35t40 17q45 0 55 -41t44 -69t77 -27zM504 457q129 1 209 71t80 184t-76 182t-210 67q-134 0 -213 -69q-79 -70 -79 -182t80 -182
t209 -71zM124 -55q28 0 60 -42t62 -72q30 -31 110 -63t204 -32t205 52t81 122t-49 116t-162 46h-213q-116 0 -184 45t-68 111t34 105q34 40 87 54q-98 49 -150 135q-51 86 -51 185q0 153 113 263t303 109q102 0 207 -41h274q23 0 41 -17t18 -42t-18 -42t-41 -17h-145
q72 -92 71 -209q1 -156 -109 -260t-282 -105h-18q-211 0 -211 -92q0 -61 133 -61h207q150 0 244 -73t94 -203t-112 -215q-111 -85 -315 -85t-342 90t-139 178q0 60 61 60z" />
    <glyph glyph-name="gdotaccent.alt" horiz-adv-x="1105" 
d="M508 1389q32 0 54 -23q22 -22 22 -54t-22 -54t-54 -22t-54 22t-22 54t22 54t54 23zM504 457q129 1 209 71t80 184t-76 182t-210 67q-134 0 -213 -69q-79 -70 -79 -182t80 -182t209 -71zM124 -55q28 0 60 -42t62 -72q30 -31 110 -63t204 -32t205 52t81 122t-49 116
t-162 46h-213q-116 0 -184 45t-68 111t34 105q34 40 87 54q-98 49 -150 135q-51 86 -51 185q0 153 113 263t303 109q102 0 207 -41h274q23 0 41 -17t18 -42t-18 -42t-41 -17h-145q72 -92 71 -209q1 -156 -109 -260t-282 -105h-18q-211 0 -211 -92q0 -61 133 -61h207
q150 0 244 -73t94 -203t-112 -215q-111 -85 -315 -85t-342 90t-139 178q0 60 61 60z" />
    <glyph glyph-name="gcommaaccent.alt" horiz-adv-x="1105" 
d="M449 1364v115q0 25 17 42t41 17t40 -17t16 -44v-88q0 -132 -57 -226q-20 -31 -46 -31q-56 1 -59 56q0 16 24 65t24 111zM504 457q129 1 209 71t80 184t-76 182t-210 67q-134 0 -213 -69q-79 -70 -79 -182t80 -182t209 -71zM124 -55q28 0 60 -42t62 -72q30 -31 110 -63
t204 -32t205 52t81 122t-49 116t-162 46h-213q-116 0 -184 45t-68 111t34 105q34 40 87 54q-98 49 -150 135q-51 86 -51 185q0 153 113 263t303 109q102 0 207 -41h274q23 0 41 -17t18 -42t-18 -42t-41 -17h-145q72 -92 71 -209q1 -156 -109 -260t-282 -105h-18
q-211 0 -211 -92q0 -61 133 -61h207q150 0 244 -73t94 -203t-112 -215q-111 -85 -315 -85t-342 90t-139 178q0 60 61 60z" />
    <glyph glyph-name="ampersand.alt" horiz-adv-x="1404" 
d="M948 1056q0 114 -80 187q-80 74 -234 74q-154 1 -236 -73q-83 -74 -83 -186t79 -182q60 -54 151 -104q231 46 317 108t86 176zM1169 602h164q27 0 46 -17t19 -42t-18 -42t-45 -18h-157q-6 -233 -157 -367t-393 -134t-381 110q-138 110 -138 283q0 246 284 348
q-98 69 -147 147t-49 189q0 166 120 271q121 106 317 106t314 -104t119 -268q0 -165 -104 -252q-105 -87 -331 -138t-316 -118q-90 -68 -89 -188q0 -120 108 -194t300 -74t303 104t117 271q0 127 114 127z" />
    <glyph glyph-name="racute.alt" horiz-adv-x="759" 
d="M605 1423q18 0 33 -15t15 -44t-28 -43l-279 -143q-43 -14 -61 5q-19 19 -19 46t29 43l276 143q16 8 34 8zM313 63q0 -27 -16 -45t-42 -18t-43 18t-17 45v842q0 35 30 66q117 108 303 108q102 0 166 -18q43 -12 43 -55q0 -23 -14 -39t-41 -17l-139 15q-141 0 -230 -72
v-830z" />
    <glyph glyph-name="rcaron.alt" horiz-adv-x="759" 
d="M180 1363q0 26 14 41t38 15t38 -12l166 -125l166 125q14 12 37 12t37 -15t14 -42t-22 -41l-181 -131q-59 -43 -104 0l-178 131q-25 16 -25 42zM313 63q0 -27 -16 -45t-42 -18t-43 18t-17 45v842q0 35 30 66q117 108 303 108q102 0 166 -18q43 -12 43 -55q0 -23 -14 -39
t-41 -17l-139 15q-141 0 -230 -72v-830z" />
    <glyph glyph-name="rcommaaccent.alt" horiz-adv-x="759" 
d="M218 -467q-58 0 -58 55q0 16 24 66t23 110v115q0 27 17 43t41 16t40 -16q16 -18 17 -45v-88q-1 -131 -58 -225q-20 -31 -46 -31zM313 63q0 -27 -16 -45t-42 -18t-43 18t-17 45v842q0 35 30 66q117 108 303 108q102 0 166 -18q43 -12 43 -55q0 -23 -14 -39t-41 -17
l-139 15q-141 0 -230 -72v-830z" />
    </font>
</defs>
</svg>
