<?xml version="1.0" standalone="no"?>
<!DOCTYPE svg PUBLIC "-//W3C//DTD SVG 1.1//EN" "http://www.w3.org/Graphics/SVG/1.1/DTD/svg11.dtd" >
<svg xmlns="http://www.w3.org/2000/svg">
<metadata>
Created by FontPrep 20130207 at Tue Nov  4 15:29:28 2014
 By Mauricio Duran
Copyright (c) 2010 by Miles Newlyn. All rights reserved.
</metadata>
<defs>
<font id="2bb71587d0c3f78c45590a5e26a3702a" horiz-adv-x='1024' >
  <font-face 
    font-family="Rubrik-ExtraLight"
    font-weight="250"
    font-stretch="normal"
    units-per-em="2048"
    panose-1="2 0 5 3 0 0 0 2 0 4"
    ascent="1536"
    descent="-512"
    x-height="1032"
    cap-height="1438"
    bbox="-17.5208 -584 2023 1876"
    underline-thickness="143"
    underline-position="-62"
    unicode-range="U+0020-FB02"
  />
<missing-glyph horiz-adv-x="616" 
 />
    <glyph glyph-name="fi" unicode="fi" 
d="M1001 1055q15 -1 27 -13t12 -28v-981q0 -17 -11 -29t-28 -12q-37 0 -36 41v981q-1 41 36 41zM1069 1360q0 -29 -19 -48q-19 -20 -47 -20q-27 0 -47 20t-20 48q0 29 19 48t47 19t48 -19q19 -19 19 -48zM522 1454q193 0 193 -59q0 -11 -10 -23q-11 -12 -23 -12t-61 9t-99 9
q-209 0 -209 -233v-113h328q17 0 29 -11t12 -27q0 -35 -41 -38h-328v-923q0 -17 -11 -29q-10 -12 -26 -12t-27 12t-11 29v923h-93q-41 0 -41 37q0 15 12 27t29 12h93v113q0 143 69 226q70 83 215 83z" />
    <glyph glyph-name=".notdef" horiz-adv-x="616" 
 />
    <glyph glyph-name=".null" horiz-adv-x="0" 
 />
    <glyph glyph-name="nonmarkingreturn" horiz-adv-x="681" 
 />
    <glyph glyph-name="space" unicode=" " horiz-adv-x="536" 
 />
    <glyph glyph-name="exclam" unicode="!" horiz-adv-x="399" 
d="M238 236v-218q0 -16 -12 -27t-27 -11q-16 0 -27 11q-10 11 -10 27v218q0 16 10 27t26 11t28 -11t12 -27zM201 1427q39 0 39 -41l-9 -888q1 -37 -31 -37t-32 37l-8 888q0 16 11 28t30 13z" />
    <glyph glyph-name="quotedbl" unicode="&#x22;" horiz-adv-x="645" 
d="M473 1395v-312q0 -16 -11 -27q-12 -12 -28 -12t-26 12t-11 27v312q1 16 11 27q10 12 26 12t28 -12t11 -27zM172 1395q0 37 37 39q15 0 27 -12t12 -27v-312q0 -16 -11 -27q-11 -12 -27 -12t-28 12q-10 12 -10 27v312z" />
    <glyph glyph-name="numbersign" unicode="#" horiz-adv-x="1206" 
d="M524 911l-118 -362h272l119 362h-273zM256 948q0 39 41 39h172l141 434q12 29 36 29t34 -17t2 -38l-133 -408h272l142 434q11 29 35 29t34 -17t2 -38l-133 -408h143q16 0 28 -11q12 -10 13 -26q0 -16 -12 -27t-29 -12h-167l-119 -362h151q17 0 29 -11q12 -10 12 -26
t-12 -28t-29 -11h-176l-153 -467q-6 -24 -32 -24t-35 17t-3 36l143 438h-272l-154 -467q-5 -24 -31 -24t-35 17t-3 36l143 438h-139q-16 0 -29 11q-12 11 -12 26q0 39 41 39h164l118 362h-147q-17 -1 -29 11t-12 26z" />
    <glyph glyph-name="dollar" unicode="$" horiz-adv-x="1245" 
d="M596 1317q-182 0 -264 -80t-82 -197q0 -207 338 -270q284 -53 396 -136t112 -243t-126 -259t-308 -97v-176q0 -17 -12 -29t-26 -12q-15 0 -27 12q-11 12 -11 29v180q-217 14 -393 137q-23 16 -23 39t24 32t44 -7q174 -129 403 -129q176 0 278 72q101 73 101 202t-92 195
t-326 110t-332 128q-96 86 -96 236t108 239t304 98v180q0 17 11 29t28 12q37 0 37 -41v-180q184 -20 294 -111q16 -12 17 -29q0 -37 -35 -37q-16 0 -33 13q-127 90 -309 90z" />
    <glyph glyph-name="percent" unicode="%" horiz-adv-x="1376" 
d="M1001 592q-88 0 -150 -60q-61 -60 -65 -134t-2 -126q4 -94 66 -153t151 -59t151 58q62 60 67 154q2 51 0 107q-4 93 -67 153t-151 60zM1001 -8q-119 0 -201 81t-87 197q-4 55 0 111q4 117 87 198q84 81 202 81t201 -82q83 -80 87 -197q4 -55 0 -111q-4 -118 -87 -198
t-202 -80zM385 1384q-89 0 -151 -59t-66 -154q-2 -55 0 -106q4 -93 66 -153t150 -60t152 59q62 59 66 154q2 51 0 106q-4 94 -66 154q-63 59 -151 59zM385 784q-119 0 -202 81t-87 198q-4 55 0 111q4 118 87 198t202 80t202 -81t87 -197q4 -55 0 -111q-4 -117 -87 -198
t-202 -81zM240 256l858 983q10 12 27 14t26 -6q29 -25 4 -53l-862 -987q-25 -29 -53 -6q-27 24 0 55z" />
    <glyph glyph-name="ampersand" unicode="&#x26;" horiz-adv-x="1388" 
d="M659 59q207 0 355 144l-518 463q-150 -43 -212 -118t-62 -201t114 -207q116 -81 323 -81zM293 1090q0 -106 58 -182q58 -77 169 -160q254 61 360 132q105 70 105 194t-90 203t-257 79t-256 -80t-89 -186zM1165 616q0 50 38 50t38 -45v-23q0 -221 -125 -389l172 -152
q29 -29 5 -55t-52 -2l-172 152q-164 -168 -413 -168t-380 102t-131 264q0 276 289 373q-217 180 -217 358q0 147 111 247q110 100 308 102q198 0 312 -96t113 -244q1 -150 -105 -241t-378 -161l483 -430q63 92 84 167q20 75 20 191z" />
    <glyph glyph-name="quotesingle" unicode="'" horiz-adv-x="419" 
d="M172 1395q0 37 37 39q15 0 27 -12t12 -27v-312q0 -16 -11 -27q-11 -12 -27 -12t-28 12q-10 12 -10 27v312z" />
    <glyph glyph-name="parenleft" unicode="(" horiz-adv-x="702" 
d="M652 1626q14 0 26 -11t12 -27t-16 -32q-197 -176 -295 -422t-98 -501q0 -256 98 -502t295 -422q16 -15 16 -31t-11 -27t-27 -11t-27 12q-207 184 -314 441q-106 257 -106 540t106 539t314 442q12 12 27 12z" />
    <glyph glyph-name="parenright" unicode=")" horiz-adv-x="702" 
d="M50 -360q-15 0 -26 11q-26 26 5 58q197 176 295 422t98 502t-98 502t-295 421q-32 32 -5 59q11 11 26 11t28 -12q207 -184 313 -442q107 -258 107 -540t-106 -539t-314 -441q-13 -12 -28 -12z" />
    <glyph glyph-name="asterisk" unicode="*" horiz-adv-x="749" 
d="M82 1242q0 22 18 32t39 -2l201 -123v237q0 41 37 41q14 0 25 -12t12 -29v-237l200 123q18 12 38 3t20 -31t-21 -36l-207 -118l207 -119q21 -12 21 -35t-20 -32t-38 3l-200 121v-235q0 -41 -37 -41t-37 41v235l-201 -121q-18 -12 -39 -2q-20 9 -20 31t22 35l205 119
l-205 118q-20 12 -20 34z" />
    <glyph glyph-name="plus" unicode="+" horiz-adv-x="1286" 
d="M608 238v442h-442q-43 0 -43 38t43 38h442v440q0 43 38 43t38 -43v-440h434q45 0 45 -39q0 -17 -13 -27t-32 -10h-434v-442q0 -43 -38 -43t-38 43z" />
    <glyph glyph-name="comma" unicode="," horiz-adv-x="407" 
d="M178 156q0 37 37 39q15 1 27 -11t12 -28v-119q0 -106 -70 -207q-16 -20 -33 -20t-27 11t-11 22q0 11 8 28q37 53 47 86t10 90v109z" />
    <glyph glyph-name="hyphen" unicode="-" horiz-adv-x="716" 
d="M543 625q17 1 29 -11t12 -27t-12 -27t-29 -11h-369q-16 0 -29 11q-12 11 -12 26q0 39 41 39h369z" />
    <glyph glyph-name="period" unicode="." horiz-adv-x="520" 
d="M166 233q0 39 37 39q15 0 27 -12t12 -27v-217q0 -16 -12 -27t-27 -11q-17 0 -27 10q-10 12 -10 28v217z" />
    <glyph glyph-name="slash" unicode="/" horiz-adv-x="653" 
d="M635 1497q37 -12 20 -53l-585 -1485q-12 -37 -48 -23t-22 52l584 1482q16 41 51 27z" />
    <glyph glyph-name="zero" unicode="0" horiz-adv-x="1394" 
d="M696 57q184 0 297 126t129 333q12 156 0 412q-12 204 -126 326t-300 122t-301 -122t-126 -340t3 -412q14 -193 127 -319t297 -126zM696 -18q-219 0 -357 154t-149 396q-4 129 1 374t147 396q142 150 360 150t356 -148t146 -391q8 -188 0 -381q-10 -242 -148 -396
t-356 -154z" />
    <glyph glyph-name="one" unicode="1" horiz-adv-x="858" 
d="M152 1155q-12 0 -24 11q-11 11 -11 31t22 32l314 190q23 14 43 15q55 0 55 -64v-1337q0 -41 -38 -41t-38 41v1306l-295 -176q-16 -8 -28 -8z" />
    <glyph glyph-name="two" unicode="2" horiz-adv-x="1173" 
d="M131 86q0 130 73 234t238 227q283 209 340 260q113 104 127 221q2 25 2 51q0 121 -89 209t-267 88q-209 0 -340 -174q-15 -20 -33 -20q-38 0 -41 37q0 14 11 28q57 85 161 145t242 60q205 0 319 -106t115 -267q0 -58 -28 -166q-8 -31 -42 -71q-33 -40 -49 -62
q-37 -49 -188 -155q-150 -106 -180 -129q-188 -136 -242 -220t-53 -200h770q41 0 41 -38t-41 -38h-774q-31 0 -51 18t-21 48v20z" />
    <glyph glyph-name="three" unicode="3" horiz-adv-x="1183" 
d="M106 39q0 41 58 37t92 -4q307 0 486 112t180 324q0 143 -98 228t-253 85l-78 -2h-16q-59 0 -59 49q0 25 14 39l389 445h-676q-16 0 -28 11t-13 28q0 37 41 36h699q31 0 49 -17q19 -18 19 -46t-25 -55l-369 -414q18 2 53 2q182 0 305 -107q122 -108 121 -282
q-1 -244 -199 -378t-569 -134l-77 2q-45 0 -46 41z" />
    <glyph glyph-name="four" unicode="4" horiz-adv-x="1345" 
d="M926 449v890l-713 -890h713zM1190 373h-189v-340q0 -17 -10 -29t-28 -12q-37 0 -37 41v340h-729q-20 0 -43 16t-23 45t23 60l710 890q39 50 73 50q64 1 64 -60v-925h189q14 1 25 -11q26 -27 0 -54q-11 -11 -25 -11z" />
    <glyph glyph-name="five" unicode="5" horiz-adv-x="1216" 
d="M209 1356q0 71 72 71h659q16 0 28 -11t13 -27q0 -37 -41 -37h-655v-537q169 109 361 109t308 -114t115 -280q0 -260 -221 -400t-637 -140q-45 0 -45 38t43 38q365 0 575 116t211 342q0 136 -95 230t-270 94t-333 -111q-29 -18 -59 -3t-29 52v570z" />
    <glyph glyph-name="six" unicode="6" horiz-adv-x="1343" 
d="M694 803q-223 0 -428 -115q0 -637 434 -637q197 0 298 110t102 281q0 361 -406 361zM1018 1368q-2 0 -66 7t-129 7q-514 0 -555 -608q219 104 434 104q214 0 344 -110q130 -111 130 -319q0 -209 -124 -341t-365 -132t-369 184t-128 542t163 559q163 200 470 199
q129 0 197 -14q39 -6 39 -39q0 -39 -41 -39z" />
    <glyph glyph-name="seven" unicode="7" horiz-adv-x="1048" 
d="M127 1427h793q31 0 50 -15t19 -40t-16 -51q-305 -508 -437 -771t-186 -525q-6 -35 -39 -35q-45 0 -35 53q61 272 183 519q121 247 444 790h-776q-16 0 -29 11q-12 11 -12 27t12 26q13 11 29 11z" />
    <glyph glyph-name="eight" unicode="8" horiz-adv-x="1370" 
d="M678 1376q-199 0 -293 -83t-94 -216t104 -211q105 -78 283 -78t283 78q104 78 104 211t-94 216t-293 83zM678 1452q223 0 345 -101t122 -268q0 -242 -246 -331q123 -35 202 -128t79 -237q0 -184 -130 -293q-130 -108 -373 -108t-372 108t-129 293q0 143 79 237t202 128
q-246 90 -246 331q0 165 122 267t345 102zM678 61q211 -1 317 91q107 92 107 237t-109 235t-315 89q-206 0 -316 -89q-108 -88 -108 -234t106 -238t318 -91z" />
    <glyph glyph-name="nine" unicode="9" horiz-adv-x="1327" 
d="M645 610q199 0 414 121q2 31 2 86q1 299 -103 431t-309 132t-306 -110t-101 -284q0 -176 102 -276t301 -100zM166 981q0 209 124 342t366 133t364 -162q121 -162 121 -506q0 -437 -218 -614q-112 -90 -260 -132t-362 -52q-45 -2 -45 35t41 41q375 16 556 150t206 431
q-225 -113 -432 -113t-334 120q-127 118 -127 327z" />
    <glyph glyph-name="colon" unicode=":" horiz-adv-x="589" 
d="M258 973q0 37 37 39q15 0 27 -12t12 -27v-217q0 -16 -11 -28t-27 -11q-16 0 -28 11q-10 11 -10 28v217zM258 233q0 39 37 39q16 0 28 -11q11 -12 11 -28v-217q0 -16 -11 -27t-27 -11t-28 10q-10 12 -10 28v217z" />
    <glyph glyph-name="semicolon" unicode=";" horiz-adv-x="589" 
d="M295 973q0 37 37 39q16 0 28 -12t11 -27v-217q1 -16 -11 -28t-28 -11q-16 0 -27 11q-10 11 -10 28v217zM295 156q0 37 37 39q16 1 28 -11t11 -28v-119q0 -106 -70 -207q-15 -20 -33 -20t-32 15t2 46q37 53 47 86t10 90v109z" />
    <glyph glyph-name="less" unicode="&#x3c;" horiz-adv-x="1286" 
d="M933 1331q13 0 24 -11q11 -10 11 -28t-16 -30l-604 -496q-37 -35 -37 -52t37 -46l606 -496q16 -12 16 -30t-16 -34q-17 -17 -47 5l-614 501q-120 103 0 205l612 502q15 10 28 10z" />
    <glyph glyph-name="equal" unicode="=" horiz-adv-x="1286" 
d="M1104 512h-924q-43 0 -43 38t43 38h924q45 0 45 -39q0 -16 -13 -27q-14 -10 -32 -10zM1104 846h-924q-43 0 -43 38t43 38h924q45 0 45 -39q0 -16 -13 -27q-14 -10 -32 -10z" />
    <glyph glyph-name="greater" unicode="&#x3e;" horiz-adv-x="1286" 
d="M361 102q-13 0 -24 12t-11 28q0 17 16 30l606 496q37 35 37 52t-37 46l-604 496q-16 12 -16 29t11 29t25 11q14 0 27 -10l613 -502q59 -51 59 -102t-59 -103l-615 -501q-15 -11 -28 -11z" />
    <glyph glyph-name="question" unicode="?" horiz-adv-x="1153" 
d="M561 233v-217q0 -16 -11 -27q-12 -11 -28 -11t-26 10q-10 12 -11 28v217q1 15 11 27t26 12t28 -11q11 -12 11 -28zM184 1186q-38 0 -41 39q0 12 11 28q147 197 432 197q188 0 297 -104t109 -284t-94 -274q-93 -94 -345 -217q-15 -8 -31 -8t-27 11t-11 34t32 35
q236 102 318 188q82 87 82 231t-89 228q-88 84 -232 84t-227 -40t-153 -130q-13 -18 -31 -18z" />
    <glyph glyph-name="at" unicode="@" horiz-adv-x="1726" 
d="M1026 240q37 0 37 -37q0 -25 -31 -39q-76 -31 -164 -31q-147 0 -246 98t-100 258v136q0 149 98 249t247 100q147 0 245 -100q98 -102 98 -249v-267q0 -57 41 -98t99 -41t97 41q40 41 40 96v371q0 281 -178 457q-179 176 -437 176t-434 -165t-197 -411t-1 -465
q22 -274 202 -422t412 -149q125 0 244 51q20 8 38 0q18 -7 19 -31q0 -24 -27 -36q-119 -57 -272 -58q-262 0 -465 168t-227 484q-18 199 0 442q23 287 216 477q194 191 486 191t495 -198q202 -198 202 -499v-374q1 -95 -63 -157t-150 -62t-151 62t-64 157v258q0 113 -76 195
t-193 81q-116 0 -192 -75t-76 -201v-136q0 -125 77 -201t193 -77q60 -1 102 15t56 16z" />
    <glyph glyph-name="A" unicode="A" horiz-adv-x="1357" 
d="M678 1374q-52 0 -72 -57l-256 -703h656l-256 703q-20 57 -72 57zM1253 0q-23 0 -32 27l-187 512h-712l-187 -512q-9 -25 -33 -25t-34 17t-5 36l463 1266q46 127 152 127t151 -127l463 -1266q6 -19 -5 -37t-34 -18z" />
    <glyph glyph-name="B" unicode="B" horiz-adv-x="1368" 
d="M317 774h486q143 0 226 80t83 217t-80 209t-229 72h-486v-578zM317 698v-622h488q172 0 260 84t88 227t-90 227t-229 84h-517zM1231 393q0 -185 -111 -289t-307 -104h-496q-76 0 -75 76v1276q0 32 19 54t56 21h469q197 0 300 -94t104 -264q0 -123 -60 -208t-145 -120
q102 -37 174 -123t72 -225z" />
    <glyph glyph-name="C" unicode="C" horiz-adv-x="1355" 
d="M727 57q145 0 264 83t168 214q13 31 33 31q44 0 43 -37q0 -14 -10 -37q-66 -145 -200 -236t-300 -91q-231 0 -387 158t-172 395q-6 81 -6 169t6 191q16 231 173 390t388 159q164 0 298 -92t200 -236q10 -23 10 -38t-11 -25q-11 -11 -32 -11t-33 31q-49 131 -168 214
t-264 83q-195 0 -331 -135t-151 -327t0 -388q15 -194 148 -330t334 -135z" />
    <glyph glyph-name="D" unicode="D" horiz-adv-x="1474" 
d="M696 0h-381q-35 0 -54 22t-19 54v1276q0 32 19 54t54 21h381q285 -1 443 -167t170 -439q4 -131 -2 -225q-14 -266 -173 -431t-438 -165zM317 1352v-1276h373q260 0 396 138t147 380q6 123 0 246q-13 240 -149 376t-394 136h-373z" />
    <glyph glyph-name="E" unicode="E" horiz-adv-x="1273" 
d="M317 1427h752q39 0 39 -38q0 -13 -11 -25t-28 -12h-752v-594h736q16 0 27 -12q26 -27 0 -53q-11 -11 -27 -11h-736v-606h756q15 0 27 -11t12 -27t-11 -28q-11 -10 -28 -10h-756q-76 0 -75 76v1276q0 33 19 54t56 21z" />
    <glyph glyph-name="F" unicode="F" horiz-adv-x="1200" 
d="M242 31v1323q0 30 19 52t54 21h760q39 0 39 -38q0 -13 -11 -25t-28 -12h-758v-615h719q39 0 39 -39q0 -14 -11 -25t-28 -11h-719v-631q0 -15 -11 -27t-26 -12t-27 11q-11 12 -11 28z" />
    <glyph glyph-name="G" unicode="G" horiz-adv-x="1437" 
d="M1270 647v-168q0 -197 -146 -347t-384 -148q-236 0 -396 160t-176 405q-12 166 0 334q16 239 175 401t386 162q367 0 508 -316q10 -24 10 -38t-11 -24t-32 -11q-21 0 -33 30q-49 133 -171 209t-271 76q-193 0 -329 -136t-152 -328t-1 -382q15 -192 151 -329t334 -137
t330 112q132 113 132 295v182h-381q-16 0 -29 11q-12 12 -12 28t12 28t29 11h377q40 -1 60 -23t20 -57z" />
    <glyph glyph-name="H" unicode="H" horiz-adv-x="1554" 
d="M242 1399q0 37 37 39q39 0 38 -39v-643h920v643q0 16 11 27t28 12q37 0 37 -39v-1368q0 -39 -37 -39q-14 0 -27 12q-12 12 -12 27v649h-920v-647q0 -17 -11 -29t-27 -12q-37 0 -37 41v1366z" />
    <glyph glyph-name="I" unicode="I" horiz-adv-x="559" 
d="M242 1399q0 37 37 39q39 0 38 -39v-1368q1 -39 -37 -39t-38 39v1368z" />
    <glyph glyph-name="J" unicode="J" horiz-adv-x="1005" 
d="M86 205q0 12 11 23q11 12 30 12t33 -23q90 -158 252 -158q122 0 204 83t82 231v1026q0 16 10 27t27 12q39 0 39 -39v-1034q0 -169 -104 -275t-256 -106q-100 0 -186 52q-85 52 -130 132q-12 25 -12 37z" />
    <glyph glyph-name="K" unicode="K" horiz-adv-x="1263" 
d="M242 1399q0 37 37 39q39 0 38 -39v-635h17q38 0 60 8t59 43l665 608q35 27 58 1t-9 -56l-702 -639l727 -670q29 -25 2 -55q-12 -12 -28 -12t-25 10l-688 635q-35 33 -58 42t-61 9h-17v-657q0 -39 -38 -39q-14 0 -26 11q-11 11 -11 28v1368z" />
    <glyph glyph-name="L" unicode="L" horiz-adv-x="1122" 
d="M242 1399q0 37 37 39q39 0 38 -39v-1323h754q17 0 29 -10t12 -26t-12 -28t-29 -12h-754q-35 0 -55 22t-20 54v1323z" />
    <glyph glyph-name="M" unicode="M" horiz-adv-x="1857" 
d="M932 -2q-80 0 -107 94l-338 1256q-8 33 -34 32q-29 0 -33 -34l-203 -1326q-6 -30 -32 -30q-49 1 -42 47l199 1317q8 46 38 74t73 28q84 0 108 -92l342 -1266q6 -24 29 -24t29 24l333 1266q25 92 109 92q43 0 73 -28t37 -74l205 -1317q4 -19 -7 -33t-37 -14t-32 30
l-204 1326q-6 35 -35 34q-27 0 -35 -32l-330 -1256q-26 -94 -106 -94z" />
    <glyph glyph-name="N" unicode="N" horiz-adv-x="1576" 
d="M1335 74q0 -78 -77 -78q-39 0 -70 47l-866 1313h-5v-1323q0 -39 -38 -39q-14 0 -26 11q-11 11 -11 28v1329q0 78 77 78q39 0 70 -47l866 -1317h5v1323q0 16 10 27t26 12q39 0 39 -39v-1325z" />
    <glyph glyph-name="O" unicode="O" horiz-adv-x="1484" 
d="M741 59q201 1 339 135t158 328t0 386q-18 192 -158 327t-340 135t-337 -135t-156 -327t0 -386t156 -328t338 -135zM742 -16q-234 0 -395 160t-179 405q-12 166 0 334q16 239 178 401t395 162t397 -162t179 -401q12 -168 0 -334q-16 -245 -178 -405q-163 -160 -397 -160z
" />
    <glyph glyph-name="P" unicode="P" horiz-adv-x="1310" 
d="M741 588h-424v-557q0 -15 -11 -27t-27 -12t-27 11q-10 11 -10 28v1321q0 32 20 54t55 21h441q196 1 314 -111t118 -310t-120 -308t-329 -110zM317 664h433q188 0 276 92t88 250t-89 252t-263 94h-445v-688z" />
    <glyph glyph-name="Q" unicode="Q" horiz-adv-x="1486" 
d="M741 59q133 0 240 60l-244 303q-25 30 5 56t57 -5l250 -309q166 133 190 371q18 181 -1 373q-18 192 -158 327t-340 135t-337 -135t-156 -327t0 -386t156 -328t338 -135zM1323 -191q0 -15 -11 -27q-12 -12 -30 -11q-18 0 -31 16l-221 272q-129 -76 -289 -75
q-233 0 -394 160t-179 405q-12 166 0 334q16 239 178 401t395 162t397 -162t179 -401q12 -168 0 -334q-18 -281 -221 -443l217 -268q10 -14 10 -29z" />
    <glyph glyph-name="R" unicode="R" horiz-adv-x="1388" 
d="M317 688h416q385 0 385 324q0 156 -90 248t-258 92h-453v-664zM633 612h-316v-579q0 -15 -11 -27t-26 -12t-27 11q-11 11 -11 28v1319q0 32 20 54t55 21h439q206 1 322 -109t116 -306q0 -352 -401 -398l440 -557q14 -18 6 -41q-8 -22 -32 -22t-33 14l-429 541
q-29 37 -51 50t-61 13z" />
    <glyph glyph-name="S" unicode="S" horiz-adv-x="1241" 
d="M1143 391q0 -188 -130 -298q-130 -109 -381 -109t-466 143q-23 14 -23 39q0 39 39 39q12 0 29 -10q193 -135 413 -135t332 85q112 86 111 246q0 200 -281 265q-51 13 -199 46t-244 88q-95 54 -135 122t-40 161q0 173 126 273t352 100t370 -117q16 -12 16 -31
q0 -39 -37 -38q-16 0 -37 14q-142 96 -332 96t-286 -84t-96 -206t78 -189t216 -99q50 -12 135 -30t142 -34q163 -47 234 -113q94 -87 94 -224z" />
    <glyph glyph-name="T" unicode="T" horiz-adv-x="1198" 
d="M563 33v1319h-473q-16 0 -29 11q-12 11 -12 28q0 37 41 36h1018q41 0 41 -36q0 -15 -12 -27t-29 -12h-469v-1319q0 -17 -11 -29t-28 -12q-37 0 -37 41z" />
    <glyph glyph-name="U" unicode="U" horiz-adv-x="1531" 
d="M1239 1399q0 37 38 38t38 -38v-846q0 -252 -156 -411q-155 -158 -393 -158t-392 158t-155 411v846q0 37 38 38t38 -38v-830q0 -229 132 -369t339 -140t340 140t133 369v830z" />
    <glyph glyph-name="V" unicode="V" horiz-adv-x="1327" 
d="M664 59q23 0 30 23l500 1327q8 27 34 27t37 -18t3 -40l-494 -1300q-36 -94 -110 -94t-111 94l-492 1306q-5 18 5 36t34 18t33 -27l500 -1329q8 -23 31 -23z" />
    <glyph glyph-name="W" unicode="W" horiz-adv-x="1855" 
d="M954 1358q-6 0 -8 -6l-368 -1297q-18 -71 -92 -71t-91 73l-303 1334q-4 18 6 33q10 16 36 16t32 -29l303 -1337q4 -14 16 -14t17 14l366 1284q20 78 87 78t87 -78l357 -1284q4 -14 17 -14t16 14l313 1335q6 31 37 31q18 0 28 -12t11 -25l-314 -1348q-16 -71 -90 -71
t-92 73l-364 1295q-1 6 -7 6z" />
    <glyph glyph-name="X" unicode="X" horiz-adv-x="1292" 
d="M1204 29q0 -35 -37 -35q-23 0 -30 14l-496 639l-491 -639q-8 -14 -31 -14q-37 0 -37 35q0 16 10 28l502 656l-504 659q-14 18 -5 41t31 23t31 -15l496 -649l496 649q9 15 31 15t31 -23t-5 -41l-506 -661l504 -654q10 -12 10 -28z" />
    <glyph glyph-name="Y" unicode="Y" horiz-adv-x="1302" 
d="M1222 1440q17 0 34 -17t-5 -47l-526 -651q-35 -45 -35 -92v-602q0 -15 -11 -27t-27 -12t-26 11q-11 11 -12 28v602q0 45 -39 92l-524 653q-8 10 -8 24t11 25q12 11 28 11t27 -13l542 -675l543 675q11 15 28 15z" />
    <glyph glyph-name="Z" unicode="Z" horiz-adv-x="1185" 
d="M180 1427h834q36 0 58 -19t22 -47t-17 -50l-858 -1235h834q41 0 41 -37q0 -15 -12 -27t-29 -12h-834q-35 0 -57 19t-23 47q0 28 17 51l858 1235h-834q-16 0 -28 11t-12 27t12 26q12 11 28 11z" />
    <glyph glyph-name="bracketleft" unicode="[" horiz-adv-x="694" 
d="M670 -319q0 -15 -12 -27t-29 -12h-320q-37 0 -57 22t-21 53v1833q1 29 21 52t55 22h322q41 0 41 -37q0 -14 -12 -26t-29 -13h-322v-1831h322q41 1 41 -36z" />
    <glyph glyph-name="backslash" unicode="\" horiz-adv-x="638" 
d="M10 1497q35 14 51 -27l584 -1482q11 -39 -23 -52t-47 23l-585 1485q-17 41 20 53z" />
    <glyph glyph-name="bracketright" unicode="]" horiz-adv-x="694" 
d="M27 -319q0 37 41 36h321v1831h-321q-16 0 -28 12t-13 27q0 37 41 37h321q35 0 55 -22t21 -52v-1833q-1 -31 -21 -53t-57 -22h-319q-16 0 -29 11q-12 12 -12 28z" />
    <glyph glyph-name="asciicircum" unicode="^" horiz-adv-x="1384" 
d="M1002 748q-24 0 -33 24l-248 598q-11 25 -29 25t-28 -25l-248 -598q-10 -24 -34 -24t-36 17t-4 36l240 569q40 98 110 98t111 -98l239 -569q8 -17 -4 -35t-36 -18z" />
    <glyph glyph-name="underscore" unicode="_" horiz-adv-x="966" 
d="M967 -315v-76h-967v76h967z" />
    <glyph glyph-name="grave" unicode="`" horiz-adv-x="659" 
d="M189 1763q13 0 26 -6l277 -141q24 -12 24 -32t-11 -32q-11 -10 -25 -10t-25 6l-277 142q-24 12 -24 32t11 30t24 11z" />
    <glyph glyph-name="a" unicode="a" horiz-adv-x="1159" 
d="M225 319q-1 -262 349 -262q186 0 311 103v342q-197 57 -342 57t-232 -64q-86 -65 -86 -176zM961 715v-572q0 -31 -23 -45q-164 -116 -372 -116t-312 89t-104 239t105 238t267 87q162 0 363 -55v133q0 281 -307 280q-139 0 -283 -67q-23 -10 -42 1t-19 35t24 37
q131 70 320 70q383 0 383 -354z" />
    <glyph glyph-name="b" unicode="b" horiz-adv-x="1232" 
d="M641 993q-94 1 -192 -27t-152 -59v-747q49 -35 148 -69t182 -34q309 1 344 314q14 139 0 317q-23 305 -330 305zM627 -18q-109 0 -221 42t-164 78q-20 14 -21 45v1254q0 43 39 43q16 0 26 -12t11 -31v-412q182 80 355 80t278 -101t121 -294q12 -145 0 -289
q-17 -195 -123 -299t-301 -104z" />
    <glyph glyph-name="c" unicode="c" horiz-adv-x="1138" 
d="M614 57q102 -1 188 55t120 167q8 37 41 36q14 0 25 -11t11 -35q1 -25 -23 -71t-67 -96t-122 -86q-79 -35 -173 -34q-192 0 -310 114t-124 289q-8 145 0 289q8 178 127 289t307 110q94 0 173 -35t122 -85q92 -107 90 -175q0 -16 -11 -27t-25 -12q-33 0 -41 37
q-33 111 -119 166t-189 55q-154 0 -250 -87t-106 -230q-10 -174 0 -308t103 -224t253 -91z" />
    <glyph glyph-name="d" unicode="d" horiz-adv-x="1228" 
d="M260 371q35 -313 344 -314q82 0 182 34t148 67v749q-54 31 -152 59t-192 27q-307 0 -330 -305q-14 -178 0 -317zM934 1401q0 43 38 43t38 -43v-1254q0 -31 -21 -45q-53 -36 -165 -78t-220 -42q-195 0 -301 104t-123 299q-12 144 0 289q16 193 120 294t278 101t356 -80
v412z" />
    <glyph glyph-name="e" unicode="e" horiz-adv-x="1175" 
d="M915 567q31 0 33 33q8 182 -84 288t-263 105t-262 -111t-87 -315h663zM1024 647v-55q0 -100 -106 -100h-666v-56q0 -178 99 -278t251 -100t297 61q9 4 23 4t24 -11t10 -31q0 -43 -169 -79q-93 -20 -166 -20q-209 0 -322 118t-123 328q-4 115 4 227q10 193 129 303
t303 111q184 0 298 -120t114 -302z" />
    <glyph glyph-name="f" unicode="f" horiz-adv-x="727" 
d="M522 1454q193 0 193 -59q0 -11 -10 -23q-11 -12 -23 -12t-61 9t-99 9q-209 0 -209 -233v-113h328q17 0 29 -11t12 -27q0 -35 -41 -38h-328v-923q0 -17 -11 -29q-10 -12 -26 -12t-27 12t-11 29v923h-93q-41 0 -41 37q0 15 12 27t29 12h93v113q0 143 69 226q70 83 215 83z
" />
    <glyph glyph-name="g" unicode="g" horiz-adv-x="1228" 
d="M598 993q-313 0 -344 -311q-12 -123 0 -285q29 -317 346 -317q207 0 332 104v725q-48 33 -142 59t-192 25zM1008 913v-827q0 -199 -109 -326t-303 -127t-336 95q-37 25 -37 47q0 39 39 39q16 0 45 -21q119 -86 279 -86q160 -1 253 101t93 268v16q-172 -88 -348 -88
t-286 109t-122 299q-8 127 0 254q12 195 122 299t304 104q106 0 210 -29t163 -67q33 -23 33 -60z" />
    <glyph glyph-name="h" unicode="h" horiz-adv-x="1265" 
d="M297 1403v-508q70 78 171 127t206 49q172 0 280 -102t107 -293v-643q0 -41 -37 -41q-16 0 -28 11q-11 11 -11 30v639q0 150 -80 236t-209 87q-129 0 -233 -58t-166 -146v-760q0 -39 -38 -39t-38 39v1372q0 17 11 29q10 12 26 12t28 -12q11 -13 11 -29z" />
    <glyph glyph-name="i" unicode="i" horiz-adv-x="534" 
d="M266 1055q16 -1 28 -13t11 -28v-981q0 -17 -11 -29t-28 -12q-37 0 -37 41v981q0 41 37 41zM334 1360q0 -29 -20 -48q-20 -20 -47 -20q-28 0 -47 20t-19 48q0 29 19 48t47 19q27 0 47 -19t20 -48z" />
    <glyph glyph-name="j" unicode="j" horiz-adv-x="514" 
d="M313 1360q0 -29 -19 -48q-19 -20 -47 -20t-47 20t-20 48q0 29 20 48t47 19q28 0 47 -19t19 -48zM75 -393q-38 0 -38 37q0 18 12 30q90 98 125 190t35 234v916q0 41 37 41q16 1 27 -11t12 -28v-901q0 -173 -42 -277t-137 -215q-14 -16 -31 -16z" />
    <glyph glyph-name="k" unicode="k" horiz-adv-x="1048" 
d="M221 1405q0 39 38 39t38 -39v-821h51q45 0 68 10t55 43l428 412q13 14 29 14t27 -11q28 -28 -5 -61l-463 -446l484 -482q14 -14 14 -30q0 -15 -11 -27q-12 -12 -28 -12t-28 12l-447 447q-33 33 -57 44t-68 11h-49v-477q0 -39 -38 -39t-38 37v1376z" />
    <glyph glyph-name="l" unicode="l" horiz-adv-x="518" 
d="M221 1403q0 41 38 41t38 -41v-1370q0 -41 -37 -41q-16 0 -28 12q-11 12 -11 29v1370z" />
    <glyph glyph-name="m" unicode="m" horiz-adv-x="1818" 
d="M1614 684v-651q0 -17 -11 -29t-28 -12q-37 0 -37 41v651q0 311 -287 311q-102 0 -185 -45t-132 -100q23 -74 22 -172v-645q0 -41 -36 -41q-16 0 -28 12q-11 12 -11 29v653q0 156 -77 233t-212 76q-180 0 -293 -88v-874q0 -41 -39 -41q-14 0 -26 12q-11 12 -11 29v878
q0 33 35 60q131 100 341 100t304 -147q152 147 348 147q363 0 363 -387z" />
    <glyph glyph-name="n" unicode="n" 
d="M1063 676v-643q0 -41 -37 -41q-16 0 -28 12q-11 12 -11 29v641q0 319 -338 319q-201 0 -348 -92v-868q0 -41 -39 -41q-14 0 -25 12t-12 29v874q0 39 35 60q168 102 376 102t318 -99t109 -294z" />
    <glyph glyph-name="o" unicode="o" horiz-adv-x="1210" 
d="M606 993q-152 0 -246 -86t-102 -223q-8 -184 2 -318t104 -222t242 -87q147 0 241 87q93 88 105 226t2 294t-103 243q-93 86 -245 86zM605 1069q181 0 300 -110t127 -285q8 -143 0 -287q-8 -176 -128 -291q-120 -114 -299 -114t-300 114t-127 291q-6 143 0 287
q6 176 126 286t301 109z" />
    <glyph glyph-name="p" unicode="p" horiz-adv-x="1234" 
d="M627 993q-83 -1 -181 -33t-147 -67v-750q53 -31 151 -59t191 -27q307 0 330 305q14 179 0 318q-35 313 -344 313zM297 -350q0 -43 -38 -43t-38 43v1253q0 31 21 45q53 37 165 79t220 42q195 0 301 -104t123 -299q12 -144 0 -289q-17 -193 -121 -294t-278 -101t-355 79
v-411z" />
    <glyph glyph-name="q" unicode="q" horiz-adv-x="1228" 
d="M592 57q94 0 192 28t152 58v750q-48 33 -148 67t-182 33q-309 0 -344 -313q-14 -139 0 -318q23 -305 330 -305zM606 1069q108 0 220 -42t165 -79q20 -14 21 -45v-1253q0 -43 -39 -43q-16 0 -27 12q-10 12 -10 31v411q-182 -79 -355 -79t-278 101t-121 294q-12 145 0 289
q16 195 122 299t302 104z" />
    <glyph glyph-name="r" unicode="r" horiz-adv-x="735" 
d="M721 1012q0 -12 -9 -24q-8 -12 -22 -11q-14 0 -67 8t-101 8q-121 -2 -177 -56t-56 -173v-733q0 -39 -39 -39q-16 0 -27 11q-10 11 -10 28v735q0 147 80 225t229 78q90 0 164 -18q35 -10 35 -39z" />
    <glyph glyph-name="s" unicode="s" horiz-adv-x="972" 
d="M133 131q0 39 37 39q14 0 31 -12q119 -100 311 -101q123 0 200 66q76 66 76 155t-64 136q-65 46 -158 68t-186 46t-158 85q-65 60 -64 161q0 133 95 214t247 81t278 -84q36 -27 12 -57t-61 -4q-102 70 -227 70t-197 -57q-72 -56 -72 -163q-1 -68 47 -110t118 -58
q185 -46 302 -88q70 -25 117 -84t47 -149q0 -135 -95 -219t-255 -84q-217 0 -364 116q-17 10 -17 33z" />
    <glyph glyph-name="t" unicode="t" horiz-adv-x="804" 
d="M464 -16q-122 0 -189 78t-66 210v949q0 16 11 27t28 12q37 0 37 -39v-189h354q17 0 29 -11t12 -26q0 -39 -41 -39h-354v-692q0 -90 48 -147t137 -57t185 40q19 10 39 1t20 -33t-32 -39q-96 -45 -218 -45z" />
    <glyph glyph-name="u" unicode="u" 
d="M205 375v641q0 16 12 27q28 26 52 0q11 -11 12 -27v-641q0 -147 94 -233t243 -85q197 0 351 109v848q0 41 37 41q16 -1 27 -13t11 -28v-858q0 -33 -26 -50q-55 -35 -87 -52t-123 -45t-185 -27q-182 0 -300 104t-118 289z" />
    <glyph glyph-name="v" unicode="v" horiz-adv-x="1011" 
d="M510 -12q-63 0 -90 73l-361 940q-4 11 -4 23q-1 12 11 22t34 11q22 0 31 -29l367 -954q4 -8 12 -8t12 8l367 954q9 29 31 29q42 0 45 -37q0 -6 -4 -19l-361 -940q-27 -73 -90 -73z" />
    <glyph glyph-name="w" unicode="w" horiz-adv-x="1669" 
d="M1204 47q6 0 10 10l291 975q7 29 31 29q24 -1 36 -17t7 -36l-287 -965q-23 -74 -88 -74t-86 74l-272 932q-2 8 -10 8t-11 -8l-272 -932q-20 -74 -86 -74t-88 74l-287 965q-6 20 6 36t36 16t32 -28l291 -975q4 -10 10 -10t10 10l273 928q20 76 86 76t86 -76l272 -928
q4 -10 10 -10z" />
    <glyph glyph-name="x" unicode="x" horiz-adv-x="1091" 
d="M969 31q0 -35 -37 -35q-23 0 -31 14l-354 465l-354 -467q-8 -14 -31 -14q-37 0 -37 35q0 16 10 28l365 482l-340 450q-14 20 -4 42t30 22t31 -15l330 -438l327 438q10 14 31 14t32 -20t-3 -41l-340 -452l364 -480q11 -12 11 -28z" />
    <glyph glyph-name="y" unicode="y" horiz-adv-x="1007" 
d="M523 168q5 0 12 12l342 842q14 29 34 29q21 -1 31 -17t4 -33l-389 -970q-53 -133 -135 -243t-160 -153q-25 -12 -40 -12q-38 0 -40 37q0 23 25 35q174 85 278 364l-419 936q-8 19 2 37t34 18t35 -26l375 -844q6 -12 11 -12z" />
    <glyph glyph-name="z" unicode="z" horiz-adv-x="1052" 
d="M223 1032h633q36 0 58 -19t22 -49t-16 -49l-695 -839h654q41 0 41 -37q0 -15 -12 -27t-29 -12h-654q-35 0 -57 19t-23 47q0 28 17 51l694 839h-633q-16 0 -28 12q-28 27 0 53q12 11 28 11z" />
    <glyph glyph-name="braceleft" unicode="{" horiz-adv-x="688" 
d="M225 -217v559q0 156 -114 244q-35 26 -35 56t35 60q57 46 86 100t28 148v533q0 57 40 98t97 41h259q16 0 28 -11q13 -11 13 -27t-12 -26q-12 -11 -29 -12h-256q-27 0 -45 -18t-19 -45v-533q0 -211 -139 -305q139 -100 139 -305v-557q0 -27 18 -45t46 -19h256q16 0 28 -11
q29 -26 0 -53q-12 -11 -28 -11h-259q-57 0 -97 41t-40 98z" />
    <glyph glyph-name="bar" unicode="|" horiz-adv-x="628" 
d="M307 1710q39 0 39 -41v-1915q0 -16 -11 -28t-27 -12t-27 12q-10 12 -11 28v1915q0 17 12 29t25 12z" />
    <glyph glyph-name="braceright" unicode="}" horiz-adv-x="688" 
d="M461 342v-559q0 -57 -40 -98t-97 -41h-258q-16 0 -29 11q-12 11 -12 27t12 26q12 11 29 11h256q27 1 45 19t18 45v557q0 205 139 305q-139 94 -139 305v533q0 27 -18 45t-45 18h-256q-16 0 -28 12t-13 26q0 14 12 26t29 12h258q57 0 97 -41t40 -98v-533q1 -94 29 -148
t85 -100q35 -30 35 -60t-35 -56q-114 -88 -114 -244z" />
    <glyph glyph-name="asciitilde" unicode="~" horiz-adv-x="1259" 
d="M1040 758q14 0 24 -12t11 -32q0 -20 -31 -34q-152 -66 -222 -66t-196 54q-124 54 -200 55q-76 0 -174 -53q-16 -8 -32 -8t-25 10q-11 10 -11 30t35 37q135 61 212 61t202 -54t197 -54t182 58q14 8 28 8z" />
    <glyph glyph-name="exclamdown" unicode="&#xa1;" horiz-adv-x="399" 
d="M162 1413q0 39 37 39q15 0 27 -12t12 -27v-217q0 -16 -12 -28t-27 -11q-16 0 -27 11q-10 11 -10 28v217zM200 971q32 0 31 -37l9 -889q0 -41 -39 -41q-18 0 -30 12q-11 13 -11 29l8 889q0 37 32 37z" />
    <glyph glyph-name="cent" unicode="&#xa2;" horiz-adv-x="1073" 
d="M627 317q87 1 159 47t101 119q10 37 41 37q14 0 30 -14t0 -51q-35 -84 -115 -145q-81 -60 -179 -70v-217q0 -17 -12 -29t-27 -12q-16 0 -28 11q-11 11 -11 30v217q-147 16 -238 114q-90 98 -104 254q-4 38 -4 96t4 123q14 154 104 252t238 115v217q0 17 11 29t27 12
t28 -12q11 -12 12 -29v-217q98 -10 179 -70t115 -145q16 -37 0 -51t-30 -15q-31 0 -41 37q-29 74 -101 120t-159 46q-133 0 -212 -80t-88 -200t0 -241q9 -120 88 -199t212 -79z" />
    <glyph glyph-name="sterling" unicode="&#xa3;" horiz-adv-x="1116" 
d="M223 1068q0 -116 62 -363h362q17 1 29 -11t12 -28t-12 -26t-29 -11h-348q4 -25 4 -74q0 -223 -143 -479h813q41 0 41 -38t-41 -38h-836q-29 0 -45 17t-16 43t16 53q57 92 96 213q39 122 39 194t-6 109h-153q-16 0 -29 11q-12 10 -12 26t12 27t29 12h139q-6 27 -33 144
t-29 204q0 171 112 285t306 114q229 0 381 -160q23 -23 23 -39q0 -39 -39 -39q-16 0 -33 17q-78 77 -152 111t-180 34q-172 0 -256 -96t-84 -212z" />
    <glyph glyph-name="currency" unicode="&#xa4;" horiz-adv-x="1277" 
d="M639 1071q-117 0 -200 -79t-93 -197q-4 -49 0 -150q10 -119 93 -198t200 -79t200 80q83 78 93 197q4 100 0 150q-10 119 -93 197t-200 79zM1129 1249q15 0 27 -12q12 -11 11 -27q0 -16 -12 -28l-203 -207q54 -94 56 -175t0 -161t-56 -174l203 -207q12 -12 12 -28t-11 -27
q-27 -29 -56 2l-197 201q-117 -113 -264 -113t-264 113l-197 -201q-31 -31 -56 -2q-11 12 -11 27t12 28l203 207q-54 95 -56 173t0 160t56 177l-203 207q-12 12 -12 27t11 27t26 13q15 0 30 -14l197 -201q117 113 264 113t264 -113l197 201q14 14 29 14z" />
    <glyph glyph-name="yen" unicode="&#xa5;" horiz-adv-x="1302" 
d="M1222 1440q17 0 34 -17t-5 -47l-526 -651q-35 -45 -35 -92v-43h320q16 0 27 -11t12 -28q0 -37 -41 -37h-318v-483q0 -15 -11 -27t-27 -12t-26 11q-11 11 -12 28v483h-315q-41 0 -41 37q0 15 11 27t28 12h317v43q0 45 -39 92l-524 653q-8 10 -8 24t11 25q12 11 28 11
t27 -13l542 -675l543 675q11 15 28 15z" />
    <glyph glyph-name="brokenbar" unicode="&#xa6;" horiz-adv-x="628" 
d="M305 1710q39 0 39 -41v-842q0 -16 -11 -28q-11 -13 -27 -13t-27 12q-10 12 -11 29v842q0 17 12 29t25 12zM305 637q39 0 39 -41v-842q0 -16 -11 -28t-27 -12t-27 12q-10 12 -11 28v842q0 16 12 28t25 13z" />
    <glyph glyph-name="section" unicode="&#xa7;" horiz-adv-x="1206" 
d="M911 533q0 75 -62 123q-61 48 -211 82t-271 87q-57 -53 -57 -127t62 -123t212 -83t270 -86q57 53 57 127zM991 540q0 -100 -71 -182q84 -78 84 -226t-112 -245q-112 -98 -286 -98q-120 0 -230 36t-167 81q-14 14 -14 31q0 35 36 34q14 0 45 -20q136 -86 312 -86t258 82
t82 188q0 72 -23 119q-23 46 -97 89q-37 21 -102 39q-65 17 -128 34q-193 50 -269 114t-76 164t74 178q-84 82 -84 232t112 248t286 98q221 0 370 -117q15 -15 15 -31t-12 -26t-21 -10q-10 0 -47 18q-147 90 -303 90t-239 -82t-83 -186q1 -72 21 -120q36 -85 176 -131
q51 -17 149 -42q197 -51 271 -111q74 -62 73 -162z" />
    <glyph glyph-name="dieresis" unicode="&#xa8;" horiz-adv-x="659" 
d="M414 1625q0 25 17 43t43 18t43 -18t17 -43q0 -26 -16 -43q-18 -17 -44 -17t-43 17t-17 43zM125 1625q0 25 17 43t43 18t43 -18q18 -18 18 -43q0 -26 -18 -43t-43 -17q-26 0 -43 17t-17 43z" />
    <glyph glyph-name="copyright" unicode="&#xa9;" horiz-adv-x="1683" 
d="M840 59q206 1 358 137t171 328t0 382t-173 327t-356 137t-356 -137q-153 -137 -172 -327t0 -382t171 -328t357 -137zM840 -16q-238 0 -414 162t-193 403q-12 166 0 334q17 235 193 399t414 164t414 -163t194 -400q12 -168 0 -334q-16 -241 -193 -403t-415 -162zM1120 553
q37 0 37 -39q0 -10 -10 -35q-37 -86 -123 -136t-184 -50q-143 0 -237 96q-93 96 -103 242q-6 71 2 199t101 224t237 97q98 0 184 -50t123 -136q10 -27 10 -35q0 -39 -37 -39q-25 0 -37 27q-65 157 -253 157q-100 0 -173 -74q-72 -74 -82 -192q-6 -69 2 -181t80 -186
q73 -74 173 -74t162 45q62 44 91 113q12 27 37 27z" />
    <glyph glyph-name="ordfeminine" unicode="&#xaa;" horiz-adv-x="983" 
d="M446 639q74 0 150 40t127 101q-10 68 -10 289v221q-35 30 -111 54t-156 24q-246 0 -262 -258q-8 -106 0 -217q16 -254 262 -254zM872 604q0 -14 -12 -25t-32 -11t-31 18q-27 33 -54 108q-139 -131 -299 -131t-244 87q-84 86 -91 220q-8 134 0 268t97 220t243 86
q104 0 193 -33t134 -68q12 -16 12 -32v-398q0 -176 74 -278q10 -17 10 -31z" />
    <glyph glyph-name="guillemotleft" unicode="&#xab;" horiz-adv-x="1056" 
d="M796 1059q13 0 24 -11q11 -10 11 -28t-16 -31l-258 -231q-37 -35 -37 -49t37 -50l258 -231q16 -12 16 -30t-17 -34q-17 -17 -46 5l-266 237q-120 103 0 205l266 238q15 10 28 10zM190 709q0 -14 37 -50l258 -231q31 -28 7 -56t-54 -3l-266 237q-59 50 -59 102t59 103
l266 238q31 25 55 -5t-8 -55l-258 -231q-37 -35 -37 -49z" />
    <glyph glyph-name="logicalnot" unicode="&#xac;" horiz-adv-x="1286" 
d="M1163 696v-456q0 -43 -38 -43t-38 43v444h-921q-43 0 -43 38t43 38h932q31 0 48 -18t17 -46z" />
    <glyph glyph-name="registered" unicode="&#xae;" horiz-adv-x="1251" 
d="M618 1452q182 0 300 -111q166 -156 137 -499q-18 -205 -136 -316q-119 -110 -301 -110t-300 110q-165 155 -136 502q18 204 136 314t300 110zM854 684q0 -30 -30 -30q-12 0 -29 16l-164 192q-18 20 -41 21h-98v-197q0 -31 -31 -31q-11 -1 -21 9t-10 22v473q0 25 15 41
t42 17h162q76 -1 128 -45t52 -121q0 -131 -143 -164l158 -180q10 -9 10 -23zM618 479q156 0 256 93q142 132 115 458q-15 172 -115 265t-256 93t-256 -92q-141 -132 -114 -458q14 -172 114 -266t256 -93zM492 942h151q61 0 92 29t31 78q0 104 -119 104h-155v-211z" />
    <glyph glyph-name="macron" unicode="&#xaf;" horiz-adv-x="659" 
d="M162 1583q-39 0 -39 37q0 16 11 27q12 10 28 10h348q14 0 26 -11q12 -12 11 -26q0 -14 -11 -26t-26 -11h-348z" />
    <glyph glyph-name="degree" unicode="&#xb0;" horiz-adv-x="790" 
d="M396 1366q-67 0 -115 -48t-48 -115q1 -67 49 -115t114 -48t114 48q47 48 47 116q0 66 -47 114t-114 48zM164 1203q0 95 68 164q69 69 163 69t163 -69t69 -164t-69 -163t-163 -68t-163 68q-68 68 -68 163z" />
    <glyph glyph-name="plusminus" unicode="&#xb1;" horiz-adv-x="1286" 
d="M608 238v442h-442q-43 0 -43 38t43 38h442v440q0 43 38 43t38 -43v-440h434q45 0 45 -39q0 -17 -13 -27t-32 -10h-434v-442q0 -43 -38 -43t-38 43zM1118 0h-952q-43 0 -43 38t43 38h952q45 0 45 -39q0 -16 -13 -27q-14 -10 -32 -10z" />
    <glyph glyph-name="twosuperior" unicode="&#xb2;" horiz-adv-x="958" 
d="M174 567v11q0 102 58 180t253 196q95 57 133 91q64 58 64 142q0 83 -56 136t-176 53t-200 -106q-18 -25 -39 -25q-33 0 -33 33q0 12 10 31q90 141 271 141q141 0 219 -74t78 -180t-62 -174t-208 -152t-192 -150t-46 -142h483q43 0 43 -37t-43 -37h-493q-29 0 -47 17
q-17 17 -17 46z" />
    <glyph glyph-name="threesuperior" unicode="&#xb3;" horiz-adv-x="899" 
d="M344 1046q0 20 23 48l256 252h-430q-43 0 -43 38t43 37h436q80 0 80 -61q0 -33 -31 -64l-236 -225q37 4 54 4q118 1 190 -71t72 -179q0 -160 -132 -252t-360 -92h-10q-102 0 -102 39t39 39l67 -4q192 0 308 71t116 197q0 84 -53 133t-139 50l-99 -7q-21 -1 -35 13t-14 34
z" />
    <glyph glyph-name="acute" unicode="&#xb4;" horiz-adv-x="659" 
d="M190 1542q-14 0 -25 10t-11 31t24 33l277 141q12 6 25 6q12 0 24 -10q12 -11 12 -31t-24 -32l-277 -142q-11 -6 -25 -6z" />
    <glyph glyph-name="mu" unicode="&#xb5;" horiz-adv-x="1277" 
d="M205 -350v1366q0 16 12 27q28 26 52 0q11 -11 12 -27v-641q0 -147 94 -233t243 -85q197 0 351 109v848q0 41 37 41q16 -1 27 -13t11 -28v-858q0 -33 -26 -50q-55 -35 -87 -52t-123 -45t-185 -27q-229 0 -342 153v-485q-1 -18 -11 -30t-26 -13q-39 0 -39 43z" />
    <glyph glyph-name="mu" unicode="&#x3bc;" horiz-adv-x="1277" 
d="M205 -350v1366q0 16 12 27q28 26 52 0q11 -11 12 -27v-641q0 -147 94 -233t243 -85q197 0 351 109v848q0 41 37 41q16 -1 27 -13t11 -28v-858q0 -33 -26 -50q-55 -35 -87 -52t-123 -45t-185 -27q-229 0 -342 153v-485q-1 -18 -11 -30t-26 -13q-39 0 -39 43z" />
    <glyph glyph-name="paragraph" unicode="&#xb6;" horiz-adv-x="1366" 
d="M707 1352q-181 0 -271 -97t-90 -248t89 -247t270 -96h79v688h-77zM823 -393q-16 0 -27 12t-12 29v940h-79q-195 0 -318 112t-123 306t126 309t308 115h344q50 0 66 -18t16 -58v-1706q0 -16 -12 -28t-26 -13q-14 0 -26 12q-11 12 -11 29v1704h-189v-1704q0 -41 -37 -41z
" />
    <glyph glyph-name="periodcentered" unicode="&#xb7;" horiz-adv-x="520" 
d="M223 864q0 39 37 39q16 0 28 -11q11 -12 11 -28v-217q0 -16 -11 -27q-12 -12 -28 -12t-26 12t-11 27v217z" />
    <glyph glyph-name="cedilla" unicode="&#xb8;" horiz-adv-x="659" 
d="M340 39q35 0 35 -37q0 -6 -6 -25l-37 -100q72 6 123 -35t51 -106q0 -143 -236 -219q-20 -6 -37 5q-16 12 -16 34t31 32q184 59 184 146q0 35 -23 55q-24 20 -61 21l-63 -15q-23 -1 -34 17t-3 38l53 156q10 33 39 33z" />
    <glyph glyph-name="onesuperior" unicode="&#xb9;" horiz-adv-x="655" 
d="M332 539v794l-160 -88q-20 -12 -40 -4q-19 8 -19 33t18 33l186 104q37 18 48 19q41 0 41 -48v-843q0 -41 -37 -41t-37 41z" />
    <glyph glyph-name="ordmasculine" unicode="&#xba;" horiz-adv-x="987" 
d="M494 651q112 0 190 71q78 72 86 188t0 194q-10 112 -87 184t-189 72t-190 -72q-77 -72 -87 -184q-8 -78 0 -195t86 -187t191 -71zM494 575q-140 -1 -240 91t-110 226t-3 218q13 141 113 233q100 93 240 93t238 -92q99 -92 114 -234q8 -84 -2 -218t-110 -226t-240 -91z
" />
    <glyph glyph-name="guillemotright" unicode="&#xbb;" horiz-adv-x="1056" 
d="M263 358q-13 0 -24 12t-11 28q0 17 16 30l258 231q37 35 37 49t-37 50l-258 231q-16 11 -16 29t10 30q12 12 25 11q13 0 28 -10l266 -238q59 -51 59 -102t-59 -103l-266 -237q-15 -11 -28 -11zM868 709q0 14 -37 49l-258 231q-31 27 -7 55t55 5l266 -238q59 -51 59 -102
t-59 -103l-266 -237q-31 -25 -56 4q-23 29 8 55l258 231q37 36 37 50z" />
    <glyph glyph-name="onequarter" unicode="&#xbc;" horiz-adv-x="1904" 
d="M1133 1505q37 -12 20 -53l-586 -1485q-12 -37 -47 -23t-22 52l583 1483q17 40 52 26zM332 539v794l-160 -88q-20 -12 -40 -4q-19 8 -19 33t18 33l186 104q37 18 48 19q41 0 41 -48v-843q0 -41 -37 -41t-37 41zM1518 301v549l-449 -549h449zM1591 301h99q41 0 41 -37
t-41 -37h-99v-186q0 -41 -37 -41t-36 41v186h-488q-25 -1 -39 15t-14 40t24 52l455 555q37 47 74 47q61 0 61 -66v-569z" />
    <glyph glyph-name="onehalf" unicode="&#xbd;" horiz-adv-x="1857" 
d="M1075 63v11q0 102 53 174t177 151l81 51l81 51q81 53 103 108q13 34 13 75q0 82 -56 135t-176 53t-200 -106q-18 -25 -39 -25q-33 0 -33 33q0 12 11 31q90 141 270 141q141 0 219 -74t78 -180q-1 -106 -63 -174t-208 -152t-191 -150q-46 -66 -46 -142h483q43 0 43 -37
t-43 -37h-493q-29 0 -47 17t-17 46zM332 539v794l-160 -88q-20 -12 -40 -4q-19 8 -19 33t18 33l186 104q37 18 48 19q41 0 41 -48v-843q0 -41 -37 -41t-37 41zM1075 1497q37 -12 21 -53l-586 -1485q-12 -37 -47 -23t-23 52l584 1482q16 41 51 27z" />
    <glyph glyph-name="threequarters" unicode="&#xbe;" horiz-adv-x="2166" 
d="M1374 1497q37 -12 21 -53l-586 -1485q-12 -37 -47 -23t-23 52l584 1482q16 41 51 27zM344 1046q0 20 23 48l256 252h-430q-43 0 -43 38t43 37h436q80 0 80 -61q0 -33 -31 -64l-236 -225q37 4 54 4q118 1 190 -71t72 -179q0 -160 -132 -252t-360 -92h-10q-102 0 -102 39
t39 39l67 -4q192 0 308 71t116 197q0 84 -53 133t-139 50l-99 -7q-21 -1 -35 13t-14 34zM1810 301v549l-448 -549h448zM1884 301h98q41 0 41 -37t-41 -37h-98v-186q0 -41 -37 -41t-37 41v186h-487q-25 -1 -39 15t-14 40t24 52l455 555q37 47 74 47q61 0 61 -66v-569z" />
    <glyph glyph-name="questiondown" unicode="&#xbf;" horiz-adv-x="1153" 
d="M641 1198q0 -39 -37 -39q-16 -1 -28 11t-11 28v217q-1 15 11 27t28 12t26 -11t11 -28v-217zM983 210q0 -16 -10 -32q-147 -197 -432 -196q-188 0 -297 104t-109 284t93 273q93 94 345 217q15 8 31 8t28 -11t11 -34q0 -23 -33 -35q-236 -102 -318 -188t-81 -230
q0 -144 88 -228q89 -84 233 -85q144 0 226 40t153 130q13 19 31 19t30 -10t11 -26z" />
    <glyph glyph-name="Agrave" unicode="&#xc0;" horiz-adv-x="1357" 
d="M444 1720q0 20 12 30t24 11q13 0 26 -6l276 -141q25 -12 25 -32t-11 -32q-11 -10 -25 -10t-26 6l-276 142q-25 12 -25 32zM678 1374q-52 0 -72 -57l-256 -703h656l-256 703q-20 57 -72 57zM1253 0q-23 0 -32 27l-187 512h-712l-187 -512q-9 -25 -33 -25t-34 17t-5 36
l463 1266q46 127 152 127t151 -127l463 -1266q6 -19 -5 -37t-34 -18z" />
    <glyph glyph-name="Aacute" unicode="&#xc1;" horiz-adv-x="1357" 
d="M591 1540q-13 0 -25 10q-11 10 -11 31t25 33l276 141q12 6 26 6t24 -10q12 -11 12 -31t-25 -32l-277 -142q-12 -6 -25 -6zM678 1374q-52 0 -72 -57l-256 -703h656l-256 703q-20 57 -72 57zM1253 0q-23 0 -32 27l-187 512h-712l-187 -512q-9 -25 -33 -25t-34 17t-5 36
l463 1266q46 127 152 127t151 -127l463 -1266q6 -19 -5 -37t-34 -18z" />
    <glyph glyph-name="Acircumflex" unicode="&#xc2;" horiz-adv-x="1357" 
d="M484 1540q-14 0 -26 11t-12 29t17 30l166 123q25 18 49 18t49 -18l166 -123q16 -10 16 -28t-11 -30q-12 -12 -26 -12t-28 8l-166 123l-166 -123q-14 -8 -28 -8zM678 1374q-52 0 -72 -57l-256 -703h656l-256 703q-20 57 -72 57zM1253 0q-23 0 -32 27l-187 512h-712
l-187 -512q-9 -25 -33 -25t-34 17t-5 36l463 1266q46 127 152 127t151 -127l463 -1266q6 -19 -5 -37t-34 -18z" />
    <glyph glyph-name="Atilde" unicode="&#xc3;" horiz-adv-x="1357" 
d="M564 1702q58 0 124 -38t93 -38q28 0 63 25t50 25q14 0 26 -11q12 -10 12 -29t-23 -34q-76 -52 -128 -52q-53 0 -119 38t-92 38t-58 -26t-50 -25q-17 0 -28 11q-10 12 -10 28t16 33q66 55 124 55zM678 1374q-52 0 -72 -57l-256 -703h656l-256 703q-20 57 -72 57zM1253 0
q-23 0 -32 27l-187 512h-712l-187 -512q-9 -25 -33 -25t-34 17t-5 36l463 1266q46 127 152 127t151 -127l463 -1266q6 -19 -5 -37t-34 -18z" />
    <glyph glyph-name="Adieresis" unicode="&#xc4;" horiz-adv-x="1357" 
d="M762 1625q0 25 17 43t43 18t43 -18t17 -43q0 -26 -16 -43q-18 -17 -44 -17t-43 17t-17 43zM473 1625q0 25 17 43t43 18q25 0 43 -18t18 -43q0 -26 -17 -43t-43 -17t-44 17q-17 17 -17 43zM678 1374q-52 0 -72 -57l-256 -703h656l-256 703q-20 57 -72 57zM1253 0
q-23 0 -32 27l-187 512h-712l-187 -512q-9 -25 -33 -25t-34 17t-5 36l463 1266q46 127 152 127t151 -127l463 -1266q6 -19 -5 -37t-34 -18z" />
    <glyph glyph-name="Aring" unicode="&#xc5;" horiz-adv-x="1357" 
d="M567 1710q0 -45 33 -78t78 -33t77 33t31 78q0 45 -31 77q-32 32 -77 32t-78 -32t-33 -77zM508 1710q0 68 50 117t119 49t118 -49t49 -117t-49 -118t-118 -50t-119 50t-50 118zM678 1374q-52 0 -72 -57l-256 -703h656l-256 703q-20 57 -72 57zM1253 0q-23 0 -32 27
l-187 512h-712l-187 -512q-9 -25 -33 -25t-34 17t-5 36l463 1266q46 127 152 127t151 -127l463 -1266q6 -19 -5 -37t-34 -18z" />
    <glyph glyph-name="AE" unicode="&#xc6;" horiz-adv-x="2091" 
d="M76 -6q-37 0 -37 35q0 18 8 28l860 1286q57 84 178 84h801q39 0 39 -38q0 -13 -11 -25t-28 -12h-751v-594h735q16 0 27 -12q26 -27 0 -53q-11 -11 -27 -11h-735v-606h755q14 0 26 -11t13 -27q0 -16 -11 -28q-11 -10 -28 -10h-755q-76 0 -76 76v485h-584l-369 -551
q-10 -16 -30 -16zM1059 633v719h-10q-47 0 -74 -35l-451 -684h535z" />
    <glyph glyph-name="Ccedilla" unicode="&#xc7;" horiz-adv-x="1355" 
d="M160 706q0 88 6 191q16 231 173 390t388 159q164 0 298 -92t200 -236q10 -23 10 -38t-11 -25q-11 -11 -32 -11t-33 31q-49 131 -168 214t-264 83q-195 0 -331 -135t-152 -340q-8 -82 -8 -181t8 -179q16 -209 149 -344t334 -136q145 0 264 83t168 214q13 31 33 31
q44 0 43 -37q0 -14 -10 -37q-66 -143 -197 -234t-295 -93q-2 -2 -2 -7l-37 -100q72 6 123 -35t51 -106q0 -143 -235 -219q-20 -6 -37 5q-16 12 -16 34t30 32q184 59 185 146q0 35 -24 55t-60 21l-64 -15q-23 -1 -34 17t-3 38l47 138q-207 22 -342 176t-149 373q-6 81 -6 169
z" />
    <glyph glyph-name="Egrave" unicode="&#xc8;" horiz-adv-x="1273" 
d="M485 1720q-1 20 11 30t25 11q13 0 26 -6l276 -141q25 -12 25 -32t-11 -32q-11 -10 -25 -10t-26 6l-276 142q-25 12 -25 32zM317 1427h752q39 0 39 -38q0 -13 -11 -25t-28 -12h-752v-594h736q16 0 27 -12q26 -27 0 -53q-11 -11 -27 -11h-736v-606h756q15 0 27 -11t12 -27
t-11 -28q-11 -10 -28 -10h-756q-76 0 -75 76v1276q0 33 19 54t56 21z" />
    <glyph glyph-name="Eacute" unicode="&#xc9;" horiz-adv-x="1273" 
d="M460 1540q-13 0 -25 10q-11 10 -11 31t25 33l276 141q11 6 25 6t25 -10q11 -11 11 -31t-24 -32l-277 -142q-12 -6 -25 -6zM317 1427h752q39 0 39 -38q0 -13 -11 -25t-28 -12h-752v-594h736q16 0 27 -12q26 -27 0 -53q-11 -11 -27 -11h-736v-606h756q15 0 27 -11t12 -27
t-11 -28q-11 -10 -28 -10h-756q-76 0 -75 76v1276q0 33 19 54t56 21z" />
    <glyph glyph-name="Ecircumflex" unicode="&#xca;" horiz-adv-x="1273" 
d="M488 1540q-14 0 -26 11q-11 11 -11 29t16 30l166 123q25 18 49 18t49 -18l166 -123q16 -10 16 -28t-11 -30q-12 -12 -26 -12t-28 8l-166 123l-166 -123q-14 -8 -28 -8zM317 1427h752q39 0 39 -38q0 -13 -11 -25t-28 -12h-752v-594h736q16 0 27 -12q26 -27 0 -53
q-11 -11 -27 -11h-736v-606h756q15 0 27 -11t12 -27t-11 -28q-11 -10 -28 -10h-756q-76 0 -75 76v1276q0 33 19 54t56 21z" />
    <glyph glyph-name="Edieresis" unicode="&#xcb;" horiz-adv-x="1273" 
d="M835 1683q26 0 43 -17t17 -43t-17 -43t-43 -17t-43 17q-18 17 -18 43t18 43t43 17zM546 1683q26 0 43 -17t17 -43t-17 -43t-43 -17t-43 17t-17 43t16 43q18 17 44 17zM317 1427h752q39 0 39 -38q0 -13 -11 -25t-28 -12h-752v-594h736q16 0 27 -12q26 -27 0 -53
q-11 -11 -27 -11h-736v-606h756q15 0 27 -11t12 -27t-11 -28q-11 -10 -28 -10h-756q-76 0 -75 76v1276q0 33 19 54t56 21z" />
    <glyph glyph-name="Igrave" unicode="&#xcc;" horiz-adv-x="565" 
d="M53 1720q-1 20 11 30t25 11q13 0 26 -6l276 -141q25 -12 25 -32t-12 -32q-12 -10 -24 -10q-14 0 -26 6l-276 142q-25 12 -25 32zM244 1399q0 37 37 39q39 0 38 -39v-1368q1 -39 -37 -39t-38 39v1368z" />
    <glyph glyph-name="Iacute" unicode="&#xcd;" horiz-adv-x="565" 
d="M188 1540q-14 0 -25 10t-11 31t24 33l277 141q12 6 25 6q12 0 24 -10q12 -11 12 -31t-25 -32l-276 -142q-11 -6 -25 -6zM244 1399q0 37 37 39q39 0 38 -39v-1368q1 -39 -37 -39t-38 39v1368z" />
    <glyph glyph-name="Icircumflex" unicode="&#xce;" horiz-adv-x="565" 
d="M90 1540q-14 0 -25 11t-11 29t16 30l166 123q26 18 50 18t48 -18l166 -123q16 -10 16 -28t-11 -30t-25 -12t-29 8l-166 123l-166 -123q-15 -8 -29 -8zM244 1399q0 37 37 39q39 0 38 -39v-1368q1 -39 -37 -39t-38 39v1368z" />
    <glyph glyph-name="Idieresis" unicode="&#xcf;" horiz-adv-x="565" 
d="M365 1625q0 25 17 43t43 18t43 -18t17 -43q0 -26 -17 -43t-43 -17t-43 17t-17 43zM76 1625q0 25 17 43t43 18t43 -18t17 -43q0 -26 -16 -43q-18 -17 -44 -17t-43 17t-17 43zM244 1399q0 37 37 39q39 0 38 -39v-1368q1 -39 -37 -39t-38 39v1368z" />
    <glyph glyph-name="Eth" unicode="&#xd0;" horiz-adv-x="1474" 
d="M317 1352v-609h404q17 0 29 -11t12 -26q0 -14 -12 -26t-29 -12h-404v-592h373q260 0 396 138t147 380q6 123 0 246q-13 240 -149 376t-394 136h-373zM696 0h-381q-35 0 -54 22t-19 54v592h-181q-16 0 -28 11t-13 26q0 39 41 38h181v609q0 32 19 54t54 21h381
q285 -1 443 -167t170 -439q4 -131 -2 -225q-14 -266 -173 -431t-438 -165z" />
    <glyph glyph-name="Ntilde" unicode="&#xd1;" horiz-adv-x="1576" 
d="M663 1706q57 0 123 -38t94 -38t62 25t50 25q14 0 26 -11t12 -29t-22 -34q-76 -52 -128 -52t-119 38t-93 38t-58 -26q-33 -26 -50 -25q-17 0 -28 11q-10 12 -10 28t17 33q66 55 124 55zM1335 74q0 -78 -77 -78q-39 0 -70 47l-866 1313h-5v-1323q0 -39 -38 -39
q-14 0 -26 11q-11 11 -11 28v1329q0 78 77 78q39 0 70 -47l866 -1317h5v1323q0 16 10 27t26 12q39 0 39 -39v-1325z" />
    <glyph glyph-name="Ograve" unicode="&#xd2;" horiz-adv-x="1484" 
d="M526 1720q0 20 12 30t24 11q13 0 26 -6l276 -141q25 -12 25 -32t-11 -32q-11 -10 -25 -10t-26 6l-276 142q-25 12 -25 32zM741 59q201 1 339 135t158 328t0 386q-18 192 -158 327t-340 135t-337 -135t-156 -327t0 -386t156 -328t338 -135zM742 -16q-234 0 -395 160
t-179 405q-12 166 0 334q16 239 178 401t395 162t397 -162t179 -401q12 -168 0 -334q-16 -245 -178 -405q-163 -160 -397 -160z" />
    <glyph glyph-name="Oacute" unicode="&#xd3;" horiz-adv-x="1484" 
d="M640 1540q-14 0 -25 10t-11 31t25 33l276 141q11 6 25 6t25 -10q11 -11 11 -31t-24 -32l-276 -142q-12 -6 -26 -6zM741 59q201 1 339 135t158 328t0 386q-18 192 -158 327t-340 135t-337 -135t-156 -327t0 -386t156 -328t338 -135zM742 -16q-234 0 -395 160t-179 405
q-12 166 0 334q16 239 178 401t395 162t397 -162t179 -401q12 -168 0 -334q-16 -245 -178 -405q-163 -160 -397 -160z" />
    <glyph glyph-name="Ocircumflex" unicode="&#xd4;" horiz-adv-x="1484" 
d="M545 1540q-14 0 -26 11q-11 11 -11 29t16 30l166 123q26 18 50 18t48 -18l166 -123q16 -10 16 -28t-10 -30q-12 -12 -26 -12t-29 8l-166 123l-166 -123q-14 -8 -28 -8zM741 59q201 1 339 135t158 328t0 386q-18 192 -158 327t-340 135t-337 -135t-156 -327t0 -386
t156 -328t338 -135zM742 -16q-234 0 -395 160t-179 405q-12 166 0 334q16 239 178 401t395 162t397 -162t179 -401q12 -168 0 -334q-16 -245 -178 -405q-163 -160 -397 -160z" />
    <glyph glyph-name="Otilde" unicode="&#xd5;" horiz-adv-x="1484" 
d="M849 1622q29 0 63 25t50 25t26 -11q11 -10 11 -29t-22 -35q-76 -51 -128 -51t-119 38q-66 38 -92 38t-58 -26t-50 -26t-28 12t-10 28t16 32q66 56 124 56t124 -38t93 -38zM741 59q201 1 339 135t158 328t0 386q-18 192 -158 327t-340 135t-337 -135t-156 -327t0 -386
t156 -328t338 -135zM742 -16q-234 0 -395 160t-179 405q-12 166 0 334q16 239 178 401t395 162t397 -162t179 -401q12 -168 0 -334q-16 -245 -178 -405q-163 -160 -397 -160z" />
    <glyph glyph-name="Odieresis" unicode="&#xd6;" horiz-adv-x="1484" 
d="M886 1686q26 0 43 -18t17 -43q0 -26 -17 -43t-43 -17t-43 17t-17 43q0 25 16 43q18 18 44 18zM537 1625q0 25 17 43t43 18t43 -18t17 -43q0 -26 -17 -43t-43 -17t-43 17t-17 43zM741 59q201 1 339 135t158 328t0 386q-18 192 -158 327t-340 135t-337 -135t-156 -327
t0 -386t156 -328t338 -135zM742 -16q-234 0 -395 160t-179 405q-12 166 0 334q16 239 178 401t395 162t397 -162t179 -401q12 -168 0 -334q-16 -245 -178 -405q-163 -160 -397 -160z" />
    <glyph glyph-name="multiply" unicode="&#xd7;" horiz-adv-x="1286" 
d="M1038 279l-393 387l-397 -394q-31 -31 -59 -5t6 59l397 393l-399 395q-31 32 -5 58t58 -3l399 -395l391 387q33 37 59 7t-5 -60l-392 -389l396 -387q29 -34 2 -60t-58 7z" />
    <glyph glyph-name="Oslash" unicode="&#xd8;" horiz-adv-x="1480" 
d="M737 59q201 1 339 135t158 328t-2 390q-20 198 -169 335l-578 -1120q117 -68 252 -68zM737 1370q-201 0 -338 -135t-156 -327t-1 -373q23 -227 180 -363l579 1120q-121 78 -264 78zM737 -16q-158 0 -286 75l-25 -51q-12 -24 -36 -24t-34 18t0 39l31 61q-201 162 -223 447
q-12 166 0 334q16 239 178 401t395 162q164 0 299 -84l29 55q15 29 37 29t32 -18t1 -42l-37 -71q197 -164 215 -432q12 -168 0 -334q-16 -245 -178 -405t-398 -160z" />
    <glyph glyph-name="Ugrave" unicode="&#xd9;" horiz-adv-x="1531" 
d="M658 1761q13 0 26 -6l277 -141q25 -12 25 -32t-12 -32q-10 -10 -24 -10t-26 6l-277 142q-25 12 -25 32t12 30q11 10 24 11zM1239 1399q0 37 38 38t38 -38v-846q0 -252 -156 -411q-155 -158 -393 -158t-392 158t-155 411v846q0 37 38 38t38 -38v-830q0 -229 132 -369
t339 -140t340 140t133 369v830z" />
    <glyph glyph-name="Uacute" unicode="&#xda;" horiz-adv-x="1531" 
d="M596 1540q-14 0 -26 10q-11 10 -11 31t25 33l276 141q12 6 26 6t24 -10q12 -11 12 -31t-25 -32l-276 -142q-11 -6 -25 -6zM1239 1399q0 37 38 38t38 -38v-846q0 -252 -156 -411q-155 -158 -393 -158t-392 158t-155 411v846q0 37 38 38t38 -38v-830q0 -229 132 -369
t339 -140t340 140t133 369v830z" />
    <glyph glyph-name="Ucircumflex" unicode="&#xdb;" horiz-adv-x="1531" 
d="M570 1540q-14 0 -26 11t-12 29t17 30l166 123q25 18 49 18t49 -18l166 -123q16 -10 16 -28t-11 -30q-12 -12 -26 -12t-28 8l-166 123l-166 -123q-14 -8 -28 -8zM1239 1399q0 37 38 38t38 -38v-846q0 -252 -156 -411q-155 -158 -393 -158t-392 158t-155 411v846
q0 37 38 38t38 -38v-830q0 -229 132 -369t339 -140t340 140t133 369v830z" />
    <glyph glyph-name="Udieresis" unicode="&#xdc;" horiz-adv-x="1531" 
d="M850 1625q0 25 17 43t43 18t43 -18t17 -43q0 -26 -16 -43q-18 -17 -44 -17t-43 17t-17 43zM622 1686q26 0 43 -18t17 -43q0 -26 -17 -43t-43 -17t-43 17t-17 43q0 25 16 43q18 18 44 18zM1239 1399q0 37 38 38t38 -38v-846q0 -252 -156 -411q-155 -158 -393 -158
t-392 158t-155 411v846q0 37 38 38t38 -38v-830q0 -229 132 -369t339 -140t340 140t133 369v830z" />
    <glyph glyph-name="Yacute" unicode="&#xdd;" horiz-adv-x="1302" 
d="M510 1540q-14 0 -26 10q-11 10 -11 31t25 33l276 141q12 6 26 6t24 -10q12 -11 12 -31t-25 -32l-276 -142q-11 -6 -25 -6zM1222 1440q17 0 34 -17t-5 -47l-526 -651q-35 -45 -35 -92v-602q0 -15 -11 -27t-27 -12t-26 11q-11 11 -12 28v602q0 45 -39 92l-524 653
q-8 10 -8 24t11 25q12 11 28 11t27 -13l542 -675l543 675q11 15 28 15z" />
    <glyph glyph-name="Thorn" unicode="&#xde;" horiz-adv-x="1312" 
d="M317 375h428q188 0 280 92q91 92 91 249t-92 255t-266 98h-441v-694zM741 299h-424v-266q1 -39 -37 -39t-38 39v1380q0 39 37 39q16 0 27 -11t11 -28v-268h441q182 0 308 -116q126 -117 126 -311t-125 -306t-326 -113z" />
    <glyph glyph-name="germandbls" unicode="&#xdf;" horiz-adv-x="1304" 
d="M618 1352q-322 0 -321 -314v-1005q0 -39 -37 -39q-16 0 -28 11q-11 11 -11 28v1001q-1 190 101 292t271 101t266 -77t97 -209q0 -53 -30 -105t-65 -85q-95 -90 -95 -173t165 -165q69 -33 137 -71t117 -98q48 -60 48 -139q-1 -155 -103 -237t-278 -82t-315 120
q-19 18 -19 38t22 30t44 -4q131 -109 274 -109q143 1 221 61t78 183q0 63 -48 113t-117 83q-70 33 -138 69t-116 90t-48 123t46 130t93 117t48 109q0 97 -67 155t-192 58z" />
    <glyph glyph-name="agrave" unicode="&#xe0;" horiz-adv-x="1159" 
d="M424 1384q0 20 11 31q11 10 25 10t25 -6l277 -141q24 -12 24 -32t-11 -32q-11 -10 -25 -10t-25 6l-276 142q-25 12 -25 32zM225 319q-1 -262 349 -262q186 0 311 103v342q-197 57 -342 57t-232 -64q-86 -65 -86 -176zM961 715v-572q0 -31 -23 -45q-164 -116 -372 -116
t-312 89t-104 239t105 238t267 87q162 0 363 -55v133q0 281 -307 280q-139 0 -283 -67q-23 -10 -42 1t-19 35t24 37q131 70 320 70q383 0 383 -354z" />
    <glyph glyph-name="aacute" unicode="&#xe1;" horiz-adv-x="1159" 
d="M415 1204q-13 0 -25 10q-11 10 -11 31t24 33l277 141q12 6 26 6t24 -10q12 -11 12 -31t-25 -32l-277 -142q-12 -6 -25 -6zM225 319q-1 -262 349 -262q186 0 311 103v342q-197 57 -342 57t-232 -64q-86 -65 -86 -176zM961 715v-572q0 -31 -23 -45q-164 -116 -372 -116
t-312 89t-104 239t105 238t267 87q162 0 363 -55v133q0 281 -307 280q-139 0 -283 -67q-23 -10 -42 1t-19 35t24 37q131 70 320 70q383 0 383 -354z" />
    <glyph glyph-name="acircumflex" unicode="&#xe2;" horiz-adv-x="1159" 
d="M386 1178q-14 0 -27 11q-11 11 -11 29t17 29l165 123q52 37 99 0l166 -123q16 -10 16 -28q0 -17 -11 -29q-12 -12 -26 -12t-29 8l-165 123l-166 -123q-14 -8 -28 -8zM225 319q-1 -262 349 -262q186 0 311 103v342q-197 57 -342 57t-232 -64q-86 -65 -86 -176zM961 715
v-572q0 -31 -23 -45q-164 -116 -372 -116t-312 89t-104 239t105 238t267 87q162 0 363 -55v133q0 281 -307 280q-139 0 -283 -67q-23 -10 -42 1t-19 35t24 37q131 70 320 70q383 0 383 -354z" />
    <glyph glyph-name="atilde" unicode="&#xe3;" horiz-adv-x="1159" 
d="M470 1370q58 0 124 -38t93 -38q28 0 63 25t50 25t26 -11q12 -11 12 -29t-23 -34q-76 -51 -128 -51q-52 -1 -119 37q-66 38 -92 38t-58 -26t-50 -25q-17 0 -28 11q-10 12 -10 28t16 33q66 55 124 55zM225 319q-1 -262 349 -262q186 0 311 103v342q-197 57 -342 57
t-232 -64q-86 -65 -86 -176zM961 715v-572q0 -31 -23 -45q-164 -116 -372 -116t-312 89t-104 239t105 238t267 87q162 0 363 -55v133q0 281 -307 280q-139 0 -283 -67q-23 -10 -42 1t-19 35t24 37q131 70 320 70q383 0 383 -354z" />
    <glyph glyph-name="adieresis" unicode="&#xe4;" horiz-adv-x="1159" 
d="M666 1293q0 25 17 43t43 18t43 -18t17 -43q0 -26 -17 -43t-43 -17t-43 17t-17 43zM377 1293q0 25 17 43t43 18t43 -18q18 -18 18 -43q0 -26 -18 -43t-43 -17q-26 0 -43 17t-17 43zM225 319q-1 -262 349 -262q186 0 311 103v342q-197 57 -342 57t-232 -64
q-86 -65 -86 -176zM961 715v-572q0 -31 -23 -45q-164 -116 -372 -116t-312 89t-104 239t105 238t267 87q162 0 363 -55v133q0 281 -307 280q-139 0 -283 -67q-23 -10 -42 1t-19 35t24 37q131 70 320 70q383 0 383 -354z" />
    <glyph glyph-name="aring" unicode="&#xe5;" horiz-adv-x="1159" 
d="M471 1327q0 -45 33 -78t78 -33q44 0 76 34q32 32 32 77t-32 77t-76 32t-78 -32q-33 -32 -33 -77zM412 1327q0 68 50 117t119 49t117 -49t50 -117q0 -68 -50 -118t-118 -50t-118 50t-50 118zM225 319q-1 -262 349 -262q186 0 311 103v342q-197 57 -342 57t-232 -64
q-86 -65 -86 -176zM961 715v-572q0 -31 -23 -45q-164 -116 -372 -116t-312 89t-104 239t105 238t267 87q162 0 363 -55v133q0 281 -307 280q-139 0 -283 -67q-23 -10 -42 1t-19 35t24 37q131 70 320 70q383 0 383 -354z" />
    <glyph glyph-name="ae" unicode="&#xe6;" horiz-adv-x="1886" 
d="M1624 567q29 0 32 29q1 10 1 33q0 172 -92 268t-259 96q-167 -1 -258 -111t-87 -315h663zM553 57q211 0 383 146q-59 135 -51 299q-197 57 -342 57t-232 -64q-86 -65 -86 -182t82 -187t246 -69zM1733 647v-55q0 -100 -107 -100h-665v-54q0 -178 99 -279q98 -101 250 -101
t298 61q8 4 22 4t24 -11t11 -31q0 -19 -38 -39t-131 -40t-167 -20q-236 0 -352 153q-193 -154 -424 -153q-195 0 -299 89t-104 239t105 238t267 87q162 0 363 -55v133q0 281 -307 280q-139 0 -283 -67q-23 -10 -42 1t-19 35t24 37q131 70 320 70q297 0 362 -217
q47 96 146 156t231 61q188 0 302 -120t114 -302z" />
    <glyph glyph-name="ccedilla" unicode="&#xe7;" horiz-adv-x="1138" 
d="M963 315q36 0 36 -52q-1 -30 -35 -92q-34 -63 -122 -123t-205 -66v-5l-37 -100q72 6 123 -35t51 -106q0 -143 -235 -219q-20 -6 -37 5q-16 12 -16 34t30 32q184 59 184 146q0 35 -23 55q-24 20 -61 21l-63 -15q-23 -1 -34 17t-3 38l45 134q-170 14 -273 126
q-104 112 -110 266t2 298q8 178 127 289t307 110q94 0 173 -35t122 -85q92 -107 90 -175q0 -16 -11 -27t-25 -12q-33 0 -41 37q-33 111 -119 166t-189 55q-154 0 -250 -87t-106 -230q-10 -174 0 -308t103 -224t253 -91q102 -1 188 55t120 167q8 37 41 36z" />
    <glyph glyph-name="egrave" unicode="&#xe8;" horiz-adv-x="1175" 
d="M450 1425q14 0 25 -6l277 -141q24 -12 24 -32t-11 -32q-11 -10 -25 -10t-25 6l-277 142q-24 12 -24 32t11 31q11 10 25 10zM915 567q31 0 33 33q8 182 -84 288t-263 105t-262 -111t-87 -315h663zM1024 647v-55q0 -100 -106 -100h-666v-56q0 -178 99 -278t251 -100t297 61
q9 4 23 4t24 -11t10 -31q0 -43 -169 -79q-93 -20 -166 -20q-209 0 -322 118t-123 328q-4 115 4 227q10 193 129 303t303 111q184 0 298 -120t114 -302z" />
    <glyph glyph-name="eacute" unicode="&#xe9;" horiz-adv-x="1175" 
d="M472 1204q-14 0 -25 10t-11 31t25 33l276 141q11 6 25 6t25 -10q11 -11 11 -31t-24 -32l-276 -142q-12 -6 -26 -6zM915 567q31 0 33 33q8 182 -84 288t-263 105t-262 -111t-87 -315h663zM1024 647v-55q0 -100 -106 -100h-666v-56q0 -178 99 -278t251 -100t297 61
q9 4 23 4t24 -11t10 -31q0 -43 -169 -79q-93 -20 -166 -20q-209 0 -322 118t-123 328q-4 115 4 227q10 193 129 303t303 111q184 0 298 -120t114 -302z" />
    <glyph glyph-name="ecircumflex" unicode="&#xea;" horiz-adv-x="1175" 
d="M390 1204q-14 0 -26 11t-12 29t17 30l166 123q25 18 49 18t49 -18l166 -123q16 -10 16 -28t-11 -30q-12 -12 -26 -12t-28 8l-166 123l-166 -123q-14 -8 -28 -8zM915 567q31 0 33 33q8 182 -84 288t-263 105t-262 -111t-87 -315h663zM1024 647v-55q0 -100 -106 -100h-666
v-56q0 -178 99 -278t251 -100t297 61q9 4 23 4t24 -11t10 -31q0 -43 -169 -79q-93 -20 -166 -20q-209 0 -322 118t-123 328q-4 115 4 227q10 193 129 303t303 111q184 0 298 -120t114 -302z" />
    <glyph glyph-name="edieresis" unicode="&#xeb;" horiz-adv-x="1175" 
d="M753 1354q26 0 43 -18t17 -43q0 -26 -17 -43t-43 -17t-43 17q-18 17 -18 43q0 25 18 43t43 18zM464 1354q26 0 43 -18t17 -43q0 -26 -17 -43t-43 -17t-43 17t-17 43q0 25 16 43q18 18 44 18zM915 567q31 0 33 33q8 182 -84 288t-263 105t-262 -111t-87 -315h663z
M1024 647v-55q0 -100 -106 -100h-666v-56q0 -178 99 -278t251 -100t297 61q9 4 23 4t24 -11t10 -31q0 -43 -169 -79q-93 -20 -166 -20q-209 0 -322 118t-123 328q-4 115 4 227q10 193 129 303t303 111q184 0 298 -120t114 -302z" />
    <glyph glyph-name="igrave" unicode="&#xec;" horiz-adv-x="534" 
d="M231 1014q-1 16 11 28t27 13q15 -1 27 -13t11 -28v-979q0 -41 -38 -41t-38 41v979zM45 1384q0 20 11 31q10 10 24 10t26 -6l277 -141q25 -12 25 -32t-12 -32q-12 -10 -24 -10q-14 0 -26 6l-276 142q-25 12 -25 32z" />
    <glyph glyph-name="iacute" unicode="&#xed;" horiz-adv-x="534" 
d="M231 1014q-1 16 11 28t27 13q15 -1 27 -13t11 -28v-979q0 -41 -38 -41t-38 41v979zM182 1204q-14 0 -25 10t-11 31t24 33l276 141q12 6 26 6t24 -10q12 -11 12 -31t-25 -32l-276 -142q-11 -6 -25 -6z" />
    <glyph glyph-name="icircumflex" unicode="&#xee;" horiz-adv-x="534" 
d="M86 1204q-14 0 -26 11q-11 11 -11 29t17 30l165 123q25 18 50 18t49 -18l166 -123q16 -10 16 -28t-11 -30t-25 -12t-30 8l-165 123l-166 -123q-15 -8 -29 -8zM231 1014q-1 16 11 28t27 13q15 -1 27 -13t11 -28v-979q0 -41 -38 -41t-38 41v979z" />
    <glyph glyph-name="idieresis" unicode="&#xef;" horiz-adv-x="534" 
d="M231 1014q-1 16 11 28t27 13q15 -1 27 -13t11 -28v-979q0 -41 -38 -41t-38 41v979zM365 1293q0 25 17 43t43 18t43 -18t17 -43q0 -26 -17 -43t-43 -17t-43 17t-17 43zM76 1293q0 25 17 43t43 18t43 -18t17 -43q0 -26 -16 -43q-18 -17 -44 -17t-43 17t-17 43z" />
    <glyph glyph-name="eth" unicode="&#xf0;" horiz-adv-x="1189" 
d="M585 926q-139 0 -231 -84t-100 -228t1 -264t101 -206t232 -87q140 0 230 85q92 85 102 206t2 277q-10 131 -104 216t-233 85zM593 1120q-13 0 -25 12t-11 32q0 20 27 32l141 68q-59 49 -115 79q-27 16 -26 39q0 39 36 39t181 -121l149 72q18 10 38 -1t22 -34
q0 -23 -25 -37l-123 -59q76 -80 110 -180t34 -252l-5 -412q1 -186 -119 -301q-120 -114 -294 -114t-289 110t-123 279q-6 125 0 247q8 170 125 276t289 107q106 0 200 -48t136 -124q2 231 -138 377l-170 -80q-12 -6 -25 -6z" />
    <glyph glyph-name="ntilde" unicode="&#xf1;" 
d="M742 1294q28 0 63 25t50 25t27 -11t11 -29q0 -18 -23 -34q-76 -51 -128 -51q-52 -1 -118 37t-93 38t-59 -26t-49 -25q-17 0 -28 11q-10 12 -10 28t16 33q67 55 125 55t123 -38t93 -38zM1063 676v-643q0 -41 -37 -41q-16 0 -28 12q-11 12 -11 29v641q0 319 -338 319
q-201 0 -348 -92v-868q0 -41 -39 -41q-14 0 -25 12t-12 29v874q0 39 35 60q168 102 376 102t318 -99t109 -294z" />
    <glyph glyph-name="ograve" unicode="&#xf2;" horiz-adv-x="1210" 
d="M486 1425q13 0 26 -6l276 -141q25 -12 25 -32t-11 -32q-10 -10 -24 -10t-26 6l-277 142q-25 12 -25 32t12 31q11 10 24 10zM606 993q-152 0 -246 -86t-102 -223q-8 -184 2 -318t104 -222t242 -87q147 0 241 87q93 88 105 226t2 294t-103 243q-93 86 -245 86zM605 1069
q181 0 300 -110t127 -285q8 -143 0 -287q-8 -176 -128 -291q-120 -114 -299 -114t-300 114t-127 291q-6 143 0 287q6 176 126 286t301 109z" />
    <glyph glyph-name="oacute" unicode="&#xf3;" horiz-adv-x="1210" 
d="M446 1204q-14 0 -25 10t-11 31t24 33l277 141q12 6 25 6q12 0 24 -10q12 -11 12 -31t-24 -32l-277 -142q-11 -6 -25 -6zM606 993q-152 0 -246 -86t-102 -223q-8 -184 2 -318t104 -222t242 -87q147 0 241 87q93 88 105 226t2 294t-103 243q-93 86 -245 86zM605 1069
q181 0 300 -110t127 -285q8 -143 0 -287q-8 -176 -128 -291q-120 -114 -299 -114t-300 114t-127 291q-6 143 0 287q6 176 126 286t301 109z" />
    <glyph glyph-name="ocircumflex" unicode="&#xf4;" horiz-adv-x="1210" 
d="M410 1202q-14 0 -26 11q-11 11 -11 29t16 30l166 123q25 18 49 18t49 -18l166 -123q17 -10 17 -28t-12 -30t-25 -12q-14 0 -29 8l-166 123l-166 -123q-14 -8 -28 -8zM606 993q-152 0 -246 -86t-102 -223q-8 -184 2 -318t104 -222t242 -87q147 0 241 87q93 88 105 226
t2 294t-103 243q-93 86 -245 86zM605 1069q181 0 300 -110t127 -285q8 -143 0 -287q-8 -176 -128 -291q-120 -114 -299 -114t-300 114t-127 291q-6 143 0 287q6 176 126 286t301 109z" />
    <glyph glyph-name="otilde" unicode="&#xf5;" horiz-adv-x="1210" 
d="M495 1370q57 0 123 -38t94 -38t62 25t50 25q14 0 26 -11t12 -29t-22 -34q-76 -51 -128 -51q-52 -1 -119 37t-93 38t-58 -26q-33 -26 -50 -25q-17 0 -27 11q-26 29 6 61q66 55 124 55zM606 993q-152 0 -246 -86t-102 -223q-8 -184 2 -318t104 -222t242 -87q147 0 241 87
q93 88 105 226t2 294t-103 243q-93 86 -245 86zM605 1069q181 0 300 -110t127 -285q8 -143 0 -287q-8 -176 -128 -291q-120 -114 -299 -114t-300 114t-127 291q-6 143 0 287q6 176 126 286t301 109z" />
    <glyph glyph-name="odieresis" unicode="&#xf6;" horiz-adv-x="1210" 
d="M751 1354q26 0 43 -18t17 -43q0 -26 -17 -43t-43 -17t-43 17q-18 17 -18 43q0 25 18 43t43 18zM462 1354q26 0 43 -18t17 -43q0 -26 -17 -43t-43 -17t-43 17t-17 43q0 25 16 43q18 18 44 18zM606 993q-152 0 -246 -86t-102 -223q-8 -184 2 -318t104 -222t242 -87
q147 0 241 87q93 88 105 226t2 294t-103 243q-93 86 -245 86zM605 1069q181 0 300 -110t127 -285q8 -143 0 -287q-8 -176 -128 -291q-120 -114 -299 -114t-300 114t-127 291q-6 143 0 287q6 176 126 286t301 109z" />
    <glyph glyph-name="divide" unicode="&#xf7;" horiz-adv-x="1286" 
d="M1118 680h-952q-43 0 -43 38t43 38h952q45 0 45 -39q0 -16 -13 -27q-14 -10 -32 -10zM571 373q0 29 22 51q23 22 51 20q28 0 50 -22t21 -50q0 -28 -22 -50q-23 -22 -51 -21q-28 -1 -50 21t-21 51zM571 1063q0 29 22 49q23 20 51 20t50 -20t21 -49q0 -29 -22 -51
q-23 -22 -51 -21q-28 -1 -50 21t-21 51z" />
    <glyph glyph-name="oslash" unicode="&#xf8;" horiz-adv-x="1206" 
d="M610 993q-158 0 -252 -86t-102 -223q-4 -90 -4 -172q0 -195 43 -281l569 660q-96 102 -254 102zM956 516q0 223 -47 311l-571 -659q98 -111 256 -111t251 87t105 231q6 55 6 141zM608 1069q186 0 307 -121l78 90q11 12 27 14t28 -6t13 -24q0 -16 -10 -31l-88 -102
q61 -94 67 -226t-1 -292t-127 -275q-120 -114 -308 -114t-305 129l-76 -88q-29 -31 -57 -9t0 54l86 100q-62 98 -68 230t2 276q6 176 126 286t306 109z" />
    <glyph glyph-name="ugrave" unicode="&#xf9;" 
d="M479 1384q0 20 11 31q10 10 24 10t27 -6l276 -141q25 -12 25 -32t-12 -32q-12 -10 -24 -10q-14 0 -26 6l-276 142q-25 12 -25 32zM203 375v641q0 16 12 27q28 26 52 0q11 -11 12 -27v-641q0 -147 94 -233t243 -85q197 0 351 109v848q0 41 37 41q16 -1 27 -13t11 -28v-858
q0 -33 -26 -50q-55 -35 -87 -52t-123 -45t-185 -27q-182 0 -300 104t-118 289z" />
    <glyph glyph-name="uacute" unicode="&#xfa;" 
d="M464 1204q-13 0 -25 10q-11 10 -11 31t25 33l276 141q11 6 25 6t25 -10q11 -11 11 -31t-24 -32l-277 -142q-12 -6 -25 -6zM203 375v641q0 16 12 27q28 26 52 0q11 -11 12 -27v-641q0 -147 94 -233t243 -85q197 0 351 109v848q0 41 37 41q16 -1 27 -13t11 -28v-858
q0 -33 -26 -50q-55 -35 -87 -52t-123 -45t-185 -27q-182 0 -300 104t-118 289z" />
    <glyph glyph-name="ucircumflex" unicode="&#xfb;" 
d="M444 1204q-14 0 -25 11t-11 29t16 30l166 123q26 18 50 18t48 -18l166 -123q16 -10 16 -28t-11 -30t-25 -12t-29 8l-166 123l-166 -123q-15 -8 -29 -8zM203 375v641q0 16 12 27q28 26 52 0q11 -11 12 -27v-641q0 -147 94 -233t243 -85q197 0 351 109v848q0 41 37 41
q16 -1 27 -13t11 -28v-858q0 -33 -26 -50q-55 -35 -87 -52t-123 -45t-185 -27q-182 0 -300 104t-118 289z" />
    <glyph glyph-name="udieresis" unicode="&#xfc;" 
d="M719 1293q0 25 17 43t43 18t43 -18q18 -18 18 -43q0 -26 -18 -43t-43 -17q-26 0 -43 17t-17 43zM430 1293q0 25 17 43t43 18t44 -18t17 -43q0 -26 -17 -43q-18 -17 -44 -17t-43 17t-17 43zM203 375v641q0 16 12 27q28 26 52 0q11 -11 12 -27v-641q0 -147 94 -233t243 -85
q197 0 351 109v848q0 41 37 41q16 -1 27 -13t11 -28v-858q0 -33 -26 -50q-55 -35 -87 -52t-123 -45t-185 -27q-182 0 -300 104t-118 289z" />
    <glyph glyph-name="yacute" unicode="&#xfd;" horiz-adv-x="1007" 
d="M450 1206q-12 0 -24 10t-12 32q0 20 24 32l277 141q12 6 25 6q12 0 24 -10q12 -11 12 -31t-24 -32l-277 -142q-12 -6 -25 -6zM523 168q5 0 12 12l342 842q14 29 34 29q21 -1 31 -17t4 -33l-389 -970q-53 -133 -135 -243t-160 -153q-25 -12 -40 -12q-38 0 -40 37
q0 23 25 35q174 85 278 364l-419 936q-8 19 2 37t34 18t35 -26l375 -844q6 -12 11 -12z" />
    <glyph glyph-name="thorn" unicode="&#xfe;" horiz-adv-x="1232" 
d="M297 -350q0 -43 -38 -43t-38 43v1753q0 43 39 43q16 0 26 -12t11 -31v-422q182 80 355 80q174 1 278 -101t121 -294q12 -143 0 -289q-17 -193 -121 -294t-278 -101t-355 79v-411zM641 57q307 0 330 305q14 178 0 318q-23 305 -330 305q-95 1 -193 -27t-151 -59v-756
q53 -31 151 -59t193 -27z" />
    <glyph glyph-name="ydieresis" unicode="&#xff;" horiz-adv-x="1007" 
d="M665 1354q26 0 43 -18t17 -43q0 -26 -17 -43t-43 -17t-43 17q-18 17 -18 43q0 25 18 43t43 18zM376 1354q26 0 43 -18t17 -43q0 -26 -17 -43t-43 -17t-43 17t-17 43q0 25 16 43q18 18 44 18zM523 168q5 0 12 12l342 842q14 29 34 29q21 -1 31 -17t4 -33l-389 -970
q-53 -133 -135 -243t-160 -153q-25 -12 -40 -12q-38 0 -40 37q0 23 25 35q174 85 278 364l-419 936q-8 19 2 37t34 18t35 -26l375 -844q6 -12 11 -12z" />
    <glyph glyph-name="Amacron" unicode="&#x100;" horiz-adv-x="1357" 
d="M504 1665h348q16 0 26 -11q10 -12 11 -26q0 -14 -10 -25t-27 -12h-348q-16 1 -28 11t-11 26q0 16 11 27q12 10 28 10zM678 1374q-52 0 -72 -57l-256 -703h656l-256 703q-20 57 -72 57zM1253 0q-23 0 -32 27l-187 512h-712l-187 -512q-9 -25 -33 -25t-34 17t-5 36
l463 1266q46 127 152 127t151 -127l463 -1266q6 -19 -5 -37t-34 -18z" />
    <glyph glyph-name="amacron" unicode="&#x101;" horiz-adv-x="1159" 
d="M408 1331h348q14 0 25 -10q11 -11 11 -27t-10 -26q-12 -10 -26 -11h-348q-16 1 -28 11t-11 26q0 16 11 27q12 10 28 10zM225 319q-1 -262 349 -262q186 0 311 103v342q-197 57 -342 57t-232 -64q-86 -65 -86 -176zM961 715v-572q0 -31 -23 -45q-164 -116 -372 -116
t-312 89t-104 239t105 238t267 87q162 0 363 -55v133q0 281 -307 280q-139 0 -283 -67q-23 -10 -42 1t-19 35t24 37q131 70 320 70q383 0 383 -354z" />
    <glyph glyph-name="Abreve" unicode="&#x102;" horiz-adv-x="1357" 
d="M850 1761q37 0 37 -39q0 -16 -6 -34q-19 -62 -77 -104t-130 -42t-130 42t-77 104q-6 18 -6 34q0 39 37 39q31 0 39 -41q8 -40 47 -70t91 -30t90 28t46 71q8 42 39 42zM678 1374q-52 0 -72 -57l-256 -703h656l-256 703q-20 57 -72 57zM1253 0q-23 0 -32 27l-187 512h-712
l-187 -512q-9 -25 -33 -25t-34 17t-5 36l463 1266q46 127 152 127t151 -127l463 -1266q6 -19 -5 -37t-34 -18z" />
    <glyph glyph-name="abreve" unicode="&#x103;" horiz-adv-x="1159" 
d="M799 1386q0 -16 -6 -34q-19 -62 -77 -104t-130 -42t-130 42t-77 104q-6 18 -6 34q0 39 37 39q30 -1 38 -41t48 -70t91 -30q52 0 90 29t46 71t39 41q37 0 37 -39zM225 319q-1 -262 349 -262q186 0 311 103v342q-197 57 -342 57t-232 -64q-86 -65 -86 -176zM961 715v-572
q0 -31 -23 -45q-164 -116 -372 -116t-312 89t-104 239t105 238t267 87q162 0 363 -55v133q0 281 -307 280q-139 0 -283 -67q-23 -10 -42 1t-19 35t24 37q131 70 320 70q383 0 383 -354z" />
    <glyph glyph-name="Aogonek" unicode="&#x104;" horiz-adv-x="1357" 
d="M678 1374q-52 0 -72 -57l-256 -703h656l-256 703q-20 57 -72 57zM1190 -322q49 0 77 22t45 21q17 0 28 -10q12 -11 12 -29t-23 -34q-61 -45 -140 -45t-137 54t-58 135t54 152q56 71 160 113l-174 482h-712l-187 -512q-9 -27 -33 -27t-35 16t-4 39l463 1266
q46 127 152 127t151 -127l461 -1258q4 -12 4 -18q0 -35 -30 -45q-193 -82 -193 -205q0 -53 35 -85t84 -32z" />
    <glyph glyph-name="aogonek" unicode="&#x105;" horiz-adv-x="1159" 
d="M225 319q-1 -262 349 -262q186 0 311 103v342q-197 57 -342 57t-232 -64q-86 -65 -86 -176zM961 143q1 -31 -21 -46t-104 -55t-118 -90q-38 -50 -38 -102t35 -84t84 -32t77 22t45 21q17 0 28 -10t11 -29t-22 -35q-61 -45 -140 -45t-138 54q-58 54 -58 134t47 142
q-47 -6 -96 -6q-195 0 -299 89t-104 239t105 238t267 87q162 0 363 -55v133q0 281 -307 280q-139 0 -283 -67q-23 -10 -42 1t-19 35t24 37q131 70 320 70q383 0 383 -354v-572z" />
    <glyph glyph-name="Cacute" unicode="&#x106;" horiz-adv-x="1347" 
d="M618 1540q-14 0 -25 10t-11 31t24 33l277 141q12 6 25 6q12 0 24 -10q12 -11 12 -31t-24 -32l-277 -142q-11 -6 -25 -6zM727 57q145 0 264 83t168 214q13 31 33 31q44 0 43 -37q0 -14 -10 -37q-66 -145 -200 -236t-300 -91q-231 0 -387 158t-172 395q-6 81 -6 169t6 191
q16 231 173 390t388 159q164 0 298 -92t200 -236q10 -23 10 -38t-11 -25q-11 -11 -32 -11t-33 31q-49 131 -168 214t-264 83q-195 0 -331 -135t-151 -327t0 -388q15 -194 148 -330t334 -135z" />
    <glyph glyph-name="cacute" unicode="&#x107;" horiz-adv-x="1138" 
d="M480 1204q-14 0 -24 10q-12 10 -12 31t25 33l276 141q11 6 25 6t26 -10q12 -11 11 -31q0 -20 -25 -32l-276 -142q-12 -6 -26 -6zM614 57q102 -1 188 55t120 167q8 37 41 36q14 0 25 -11t11 -35q1 -25 -23 -71t-67 -96t-122 -86q-79 -35 -173 -34q-192 0 -310 114
t-124 289q-8 145 0 289q8 178 127 289t307 110q94 0 173 -35t122 -85q92 -107 90 -175q0 -16 -11 -27t-25 -12q-33 0 -41 37q-33 111 -119 166t-189 55q-154 0 -250 -87t-106 -230q-10 -174 0 -308t103 -224t253 -91z" />
    <glyph glyph-name="Cdotaccent" unicode="&#x10a;" horiz-adv-x="1347" 
d="M727 1686q27 0 44 -18t17 -43q0 -26 -17 -43t-44 -17t-44 17t-17 43q0 25 17 43t44 18zM727 57q145 0 264 83t168 214q13 31 33 31q44 0 43 -37q0 -14 -10 -37q-66 -145 -200 -236t-300 -91q-231 0 -387 158t-172 395q-6 81 -6 169t6 191q16 231 173 390t388 159
q164 0 298 -92t200 -236q10 -23 10 -38t-11 -25q-11 -11 -32 -11t-33 31q-49 131 -168 214t-264 83q-195 0 -331 -135t-151 -327t0 -388q15 -194 148 -330t334 -135z" />
    <glyph glyph-name="cdotaccent" unicode="&#x10b;" horiz-adv-x="1138" 
d="M606 1354q27 0 44 -18q18 -18 18 -43q0 -26 -18 -43t-44 -17q-27 0 -44 17t-17 43q0 25 17 43t44 18zM614 57q102 -1 188 55t120 167q8 37 41 36q14 0 25 -11t11 -35q1 -25 -23 -71t-67 -96t-122 -86q-79 -35 -173 -34q-192 0 -310 114t-124 289q-8 145 0 289
q8 178 127 289t307 110q94 0 173 -35t122 -85q92 -107 90 -175q0 -16 -11 -27t-25 -12q-33 0 -41 37q-33 111 -119 166t-189 55q-154 0 -250 -87t-106 -230q-10 -174 0 -308t103 -224t253 -91z" />
    <glyph glyph-name="Ccaron" unicode="&#x10c;" horiz-adv-x="1347" 
d="M902 1749q14 0 26 -11q12 -12 12 -30t-16 -29l-166 -123q-26 -18 -50 -18t-49 18l-165 123q-16 11 -16 29t10 30q11 12 26 11q15 0 29 -8l166 -123l165 123q14 8 28 8zM727 57q145 0 264 83t168 214q13 31 33 31q44 0 43 -37q0 -14 -10 -37q-66 -145 -200 -236t-300 -91
q-231 0 -387 158t-172 395q-6 81 -6 169t6 191q16 231 173 390t388 159q164 0 298 -92t200 -236q10 -23 10 -38t-11 -25q-11 -11 -32 -11t-33 31q-49 131 -168 214t-264 83q-195 0 -331 -135t-151 -327t0 -388q15 -194 148 -330t334 -135z" />
    <glyph glyph-name="ccaron" unicode="&#x10d;" horiz-adv-x="1138" 
d="M796 1413q14 0 26 -11q12 -12 12 -30t-17 -29l-166 -122q-51 -37 -98 0l-166 122q-16 11 -16 29t11 30q12 12 26 11q14 0 28 -8l166 -123l166 123q14 8 28 8zM614 57q102 -1 188 55t120 167q8 37 41 36q14 0 25 -11t11 -35q1 -25 -23 -71t-67 -96t-122 -86
q-79 -35 -173 -34q-192 0 -310 114t-124 289q-8 145 0 289q8 178 127 289t307 110q94 0 173 -35t122 -85q92 -107 90 -175q0 -16 -11 -27t-25 -12q-33 0 -41 37q-33 111 -119 166t-189 55q-154 0 -250 -87t-106 -230q-10 -174 0 -308t103 -224t253 -91z" />
    <glyph glyph-name="Dcaron" unicode="&#x10e;" horiz-adv-x="1474" 
d="M909 1749q13 0 25 -11q12 -12 12 -30t-16 -29l-166 -123q-26 -18 -50 -18t-48 18l-166 123q-16 11 -16 29t10 30q12 12 26 11q14 0 29 -8l166 -123l166 123q14 8 28 8zM696 0h-381q-35 0 -54 22t-19 54v1276q0 32 19 54t54 21h381q285 -1 443 -167t170 -439
q4 -131 -2 -225q-14 -266 -173 -431t-438 -165zM317 1352v-1276h373q260 0 396 138t147 380q6 123 0 246q-13 240 -149 376t-394 136h-373z" />
    <glyph glyph-name="dcaron" unicode="&#x10f;" horiz-adv-x="1183" 
d="M1202 1391q0 37 37 39q15 0 27 -12t12 -27v-91q0 -96 -53 -178q-15 -20 -33 -20t-29 11q-10 11 -10 23t8 27q41 74 41 148v80zM260 371q35 -313 344 -314q82 0 182 34t148 67v749q-54 31 -152 59t-192 27q-307 0 -330 -305q-14 -178 0 -317zM934 1401q0 43 38 43t38 -43
v-1254q0 -31 -21 -45q-53 -36 -165 -78t-220 -42q-195 0 -301 104t-123 299q-12 144 0 289q16 193 120 294t278 101t356 -80v412z" />
    <glyph glyph-name="Dcroat" unicode="&#x110;" horiz-adv-x="1474" 
d="M317 1352v-609h404q17 0 29 -11t12 -26q0 -14 -12 -26t-29 -12h-404v-592h373q260 0 396 138t147 380q6 123 0 246q-13 240 -149 376t-394 136h-373zM696 0h-381q-35 0 -54 22t-19 54v592h-181q-16 0 -28 11t-13 26q0 39 41 38h181v609q0 32 19 54t54 21h381
q285 -1 443 -167t170 -439q4 -131 -2 -225q-14 -266 -173 -431t-438 -165z" />
    <glyph glyph-name="dcroat" unicode="&#x111;" horiz-adv-x="1228" 
d="M260 371q35 -313 344 -314q82 0 182 34t148 67v749q-54 31 -152 59t-192 27q-307 0 -330 -305q-14 -178 0 -317zM934 1401q0 43 38 43t38 -43v-123h80q16 0 28 -11t12 -27t-12 -26q-12 -12 -28 -12h-80v-1055q0 -31 -21 -45q-53 -36 -165 -78t-220 -42q-195 0 -301 104
t-123 299q-12 144 0 289q16 193 120 294t278 101t356 -80v213h-248q-16 0 -29 11q-12 11 -12 26q0 39 41 39h248v123z" />
    <glyph glyph-name="Emacron" unicode="&#x112;" horiz-adv-x="1273" 
d="M514 1665h348q14 0 26 -11q12 -12 11 -26q0 -14 -11 -25t-26 -12h-348q-16 1 -28 11t-11 26q0 16 11 27q12 10 28 10zM317 1427h752q39 0 39 -38q0 -13 -11 -25t-28 -12h-752v-594h736q16 0 27 -12q26 -27 0 -53q-11 -11 -27 -11h-736v-606h756q15 0 27 -11t12 -27
t-11 -28q-11 -10 -28 -10h-756q-76 0 -75 76v1276q0 33 19 54t56 21z" />
    <glyph glyph-name="emacron" unicode="&#x113;" horiz-adv-x="1175" 
d="M414 1333h348q16 0 26 -11q24 -27 0 -51q-10 -11 -26 -11h-348q-16 0 -28 10q-11 10 -11 26t11 27q12 10 28 10zM915 567q31 0 33 33q8 182 -84 288t-263 105t-262 -111t-87 -315h663zM1024 647v-55q0 -100 -106 -100h-666v-56q0 -178 99 -278t251 -100t297 61q9 4 23 4
t24 -11t10 -31q0 -43 -169 -79q-93 -20 -166 -20q-209 0 -322 118t-123 328q-4 115 4 227q10 193 129 303t303 111q184 0 298 -120t114 -302z" />
    <glyph glyph-name="Edotaccent" unicode="&#x116;" horiz-adv-x="1273" 
d="M713 1686q27 0 44 -18t17 -43q0 -26 -17 -43t-44 -17t-44 17t-17 43q0 25 16 43q18 18 45 18zM317 1427h752q39 0 39 -38q0 -13 -11 -25t-28 -12h-752v-594h736q16 0 27 -12q26 -27 0 -53q-11 -11 -27 -11h-736v-606h756q15 0 27 -11t12 -27t-11 -28q-11 -10 -28 -10
h-756q-76 0 -75 76v1276q0 33 19 54t56 21z" />
    <glyph glyph-name="edotaccent" unicode="&#x117;" horiz-adv-x="1175" 
d="M612 1352q27 0 44 -18q18 -18 18 -43q0 -26 -18 -43t-44 -17q-27 0 -44 17t-17 43q0 25 17 43t44 18zM915 567q31 0 33 33q8 182 -84 288t-263 105t-262 -111t-87 -315h663zM1024 647v-55q0 -100 -106 -100h-666v-56q0 -178 99 -278t251 -100t297 61q9 4 23 4t24 -11
t10 -31q0 -43 -169 -79q-93 -20 -166 -20q-209 0 -322 118t-123 328q-4 115 4 227q10 193 129 303t303 111q184 0 298 -120t114 -302z" />
    <glyph glyph-name="Eogonek" unicode="&#x118;" horiz-adv-x="1273" 
d="M1130 -279q39 -1 39 -39q0 -18 -22 -34q-61 -45 -140 -45t-138 54q-58 54 -58 138q0 127 125 205h-619q-76 0 -75 76v1276q0 32 19 54t56 21h752q39 0 39 -38q0 -13 -11 -25t-28 -12h-752v-594h736q16 0 27 -12q26 -27 0 -53q-11 -11 -27 -11h-736v-606h756q15 0 27 -11
t12 -33t-22 -28q-100 -35 -150 -91q-50 -55 -51 -113q0 -58 35 -90t84 -32t77 22t45 21z" />
    <glyph glyph-name="eogonek" unicode="&#x119;" horiz-adv-x="1175" 
d="M941 -246q40 0 40 -39q0 -19 -23 -34q-61 -45 -140 -45t-137 54t-58 137t62 156l2 2q-35 -4 -66 -3q-209 0 -322 118t-123 328q-4 115 4 227q10 193 129 303t303 111q184 0 298 -120t114 -302v-55q0 -100 -106 -100h-666v-56q0 -178 99 -278t251 -100t297 61q9 4 23 4
t24 -11t10 -31q0 -21 -24 -33t-83 -34q-58 -22 -103 -74q-46 -52 -46 -108t35 -89q35 -32 84 -32q49 -1 77 21t45 22zM915 567q31 0 33 33q8 182 -84 288t-263 105t-262 -111t-87 -315h663z" />
    <glyph glyph-name="Ecaron" unicode="&#x11a;" horiz-adv-x="1273" 
d="M900 1749q14 0 26 -11q12 -12 12 -30t-16 -29l-166 -123q-26 -18 -50 -18t-49 18l-165 123q-16 11 -16 29t10 30q11 12 26 11q15 0 29 -8l166 -123l165 123q14 8 28 8zM317 1427h752q39 0 39 -38q0 -13 -11 -25t-28 -12h-752v-594h736q16 0 27 -12q26 -27 0 -53
q-11 -11 -27 -11h-736v-606h756q15 0 27 -11t12 -27t-11 -28q-11 -10 -28 -10h-756q-76 0 -75 76v1276q0 33 19 54t56 21z" />
    <glyph glyph-name="ecaron" unicode="&#x11b;" horiz-adv-x="1175" 
d="M794 1411q14 0 26 -11q11 -12 11 -30t-16 -29l-166 -122q-51 -37 -98 0l-166 122q-16 11 -16 29t11 30q12 12 26 11q14 0 28 -8l166 -123l166 123q14 8 28 8zM915 567q31 0 33 33q8 182 -84 288t-263 105t-262 -111t-87 -315h663zM1024 647v-55q0 -100 -106 -100h-666
v-56q0 -178 99 -278t251 -100t297 61q9 4 23 4t24 -11t10 -31q0 -43 -169 -79q-93 -20 -166 -20q-209 0 -322 118t-123 328q-4 115 4 227q10 193 129 303t303 111q184 0 298 -120t114 -302z" />
    <glyph glyph-name="Gbreve" unicode="&#x11e;" horiz-adv-x="1437" 
d="M918 1761q37 0 36 -39q0 -16 -6 -34q-18 -62 -76 -104t-131 -42q-72 0 -140 49t-73 131q0 39 37 39q31 0 39 -41q8 -40 47 -70t91 -30t90 28t47 71q8 42 39 42zM1270 647v-168q0 -197 -146 -347t-384 -148q-236 0 -396 160t-176 405q-12 166 0 334q16 239 175 401
t386 162q367 0 508 -316q10 -24 10 -38t-11 -24t-32 -11q-21 0 -33 30q-49 133 -171 209t-271 76q-193 0 -329 -136t-152 -328t-1 -382q15 -192 151 -329t334 -137t330 112q132 113 132 295v182h-381q-16 0 -29 11q-12 12 -12 28t12 28t29 11h377q40 -1 60 -23t20 -57z" />
    <glyph glyph-name="gbreve" unicode="&#x11f;" horiz-adv-x="1228" 
d="M823 1386q0 -16 -6 -34q-19 -62 -77 -104t-130 -42t-130 42t-77 104q-6 18 -6 34q0 39 37 39q31 -1 39 -41t47 -70t91 -30q53 0 91 29t46 71t38 41q37 0 37 -39zM598 993q-313 0 -344 -311q-12 -123 0 -285q29 -317 346 -317q207 0 332 104v725q-48 33 -142 59t-192 25z
M1008 913v-827q0 -199 -109 -326t-303 -127t-336 95q-37 25 -37 47q0 39 39 39q16 0 45 -21q119 -86 279 -86q160 -1 253 101t93 268v16q-172 -88 -348 -88t-286 109t-122 299q-8 127 0 254q12 195 122 299t304 104q106 0 210 -29t163 -67q33 -23 33 -60z" />
    <glyph glyph-name="Gdotaccent" unicode="&#x120;" horiz-adv-x="1437" 
d="M741 1683q27 0 44 -17t17 -43t-16 -43q-18 -17 -45 -17t-44 17t-17 43t17 43t44 17zM1270 647v-168q0 -197 -146 -347t-384 -148q-236 0 -396 160t-176 405q-12 166 0 334q16 239 175 401t386 162q367 0 508 -316q10 -24 10 -38t-11 -24t-32 -11q-21 0 -33 30
q-49 133 -171 209t-271 76q-193 0 -329 -136t-152 -328t-1 -382q15 -192 151 -329t334 -137t330 112q132 113 132 295v182h-381q-16 0 -29 11q-12 12 -12 28t12 28t29 11h377q40 -1 60 -23t20 -57z" />
    <glyph glyph-name="gdotaccent" unicode="&#x121;" horiz-adv-x="1228" 
d="M610 1354q27 0 44 -18q18 -18 18 -43q0 -26 -18 -43t-44 -17q-27 0 -44 17t-17 43q0 25 17 43t44 18zM598 993q-313 0 -344 -311q-12 -123 0 -285q29 -317 346 -317q207 0 332 104v725q-48 33 -142 59t-192 25zM1008 913v-827q0 -199 -109 -326t-303 -127t-336 95
q-37 25 -37 47q0 39 39 39q16 0 45 -21q119 -86 279 -86q160 -1 253 101t93 268v16q-172 -88 -348 -88t-286 109t-122 299q-8 127 0 254q12 195 122 299t304 104q106 0 210 -29t163 -67q33 -23 33 -60z" />
    <glyph glyph-name="Gcommaaccent" unicode="&#x122;" horiz-adv-x="1437" 
d="M686 -100q0 37 37 39q15 1 27 -11t12 -28v-119q0 -106 -70 -207q-16 -20 -34 -20t-27 11q-10 11 -10 22t8 28q37 53 47 86t10 90v109zM1270 647v-168q0 -197 -146 -347t-384 -148q-236 0 -396 160t-176 405q-12 166 0 334q16 239 175 401t386 162q367 0 508 -316
q10 -24 10 -38t-11 -24t-32 -11q-21 0 -33 30q-49 133 -171 209t-271 76q-193 0 -329 -136t-152 -328t-1 -382q15 -192 151 -329t334 -137t330 112q132 113 132 295v182h-381q-16 0 -29 11q-12 12 -12 28t12 28t29 11h377q40 -1 60 -23t20 -57z" />
    <glyph glyph-name="gcommaaccent" unicode="&#x123;" horiz-adv-x="1228" 
d="M606 1464q0 39 37 39q16 0 28 -11q11 -12 11 -28v-118q0 -106 -70 -207q-14 -21 -32 -21t-29 11q-10 11 -10 23t8 28q37 53 47 86t10 90v108zM598 993q-313 0 -344 -311q-12 -123 0 -285q29 -317 346 -317q207 0 332 104v725q-48 33 -142 59t-192 25zM1008 913v-827
q0 -199 -109 -326t-303 -127t-336 95q-37 25 -37 47q0 39 39 39q16 0 45 -21q119 -86 279 -86q160 -1 253 101t93 268v16q-172 -88 -348 -88t-286 109t-122 299q-8 127 0 254q12 195 122 299t304 104q106 0 210 -29t163 -67q33 -23 33 -60z" />
    <glyph glyph-name="Imacron" unicode="&#x12a;" horiz-adv-x="565" 
d="M109 1665h348q14 0 25 -11q27 -27 0 -51q-11 -11 -25 -12h-348q-15 1 -27 11t-12 26t11 27q12 10 28 10zM244 1399q0 37 37 39q39 0 38 -39v-1368q1 -39 -37 -39t-38 39v1368z" />
    <glyph glyph-name="imacron" unicode="&#x12b;" horiz-adv-x="534" 
d="M231 1014q-1 16 11 28t27 13q15 -1 27 -13t11 -28v-979q0 -41 -38 -41t-38 41v979zM96 1333h348q14 0 26 -11q12 -12 11 -26q0 -14 -11 -25t-26 -11h-348q-16 0 -27 10t-12 26t11 26t28 11z" />
    <glyph glyph-name="Iogonek" unicode="&#x12e;" horiz-adv-x="559" 
d="M335 -279q40 -1 40 -39q0 -18 -23 -34q-61 -45 -140 -45t-136 54q-58 54 -58 135t58 150t166 111v1346q0 37 37 39q39 0 38 -39v-1368q0 -29 -30 -39q-97 -33 -145 -85q-48 -53 -48 -109t35 -88t84 -32t77 22t45 21z" />
    <glyph glyph-name="iogonek" unicode="&#x12f;" horiz-adv-x="534" 
d="M203 -322q49 0 77 22t45 21q17 0 28 -10q11 -11 11 -29t-22 -34q-61 -45 -140 -45t-137 54q-59 54 -59 136t58 154t167 114v953q0 41 37 41q16 -1 28 -13t11 -28v-973q0 -33 -39 -49q-184 -70 -184 -197q0 -53 35 -85t84 -32zM334 1360q0 -29 -20 -48q-20 -20 -47 -20
q-28 0 -47 20t-19 48q0 29 19 48t47 19q27 0 47 -19t20 -48z" />
    <glyph glyph-name="Idotaccent" unicode="&#x130;" horiz-adv-x="565" 
d="M281 1686q27 0 44 -18t17 -43q0 -26 -17 -43t-44 -17t-44 17t-17 43q0 25 16 43q18 18 45 18zM244 1399q0 37 37 39q39 0 38 -39v-1368q1 -39 -37 -39t-38 39v1368z" />
    <glyph glyph-name="dotlessi" unicode="&#x131;" horiz-adv-x="534" 
d="M231 1014q-1 16 11 28t27 13q15 -1 27 -13t11 -28v-979q0 -41 -38 -41t-38 41v979z" />
    <glyph glyph-name="Kcommaaccent" unicode="&#x136;" horiz-adv-x="1251" 
d="M625 -100q0 37 37 39q16 1 27 -11t11 -28v-119q0 -106 -69 -207q-15 -20 -33 -20t-28 11t-11 22q0 11 8 28q37 53 47 86t11 90v109zM242 1399q0 37 37 39q39 0 38 -39v-635h17q38 0 60 8t59 43l665 608q35 27 58 1t-9 -56l-702 -639l727 -670q29 -25 2 -55
q-12 -12 -28 -12t-25 10l-688 635q-35 33 -58 42t-61 9h-17v-657q0 -39 -38 -39q-14 0 -26 11q-11 11 -11 28v1368z" />
    <glyph glyph-name="kcommaaccent" unicode="&#x137;" horiz-adv-x="1042" 
d="M614 -100v-119q0 -106 -69 -207q-15 -20 -33 -20t-28 11t-11 22q0 11 8 28q37 53 47 86t11 90v109q0 16 10 27t26 11q15 0 27 -10q12 -12 12 -28zM221 1405q0 39 38 39t38 -39v-821h51q45 0 68 10t55 43l428 412q13 14 29 14t27 -11q28 -28 -5 -61l-463 -446l484 -482
q14 -14 14 -30q0 -15 -11 -27q-12 -12 -28 -12t-28 12l-447 447q-33 33 -57 44t-68 11h-49v-477q0 -39 -38 -39t-38 37v1376z" />
    <glyph glyph-name="Lacute" unicode="&#x139;" horiz-adv-x="1142" 
d="M302 1546q-14 0 -24 10q-12 10 -12 31t25 33l276 141q11 6 25 6t25 -10q11 -11 11 -31t-24 -32l-276 -142q-12 -6 -26 -6zM236 76v1323q0 16 10 27t26 12q39 0 39 -39v-1323h754q17 0 29 -10t12 -26t-12 -28t-29 -12h-754q-35 0 -55 22t-20 54z" />
    <glyph glyph-name="lacute" unicode="&#x13a;" horiz-adv-x="534" 
d="M116 1542q-13 0 -25 10q-11 10 -11 31t24 33l277 141q11 6 25 6t25 -10q11 -11 11 -31t-24 -32l-277 -142q-12 -6 -25 -6zM231 1403q0 41 38 41t38 -41v-1370q0 -41 -37 -41q-16 0 -27 12t-12 29v1370z" />
    <glyph glyph-name="Lcommaaccent" unicode="&#x13b;" horiz-adv-x="1146" 
d="M643 -100q0 37 37 39q16 1 28 -11t11 -28v-119q0 -106 -70 -207q-15 -20 -33 -20t-28 11t-10 22t8 28q37 53 47 86t10 90v109zM242 1399q0 37 37 39q39 0 38 -39v-1323h754q17 0 29 -10t12 -26t-12 -28t-29 -12h-754q-35 0 -55 22t-20 54v1323z" />
    <glyph glyph-name="lcommaaccent" unicode="&#x13c;" horiz-adv-x="600" 
d="M291 -100q0 37 37 39q16 1 28 -11t11 -28v-119q0 -106 -70 -207q-15 -20 -33 -20t-32 15t1 46q37 53 48 86q10 33 10 90v109zM297 1403q0 41 38 41t38 -41v-1370q0 -41 -37 -41q-16 0 -28 12q-11 12 -11 29v1370z" />
    <glyph glyph-name="Lcaron" unicode="&#x13d;" horiz-adv-x="1146" 
d="M647 1393q0 37 37 39q16 0 28 -12t11 -27v-90q0 -96 -53 -179q-14 -20 -32 -20t-30 11q-10 11 -10 23t8 27q41 74 41 148v80zM242 1399q0 37 37 39q39 0 38 -39v-1323h754q17 0 29 -10t12 -26t-12 -28t-29 -12h-754q-35 0 -55 22t-20 54v1323z" />
    <glyph glyph-name="lcaron" unicode="&#x13e;" horiz-adv-x="507" 
d="M602 1391v-91q0 -96 -53 -178q-15 -20 -33 -20t-29 11q-10 11 -10 23t8 27q41 74 41 148v80q0 16 10 27q10 12 27 12q15 0 27 -12t12 -27zM223 1403q0 41 38 41t38 -41v-1370q0 -41 -37 -41q-16 0 -28 12q-11 12 -11 29v1370z" />
    <glyph glyph-name="Lslash" unicode="&#x141;" horiz-adv-x="1122" 
d="M242 1399q0 37 37 39q39 0 38 -39v-629l238 150q35 23 55 -13q8 -12 3 -27t-19 -24l-277 -176v-604h754q17 0 29 -10t12 -26t-12 -28t-29 -12h-754q-35 0 -55 22t-20 54v557l-127 -80q-20 -12 -41 -3q-20 8 -20 30t20 36l168 105v678z" />
    <glyph glyph-name="lslash" unicode="&#x142;" horiz-adv-x="593" 
d="M256 1403q0 41 38 41t38 -41v-604l147 94q16 12 38 3q22 -8 22 -30t-21 -37l-186 -120v-676q0 -41 -37 -41q-16 0 -28 12q-11 12 -11 29v629l-135 -87q-20 -12 -41 -3q-20 8 -20 30t20 37l176 111v653z" />
    <glyph glyph-name="Nacute" unicode="&#x143;" horiz-adv-x="1576" 
d="M654 1540q-14 0 -24 10q-12 10 -12 31t25 33l277 141q12 6 25 6t25 -10q12 -11 11 -31q0 -20 -25 -32l-276 -142q-12 -6 -26 -6zM1335 74q0 -78 -77 -78q-39 0 -70 47l-866 1313h-5v-1323q0 -39 -38 -39q-14 0 -26 11q-11 11 -11 28v1329q0 78 77 78q39 0 70 -47
l866 -1317h5v1323q0 16 10 27t26 12q39 0 39 -39v-1325z" />
    <glyph glyph-name="nacute" unicode="&#x144;" 
d="M460 1204q-13 0 -25 10q-11 10 -11 31t25 33l276 141q11 6 25 6t25 -10q11 -11 11 -31t-24 -32l-277 -142q-12 -6 -25 -6zM1063 676v-643q0 -41 -37 -41q-16 0 -28 12q-11 12 -11 29v641q0 319 -338 319q-201 0 -348 -92v-868q0 -41 -39 -41q-14 0 -25 12t-12 29v874
q0 39 35 60q168 102 376 102t318 -99t109 -294z" />
    <glyph glyph-name="Ncommaaccent" unicode="&#x145;" horiz-adv-x="1576" 
d="M760 -100q0 37 37 39q15 1 27 -11t12 -28v-119q0 -106 -70 -207q-16 -20 -34 -20t-31 15q-14 15 1 46q37 53 48 86q10 33 10 90v109zM1335 74q0 -78 -77 -78q-39 0 -70 47l-866 1313h-5v-1323q0 -39 -38 -39q-14 0 -26 11q-11 11 -11 28v1329q0 78 77 78q39 0 70 -47
l866 -1317h5v1323q0 16 10 27t26 12q39 0 39 -39v-1325z" />
    <glyph glyph-name="ncommaaccent" unicode="&#x146;" 
d="M604 -100q0 37 37 39q15 1 27 -11t12 -28v-119q0 -106 -70 -207q-16 -20 -34 -20t-27 11q-10 11 -10 22t8 28q37 53 47 86t10 90v109zM1063 676v-643q0 -41 -37 -41q-16 0 -28 12q-11 12 -11 29v641q0 319 -338 319q-201 0 -348 -92v-868q0 -41 -39 -41q-14 0 -25 12
t-12 29v874q0 39 35 60q168 102 376 102t318 -99t109 -294z" />
    <glyph glyph-name="Ncaron" unicode="&#x147;" horiz-adv-x="1576" 
d="M968 1749q14 0 26 -11q12 -12 12 -30t-17 -29l-166 -123q-25 -18 -49 -18t-49 18l-166 123q-16 11 -16 29t11 30q12 12 26 11q14 0 28 -8l166 -123l166 123q14 8 28 8zM1335 74q0 -78 -77 -78q-39 0 -70 47l-866 1313h-5v-1323q0 -39 -38 -39q-14 0 -26 11q-11 11 -11 28
v1329q0 78 77 78q39 0 70 -47l866 -1317h5v1323q0 16 10 27t26 12q39 0 39 -39v-1325z" />
    <glyph glyph-name="ncaron" unicode="&#x148;" 
d="M831 1413q13 0 25 -11q12 -12 12 -30t-16 -29l-166 -122q-51 -37 -98 0l-166 122q-16 11 -16 29t11 30t25 11q14 0 29 -8l166 -123l166 123q14 8 28 8zM1063 676v-643q0 -41 -37 -41q-16 0 -28 12q-11 12 -11 29v641q0 319 -338 319q-201 0 -348 -92v-868q0 -41 -39 -41
q-14 0 -25 12t-12 29v874q0 39 35 60q168 102 376 102t318 -99t109 -294z" />
    <glyph glyph-name="Omacron" unicode="&#x14c;" horiz-adv-x="1484" 
d="M569 1665h349q16 0 26 -11q10 -12 10 -26t-10 -25t-26 -12h-349q-16 1 -27 11t-12 26q0 16 12 26t27 11zM741 59q201 1 339 135t158 328t0 386q-18 192 -158 327t-340 135t-337 -135t-156 -327t0 -386t156 -328t338 -135zM742 -16q-234 0 -395 160t-179 405
q-12 166 0 334q16 239 178 401t395 162t397 -162t179 -401q12 -168 0 -334q-16 -245 -178 -405q-163 -160 -397 -160z" />
    <glyph glyph-name="omacron" unicode="&#x14d;" horiz-adv-x="1210" 
d="M432 1333h348q14 0 26 -11q12 -12 11 -26q0 -14 -11 -25t-26 -11h-348q-16 0 -28 10q-11 10 -11 26t11 27q12 10 28 10zM606 993q-152 0 -246 -86t-102 -223q-8 -184 2 -318t104 -222t242 -87q147 0 241 87q93 88 105 226t2 294t-103 243q-93 86 -245 86zM605 1069
q181 0 300 -110t127 -285q8 -143 0 -287q-8 -176 -128 -291q-120 -114 -299 -114t-300 114t-127 291q-6 143 0 287q6 176 126 286t301 109z" />
    <glyph glyph-name="Ohungarumlaut" unicode="&#x150;" horiz-adv-x="1484" 
d="M831 1540q-39 0 -38 37q0 20 20 35l193 151q18 12 28 13q39 0 39 -37q0 -21 -20 -35l-193 -152q-18 -12 -29 -12zM588 1540q-39 0 -39 37q0 20 20 35l193 151q18 12 29 13q39 0 38 -37q0 -21 -20 -35l-193 -152q-18 -12 -28 -12zM741 59q201 1 339 135t158 328t0 386
q-18 192 -158 327t-340 135t-337 -135t-156 -327t0 -386t156 -328t338 -135zM742 -16q-234 0 -395 160t-179 405q-12 166 0 334q16 239 178 401t395 162t397 -162t179 -401q12 -168 0 -334q-16 -245 -178 -405q-163 -160 -397 -160z" />
    <glyph glyph-name="ohungarumlaut" unicode="&#x151;" horiz-adv-x="1191" 
d="M608 1241q0 20 21 35l192 151q18 12 29 13q39 0 39 -37q-1 -21 -21 -35l-192 -151q-18 -12 -29 -13q-39 0 -39 37zM645 1403q0 -21 -20 -35l-193 -151q-18 -12 -29 -13q-39 0 -38 37q0 20 20 35l193 151q18 12 28 13q39 0 39 -37zM606 993q-152 0 -246 -86t-102 -223
q-8 -184 2 -318t104 -222t242 -87q147 0 241 87q93 88 105 226t2 294t-103 243q-93 86 -245 86zM605 1069q181 0 300 -110t127 -285q8 -143 0 -287q-8 -176 -128 -291q-120 -114 -299 -114t-300 114t-127 291q-6 143 0 287q6 176 126 286t301 109z" />
    <glyph glyph-name="OE" unicode="&#x152;" horiz-adv-x="2136" 
d="M799 1446q167 0 319 -19h813q39 0 39 -38q0 -13 -11 -25t-28 -12h-751v-594h735q15 0 27 -12t12 -26t-11 -26t-28 -12h-735v-606h755q15 0 27 -11t12 -27t-11 -28q-12 -10 -28 -10h-817q-8 0 -100 -8t-221 -8q-301 0 -461 168t-172 448q-4 104 0 211q10 283 172 459
t463 176zM799 1370q-264 0 -406 -149q-141 -150 -153 -396q-6 -121 0 -241q12 -242 152 -383t407 -142q147 1 305 21v1272q-160 18 -305 18z" />
    <glyph glyph-name="oe" unicode="&#x153;" horiz-adv-x="1957" 
d="M606 993q-152 0 -246 -86t-102 -223q-8 -184 2 -318t104 -222t242 -87q147 0 241 87q93 88 105 226t2 294t-103 243q-93 86 -245 86zM606 1069q137 0 242 -65q104 -66 151 -181q49 117 153 182t241 64q186 0 300 -120t113 -302v-55q0 -100 -106 -100h-666v-56
q0 -178 100 -278t250 -100q152 0 297 61q9 4 23 4t24 -11t11 -31q0 -19 -38 -39t-131 -40t-167 -20q-308 -1 -406 251q-49 -115 -152 -183t-239 -68q-180 0 -301 114t-127 291q-6 143 0 287q6 176 126 286t302 109zM1698 567q31 0 33 33q8 182 -84 288t-263 105
q-171 0 -263 -110q-91 -111 -87 -316h664z" />
    <glyph glyph-name="Racute" unicode="&#x154;" horiz-adv-x="1388" 
d="M570 1540q-14 0 -24 10q-11 10 -11 31t24 33l277 141q12 6 25 6t25 -10q12 -11 11 -31q0 -20 -25 -32l-276 -142q-12 -6 -26 -6zM317 688h416q385 0 385 324q0 156 -90 248t-258 92h-453v-664zM633 612h-316v-579q0 -15 -11 -27t-26 -12t-27 11q-11 11 -11 28v1319
q0 32 20 54t55 21h439q206 1 322 -109t116 -306q0 -352 -401 -398l440 -557q14 -18 6 -41q-8 -22 -32 -22t-33 14l-429 541q-29 37 -51 50t-61 13z" />
    <glyph glyph-name="racute" unicode="&#x155;" horiz-adv-x="749" 
d="M302 1202q-14 0 -24 10q-12 10 -12 31t25 33l276 141q11 6 25 6t25 -10q11 -11 11 -31t-24 -32l-276 -142q-12 -6 -26 -6zM721 1012q0 -12 -9 -24q-8 -12 -22 -11q-14 0 -67 8t-101 8q-121 -2 -177 -56t-56 -173v-733q0 -39 -39 -39q-16 0 -27 11q-10 11 -10 28v735
q0 147 80 225t229 78q90 0 164 -18q35 -10 35 -39z" />
    <glyph glyph-name="Rcommaaccent" unicode="&#x156;" horiz-adv-x="1388" 
d="M727 -100v-119q0 -106 -70 -207q-14 -20 -32 -20q-19 0 -29 11t-10 22t8 28q37 53 47 86t10 90v109q1 16 11 27t26 11t28 -10q12 -12 11 -28zM317 688h416q385 0 385 324q0 156 -90 248t-258 92h-453v-664zM633 612h-316v-579q0 -15 -11 -27t-26 -12t-27 11
q-11 11 -11 28v1319q0 32 20 54t55 21h439q206 1 322 -109t116 -306q0 -352 -401 -398l440 -557q14 -18 6 -41q-8 -22 -32 -22t-33 14l-429 541q-29 37 -51 50t-61 13z" />
    <glyph glyph-name="rcommaaccent" unicode="&#x157;" horiz-adv-x="749" 
d="M215 -100q0 37 37 39q16 1 28 -11t11 -28v-119q0 -106 -70 -207q-15 -20 -33 -20t-28 11t-10 22t8 28q37 53 47 86t10 90v109zM721 1012q0 -12 -9 -24q-8 -12 -22 -11q-14 0 -67 8t-101 8q-121 -2 -177 -56t-56 -173v-733q0 -39 -39 -39q-16 0 -27 11q-10 11 -10 28v735
q0 147 80 225t229 78q90 0 164 -18q35 -10 35 -39z" />
    <glyph glyph-name="Rcaron" unicode="&#x158;" horiz-adv-x="1388" 
d="M886 1749q14 0 26 -11q12 -12 12 -30t-17 -29l-166 -123q-25 -18 -49 -18t-49 18l-166 123q-16 11 -16 29t11 30q12 12 26 11q14 0 28 -8l166 -123l166 123q14 8 28 8zM317 688h416q385 0 385 324q0 156 -90 248t-258 92h-453v-664zM633 612h-316v-579q0 -15 -11 -27
t-26 -12t-27 11q-11 11 -11 28v1319q0 32 20 54t55 21h439q206 1 322 -109t116 -306q0 -352 -401 -398l440 -557q14 -18 6 -41q-8 -22 -32 -22t-33 14l-429 541q-29 37 -51 50t-61 13z" />
    <glyph glyph-name="rcaron" unicode="&#x159;" horiz-adv-x="749" 
d="M666 1411q14 0 25 -11q11 -12 11 -30t-16 -29l-166 -122q-51 -37 -98 0l-166 122q-16 11 -16 29t11 30t25 11q14 0 29 -8l166 -123l166 123q15 8 29 8zM721 1012q0 -12 -9 -24q-8 -12 -22 -11q-14 0 -67 8t-101 8q-121 -2 -177 -56t-56 -173v-733q0 -39 -39 -39
q-16 0 -27 11q-10 11 -10 28v735q0 147 80 225t229 78q90 0 164 -18q35 -10 35 -39z" />
    <glyph glyph-name="Sacute" unicode="&#x15a;" horiz-adv-x="1241" 
d="M507 1540q-13 0 -25 10q-11 10 -11 31t25 33l276 141q12 6 26 6t24 -10q12 -11 12 -31t-25 -32l-277 -142q-12 -6 -25 -6zM1143 391q0 -188 -130 -298q-130 -109 -381 -109t-466 143q-23 14 -23 39q0 39 39 39q12 0 29 -10q193 -135 413 -135t332 85q112 86 111 246
q0 200 -281 265q-51 13 -199 46t-244 88q-95 54 -135 122t-40 161q0 173 126 273t352 100t370 -117q16 -12 16 -31q0 -39 -37 -38q-16 0 -37 14q-142 96 -332 96t-286 -84t-96 -206t78 -189t216 -99q50 -12 135 -30t142 -34q163 -47 234 -113q94 -87 94 -224z" />
    <glyph glyph-name="sacute" unicode="&#x15b;" horiz-adv-x="978" 
d="M344 1204q-14 0 -26 10q-11 10 -11 31t25 33l276 141q12 6 26 6t24 -10q12 -11 12 -31t-25 -32l-276 -142q-11 -6 -25 -6zM150 128q0 42 36 42q14 0 31 -12q119 -100 311 -101q123 0 200 66t77 155t-65 136q-66 46 -158 68t-186 46t-158 85q-64 60 -64 177t95 198t247 81
t279 -84q37 -27 13 -57t-63 -4q-102 70 -227 70q-124 0 -196 -57q-72 -56 -72 -163q0 -68 47 -110t117 -58q176 -44 303 -88q70 -25 117 -84t47 -149q1 -135 -95 -219t-256 -84q-217 0 -364 116q-16 10 -16 30z" />
    <glyph glyph-name="Scedilla" unicode="&#x15e;" horiz-adv-x="1241" 
d="M143 166q0 39 39 39q12 0 29 -10q193 -135 413 -135t332 85q112 86 111 246q0 200 -281 265q-51 13 -199 46t-244 88q-95 54 -135 122t-40 161q0 173 126 273t352 100t370 -117q16 -12 16 -31q0 -39 -37 -38q-16 0 -37 14q-142 96 -332 96t-286 -84t-96 -206t78 -189
t216 -99q50 -12 135 -30t142 -34q163 -47 234 -113q94 -87 94 -224q0 -188 -130 -298t-360 -109h-30q-2 -2 -2 -7l-37 -100q72 6 123 -35t51 -106q0 -143 -236 -219q-20 -6 -37 5q-16 12 -16 34t31 32q184 59 184 146q0 35 -24 55t-60 21l-63 -15q-23 -1 -34 17t-3 38
l47 140q-203 18 -381 137q-23 14 -23 39z" />
    <glyph glyph-name="scedilla" unicode="&#x15f;" horiz-adv-x="978" 
d="M133 131q0 39 37 39q14 0 31 -12q119 -100 311 -101q123 0 200 66q76 66 76 155t-64 136q-65 46 -158 68t-186 46t-158 85q-65 60 -64 161q0 133 95 214t247 81t278 -84q36 -27 12 -57t-61 -4q-102 70 -227 70t-197 -57q-72 -56 -72 -163q-1 -68 47 -110t118 -58
q185 -46 302 -88q70 -25 117 -84t47 -149q0 -131 -89 -214t-240 -89l-37 -105q72 6 123 -35t51 -106q0 -143 -236 -219q-20 -6 -37 5q-16 12 -16 34t31 32q184 59 184 146q0 35 -24 55t-60 21l-63 -15q-23 -1 -34 17t-3 38l45 134q-182 16 -309 114q-17 10 -17 33z" />
    <glyph glyph-name="Scaron" unicode="&#x160;" horiz-adv-x="1241" 
d="M804 1745q14 0 26 -11q12 -12 12 -30t-17 -29l-166 -123q-25 -18 -49 -18t-49 18l-166 123q-16 11 -16 29t11 30q12 12 26 11q14 0 28 -8l166 -123l166 123q14 8 28 8zM1143 391q0 -188 -130 -298q-130 -109 -381 -109t-466 143q-23 14 -23 39q0 39 39 39q12 0 29 -10
q193 -135 413 -135t332 85q112 86 111 246q0 200 -281 265q-51 13 -199 46t-244 88q-95 54 -135 122t-40 161q0 173 126 273t352 100t370 -117q16 -12 16 -31q0 -39 -37 -38q-16 0 -37 14q-142 96 -332 96t-286 -84t-96 -206t78 -189t216 -99q50 -12 135 -30t142 -34
q163 -47 234 -113q94 -87 94 -224z" />
    <glyph glyph-name="scaron" unicode="&#x161;" horiz-adv-x="978" 
d="M480 1178q-24 0 -48 18l-166 123q-16 11 -16 29q0 39 39 41q12 -1 26 -9l166 -123l166 123q34 19 49 3q16 -17 16 -35t-16 -29l-166 -123q-26 -18 -50 -18zM150 128q0 42 36 42q14 0 31 -12q119 -100 311 -101q123 0 200 66t77 155t-65 136q-66 46 -158 68t-186 46
t-158 85q-64 60 -64 177t95 198t247 81t279 -84q37 -27 13 -57t-63 -4q-102 70 -227 70q-124 0 -196 -57q-72 -56 -72 -163q0 -68 47 -110t117 -58q176 -44 303 -88q70 -25 117 -84t47 -149q1 -135 -95 -219t-256 -84q-217 0 -364 116q-16 10 -16 30z" />
    <glyph glyph-name="Tcommaaccent" unicode="&#x162;" horiz-adv-x="1198" 
d="M563 -238q0 39 37 39q16 0 28 -11q11 -12 11 -28v-118q0 -106 -70 -207q-16 -21 -33 -21q-18 0 -28 12t-10 22q0 11 8 28q37 53 47 86t10 90v108zM563 33v1319h-473q-16 0 -29 11q-12 11 -12 28q0 37 41 36h1018q41 0 41 -36q0 -15 -12 -27t-29 -12h-469v-1319
q0 -17 -11 -29t-28 -12q-37 0 -37 41z" />
    <glyph glyph-name="tcommaaccent" unicode="&#x163;" horiz-adv-x="798" 
d="M518 -100v-119q0 -106 -69 -207q-15 -20 -33 -20t-28 11t-11 22q0 11 8 28q37 53 47 86t10 90v109q0 16 10 27t27 11q15 0 27 -10q12 -12 12 -28zM470 -16q-122 0 -188 78t-67 210v949q0 16 11 27t28 12q37 0 37 -39v-189h354q17 0 29 -11t12 -26q0 -39 -41 -39h-354
v-692q0 -90 48 -147t137 -57t186 40q20 10 39 1t19 -33t-32 -39q-96 -45 -218 -45z" />
    <glyph glyph-name="Tcaron" unicode="&#x164;" horiz-adv-x="1198" 
d="M794 1749q14 0 26 -11q11 -12 11 -30t-16 -29l-166 -123q-25 -18 -49 -18t-49 18l-166 123q-16 11 -16 29t11 30q12 12 26 11q14 0 28 -8l166 -123l166 123q14 8 28 8zM563 33v1319h-473q-16 0 -29 11q-12 11 -12 28q0 37 41 36h1018q41 0 41 -36q0 -15 -12 -27t-29 -12
h-469v-1319q0 -17 -11 -29t-28 -12q-37 0 -37 41z" />
    <glyph glyph-name="tcaron" unicode="&#x165;" horiz-adv-x="811" 
d="M457 1391q0 37 37 39q16 0 27 -12t11 -27v-91q0 -96 -53 -178q-15 -20 -33 -20t-28 11t-10 23t8 27q41 74 41 148v80zM470 -16q-122 0 -188 78t-67 210v949q0 16 11 27t28 12q37 0 37 -39v-189h354q17 0 29 -11t12 -26q0 -39 -41 -39h-354v-692q0 -90 48 -147t137 -57
t186 40q20 10 39 1t19 -33t-32 -39q-96 -45 -218 -45z" />
    <glyph glyph-name="Umacron" unicode="&#x16a;" horiz-adv-x="1531" 
d="M592 1589q-39 0 -39 37q0 16 11 27q12 10 28 10h348q14 0 26 -10q12 -11 11 -27q0 -16 -11 -26t-26 -11h-348zM1239 1399q0 37 38 38t38 -38v-846q0 -252 -156 -411q-155 -158 -393 -158t-392 158t-155 411v846q0 37 38 38t38 -38v-830q0 -229 132 -369t339 -140t340 140
t133 369v830z" />
    <glyph glyph-name="umacron" unicode="&#x16b;" 
d="M467 1333h348q17 0 27 -11q10 -12 10 -26t-10 -25t-27 -11h-348q-16 0 -28 10q-11 10 -11 26t11 27q12 10 28 10zM203 375v641q0 16 12 27q28 26 52 0q11 -11 12 -27v-641q0 -147 94 -233t243 -85q197 0 351 109v848q0 41 37 41q16 -1 27 -13t11 -28v-858q0 -33 -26 -50
q-55 -35 -87 -52t-123 -45t-185 -27q-182 0 -300 104t-118 289z" />
    <glyph glyph-name="Uring" unicode="&#x16e;" horiz-adv-x="1531" 
d="M657 1710q0 -45 33 -78t78 -33t77 33t32 78t-32 77t-77 32t-78 -32t-33 -77zM598 1710q0 68 50 117t119 49t118 -49t49 -117t-49 -118t-118 -50t-119 50t-50 118zM1239 1399q0 37 38 38t38 -38v-846q0 -252 -156 -411q-155 -158 -393 -158t-392 158t-155 411v846
q0 37 38 38t38 -38v-830q0 -229 132 -369t339 -140t340 140t133 369v830z" />
    <glyph glyph-name="uring" unicode="&#x16f;" 
d="M532 1374q0 -45 33 -78q33 -32 78 -32t77 32t32 78q0 45 -32 77t-77 32t-78 -32t-33 -77zM473 1374q0 68 50 117t119 49t118 -49t49 -117t-49 -118t-118 -50t-119 50t-50 118zM203 375v641q0 16 12 27q28 26 52 0q11 -11 12 -27v-641q0 -147 94 -233t243 -85
q197 0 351 109v848q0 41 37 41q16 -1 27 -13t11 -28v-858q0 -33 -26 -50q-55 -35 -87 -52t-123 -45t-185 -27q-182 0 -300 104t-118 289z" />
    <glyph glyph-name="Uhungarumlaut" unicode="&#x170;" horiz-adv-x="1531" 
d="M879 1540q-39 0 -39 37q0 20 20 35l193 151q18 12 28 13q39 0 39 -37q0 -21 -20 -35l-193 -152q-18 -12 -28 -12zM635 1540q-39 0 -39 37q0 20 20 35l193 151q18 12 29 13q39 0 39 -37q-1 -21 -21 -35l-192 -152q-18 -12 -29 -12zM1239 1399q0 37 38 38t38 -38v-846
q0 -252 -156 -411q-155 -158 -393 -158t-392 158t-155 411v846q0 37 38 38t38 -38v-830q0 -229 132 -369t339 -140t340 140t133 369v830z" />
    <glyph glyph-name="uhungarumlaut" unicode="&#x171;" 
d="M694 1243q0 20 21 35l192 152q18 12 29 12q39 0 39 -37q-1 -21 -21 -35l-192 -151q-18 -12 -29 -13q-39 0 -39 37zM692 1442q39 0 39 -37q0 -21 -20 -35l-193 -151q-18 -12 -29 -13q-39 0 -38 37q0 20 20 35l193 152q18 12 28 12zM203 375v641q0 16 12 27q28 26 52 0
q11 -11 12 -27v-641q0 -147 94 -233t243 -85q197 0 351 109v848q0 41 37 41q16 -1 27 -13t11 -28v-858q0 -33 -26 -50q-55 -35 -87 -52t-123 -45t-185 -27q-182 0 -300 104t-118 289z" />
    <glyph glyph-name="Uogonek" unicode="&#x172;" horiz-adv-x="1531" 
d="M1239 1399q0 37 38 38t38 -38v-846q0 -207 -108 -353t-285 -196q-80 -23 -127 -84q-47 -62 -47 -118t34 -88t84 -32q49 0 77 22t45 22q16 0 28 -10t12 -30q0 -18 -22 -34q-60 -45 -140 -45t-138 54t-58 148t96 175q-238 0 -392 158t-155 411v846q0 37 38 38t38 -38v-830
q0 -229 132 -369t339 -140t340 140t133 369v830z" />
    <glyph glyph-name="uogonek" unicode="&#x173;" 
d="M766 -150q0 -52 35 -84t84 -32t77 22t45 21q17 0 28 -10t11 -29t-22 -35q-61 -45 -140 -45t-138 54q-58 54 -58 133t49 147q-223 -39 -378 65t-154 318v641q0 16 12 27q28 26 52 0q11 -11 12 -27v-641q0 -147 94 -233t243 -85q197 0 351 109v848q0 41 37 41q16 -1 27 -13
t11 -28v-858q0 -34 -19 -46t-46 -26l-25 -14q-188 -104 -188 -220z" />
    <glyph glyph-name="Wcircumflex" unicode="&#x174;" horiz-adv-x="1914" 
d="M760 1540q-14 0 -26 11q-11 11 -11 29t16 30l166 123q25 18 49 18t50 -18l165 -123q17 -10 17 -28t-11 -30t-25 -12t-30 8l-166 123l-166 -123q-14 -8 -28 -8zM962 1358q-5 0 -8 -6l-368 -1297q-18 -71 -91 -71t-92 73l-303 1334q-4 18 6 33q10 16 36 16t32 -29
l303 -1337q5 -14 17 -14t16 14l367 1284q20 78 87 78t87 -78l356 -1284q4 -14 17 -14t16 14l313 1335q6 31 37 31q18 0 28 -12t11 -25l-313 -1348q-16 -71 -90 -71t-93 73l-364 1295q-2 6 -7 6z" />
    <glyph glyph-name="wcircumflex" unicode="&#x175;" horiz-adv-x="1669" 
d="M640 1202q-14 0 -27 11q-11 11 -11 29t16 30l166 123q25 18 50 18t49 -18l166 -123q16 -10 16 -28t-11 -30q-12 -12 -26 -12t-29 8l-165 123l-166 -123q-14 -8 -28 -8zM1204 47q6 0 10 10l291 975q7 29 31 29q24 -1 36 -17t7 -36l-287 -965q-23 -74 -88 -74t-86 74
l-272 932q-2 8 -10 8t-11 -8l-272 -932q-20 -74 -86 -74t-88 74l-287 965q-6 20 6 36t36 16t32 -28l291 -975q4 -10 10 -10t10 10l273 928q20 76 86 76t86 -76l272 -928q4 -10 10 -10z" />
    <glyph glyph-name="Ycircumflex" unicode="&#x176;" horiz-adv-x="1302" 
d="M455 1540q-14 0 -26 11q-11 11 -11 29t16 30l166 123q26 18 50 18t48 -18l166 -123q16 -10 16 -28t-10 -30q-12 -12 -26 -12t-29 8l-166 123l-166 -123q-14 -8 -28 -8zM1222 1440q17 0 34 -17t-5 -47l-526 -651q-35 -45 -35 -92v-602q0 -15 -11 -27t-27 -12t-26 11
q-11 11 -12 28v602q0 45 -39 92l-524 653q-8 10 -8 24t11 25q12 11 28 11t27 -13l542 -675l543 675q11 15 28 15z" />
    <glyph glyph-name="ycircumflex" unicode="&#x177;" horiz-adv-x="1007" 
d="M326 1204q-14 0 -26 11q-11 11 -11 29t16 30l166 123q25 18 49 18t49 -18l166 -123q17 -10 17 -28t-12 -30t-25 -12q-14 0 -29 8l-166 123l-166 -123q-14 -8 -28 -8zM523 168q5 0 12 12l342 842q14 29 34 29q21 -1 31 -17t4 -33l-389 -970q-53 -133 -135 -243t-160 -153
q-25 -12 -40 -12q-38 0 -40 37q0 23 25 35q174 85 278 364l-419 936q-8 19 2 37t34 18t35 -26l375 -844q6 -12 11 -12z" />
    <glyph glyph-name="Ydieresis" unicode="&#x178;" horiz-adv-x="1302" 
d="M796 1581q26 0 43 -17t17 -43t-17 -43q-17 -18 -43 -18t-43 18t-17 43q0 26 16 43q18 17 44 17zM507 1581q26 0 43 -17t17 -43t-17 -43q-17 -18 -43 -18t-43 18q-18 18 -18 43q0 26 18 43t43 17zM1222 1440q17 0 34 -17t-5 -47l-526 -651q-35 -45 -35 -92v-602
q0 -15 -11 -27t-27 -12t-26 11q-11 11 -12 28v602q0 45 -39 92l-524 653q-8 10 -8 24t11 25q12 11 28 11t27 -13l542 -675l543 675q11 15 28 15z" />
    <glyph glyph-name="Zacute" unicode="&#x179;" horiz-adv-x="1185" 
d="M499 1540q-13 0 -25 10q-11 10 -11 31t24 33l277 141q12 6 25 6t25 -10q12 -11 12 -31t-25 -32l-277 -142q-12 -6 -25 -6zM180 1427h834q36 0 58 -19t22 -47t-17 -50l-858 -1235h834q41 0 41 -37q0 -15 -12 -27t-29 -12h-834q-35 0 -57 19t-23 47q0 28 17 51l858 1235
h-834q-16 0 -28 11t-12 27t12 26q12 11 28 11z" />
    <glyph glyph-name="zacute" unicode="&#x17a;" horiz-adv-x="1017" 
d="M364 1204q-13 0 -25 10q-11 10 -11 31t24 33l277 141q12 6 25 6q12 0 24 -10q12 -11 12 -31t-24 -32l-277 -142q-12 -6 -25 -6zM197 1032h632q35 0 58 -19t23 -49t-17 -49l-694 -839h653q41 0 41 -37q0 -15 -12 -27t-29 -12h-653q-35 0 -58 19t-23 47t17 51l694 839h-632
q-17 0 -29 12t-12 26q0 15 12 27q13 11 29 11z" />
    <glyph glyph-name="Zdotaccent" unicode="&#x17b;" horiz-adv-x="1185" 
d="M598 1686q27 0 44 -18t17 -43q0 -26 -17 -43t-44 -17t-44 17t-17 43q0 25 17 43t44 18zM180 1427h834q36 0 58 -19t22 -47t-17 -50l-858 -1235h834q41 0 41 -37q0 -15 -12 -27t-29 -12h-834q-35 0 -57 19t-23 47q0 28 17 51l858 1235h-834q-16 0 -28 11t-12 27t12 26
q12 11 28 11z" />
    <glyph glyph-name="zdotaccent" unicode="&#x17c;" horiz-adv-x="1017" 
d="M479 1352q27 0 44 -18t17 -43q0 -26 -16 -43q-18 -17 -45 -17t-44 17t-17 43q0 25 17 43t44 18zM197 1032h632q35 0 58 -19t23 -49t-17 -49l-694 -839h653q41 0 41 -37q0 -15 -12 -27t-29 -12h-653q-35 0 -58 19t-23 47t17 51l694 839h-632q-17 0 -29 12t-12 26
q0 15 12 27q13 11 29 11z" />
    <glyph glyph-name="Zcaron" unicode="&#x17d;" horiz-adv-x="1185" 
d="M812 1749q14 0 26 -11q12 -12 12 -30t-16 -29l-166 -123q-25 -18 -50 -18t-49 18l-166 123q-16 11 -16 29t11 30t26 11q15 0 29 -8l165 -123l166 123q14 8 28 8zM180 1427h834q36 0 58 -19t22 -47t-17 -50l-858 -1235h834q41 0 41 -37q0 -15 -12 -27t-29 -12h-834
q-35 0 -57 19t-23 47q0 28 17 51l858 1235h-834q-16 0 -28 11t-12 27t12 26q12 11 28 11z" />
    <glyph glyph-name="zcaron" unicode="&#x17e;" horiz-adv-x="1017" 
d="M682 1413q14 0 26 -11q12 -12 11 -30q0 -18 -17 -29l-165 -122q-52 -37 -99 0l-166 122q-16 11 -16 29t11 30t26 11q15 0 29 -8l165 -123l166 123q15 8 29 8zM197 1032h632q35 0 58 -19t23 -49t-17 -49l-694 -839h653q41 0 41 -37q0 -15 -12 -27t-29 -12h-653
q-35 0 -58 19t-23 47t17 51l694 839h-632q-17 0 -29 12t-12 26q0 15 12 27q13 11 29 11z" />
    <glyph glyph-name="florin" unicode="&#x192;" horiz-adv-x="1134" 
d="M221 694q-35 0 -36 36t36 36h144l145 467q33 107 114 163t185 56q186 0 297 -111q10 -9 10 -31t-22 -28t-43 12q-90 82 -214 82q-123 0 -179 -48t-85 -138l-129 -424h367q39 0 39 -36t-39 -36h-389l-330 -1079q-10 -29 -36 -29t-34 16t-2 40l322 1052h-121z" />
    <glyph glyph-name="Scommaaccent" unicode="&#x218;" horiz-adv-x="1241" 
d="M602 -100q0 37 37 39q15 1 27 -11t12 -28v-119q0 -106 -70 -207q-14 -20 -32 -20t-29 11q-10 11 -10 22t8 28q37 53 47 86t10 90v109zM1143 391q0 -188 -130 -298q-130 -109 -381 -109t-466 143q-23 14 -23 39q0 39 39 39q12 0 29 -10q193 -135 413 -135t332 85
q112 86 111 246q0 200 -281 265q-51 13 -199 46t-244 88q-95 54 -135 122t-40 161q0 173 126 273t352 100t370 -117q16 -12 16 -31q0 -39 -37 -38q-16 0 -37 14q-142 96 -332 96t-286 -84t-96 -206t78 -189t216 -99q50 -12 135 -30t142 -34q163 -47 234 -113q94 -87 94 -224
z" />
    <glyph glyph-name="scommaaccent" unicode="&#x219;" horiz-adv-x="978" 
d="M561 -100v-119q0 -106 -69 -207q-16 -20 -34 -20t-28 11t-10 22t8 28q37 53 47 86t10 90v109q1 16 11 27t26 11t28 -10q12 -12 11 -28zM150 128q0 42 36 42q14 0 31 -12q119 -100 311 -101q123 0 200 66t77 155t-65 136q-66 46 -158 68t-186 46t-158 85q-64 60 -64 177
t95 198t247 81t279 -84q37 -27 13 -57t-63 -4q-102 70 -227 70q-124 0 -196 -57q-72 -56 -72 -163q0 -68 47 -110t117 -58q176 -44 303 -88q70 -25 117 -84t47 -149q1 -135 -95 -219t-256 -84q-217 0 -364 116q-16 10 -16 30z" />
    <glyph glyph-name="circumflex" unicode="&#x2c6;" horiz-adv-x="659" 
d="M134 1536q-14 0 -26 11t-12 29t17 30l166 123q25 18 49 18t49 -18l166 -123q16 -10 16 -28t-11 -30q-12 -12 -26 -12t-28 8l-166 123l-166 -123q-14 -8 -28 -8z" />
    <glyph glyph-name="caron" unicode="&#x2c7;" horiz-adv-x="659" 
d="M522 1745q14 0 26 -11q12 -12 11 -30q0 -18 -16 -29l-166 -123q-25 -18 -49 -18t-49 18l-166 123q-17 11 -17 29t12 30t26 11q14 0 28 -8l166 -123l166 123q14 8 28 8z" />
    <glyph glyph-name="breve" unicode="&#x2d8;" horiz-adv-x="659" 
d="M506 1772q37 0 37 -39q0 -16 -6 -35q-19 -62 -77 -104t-130 -42t-130 42t-77 104q-6 18 -6 35q0 39 37 39q30 0 38 -41t48 -71t91 -30q52 0 90 29t46 71t39 42z" />
    <glyph glyph-name="dotaccent" unicode="&#x2d9;" horiz-adv-x="659" 
d="M330 1686q27 0 44 -18t17 -43q0 -26 -17 -43t-44 -17t-44 17q-18 17 -18 43q0 25 18 43t44 18z" />
    <glyph glyph-name="ring" unicode="&#x2da;" horiz-adv-x="665" 
d="M242 1700q0 -45 32 -78t78 -33q45 0 77 33t32 78t-32 77q-32 31 -77 31t-78 -31q-32 -32 -32 -77zM182 1700q0 68 50 117t119 49t118 -49t49 -117t-49 -118t-118 -50t-119 50t-50 118z" />
    <glyph glyph-name="ogonek" unicode="&#x2db;" horiz-adv-x="659" 
d="M491 -279q39 -1 39 -39q0 -18 -22 -34q-61 -45 -140 -45t-138 54q-58 54 -58 137t62 156t178 118q18 10 40 3t22 -34t-32 -37q-96 -35 -144 -90q-48 -56 -48 -112t35 -88t84 -32t77 22t45 21z" />
    <glyph glyph-name="tilde" unicode="&#x2dc;" horiz-adv-x="659" 
d="M441 1618q28 0 63 24t50 25q14 0 26 -10t12 -29t-23 -35q-76 -51 -128 -51q-53 0 -119 38t-92 38t-68 -33t-68 -7q-10 12 -10 28t16 32q66 56 124 56t124 -38t93 -38z" />
    <glyph glyph-name="hungarumlaut" unicode="&#x2dd;" horiz-adv-x="659" 
d="M356 1540q-39 0 -39 37q0 20 21 35l192 151q18 12 29 13q39 0 39 -37q0 -21 -20 -35l-193 -152q-18 -12 -29 -12zM113 1540q-39 0 -39 37q0 20 20 35l193 151q18 12 28 13q39 0 39 -37q0 -21 -20 -35l-193 -152q-18 -12 -28 -12z" />
    <glyph glyph-name="Wgrave" unicode="&#x1e80;" horiz-adv-x="1914" 
d="M729 1720q0 20 11 30q10 10 24 11q14 0 27 -6l276 -141q25 -12 25 -32t-12 -32q-12 -10 -24 -10q-14 0 -26 6l-276 142q-25 12 -25 32zM962 1358q-5 0 -8 -6l-368 -1297q-18 -71 -91 -71t-92 73l-303 1334q-4 18 6 33q10 16 36 16t32 -29l303 -1337q5 -14 17 -14t16 14
l367 1284q20 78 87 78t87 -78l356 -1284q4 -14 17 -14t16 14l313 1335q6 31 37 31q18 0 28 -12t11 -25l-313 -1348q-16 -71 -90 -71t-93 73l-364 1295q-2 6 -7 6z" />
    <glyph glyph-name="wgrave" unicode="&#x1e81;" horiz-adv-x="1669" 
d="M664 1423q14 0 26 -6l277 -141q25 -12 25 -32t-12 -32q-10 -10 -24 -10t-26 6l-277 142q-25 12 -25 32t12 30q10 10 24 11zM1204 47q6 0 10 10l291 975q7 29 31 29q24 -1 36 -17t7 -36l-287 -965q-23 -74 -88 -74t-86 74l-272 932q-2 8 -10 8t-11 -8l-272 -932
q-20 -74 -86 -74t-88 74l-287 965q-6 20 6 36t36 16t32 -28l291 -975q4 -10 10 -10t10 10l273 928q20 76 86 76t86 -76l272 -928q4 -10 10 -10z" />
    <glyph glyph-name="Wacute" unicode="&#x1e82;" horiz-adv-x="1914" 
d="M862 1540q-14 0 -25 10t-11 31t24 33l276 141q12 6 26 6t24 -10q12 -11 12 -31t-25 -32l-276 -142q-11 -6 -25 -6zM962 1358q-5 0 -8 -6l-368 -1297q-18 -71 -91 -71t-92 73l-303 1334q-4 18 6 33q10 16 36 16t32 -29l303 -1337q5 -14 17 -14t16 14l367 1284q20 78 87 78
t87 -78l356 -1284q4 -14 17 -14t16 14l313 1335q6 31 37 31q18 0 28 -12t11 -25l-313 -1348q-16 -71 -90 -71t-93 73l-364 1295q-2 6 -7 6z" />
    <glyph glyph-name="wacute" unicode="&#x1e83;" horiz-adv-x="1669" 
d="M673 1202q-13 0 -25 10q-11 10 -11 31t25 33l276 141q12 6 26 6t24 -10q12 -11 12 -31t-25 -32l-277 -142q-12 -6 -25 -6zM1204 47q6 0 10 10l291 975q7 29 31 29q24 -1 36 -17t7 -36l-287 -965q-23 -74 -88 -74t-86 74l-272 932q-2 8 -10 8t-11 -8l-272 -932
q-20 -74 -86 -74t-88 74l-287 965q-6 20 6 36t36 16t32 -28l291 -975q4 -10 10 -10t10 10l273 928q20 76 86 76t86 -76l272 -928q4 -10 10 -10z" />
    <glyph glyph-name="Wdieresis" unicode="&#x1e84;" horiz-adv-x="1914" 
d="M1101 1683q26 0 43 -17t17 -43t-17 -43t-43 -17t-43 17q-18 17 -18 43t18 43t43 17zM812 1683q26 0 43 -17t17 -43t-17 -43t-43 -17t-43 17t-17 43t17 43t43 17zM962 1358q-5 0 -8 -6l-368 -1297q-18 -71 -91 -71t-92 73l-303 1334q-4 18 6 33q10 16 36 16t32 -29
l303 -1337q5 -14 17 -14t16 14l367 1284q20 78 87 78t87 -78l356 -1284q4 -14 17 -14t16 14l313 1335q6 31 37 31q18 0 28 -12t11 -25l-313 -1348q-16 -71 -90 -71t-93 73l-364 1295q-2 6 -7 6z" />
    <glyph glyph-name="wdieresis" unicode="&#x1e85;" horiz-adv-x="1669" 
d="M918 1293q0 25 17 43t43 18t43 -18t17 -43q0 -26 -17 -43t-43 -17t-43 17t-17 43zM629 1293q0 25 17 43t43 18t43 -18q18 -18 18 -43q0 -26 -18 -43t-43 -17q-26 0 -43 17t-17 43zM1204 47q6 0 10 10l291 975q7 29 31 29q24 -1 36 -17t7 -36l-287 -965q-23 -74 -88 -74
t-86 74l-272 932q-2 8 -10 8t-11 -8l-272 -932q-20 -74 -86 -74t-88 74l-287 965q-6 20 6 36t36 16t32 -28l291 -975q4 -10 10 -10t10 10l273 928q20 76 86 76t86 -76l272 -928q4 -10 10 -10z" />
    <glyph glyph-name="Ygrave" unicode="&#x1ef2;" horiz-adv-x="1302" 
d="M395 1720q-1 20 11 30t25 11q13 0 26 -6l276 -141q25 -12 25 -32t-12 -32q-12 -10 -24 -10q-14 0 -26 6l-276 142q-25 12 -25 32zM1222 1440q17 0 34 -17t-5 -47l-526 -651q-35 -45 -35 -92v-602q0 -15 -11 -27t-27 -12t-26 11q-11 11 -12 28v602q0 45 -39 92l-524 653
q-8 10 -8 24t11 25q12 11 28 11t27 -13l542 -675l543 675q11 15 28 15z" />
    <glyph glyph-name="ygrave" unicode="&#x1ef3;" horiz-adv-x="1007" 
d="M305 1384q0 20 11 31q10 10 24 10t27 -6l276 -141q25 -12 25 -32t-12 -32q-12 -10 -24 -10q-14 0 -26 6l-276 142q-25 12 -25 32zM523 168q5 0 12 12l342 842q14 29 34 29q21 -1 31 -17t4 -33l-389 -970q-53 -133 -135 -243t-160 -153q-25 -12 -40 -12q-38 0 -40 37
q0 23 25 35q174 85 278 364l-419 936q-8 19 2 37t34 18t35 -26l375 -844q6 -12 11 -12z" />
    <glyph glyph-name="endash" unicode="&#x2013;" horiz-adv-x="1245" 
d="M121 584q0 39 41 39h921q17 1 29 -11t12 -27t-12 -27t-29 -11h-921q-16 0 -29 11q-12 12 -12 26z" />
    <glyph glyph-name="emdash" unicode="&#x2014;" horiz-adv-x="1990" 
d="M121 584q0 39 41 39h1667q17 1 29 -11t12 -27t-12 -27t-29 -11h-1667q-16 0 -29 11q-12 12 -12 26z" />
    <glyph glyph-name="quoteleft" unicode="&#x2018;" horiz-adv-x="407" 
d="M225 1083q0 -37 -37 -39q-16 0 -27 12t-11 27v119q0 106 69 207q15 21 33 21t28 -12t11 -22q0 -11 -8 -28q-37 -53 -47 -86t-11 -90v-109z" />
    <glyph glyph-name="quoteright" unicode="&#x2019;" horiz-adv-x="407" 
d="M201 1391q0 37 37 39q16 0 27 -12t11 -27v-119q0 -106 -69 -207q-15 -21 -33 -21t-28 12t-11 22q0 11 8 28q37 53 47 86t11 90v109z" />
    <glyph glyph-name="quotesinglbase" unicode="&#x201a;" horiz-adv-x="407" 
d="M178 156q0 37 37 39q15 1 27 -11t12 -28v-119q0 -106 -70 -207q-16 -20 -33 -20t-27 11t-11 22q0 11 8 28q37 53 47 86t10 90v109z" />
    <glyph glyph-name="quotedblleft" unicode="&#x201c;" horiz-adv-x="604" 
d="M356 1085v119q0 106 70 207q16 21 34 21t31 -16q14 -16 -2 -46q-37 -53 -47 -86t-10 -90v-109q0 -16 -10 -27t-26 -11t-28 11t-12 27zM139 1085v119q0 106 70 207q15 21 33 21t32 -16t-2 -46q-37 -53 -47 -86t-10 -90v-109q0 -16 -10 -27q-11 -11 -27 -11t-28 11t-11 27z
" />
    <glyph glyph-name="quotedblright" unicode="&#x201d;" horiz-adv-x="604" 
d="M422 1395q0 37 37 39q15 0 27 -12t12 -27v-119q0 -106 -70 -207q-16 -20 -34 -20t-31 15q-14 15 2 46q37 53 47 86t10 90v109zM205 1395q0 37 37 39q16 0 28 -12t11 -27v-119q0 -106 -70 -207q-15 -20 -33 -20t-32 15t1 46q37 53 48 86q10 33 10 90v109z" />
    <glyph glyph-name="quotedblbase" unicode="&#x201e;" horiz-adv-x="604" 
d="M422 156q0 37 37 39q15 1 27 -11t12 -28v-119q0 -106 -70 -207q-16 -20 -34 -20t-31 15q-14 15 2 46q37 53 47 86t10 90v109zM205 156q0 37 37 39q16 1 28 -11t11 -28v-119q0 -106 -70 -207q-15 -20 -33 -20t-32 15t1 46q37 53 48 86q10 33 10 90v109z" />
    <glyph glyph-name="dagger" unicode="&#x2020;" horiz-adv-x="882" 
d="M479 965h334q41 0 41 -39q0 -14 -12 -26t-29 -11h-334v-1135q0 -41 -37 -41q-14 1 -26 13t-13 28v1135h-333q-16 0 -29 11q-12 11 -12 26q0 39 41 39h333v446q-1 17 11 29t28 12q37 0 37 -41v-446z" />
    <glyph glyph-name="daggerdbl" unicode="&#x2021;" horiz-adv-x="882" 
d="M479 965h334q41 0 41 -39q0 -14 -12 -26t-29 -11h-334v-613h334q41 0 41 -38q0 -14 -12 -26t-29 -11h-334v-447q0 -41 -37 -41q-14 1 -26 13t-13 28v447h-333q-16 0 -29 11q-12 11 -12 26q0 39 41 38h333v613h-333q-16 0 -29 11q-12 11 -12 26q0 39 41 39h333v446
q-1 17 11 29t28 12q37 0 37 -41v-446z" />
    <glyph glyph-name="bullet" unicode="&#x2022;" horiz-adv-x="966" 
d="M225 717q0 106 76 182t182 76q107 0 183 -76t76 -182t-76 -182t-182 -76t-183 76q-76 76 -76 182z" />
    <glyph glyph-name="ellipsis" unicode="&#x2026;" horiz-adv-x="1239" 
d="M168 233q0 39 37 39q15 0 27 -12t12 -27v-217q0 -16 -12 -27t-27 -11q-17 0 -27 10q-10 12 -10 28v217zM584 233q0 39 37 39q16 0 27 -12t11 -27v-217q0 -16 -11 -27t-27 -11q-17 0 -27 10q-10 12 -10 28v217zM1071 233v-217q0 -16 -11 -27q-12 -11 -28 -11t-26 10
q-10 12 -11 28v217q1 15 11 27t26 12t28 -11q11 -12 11 -28z" />
    <glyph glyph-name="perthousand" unicode="&#x2030;" horiz-adv-x="2041" 
d="M1667 592q-88 0 -150 -60q-61 -60 -65 -134t-2 -126q4 -94 66 -153t151 -59t151 58q62 60 66 154q2 51 0 107q-4 93 -66 153t-151 60zM1001 592q-88 0 -150 -60q-61 -60 -65 -134t-2 -126q4 -94 66 -153t151 -59t151 58q62 60 67 154q2 51 0 107q-4 93 -67 153t-151 60z
M1001 -8q-119 0 -201 81t-87 197q-4 55 0 111q4 117 87 198q84 81 202 81t201 -82q83 -80 87 -197q4 -55 0 -111q-4 -118 -87 -198t-202 -80zM385 1384q-89 0 -151 -59t-66 -154q-2 -55 0 -106q4 -93 66 -153t150 -60t152 59q62 59 66 154q2 51 0 106q-4 94 -66 154
q-63 59 -151 59zM385 784q-119 0 -202 81t-87 198q-4 55 0 111q4 118 87 198t202 80t202 -81t87 -197q4 -55 0 -111q-4 -117 -87 -198t-202 -81zM240 256l858 983q10 12 27 14t26 -6q29 -25 4 -53l-862 -987q-25 -29 -53 -6q-27 24 0 55zM1672 657q116 0 197 -85t87 -203
q2 -51 0 -101q-8 -121 -88 -205q-80 -83 -196 -83t-200 85t-88 203q-4 51 0 101q4 119 88 203t200 85z" />
    <glyph glyph-name="guilsinglleft" unicode="&#x2039;" horiz-adv-x="729" 
d="M466 1059q13 0 24 -11q12 -10 12 -28t-17 -31l-258 -231q-37 -35 -37 -49t37 -50l258 -231q17 -12 17 -30t-17 -34q-17 -17 -47 5l-266 237q-59 50 -59 102t59 103l266 238q15 10 28 10z" />
    <glyph glyph-name="guilsinglright" unicode="&#x203a;" horiz-adv-x="729" 
d="M263 358q-13 0 -24 12t-11 28q0 17 16 30l258 231q37 35 37 49t-37 50l-258 231q-16 11 -16 29t10 30q12 12 25 11q13 0 28 -10l266 -238q59 -51 59 -102t-59 -103l-266 -237q-15 -11 -28 -11z" />
    <glyph glyph-name="fraction" unicode="&#x2044;" horiz-adv-x="614" 
d="M621 1497q37 -12 20 -53l-586 -1485q-12 -37 -47 -23t-22 52l583 1482q17 41 52 27z" />
    <glyph glyph-name="Euro" unicode="&#x20ac;" horiz-adv-x="1337" 
d="M874 612q0 -37 -40 -37h-465q-1 -221 119 -367t331 -147q121 0 200 30t157 104q16 16 31 16t25 -10q10 -11 11 -27q0 -16 -12 -29q-162 -159 -410 -159t-389 170t-141 419h-125q-16 -1 -28 11t-13 26q0 39 41 39h125v133h-125q-16 0 -28 12t-13 25q0 39 41 39h125
q0 250 141 420t389 170t410 -160q12 -12 12 -28t-10 -26q-9 -10 -25 -11q-16 0 -32 16q-78 74 -157 104t-200 29q-213 0 -332 -145t-118 -369h465q16 0 28 -11t12 -28q0 -37 -40 -37h-465v-133h465q16 1 28 -11t12 -28z" />
    <glyph glyph-name="trademark" unicode="&#x2122;" horiz-adv-x="1202" 
d="M960 1384q-4 0 -10 -6l-88 -372q-12 -52 -57 -52t-57 52l-91 372q0 6 -7 6t-7 -8l-55 -403q-4 -23 -27 -23q-33 0 -29 35l60 401q6 54 56 54t63 -49l88 -377q0 -6 7 -6t7 6l86 377q8 49 59 49t60 -54l59 -399q4 -37 -28 -37q-23 0 -27 23l-55 403q-3 8 -7 8zM270 977v403
h-139q-29 0 -29 28t29 28h332q29 0 29 -28t-29 -28h-137v-403q0 -29 -28 -29t-28 29z" />
    <glyph glyph-name="minus" unicode="&#x2212;" horiz-adv-x="1286" 
d="M1118 680h-952q-43 0 -43 38t43 38h952q45 0 45 -39q0 -16 -13 -27q-14 -10 -32 -10z" />
    <glyph glyph-name="lessequal" unicode="&#x2264;" horiz-adv-x="1286" 
d="M997 -18h-710q-43 0 -43 38t43 37h710q45 0 45 -39q0 -16 -14 -26t-31 -10zM244 649q0 49 57 84l682 416q33 18 51 -12q18 -35 -12 -54l-676 -403q-29 -18 -29 -31t29 -31l676 -403q30 -18 12 -52t-51 -13l-682 415q-57 35 -57 84z" />
    <glyph glyph-name="greaterequal" unicode="&#x2265;" horiz-adv-x="1286" 
d="M1001 -18h-710q-18 0 -32 10q-13 10 -13 26q0 39 45 39h710q43 1 43 -37t-43 -38zM971 648q0 12 -29 32l-676 403q-30 17 -12 51t51 15l682 -416q57 -35 57 -84t-57 -84l-682 -415q-33 -20 -51 14t12 51l676 403q29 18 29 30z" />
    <glyph glyph-name="fl" unicode="&#xfb02;" horiz-adv-x="1253" 
d="M956 1403q0 41 38 41t38 -41v-1370q0 -41 -37 -41q-16 0 -27 12t-12 29v1370zM522 1454q193 0 193 -59q0 -11 -10 -23q-11 -12 -23 -12t-61 9t-99 9q-209 0 -209 -233v-113h328q17 0 29 -11t12 -27q0 -35 -41 -38h-328v-923q0 -17 -11 -29q-10 -12 -26 -12t-27 12t-11 29
v923h-93q-41 0 -41 37q0 15 12 27t29 12h93v113q0 143 69 226q70 83 215 83z" />
    <glyph glyph-name="Q.alt" horiz-adv-x="1478" 
d="M741 389q13 0 25 -12t12 -29v-289q186 15 314 147t146 320q19 188 0 382q-18 192 -158 327t-340 135t-337 -135t-156 -327t-1 -382q18 -188 144 -320t315 -147v289q-1 41 36 41zM778 -295q0 -41 -37 -41t-36 41v281q-221 12 -371 170t-166 393q-12 164 0 334
q16 239 178 401t395 162t397 -162t179 -401q12 -168 0 -334q-16 -235 -167 -393t-372 -170v-281z" />
    <glyph glyph-name="r.alt" horiz-adv-x="749" 
d="M541 1069q70 0 151 -20q33 -8 33 -37q0 -37 -37 -37q-6 0 -57 9t-90 9q-158 0 -252 -88v-862q0 -41 -38 -41t-38 41v858q0 39 31 66q107 102 297 102z" />
    <glyph glyph-name="zero.onum" horiz-adv-x="1282" 
d="M641 999q-166 0 -283 -98t-131 -270q-10 -111 0 -223q16 -170 132 -268t282 -99q166 0 283 98t131 271q10 115 0 223q-16 170 -132 268t-282 98zM641 1075q199 0 335 -119t157 -325q10 -92 -3 -240q-18 -195 -154 -309t-335 -115q-199 0 -335 118t-156 325q-8 123 4 239
q18 195 153 311t334 115z" />
    <glyph glyph-name="one.onum" horiz-adv-x="858" 
d="M127 811q-35 0 -35 39q0 27 21 35l358 178q29 14 43 14q55 0 55 -63v-981q0 -41 -38 -41t-37 41v950l-340 -164q-17 -8 -27 -8z" />
    <glyph glyph-name="two.onum" horiz-adv-x="1173" 
d="M133 63v15q0 174 89 257t323 151q233 68 301 130q68 60 68 154t-83 161q-82 67 -232 67q-290 -1 -392 -179q-14 -27 -39 -26q-39 0 -39 36q0 16 10 33q145 211 439 211q205 0 308 -89t103 -214t-85 -204q-86 -78 -318 -146t-304 -132t-73 -212h772q45 0 45 -38t-45 -38
h-782q-29 0 -47 17t-19 46z" />
    <glyph glyph-name="three.onum" horiz-adv-x="1183" 
d="M575 502q176 0 298 -106t122 -277q0 -238 -181 -372t-527 -134q-66 0 -140 6q-41 4 -41 37q0 41 46 39q70 -6 135 -6q295 1 464 113t169 317q0 141 -94 223t-244 82q-52 0 -92 -5t-53 -5t-25 12t-12 30t14 33l403 467h-672q-41 0 -41 38t41 38h695q31 0 49 -16
q19 -16 19 -42t-23 -54l-365 -420q18 2 55 2z" />
    <glyph glyph-name="four.onum" horiz-adv-x="1345" 
d="M926 76v899l-709 -899h709zM942 1069q59 0 59 -59v-934h250q13 0 25 -11t12 -27t-11 -27q-12 -11 -26 -11h-250v-352q0 -16 -10 -28t-28 -13q-37 0 -37 41v352h-725q-20 0 -43 16t-23 45t23 60l706 899q39 49 78 49z" />
    <glyph glyph-name="five.onum" horiz-adv-x="1216" 
d="M209 961q0 71 72 71h659q16 0 28 -11t13 -28q0 -37 -41 -37h-655v-536q169 108 361 108t308 -114t115 -279q0 -260 -221 -400t-637 -141q-45 0 -45 38t43 38q365 0 575 117t211 342q0 137 -95 230t-270 93t-333 -110q-29 -18 -59 -3t-29 52v570z" />
    <glyph glyph-name="six.onum" horiz-adv-x="1343" 
d="M694 803q-223 0 -428 -115q0 -637 434 -637q197 0 298 110t102 281q0 361 -406 361zM1018 1368q-2 0 -66 7t-129 7q-514 0 -555 -608q219 104 434 104q214 0 344 -110q130 -111 130 -319q0 -209 -124 -341t-365 -132t-369 184t-128 542t163 559q163 200 470 199
q129 0 197 -14q39 -6 39 -39q0 -39 -41 -39z" />
    <glyph glyph-name="seven.onum" horiz-adv-x="1048" 
d="M127 1032h793q31 0 50 -15t19 -40t-16 -51q-305 -508 -437 -771t-186 -526q-6 -35 -39 -35q-45 0 -35 54q61 272 183 519q121 247 444 789h-776q-17 0 -29 12t-12 26q0 15 12 27q13 11 29 11z" />
    <glyph glyph-name="eight.onum" horiz-adv-x="1370" 
d="M678 1376q-199 0 -293 -83t-94 -216t104 -211q105 -78 283 -78t283 78q104 78 104 211t-94 216t-293 83zM678 1452q223 0 345 -101t122 -268q0 -242 -246 -331q123 -35 202 -128t79 -237q0 -184 -130 -293q-130 -108 -373 -108t-372 108t-129 293q0 143 79 237t202 128
q-246 90 -246 331q0 165 122 267t345 102zM678 61q211 -1 317 91q107 92 107 237t-109 235t-315 89q-206 0 -316 -89q-108 -88 -108 -234t106 -238t318 -91z" />
    <glyph glyph-name="nine.onum" horiz-adv-x="1327" 
d="M645 231q199 0 414 121q2 31 2 86q1 299 -103 431t-309 132q-205 1 -306 -109t-101 -285t102 -275t301 -101zM166 602q0 209 124 342t366 133t364 -162q121 -162 121 -505q0 -438 -218 -615q-112 -90 -260 -132t-362 -52q-45 -2 -45 35t41 41q375 16 556 150t206 431
q-225 -112 -432 -112t-334 118t-127 328z" />
    <glyph glyph-name="sterling.alt" horiz-adv-x="1208" 
d="M1034 76q41 0 41 -39q0 -17 -12 -27t-31 -10h-782q-55 0 -85 27q-48 43 -7 125q56 131 88 212t80 263h-144q-41 -1 -41 37t39 38h164q27 98 57 267q51 255 155 369t278 114q111 0 200 -43q41 -20 24 -56t-63 -14q-78 37 -161 37q-144 0 -226 -90t-128 -307t-60 -277h409
q43 0 43 -38t-43 -37h-430q-90 -348 -172 -504q-10 -20 -10 -29q0 -18 23 -18h794z" />
    <glyph glyph-name="commaaccent" horiz-adv-x="659" 
d="M389 -100v-119q0 -106 -70 -207q-16 -20 -33 -20q-18 0 -28 11t-10 22t8 28q37 53 47 86t10 90v109q1 16 11 27t26 11t28 -10q12 -12 11 -28z" />
    <glyph glyph-name="caronSlovak" horiz-adv-x="659" 
d="M395 1391v-91q0 -96 -53 -178q-16 -20 -34 -20t-31 16q-14 16 2 45q41 74 40 148v80q1 16 11 27q10 12 26 12t28 -12t11 -27z" />
    <glyph glyph-name="g.alt" horiz-adv-x="1120" 
d="M518 416q141 0 230 80q88 80 88 207t-84 209t-228 81q-144 0 -233 -81q-88 -81 -88 -209q0 -127 87 -207t228 -80zM135 -66q25 0 41 -34q52 -96 152 -150t246 -55q146 0 237 63q92 62 92 146t-58 137t-188 53h-229q-111 0 -167 42t-56 104t40 99q40 36 83 46
q-96 45 -151 130q-54 85 -54 190q0 147 107 256q108 109 292 108q88 0 195 -37h284q13 0 25 -10t12 -26t-11 -28q-11 -11 -26 -12h-184q98 -112 98 -268q-1 -156 -117 -249t-286 -93h-23q-207 0 -206 -98q0 -76 133 -76h235q168 0 250 -74t82 -196t-118 -203
q-118 -82 -300 -82q-309 0 -446 225q-20 35 -21 54q0 38 37 38z" />
    <glyph glyph-name="gbreve.alt" horiz-adv-x="1120" 
d="M705 1419q37 0 36 -39q0 -16 -6 -34q-19 -62 -77 -104t-130 -42t-140 49t-73 131q0 39 37 39q31 0 39 -41q8 -40 47 -70t91 -30q53 0 91 28t46 71q8 42 39 42zM518 416q141 0 230 80q88 80 88 207t-84 209t-228 81q-144 0 -233 -81q-88 -81 -88 -209q0 -127 87 -207
t228 -80zM135 -66q25 0 41 -34q52 -96 152 -150t246 -55q146 0 237 63q92 62 92 146t-58 137t-188 53h-229q-111 0 -167 42t-56 104t40 99q40 36 83 46q-96 45 -151 130q-54 85 -54 190q0 147 107 256q108 109 292 108q88 0 195 -37h284q13 0 25 -10t12 -26t-11 -28
q-11 -11 -26 -12h-184q98 -112 98 -268q-1 -156 -117 -249t-286 -93h-23q-207 0 -206 -98q0 -76 133 -76h235q168 0 250 -74t82 -196t-118 -203q-118 -82 -300 -82q-309 0 -446 225q-20 35 -21 54q0 38 37 38z" />
    <glyph glyph-name="gdotaccent.alt" horiz-adv-x="1120" 
d="M518 1356q27 0 44 -18q18 -18 18 -43q0 -26 -18 -43t-44 -17q-27 0 -44 17t-17 43q0 25 17 43t44 18zM518 416q141 0 230 80q88 80 88 207t-84 209t-228 81q-144 0 -233 -81q-88 -81 -88 -209q0 -127 87 -207t228 -80zM135 -66q25 0 41 -34q52 -96 152 -150t246 -55
q146 0 237 63q92 62 92 146t-58 137t-188 53h-229q-111 0 -167 42t-56 104t40 99q40 36 83 46q-96 45 -151 130q-54 85 -54 190q0 147 107 256q108 109 292 108q88 0 195 -37h284q13 0 25 -10t12 -26t-11 -28q-11 -11 -26 -12h-184q98 -112 98 -268q-1 -156 -117 -249
t-286 -93h-23q-207 0 -206 -98q0 -76 133 -76h235q168 0 250 -74t82 -196t-118 -203q-118 -82 -300 -82q-309 0 -446 225q-20 35 -21 54q0 38 37 38z" />
    <glyph glyph-name="gcommaaccent.alt" horiz-adv-x="1120" 
d="M563 1477v-119q0 -106 -69 -207q-14 -21 -32 -21t-30 12q-10 12 -10 22q0 11 8 28q37 53 47 86t10 90v109q1 16 11 27q10 12 26 12t28 -12t11 -27zM518 416q141 0 230 80q88 80 88 207t-84 209t-228 81q-144 0 -233 -81q-88 -81 -88 -209q0 -127 87 -207t228 -80z
M135 -66q25 0 41 -34q52 -96 152 -150t246 -55q146 0 237 63q92 62 92 146t-58 137t-188 53h-229q-111 0 -167 42t-56 104t40 99q40 36 83 46q-96 45 -151 130q-54 85 -54 190q0 147 107 256q108 109 292 108q88 0 195 -37h284q13 0 25 -10t12 -26t-11 -28q-11 -11 -26 -12
h-184q98 -112 98 -268q-1 -156 -117 -249t-286 -93h-23q-207 0 -206 -98q0 -76 133 -76h235q168 0 250 -74t82 -196t-118 -203q-118 -82 -300 -82q-309 0 -446 225q-20 35 -21 54q0 38 37 38z" />
    <glyph glyph-name="ampersand.alt" horiz-adv-x="1388" 
d="M979 1053q0 135 -86 219t-259 84t-263 -83t-90 -211t87 -210q67 -62 169 -117q260 45 351 114t91 204zM1077 498q0 76 80 75h189q43 1 43 -37t-41 -38h-195q0 -240 -142 -377t-383 -137t-377 103t-136 269q0 266 327 355q-121 69 -179 151t-58 203q0 156 119 261
q120 106 310 106t306 -102t115 -271q1 -168 -99 -253t-338 -131t-333 -119t-95 -204t117 -212t324 -81t323 114t123 292v33z" />
    <glyph glyph-name="racute.alt" horiz-adv-x="749" 
d="M350 1196q-14 0 -25 10t-11 31t24 33l276 141q12 6 26 6t24 -10q12 -10 12 -31t-25 -33l-276 -141q-11 -6 -25 -6zM541 1069q70 0 151 -20q33 -8 33 -37q0 -37 -37 -37q-6 0 -57 9t-90 9q-158 0 -252 -88v-862q0 -41 -38 -41t-38 41v858q0 39 31 66q107 102 297 102z" />
    <glyph glyph-name="rcaron.alt" horiz-adv-x="749" 
d="M636 1417q14 0 26 -11q12 -12 12 -30t-17 -28l-165 -123q-52 -37 -99 0l-166 123q-16 10 -16 28t11 30q12 12 26 11q14 0 28 -8l166 -123l166 123q14 8 28 8zM541 1069q70 0 151 -20q33 -8 33 -37q0 -37 -37 -37q-6 0 -57 9t-90 9q-158 0 -252 -88v-862q0 -41 -38 -41
t-38 41v858q0 39 31 66q107 102 297 102z" />
    <glyph glyph-name="rcommaaccent.alt" horiz-adv-x="749" 
d="M215 -100q0 37 37 39q16 1 28 -11t11 -28v-119q0 -106 -70 -207q-15 -20 -33 -20t-28 11t-10 22t8 28q37 53 47 86t10 90v109zM541 1069q70 0 151 -20q33 -8 33 -37q0 -37 -37 -37q-6 0 -57 9t-90 9q-158 0 -252 -88v-862q0 -41 -38 -41t-38 41v858q0 39 31 66
q107 102 297 102z" />
    </font>
</defs>
</svg>
