<?xml version="1.0" standalone="no"?>
<!DOCTYPE svg PUBLIC "-//W3C//DTD SVG 1.1//EN" "http://www.w3.org/Graphics/SVG/1.1/DTD/svg11.dtd" >
<svg xmlns="http://www.w3.org/2000/svg">
<metadata>
Created by FontPrep 20130207 at Tue Nov  4 15:29:26 2014
 By Mauricio Duran
Copyright (c) 2010 by Miles Newlyn. All rights reserved.
</metadata>
<defs>
<font id="e73c401acf5f7b37aab25ba67cdd962c" horiz-adv-x='1024' >
  <font-face 
    font-family="Rubrik-Bold"
    font-weight="700"
    font-stretch="normal"
    units-per-em="2048"
    panose-1="2 0 5 3 0 0 0 2 0 4"
    ascent="1536"
    descent="-512"
    x-height="1098"
    cap-height="1452"
    bbox="-123.17 -584.521 2565 2024"
    underline-thickness="143"
    underline-position="-62"
    unicode-range="U+0020-FB02"
  />
<missing-glyph horiz-adv-x="616" 
 />
    <glyph glyph-name="fi" unicode="fi" horiz-adv-x="1419" 
d="M1134 1116q74 0 122 -50t49 -124l4 -778q0 -72 -49 -123t-119 -51t-120 51t-50 123l-4 778q0 74 47 124t120 50zM213 1034v60q0 195 121 301t289 106q125 0 225 -35q119 -43 119 -153q0 -61 -40 -101t-112 -41q-21 -1 -69 11t-84 12q-109 0 -109 -109v-51h125
q63 0 108 -42t45 -105t-46 -105t-107 -43h-125v-571q0 -76 -48 -127t-121 -51t-122 51t-49 127v571h-37q-66 0 -110 42t-43 106q0 63 44 105t109 42h37z" />
    <glyph glyph-name=".notdef" horiz-adv-x="616" 
 />
    <glyph glyph-name=".null" horiz-adv-x="0" 
 />
    <glyph glyph-name="nonmarkingreturn" horiz-adv-x="681" 
 />
    <glyph glyph-name="space" unicode=" " horiz-adv-x="491" 
 />
    <glyph glyph-name="exclam" unicode="!" horiz-adv-x="524" 
d="M111 129v88q0 61 41 101q42 40 108 40t108 -40t42 -101v-88q0 -61 -42 -101t-109 -40t-107 40t-41 101zM259 1452q71 0 123 -52t50 -122l-22 -655q-4 -63 -46 -103t-104 -39t-104 41q-41 40 -43 101l-21 655q-4 70 46 122t121 52z" />
    <glyph glyph-name="quotedbl" unicode="&#x22;" horiz-adv-x="856" 
d="M774 1309v-336q0 -59 -42 -101t-108 -41q-66 0 -106 40q-41 40 -41 102v336q0 61 42 102q43 41 107 41t106 -41t42 -102zM381 1309v-336q0 -59 -43 -101t-109 -41q-67 0 -107 40t-40 102v336q0 61 42 102t106 41t108 -42t43 -101z" />
    <glyph glyph-name="numbersign" unicode="#" horiz-adv-x="1531" 
d="M731 834l-69 -209h143l69 209h-143zM197 326q-66 0 -111 43t-45 104t47 107t111 45h149l70 209h-56q-66 0 -110 43t-45 104q0 61 47 106t111 46h149l72 213q14 48 56 78t91 30q76 0 117 -63t18 -140l-41 -121h146l69 216q14 48 58 78t104 30q62 0 103 -63t18 -140
l-39 -121h47q63 0 111 -44t49 -105q0 -61 -46 -104t-114 -43h-145l-70 -209h49q63 0 111 -45q48 -44 47 -106q0 -62 -46 -105t-112 -43h-145l-76 -234q-14 -51 -55 -81t-90 -29q-74 0 -119 66t-18 138l45 140h-144l-78 -234q-14 -49 -54 -80t-89 -30q-74 0 -119 66t-20 138
l47 140h-55z" />
    <glyph glyph-name="dollar" unicode="$" horiz-adv-x="1251" 
d="M1171 462q0 -167 -104 -286t-295 -149v-54q0 -65 -42 -111t-103 -46t-107 48q-45 48 -45 109v60q-207 37 -323 135q-88 68 -88 148t50 130q52 50 121 52q69 0 126 -45t134 -73t146 -28q172 0 172 101q0 47 -56 73t-173 49q-256 55 -371 151t-115 288q0 145 104 254
t273 147v47q0 62 45 110q44 48 106 48t104 -46t42 -112v-37q193 -25 291 -112q55 -47 55 -123t-46 -123t-104 -47t-142 43q-86 43 -188 43t-144 -28t-41 -60q0 -32 11 -47q11 -16 50 -30t174 -46q266 -61 374 -163t109 -270z" />
    <glyph glyph-name="percent" unicode="%" horiz-adv-x="1841" 
d="M396 1212q-42 0 -68 -26t-33 -68q-6 -43 0 -93t33 -76q26 -25 68 -25t68 25q48 48 32 168q-6 43 -32 69t-68 26zM1443 510q-42 0 -69 -26t-33 -70q-16 -121 33 -167q27 -26 68 -26q88 0 98 92q18 123 -30 171q-26 26 -67 26zM461 428l698 803q41 49 110 52t111 -36
q52 -43 56 -111t-39 -114l-699 -803q-40 -47 -108 -52t-115 36t-51 109t37 116zM1442 750q141 0 240 -94t108 -234q2 -57 0 -113q-8 -139 -108 -233t-240 -94q-141 0 -240 94q-98 94 -106 233q-2 57 0 111q8 142 106 236t240 94zM395 1454q141 0 241 -94t107 -236
q2 -55 0 -110q-8 -138 -107 -234q-98 -96 -240 -96t-240 95t-107 233q-2 59 0 110q9 140 107 236t239 96z" />
    <glyph glyph-name="ampersand" unicode="&#x26;" horiz-adv-x="1447" 
d="M494 1047q0 -84 94 -152q193 45 192 160q0 98 -143 98t-143 -106zM420 438q0 -70 58 -114t155 -45q98 0 172 43l-285 260q-100 -53 -100 -144zM1193 770q69 0 114 -47t45 -113v-2q0 -135 -97 -262l68 -59q59 -51 67 -122t-38 -124q-47 -53 -121 -54t-135 52l-68 59
q-168 -116 -410 -116t-391 122q-147 123 -147 312q0 221 239 346q-161 131 -161 305q0 173 134 279t350 106t336 -101t120 -274q0 -123 -66 -207t-227 -163l203 -177q16 28 26 90t50 106t109 44z" />
    <glyph glyph-name="quotesingle" unicode="'" horiz-adv-x="460" 
d="M381 1309v-336q0 -59 -43 -101t-109 -41q-67 0 -107 40t-40 102v336q0 61 42 102t106 41t108 -42t43 -101z" />
    <glyph glyph-name="parenleft" unicode="(" horiz-adv-x="751" 
d="M416 633q0 -403 276 -690q45 -47 54 -107t-23 -115q-41 -61 -115 -75t-137 41q-199 188 -296 437t-97 509t97 509t296 437q63 55 137 41t111 -72t27 -118q-10 -59 -54 -107q-276 -287 -276 -690z" />
    <glyph glyph-name="parenright" unicode=")" horiz-adv-x="751" 
d="M336 633q0 403 -277 690q-45 47 -54 107t24 114q41 62 115 76t137 -41q199 -188 296 -437t97 -509t-97 -509t-296 -437q-63 -55 -137 -41t-112 72q-36 58 -27 118t54 107q277 287 277 690z" />
    <glyph glyph-name="asterisk" unicode="*" horiz-adv-x="890" 
d="M445 674q-43 0 -71 26q-42 38 -36 121l29 131l-105 -90q-18 -16 -51 -27t-71 2t-64 55t-2 91q23 49 82 68l129 41l-129 45q-55 18 -78 67t4 96q43 82 129 52q20 -6 49 -29l107 -90l-29 131q-6 84 30 116t78 32t71 -26q54 -44 34 -122l-29 -133l109 92q60 52 122 30
q35 -13 59 -56t0 -93t-77 -67l-135 -45l135 -41q57 -17 81 -67t-2 -92t-63 -55q-68 -23 -122 25l-107 92l29 -133q14 -83 -34 -123q-30 -24 -72 -24z" />
    <glyph glyph-name="plus" unicode="+" horiz-adv-x="1286" 
d="M483 354v203h-200q-68 0 -115 47t-47 114q0 66 47 112t115 47h200v200q0 68 47 115t114 47t113 -47t46 -115v-200h198q68 -1 115 -47t47 -112t-48 -114q-48 -47 -114 -47h-198v-203q0 -68 -46 -114q-45 -46 -111 -47q-66 0 -115 49q-48 49 -48 112z" />
    <glyph glyph-name="comma" unicode="," horiz-adv-x="499" 
d="M401 233v-116q0 -162 -60 -262t-161 -101q-57 0 -94 39t-37 78t27 102t26 121v139q0 59 43 101t107 41q64 1 106 -41q43 -42 43 -101z" />
    <glyph glyph-name="hyphen" unicode="-" horiz-adv-x="651" 
d="M600 592q0 -70 -51 -121t-123 -51h-201q-74 0 -124 48t-50 121t50 122t124 49h201q72 0 123 -49t51 -119z" />
    <glyph glyph-name="period" unicode="." horiz-adv-x="587" 
d="M249 389q62 0 106 -44t44 -105v-111q0 -63 -43 -105t-105 -42t-107 43q-44 43 -44 104v111q0 63 43 106q44 43 106 43z" />
    <glyph glyph-name="slash" unicode="/" horiz-adv-x="833" 
d="M508 1391q27 67 90 97t129 4q67 -26 93 -92t-1 -134l-491 -1225q-28 -69 -92 -97t-130 -1t-92 91q-27 64 0 132z" />
    <glyph glyph-name="zero" unicode="0" horiz-adv-x="1488" 
d="M743 313q111 0 179 72t76 203t-1 263q-8 132 -75 204q-68 71 -178 71t-178 -72t-74 -216q-6 -146 2 -248q6 -133 72 -205t177 -72zM742 -18q-256 0 -416 150t-179 398q-18 193 0 373q21 252 181 402q160 149 414 149t418 -152q163 -152 183 -399q14 -186 0 -373
q-20 -248 -183 -398t-418 -150z" />
    <glyph glyph-name="one" unicode="1" horiz-adv-x="1107" 
d="M678 1448q78 0 124 -56t46 -120v-1106q0 -74 -48 -124t-120 -50t-121 51t-49 123v823l-180 -102q-63 -35 -131 -17t-102 80t-14 130q19 69 81 106l422 237q45 25 92 25z" />
    <glyph glyph-name="two" unicode="2" horiz-adv-x="1265" 
d="M94 203q0 266 338 491q218 144 280 198t62 106t-37 90q-37 36 -125 36q-129 0 -209 -90q-53 -55 -90 -67q-67 -21 -133 11t-86 106t25 141q63 96 192 163t297 66q244 0 379 -125t135 -315q0 -123 -73 -243t-355 -298q-149 -94 -166 -135h457q72 0 123 -49t51 -121
t-50 -120t-124 -48h-686q-93 0 -149 54t-56 149z" />
    <glyph glyph-name="three" unicode="3" horiz-adv-x="1263" 
d="M1124 545q0 -276 -246 -421q-247 -144 -651 -132q-75 2 -119 47t-48 118t52 127q58 54 144 46q227 -20 378 37t150 165q0 55 -35 86q-37 31 -85 31t-116 -15t-89 -16q-59 0 -107 42q-47 42 -47 117t76 130l240 197l-3 4h-389q-71 0 -121 50t-50 121t50 120t121 49h619
q88 0 146 -56t58 -144t-53 -134l-217 -207q160 -27 251 -123t91 -239z" />
    <glyph glyph-name="four" unicode="4" horiz-adv-x="1392" 
d="M727 625v350l-246 -350h246zM1149 297h-80v-131q0 -70 -50 -121t-122 -51t-121 50t-49 122v131h-416q-125 0 -182 80t-31 188q14 51 62 113l487 665q85 113 195 113t169 -67q58 -68 58 -166v-586h80q72 0 121 -48t49 -118t-51 -122t-119 -52z" />
    <glyph glyph-name="five" unicode="5" horiz-adv-x="1292" 
d="M1196 578q0 -281 -251 -433t-650 -151q-72 0 -121 45t-52 118t49 124t128 51q253 0 405 54t152 169q0 63 -52 99t-141 36t-249 -53q-125 -39 -192 10t-66 150v434q0 113 63 165t158 52h573q74 0 123 -47t49 -118t-51 -122t-121 -51h-467v-186q102 57 291 57
q190 1 306 -111t116 -292z" />
    <glyph glyph-name="six" unicode="6" horiz-adv-x="1419" 
d="M724 655q-106 0 -241 -61q-4 -274 248 -275q111 -1 168 47t57 128t-63 120q-63 41 -169 41zM1038 1114q-10 0 -81 7t-126 7q-145 0 -227 -54t-102 -179q147 74 299 74q239 0 369 -133t130 -344t-150 -361t-423 -149q-176 0 -298 61t-185 172q-117 206 -101 542
q17 335 191 520t500 185q184 0 232 -18t81 -38q65 -40 65 -124t-46 -126t-128 -42z" />
    <glyph glyph-name="seven" unicode="7" horiz-adv-x="1140" 
d="M211 1448h704q91 0 149 -53t58 -127t-37 -133q-213 -345 -331 -573t-174 -439q-27 -94 -111 -122t-141 15q-111 59 -72 201q82 313 430 893h-475q-72 0 -122 49t-50 122t49 120t123 47z" />
    <glyph glyph-name="eight" unicode="8" horiz-adv-x="1445" 
d="M1317 406q-1 -186 -155 -305t-440 -119t-440 118t-153 306q0 240 213 342q-184 92 -184 311q0 190 151 293q152 102 413 102t413 -102t151 -291q0 -215 -182 -313q213 -102 213 -342zM725 594q-125 0 -188 -40t-63 -110t62 -110t189 -39q127 0 190 41q63 40 63 108
t-64 109t-189 41zM724 1151q-104 0 -164 -36t-60 -98q0 -61 58 -101t160 -40t166 40q62 40 62 102t-58 98q-59 35 -164 35z" />
    <glyph glyph-name="nine" unicode="9" horiz-adv-x="1417" 
d="M461 944q-1 -80 63 -122t172 -42t238 54q0 285 -248 284q-111 0 -168 -47t-57 -127zM588 477q-211 0 -340 130t-129 340t149 360q150 150 424 149q174 0 296 -60t184 -170q118 -209 102 -532q-20 -376 -236 -540t-651 -162q-78 0 -128 46t-54 115t42 122t124 57
q16 2 90 4q231 6 319 55q39 21 79 61t61 95q-121 -70 -332 -70z" />
    <glyph glyph-name="colon" unicode=":" horiz-adv-x="520" 
d="M111 799v100q0 61 41 103q42 42 108 42t108 -42t42 -103v-98q0 -61 -42 -103t-108 -43t-108 41t-41 103zM111 129v102q0 61 41 103q42 42 108 43q66 0 108 -42t42 -104v-98q0 -63 -41 -104t-109 -41t-108 40t-41 101z" />
    <glyph glyph-name="semicolon" unicode=";" horiz-adv-x="520" 
d="M137 799v100q0 61 41 103t108 42q66 0 108 -42t42 -103v-98q0 -61 -42 -103t-108 -43t-107 41q-42 42 -42 103zM426 233v-122q0 -108 -44 -224q-22 -57 -65 -95t-100 -38q-86 0 -121 84q-8 32 -8 54t27 83t26 119v139q0 61 39 101q38 40 102 41t104 -41t40 -101z" />
    <glyph glyph-name="less" unicode="&#x3c;" horiz-adv-x="1286" 
d="M582 717q0 -14 18 -29l420 -338q51 -42 58 -108t-36 -117t-106 -57t-119 36l-512 416q-109 88 -108 197q0 109 108 196l512 416q55 43 119 37t106 -57q43 -51 36 -117t-58 -109l-420 -338q-18 -14 -18 -28z" />
    <glyph glyph-name="equal" unicode="=" horiz-adv-x="1286" 
d="M989 326h-690q-68 0 -115 47t-47 113t47 113q47 46 115 46h690q68 0 114 -45q46 -46 46 -112q-1 -66 -49 -114t-111 -48zM989 793h-690q-68 0 -115 47q-47 48 -47 114t47 112t115 46h690q68 0 114 -46t46 -113q-1 -67 -49 -113t-111 -47z" />
    <glyph glyph-name="greater" unicode="&#x3e;" horiz-adv-x="1286" 
d="M1090 716q0 -108 -109 -196l-512 -416q-55 -42 -119 -36t-106 57q-43 51 -36 117t58 108l420 338q38 29 0 57l-420 338q-51 43 -58 109t36 117t106 57t119 -37l512 -416q109 -89 109 -197z" />
    <glyph glyph-name="question" unicode="?" horiz-adv-x="1122" 
d="M352 131v88q0 61 41 101t108 40t109 -40t41 -101v-88q0 -61 -42 -102q-41 -41 -107 -41t-108 41t-42 102zM70 1132q0 62 45 121q79 97 199 149t249 52q207 0 338 -114t131 -296q0 -354 -434 -552q-50 -25 -110 -25t-105 42t-45 99q0 109 106 158q246 108 246 228
q0 62 -39 98q-39 35 -98 34q-92 0 -180 -94q-59 -68 -133 -68t-122 53t-48 115z" />
    <glyph glyph-name="at" unicode="@" horiz-adv-x="1853" 
d="M530 657q0 165 112 265t286 100t294 -101t121 -266v-200q0 -74 64 -74q27 0 43 20t16 54v227q0 223 -161 358q-162 136 -377 136q-214 0 -362 -126t-163 -323q-14 -147 0 -340q13 -193 147 -309t345 -117q135 0 240 37q41 20 99 12t89 -54t19 -102t-62 -90
q-134 -90 -358 -90q-458 0 -686 308q-120 160 -132 368t0 410q16 322 255 508t573 186q219 0 404 -84t302 -252t117 -385v-278q0 -158 -97 -248q-98 -90 -244 -90t-244 101q-97 101 -97 235v159q0 64 -35 104q-34 40 -100 40t-100 -40t-35 -104v-133q0 -71 39 -101t91 -20
t88 -14t47 -70t-10 -88q-38 -71 -188 -71q-149 0 -244 97t-96 267v178z" />
    <glyph glyph-name="A" unicode="A" horiz-adv-x="1433" 
d="M718 1112q-14 0 -18 -16l-147 -437h330l-144 437q-7 16 -21 16zM1399 170q0 -70 -47 -123q-48 -53 -112 -53t-110 30q-45 30 -61 78l-88 263h-528l-88 -263q-43 -110 -173 -110q-64 0 -111 53q-46 53 -46 123q0 27 10 61l367 1018q84 225 309 225t307 -225l361 -1018
q10 -30 10 -59z" />
    <glyph glyph-name="B" unicode="B" horiz-adv-x="1374" 
d="M1300 422q0 -202 -128 -312t-336 -110h-461q-111 0 -175 67t-65 166v988q-1 100 63 168t177 67h465q198 0 310 -114t112 -279q0 -213 -170 -307v-4q96 -37 152 -122t56 -208zM479 870h295q72 0 109 36t37 95q0 135 -146 136h-295v-267zM479 606v-289h322q154 0 153 146
q0 143 -157 143h-318z" />
    <glyph glyph-name="C" unicode="C" horiz-adv-x="1372" 
d="M729 303q158 0 244 143q31 49 62 74q32 25 92 25q59 0 113 -47q54 -46 54 -104t-18 -107q-66 -152 -216 -233t-329 -81q-264 0 -437 167t-196 419q-16 168 0 324q23 254 195 422t436 168q180 0 330 -81t217 -233q18 -49 18 -107t-53 -104q-53 -47 -113 -47t-92 26
q-33 26 -63 72q-86 143 -244 144q-127 0 -201 -86q-74 -85 -82 -213t0 -254t82 -207q74 -80 201 -80z" />
    <glyph glyph-name="D" unicode="D" horiz-adv-x="1466" 
d="M672 0h-297q-111 0 -175 67t-65 166v988q1 102 63 167t177 64h297q332 0 505 -162t193 -442q36 -457 -189 -679q-171 -169 -509 -169zM682 1114h-199v-772h199q319 0 342 305q6 68 2 141q-12 326 -344 326z" />
    <glyph glyph-name="E" unicode="E" horiz-adv-x="1292" 
d="M375 1452h657q70 0 118 -45t48 -112t-50 -115t-116 -47h-549v-256h471q72 0 114 -40q42 -41 42 -105t-44 -108t-112 -44h-471v-258h553q66 0 116 -48t50 -116q0 -66 -48 -112t-118 -46h-661q-113 0 -176 68t-64 168v985q-1 99 63 165t177 66z" />
    <glyph glyph-name="F" unicode="F" horiz-adv-x="1251" 
d="M135 170v1051q-1 99 63 165t177 66h637q70 0 118 -45t48 -112t-50 -115t-116 -47h-529v-291h480q69 0 117 -46t48 -114t-50 -116t-115 -48h-480v-348q0 -76 -50 -127t-123 -51t-124 53t-51 125z" />
    <glyph glyph-name="G" unicode="G" horiz-adv-x="1429" 
d="M1337 614v-98q0 -240 -174 -392t-434 -151q-260 0 -434 167t-197 419q-16 168 0 324q25 254 198 422t435 168q356 0 529 -271q32 -46 32 -110t-49 -112t-123 -48t-125 73t-104 107t-152 35q-266 0 -295 -316q-8 -84 0 -233q23 -311 310 -311q128 0 192 59t64 137v39h-140
q-66 0 -112 46t-45 111q0 65 46 109t111 46h246q102 0 162 -64t59 -156z" />
    <glyph glyph-name="H" unicode="H" horiz-adv-x="1527" 
d="M135 168v1106q0 74 51 126t125 52t123 -51t49 -127v-391h561v391q0 74 50 126t124 52q72 0 122 -52t51 -126v-1102q-1 -76 -51 -128t-122 -52t-122 54q-51 54 -52 126v385h-561v-389q0 -76 -49 -126t-122 -50t-125 52t-52 124z" />
    <glyph glyph-name="I" unicode="I" horiz-adv-x="618" 
d="M135 172v1102q0 74 52 126t124 52t122 -52t50 -126v-1102q0 -76 -50 -128t-123 -52t-124 52t-51 128z" />
    <glyph glyph-name="J" unicode="J" horiz-adv-x="1159" 
d="M686 483v791q0 74 51 126t123 52t122 -52t50 -126v-768q0 -233 -147 -383t-363 -150q-156 0 -274 73t-180 194q-53 124 24 206q45 50 125 50q81 0 145 -95t166 -96q66 0 112 46t46 132z" />
    <glyph glyph-name="K" unicode="K" horiz-adv-x="1361" 
d="M483 559v-387q0 -76 -50 -128t-122 -52t-124 54t-52 126v1102q0 74 52 126t124 52t122 -52t50 -126v-381q43 0 68 8t53 39l412 451q53 61 129 61t122 -50t48 -112t-41 -112l-416 -439l404 -448q47 -55 50 -123t-44 -123q-49 -53 -124 -53t-128 59l-412 461q-28 33 -52 40
t-69 7z" />
    <glyph glyph-name="L" unicode="L" horiz-adv-x="1175" 
d="M135 180v1094q0 74 52 126t124 52t122 -52t50 -126v-932h506q70 0 123 -51t53 -122t-51 -120t-125 -49h-672q-84 0 -133 51t-49 129z" />
    <glyph glyph-name="M" unicode="M" horiz-adv-x="1972" 
d="M1864 172q0 -80 -47 -132t-125 -52t-126 40t-55 103l-88 928q0 8 -8 8t-8 -8l-154 -828q-20 -119 -95 -180t-170 -61t-169 61t-96 180l-158 828q0 8 -8 8t-8 -10l-88 -928q-4 -61 -53 -101t-126 -40t-125 53t-48 131q0 27 2 39l127 948q23 147 102 221q80 74 195 74
q262 0 313 -293l129 -747q0 -12 10 -13q12 0 12 13l127 747q23 153 107 223t202 70q117 0 199 -74t101 -221l127 -946q2 -14 2 -41z" />
    <glyph glyph-name="N" unicode="N" horiz-adv-x="1568" 
d="M1085 1010v264q-1 74 51 126t126 52t122 -51t50 -127v-1016q0 -114 -71 -192t-183 -78q-176 0 -250 145l-469 877l-6 -2q25 -256 24 -504v-338q0 -74 -48 -126t-120 -52t-124 53t-52 125v1010q0 116 73 196t183 80q172 0 252 -152l459 -858v-2l6 2q-23 236 -23 568z" />
    <glyph glyph-name="O" unicode="O" horiz-adv-x="1509" 
d="M753 303q130 0 216 86t95 210t0 249t-95 211t-216 86t-214 -85q-85 -85 -93 -211t0 -250t92 -210t215 -86zM752 -27q-264 0 -448 168q-183 168 -206 418q-16 168 0 324q23 252 206 421q184 169 448 169t450 -171t209 -419q12 -162 0 -324q-23 -248 -209 -417t-450 -169z
" />
    <glyph glyph-name="P" unicode="P" horiz-adv-x="1333" 
d="M741 440h-256v-268q0 -72 -52 -126t-122 -54t-123 54t-53 126v1071q-1 89 57 149t158 60h410q221 0 373 -135q151 -135 151 -371t-150 -371t-393 -135zM485 758h246q203 0 203 188q0 88 -49 139t-150 52h-250v-379z" />
    <glyph glyph-name="Q" unicode="Q" horiz-adv-x="1509" 
d="M752 287q18 0 55 4l-139 174q-33 39 -28 98t46 97q42 38 104 35t103 -50l141 -176q50 107 29 371q-8 133 -94 219t-216 86t-214 -85t-95 -220q-6 -125 2 -253t92 -214t214 -86zM752 -27q-264 0 -448 168q-183 168 -206 418q-16 168 0 324q23 252 206 421q184 169 448 169
t450 -171t209 -419q12 -161 -3 -347t-153 -341l134 -162q33 -41 27 -103t-52 -96q-45 -35 -102 -33t-97 47l-143 179q-125 -54 -270 -54z" />
    <glyph glyph-name="R" unicode="R" horiz-adv-x="1388" 
d="M485 782h250q201 0 201 174q0 84 -47 132t-144 49h-260v-355zM612 467h-127v-299q0 -72 -52 -126t-123 -54t-123 54t-52 126v1075q-1 89 57 149t158 60h422q218 0 366 -129t148 -358q0 -167 -74 -267t-178 -143l242 -270q45 -47 44 -122t-52 -125t-129 -50t-117 49
l-295 364q-29 35 -53 51t-62 15z" />
    <glyph glyph-name="S" unicode="S" horiz-adv-x="1323" 
d="M1249 426q1 -194 -157 -323q-158 -130 -446 -130t-478 150q-88 67 -88 147t50 131t118 51t133 -49q133 -96 315 -96q94 0 149 32q54 32 54 89q0 82 -264 137q-16 4 -25 6q-262 55 -379 159t-117 300q0 195 155 319t386 124q156 0 281 -33t184 -85q60 -52 60 -127
t-46 -122t-102 -47t-137 35q-102 51 -218 51t-164 -35t-48 -86t57 -80q58 -28 193 -53q276 -51 405 -161t129 -304z" />
    <glyph glyph-name="T" unicode="T" horiz-adv-x="1290" 
d="M471 168v940h-281q-74 0 -124 51t-52 123q0 72 52 121t124 49h910q74 0 125 -49t51 -121t-52 -123t-124 -51h-281v-940q0 -74 -49 -125t-121 -51t-125 53t-53 123z" />
    <glyph glyph-name="U" unicode="U" horiz-adv-x="1529" 
d="M1407 1274v-637q0 -293 -182 -478q-181 -185 -459 -185t-460 184t-181 479v637q0 74 51 126t123 52t122 -52t50 -126v-664q0 -143 83 -228t212 -85t211 85t82 228v664q0 76 51 127t125 51t123 -51t49 -127z" />
    <glyph glyph-name="V" unicode="V" horiz-adv-x="1425" 
d="M35 1272q0 74 47 128q46 54 112 54t112 -35t67 -92l323 -977q4 -14 16 -14t17 14l324 971q18 61 65 97t114 36t113 -54t46 -110t-11 -82l-356 -981q-92 -254 -313 -254t-314 254l-352 981q-10 35 -10 64z" />
    <glyph glyph-name="W" unicode="W" horiz-adv-x="1980" 
d="M55 1278q0 70 46 122q47 52 117 52t122 -38t59 -93l148 -969q2 -4 6 -4t6 4l160 844q23 131 99 194q77 62 171 62t172 -64t103 -194l166 -840q2 -6 6 -6t6 6l149 967q15 57 63 94t118 37t115 -53q46 -53 46 -121q0 -25 -6 -45l-227 -1026q-22 -109 -96 -170t-165 -61
t-170 60t-100 165l-174 839q-2 4 -5 4t-5 -4l-164 -833q-20 -111 -98 -171t-175 -60t-176 60q-79 62 -102 175l-209 1022q-6 20 -6 45z" />
    <glyph glyph-name="X" unicode="X" horiz-adv-x="1378" 
d="M1280 1151l-354 -432l346 -428q53 -63 46 -140q-8 -77 -74 -122t-142 -35t-119 65l-297 369l-299 -367q-47 -57 -127 -67t-137 38t-66 122q-8 74 41 135l353 428l-351 434q-51 63 -43 140q7 77 73 124t140 36t121 -71l299 -372l305 372q51 60 126 70t133 -38t68 -123
t-42 -138z" />
    <glyph glyph-name="Y" unicode="Y" horiz-adv-x="1368" 
d="M14 1275q0 69 54 124t133 55q80 0 133 -70l348 -440l354 440q45 56 119 66t133 -37q56 -49 64 -123t-41 -133l-398 -471q-55 -65 -55 -117v-399q0 -76 -50 -127t-123 -51t-124 53t-51 125v399q0 51 -57 119l-394 467q-45 51 -45 120z" />
    <glyph glyph-name="Z" unicode="Z" horiz-adv-x="1226" 
d="M1004 0h-713q-111 0 -175 59t-65 153q0 94 76 181l575 715h-464q-72 0 -123 51t-51 123t50 121t124 49h688q102 0 164 -58t61 -148q0 -90 -80 -187l-569 -717h502q72 0 124 -51t52 -122t-51 -120t-125 -49z" />
    <glyph glyph-name="bracketleft" unicode="[" horiz-adv-x="825" 
d="M823 -190q0 -72 -51 -120t-125 -48h-407q-74 0 -117 44t-43 119v1651q0 78 41 122t119 44h407q74 0 125 -45t51 -118t-51 -121t-125 -48h-227v-1317h227q74 0 125 -45t51 -118z" />
    <glyph glyph-name="backslash" unicode="\" horiz-adv-x="880" 
d="M102 1563q68 27 131 -4t91 -99l546 -1351q27 -68 0 -134q-26 -67 -92 -93t-129 3t-92 99l-547 1351q-26 69 0 135t92 93z" />
    <glyph glyph-name="bracketright" unicode="]" horiz-adv-x="825" 
d="M178 -358q-74 0 -125 48t-51 119q0 72 51 118t125 46h230v1317h-230q-74 0 -125 48t-51 121t51 118t125 45h408q78 0 119 -44t40 -122v-1651q0 -75 -43 -119t-116 -44h-408z" />
    <glyph glyph-name="asciicircum" unicode="^" horiz-adv-x="983" 
d="M492 1036q-14 0 -21 -16l-86 -320q-14 -59 -80 -87t-127 -3t-88 87t-4 120l172 449q70 178 234 178t233 -178l174 -449q23 -57 -6 -119t-89 -88q-60 -25 -126 3t-80 87l-86 320q-6 16 -20 16z" />
    <glyph glyph-name="underscore" unicode="_" horiz-adv-x="966" 
d="M967 -164v-258h-967v258h967z" />
    <glyph glyph-name="grave" unicode="`" 
d="M721 1688q0 -64 -38 -104t-80 -40t-77 19l-278 141q-78 44 -78 106t38 104t82 42t79 -21l274 -143q78 -40 78 -104z" />
    <glyph glyph-name="a" unicode="a" horiz-adv-x="1136" 
d="M397 350q-1 -110 159 -110q78 0 146 45v151q-78 25 -156 25t-113 -32q-36 -32 -36 -79zM702 717q0 119 -144 119q-74 0 -180 -27t-171 11q-63 38 -64 114q0 102 121 150t279 49q481 -1 481 -435v-495q0 -74 -57 -113q-172 -110 -417 -110q-246 0 -358 103t-112 251
t101 244t311 96q125 0 210 -27v70z" />
    <glyph glyph-name="b" unicode="b" horiz-adv-x="1226" 
d="M633 811q-102 0 -170 -43v-406q67 -51 151 -51t130 44t51 131q4 87 0 161q-10 164 -162 164zM125 223v1084q0 74 48 124t119 50t121 -51t50 -123v-215q92 41 211 41q202 -1 320 -115t133 -284t3 -316q-16 -190 -153 -314t-350 -124q-260 0 -445 131q-57 39 -57 112z" />
    <glyph glyph-name="c" unicode="c" horiz-adv-x="1148" 
d="M610 309q109 0 170 90q43 66 122 66t124 -50t45 -122q0 -111 -130 -212t-337 -101t-348 126t-158 312q-12 127 0 302t154 294t351 119q210 -1 339 -99t129 -207q0 -71 -45 -121t-124 -50t-122 65q-61 90 -170 90q-158 0 -178 -158q-8 -88 0 -176q20 -168 178 -168z" />
    <glyph glyph-name="d" unicode="d" horiz-adv-x="1236" 
d="M594 811q-154 0 -160 -160q-8 -80 -2 -166q12 -174 176 -174q41 1 87 17t69 34v406q-68 43 -170 43zM555 1133q117 0 209 -41v215q0 72 50 123t122 51t120 -50t48 -124v-1084q0 -72 -57 -112q-182 -129 -447 -129q-213 0 -349 122q-135 122 -151 300t-2 305
q16 195 135 309t322 115z" />
    <glyph glyph-name="e" unicode="e" horiz-adv-x="1165" 
d="M418 655h342q20 0 20 25q2 80 -46 130t-136 50t-134 -56t-46 -149zM1083 641v-47q1 -70 -37 -113t-114 -43l-514 -2v-12q0 -72 57 -111t144 -39t189 46t166 0q64 -48 64 -128t-110 -146q-110 -64 -320 -64q-211 0 -351 122q-139 122 -155 292q-16 172 -4 294
q18 201 154 322t349 121q212 1 347 -133t135 -359z" />
    <glyph glyph-name="f" unicode="f" horiz-adv-x="958" 
d="M213 1036v58q0 201 105 304t284 103q131 0 223 -28q131 -41 131 -162q0 -61 -42 -103t-113 -41q-23 -1 -74 13t-84 14q-90 0 -90 -109v-49h207q63 0 108 -42t45 -105t-46 -105t-107 -43h-207v-573q0 -76 -48 -127t-121 -51t-122 51t-49 127v573h-37q-66 0 -110 42
t-43 106q0 63 44 105t109 42h37z" />
    <glyph glyph-name="g" unicode="g" horiz-adv-x="1226" 
d="M619 811q-89 0 -135 -48q-46 -47 -50 -119t0 -152q10 -174 166 -175q98 0 166 48v399q-58 47 -147 47zM1104 891v-805q0 -252 -151 -381t-352 -129t-343 80q-113 61 -113 158q0 59 41 102q40 43 98 43t141 -38t166 -38t130 45t47 127v19q-100 -45 -225 -45
q-193 0 -309 104t-134 293q-14 131 0 270q18 188 148 312t360 125q133 0 253 -40q119 -40 181 -83t62 -119z" />
    <glyph glyph-name="h" unicode="h" horiz-adv-x="1214" 
d="M463 1305v-224q82 51 217 52q204 0 314 -120t110 -345v-500q0 -76 -48 -127t-121 -51t-121 51t-48 127v483q0 72 -41 111t-120 39t-142 -51v-586q0 -74 -48 -124t-119 -50t-121 51t-50 123v1141q0 76 48 126t120 50t121 -50t49 -126z" />
    <glyph glyph-name="i" unicode="i" horiz-adv-x="608" 
d="M302 1120q73 0 122 -50t49 -124v-782q0 -72 -49 -123t-119 -51t-120 51t-50 123v782q0 74 47 124t120 50zM475 1378q0 -72 -51 -124t-122 -52t-121 52t-50 124t49 122t122 50t123 -50t50 -122z" />
    <glyph glyph-name="j" unicode="j" horiz-adv-x="604" 
d="M471 1378q0 -72 -51 -124t-123 -52t-121 52t-49 124t49 122t121 50t123 -50t51 -122zM131 252v694q0 74 47 124t120 50t122 -50t49 -124v-616q0 -434 -236 -660q-47 -45 -113 -50t-112 33q-47 39 -57 105t41 138q82 96 110 172t29 184z" />
    <glyph glyph-name="k" unicode="k" horiz-adv-x="1187" 
d="M293 1477q72 -1 121 -51t49 -123v-586h12q33 0 50 7t46 38l279 299q55 61 131 61t122 -51t47 -117t-42 -106l-281 -281l260 -278q51 -55 53 -123t-46 -122q-49 -54 -125 -54t-127 59l-271 303q-27 31 -43 38t-47 7h-18v-233q0 -74 -48 -124t-119 -50t-121 52t-50 122
v1139q0 74 48 124t120 50z" />
    <glyph glyph-name="l" unicode="l" horiz-adv-x="587" 
d="M125 1300q0 74 48 126t119 51q71 1 121 -51t50 -126v-1136q0 -74 -48 -124t-120 -50t-121 51t-49 123v1136z" />
    <glyph glyph-name="m" unicode="m" horiz-adv-x="1736" 
d="M1626 668v-504q0 -74 -48 -124t-119 -50t-121 51t-50 123v487q0 78 -30 114t-96 36t-122 -45v-592q0 -72 -49 -123t-119 -51t-120 51t-50 123v491q0 145 -127 146q-59 0 -120 -39v-598q0 -72 -49 -123t-119 -51t-121 51t-51 123v733q0 70 59 115q158 121 383 121
q174 0 291 -111q160 111 336 111q230 0 336 -118t106 -347z" />
    <glyph glyph-name="n" unicode="n" horiz-adv-x="1206" 
d="M758 651q0 150 -166 150q-80 0 -137 -39v-598q0 -72 -49 -123t-119 -51t-121 51t-51 123v741q0 74 57 115q164 113 422 113t380 -120t122 -345v-504q0 -74 -48 -124t-119 -50t-121 51t-50 123v487z" />
    <glyph glyph-name="o" unicode="o" horiz-adv-x="1216" 
d="M609 811q-77 0 -123 -43q-74 -70 -54 -299q8 -76 54 -120t123 -44t124 44t50 127t-1 166t-50 126t-123 43zM609 1133q208 0 350 -118t159 -304q14 -152 0 -299q-16 -188 -158 -310t-351 -122q-208 0 -351 122t-160 310q-14 147 0 299q16 186 160 304t351 118z" />
    <glyph glyph-name="p" unicode="p" horiz-adv-x="1218" 
d="M612 807q-94 0 -157 -49v-406q61 -43 166 -43q158 0 163 160q6 111 0 170q-10 168 -172 168zM455 -248q-1 -72 -51 -123t-122 -51t-119 50q-48 50 -48 124v1170q0 49 37 73q188 137 466 138q212 0 348 -120t152 -297t2 -304q-18 -195 -137 -310t-321 -114q-119 0 -207 41
v-277z" />
    <glyph glyph-name="q" unicode="q" horiz-adv-x="1236" 
d="M596 309q100 0 168 43v406q-64 49 -150 49q-176 0 -180 -168q-8 -90 0 -168q6 -162 162 -162zM600 1133q272 0 467 -138q37 -27 37 -73v-1170q0 -74 -48 -124t-120 -50t-122 51t-50 123v277q-88 -41 -209 -41q-203 0 -322 114t-135 308q-14 126 1 304t151 298t350 121z
" />
    <glyph glyph-name="r" unicode="r" horiz-adv-x="819" 
d="M815 948q0 -61 -40 -112t-111 -52q-10 0 -56 8t-80 9q-84 0 -84 -105v-536q0 -72 -49 -121t-120 -49t-121 50t-50 120v608q0 170 98 267t279 98q117 0 205 -25q129 -33 129 -160z" />
    <glyph glyph-name="s" unicode="s" horiz-adv-x="1046" 
d="M979 328q0 -152 -130 -250t-319 -98q-254 0 -405 118q-45 36 -53 98t26 110t92 56q57 8 121 -28q103 -64 223 -64t119 66q0 49 -92 67t-155 35q-133 35 -220 117q-86 82 -86 217q0 166 129 263t322 98q96 0 189 -28t151 -75q47 -44 50 -108t-32 -105t-95 -46t-130 30
t-168 35t-96 -60q0 -43 102 -65q31 -6 131 -29q168 -39 247 -121q79 -81 79 -233z" />
    <glyph glyph-name="t" unicode="t" horiz-adv-x="897" 
d="M115 416v774q0 74 48 125t119 51q70 0 120 -52t51 -124v-125h233q66 0 112 -44q46 -45 46 -109t-47 -108t-111 -44h-233v-336q0 -137 118 -137q33 0 114 19q81 20 135 -24t54 -118q0 -98 -91 -143t-279 -45t-288 121q-101 122 -101 319z" />
    <glyph glyph-name="u" unicode="u" horiz-adv-x="1206" 
d="M111 453v487q0 80 43 130q42 50 118 50t126 -52t51 -128v-473q-1 -72 41 -110t121 -38t141 39v586q0 74 48 125t120 51t120 -51t50 -125v-729q0 -76 -58 -115q-59 -44 -175 -78t-265 -34q-236 0 -359 120q-122 120 -122 345z" />
    <glyph glyph-name="v" unicode="v" horiz-adv-x="1128" 
d="M922 1120q96 0 150 -78t18 -178l-240 -639q-90 -238 -291 -237q-96 0 -170 60t-113 173l-237 645q-37 98 17 176t151 78q57 0 106 -37t68 -98q143 -485 168 -651q1 -12 15 -12t14 12q12 100 45 224t125 425q18 61 67 99t107 38z" />
    <glyph glyph-name="w" unicode="w" horiz-adv-x="1654" 
d="M826 684q-10 0 -9 -8l-90 -453q-25 -117 -95 -176t-170 -59q-99 0 -171 58t-98 173l-156 649q-23 104 21 178t139 74q59 0 105 -36t58 -99q80 -410 105 -655q0 -8 9 -8t11 8q68 412 111 598q20 88 82 140t148 52q84 0 148 -55t85 -137q41 -166 110 -598q-1 -8 9 -8t12 8
q47 412 102 655q10 63 58 99t108 36q94 0 138 -74t20 -178l-154 -649q-26 -115 -98 -173t-171 -58t-171 59q-71 59 -96 176l-88 453q-2 8 -12 8z" />
    <glyph glyph-name="x" unicode="x" horiz-adv-x="1157" 
d="M797 47l-219 252l-218 -252q-44 -53 -118 -58t-126 41t-54 116t44 124l246 285l-241 281q-49 55 -48 125q3 71 57 117t126 41t116 -60l216 -248l215 248q47 55 119 60t126 -42t56 -117t-47 -124l-244 -281l250 -285q47 -53 45 -124q-2 -70 -56 -116t-126 -41
q-74 5 -119 58z" />
    <glyph glyph-name="y" unicode="y" horiz-adv-x="1132" 
d="M569 412q10 0 15 12q47 213 166 563q20 61 68 99t104 38q98 0 154 -81t14 -175l-379 -864q-123 -276 -269 -377q-63 -47 -134 -47q-72 0 -116 44t-44 120t76 140q77 64 149 204l-332 782q-39 96 15 176t153 78q57 0 105 -37t69 -98q131 -377 172 -565q4 -12 14 -12z" />
    <glyph glyph-name="z" unicode="z" horiz-adv-x="1021" 
d="M797 313q74 0 124 -43q50 -42 50 -112t-50 -114t-124 -44h-561q-80 0 -132 48q-51 48 -51 120t45 125l424 493h-274q-74 0 -124 42t-50 111t50 114t124 45h540q113 0 160 -90q57 -102 -37 -211l-413 -484h299z" />
    <glyph glyph-name="braceleft" unicode="{" horiz-adv-x="958" 
d="M778 1290h-166q-27 0 -44 -17t-17 -44v-279q0 -213 -137 -305q137 -98 137 -305v-307q0 -25 15 -43t40 -19h172q76 0 126 -45t50 -118q0 -72 -51 -120t-125 -48h-291q-111 0 -193 82t-81 192v424q0 145 -99 225q-51 41 -51 81t51 81q99 80 99 225v467q0 85 60 145t145 60
h360q74 0 125 -48t51 -121t-50 -118t-126 -45z" />
    <glyph glyph-name="bar" unicode="|" horiz-adv-x="618" 
d="M306 1710q71 0 121 -51t50 -125v-1647q0 -74 -48 -124t-120 -50t-121 51t-49 123v1647q0 74 48 125t119 51z" />
    <glyph glyph-name="braceright" unicode="}" horiz-adv-x="958" 
d="M745 338v-424q1 -111 -81 -193t-193 -81h-293q-74 0 -125 48t-51 120t51 118q51 45 125 45h174q23 1 39 19t17 43v307q0 207 137 305q-137 92 -137 305v279q0 27 -18 44t-44 17h-168q-74 0 -125 45t-51 118t51 121t125 48h363q84 0 144 -60t60 -145v-467q0 -145 99 -225
q51 -41 51 -81t-51 -81q-99 -80 -99 -225z" />
    <glyph glyph-name="asciitilde" unicode="~" horiz-adv-x="1368" 
d="M1311 793q0 -123 -137 -183q-4 -2 -36 -15t-44 -18t-66 -24t-139 -21q-86 -2 -213 48q-128 50 -192 51q-64 0 -138 -37q-123 -59 -206 -2t-83 147q0 127 136 183q193 82 281 82t212 -52q126 -52 200 -51q74 0 144 35q121 59 201 1t80 -144z" />
    <glyph glyph-name="exclamdown" unicode="&#xa1;" horiz-adv-x="524" 
d="M111 1223v88q0 61 41 101q42 40 108 40t108 -40t42 -101v-88q0 -61 -42 -101t-109 -41q-67 1 -107 41t-41 101zM259 -12q-71 0 -121 52t-46 122l21 655q2 61 43 101t103 40t105 -38q42 -39 46 -103l22 -655q2 -70 -50 -122t-123 -52z" />
    <glyph glyph-name="cent" unicode="&#xa2;" horiz-adv-x="948" 
d="M649 1296v-133q82 -29 138 -81q93 -86 96 -183q0 -57 -44 -99t-98 -42q-92 0 -135 86q-35 66 -108 65q-94 0 -107 -125q-4 -22 -4 -68t4 -69q12 -125 107 -125q78 0 108 66q41 86 135 86q53 0 97 -42t45 -86q0 -44 -15 -75q-66 -147 -219 -205v-127q0 -65 -43 -111
t-103 -46t-106 48q-45 48 -45 109v131q-250 86 -266 355q-6 91 1 199t76 201t189 138v133q0 62 45 110t105 48t104 -46q43 -46 43 -112z" />
    <glyph glyph-name="sterling" unicode="&#xa3;" horiz-adv-x="1243" 
d="M195 524q-74 0 -124 44q-51 44 -51 117t50 118t125 45h45q-27 115 -27 178q0 178 124 303q123 125 371 125t412 -164q66 -63 66 -135t-50 -120t-114 -48t-131 51q-96 80 -203 80q-70 0 -102 -37t-33 -78q0 -41 11 -90t14 -65h186q74 0 124 -44t50 -116t-50 -118t-124 -46
h-152q0 -96 -47 -184h486q71 0 121 -50t50 -121t-50 -120t-121 -49h-666q-94 0 -152 53q-57 53 -57 117t45 160q45 94 51 194h-77z" />
    <glyph glyph-name="currency" unicode="&#xa4;" horiz-adv-x="1263" 
d="M631 881q-47 0 -79 -36t-35 -83t-1 -95t35 -82t80 -34t80 34t37 81v96q-4 47 -37 83t-80 36zM631 283q-100 0 -180 45l-111 -107q-46 -43 -108 -45t-105 42t-41 104t47 106l133 135q-23 79 -14 215q2 43 16 94l-133 138q-47 47 -49 105q-2 57 41 103t106 44t107 -50
l113 -108q80 45 179 45t179 -45l113 108q43 48 106 50q62 2 106 -43t42 -103t-50 -106l-131 -133q25 -98 17 -228q0 -39 -15 -90l131 -131q46 -47 48 -106q2 -60 -41 -104t-105 -42t-108 45l-111 105q-82 -43 -182 -43z" />
    <glyph glyph-name="yen" unicode="&#xa5;" horiz-adv-x="1368" 
d="M852 625h98q74 0 124 -44t50 -116t-50 -118t-124 -46h-92v-131q0 -76 -50 -127t-123 -51t-124 53t-51 125v131h-92q-76 0 -125 44t-49 117t50 118t124 45h100v20l-459 510q-51 59 -44 133t63 123t134 41q77 -8 122 -68l348 -430l354 430q47 56 121 66t131 -37
q56 -49 64 -123t-41 -133l-459 -514v-18z" />
    <glyph glyph-name="brokenbar" unicode="&#xa6;" horiz-adv-x="618" 
d="M306 1710q71 0 121 -51t50 -125v-573q0 -74 -48 -124q-48 -51 -120 -51t-121 52t-49 123v573q0 74 48 125t119 51zM306 637q71 0 121 -51t50 -125v-574q0 -74 -48 -124t-120 -50t-121 51t-49 123v574q0 74 48 125t119 51z" />
    <glyph glyph-name="section" unicode="&#xa7;" horiz-adv-x="1146" 
d="M782 571q0 57 -217 109q-76 18 -151 47q-18 -36 -19 -53q-1 -62 193 -110q92 -22 178 -54q16 32 16 61zM1044 606q0 -110 -77 -192q84 -94 84 -217q0 -172 -133 -290t-338 -118q-127 0 -245 39t-179 90q-62 51 -62 130t51 129t125 50q29 0 70 -18q147 -82 238 -82
q125 0 124 80q0 39 -42 59t-142 45q-215 57 -304 139t-89 189q0 108 76 190q-84 102 -84 218q0 173 133 291t352 118t387 -131q63 -53 63 -130t-50 -127q-52 -50 -111 -50t-90 24q-115 76 -225 76t-109 -76q0 -30 26 -52q25 -22 57 -32t101 -28q215 -55 304 -135
q89 -79 89 -189z" />
    <glyph glyph-name="dieresis" unicode="&#xa8;" 
d="M645 1860q66 0 111 -46t45 -112t-45 -111t-111 -45q-67 0 -111 45t-45 111q0 66 45 112t111 46zM248 1860q66 0 110 -46t45 -112q0 -66 -45 -111q-44 -45 -110 -45t-111 45t-45 111t45 112t111 46z" />
    <glyph glyph-name="copyright" unicode="&#xa9;" horiz-adv-x="1585" 
d="M799 498q88 0 123 69q35 63 82 63q46 0 78 -24t32 -58t-20 -79q-31 -74 -110 -124q-80 -50 -204 -50t-218 88q-93 88 -104 213t-1 231q10 141 104 229q93 88 219 89q126 0 204 -50t110 -124q20 -45 20 -79t-32 -58t-78 -25q-46 0 -82 63q-35 70 -123 70q-51 0 -83 -39
t-35 -113t-1 -144t35 -109t84 -39zM793 1235q-170 0 -295 -117t-133 -295q-8 -129 0 -209q8 -176 133 -294t295 -117q171 0 295 118t133 293q2 29 2 104t-2 105q-8 178 -133 295t-295 117zM793 1454q268 0 456 -179t199 -464q4 -92 0 -184q-10 -281 -198 -460t-457 -179
q-268 0 -457 179q-188 179 -199 460q-4 92 0 184q10 285 199 464t457 179z" />
    <glyph glyph-name="ordfeminine" unicode="&#xaa;" horiz-adv-x="980" 
d="M559 1042v129q-39 15 -94 15t-83 -25t-32 -65q-8 -92 0 -191q10 -84 118 -84q58 0 97 35q-6 47 -6 186zM434 555q-142 0 -239 96q-96 96 -107 254q-6 96 0 195q8 162 108 258t269 96q168 0 297 -88q61 -39 61 -119v-311q0 -57 36 -117q3 -3 19 -27t17 -26q37 -58 25 -114
t-56 -79t-91 -17q-46 6 -79 44q-25 33 -30 45q-88 -90 -230 -90z" />
    <glyph glyph-name="guillemotleft" unicode="&#xab;" horiz-adv-x="1337" 
d="M668 739q0 125 108 201l256 176q52 37 112 33t99 -52q39 -49 33 -111t-55 -95l-179 -125q-18 -14 -18 -26t18 -27l179 -125q49 -33 55 -95q6 -63 -33 -111t-98 -52t-113 32l-256 177q-108 75 -108 200zM68 739q0 125 106 201l256 176q52 37 112 33t99 -52q39 -49 34 -111
t-54 -95l-181 -125q-18 -14 -18 -26t18 -27l181 -125q49 -33 54 -95q5 -63 -34 -111t-98 -52t-113 32l-256 177q-106 75 -106 200z" />
    <glyph glyph-name="logicalnot" unicode="&#xac;" horiz-adv-x="1286" 
d="M1163 688v-336q0 -68 -46 -114q-47 -46 -113 -48q-66 0 -113 50t-47 112v203h-561q-68 0 -115 47t-47 114q0 66 47 112t115 46h692q90 0 139 -53t49 -133z" />
    <glyph glyph-name="registered" unicode="&#xae;" horiz-adv-x="1282" 
d="M641 1458q221 0 373 -147t162 -367q4 -84 0 -164q-10 -219 -163 -367q-153 -149 -372 -149t-372 148t-163 368q-6 80 0 164q10 218 162 366t373 148zM612 768h-16v-109q0 -37 -24 -61t-60 -23q-36 0 -60 25t-24 59v398q0 35 23 59t59 23h162q84 0 135 -47t51 -132
t-78 -135l74 -110q18 -33 18 -63t-24 -54t-66 -23q-40 0 -63 39l-82 138q-10 16 -25 16zM642 1278q-148 0 -244 -86t-107 -240q-27 -299 107 -420q94 -86 242 -86t243 86q133 121 106 420q-12 154 -106 240q-93 86 -241 86zM590 895h49q61 0 61 53t-57 53h-53v-106z" />
    <glyph glyph-name="macron" unicode="&#xaf;" 
d="M289 1821h315q59 0 97 -39q38 -40 38 -98t-39 -97t-96 -39h-315q-57 0 -96 39t-39 97t39 98t96 39z" />
    <glyph glyph-name="degree" unicode="&#xb0;" horiz-adv-x="901" 
d="M352 1202q0 -42 29 -70t70 -28t69 29t29 69q0 40 -29 70q-30 28 -70 28t-69 -28t-29 -70zM147 1202q-1 125 89 214t215 89t214 -89t89 -214t-89 -214t-214 -89t-215 89t-89 214z" />
    <glyph glyph-name="plusminus" unicode="&#xb1;" horiz-adv-x="1286" 
d="M483 506v203h-200q-68 0 -115 47q-47 48 -47 114t47 112t115 46h200v201q0 69 47 115t114 46t113 -46q46 -48 46 -115v-201h198q68 0 115 -46t47 -113t-48 -113t-114 -47h-198v-203q0 -68 -46 -115q-45 -47 -111 -47t-115 49q-48 50 -48 113zM1001 0h-718q-68 0 -115 47
t-47 114t47 113t115 45h718q68 0 115 -46q47 -47 47 -113t-48 -113t-114 -47z" />
    <glyph glyph-name="twosuperior" unicode="&#xb2;" horiz-adv-x="894" 
d="M88 660q0 142 184 272q31 19 60 41q30 21 54 39q87 63 87 125q0 53 -61 53q-42 0 -98 -50t-108 -50t-92 36t-40 90q0 120 165 196q89 42 195 42q164 0 246 -78t82 -187t-43 -169t-153 -130t-120 -99h191q66 0 111 -39t45 -105q0 -67 -45 -105t-111 -38h-399
q-70 0 -110 43t-40 113z" />
    <glyph glyph-name="threesuperior" unicode="&#xb3;" horiz-adv-x="856" 
d="M225 972q0 42 33 68l119 95h-154q-59 0 -100 43t-41 103t41 100t100 40h336q63 0 107 -37t45 -99q0 -62 -64 -130l-61 -59q180 -66 180 -243t-131 -275t-359 -99q-45 0 -61 2q-61 4 -102 44q-41 41 -41 101t40 97t107 37l31 -2q29 -4 82 -4t98 26t45 64q0 53 -65 53
l-93 -14q-37 -1 -65 23t-27 66z" />
    <glyph glyph-name="acute" unicode="&#xb4;" 
d="M721 1810q0 -62 -78 -106l-276 -141q-95 -46 -159 21q-38 40 -38 104t78 104l276 143q33 21 77 21t82 -42t38 -104z" />
    <glyph glyph-name="mu" unicode="&#xb5;" horiz-adv-x="1230" 
d="M135 -244v1192q0 72 48 124t119 52t121 -52t50 -124v-487q0 -72 41 -110t119 -38t139 41v594q0 72 50 124t121 52t123 -52t52 -124v-764q0 -51 -37 -73q-182 -129 -426 -129q-106 0 -182 36v-262q0 -74 -48 -124t-120 -50t-121 51t-49 123z" />
    <glyph glyph-name="mu" unicode="&#x3bc;" horiz-adv-x="1230" 
d="M135 -244v1192q0 72 48 124t119 52t121 -52t50 -124v-487q0 -72 41 -110t119 -38t139 41v594q0 72 50 124t121 52t123 -52t52 -124v-764q0 -51 -37 -73q-182 -129 -426 -129q-106 0 -182 36v-262q0 -74 -48 -124t-120 -50t-121 51t-49 123z" />
    <glyph glyph-name="paragraph" unicode="&#xb6;" horiz-adv-x="1624" 
d="M410 926q0 -178 231 -178h55v364h-57q-229 0 -229 -186zM867 -393q-71 0 -121 50t-50 124v637h-102q-231 0 -380 136q-148 136 -148 372t150 372t376 136h665q98 0 164 -67t66 -169v-1417q0 -74 -48 -124t-120 -50t-121 51t-49 123v1315h-113v-1315q0 -74 -49 -124
t-120 -50z" />
    <glyph glyph-name="periodcentered" unicode="&#xb7;" horiz-adv-x="587" 
d="M292 928q62 0 106 -44t44 -106v-110q0 -64 -43 -106t-105 -42t-107 43q-44 43 -44 105v110q0 63 43 107q44 43 106 43z" />
    <glyph glyph-name="cedilla" unicode="&#xb8;" 
d="M393 113q43 0 68 -26t24 -67q0 -8 -6 -32l-26 -54q109 -10 167 -68t58 -147q0 -197 -264 -292q-79 -29 -133 15q-33 26 -33 88t83 96q83 32 109 52t25 48q0 49 -55 49l-74 -8q-47 1 -75 41t-11 86l53 141q29 78 90 78z" />
    <glyph glyph-name="onesuperior" unicode="&#xb9;" horiz-adv-x="741" 
d="M322 649v391l-86 -43q-56 -27 -110 -11t-85 64q-31 50 -11 109q19 59 66 88l297 168q35 19 89 19t98 -44q43 -44 43 -110v-631q0 -67 -41 -109q-42 -42 -106 -42t-109 46t-45 105z" />
    <glyph glyph-name="ordmasculine" unicode="&#xba;" horiz-adv-x="901" 
d="M450 821q40 0 68 29q28 30 29 92q2 62 0 122t-30 89q-27 29 -67 29t-68 -29t-30 -89t0 -123q2 -62 30 -91t68 -29zM451 551q-168 0 -272 99q-103 99 -113 263q-6 88 0 179q10 156 115 259t269 103t270 -103q105 -103 116 -259q6 -91 0 -179q-10 -164 -114 -263t-271 -99z
" />
    <glyph glyph-name="guillemotright" unicode="&#xbb;" horiz-adv-x="1337" 
d="M670 739q0 -125 -109 -200l-256 -177q-53 -36 -111 -32t-98 52t-34 110q5 62 55 96l178 125q18 14 18 26t-18 27l-178 125q-49 33 -55 95q-5 62 34 110q40 48 98 53q58 4 111 -33l256 -176q109 -76 109 -201zM1270 739q0 -125 -107 -200l-256 -177q-53 -36 -112 -32
t-99 52t-34 110t55 96l180 125q18 14 18 26t-18 27l-180 125q-49 33 -54 95t33 110t98 53q60 4 113 -33l256 -176q107 -76 107 -201z" />
    <glyph glyph-name="onequarter" unicode="&#xbc;" horiz-adv-x="2121" 
d="M322 649v391l-86 -43q-56 -27 -110 -11t-85 64q-31 50 -11 109q19 59 66 88l297 168q35 19 89 19t98 -44q43 -44 43 -110v-631q0 -67 -41 -109q-42 -42 -106 -42t-109 46t-45 105zM580 147l501 1260q23 55 89 83t120 7q61 -27 85 -85t1 -120l-504 -1259q-24 -57 -82 -86
t-116 -4q-59 21 -88 85t-6 119zM1665 412v200l-178 -200h178zM1911 412h53q47 0 84 -35t37 -87t-35 -86t-86 -34h-55v-47q0 -49 -35 -86t-87 -37t-86 35t-34 88v41h-313q-80 0 -132 44t-52 114t79 161l332 379q63 74 147 74t133 -52q50 -52 50 -128v-344z" />
    <glyph glyph-name="onehalf" unicode="&#xbd;" horiz-adv-x="2105" 
d="M1298 156q0 142 185 272q10 6 37 26t61 42q34 23 61 55q41 46 41 82q0 53 -61 53q-43 0 -98 -50q-56 -50 -108 -50t-92 37t-40 89t38 103t127 93t196 42q163 0 245 -78t82 -187t-43 -169t-153 -130t-119 -99h190q66 0 111 -39t45 -105q0 -67 -45 -105t-111 -38h-399
q-70 0 -110 43t-40 113zM322 649v391l-86 -43q-56 -27 -110 -11t-85 64q-31 50 -11 109q19 59 66 88l297 168q35 19 89 19t98 -44q43 -44 43 -110v-631q0 -67 -41 -109q-42 -42 -106 -42t-109 46t-45 105zM580 147l501 1260q23 55 89 83t120 7q61 -27 85 -85t1 -120
l-504 -1259q-24 -57 -82 -86t-116 -4q-59 21 -88 85t-6 119z" />
    <glyph glyph-name="threequarters" unicode="&#xbe;" horiz-adv-x="2217" 
d="M676 147l502 1260q22 55 88 83t124 4t82 -83q26 -59 1 -119l-504 -1259q-23 -57 -81 -86t-116 -7t-89 88q-30 64 -7 119zM225 972q0 42 33 68l109 95h-144q-59 0 -100 43t-41 103t41 100t100 40h336q63 0 107 -37t45 -98q0 -61 -64 -131l-55 -59q174 -64 174 -242
t-131 -276t-359 -99q-205 0 -204 148q0 59 40 96t107 37l31 -2q29 -4 82 -4t98 26t45 64q0 53 -65 53l-93 -14q-37 -1 -65 23t-27 66zM1765 412v200l-176 -200h176zM2064 170h-55v-41q0 -53 -34 -91t-88 -38t-87 36t-33 93v35h-305q-84 0 -138 43t-54 116t84 166l317 361
q90 103 215 78q59 -16 92 -66t33 -114v-336h53q47 0 84 -35t37 -87t-34 -86t-87 -34z" />
    <glyph glyph-name="questiondown" unicode="&#xbf;" horiz-adv-x="1122" 
d="M768 1311v-88q0 -61 -41 -101t-108 -41q-67 0 -109 40t-41 102v88q0 61 42 102q41 41 107 41t108 -41t42 -102zM557 -12q-207 0 -338 114t-131 295q0 354 434 553q50 25 110 25t105 -42t45 -99q0 -109 -106 -158q-246 -106 -246 -228q0 -62 39 -98q39 -35 98 -35
q93 1 181 95q59 68 133 68q73 0 121 -53t48 -115t-44 -122q-78 -98 -199 -149t-250 -51z" />
    <glyph glyph-name="Agrave" unicode="&#xc0;" horiz-adv-x="1433" 
d="M752 1542q-44 0 -76 19l-279 141q-78 44 -78 106t38 104t82 42t79 -21l275 -143q78 -41 77 -115q0 -53 -38 -93q-36 -40 -80 -40zM718 1112q-14 0 -18 -16l-147 -437h330l-144 437q-7 16 -21 16zM1399 170q0 -70 -47 -123q-48 -53 -112 -53t-110 30q-45 30 -61 78
l-88 263h-528l-88 -263q-43 -110 -173 -110q-64 0 -111 53q-46 53 -46 123q0 27 10 61l367 1018q84 225 309 225t307 -225l361 -1018q10 -30 10 -59z" />
    <glyph glyph-name="Aacute" unicode="&#xc1;" horiz-adv-x="1433" 
d="M1098 1808q0 -62 -78 -106l-277 -141q-94 -46 -158 21q-38 40 -38 104t78 104l276 143q33 21 77 21t82 -42t38 -104zM718 1112q-14 0 -18 -16l-147 -437h330l-144 437q-7 16 -21 16zM1399 170q0 -70 -47 -123q-48 -53 -112 -53t-110 30q-45 30 -61 78l-88 263h-528
l-88 -263q-43 -110 -173 -110q-64 0 -111 53q-46 53 -46 123q0 27 10 61l367 1018q84 225 309 225t307 -225l361 -1018q10 -30 10 -59z" />
    <glyph glyph-name="Acircumflex" unicode="&#xc2;" horiz-adv-x="1433" 
d="M977 1546q-45 0 -90 33l-166 127l-166 -127q-45 -33 -90 -33t-86 40t-41 97t59 101l236 184q49 35 89 35t85 -35l235 -184q62 -46 62 -102t-41 -96t-86 -40zM718 1112q-14 0 -18 -16l-147 -437h330l-144 437q-7 16 -21 16zM1399 170q0 -70 -47 -123q-48 -53 -112 -53
t-110 30q-45 30 -61 78l-88 263h-528l-88 -263q-43 -110 -173 -110q-64 0 -111 53q-46 53 -46 123q0 27 10 61l367 1018q84 225 309 225t307 -225l361 -1018q10 -30 10 -59z" />
    <glyph glyph-name="Atilde" unicode="&#xc3;" horiz-adv-x="1433" 
d="M844 1792q31 0 75 34q43 34 83 34t72 -37t32 -84t-49 -97q-100 -100 -191 -100q-53 0 -144 39t-125 39t-77 -34t-83 -34q-41 0 -73 37t-32 84t49 96q103 101 179 101t164 -39t120 -39zM718 1112q-14 0 -18 -16l-147 -437h330l-144 437q-7 16 -21 16zM1399 170
q0 -70 -47 -123q-48 -53 -112 -53t-110 30q-45 30 -61 78l-88 263h-528l-88 -263q-43 -110 -173 -110q-64 0 -111 53q-46 53 -46 123q0 27 10 61l367 1018q84 225 309 225t307 -225l361 -1018q10 -30 10 -59z" />
    <glyph glyph-name="Adieresis" unicode="&#xc4;" horiz-adv-x="1433" 
d="M918 1860q66 0 110 -46t45 -112q0 -66 -45 -111q-44 -45 -110 -45t-111 45t-45 111t45 112t111 46zM520 1860q66 0 111 -46t45 -112t-45 -111t-111 -45t-110 45t-45 111q1 66 45 112t110 46zM718 1112q-14 0 -18 -16l-147 -437h330l-144 437q-7 16 -21 16zM1399 170
q0 -70 -47 -123q-48 -53 -112 -53t-110 30q-45 30 -61 78l-88 263h-528l-88 -263q-43 -110 -173 -110q-64 0 -111 53q-46 53 -46 123q0 27 10 61l367 1018q84 225 309 225t307 -225l361 -1018q10 -30 10 -59z" />
    <glyph glyph-name="Aring" unicode="&#xc5;" horiz-adv-x="1433" 
d="M645 1778q1 -33 21 -55q20 -21 51 -21t53 22t21 54q0 32 -22 54q-23 22 -53 22t-50 -22q-20 -21 -21 -54zM473 1779q0 101 73 173t173 72t174 -72t74 -173t-74 -172t-174 -71t-173 71t-73 172zM718 1112q-14 0 -18 -16l-147 -437h330l-144 437q-7 16 -21 16zM1399 170
q0 -70 -47 -123q-48 -53 -112 -53t-110 30q-45 30 -61 78l-88 263h-528l-88 -263q-43 -110 -173 -110q-64 0 -111 53q-46 53 -46 123q0 27 10 61l367 1018q84 225 309 225t307 -225l361 -1018q10 -30 10 -59z" />
    <glyph glyph-name="AE" unicode="&#xc6;" horiz-adv-x="2224" 
d="M1067 702v431q-24 -13 -57 -66l-246 -365h303zM1067 236v167h-500l-225 -335q-36 -54 -104 -68t-125 20t-75 106q-17 71 19 124l699 1020q72 106 148 146t216 40h844q70 0 118 -46t48 -114t-50 -116t-116 -47h-549v-256h494q67 0 111 -41q44 -42 44 -104t-47 -107
t-108 -45h-494v-258h553q66 0 116 -48t50 -116q0 -66 -48 -112t-118 -46h-659q-115 0 -179 68q-63 68 -63 168z" />
    <glyph glyph-name="Ccedilla" unicode="&#xc7;" horiz-adv-x="1372" 
d="M729 1473q180 0 330 -81t217 -233q18 -49 18 -107t-53 -104q-53 -47 -113 -47t-92 26q-33 26 -63 72q-86 143 -244 144q-127 0 -201 -86q-74 -85 -82 -213t0 -254t82 -207q74 -80 201 -80q158 0 244 143q31 49 62 74q32 25 92 25q59 0 113 -47q54 -46 54 -104t-18 -107
q-62 -137 -194 -218t-294 -94l-16 -41q109 -10 165 -70t57 -158q0 -98 -70 -163q-70 -66 -209 -116q-57 -20 -112 2q-54 23 -54 93t74 99q129 51 140 63t11 31t-14 33t-41 14l-74 -8q-47 0 -75 41q-27 41 -9 86l41 105q-213 38 -349 196t-155 377q-16 168 0 324
q23 254 195 422t436 168z" />
    <glyph glyph-name="Egrave" unicode="&#xc8;" horiz-adv-x="1292" 
d="M834 1686q0 -64 -38 -104t-81 -40t-76 19l-279 141q-78 44 -78 106t39 104q67 74 160 21l275 -143q78 -40 78 -104zM375 1452h657q70 0 118 -45t48 -112t-50 -115t-116 -47h-549v-256h471q72 0 114 -40q42 -41 42 -105t-44 -108t-112 -44h-471v-258h553q66 0 116 -48
t50 -116q0 -66 -48 -112t-118 -46h-661q-113 0 -176 68t-64 168v985q-1 99 63 165t177 66z" />
    <glyph glyph-name="Eacute" unicode="&#xc9;" horiz-adv-x="1292" 
d="M1028 1808q0 -62 -78 -106l-276 -141q-95 -46 -159 21q-38 40 -38 104t78 104l276 143q33 21 77 21t82 -42t38 -104zM375 1452h657q70 0 118 -45t48 -112t-50 -115t-116 -47h-549v-256h471q72 0 114 -40q42 -41 42 -105t-44 -108t-112 -44h-471v-258h553q66 0 116 -48
t50 -116q0 -66 -48 -112t-118 -46h-661q-113 0 -176 68t-64 168v985q-1 99 63 165t177 66z" />
    <glyph glyph-name="Ecircumflex" unicode="&#xca;" horiz-adv-x="1292" 
d="M934 1546q-45 0 -90 33l-166 127l-166 -127q-45 -33 -90 -33t-86 40t-41 97t59 101l236 184q49 35 89 35t85 -35l235 -184q61 -46 61 -102t-40 -96q-41 -40 -86 -40zM375 1452h657q70 0 118 -45t48 -112t-50 -115t-116 -47h-549v-256h471q72 0 114 -40q42 -41 42 -105
t-44 -108t-112 -44h-471v-258h553q66 0 116 -48t50 -116q0 -66 -48 -112t-118 -46h-661q-113 0 -176 68t-64 168v985q-1 99 63 165t177 66z" />
    <glyph glyph-name="Edieresis" unicode="&#xcb;" horiz-adv-x="1292" 
d="M879 1858q67 0 111 -46t44 -112t-45 -111t-111 -45t-110 45q-45 45 -45 111t45 112t111 46zM481 1858q66 0 111 -46t45 -112t-45 -111t-111 -45q-67 0 -111 45t-44 111t44 112t111 46zM375 1452h657q70 0 118 -45t48 -112t-50 -115t-116 -47h-549v-256h471q72 0 114 -40
q42 -41 42 -105t-44 -108t-112 -44h-471v-258h553q66 0 116 -48t50 -116q0 -66 -48 -112t-118 -46h-661q-113 0 -176 68t-64 168v985q-1 99 63 165t177 66z" />
    <glyph glyph-name="Igrave" unicode="&#xcc;" horiz-adv-x="602" 
d="M461 1686q0 -64 -38 -104t-81 -40t-76 19l-278 141q-78 44 -78 106t38 104t82 42t79 -21l274 -143q78 -40 78 -104zM127 172v1102q0 74 52 126t124 52t122 -52t50 -126v-1102q0 -76 -50 -128t-123 -52t-124 52t-51 128z" />
    <glyph glyph-name="Iacute" unicode="&#xcd;" horiz-adv-x="602" 
d="M651 1808q0 -62 -78 -106l-276 -141q-95 -46 -159 21q-38 40 -38 104t78 104l277 143q33 21 77 21t81 -42q38 -42 38 -104zM127 172v1102q0 74 52 126t124 52t122 -52t50 -126v-1102q0 -76 -50 -128t-123 -52t-124 52t-51 128z" />
    <glyph glyph-name="Icircumflex" unicode="&#xce;" horiz-adv-x="602" 
d="M551 1546q-45 0 -90 33l-166 127l-166 -127q-45 -33 -90 -33t-86 40t-41 97t59 101l236 184q49 35 89 35t85 -35l235 -184q62 -46 62 -102t-41 -96t-86 -40zM127 172v1102q0 74 52 126t124 52t122 -52t50 -126v-1102q0 -76 -50 -128t-123 -52t-124 52t-51 128z" />
    <glyph glyph-name="Idieresis" unicode="&#xcf;" horiz-adv-x="602" 
d="M504 1860q66 0 110 -46t45 -112q0 -66 -45 -111q-44 -45 -110 -45t-111 45t-45 111t45 112t111 46zM106 1860q66 0 111 -46t45 -112t-45 -111t-111 -45t-110 45t-45 111q1 66 45 112t110 46zM127 172v1102q0 74 52 126t124 52t122 -52t50 -126v-1102q0 -76 -50 -128
t-123 -52t-124 52t-51 128z" />
    <glyph glyph-name="Eth" unicode="&#xd0;" horiz-adv-x="1470" 
d="M682 1114h-199v-240h179q63 0 106 -43t43 -105t-43 -105t-106 -43h-179v-236h199q319 0 342 305q6 68 2 141q-12 326 -344 326zM672 0h-297q-111 0 -175 67t-65 166v345h-35q-63 0 -105 43t-42 105t42 105t105 43h35v347q1 102 63 167t177 64h297q332 0 505 -162
t193 -442q36 -457 -189 -679q-171 -169 -509 -169z" />
    <glyph glyph-name="Ntilde" unicode="&#xd1;" horiz-adv-x="1568" 
d="M950 1796q31 0 75 34t84 34t72 -37q31 -37 31 -84t-49 -96q-100 -100 -190 -101q-53 0 -145 39t-124 39q-34 0 -77 -34t-83 -34t-73 37t-33 84t49 97q104 100 193 100q63 0 151 -39t119 -39zM1085 1010v264q-1 74 51 126t126 52t122 -51t50 -127v-1016q0 -114 -71 -192
t-183 -78q-176 0 -250 145l-469 877l-6 -2q25 -256 24 -504v-338q0 -74 -48 -126t-120 -52t-124 53t-52 125v1010q0 116 73 196t183 80q172 0 252 -152l459 -858v-2l6 2q-23 236 -23 568z" />
    <glyph glyph-name="Ograve" unicode="&#xd2;" horiz-adv-x="1509" 
d="M946 1686q0 -64 -38 -104t-80 -40t-76 19l-279 141q-78 44 -78 106t38 104t82 42t79 -21l274 -143q78 -40 78 -104zM753 303q130 0 216 86t95 210t0 249t-95 211t-216 86t-214 -85q-85 -85 -93 -211t0 -250t92 -210t215 -86zM752 -27q-264 0 -448 168q-183 168 -206 418
q-16 168 0 324q23 252 206 421q184 169 448 169t450 -171t209 -419q12 -162 0 -324q-23 -248 -209 -417t-450 -169z" />
    <glyph glyph-name="Oacute" unicode="&#xd3;" horiz-adv-x="1509" 
d="M1096 1808q0 -62 -78 -106l-277 -141q-94 -46 -158 21q-38 40 -38 104t78 104l276 143q33 21 77 21t82 -42t38 -104zM753 303q130 0 216 86t95 210t0 249t-95 211t-216 86t-214 -85q-85 -85 -93 -211t0 -250t92 -210t215 -86zM752 -27q-264 0 -448 168q-183 168 -206 418
q-16 168 0 324q23 252 206 421q184 169 448 169t450 -171t209 -419q12 -162 0 -324q-23 -248 -209 -417t-450 -169z" />
    <glyph glyph-name="Ocircumflex" unicode="&#xd4;" horiz-adv-x="1509" 
d="M1020 1546q-45 0 -90 33l-166 127l-166 -127q-45 -33 -90 -33t-86 40t-41 97t59 101l236 184q49 35 89 35t85 -35l235 -184q61 -46 61 -102t-40 -96q-41 -40 -86 -40zM753 303q130 0 216 86t95 210t0 249t-95 211t-216 86t-214 -85q-85 -85 -93 -211t0 -250t92 -210
t215 -86zM752 -27q-264 0 -448 168q-183 168 -206 418q-16 168 0 324q23 252 206 421q184 169 448 169t450 -171t209 -419q12 -162 0 -324q-23 -248 -209 -417t-450 -169z" />
    <glyph glyph-name="Otilde" unicode="&#xd5;" horiz-adv-x="1509" 
d="M872 1788q31 0 75 34q91 70 156 -3q32 -37 32 -84t-50 -97q-100 -100 -190 -100q-53 0 -144 39t-125 39t-77 -34t-83 -34t-73 37t-33 84t50 96q104 101 180 101t163 -39q88 -39 119 -39zM753 303q130 0 216 86t95 210t0 249t-95 211t-216 86t-214 -85q-85 -85 -93 -211
t0 -250t92 -210t215 -86zM752 -27q-264 0 -448 168q-183 168 -206 418q-16 168 0 324q23 252 206 421q184 169 448 169t450 -171t209 -419q12 -162 0 -324q-23 -248 -209 -417t-450 -169z" />
    <glyph glyph-name="Odieresis" unicode="&#xd6;" horiz-adv-x="1509" 
d="M954 1860q66 0 111 -46t45 -112t-45 -111t-111 -45t-110 45t-45 111q1 66 45 112t110 46zM557 1860q66 0 111 -46t45 -112t-45 -111t-111 -45t-111 45t-45 111t45 112t111 46zM753 303q130 0 216 86t95 210t0 249t-95 211t-216 86t-214 -85q-85 -85 -93 -211t0 -250
t92 -210t215 -86zM752 -27q-264 0 -448 168q-183 168 -206 418q-16 168 0 324q23 252 206 421q184 169 448 169t450 -171t209 -419q12 -162 0 -324q-23 -248 -209 -417t-450 -169z" />
    <glyph glyph-name="multiply" unicode="&#xd7;" horiz-adv-x="1286" 
d="M164 398q0 70 47 116l207 205l-207 207q-47 48 -47 116t48 114t113 45t111 -48l207 -209l205 205q47 47 116 47q68 0 114 -49t44 -115t-47 -108l-205 -205l201 -197q47 -46 49 -112t-43 -115t-113 -50t-116 46l-205 205l-207 -209q-48 -47 -112 -48t-112 44t-48 115z" />
    <glyph glyph-name="Oslash" unicode="&#xd8;" horiz-adv-x="1521" 
d="M764 1145q-129 0 -213 -85t-92 -211q-13 -210 0 -263l428 534q-55 25 -123 25zM764 303q131 0 217 86t95 210t-1 241l-4 39l-438 -549q63 -27 131 -27zM764 -27q-188 0 -342 90l-29 -34q-39 -49 -98 -55t-111 33q-52 40 -56 98q-5 58 38 112l41 53q-84 133 -98 295t2 318
q23 252 205 421q183 169 448 169q180 0 334 -87l24 31q40 47 100 53t109 -32t55 -98t-34 -109l-37 -47q94 -139 107 -301t1 -324q-23 -248 -209 -417t-450 -169z" />
    <glyph glyph-name="Ugrave" unicode="&#xd9;" horiz-adv-x="1529" 
d="M934 1686q0 -64 -38 -104t-80 -40t-77 19l-278 141q-78 44 -78 106t38 104t82 42t79 -21l274 -143q78 -40 78 -104zM1407 1274v-637q0 -293 -182 -478q-181 -185 -459 -185t-460 184t-181 479v637q0 74 51 126t123 52t122 -52t50 -126v-664q0 -143 83 -228t212 -85
t211 85t82 228v664q0 76 51 127t125 51t123 -51t49 -127z" />
    <glyph glyph-name="Uacute" unicode="&#xda;" horiz-adv-x="1529" 
d="M655 1790l277 143q32 21 76 21t82 -42t38 -95q0 -72 -77 -115l-277 -141q-94 -46 -159 21q-38 40 -37 93q-1 74 77 115zM1407 1274v-637q0 -293 -182 -478q-181 -185 -459 -185t-460 184t-181 479v637q0 74 51 126t123 52t122 -52t50 -126v-664q0 -143 83 -228t212 -85
t211 85t82 228v664q0 76 51 127t125 51t123 -51t49 -127z" />
    <glyph glyph-name="Ucircumflex" unicode="&#xdb;" horiz-adv-x="1529" 
d="M1157 1682q0 -56 -41 -96t-86 -40t-90 33l-166 127l-166 -127q-45 -33 -90 -33t-86 40t-41 97t60 101l235 184q49 35 89 35t85 -35l236 -184q61 -46 61 -102zM1407 1274v-637q0 -293 -182 -478q-181 -185 -459 -185t-460 184t-181 479v637q0 74 51 126t123 52t122 -52
t50 -126v-664q0 -143 83 -228t212 -85t211 85t82 228v664q0 76 51 127t125 51t123 -51t49 -127z" />
    <glyph glyph-name="Udieresis" unicode="&#xdc;" horiz-adv-x="1529" 
d="M965 1860q67 0 111 -46t44 -112t-45 -111t-111 -45t-110 45q-45 45 -45 111t45 112t111 46zM567 1860q66 0 111 -46t45 -112t-45 -111t-111 -45q-67 0 -111 45t-44 111t44 112t111 46zM1407 1274v-637q0 -293 -182 -478q-181 -185 -459 -185t-460 184t-181 479v637
q0 74 51 126t123 52t122 -52t50 -126v-664q0 -143 83 -228t212 -85t211 85t82 228v664q0 76 51 127t125 51t123 -51t49 -127z" />
    <glyph glyph-name="Yacute" unicode="&#xdd;" horiz-adv-x="1368" 
d="M485 1790l277 143q32 21 76 21t82 -42t38 -95q0 -72 -77 -115l-277 -141q-94 -46 -159 21q-38 40 -37 93q-1 74 77 115zM14 1275q0 69 54 124t133 55q80 0 133 -70l348 -440l354 440q45 56 119 66t133 -37q56 -49 64 -123t-41 -133l-398 -471q-55 -65 -55 -117v-399
q0 -76 -50 -127t-123 -51t-124 53t-51 125v399q0 51 -57 119l-394 467q-45 51 -45 120z" />
    <glyph glyph-name="Thorn" unicode="&#xde;" horiz-adv-x="1331" 
d="M483 543h246q102 0 153 50q50 50 50 138t-49 139t-150 52h-250v-379zM739 215h-256v-47q0 -74 -50 -127t-122 -53t-124 54t-52 126v1106q0 72 52 126t124 54t122 -52t50 -128v-45h275q220 0 372 -136t152 -372t-150 -371t-393 -135z" />
    <glyph glyph-name="germandbls" unicode="&#xdf;" horiz-adv-x="1464" 
d="M1130 1178q0 -122 -70 -211q-70 -88 -71 -129q1 -40 21 -56t82 -44q205 -92 255 -194q38 -79 37 -182q0 -141 -112 -258q-112 -116 -316 -116q-205 0 -333 100q-61 49 -75 116q-12 68 22 116t99 56t128 -39q63 -48 121 -48t94 32q35 32 35 85q0 84 -166 131
q-125 37 -179 93q-53 56 -53 143t72 181t72 138t-34 72t-100 28q-197 0 -196 -201v-825q0 -74 -48 -126t-120 -52t-121 52t-49 126v860q0 221 144 347t417 126q204 -1 324 -85t120 -236z" />
    <glyph glyph-name="agrave" unicode="&#xe0;" horiz-adv-x="1136" 
d="M670 1206q-43 0 -76 19l-279 141q-77 44 -77 106t37 104q38 42 82 42t79 -21l275 -143q78 -41 77 -115q0 -53 -38 -93t-80 -40zM397 350q-1 -110 159 -110q78 0 146 45v151q-78 25 -156 25t-113 -32q-36 -32 -36 -79zM702 717q0 119 -144 119q-74 0 -180 -27t-171 11
q-63 38 -64 114q0 102 121 150t279 49q481 -1 481 -435v-495q0 -74 -57 -113q-172 -110 -417 -110q-246 0 -358 103t-112 251t101 244t311 96q125 0 210 -27v70z" />
    <glyph glyph-name="aacute" unicode="&#xe1;" horiz-adv-x="1136" 
d="M932 1472q0 -62 -78 -106l-276 -141q-95 -46 -159 21q-38 40 -38 104t78 104l276 143q33 21 77 21t82 -42t38 -104zM397 350q-1 -110 159 -110q78 0 146 45v151q-78 25 -156 25t-113 -32q-36 -32 -36 -79zM702 717q0 119 -144 119q-74 0 -180 -27t-171 11q-63 38 -64 114
q0 102 121 150t279 49q481 -1 481 -435v-495q0 -74 -57 -113q-172 -110 -417 -110q-246 0 -358 103t-112 251t101 244t311 96q125 0 210 -27v70z" />
    <glyph glyph-name="acircumflex" unicode="&#xe2;" horiz-adv-x="1136" 
d="M846 1184q-45 0 -90 33l-166 126l-166 -126q-45 -33 -90 -33t-86 40t-41 97t59 100l236 185q49 35 89 35t85 -35l235 -185q61 -45 61 -101t-40 -96q-41 -40 -86 -40zM397 350q-1 -110 159 -110q78 0 146 45v151q-78 25 -156 25t-113 -32q-36 -32 -36 -79zM702 717
q0 119 -144 119q-74 0 -180 -27t-171 11q-63 38 -64 114q0 102 121 150t279 49q481 -1 481 -435v-495q0 -74 -57 -113q-172 -110 -417 -110q-246 0 -358 103t-112 251t101 244t311 96q125 0 210 -27v70z" />
    <glyph glyph-name="atilde" unicode="&#xe3;" horiz-adv-x="1136" 
d="M430 1538q63 0 151 -39t119 -39t75 34t84 34t72 -37t32 -84t-50 -96q-100 -100 -190 -101q-53 0 -144 39t-125 39t-77 -34q-89 -70 -156 3q-33 37 -33 84t50 97q104 100 192 100zM397 350q-1 -110 159 -110q78 0 146 45v151q-78 25 -156 25t-113 -32q-36 -32 -36 -79z
M702 717q0 119 -144 119q-74 0 -180 -27t-171 11q-63 38 -64 114q0 102 121 150t279 49q481 -1 481 -435v-495q0 -74 -57 -113q-172 -110 -417 -110q-246 0 -358 103t-112 251t101 244t311 96q125 0 210 -27v70z" />
    <glyph glyph-name="adieresis" unicode="&#xe4;" horiz-adv-x="1136" 
d="M782 1528q66 0 111 -46t45 -112t-45 -110t-111 -46q-66 0 -110 46t-45 110q1 66 45 112t110 46zM385 1528q66 0 111 -46t45 -112t-45 -110t-111 -46q-66 0 -111 46t-45 110q0 66 45 112t111 46zM397 350q-1 -110 159 -110q78 0 146 45v151q-78 25 -156 25t-113 -32
q-36 -32 -36 -79zM702 717q0 119 -144 119q-74 0 -180 -27t-171 11q-63 38 -64 114q0 102 121 150t279 49q481 -1 481 -435v-495q0 -74 -57 -113q-172 -110 -417 -110q-246 0 -358 103t-112 251t101 244t311 96q125 0 210 -27v70z" />
    <glyph glyph-name="aring" unicode="&#xe5;" horiz-adv-x="1136" 
d="M510 1413q0 -33 20 -55t52 -21q32 0 52 22q22 23 22 55t-22 54t-52 21q-30 1 -52 -21q-20 -22 -20 -55zM338 1414q0 101 73 173t173 72t174 -72t74 -173t-74 -172t-174 -71t-173 71t-73 172zM397 350q-1 -110 159 -110q78 0 146 45v151q-78 25 -156 25t-113 -32
q-36 -32 -36 -79zM702 717q0 119 -144 119q-74 0 -180 -27t-171 11q-63 38 -64 114q0 102 121 150t279 49q481 -1 481 -435v-495q0 -74 -57 -113q-172 -110 -417 -110q-246 0 -358 103t-112 251t101 244t311 96q125 0 210 -27v70z" />
    <glyph glyph-name="ae" unicode="&#xe6;" horiz-adv-x="1761" 
d="M1337 664q14 0 19 18q2 74 -41 119t-125 45t-127 -51t-43 -131h317zM559 258q72 0 160 47q-25 68 -25 141q-80 23 -150 23t-104 -29q-34 -28 -34 -76t40 -77t113 -29zM1679 596q0 -152 -153 -152h-504v-16q0 -72 53 -110q106 -76 338 10q91 34 155 -12t64 -119
q0 -97 -119 -153t-295 -56t-307 94q-162 -94 -384 -94q-223 0 -335 108t-112 253q0 147 104 243t324 96q63 0 194 -22v55q0 115 -159 115q-55 0 -165 -27t-172 12t-62 127t120 136q121 48 279 49q217 0 340 -111q127 111 325 111q198 1 334 -129q135 -130 137 -353v-55z" />
    <glyph glyph-name="ccedilla" unicode="&#xe7;" horiz-adv-x="1148" 
d="M603 1133q210 -1 339 -99t129 -207q0 -71 -45 -121t-123 -50t-123 65q-59 90 -170 90q-158 0 -178 -158q-8 -88 0 -176q20 -168 178 -168q115 0 170 90q45 66 123 66t123 -50t45 -134q0 -85 -103 -179t-278 -114l-22 -54q109 -10 165 -69t57 -155q2 -184 -278 -283
q-57 -19 -111 3q-55 22 -55 92t74 99q127 51 139 62q27 32 -4 63q-14 14 -41 14l-73 -8q-47 0 -75 41q-27 41 -9 86l41 111q-166 30 -276 148t-124 280q-12 127 0 302t154 294t351 119z" />
    <glyph glyph-name="egrave" unicode="&#xe8;" horiz-adv-x="1165" 
d="M805 1350q0 -64 -38 -104t-81 -40t-76 19l-278 141q-78 44 -78 106t38 104t82 42t79 -21l274 -143q78 -40 78 -104zM418 655h342q20 0 20 25q2 80 -46 130t-136 50t-134 -56t-46 -149zM1083 641v-47q1 -70 -37 -113t-114 -43l-514 -2v-12q0 -72 57 -111t144 -39t189 46
t166 0q64 -48 64 -128t-110 -146q-110 -64 -320 -64q-211 0 -351 122q-139 122 -155 292q-16 172 -4 294q18 201 154 322t349 121q212 1 347 -133t135 -359z" />
    <glyph glyph-name="eacute" unicode="&#xe9;" horiz-adv-x="1165" 
d="M944 1472q0 -62 -78 -106l-276 -141q-95 -46 -159 21q-38 40 -38 104t78 104l277 143q32 21 76 21t82 -42t38 -104zM418 655h342q20 0 20 25q2 80 -46 130t-136 50t-134 -56t-46 -149zM1083 641v-47q1 -70 -37 -113t-114 -43l-514 -2v-12q0 -72 57 -111t144 -39t189 46
t166 0q64 -48 64 -128t-110 -146q-110 -64 -320 -64q-211 0 -351 122q-139 122 -155 292q-16 172 -4 294q18 201 154 322t349 121q212 1 347 -133t135 -359z" />
    <glyph glyph-name="ecircumflex" unicode="&#xea;" horiz-adv-x="1165" 
d="M983 1346q0 -56 -41 -96t-86 -40t-90 33l-166 127l-166 -127q-45 -33 -90 -33t-86 40t-41 97t59 101l236 184q49 35 89 35t85 -35l236 -184q61 -46 61 -102zM418 655h342q20 0 20 25q2 80 -46 130t-136 50t-134 -56t-46 -149zM1083 641v-47q1 -70 -37 -113t-114 -43
l-514 -2v-12q0 -72 57 -111t144 -39t189 46t166 0q64 -48 64 -128t-110 -146q-110 -64 -320 -64q-211 0 -351 122q-139 122 -155 292q-16 172 -4 294q18 201 154 322t349 121q212 1 347 -133t135 -359z" />
    <glyph glyph-name="edieresis" unicode="&#xeb;" horiz-adv-x="1165" 
d="M805 1528q67 0 111 -46t44 -112t-44 -110q-46 -44 -112 -46q-66 0 -110 46q-45 46 -45 110q0 66 45 112t111 46zM408 1528q66 0 110 -46t45 -112q0 -66 -45 -110q-44 -44 -110 -46q-66 0 -111 46t-45 110q0 66 45 112t111 46zM418 655h342q20 0 20 25q2 80 -46 130
t-136 50t-134 -56t-46 -149zM1083 641v-47q1 -70 -37 -113t-114 -43l-514 -2v-12q0 -72 57 -111t144 -39t189 46t166 0q64 -48 64 -128t-110 -146q-110 -64 -320 -64q-211 0 -351 122q-139 122 -155 292q-16 172 -4 294q18 201 154 322t349 121q212 1 347 -133t135 -359z
" />
    <glyph glyph-name="igrave" unicode="&#xec;" horiz-adv-x="608" 
d="M303 1120q72 0 121 -50t49 -124v-784q0 -72 -49 -123t-119 -51t-120 52t-50 122v784q0 74 48 124t120 50zM504 1350q0 -64 -38 -104t-80 -40t-77 19l-278 141q-78 44 -78 106t38 104t82 42t79 -21l274 -143q78 -40 78 -104z" />
    <glyph glyph-name="iacute" unicode="&#xed;" horiz-adv-x="608" 
d="M303 1120q72 0 121 -50t49 -124v-784q0 -72 -49 -123t-119 -51t-120 52t-50 122v784q0 74 48 124t120 50zM653 1472q0 -62 -78 -106l-276 -141q-95 -46 -159 21q-38 40 -38 104t78 104l277 143q33 21 77 21t81 -42q38 -42 38 -104z" />
    <glyph glyph-name="icircumflex" unicode="&#xee;" horiz-adv-x="608" 
d="M690 1346q0 -56 -41 -96t-86 -40t-90 33l-166 127l-166 -127q-45 -33 -90 -33t-86 40t-41 97t60 101l235 184q49 35 89 35t85 -35l236 -184q61 -46 61 -102zM303 1120q72 0 121 -50t49 -124v-784q0 -72 -49 -123t-119 -51t-120 52t-50 122v784q0 74 48 124t120 50z" />
    <glyph glyph-name="idieresis" unicode="&#xef;" horiz-adv-x="608" 
d="M303 1120q72 0 121 -50t49 -124v-784q0 -72 -49 -123t-119 -51t-120 52t-50 122v784q0 74 48 124t120 50zM504 1528q66 0 110 -46t45 -112q0 -66 -45 -110q-44 -44 -110 -46q-66 0 -111 46t-45 110q0 66 45 112t111 46zM106 1528q66 0 111 -46t45 -112t-45 -110t-111 -46
q-66 0 -110 46t-45 110q1 66 45 112t110 46z" />
    <glyph glyph-name="eth" unicode="&#xf0;" horiz-adv-x="1284" 
d="M608 748q-72 0 -116 -43t-52 -111t-1 -134t53 -106q46 -41 116 -41t116 41q46 40 52 96t2 148q-6 66 -52 108t-118 42zM1116 874v-419q0 -199 -143 -332t-357 -133t-356 122q-143 122 -162 308q-10 133 0 231q14 188 150 304t350 116q119 0 227 -63q-10 94 -49 166
l-127 -54q-51 -24 -101 -6t-75 64q-20 51 -1 101q20 50 71 73l39 16q-53 72 -15 150q23 45 74 61q96 30 238 -88l92 39q47 22 98 6t73 -66t2 -99q-19 -50 -69 -71l-43 -18q84 -182 84 -408z" />
    <glyph glyph-name="ntilde" unicode="&#xf1;" horiz-adv-x="1206" 
d="M434 1538q63 0 151 -39t119 -39t75 34t84 34t72 -37t32 -84t-49 -96q-100 -100 -191 -101q-53 0 -144 39t-125 39t-77 -34q-89 -70 -156 3q-33 37 -32 84q0 47 49 97q104 100 192 100zM758 651q0 150 -166 150q-80 0 -137 -39v-598q0 -72 -49 -123t-119 -51t-121 51
t-51 123v741q0 74 57 115q164 113 422 113t380 -120t122 -345v-504q0 -74 -48 -124t-119 -50t-121 51t-50 123v487z" />
    <glyph glyph-name="ograve" unicode="&#xf2;" horiz-adv-x="1216" 
d="M811 1350q0 -64 -38 -104t-80 -40t-77 19l-278 141q-78 44 -78 106t38 104t82 42t79 -21l274 -143q78 -40 78 -104zM609 811q-77 0 -123 -43q-74 -70 -54 -299q8 -76 54 -120t123 -44t124 44t50 127t-1 166t-50 126t-123 43zM609 1133q208 0 350 -118t159 -304
q14 -152 0 -299q-16 -188 -158 -310t-351 -122q-208 0 -351 122t-160 310q-14 147 0 299q16 186 160 304t351 118z" />
    <glyph glyph-name="oacute" unicode="&#xf3;" horiz-adv-x="1216" 
d="M936 1472q0 -62 -78 -106l-276 -141q-95 -46 -159 21q-38 40 -38 104t78 104l276 143q33 21 77 21t82 -42t38 -104zM609 811q-77 0 -123 -43q-74 -70 -54 -299q8 -76 54 -120t123 -44t124 44t50 127t-1 166t-50 126t-123 43zM609 1133q208 0 350 -118t159 -304
q14 -152 0 -299q-16 -188 -158 -310t-351 -122q-208 0 -351 122t-160 310q-14 147 0 299q16 186 160 304t351 118z" />
    <glyph glyph-name="ocircumflex" unicode="&#xf4;" horiz-adv-x="1216" 
d="M997 1344q0 -56 -41 -96t-86 -40t-90 33l-166 127l-165 -127q-45 -33 -91 -33t-86 40q-41 40 -41 97t60 101l235 184q49 35 89 35t85 -35l236 -184q61 -46 61 -102zM609 811q-77 0 -123 -43q-74 -70 -54 -299q8 -76 54 -120t123 -44t124 44t50 127t-1 166t-50 126
t-123 43zM609 1133q208 0 350 -118t159 -304q14 -152 0 -299q-16 -188 -158 -310t-351 -122q-208 0 -351 122t-160 310q-14 147 0 299q16 186 160 304t351 118z" />
    <glyph glyph-name="otilde" unicode="&#xf5;" horiz-adv-x="1216" 
d="M725 1460q31 0 75 34t84 34t71 -37q32 -37 32 -84t-49 -96q-100 -100 -190 -101q-52 0 -144 39t-126 39t-77 -34q-88 -70 -155 3q-33 37 -33 84t49 97q104 100 193 100q63 0 151 -39t119 -39zM609 811q-77 0 -123 -43q-74 -70 -54 -299q8 -76 54 -120t123 -44t124 44
t50 127t-1 166t-50 126t-123 43zM609 1133q208 0 350 -118t159 -304q14 -152 0 -299q-16 -188 -158 -310t-351 -122q-208 0 -351 122t-160 310q-14 147 0 299q16 186 160 304t351 118z" />
    <glyph glyph-name="odieresis" unicode="&#xf6;" horiz-adv-x="1216" 
d="M807 1528q66 0 111 -46t45 -112t-45 -110t-111 -46q-66 0 -111 46t-45 110q0 66 45 112t111 46zM410 1528q66 0 110 -46t45 -112q0 -66 -45 -110q-44 -44 -110 -46q-66 0 -111 46t-45 110q0 66 45 112t111 46zM609 811q-77 0 -123 -43q-74 -70 -54 -299q8 -76 54 -120
t123 -44t124 44t50 127t-1 166t-50 126t-123 43zM609 1133q208 0 350 -118t159 -304q14 -152 0 -299q-16 -188 -158 -310t-351 -122q-208 0 -351 122t-160 310q-14 147 0 299q16 186 160 304t351 118z" />
    <glyph glyph-name="divide" unicode="&#xf7;" horiz-adv-x="1286" 
d="M461 263q0 75 54 128t127 53t127 -53t54 -128t-54 -128t-127 -53t-127 53t-54 128zM823 1174q0 -74 -54 -128t-127 -54t-127 53q-54 54 -54 128q0 75 54 129t127 54t127 -54t54 -128zM1001 555h-718q-68 0 -115 47t-47 114q0 66 47 112t115 46h718q68 0 115 -46t47 -112
t-48 -114q-48 -47 -114 -47z" />
    <glyph glyph-name="oslash" unicode="&#xf8;" horiz-adv-x="1232" 
d="M616 305q78 0 126 44t49 120q0 10 1 49t1 64l-232 -271q25 -6 55 -6zM616 811q-76 0 -122 -43q-46 -42 -52 -96t-6 -154l242 285q-25 8 -62 8zM616 1133q147 0 267 -62l14 16q37 41 91 43t95 -32q39 -35 41 -90t-32 -97l-21 -22q86 -147 55 -477q-16 -188 -158 -310
t-352 -122q-147 0 -268 65l-14 -16q-39 -45 -94 -47t-90 32q-43 37 -45 90q-1 53 38 99l21 22q-89 151 -58 486q16 186 160 304t350 118z" />
    <glyph glyph-name="ugrave" unicode="&#xf9;" horiz-adv-x="1206" 
d="M813 1350q0 -64 -38 -104t-81 -40t-76 19l-278 141q-78 44 -78 106t38 104t82 42t79 -21l274 -143q78 -40 78 -104zM115 453v487q0 80 43 130t119 50q75 0 125 -52t51 -128v-473q0 -72 42 -110q43 -38 121 -38t140 39v586q0 74 48 125t120 51t120 -51t50 -125v-729
q0 -76 -58 -115q-59 -44 -175 -78t-265 -34q-236 0 -358 120t-123 345z" />
    <glyph glyph-name="uacute" unicode="&#xfa;" horiz-adv-x="1206" 
d="M971 1472q0 -62 -78 -106l-277 -141q-94 -46 -158 21q-38 40 -38 104t78 104l276 143q33 21 77 21t82 -42t38 -104zM115 453v487q0 80 43 130t119 50q75 0 125 -52t51 -128v-473q0 -72 42 -110q43 -38 121 -38t140 39v586q0 74 48 125t120 51t120 -51t50 -125v-729
q0 -76 -58 -115q-59 -44 -175 -78t-265 -34q-236 0 -358 120t-123 345z" />
    <glyph glyph-name="ucircumflex" unicode="&#xfb;" horiz-adv-x="1206" 
d="M983 1346q0 -56 -41 -96t-86 -40t-90 33l-166 127l-166 -127q-45 -33 -90 -33t-86 40t-41 97t59 101l236 184q49 35 89 35t85 -35l236 -184q61 -46 61 -102zM115 453v487q0 80 43 130t119 50q75 0 125 -52t51 -128v-473q0 -72 42 -110q43 -38 121 -38t140 39v586
q0 74 48 125t120 51t120 -51t50 -125v-729q0 -76 -58 -115q-59 -44 -175 -78t-265 -34q-236 0 -358 120t-123 345z" />
    <glyph glyph-name="udieresis" unicode="&#xfc;" horiz-adv-x="1206" 
d="M809 1528q66 0 111 -46t45 -112t-45 -110t-111 -46q-66 0 -111 46t-45 110q0 66 45 112t111 46zM412 1528q66 0 110 -46t45 -112q0 -66 -45 -110q-44 -44 -110 -46q-66 0 -111 46t-45 110q0 66 45 112t111 46zM115 453v487q0 80 43 130t119 50q75 0 125 -52t51 -128v-473
q0 -72 42 -110q43 -38 121 -38t140 39v586q0 74 48 125t120 51t120 -51t50 -125v-729q0 -76 -58 -115q-59 -44 -175 -78t-265 -34q-236 0 -358 120t-123 345z" />
    <glyph glyph-name="yacute" unicode="&#xfd;" horiz-adv-x="1132" 
d="M975 1474q0 -62 -78 -106l-276 -141q-95 -46 -159 21q-38 40 -38 104t78 104l276 143q33 21 77 21t82 -42t38 -104zM569 412q10 0 15 12q47 213 166 563q20 61 68 99t104 38q98 0 154 -81t14 -175l-379 -864q-123 -276 -269 -377q-63 -47 -134 -47q-72 0 -116 44t-44 120
t76 140q77 64 149 204l-332 782q-39 96 15 176t153 78q57 0 105 -37t69 -98q131 -377 172 -565q4 -12 14 -12z" />
    <glyph glyph-name="thorn" unicode="&#xfe;" horiz-adv-x="1226" 
d="M621 807q-94 0 -158 -49v-406q68 -43 168 -43q154 0 164 160q4 82 0 170q-10 168 -174 168zM463 -248q0 -74 -48 -124t-120 -50t-121 50t-49 124v1548q0 72 48 124t119 52t121 -52t50 -124v-186q84 18 166 19q213 0 348 -120t153 -311q12 -143 -4 -314t-135 -286
t-321 -114q-115 0 -207 41v-277z" />
    <glyph glyph-name="ydieresis" unicode="&#xff;" horiz-adv-x="1132" 
d="M766 1528q66 0 111 -46t45 -112t-45 -110t-111 -46q-66 0 -111 46t-45 110q0 66 45 112t111 46zM369 1528q67 0 111 -46t44 -112t-45 -110t-111 -46q-66 0 -110 46q-45 46 -45 110q0 66 45 112t111 46zM569 412q10 0 15 12q47 213 166 563q20 61 68 99t104 38
q98 0 154 -81t14 -175l-379 -864q-123 -276 -269 -377q-63 -47 -134 -47q-72 0 -116 44t-44 120t76 140q77 64 149 204l-332 782q-39 96 15 176t153 78q57 0 105 -37t69 -98q131 -377 172 -565q4 -12 14 -12z" />
    <glyph glyph-name="Amacron" unicode="&#x100;" horiz-adv-x="1433" 
d="M561 1829h316q59 0 97 -39t38 -97q0 -57 -39 -97t-96 -40h-316q-57 0 -96 39t-39 97t39 98q39 39 96 39zM718 1112q-14 0 -18 -16l-147 -437h330l-144 437q-7 16 -21 16zM1399 170q0 -70 -47 -123q-48 -53 -112 -53t-110 30q-45 30 -61 78l-88 263h-528l-88 -263
q-43 -110 -173 -110q-64 0 -111 53q-46 53 -46 123q0 27 10 61l367 1018q84 225 309 225t307 -225l361 -1018q10 -30 10 -59z" />
    <glyph glyph-name="amacron" unicode="&#x101;" horiz-adv-x="1136" 
d="M426 1495h315q59 0 97 -39t39 -97q0 -58 -39 -97t-97 -39h-315q-57 0 -96 39t-39 97t39 97t96 39zM397 350q-1 -110 159 -110q78 0 146 45v151q-78 25 -156 25t-113 -32q-36 -32 -36 -79zM702 717q0 119 -144 119q-74 0 -180 -27t-171 11q-63 38 -64 114q0 102 121 150
t279 49q481 -1 481 -435v-495q0 -74 -57 -113q-172 -110 -417 -110q-246 0 -358 103t-112 251t101 244t311 96q125 0 210 -27v70z" />
    <glyph glyph-name="Abreve" unicode="&#x102;" horiz-adv-x="1433" 
d="M719 1763q74 0 100 84q31 86 117 86q51 0 86 -35t35 -72t-8 -54q-37 -102 -123 -170t-207 -68t-207 68t-123 170q-8 18 -8 54t35 72q35 35 86 35q86 0 116 -86q27 -84 101 -84zM718 1112q-14 0 -18 -16l-147 -437h330l-144 437q-7 16 -21 16zM1399 170q0 -70 -47 -123
q-48 -53 -112 -53t-110 30q-45 30 -61 78l-88 263h-528l-88 -263q-43 -110 -173 -110q-64 0 -111 53q-46 53 -46 123q0 27 10 61l367 1018q84 225 309 225t307 -225l361 -1018q10 -30 10 -59z" />
    <glyph glyph-name="abreve" unicode="&#x103;" horiz-adv-x="1136" 
d="M571 1427q74 0 101 84q31 86 116 86q51 -1 86 -35t35 -71t-8 -55q-37 -102 -123 -170t-207 -68t-207 68t-122 170q-8 18 -8 55t34 72q35 35 86 34q86 0 117 -86q26 -84 100 -84zM397 350q-1 -110 159 -110q78 0 146 45v151q-78 25 -156 25t-113 -32q-36 -32 -36 -79z
M702 717q0 119 -144 119q-74 0 -180 -27t-171 11q-63 38 -64 114q0 102 121 150t279 49q481 -1 481 -435v-495q0 -74 -57 -113q-172 -110 -417 -110q-246 0 -358 103t-112 251t101 244t311 96q125 0 210 -27v70z" />
    <glyph glyph-name="Aogonek" unicode="&#x104;" horiz-adv-x="1441" 
d="M720 1112q-16 0 -20 -16l-143 -418h320l-138 418q-3 16 -19 16zM1210 -254q28 0 50 14q78 43 129 -20q25 -37 17 -77t-42 -71q-86 -63 -198 -63t-188 79t-75 195q0 172 172 285l-96 287h-524l-90 -273q-21 -66 -89 -94t-134 -3q-66 27 -94 93q-26 66 -3 131l367 1018
q84 225 308 225t308 -225l361 -1018q20 -53 4 -111t-64 -89q-137 -94 -166 -131t-29 -71q0 -33 24 -57t52 -24z" />
    <glyph glyph-name="aogonek" unicode="&#x105;" horiz-adv-x="1136" 
d="M546 469q-72 1 -106 -27t-34 -74t40 -77t111 -31q72 0 145 37v147q-84 25 -156 25zM702 717q0 119 -144 119q-74 0 -180 -27t-171 11q-63 38 -64 114q0 102 121 150t279 49q481 0 481 -435v-516q0 -32 -22 -60t-42 -40t-57 -29q-145 -68 -145 -205q0 -102 80 -102
q23 0 45 14q78 43 127 -20q26 -35 18 -77t-43 -71q-81 -63 -195 -63t-189 79t-75 188t54 186q-18 -2 -54 -2q-222 0 -334 108t-112 257q0 147 104 245t324 98q63 0 194 -22v51z" />
    <glyph glyph-name="Cacute" unicode="&#x106;" horiz-adv-x="1372" 
d="M1092 1808q0 -62 -78 -106l-277 -141q-94 -46 -158 21q-38 40 -38 93q-1 74 77 115l277 143q33 21 77 21t82 -42t38 -104zM729 303q158 0 244 143q31 49 62 74q32 25 92 25q59 0 113 -47q54 -46 54 -104t-18 -107q-66 -152 -216 -233t-329 -81q-264 0 -437 167t-196 419
q-16 168 0 324q23 254 195 422t436 168q180 0 330 -81t217 -233q18 -49 18 -107t-53 -104q-53 -47 -113 -47t-92 26q-33 26 -63 72q-86 143 -244 144q-127 0 -201 -86q-74 -85 -82 -213t0 -254t82 -207q74 -80 201 -80z" />
    <glyph glyph-name="cacute" unicode="&#x107;" horiz-adv-x="1148" 
d="M954 1472q0 -62 -77 -106l-277 -141q-95 -46 -159 21q-38 40 -38 104t78 104l277 143q32 21 76 21t82 -42t38 -104zM610 309q109 0 170 90q43 66 122 66t124 -50t45 -122q0 -111 -130 -212t-337 -101t-348 126t-158 312q-12 127 0 302t154 294t351 119q210 -1 339 -99
t129 -207q0 -71 -45 -121t-124 -50t-122 65q-61 90 -170 90q-158 0 -178 -158q-8 -88 0 -176q20 -168 178 -168z" />
    <glyph glyph-name="Cdotaccent" unicode="&#x10a;" horiz-adv-x="1372" 
d="M717 1860q67 0 111 -46t44 -112t-45 -111t-111 -45t-110 45q-45 45 -45 111t45 112t111 46zM729 303q158 0 244 143q31 49 62 74q32 25 92 25q59 0 113 -47q54 -46 54 -104t-18 -107q-66 -152 -216 -233t-329 -81q-264 0 -437 167t-196 419q-16 168 0 324q23 254 195 422
t436 168q180 0 330 -81t217 -233q18 -49 18 -107t-53 -104q-53 -47 -113 -47t-92 26q-33 26 -63 72q-86 143 -244 144q-127 0 -201 -86q-74 -85 -82 -213t0 -254t82 -207q74 -80 201 -80z" />
    <glyph glyph-name="cdotaccent" unicode="&#x10b;" horiz-adv-x="1148" 
d="M596 1528q66 0 111 -46t45 -112t-45 -110t-111 -46q-66 0 -111 46t-45 110q0 66 45 112t111 46zM610 309q109 0 170 90q43 66 122 66t124 -50t45 -122q0 -111 -130 -212t-337 -101t-348 126t-158 312q-12 127 0 302t154 294t351 119q210 -1 339 -99t129 -207
q0 -71 -45 -121t-124 -50t-122 65q-61 90 -170 90q-158 0 -178 -158q-8 -88 0 -176q20 -168 178 -168z" />
    <glyph glyph-name="Ccaron" unicode="&#x10c;" horiz-adv-x="1372" 
d="M720 1546q-40 0 -89 35l-236 184q-59 43 -59 101t41 97q41 40 86 40t90 -33l166 -127l166 127q45 33 90 33t86 -40q41 -41 41 -97t-62 -101l-235 -184q-45 -35 -85 -35zM729 303q158 0 244 143q31 49 62 74q32 25 92 25q59 0 113 -47q54 -46 54 -104t-18 -107
q-66 -152 -216 -233t-329 -81q-264 0 -437 167t-196 419q-16 168 0 324q23 254 195 422t436 168q180 0 330 -81t217 -233q18 -49 18 -107t-53 -104q-53 -47 -113 -47t-92 26q-33 26 -63 72q-86 143 -244 144q-127 0 -201 -86q-74 -85 -82 -213t0 -254t82 -207
q74 -80 201 -80z" />
    <glyph glyph-name="ccaron" unicode="&#x10d;" horiz-adv-x="1148" 
d="M589 1210q-40 0 -89 35l-236 185q-59 43 -59 100t41 97t86 40t90 -33l166 -127l166 127q45 33 90 33t86 -40q40 -40 40 -96t-61 -101l-235 -185q-45 -35 -85 -35zM610 309q109 0 170 90q43 66 122 66t124 -50t45 -122q0 -111 -130 -212t-337 -101t-348 126t-158 312
q-12 127 0 302t154 294t351 119q210 -1 339 -99t129 -207q0 -71 -45 -121t-124 -50t-122 65q-61 90 -170 90q-158 0 -178 -158q-8 -88 0 -176q20 -168 178 -168z" />
    <glyph glyph-name="Dcaron" unicode="&#x10e;" horiz-adv-x="1466" 
d="M710 1546q-40 0 -89 35l-236 184q-59 43 -59 101t41 97q41 40 86 40t90 -33l166 -127l165 127q45 33 90 33q44 0 86 -40q42 -41 42 -97t-62 -101l-235 -184q-45 -35 -85 -35zM672 0h-297q-111 0 -175 67t-65 166v988q1 102 63 167t177 64h297q332 0 505 -162t193 -442
q36 -457 -189 -679q-171 -169 -509 -169zM682 1114h-199v-772h199q319 0 342 305q6 68 2 141q-12 326 -344 326z" />
    <glyph glyph-name="dcaron" unicode="&#x10f;" horiz-adv-x="1509" 
d="M1210 1237q0 37 32 103t32 118v78q0 63 34 103t95 40t96 -41t35 -102v-61q0 -135 -68 -258q-49 -88 -135 -89q-53 0 -87 36t-34 73zM594 811q-154 0 -160 -160q-8 -80 -2 -166q12 -174 176 -174q41 1 87 17t69 34v406q-68 43 -170 43zM555 1133q117 0 209 -41v215
q0 72 50 123t122 51t120 -50t48 -124v-1084q0 -72 -57 -112q-182 -129 -447 -129q-213 0 -349 122q-135 122 -151 300t-2 305q16 195 135 309t322 115z" />
    <glyph glyph-name="Dcroat" unicode="&#x110;" horiz-adv-x="1458" 
d="M475 342h197q322 0 342 305q6 82 0 164q-20 303 -342 303h-197v-240h174q63 0 107 -43t43 -105q0 -62 -43 -105t-107 -43h-174v-236zM664 0h-297q-113 0 -177 67q-63 67 -63 166v345h-39q-63 0 -105 43t-42 105t42 105t105 43h39v347q0 100 63 168t177 67h297
q332 0 504 -164q233 -221 194 -682q-20 -282 -193 -446t-505 -164z" />
    <glyph glyph-name="dcroat" unicode="&#x111;" horiz-adv-x="1236" 
d="M605 811q-91 0 -128 -43t-43 -121t-1 -163q10 -173 175 -173q41 1 87 17t69 34v406q-68 43 -159 43zM555 1133q117 0 209 -41v79h-127q-59 0 -96 36q-37 35 -37 93t37 94t96 36h135v26q0 37 44 70t120 33t122 -33t46 -70v-24h20q43 0 79 -34t36 -98t-37 -96
q-37 -33 -86 -33h-12v-948q0 -72 -57 -112q-182 -129 -447 -129q-213 0 -349 122q-135 122 -151 300t-2 305q16 195 135 309t322 115z" />
    <glyph glyph-name="Emacron" unicode="&#x112;" horiz-adv-x="1292" 
d="M516 1829h315q59 0 97 -39t39 -97q0 -57 -39 -97t-97 -40h-315q-57 0 -96 39t-39 97t39 98q39 39 96 39zM375 1452h657q70 0 118 -45t48 -112t-50 -115t-116 -47h-549v-256h471q72 0 114 -40q42 -41 42 -105t-44 -108t-112 -44h-471v-258h553q66 0 116 -48t50 -116
q0 -66 -48 -112t-118 -46h-661q-113 0 -176 68t-64 168v985q-1 99 63 165t177 66z" />
    <glyph glyph-name="emacron" unicode="&#x113;" horiz-adv-x="1165" 
d="M434 1497h316q59 0 97 -39t38 -97t-39 -97t-96 -39h-316q-57 0 -96 39t-39 97t39 97t96 39zM418 655h342q20 0 20 25q2 80 -46 130t-136 50t-134 -56t-46 -149zM1083 641v-47q1 -70 -37 -113t-114 -43l-514 -2v-12q0 -72 57 -111t144 -39t189 46t166 0q64 -48 64 -128
t-110 -146q-110 -64 -320 -64q-211 0 -351 122q-139 122 -155 292q-16 172 -4 294q18 201 154 322t349 121q212 1 347 -133t135 -359z" />
    <glyph glyph-name="Edotaccent" unicode="&#x116;" horiz-adv-x="1292" 
d="M678 1860q66 0 110 -46t46 -112q0 -66 -46 -111t-110 -45q-66 0 -111 45t-45 111t45 112t111 46zM375 1452h657q70 0 118 -45t48 -112t-50 -115t-116 -47h-549v-256h471q72 0 114 -40q42 -41 42 -105t-44 -108t-112 -44h-471v-258h553q66 0 116 -48t50 -116
q0 -66 -48 -112t-118 -46h-661q-113 0 -176 68t-64 168v985q-1 99 63 165t177 66z" />
    <glyph glyph-name="edotaccent" unicode="&#x117;" horiz-adv-x="1165" 
d="M594 1526q66 0 111 -46t45 -112t-45 -111t-111 -45t-111 45t-45 111t45 112t111 46zM418 655h342q20 0 20 25q2 80 -46 130t-136 50t-134 -56t-46 -149zM1083 641v-47q1 -70 -37 -113t-114 -43l-514 -2v-12q0 -72 57 -111t144 -39t189 46t166 0q64 -48 64 -128t-110 -146
q-110 -64 -320 -64q-211 0 -351 122q-139 122 -155 292q-16 172 -4 294q18 201 154 322t349 121q212 1 347 -133t135 -359z" />
    <glyph glyph-name="Eogonek" unicode="&#x118;" horiz-adv-x="1294" 
d="M375 0q-113 0 -176 68t-64 168v985q-1 99 63 165t177 66h657q70 0 118 -45t48 -112t-50 -115t-116 -47h-549v-256h516q66 0 111 -41q45 -42 45 -104t-47 -107t-109 -45h-516v-258h553q66 0 116 -48t50 -126q0 -76 -62 -113t-98 -62t-74 -65q-36 -40 -36 -78q0 -36 24 -60
t51 -24q28 0 50 14q76 43 127 -20q26 -35 18 -77t-43 -71q-81 -63 -195 -63t-189 79q-75 78 -75 194t76 198h-401z" />
    <glyph glyph-name="eogonek" unicode="&#x119;" horiz-adv-x="1167" 
d="M432 662h307q16 0 17 14q2 63 -41 109t-121 46q-78 -1 -120 -47t-42 -122zM770 -158q0 -48 24 -72t52 -24t54 16t62 12t60 -34q51 -63 -12 -137q-64 -74 -190 -74t-205 71q-79 72 -79 184t60 198q-205 4 -344 126t-154 314q-14 143 0 278q16 193 158 313t339 120
q198 1 329 -105t157 -291q6 -68 6 -149q0 -147 -151 -148h-504v-12q0 -143 191 -143q82 0 186 39q103 38 167 -8t64 -122t-61 -122q-17 -12 -69 -43t-74 -48t-44 -55t-22 -84z" />
    <glyph glyph-name="Ecaron" unicode="&#x11a;" horiz-adv-x="1292" 
d="M693 1546q-40 0 -89 35l-235 184q-59 43 -59 101t40 97q41 40 86 40t90 -33l166 -127l166 127q45 33 90 33t86 -40q41 -41 41 -97t-61 -101l-236 -184q-45 -35 -85 -35zM375 1452h657q70 0 118 -45t48 -112t-50 -115t-116 -47h-549v-256h471q72 0 114 -40q42 -41 42 -105
t-44 -108t-112 -44h-471v-258h553q66 0 116 -48t50 -116q0 -66 -48 -112t-118 -46h-661q-113 0 -176 68t-64 168v985q-1 99 63 165t177 66z" />
    <glyph glyph-name="ecaron" unicode="&#x11b;" horiz-adv-x="1165" 
d="M609 1208q-40 0 -89 35l-235 184q-59 43 -59 101t40 97q41 40 86 40t90 -33l166 -127l166 127q45 33 90 33t86 -40q41 -41 41 -97t-61 -101l-236 -184q-45 -35 -85 -35zM418 655h342q20 0 20 25q2 80 -46 130t-136 50t-134 -56t-46 -149zM1083 641v-47q1 -70 -37 -113
t-114 -43l-514 -2v-12q0 -72 57 -111t144 -39t189 46t166 0q64 -48 64 -128t-110 -146q-110 -64 -320 -64q-211 0 -351 122q-139 122 -155 292q-16 172 -4 294q18 201 154 322t349 121q212 1 347 -133t135 -359z" />
    <glyph glyph-name="Gbreve" unicode="&#x11e;" horiz-adv-x="1429" 
d="M731 1763q74 0 100 84q31 86 117 86q51 0 86 -35t35 -72t-8 -54q-37 -102 -123 -170t-207 -68t-207 68t-123 170q-8 18 -8 54t35 72q35 35 86 35q86 0 117 -86q26 -84 100 -84zM1337 614v-98q0 -240 -174 -392t-434 -151q-260 0 -434 167t-197 419q-16 168 0 324
q25 254 198 422t435 168q356 0 529 -271q32 -46 32 -110t-49 -112t-123 -48t-125 73t-104 107t-152 35q-266 0 -295 -316q-8 -84 0 -233q23 -311 310 -311q128 0 192 59t64 137v39h-140q-66 0 -112 46t-45 111q0 65 46 109t111 46h246q102 0 162 -64t59 -156z" />
    <glyph glyph-name="gbreve" unicode="&#x11f;" horiz-adv-x="1226" 
d="M616 1427q74 0 101 84q31 86 117 86q51 -1 86 -35q34 -34 34 -71t-8 -55q-37 -102 -123 -170t-207 -68q-120 0 -206 68t-123 170q-8 18 -8 55t34 72q35 35 86 34q86 0 117 -86q26 -84 100 -84zM619 811q-89 0 -135 -48q-46 -47 -50 -119t0 -152q10 -174 166 -175
q98 0 166 48v399q-58 47 -147 47zM1104 891v-805q0 -252 -151 -381t-352 -129t-343 80q-113 61 -113 158q0 59 41 102q40 43 98 43t141 -38t166 -38t130 45t47 127v19q-100 -45 -225 -45q-193 0 -309 104t-134 293q-14 131 0 270q18 188 148 312t360 125q133 0 253 -40
q119 -40 181 -83t62 -119z" />
    <glyph glyph-name="Gdotaccent" unicode="&#x120;" horiz-adv-x="1429" 
d="M731 1858q66 0 111 -46t45 -112t-45 -111t-111 -45q-67 0 -111 45t-45 111q0 66 45 112t111 46zM1337 614v-98q0 -240 -174 -392t-434 -151q-260 0 -434 167t-197 419q-16 168 0 324q25 254 198 422t435 168q356 0 529 -271q32 -46 32 -110t-49 -112t-123 -48t-125 73
t-104 107t-152 35q-266 0 -295 -316q-8 -84 0 -233q23 -311 310 -311q128 0 192 59t64 137v39h-140q-66 0 -112 46t-45 111q0 65 46 109t111 46h246q102 0 162 -64t59 -156z" />
    <glyph glyph-name="gdotaccent" unicode="&#x121;" horiz-adv-x="1226" 
d="M616 1528q66 0 111 -46t45 -112t-45 -110t-111 -46q-66 0 -110 46t-45 110q1 66 45 112t110 46zM619 811q-89 0 -135 -48q-46 -47 -50 -119t0 -152q10 -174 166 -175q98 0 166 48v399q-58 47 -147 47zM1104 891v-805q0 -252 -151 -381t-352 -129t-343 80
q-113 61 -113 158q0 59 41 102q40 43 98 43t141 -38t166 -38t130 45t47 127v19q-100 -45 -225 -45q-193 0 -309 104t-134 293q-14 131 0 270q18 188 148 312t360 125q133 0 253 -40q119 -40 181 -83t62 -119z" />
    <glyph glyph-name="Gcommaaccent" unicode="&#x122;" horiz-adv-x="1429" 
d="M692 -582q-53 0 -86 35t-33 73t32 104t32 118v53q0 63 33 103t93 39q60 0 95 -40t35 -102v-37q0 -133 -68 -258q-51 -88 -133 -88zM1337 614v-98q0 -240 -174 -392t-434 -151q-260 0 -434 167t-197 419q-16 168 0 324q25 254 198 422t435 168q356 0 529 -271
q32 -46 32 -110t-49 -112t-123 -48t-125 73t-104 107t-152 35q-266 0 -295 -316q-8 -84 0 -233q23 -311 310 -311q128 0 192 59t64 137v39h-140q-66 0 -112 46t-45 111q0 65 46 109t111 46h246q102 0 162 -64t59 -156z" />
    <glyph glyph-name="gcommaaccent" unicode="&#x123;" horiz-adv-x="1226" 
d="M545 1233q-53 0 -86 35t-33 73q0 39 32 105t31 117v53q0 63 33 102t93 39q59 0 95 -40t35 -101v-37q1 -133 -67 -258q-51 -88 -133 -88zM619 811q-89 0 -135 -48q-46 -47 -50 -119t0 -152q10 -174 166 -175q98 0 166 48v399q-58 47 -147 47zM1104 891v-805
q0 -252 -151 -381t-352 -129t-343 80q-113 61 -113 158q0 59 41 102q40 43 98 43t141 -38t166 -38t130 45t47 127v19q-100 -45 -225 -45q-193 0 -309 104t-134 293q-14 131 0 270q18 188 148 312t360 125q133 0 253 -40q119 -40 181 -83t62 -119z" />
    <glyph glyph-name="Imacron" unicode="&#x12a;" horiz-adv-x="602" 
d="M145 1829h316q59 0 97 -39t38 -97q0 -57 -39 -97t-96 -40h-316q-57 0 -96 39t-39 97t39 98q39 39 96 39zM127 172v1102q0 74 52 126t124 52t122 -52t50 -126v-1102q0 -76 -50 -128t-123 -52t-124 52t-51 128z" />
    <glyph glyph-name="imacron" unicode="&#x12b;" horiz-adv-x="608" 
d="M303 1120q72 0 121 -50t49 -124v-784q0 -72 -49 -123t-119 -51t-120 52t-50 122v784q0 74 48 124t120 50zM147 1497h316q59 0 97 -39t38 -97t-39 -97t-96 -39h-316q-57 0 -96 39t-39 97t39 97t96 39z" />
    <glyph glyph-name="Iogonek" unicode="&#x12e;" horiz-adv-x="602" 
d="M274 -170q0 -36 24 -60t52 -24t49 14q76 43 127 -20t-12 -137q-64 -74 -192 -74t-204 79t-75 195q0 152 129 252q-45 66 -45 146v1071q0 74 51 127t125 53t123 -57t49 -138v-1085q0 -94 -74 -147q-127 -90 -127 -195z" />
    <glyph glyph-name="iogonek" unicode="&#x12f;" horiz-adv-x="608" 
d="M475 1378q0 -72 -50 -124t-122 -52t-122 52t-50 124t49 122t122 50t123 -50t50 -122zM266 -170q0 -36 24 -60t52 -24t54 16t62 12t60 -34q49 -63 -13 -137q-61 -74 -191 -74t-204 79t-75 195q0 156 135 260q-35 59 -35 107v774q0 74 47 125t119 51t122 -52t50 -122v-780
q0 -105 -82 -152q-125 -70 -125 -184z" />
    <glyph glyph-name="Idotaccent" unicode="&#x130;" horiz-adv-x="602" 
d="M305 1860q66 0 111 -46t45 -112t-45 -111t-111 -45q-67 0 -111 45t-44 111t44 112t111 46zM127 172v1102q0 74 52 126t124 52t122 -52t50 -126v-1102q0 -76 -50 -128t-123 -52t-124 52t-51 128z" />
    <glyph glyph-name="dotlessi" unicode="&#x131;" horiz-adv-x="608" 
d="M303 1120q72 0 121 -50t49 -124v-784q0 -72 -49 -123t-119 -51t-120 52t-50 122v784q0 74 48 124t120 50z" />
    <glyph glyph-name="Kcommaaccent" unicode="&#x136;" horiz-adv-x="1359" 
d="M631 -582q-53 0 -86 35t-33 73t32 104t31 118v53q0 63 33 103t93 39q59 0 95 -40t35 -102v-37q1 -133 -67 -258q-51 -88 -133 -88zM483 559v-387q0 -76 -50 -128t-122 -52t-124 54t-52 126v1102q0 74 52 126t124 52t122 -52t50 -126v-381q43 0 68 8t53 39l412 451
q53 61 129 61t122 -50t48 -112t-41 -112l-416 -439l404 -448q47 -55 50 -123t-44 -123q-49 -53 -124 -53t-128 59l-412 461q-28 33 -52 40t-69 7z" />
    <glyph glyph-name="kcommaaccent" unicode="&#x137;" horiz-adv-x="1177" 
d="M530 -584q-53 0 -86 35q-32 35 -32 73t32 104t31 118v53q0 63 33 103t93 39q60 0 95 -40t35 -102v-37q1 -133 -67 -258q-51 -88 -134 -88zM293 1477q72 -1 121 -51t49 -123v-586h12q33 0 50 7t46 38l279 299q55 61 131 61t122 -51t47 -117t-42 -106l-281 -281l260 -278
q51 -55 53 -123t-46 -122q-49 -54 -125 -54t-127 59l-271 303q-27 31 -43 38t-47 7h-18v-233q0 -74 -48 -124t-119 -50t-121 52t-50 122v1139q0 74 48 124t120 50z" />
    <glyph glyph-name="Lacute" unicode="&#x139;" horiz-adv-x="1193" 
d="M690 1808q0 -62 -78 -106l-276 -141q-95 -46 -159 21q-38 40 -38 104t78 104l277 143q32 21 76 21t82 -42t38 -104zM152 180v1094q0 74 52 126t124 52t122 -52t50 -126v-932h506q70 0 122 -51t54 -122q0 -71 -52 -120t-124 -49h-672q-84 0 -133 51t-49 129z" />
    <glyph glyph-name="lacute" unicode="&#x13a;" horiz-adv-x="608" 
d="M610 1810q0 -62 -78 -106l-276 -141q-95 -46 -159 21q-38 40 -38 104t78 104l277 143q32 21 76 21t82 -42t38 -104zM135 1300q0 74 48 126t119 51q71 1 121 -51t50 -126v-1136q0 -74 -48 -124t-120 -50t-121 51t-49 123v1136z" />
    <glyph glyph-name="Lcommaaccent" unicode="&#x13b;" horiz-adv-x="1177" 
d="M578 -582q-53 0 -86 35t-33 73q-1 38 31 104t32 118v53q0 63 33 103t93 39q60 0 95 -40t35 -102v-37q1 -133 -67 -258q-51 -88 -133 -88zM135 180v1094q0 74 52 126t124 52t122 -52t50 -126v-932h506q70 0 123 -51t53 -122t-51 -120t-125 -49h-672q-84 0 -133 51t-49 129
z" />
    <glyph glyph-name="lcommaaccent" unicode="&#x13c;" horiz-adv-x="614" 
d="M242 -584q-53 0 -86 35t-33 73t32 104t31 118v53q0 63 33 103t93 39q60 0 96 -40t34 -102v-37q1 -133 -67 -258q-51 -88 -133 -88zM141 1300q0 74 48 126t119 51q71 1 121 -51t50 -126v-1136q0 -74 -48 -124t-120 -50t-121 51t-49 123v1136z" />
    <glyph glyph-name="Lcaron" unicode="&#x13d;" horiz-adv-x="1177" 
d="M760 1120q-53 0 -87 36t-34 73t32 103t31 118v78q0 63 34 103t96 40t96 -41q35 -41 35 -102v-62q0 -135 -68 -258q-49 -88 -135 -88zM135 180v1094q0 74 52 126t124 52t122 -52t50 -126v-932h506q70 0 123 -51t53 -122t-51 -120t-125 -49h-672q-84 0 -133 51t-49 129z
" />
    <glyph glyph-name="lcaron" unicode="&#x13e;" horiz-adv-x="872" 
d="M575 1237q0 37 32 103t32 118v78q0 63 34 103t95 40t96 -41t35 -102v-61q0 -135 -68 -258q-49 -88 -135 -89q-53 0 -87 36t-34 73zM125 1300q0 74 48 126t119 51q71 1 121 -51t50 -126v-1136q0 -74 -48 -124t-120 -50t-121 51t-49 123v1136z" />
    <glyph glyph-name="Lslash" unicode="&#x141;" horiz-adv-x="1169" 
d="M127 180v219l-25 -14q-55 -31 -112 -17t-90 68t-19 112t68 93l178 107v526q0 74 51 126t124 52t123 -52t50 -126v-318l131 84q54 33 114 18q60 -14 93 -68t19 -113t-70 -93l-287 -176v-266h506q68 0 121 -51t53 -122t-51 -120t-123 -49h-672q-86 0 -134 51t-48 129z" />
    <glyph glyph-name="lslash" unicode="&#x142;" horiz-adv-x="790" 
d="M219 1300q0 74 48 126t119 51q71 1 121 -51t50 -126v-256l29 19q45 31 97 19t81 -60q30 -47 16 -99t-59 -81l-164 -107v-571q0 -74 -48 -124t-120 -50t-121 51t-49 123v352l-29 -16q-47 -20 -93 -7q-47 13 -73 57t-13 95t65 84l143 92v479z" />
    <glyph glyph-name="Nacute" unicode="&#x143;" horiz-adv-x="1568" 
d="M1114 1808q0 -62 -78 -106l-276 -141q-95 -46 -159 21q-38 40 -38 104t78 104l277 143q32 21 76 21t82 -42t38 -104zM1085 1010v264q-1 74 51 126t126 52t122 -51t50 -127v-1016q0 -114 -71 -192t-183 -78q-176 0 -250 145l-469 877l-6 -2q25 -256 24 -504v-338
q0 -74 -48 -126t-120 -52t-124 53t-52 125v1010q0 116 73 196t183 80q172 0 252 -152l459 -858v-2l6 2q-23 236 -23 568z" />
    <glyph glyph-name="nacute" unicode="&#x144;" horiz-adv-x="1206" 
d="M967 1472q0 -62 -78 -106l-277 -141q-94 -46 -158 21q-38 40 -38 104t78 104l276 143q33 21 77 21t82 -42t38 -104zM758 651q0 150 -166 150q-80 0 -137 -39v-598q0 -72 -49 -123t-119 -51t-121 51t-51 123v741q0 74 57 115q164 113 422 113t380 -120t122 -345v-504
q0 -74 -48 -124t-119 -50t-121 51t-50 123v487z" />
    <glyph glyph-name="Ncommaaccent" unicode="&#x145;" horiz-adv-x="1568" 
d="M719 -584q-53 0 -86 35t-33 73t32 104t32 118v53q0 63 32 103q34 39 94 39t95 -40t35 -102v-37q0 -133 -68 -258q-51 -88 -133 -88zM1085 1010v264q-1 74 51 126t126 52t122 -51t50 -127v-1016q0 -114 -71 -192t-183 -78q-176 0 -250 145l-469 877l-6 -2q25 -256 24 -504
v-338q0 -74 -48 -126t-120 -52t-124 53t-52 125v1010q0 116 73 196t183 80q172 0 252 -152l459 -858v-2l6 2q-23 236 -23 568z" />
    <glyph glyph-name="ncommaaccent" unicode="&#x146;" horiz-adv-x="1206" 
d="M528 -584q-53 0 -86 35q-32 35 -32 73t32 104t31 118v53q0 63 33 103t93 39q60 0 95 -40t35 -102v-37q1 -133 -67 -258q-51 -88 -134 -88zM758 651q0 150 -166 150q-80 0 -137 -39v-598q0 -72 -49 -123t-119 -51t-121 51t-51 123v741q0 74 57 115q164 113 422 113
t380 -120t122 -345v-504q0 -74 -48 -124t-119 -50t-121 51t-50 123v487z" />
    <glyph glyph-name="Ncaron" unicode="&#x147;" horiz-adv-x="1568" 
d="M830 1546q-40 0 -89 35l-235 184q-60 43 -60 101t41 97q41 40 87 40t90 -33l165 -127l166 127q45 33 90 33t86 -40q41 -41 41 -97t-61 -101l-236 -184q-45 -35 -85 -35zM1085 1010v264q-1 74 51 126t126 52t122 -51t50 -127v-1016q0 -114 -71 -192t-183 -78
q-176 0 -250 145l-469 877l-6 -2q25 -256 24 -504v-338q0 -74 -48 -126t-120 -52t-124 53t-52 125v1010q0 116 73 196t183 80q172 0 252 -152l459 -858v-2l6 2q-23 236 -23 568z" />
    <glyph glyph-name="ncaron" unicode="&#x148;" horiz-adv-x="1206" 
d="M587 1210q-40 0 -89 35l-236 185q-59 43 -59 100t41 97t86 40t90 -33l166 -127l166 127q45 33 90 33t86 -40q40 -40 40 -96t-61 -101l-235 -185q-45 -35 -85 -35zM758 651q0 150 -166 150q-80 0 -137 -39v-598q0 -72 -49 -123t-119 -51t-121 51t-51 123v741q0 74 57 115
q164 113 422 113t380 -120t122 -345v-504q0 -74 -48 -124t-119 -50t-121 51t-50 123v487z" />
    <glyph glyph-name="Omacron" unicode="&#x14c;" horiz-adv-x="1509" 
d="M598 1829h315q59 0 97 -39t39 -97q0 -57 -39 -97t-97 -40h-315q-57 0 -96 39t-39 97t39 98q39 39 96 39zM753 303q130 0 216 86t95 210t0 249t-95 211t-216 86t-214 -85q-85 -85 -93 -211t0 -250t92 -210t215 -86zM752 -27q-264 0 -448 168q-183 168 -206 418
q-16 168 0 324q23 252 206 421q184 169 448 169t450 -171t209 -419q12 -162 0 -324q-23 -248 -209 -417t-450 -169z" />
    <glyph glyph-name="omacron" unicode="&#x14d;" horiz-adv-x="1216" 
d="M451 1497h315q59 0 97 -39t38 -97t-39 -97t-96 -39h-315q-57 0 -97 39q-39 39 -39 97t39 97q40 39 97 39zM609 811q-77 0 -123 -43q-74 -70 -54 -299q8 -76 54 -120t123 -44t124 44t50 127t-1 166t-50 126t-123 43zM609 1133q208 0 350 -118t159 -304q14 -152 0 -299
q-16 -188 -158 -310t-351 -122q-208 0 -351 122t-160 310q-14 147 0 299q16 186 160 304t351 118z" />
    <glyph glyph-name="Ohungarumlaut" unicode="&#x150;" horiz-adv-x="1509" 
d="M992 1542q-54 0 -99 39t-45 93t33 89l176 209q39 51 97 51t102 -40t44 -92t-32 -91l-178 -207q-44 -51 -98 -51zM564 1542q-54 0 -99 39t-45 93t33 89l176 209q35 51 95 51t104 -40t44 -92t-32 -91l-178 -207q-44 -51 -98 -51zM753 303q130 0 216 86t95 210t0 249
t-95 211t-216 86t-214 -85q-85 -85 -93 -211t0 -250t92 -210t215 -86zM752 -27q-264 0 -448 168q-183 168 -206 418q-16 168 0 324q23 252 206 421q184 169 448 169t450 -171t209 -419q12 -162 0 -324q-23 -248 -209 -417t-450 -169z" />
    <glyph glyph-name="ohungarumlaut" unicode="&#x151;" horiz-adv-x="1275" 
d="M843 1206q-54 0 -100 39q-45 39 -45 93t33 89l176 209q39 52 97 52t103 -40q44 -40 44 -92t-33 -92l-178 -207q-43 -51 -97 -51zM415 1206q-54 0 -100 39q-45 39 -45 93t33 89l176 209q35 52 95 52t105 -40q44 -40 44 -92t-33 -92l-178 -207q-43 -51 -97 -51zM609 811
q-77 0 -123 -43q-74 -70 -54 -299q8 -76 54 -120t123 -44t124 44t50 127t-1 166t-50 126t-123 43zM609 1133q208 0 350 -118t159 -304q14 -152 0 -299q-16 -188 -158 -310t-351 -122q-208 0 -351 122t-160 310q-14 147 0 299q16 186 160 304t351 118z" />
    <glyph glyph-name="OE" unicode="&#x152;" horiz-adv-x="2260" 
d="M1104 322v806q-158 16 -316 16t-247 -85q-87 -86 -95 -210t-1 -249t95 -211t236 -86q199 1 328 19zM2001 1456q70 0 118 -46t48 -114t-49 -116t-117 -47h-549v-256h494q66 0 110 -41q44 -42 43 -104q0 -62 -47 -107t-106 -45h-494v-258h553q66 0 116 -48t50 -116
q0 -66 -48 -112t-118 -46h-670q-86 0 -254 -13t-305 -14q-285 0 -471 169t-207 423q-16 162 0 309q23 258 209 428t469 171l567 -17h658z" />
    <glyph glyph-name="oe" unicode="&#x153;" horiz-adv-x="1855" 
d="M609 811q-77 0 -123 -43q-74 -70 -54 -299q8 -76 54 -120t123 -44t124 44t50 127t-1 166t-50 126t-123 43zM1285 846q-81 0 -126 -50t-45 -132h320q16 0 16 20q2 72 -41 117t-124 45zM1776 635q0 -99 -37 -145t-117 -46h-508v-14q0 -72 54 -111q108 -78 341 9
q91 34 155 -12t65 -119q0 -99 -118 -157t-317 -58t-344 124q-137 -118 -343 -118t-349 122t-160 308q-14 147 0 293q16 186 160 304t350 118q207 0 344 -117q137 117 344 117q208 1 344 -135t136 -363z" />
    <glyph glyph-name="Racute" unicode="&#x154;" horiz-adv-x="1388" 
d="M1069 1808q0 -62 -78 -106l-276 -141q-95 -46 -159 21q-38 40 -38 104t78 104l276 143q33 21 77 21t82 -42t38 -104zM485 782h250q201 0 201 174q0 84 -47 132t-144 49h-260v-355zM612 467h-127v-299q0 -72 -52 -126t-123 -54t-123 54t-52 126v1075q-1 89 57 149t158 60
h422q218 0 366 -129t148 -358q0 -167 -74 -267t-178 -143l242 -270q45 -47 44 -122t-52 -125t-129 -50t-117 49l-295 364q-29 35 -53 51t-62 15z" />
    <glyph glyph-name="racute" unicode="&#x155;" horiz-adv-x="817" 
d="M801 1470q0 -62 -78 -106l-277 -141q-94 -46 -158 21q-38 40 -38 104t78 104l276 143q33 21 77 21t82 -42t38 -104zM815 948q0 -61 -40 -112t-111 -52q-10 0 -56 8t-80 9q-84 0 -84 -105v-536q0 -72 -49 -121t-120 -49t-121 50t-50 120v608q0 170 98 267t279 98
q117 0 205 -25q129 -33 129 -160z" />
    <glyph glyph-name="Rcommaaccent" unicode="&#x156;" horiz-adv-x="1388" 
d="M635 -582q-53 0 -86 35t-33 73t32 104t32 118v53q0 63 32 103q34 39 94 39t95 -40t35 -102v-37q0 -133 -68 -258q-51 -88 -133 -88zM485 782h250q201 0 201 174q0 84 -47 132t-144 49h-260v-355zM612 467h-127v-299q0 -72 -52 -126t-123 -54t-123 54t-52 126v1075
q-1 89 57 149t158 60h422q218 0 366 -129t148 -358q0 -167 -74 -267t-178 -143l242 -270q45 -47 44 -122t-52 -125t-129 -50t-117 49l-295 364q-29 35 -53 51t-62 15z" />
    <glyph glyph-name="rcommaaccent" unicode="&#x157;" horiz-adv-x="817" 
d="M205 -584q-53 0 -86 35t-33 73t32 104t32 118v53q0 63 32 103q33 39 93 39q59 0 95 -40t36 -102v-37q0 -133 -68 -258q-51 -88 -133 -88zM815 948q0 -61 -40 -112t-111 -52q-10 0 -56 8t-80 9q-84 0 -84 -105v-536q0 -72 -49 -121t-120 -49t-121 50t-50 120v608
q0 170 98 267t279 98q117 0 205 -25q129 -33 129 -160z" />
    <glyph glyph-name="Rcaron" unicode="&#x158;" horiz-adv-x="1388" 
d="M703 1546q-40 0 -89 35l-235 184q-59 43 -59 101t40 97q40 40 86 40t91 -33l165 -127l166 127q45 33 90 33t86 -40q41 -41 41 -97t-61 -101l-236 -184q-45 -35 -85 -35zM485 782h250q201 0 201 174q0 84 -47 132t-144 49h-260v-355zM612 467h-127v-299q0 -72 -52 -126
t-123 -54t-123 54t-52 126v1075q-1 89 57 149t158 60h422q218 0 366 -129t148 -358q0 -167 -74 -267t-178 -143l242 -270q45 -47 44 -122t-52 -125t-129 -50t-117 49l-295 364q-29 35 -53 51t-62 15z" />
    <glyph glyph-name="rcaron" unicode="&#x159;" horiz-adv-x="817" 
d="M433 1208q-40 0 -89 35l-235 184q-59 43 -59 101t40 97q41 40 86 40t90 -33l166 -127l166 127q45 33 90 33t86 -40q41 -41 41 -97t-61 -101l-236 -184q-45 -35 -85 -35zM815 948q0 -61 -40 -112t-111 -52q-10 0 -56 8t-80 9q-84 0 -84 -105v-536q0 -72 -49 -121t-120 -49
t-121 50t-50 120v608q0 170 98 267t279 98q117 0 205 -25q129 -33 129 -160z" />
    <glyph glyph-name="Sacute" unicode="&#x15a;" horiz-adv-x="1323" 
d="M1030 1808q0 -62 -78 -106l-276 -141q-95 -46 -159 21q-38 40 -38 104t78 104l277 143q32 21 76 21t82 -42t38 -104zM1249 426q1 -194 -157 -323q-158 -130 -446 -130t-478 150q-88 67 -88 147t50 131t118 51t133 -49q133 -96 315 -96q94 0 149 32q54 32 54 89
q0 82 -264 137q-16 4 -25 6q-262 55 -379 159t-117 300q0 195 155 319t386 124q156 0 281 -33t184 -85q60 -52 60 -127t-46 -122t-102 -47t-137 35q-102 51 -218 51t-164 -35t-48 -86t57 -80q58 -28 193 -53q276 -51 405 -161t129 -304z" />
    <glyph glyph-name="sacute" unicode="&#x15b;" horiz-adv-x="1046" 
d="M868 1472q0 -62 -77 -106l-277 -141q-95 -46 -159 21q-38 40 -38 104t78 104l277 143q32 21 76 21t82 -42t38 -104zM981 328q0 -152 -130 -250t-319 -98q-254 0 -405 118q-45 36 -53 98t26 110t92 56t121 -28q103 -64 223 -64t119 66q0 49 -92 67t-155 35
q-133 35 -220 117q-86 82 -86 217q0 166 129 263t322 98q96 0 189 -28t151 -75q47 -44 50 -108t-32 -105t-95 -46t-130 30t-168 35t-96 -60q0 -43 102 -65q31 -6 131 -29q168 -39 247 -121q79 -81 79 -233z" />
    <glyph glyph-name="Scedilla" unicode="&#x15e;" horiz-adv-x="1323" 
d="M80 270q0 80 50 131t118 51t133 -49q133 -96 315 -96q94 0 149 32q54 32 54 89q0 82 -264 137q-16 4 -25 6q-262 55 -379 159t-117 300q0 195 155 319t386 124q156 0 281 -33t184 -85q60 -52 60 -127t-46 -122t-102 -47t-137 35q-102 51 -218 51t-164 -35t-48 -86t57 -80
t193 -53q276 -51 405 -161t129 -297t-136 -313t-372 -145l-20 -41q111 -10 167 -70t56 -158t-71 -163q-71 -66 -209 -116q-57 -20 -112 2q-54 23 -54 93t73 99q129 51 141 63t11 31q0 19 -14 33t-41 14l-74 -8q-47 0 -75 41q-27 41 -9 86l39 99q-236 27 -381 143
q-88 67 -88 147z" />
    <glyph glyph-name="scedilla" unicode="&#x15f;" horiz-adv-x="1046" 
d="M102 772q0 166 129 263t322 98q96 0 189 -28q195 -59 201 -182q3 -65 -34 -104q-72 -88 -215 -22q-78 39 -176 39t-96 -60q0 -43 100 -65q282 -48 380 -150q79 -83 79 -227q-1 -144 -107 -238t-270 -112l-22 -50q108 -10 164 -71t58 -157t-70 -161q-71 -66 -210 -116
q-57 -19 -111 3q-55 22 -55 92t74 99q129 51 140 63q28 32 -3 64q-14 14 -41 14l-73 -8q-47 0 -75 41q-27 41 -9 86l41 105q-176 23 -285 110q-45 36 -54 98t25 110t93 56q58 8 120 -28q101 -64 223 -64t121 66q0 49 -93 68t-154 34q-133 35 -220 117q-86 82 -86 217z" />
    <glyph glyph-name="Scaron" unicode="&#x160;" horiz-adv-x="1323" 
d="M693 1542q-40 0 -89 35l-235 184q-59 43 -59 101t40 97q41 40 86 40t90 -33l166 -127l166 127q45 33 90 33t86 -40q41 -41 41 -97t-61 -101l-236 -184q-45 -35 -85 -35zM1249 426q1 -194 -157 -323q-158 -130 -446 -130t-478 150q-88 67 -88 147t50 131t118 51t133 -49
q133 -96 315 -96q94 0 149 32q54 32 54 89q0 82 -264 137q-16 4 -25 6q-262 55 -379 159t-117 300q0 195 155 319t386 124q156 0 281 -33t184 -85q60 -52 60 -127t-46 -122t-102 -47t-137 35q-102 51 -218 51t-164 -35t-48 -86t57 -80q58 -28 193 -53q276 -51 405 -161
t129 -304z" />
    <glyph glyph-name="scaron" unicode="&#x161;" horiz-adv-x="1046" 
d="M542 1186q-40 0 -89 35l-236 184q-59 43 -59 100t41 97q78 77 176 8l166 -127l166 127q95 70 176 -7q41 -41 41 -97t-62 -101l-235 -184q-45 -35 -85 -35zM981 328q0 -152 -130 -250t-319 -98q-254 0 -405 118q-45 36 -53 98t26 110t92 56t121 -28q103 -64 223 -64
t119 66q0 49 -92 67t-155 35q-133 35 -220 117q-86 82 -86 217q0 166 129 263t322 98q96 0 189 -28t151 -75q47 -44 50 -108t-32 -105t-95 -46t-130 30t-168 35t-96 -60q0 -43 102 -65q31 -6 131 -29q168 -39 247 -121q79 -81 79 -233z" />
    <glyph glyph-name="Tcommaaccent" unicode="&#x162;" horiz-adv-x="1290" 
d="M567 -584q-55 0 -88 36t-33 74t32 102t32 120v55q0 63 34 103t95 41q61 0 96 -41t35 -103v-30q0 -144 -68 -267q-51 -90 -135 -90zM471 168v940h-281q-74 0 -124 51t-52 123q0 72 52 121t124 49h910q74 0 125 -49t51 -121t-52 -123t-124 -51h-281v-940q0 -74 -49 -125
t-121 -51t-125 53t-53 123z" />
    <glyph glyph-name="tcommaaccent" unicode="&#x163;" horiz-adv-x="917" 
d="M387 -582q-53 0 -86 35t-33 73t32 104t32 118v53q0 63 33 103t93 39q60 0 95 -40t35 -102v-37q0 -133 -68 -258q-51 -88 -133 -88zM96 1190q0 74 48 125t119 51t121 -52t50 -124v-125h234q66 0 112 -44q46 -45 45 -109q0 -64 -47 -108t-110 -44h-234v-336
q0 -137 119 -137q33 0 113 19t136 -24q54 -44 54 -118q0 -98 -91 -143t-279 -45t-288 121q-101 122 -102 319v774z" />
    <glyph glyph-name="Tcaron" unicode="&#x164;" horiz-adv-x="1290" 
d="M646 1546q-40 0 -89 35l-235 184q-60 43 -60 101t41 97q41 40 86 40t90 -33l166 -127l166 127q45 33 90 33t86 -40q41 -41 41 -97t-61 -101l-236 -184q-45 -35 -85 -35zM471 168v940h-281q-74 0 -124 51t-52 123q0 72 52 121t124 49h910q74 0 125 -49t51 -121t-52 -123
t-124 -51h-281v-940q0 -74 -49 -125t-121 -51t-125 53t-53 123z" />
    <glyph glyph-name="tcaron" unicode="&#x165;" horiz-adv-x="878" 
d="M643 1458v78q0 63 34 103t95 40t96 -41t35 -102v-61q1 -135 -67 -258q-49 -88 -136 -89q-53 0 -87 36q-33 36 -33 73t32 103t31 118zM96 1190q0 74 48 125t119 51t121 -52t50 -124v-125h234q66 0 112 -44q46 -45 45 -109q0 -64 -47 -108t-110 -44h-234v-336
q0 -137 119 -137q33 0 113 19t136 -24q54 -44 54 -118q0 -98 -91 -143t-279 -45t-288 121q-101 122 -102 319v774z" />
    <glyph glyph-name="Umacron" unicode="&#x16a;" horiz-adv-x="1529" 
d="M608 1827h316q59 0 97 -39t38 -97q0 -57 -39 -97t-96 -40h-316q-57 0 -96 39t-39 97t39 98q39 39 96 39zM1407 1274v-637q0 -293 -182 -478q-181 -185 -459 -185t-460 184t-181 479v637q0 74 51 126t123 52t122 -52t50 -126v-664q0 -143 83 -228t212 -85t211 85t82 228
v664q0 76 51 127t125 51t123 -51t49 -127z" />
    <glyph glyph-name="umacron" unicode="&#x16b;" horiz-adv-x="1206" 
d="M434 1497h316q59 0 97 -39t38 -97t-39 -97t-96 -39h-316q-57 0 -96 39t-39 97t39 97t96 39zM115 453v487q0 80 43 130t119 50q75 0 125 -52t51 -128v-473q0 -72 42 -110q43 -38 121 -38t140 39v586q0 74 48 125t120 51t120 -51t50 -125v-729q0 -76 -58 -115
q-59 -44 -175 -78t-265 -34q-236 0 -358 120t-123 345z" />
    <glyph glyph-name="Uring" unicode="&#x16e;" horiz-adv-x="1529" 
d="M692 1778q0 -33 20 -55q20 -21 52 -21q30 0 52 22t22 54t-22 54t-52 22t-52 -22q-20 -21 -20 -54zM520 1779q0 101 73 173t173 72t174 -72t74 -173t-74 -172t-174 -71t-173 71t-73 172zM1407 1274v-637q0 -293 -182 -478q-181 -185 -459 -185t-460 184t-181 479v637
q0 74 51 126t123 52t122 -52t50 -126v-664q0 -143 83 -228t212 -85t211 85t82 228v664q0 76 51 127t125 51t123 -51t49 -127z" />
    <glyph glyph-name="uring" unicode="&#x16f;" horiz-adv-x="1206" 
d="M518 1452q0 -32 20 -54t52 -22q30 0 52 22t22 54t-22 54t-52 22t-52 -22q-20 -22 -20 -54zM346 1453q0 101 73 173t173 72t174 -72t74 -173t-74 -172t-174 -71t-173 71t-73 172zM115 453v487q0 80 43 130t119 50q75 0 125 -52t51 -128v-473q0 -72 42 -110q43 -38 121 -38
t140 39v586q0 74 48 125t120 51t120 -51t50 -125v-729q0 -76 -58 -115q-59 -44 -175 -78t-265 -34q-236 0 -358 120t-123 345z" />
    <glyph glyph-name="Uhungarumlaut" unicode="&#x170;" horiz-adv-x="1529" 
d="M978 1516q-54 0 -99 38t-45 94q0 54 32 89l176 209q40 51 98 51t102 -40t44 -92t-33 -91l-178 -207q-43 -51 -97 -51zM550 1516q-54 0 -99 38t-45 94q0 54 32 89l176 209q36 51 96 51t104 -40t44 -92t-33 -91l-178 -207q-43 -51 -97 -51zM1407 1274v-637
q0 -293 -182 -478q-181 -185 -459 -185t-460 184t-181 479v637q0 74 51 126t123 52t122 -52t50 -126v-664q0 -143 83 -228t212 -85t211 85t82 228v664q0 76 51 127t125 51t123 -51t49 -127z" />
    <glyph glyph-name="uhungarumlaut" unicode="&#x171;" horiz-adv-x="1206" 
d="M662 1340q0 54 32 90l176 208q40 52 98 52t102 -40t44 -92t-33 -92l-178 -206q-43 -52 -97 -52t-99 39t-45 93zM686 1558q0 -52 -33 -92l-178 -206q-43 -52 -97 -52t-99 39t-45 93t32 90l176 208q36 52 96 52t104 -40t44 -92zM115 453v487q0 80 43 130t119 50
q75 0 125 -52t51 -128v-473q0 -72 42 -110q43 -38 121 -38t140 39v586q0 74 48 125t120 51t120 -51t50 -125v-729q0 -76 -58 -115q-59 -44 -175 -78t-265 -34q-236 0 -358 120t-123 345z" />
    <glyph glyph-name="Uogonek" unicode="&#x172;" horiz-adv-x="1529" 
d="M813 -168q0 -38 24 -62q25 -24 53 -24t50 14q76 43 127 -20q27 -35 19 -77t-44 -71q-82 -63 -196 -63t-188 79t-74 187t57 189q-229 39 -373 216q-143 177 -143 437v635q0 74 51 127t123 53t122 -53t50 -127v-662q0 -143 83 -228t212 -85t211 85t82 228v662q0 76 51 128
t124 52t123 -52t50 -128v-635q1 -221 -105 -383t-282 -234q-45 -16 -70 -27q-137 -60 -137 -161z" />
    <glyph glyph-name="uogonek" unicode="&#x173;" horiz-adv-x="1208" 
d="M1094 944v-762q0 -32 -24 -58t-39 -35t-54 -28q-145 -74 -146 -204q0 -102 80 -103q23 0 45 15q78 43 129 -21q25 -35 18 -76t-42 -69q-80 -63 -195 -63q-114 0 -190 78q-76 80 -76 188t53 186q-37 -4 -57 -4q-238 0 -360 120t-123 345v485q0 80 44 131t120 51
q75 0 125 -52t51 -130v-471q0 -72 42 -110q41 -38 121 -38t140 37v588q0 74 48 125t119 51t121 -52t50 -124z" />
    <glyph glyph-name="Wcircumflex" unicode="&#x174;" horiz-adv-x="1982" 
d="M1380 1682q0 -56 -41 -96t-86 -40t-90 33l-166 127l-166 -127q-45 -33 -90 -33t-86 40t-41 97t60 101l235 184q49 35 89 35t85 -35l236 -184q61 -46 61 -102zM29 1278q0 70 46 122q47 52 117 52t121 -38t60 -93l147 -969q2 -4 6 -4t6 4l160 844q23 132 100 194t171 62
t172 -64t102 -194l166 -840q2 -6 6 -6t6 6l150 967q16 57 63 94t117 37t116 -53t46 -121q0 -25 -6 -45l-228 -1026q-23 -109 -97 -170t-164 -61q-91 0 -170 60t-99 165l-174 839q-2 4 -5 4t-6 -4l-163 -833q-21 -111 -99 -171t-175 -60t-176 60q-79 62 -101 175l-209 1022
q-6 20 -6 45z" />
    <glyph glyph-name="wcircumflex" unicode="&#x175;" horiz-adv-x="1654" 
d="M1212 1344q0 -56 -41 -96t-86 -40t-90 33l-166 127l-165 -127q-45 -33 -90 -33t-87 40q-41 40 -41 97t60 101l235 184q49 35 89 35t85 -35l236 -184q61 -46 61 -102zM826 684q-10 0 -9 -8l-90 -453q-25 -117 -95 -176t-170 -59q-99 0 -171 58t-98 173l-156 649
q-23 104 21 178t139 74q59 0 105 -36t58 -99q80 -410 105 -655q0 -8 9 -8t11 8q68 412 111 598q20 88 82 140t148 52q84 0 148 -55t85 -137q41 -166 110 -598q-1 -8 9 -8t12 8q47 412 102 655q10 63 58 99t108 36q94 0 138 -74t20 -178l-154 -649q-26 -115 -98 -173
t-171 -58t-171 59q-71 59 -96 176l-88 453q-2 8 -12 8z" />
    <glyph glyph-name="Ycircumflex" unicode="&#x176;" horiz-adv-x="1368" 
d="M1075 1682q0 -56 -41 -96t-86 -40t-90 33l-166 127l-166 -127q-45 -33 -90 -33t-86 40t-41 97t60 101l235 184q49 35 89 35t85 -35l236 -184q61 -46 61 -102zM14 1275q0 69 54 124t133 55q80 0 133 -70l348 -440l354 440q45 56 119 66t133 -37q56 -49 64 -123t-41 -133
l-398 -471q-55 -65 -55 -117v-399q0 -76 -50 -127t-123 -51t-124 53t-51 125v399q0 51 -57 119l-394 467q-45 51 -45 120z" />
    <glyph glyph-name="ycircumflex" unicode="&#x177;" horiz-adv-x="1132" 
d="M952 1346q0 -56 -41 -96t-86 -40t-90 33l-166 127l-166 -127q-45 -33 -90 -33t-86 40t-41 97t60 101l235 184q49 35 89 35t85 -35l236 -184q61 -46 61 -102zM569 412q10 0 15 12q47 213 166 563q20 61 68 99t104 38q98 0 154 -81t14 -175l-379 -864q-123 -276 -269 -377
q-63 -47 -134 -47q-72 0 -116 44t-44 120t76 140q77 64 149 204l-332 782q-39 96 15 176t153 78q57 0 105 -37t69 -98q131 -377 172 -565q4 -12 14 -12z" />
    <glyph glyph-name="Ydieresis" unicode="&#x178;" horiz-adv-x="1368" 
d="M883 1755q67 0 111 -46t44 -112q0 -67 -45 -111t-111 -44t-110 45q-45 45 -45 111t45 111q45 46 111 46zM485 1755q66 0 111 -46t45 -112q0 -67 -45 -111t-111 -44q-67 0 -111 45t-44 111t44 111q44 46 111 46zM14 1275q0 69 54 124t133 55q80 0 133 -70l348 -440
l354 440q45 56 119 66t133 -37q56 -49 64 -123t-41 -133l-398 -471q-55 -65 -55 -117v-399q0 -76 -50 -127t-123 -51t-124 53t-51 125v399q0 51 -57 119l-394 467q-45 51 -45 120z" />
    <glyph glyph-name="Zacute" unicode="&#x179;" horiz-adv-x="1226" 
d="M362 1686q0 64 78 104l277 143q33 21 77 21t82 -42t37 -95q0 -72 -77 -115l-277 -141q-95 -46 -159 21q-38 40 -38 104zM1004 0h-713q-111 0 -175 59t-65 153q0 94 76 181l575 715h-464q-72 0 -123 51t-51 123t50 121t124 49h688q102 0 164 -58t61 -148q0 -90 -80 -187
l-569 -717h502q72 0 124 -51t52 -122t-51 -120t-125 -49z" />
    <glyph glyph-name="zacute" unicode="&#x17a;" horiz-adv-x="980" 
d="M362 1350q0 64 78 104l277 143q33 21 77 21t82 -42t37 -95q0 -72 -77 -115l-277 -141q-95 -46 -159 21q-38 40 -38 104zM776 313q74 0 124 -43q50 -42 50 -112t-50 -114t-124 -44h-561q-80 0 -131 48t-51 120t45 125l424 493h-275q-74 0 -124 42t-50 111t50 114t124 45
h541q113 0 160 -90q57 -102 -37 -211l-414 -484h299z" />
    <glyph glyph-name="Zdotaccent" unicode="&#x17b;" horiz-adv-x="1226" 
d="M596 1860q66 0 111 -46t45 -112t-45 -111t-111 -45t-111 45t-45 111t45 112t111 46zM1004 0h-713q-111 0 -175 59t-65 153q0 94 76 181l575 715h-464q-72 0 -123 51t-51 123t50 121t124 49h688q102 0 164 -58t61 -148q0 -90 -80 -187l-569 -717h502q72 0 124 -51t52 -122
t-51 -120t-125 -49z" />
    <glyph glyph-name="zdotaccent" unicode="&#x17c;" horiz-adv-x="980" 
d="M520 1526q66 0 111 -46t45 -112t-45 -111t-111 -45t-110 45t-45 111q1 66 45 112t110 46zM776 313q74 0 124 -43q50 -42 50 -112t-50 -114t-124 -44h-561q-80 0 -131 48t-51 120t45 125l424 493h-275q-74 0 -124 42t-50 111t50 114t124 45h541q113 0 160 -90
q57 -102 -37 -211l-414 -484h299z" />
    <glyph glyph-name="Zcaron" unicode="&#x17d;" horiz-adv-x="1226" 
d="M613 1546q-40 0 -89 35l-235 184q-59 43 -59 101t40 97q41 40 86 40t90 -33l166 -127l166 127q45 33 90 33t86 -40q41 -41 41 -97t-61 -101l-236 -184q-45 -35 -85 -35zM1004 0h-713q-111 0 -175 59t-65 153q0 94 76 181l575 715h-464q-72 0 -123 51t-51 123t50 121
t124 49h688q102 0 164 -58t61 -148q0 -90 -80 -187l-569 -717h502q72 0 124 -51t52 -122t-51 -120t-125 -49z" />
    <glyph glyph-name="zcaron" unicode="&#x17e;" horiz-adv-x="980" 
d="M501 1210q-40 0 -89 35l-236 185q-59 43 -59 100t41 97t86 40t90 -33l166 -127l166 127q45 33 90 33t86 -40q40 -40 40 -96t-61 -101l-235 -185q-45 -35 -85 -35zM776 313q74 0 124 -43q50 -42 50 -112t-50 -114t-124 -44h-561q-80 0 -131 48t-51 120t45 125l424 493
h-275q-74 0 -124 42t-50 111t50 114t124 45h541q113 0 160 -90q57 -102 -37 -211l-414 -484h299z" />
    <glyph glyph-name="florin" unicode="&#x192;" horiz-adv-x="1261" 
d="M895 858q74 0 124 -44t50 -115t-51 -117t-123 -45h-266l-252 -830q-23 -69 -86 -103t-131 -15t-108 86q-38 67 -13 143l221 719h-31q-76 0 -125 43q-49 44 -49 116t50 117t124 45h129l97 307q45 141 148 215t243 74q225 0 356 -139q49 -51 47 -126t-53 -124
q-50 -49 -114 -45t-116 47t-106 43q-55 0 -74 -57l-59 -195h168z" />
    <glyph glyph-name="Scommaaccent" unicode="&#x218;" horiz-adv-x="1323" 
d="M618 -584q-53 0 -86 35q-32 35 -32 73t32 104t31 118v53q0 63 33 103t93 39q60 0 95 -40t35 -102v-37q1 -133 -67 -258q-51 -88 -134 -88zM1249 426q1 -194 -157 -323q-158 -130 -446 -130t-478 150q-88 67 -88 147t50 131t118 51t133 -49q133 -96 315 -96q94 0 149 32
q54 32 54 89q0 82 -264 137q-16 4 -25 6q-262 55 -379 159t-117 300q0 195 155 319t386 124q156 0 281 -33t184 -85q60 -52 60 -127t-46 -122t-102 -47t-137 35q-102 51 -218 51t-164 -35t-48 -86t57 -80q58 -28 193 -53q276 -51 405 -161t129 -304z" />
    <glyph glyph-name="scommaaccent" unicode="&#x219;" horiz-adv-x="1046" 
d="M479 -584q-53 0 -86 35t-33 73t32 104t32 118v53q0 63 33 103t93 39q60 0 95 -40t35 -102v-37q0 -133 -68 -258q-51 -88 -133 -88zM981 328q0 -152 -130 -250t-319 -98q-254 0 -405 118q-45 36 -53 98t26 110t92 56t121 -28q103 -64 223 -64t119 66q0 49 -92 67t-155 35
q-133 35 -220 117q-86 82 -86 217q0 166 129 263t322 98q96 0 189 -28t151 -75q47 -44 50 -108t-32 -105t-95 -46t-130 30t-168 35t-96 -60q0 -43 102 -65q31 -6 131 -29q168 -39 247 -121q79 -81 79 -233z" />
    <glyph glyph-name="circumflex" unicode="&#x2c6;" 
d="M829 1678q0 -56 -41 -96t-86 -40t-90 33l-166 127l-165 -127q-45 -33 -90 -33t-87 40q-41 40 -41 97t60 101l235 184q49 35 89 35t85 -35l236 -184q61 -46 61 -102z" />
    <glyph glyph-name="caron" unicode="&#x2c7;" 
d="M447 1542q-40 0 -89 35l-235 184q-59 43 -59 101t40 97q40 40 86 40t91 -33l165 -127l166 127q45 33 90 33t86 -40q41 -41 41 -97t-61 -101l-236 -184q-45 -35 -85 -35z" />
    <glyph glyph-name="breve" unicode="&#x2d8;" 
d="M446 1774q74 0 101 84q31 86 117 86q51 0 86 -35q34 -35 34 -72t-8 -55q-37 -102 -123 -170t-207 -68q-120 0 -206 68t-123 170q-8 18 -8 55t34 72q35 35 86 35q86 0 117 -86q26 -84 100 -84z" />
    <glyph glyph-name="dotaccent" unicode="&#x2d9;" 
d="M446 1860q66 0 111 -46t45 -112t-45 -111t-111 -45t-110 45t-45 111q1 66 45 112t110 46z" />
    <glyph glyph-name="ring" unicode="&#x2da;" 
d="M375 1778q0 -33 20 -55q20 -21 51 -21t53 22t21 54q0 32 -22 54t-52 22q-31 0 -51 -22q-20 -21 -20 -54zM203 1779q0 101 72 173q73 72 173 72t175 -72q73 -72 73 -173t-74 -172t-174 -71t-173 71q-72 71 -72 172z" />
    <glyph glyph-name="ogonek" unicode="&#x2db;" 
d="M428 -169q0 -37 24 -61t52 -24t49 14q78 43 129 -20q26 -37 18 -77t-43 -71q-85 -63 -197 -63t-188 79t-75 195q0 221 284 344q78 33 124 -15q30 -30 30 -74t-53 -68q-76 -33 -115 -77t-39 -82z" />
    <glyph glyph-name="tilde" unicode="&#x2dc;" 
d="M571 1784q31 0 75 34q91 70 156 -3q32 -37 32 -84t-50 -97q-100 -100 -190 -100q-53 0 -144 39t-125 39t-77 -34t-83 -34t-73 37t-33 84t50 96q103 101 179 101t164 -39t119 -39z" />
    <glyph glyph-name="hungarumlaut" unicode="&#x2dd;" 
d="M570 1542q-54 0 -99 39t-45 93t33 89l176 209q39 51 97 51t102 -40t45 -92q0 -52 -33 -91l-178 -207q-44 -51 -98 -51zM142 1542q-54 0 -99 39t-45 93t33 89l176 209q35 51 95 51t104 -40t45 -92q0 -52 -33 -91l-178 -207q-44 -51 -98 -51z" />
    <glyph glyph-name="Wgrave" unicode="&#x1e80;" horiz-adv-x="1982" 
d="M1194 1686q0 -64 -38 -104t-81 -40t-76 19l-278 141q-78 44 -78 106t38 104t82 42t79 -21l274 -143q78 -40 78 -104zM29 1278q0 70 46 122q47 52 117 52t121 -38t60 -93l147 -969q2 -4 6 -4t6 4l160 844q23 132 100 194t171 62t172 -64t102 -194l166 -840q2 -6 6 -6t6 6
l150 967q16 57 63 94t117 37t116 -53t46 -121q0 -25 -6 -45l-228 -1026q-23 -109 -97 -170t-164 -61q-91 0 -170 60t-99 165l-174 839q-2 4 -5 4t-6 -4l-163 -833q-21 -111 -99 -171t-175 -60t-176 60q-79 62 -101 175l-209 1022q-6 20 -6 45z" />
    <glyph glyph-name="wgrave" unicode="&#x1e81;" horiz-adv-x="1654" 
d="M1014 1356q0 -64 -38 -104t-81 -40t-76 19l-278 141q-78 44 -78 106t38 104t82 42t79 -20l274 -144q78 -41 78 -104zM826 684q-10 0 -9 -8l-90 -453q-25 -117 -95 -176t-170 -59q-99 0 -171 58t-98 173l-156 649q-23 104 21 178t139 74q59 0 105 -36t58 -99
q80 -410 105 -655q0 -8 9 -8t11 8q68 412 111 598q20 88 82 140t148 52q84 0 148 -55t85 -137q41 -166 110 -598q-1 -8 9 -8t12 8q47 412 102 655q10 63 58 99t108 36q94 0 138 -74t20 -178l-154 -649q-26 -115 -98 -173t-171 -58t-171 59q-71 59 -96 176l-88 453
q-2 8 -12 8z" />
    <glyph glyph-name="Wacute" unicode="&#x1e82;" horiz-adv-x="1982" 
d="M1313 1808q0 -62 -78 -106l-277 -141q-94 -46 -158 21q-38 40 -38 104t78 104l276 143q33 21 77 21t82 -42t38 -104zM29 1278q0 70 46 122q47 52 117 52t121 -38t60 -93l147 -969q2 -4 6 -4t6 4l160 844q23 132 100 194t171 62t172 -64t102 -194l166 -840q2 -6 6 -6t6 6
l150 967q16 57 63 94t117 37t116 -53t46 -121q0 -25 -6 -45l-228 -1026q-23 -109 -97 -170t-164 -61q-91 0 -170 60t-99 165l-174 839q-2 4 -5 4t-6 -4l-163 -833q-21 -111 -99 -171t-175 -60t-176 60q-79 62 -101 175l-209 1022q-6 20 -6 45z" />
    <glyph glyph-name="wacute" unicode="&#x1e83;" horiz-adv-x="1654" 
d="M1044 1622q44 0 81 -42q38 -42 38 -104t-78 -106l-276 -141q-95 -46 -159 21q-38 40 -38 104t78 104l277 144q33 20 77 20zM826 684q-10 0 -9 -8l-90 -453q-25 -117 -95 -176t-170 -59q-99 0 -171 58t-98 173l-156 649q-23 104 21 178t139 74q59 0 105 -36t58 -99
q80 -410 105 -655q0 -8 9 -8t11 8q68 412 111 598q20 88 82 140t148 52q84 0 148 -55t85 -137q41 -166 110 -598q-1 -8 9 -8t12 8q47 412 102 655q10 63 58 99t108 36q94 0 138 -74t20 -178l-154 -649q-26 -115 -98 -173t-171 -58t-171 59q-71 59 -96 176l-88 453
q-2 8 -12 8z" />
    <glyph glyph-name="Wdieresis" unicode="&#x1e84;" horiz-adv-x="1982" 
d="M1190 1858q66 0 110 -46t46 -112q0 -66 -46 -111t-110 -45q-66 0 -111 45t-45 111t45 112t111 46zM793 1858q67 0 111 -46t44 -112t-45 -111t-111 -45t-110 45q-45 45 -45 111t45 112t111 46zM29 1278q0 70 46 122q47 52 117 52t121 -38t60 -93l147 -969q2 -4 6 -4t6 4
l160 844q23 132 100 194t171 62t172 -64t102 -194l166 -840q2 -6 6 -6t6 6l150 967q16 57 63 94t117 37t116 -53t46 -121q0 -25 -6 -45l-228 -1026q-23 -109 -97 -170t-164 -61q-91 0 -170 60t-99 165l-174 839q-2 4 -5 4t-6 -4l-163 -833q-21 -111 -99 -171t-175 -60
t-176 60q-79 62 -101 175l-209 1022q-6 20 -6 45z" />
    <glyph glyph-name="wdieresis" unicode="&#x1e85;" horiz-adv-x="1654" 
d="M1024 1528q66 0 111 -46t45 -112t-45 -110t-111 -46q-66 0 -111 46t-45 110q0 66 45 112t111 46zM627 1528q67 0 111 -46t44 -112t-45 -110t-111 -46q-66 0 -110 46q-45 46 -45 110q0 66 45 112t111 46zM826 684q-10 0 -9 -8l-90 -453q-25 -117 -95 -176t-170 -59
q-99 0 -171 58t-98 173l-156 649q-23 104 21 178t139 74q59 0 105 -36t58 -99q80 -410 105 -655q0 -8 9 -8t11 8q68 412 111 598q20 88 82 140t148 52q84 0 148 -55t85 -137q41 -166 110 -598q-1 -8 9 -8t12 8q47 412 102 655q10 63 58 99t108 36q94 0 138 -74t20 -178
l-154 -649q-26 -115 -98 -173t-171 -58t-171 59q-71 59 -96 176l-88 453q-2 8 -12 8z" />
    <glyph glyph-name="Ygrave" unicode="&#x1ef2;" horiz-adv-x="1368" 
d="M856 1686q0 -64 -38 -104t-80 -40t-76 19l-279 141q-78 44 -78 106t38 104t82 42t79 -21l274 -143q78 -40 78 -104zM14 1275q0 69 54 124t133 55q80 0 133 -70l348 -440l354 440q45 56 119 66t133 -37q56 -49 64 -123t-41 -133l-398 -471q-55 -65 -55 -117v-399
q0 -76 -50 -127t-123 -51t-124 53t-51 125v399q0 51 -57 119l-394 467q-45 51 -45 120z" />
    <glyph glyph-name="ygrave" unicode="&#x1ef3;" horiz-adv-x="1132" 
d="M713 1350q0 -64 -38 -104t-80 -40t-77 19l-278 141q-78 44 -78 106t38 104q67 74 160 21l275 -143q78 -40 78 -104zM569 412q10 0 15 12q47 213 166 563q20 61 68 99t104 38q98 0 154 -81t14 -175l-379 -864q-123 -276 -269 -377q-63 -47 -134 -47q-72 0 -116 44t-44 120
t76 140q77 64 149 204l-332 782q-39 96 15 176t153 78q57 0 105 -37t69 -98q131 -377 172 -565q4 -12 14 -12z" />
    <glyph glyph-name="endash" unicode="&#x2013;" horiz-adv-x="1175" 
d="M86 588q0 72 51 122t123 50h655q72 0 123 -49q52 -49 52 -119t-52 -121t-123 -51h-655q-74 0 -124 48t-50 120z" />
    <glyph glyph-name="emdash" unicode="&#x2014;" horiz-adv-x="1921" 
d="M86 588q0 72 51 122t123 50h1401q72 0 123 -49t51 -119t-51 -121t-123 -51h-1401q-74 0 -124 48t-50 120z" />
    <glyph glyph-name="quoteleft" unicode="&#x2018;" horiz-adv-x="499" 
d="M373 1110v-137q0 -59 -43 -101q-42 -42 -106 -41q-64 0 -107 41t-43 101v121q0 156 63 260q55 98 158 98q57 0 95 -40t38 -79t-28 -103t-27 -120z" />
    <glyph glyph-name="quoteright" unicode="&#x2019;" horiz-adv-x="499" 
d="M426 1311v-121q0 -156 -60 -257t-159 -102q-59 0 -96 39q-37 40 -37 80t27 103q28 63 28 121v137q0 59 42 100t105 41q62 0 106 -41t44 -100z" />
    <glyph glyph-name="quotesinglbase" unicode="&#x201a;" horiz-adv-x="499" 
d="M422 231v-120q0 -156 -62 -261q-61 -98 -157 -98q-59 0 -97 40q-36 40 -36 79t27 102q28 63 28 121v137q0 59 42 101t105 41q63 0 107 -41q43 -42 43 -101z" />
    <glyph glyph-name="quotedblleft" unicode="&#x201c;" horiz-adv-x="978" 
d="M516 973v121q0 156 64 260q55 98 157 98q57 0 95 -40t38 -79t-28 -102t-27 -121v-137q0 -59 -43 -101t-106 -41q-63 0 -107 41q-43 42 -43 101zM111 973v121q0 156 63 260q55 98 158 98q57 0 95 -40t38 -79t-28 -102t-27 -121v-137q0 -59 -43 -101t-107 -41
q-64 -1 -106 41q-43 42 -43 101z" />
    <glyph glyph-name="quotedblright" unicode="&#x201d;" horiz-adv-x="978" 
d="M868 1311v-121q0 -156 -60 -257t-159 -102q-59 0 -96 39q-37 40 -37 80t28 103t27 121v137q0 59 42 100q41 41 105 41t107 -41t43 -100zM463 1311v-121q-1 -156 -61 -257t-158 -102q-59 0 -97 39q-37 40 -37 80t28 103t28 121v137q0 61 42 101t105 40t107 -41t43 -100z
" />
    <glyph glyph-name="quotedblbase" unicode="&#x201e;" horiz-adv-x="978" 
d="M463 231v-120q0 -152 -64 -261q-61 -98 -157 -98q-59 0 -97 40q-37 40 -37 79t28 102t28 121v137q0 61 42 101t105 41q63 0 108 -41q44 -42 44 -101zM868 231v-120q0 -156 -61 -261q-61 -98 -158 -98q-59 0 -96 40t-37 79t28 102t27 121v137q0 59 42 101q41 42 105 41
q64 1 107 -41t43 -101z" />
    <glyph glyph-name="dagger" unicode="&#x2020;" horiz-adv-x="1290" 
d="M815 1081h223q74 0 124 -49t50 -121q0 -71 -50 -119t-124 -49h-223v-856q0 -74 -49 -124t-122 -50t-121 50t-48 124v856h-225q-74 1 -124 49t-50 120t51 120q51 49 123 49h225v197q0 72 50 124t120 52t120 -52t50 -124v-197z" />
    <glyph glyph-name="daggerdbl" unicode="&#x2021;" horiz-adv-x="1290" 
d="M815 1081h223q74 0 124 -49t50 -121q0 -71 -50 -119t-124 -49h-223v-321h223q74 0 124 -49t50 -121t-50 -120t-124 -48h-223v-197q0 -74 -49 -124t-122 -50t-121 50t-48 124v197h-225q-74 0 -124 48t-50 120t51 121t123 49h225v321h-225q-74 1 -124 49t-50 120t51 120
q51 49 123 49h225v197q0 72 50 124t120 52t120 -52t50 -124v-197z" />
    <glyph glyph-name="bullet" unicode="&#x2022;" horiz-adv-x="966" 
d="M225 717q0 106 76 182t182 76q107 0 183 -76t76 -182t-76 -182t-182 -76t-183 76q-76 76 -76 182z" />
    <glyph glyph-name="ellipsis" unicode="&#x2026;" horiz-adv-x="1464" 
d="M243 389q62 0 106 -44t44 -105v-111q0 -63 -43 -105t-105 -42t-107 43q-44 43 -44 104v111q0 63 43 106q44 43 106 43zM734 389q62 0 106 -44t45 -105v-111q0 -63 -43 -105q-44 -42 -106 -42t-106 43t-44 104v111q0 63 43 106t105 43zM1218 389q62 0 106 -44t44 -105
v-111q0 -63 -43 -105t-105 -42t-107 43q-44 43 -44 104v111q0 63 43 106q44 43 106 43z" />
    <glyph glyph-name="perthousand" unicode="&#x2030;" horiz-adv-x="2643" 
d="M396 1212q-42 0 -68 -26t-33 -68q-6 -43 0 -93t33 -76q26 -25 68 -25t68 25q48 48 32 168q-6 43 -32 69t-68 26zM1443 510q-42 0 -69 -26t-33 -70q-16 -121 33 -167q27 -26 68 -26q88 0 98 92q18 123 -30 171q-26 26 -67 26zM2217 510q-42 0 -69 -26q-26 -26 -32 -70
q-15 -121 32 -167q27 -26 68 -26q88 0 98 92q18 123 -30 171q-26 26 -67 26zM461 428l698 803q41 49 110 52t111 -36q52 -43 56 -111t-39 -114l-699 -803q-40 -47 -108 -52t-115 36t-51 109t37 116zM2216 750q140 0 240 -94t108 -234q2 -57 0 -113q-8 -139 -107 -233
t-241 -94t-240 94t-106 233q-2 57 0 111q8 142 106 236t240 94zM1442 750q141 0 240 -94t108 -234q2 -57 0 -113q-8 -139 -108 -233t-240 -94q-141 0 -240 94q-98 94 -106 233q-2 57 0 111q8 142 106 236t240 94zM395 1454q141 0 241 -94t107 -236q2 -55 0 -110
q-8 -138 -107 -234q-98 -96 -240 -96t-240 95t-107 233q-2 59 0 110q9 140 107 236t239 96z" />
    <glyph glyph-name="guilsinglleft" unicode="&#x2039;" horiz-adv-x="737" 
d="M68 739q0 125 106 201l256 176q52 37 112 33t99 -52q39 -49 34 -111t-54 -95l-181 -125q-18 -14 -18 -26t18 -27l181 -125q49 -33 54 -95q5 -63 -34 -111t-98 -52t-113 32l-256 177q-106 75 -106 200z" />
    <glyph glyph-name="guilsinglright" unicode="&#x203a;" horiz-adv-x="737" 
d="M670 739q0 -125 -109 -200l-256 -177q-53 -36 -111 -32t-98 52t-34 110q5 62 55 96l178 125q18 14 18 26t-18 27l-178 125q-49 33 -55 95q-5 62 34 110q40 48 98 53q58 4 111 -33l256 -176q109 -76 109 -201z" />
    <glyph glyph-name="fraction" unicode="&#x2044;" horiz-adv-x="614" 
d="M-102 147l501 1260q23 55 89 83t120 7q61 -27 85 -85t1 -120l-504 -1259q-24 -57 -82 -86t-116 -4q-57 21 -87 85t-7 119z" />
    <glyph glyph-name="Euro" unicode="&#x20ac;" horiz-adv-x="1323" 
d="M225 1022h25q39 198 180 316t354 118q291 0 437 -156q47 -48 47 -116t-47 -115t-115 -47q-29 0 -56 15q-28 15 -34 21t-24 18q-18 13 -23 18q-87 66 -171 66q-154 -1 -206 -138h180q59 0 99 -39t40 -95t-40 -93t-99 -37h-205v-76h213q60 0 102 -39t42 -97t-42 -97
t-102 -39h-180q20 -62 74 -98t117 -36q102 0 178 70q77 70 141 70t111 -47t47 -113t-47 -121q-139 -154 -437 -153q-430 0 -534 428h-33q-59 0 -101 39t-42 97t41 97t102 39h25v76h-17q-59 0 -99 37t-40 93t40 95t99 39z" />
    <glyph glyph-name="trademark" unicode="&#x2122;" horiz-adv-x="1495" 
d="M815 1419q51 1 91 -29t50 -81l52 -248l53 248q10 51 49 81t91 30t91 -34q39 -33 47 -96l56 -366q9 -43 -9 -78t-61 -44q-43 -10 -75 14t-38 67l-30 286l-62 -268q-32 -100 -112 -100t-113 100l-61 270l-33 -288q-4 -43 -36 -67t-76 -14t-61 44q-17 35 -10 78l56 364
q10 66 50 98t91 33zM451 1231v-336q0 -39 -28 -67t-68 -28q-41 0 -69 28t-28 67v336h-102q-37 1 -63 27q-25 26 -25 63t26 63t62 27h393q37 0 63 -27q26 -28 25 -64q0 -36 -26 -63t-62 -26h-98z" />
    <glyph glyph-name="minus" unicode="&#x2212;" horiz-adv-x="1286" 
d="M1001 557h-718q-68 0 -115 47t-47 114q0 66 47 112t115 47h718q68 -1 115 -47t47 -112t-48 -114q-48 -47 -114 -47z" />
    <glyph glyph-name="lessequal" unicode="&#x2264;" horiz-adv-x="1286" 
d="M643 924q0 -14 25 -31l319 -180q55 -31 71 -98t-18 -123q-35 -56 -96 -70q-61 -16 -119 16l-479 277q-133 76 -133 209t133 211l479 276q57 33 119 17t96 -71q35 -56 19 -123t-72 -97l-319 -183q-25 -16 -25 -30zM909 -2h-536q-68 0 -114 47t-46 115t46 112t114 45h536
q68 0 115 -46q47 -47 47 -113t-48 -113t-114 -47z" />
    <glyph glyph-name="greaterequal" unicode="&#x2265;" horiz-adv-x="1286" 
d="M1071 925q0 -132 -131 -210l-481 -277q-57 -34 -119 -18t-96 72q-33 58 -17 124t70 97l319 180q25 17 25 31t-25 30l-319 183q-53 31 -69 97t16 124q35 55 96 70t119 -17l481 -276q131 -78 131 -210zM911 -2h-536q-66 0 -114 48t-48 114t47 112t115 45h536q68 0 114 -45
q46 -44 46 -112t-46 -115t-114 -47z" />
    <glyph glyph-name="fl" unicode="&#xfb02;" horiz-adv-x="1560" 
d="M1098 1300q0 74 48 126t119 51q71 1 121 -51t50 -126v-1136q0 -74 -48 -124t-120 -50t-121 51t-49 123v1136zM213 1036v58q0 201 105 304t284 103q131 0 223 -28q131 -41 131 -162q0 -61 -42 -103t-113 -41q-23 -1 -74 13t-84 14q-90 0 -90 -109v-49h207q63 0 108 -42
t45 -105t-46 -105t-107 -43h-207v-573q0 -76 -48 -127t-121 -51t-122 51t-49 127v573h-37q-66 0 -110 42t-43 106q0 63 44 105t109 42h37z" />
    <glyph glyph-name="Q.alt" horiz-adv-x="1525" 
d="M911 532v-192q150 80 162 270q6 113 -2 238t-94 211t-215 86t-214 -85t-93 -211t-2 -239q12 -193 159 -270v192q0 56 43 102t103 46t106 -42q47 -42 47 -106zM612 -190v180q-211 46 -349 202t-157 367q-16 168 0 324q23 252 206 421q184 169 448 169t450 -171t209 -419
q14 -162 0 -324q-18 -211 -158 -368t-350 -201v-178q0 -56 -46 -102t-104 -45t-104 42q-45 42 -45 103z" />
    <glyph glyph-name="r.alt" horiz-adv-x="819" 
d="M494 1133q92 0 174 -21q131 -31 131 -162q0 -66 -43 -116t-127 -50q-14 0 -49 8t-67 7q-32 0 -69 -15v-620q0 -74 -48 -123t-119 -49t-121 50t-52 122v766q0 45 37 76q61 49 161 88t192 39z" />
    <glyph glyph-name="zero.onum" horiz-adv-x="1296" 
d="M649 303q205 0 232 205q21 303 -232 303q-207 0 -231 -205q-8 -47 0 -98q10 -102 71 -154t160 -51zM649 1133q219 0 370 -119t189 -318q27 -143 -2 -280q-36 -199 -188 -319t-370 -120t-370 121t-188 320q-29 139 0 280q36 197 188 316t371 119z" />
    <glyph glyph-name="one.onum" horiz-adv-x="1107" 
d="M684 1120q64 0 110 -56t46 -120v-778q0 -74 -49 -124t-120 -50t-121 51t-50 123v561l-156 -53q-70 -25 -136 -3t-91 87q-33 61 -2 132t108 97l346 119q51 14 115 14z" />
    <glyph glyph-name="two.onum" horiz-adv-x="1265" 
d="M766 745q0 81 -168 81q-96 0 -205 -64q-65 -37 -127 -37t-104 38t-43 101q0 94 96 150q171 108 411 108t368 -101t128 -253t-96 -234q-96 -81 -321 -127q-128 -26 -156 -40q-27 -15 -41 -25t-14 -29h481q67 0 113 -46q46 -45 46 -111t-45 -111q-46 -45 -114 -45h-676
q-91 0 -149 52t-58 155q0 102 68 197t207 161q85 37 195 70t157 55t47 55z" />
    <glyph glyph-name="three.onum" horiz-adv-x="1263" 
d="M784 166q0 70 -43 109q-43 40 -100 40t-115 -14t-75 -14q-59 0 -107 42q-47 43 -47 115t68 123l243 205h-379q-71 0 -121 50t-50 121t50 120t121 49h619q88 0 146 -56t58 -142t-55 -136l-215 -203q164 -18 258 -130q94 -111 94 -277t-120 -301q-121 -135 -322 -201
t-452 -63q-80 0 -128 45q-48 46 -52 118t48 124t130 53q312 -4 464 98q82 55 82 125z" />
    <glyph glyph-name="four.onum" horiz-adv-x="1392" 
d="M727 346v291l-231 -291h231zM1171 6h-102v-252q0 -70 -50 -121t-122 -51t-121 50t-49 122v252h-416q-125 0 -185 86t-28 191q8 41 43 84l506 632q85 113 195 113t168 -68t59 -165v-533h102q70 0 120 -48t50 -118t-51 -122t-119 -52z" />
    <glyph glyph-name="five.onum" horiz-adv-x="1292" 
d="M1196 180q0 -280 -251 -432t-650 -151q-72 0 -121 45q-49 46 -52 118t49 123t128 51q341 0 481 95q76 51 76 129q0 127 -184 127q-86 0 -258 -58q-125 -37 -192 11t-66 149v508q0 115 63 166t158 51h573q74 0 123 -47t49 -118t-51 -122t-121 -51h-461v-225q139 63 256 63
q215 0 333 -123t118 -309z" />
    <glyph glyph-name="six.onum" horiz-adv-x="1419" 
d="M724 655q-104 0 -245 -61q-4 -274 252 -275q111 -1 168 47t57 128t-63 120q-65 41 -169 41zM1300 492q0 -211 -150 -361t-423 -149q-176 0 -298 61t-185 172q-117 206 -101 542q17 335 191 520t500 185q184 0 232 -18t81 -38q65 -40 65 -124t-46 -126t-128 -42l-184 14
q-139 0 -221 -49t-119 -164q139 53 287 54q239 0 369 -133t130 -344z" />
    <glyph glyph-name="seven.onum" horiz-adv-x="1140" 
d="M211 1112h704q91 0 149 -53t58 -130t-37 -130q-426 -627 -534 -1073q-15 -62 -63 -98q-86 -64 -192 -7q-105 57 -71 201q80 322 461 956h-475q-72 0 -122 49t-50 121t49 118t123 46z" />
    <glyph glyph-name="eight.onum" horiz-adv-x="1445" 
d="M1317 406q-1 -186 -155 -305t-440 -119t-440 118t-153 306q0 240 213 342q-184 92 -184 311q0 190 151 293q152 102 413 102t413 -102t151 -291q0 -215 -182 -313q213 -102 213 -342zM726 578q-253 0 -253 -142t253 -141q253 -1 253 141t-253 142zM723 905q223 0 223 123
t-223 123t-223 -123t223 -123z" />
    <glyph glyph-name="nine.onum" horiz-adv-x="1417" 
d="M696 793q-122 1 -178 -47q-57 -48 -57 -128q-1 -80 63 -121q64 -42 165 -42t245 59q0 279 -238 279zM600 141q-225 0 -353 134t-128 345t150 361q151 150 423 149q174 0 296 -60t184 -170q118 -209 102 -531q-43 -772 -887 -775q-78 0 -128 48t-54 116t42 122
q45 54 139 57q330 7 438 122q46 49 69 125q-131 -43 -293 -43z" />
    <glyph glyph-name="sterling.alt" horiz-adv-x="1193" 
d="M233 864h101l16 86q51 264 170 384t320 120q114 0 188 -39t107 -84q53 -86 -2 -178q-72 -121 -220 -57q-49 23 -79 22q-58 0 -88 -46t-58 -169q-4 -14 -8 -39h182q66 0 117 -48t51 -118t-51 -116t-117 -47h-262q-20 -74 -38 -120q-18 -47 -19 -61q0 -14 22 -14h432
q70 0 121 -50t51 -121t-50 -120t-122 -49h-598q-84 0 -145 41q-100 67 -100 203q0 74 65 197q15 28 35 94h-21q-71 0 -119 47q-48 48 -48 118t48 117t119 47z" />
    <glyph glyph-name="commaaccent" 
d="M406 -584q-53 0 -87 35q-33 35 -33 73t32 104t32 118v53q0 63 33 103t93 39q60 0 95 -40t35 -102v-37q1 -133 -67 -258q-51 -88 -133 -88z" />
    <glyph glyph-name="caronSlovak" 
d="M348 1458v78q0 63 34 103t95 40t96 -41t35 -102v-61q1 -135 -67 -258q-49 -88 -135 -89q-53 0 -88 36q-34 36 -34 73t32 103t32 118z" />
    <glyph glyph-name="g.alt" horiz-adv-x="1214" 
d="M560 575q69 0 111 40q42 41 42 101t-42 100t-112 40t-112 -40q-41 -40 -41 -100t42 -100t112 -41zM49 -152q0 70 42 112t93 42q52 0 74 -11t46 -25q156 -88 320 -87q164 0 164 64q0 49 -110 49h-195q-139 0 -213 55t-74 160t97 172q-78 39 -140 123t-63 215
q0 182 129 299t330 117q150 0 268 -70h209q92 0 136 -39q44 -38 44 -102t-45 -103t-117 -39h-24q4 -37 4 -59q0 -153 -110 -269t-310 -116h-29q-86 0 -86 -28t80 -27h158q187 0 289 -85t102 -233q0 -183 -144 -285t-372 -102q-139 0 -266 40t-207 103q-80 58 -80 129z" />
    <glyph glyph-name="gbreve.alt" horiz-adv-x="1214" 
d="M553 1427q74 0 100 84q31 86 117 86q51 -1 86 -35t35 -71t-8 -55q-37 -102 -123 -170t-207 -68t-207 68t-123 170q-8 18 -8 55t35 72t86 34q86 0 117 -86q26 -84 100 -84zM560 575q69 0 111 40q42 41 42 101t-42 100t-112 40t-112 -40q-41 -40 -41 -100t42 -100t112 -41z
M49 -152q0 70 42 112t93 42q52 0 74 -11t46 -25q156 -88 320 -87q164 0 164 64q0 49 -110 49h-195q-139 0 -213 55t-74 160t97 172q-78 39 -140 123t-63 215q0 182 129 299t330 117q150 0 268 -70h209q92 0 136 -39q44 -38 44 -102t-45 -103t-117 -39h-24q4 -37 4 -59
q0 -153 -110 -269t-310 -116h-29q-86 0 -86 -28t80 -27h158q187 0 289 -85t102 -233q0 -183 -144 -285t-372 -102q-139 0 -266 40t-207 103q-80 58 -80 129z" />
    <glyph glyph-name="gdotaccent.alt" horiz-adv-x="1214" 
d="M555 1532q66 0 111 -46t45 -112t-45 -110t-111 -45q-66 0 -111 45q-45 44 -45 110t45 112t111 46zM560 575q69 0 111 40q42 41 42 101t-42 100t-112 40t-112 -40q-41 -40 -41 -100t42 -100t112 -41zM49 -152q0 70 42 112t93 42q52 0 74 -11t46 -25q156 -88 320 -87
q164 0 164 64q0 49 -110 49h-195q-139 0 -213 55t-74 160t97 172q-78 39 -140 123t-63 215q0 182 129 299t330 117q150 0 268 -70h209q92 0 136 -39q44 -38 44 -102t-45 -103t-117 -39h-24q4 -37 4 -59q0 -153 -110 -269t-310 -116h-29q-86 0 -86 -28t80 -27h158
q187 0 289 -85t102 -233q0 -183 -144 -285t-372 -102q-139 0 -266 40t-207 103q-80 58 -80 129z" />
    <glyph glyph-name="gcommaaccent.alt" horiz-adv-x="1214" 
d="M492 1210q-53 0 -86 35t-33 73q-1 38 31 104t32 118v53q0 63 33 103t93 39q60 0 95 -40t35 -102v-37q1 -133 -67 -258q-51 -88 -133 -88zM560 575q69 0 111 40q42 41 42 101t-42 100t-112 40t-112 -40q-41 -40 -41 -100t42 -100t112 -41zM49 -152q0 70 42 112t93 42
q52 0 74 -11t46 -25q156 -88 320 -87q164 0 164 64q0 49 -110 49h-195q-139 0 -213 55t-74 160t97 172q-78 39 -140 123t-63 215q0 182 129 299t330 117q150 0 268 -70h209q92 0 136 -39q44 -38 44 -102t-45 -103t-117 -39h-24q4 -37 4 -59q0 -153 -110 -269t-310 -116h-29
q-86 0 -86 -28t80 -27h158q187 0 289 -85t102 -233q0 -183 -144 -285t-372 -102q-139 0 -266 40t-207 103q-80 58 -80 129z" />
    <glyph glyph-name="ampersand.alt" horiz-adv-x="1490" 
d="M498 1038q0 -76 92 -133q106 33 148 64t42 73t-35 68q-35 27 -105 27t-106 -28t-36 -71zM1270 748q74 0 125 -48t51 -120t-50 -121t-124 -49h-43q-43 -199 -206 -314t-380 -114q-270 0 -419 124q-148 125 -148 324q0 227 241 348q-165 133 -165 302q0 168 135 270
t354 102t354 -105t135 -267t-110 -257q-110 -96 -385 -190q-123 -41 -168 -81t-45 -102t57 -104q57 -43 171 -43q114 1 194 63t86 162q12 219 198 220h142z" />
    <glyph glyph-name="racute.alt" horiz-adv-x="819" 
d="M609 1585q44 0 82 -42q38 -43 38 -105t-78 -105l-276 -141q-37 -18 -79 -18t-80 40t-38 102q0 64 78 105l276 144q33 20 77 20zM494 1133q92 0 174 -21q131 -31 131 -162q0 -66 -43 -116t-127 -50q-14 0 -49 8t-67 7q-32 0 -69 -15v-620q0 -74 -48 -123t-119 -49t-121 50
t-52 122v766q0 45 37 76q61 49 161 88t192 39z" />
    <glyph glyph-name="rcaron.alt" horiz-adv-x="819" 
d="M425 1190q-40 0 -89 35l-236 184q-59 43 -59 101t41 97q41 40 86 40t90 -33l166 -127l166 127q45 33 90 33t86 -40q40 -41 40 -97t-61 -101l-235 -184q-45 -35 -85 -35zM494 1133q92 0 174 -21q131 -31 131 -162q0 -66 -43 -116t-127 -50q-14 0 -49 8t-67 7
q-32 0 -69 -15v-620q0 -74 -48 -123t-119 -49t-121 50t-52 122v766q0 45 37 76q61 49 161 88t192 39z" />
    <glyph glyph-name="rcommaaccent.alt" horiz-adv-x="819" 
d="M215 -584q-53 0 -86 35t-33 73t32 104t32 118v53q0 63 33 103t93 39q60 0 95 -40t35 -102v-37q0 -133 -68 -258q-51 -88 -133 -88zM494 1133q92 0 174 -21q131 -31 131 -162q0 -66 -43 -116t-127 -50q-14 0 -49 8t-67 7q-32 0 -69 -15v-620q0 -74 -48 -123t-119 -49
t-121 50t-52 122v766q0 45 37 76q61 49 161 88t192 39z" />
    </font>
</defs>
</svg>
