<?xml version="1.0" standalone="no"?>
<!DOCTYPE svg PUBLIC "-//W3C//DTD SVG 1.1//EN" "http://www.w3.org/Graphics/SVG/1.1/DTD/svg11.dtd" >
<svg xmlns="http://www.w3.org/2000/svg">
<metadata></metadata>
<defs>
<font id="pedigree_ultra_boldregular" horiz-adv-x="1298" >
<font-face units-per-em="2048" ascent="1638" descent="-410" />
<missing-glyph horiz-adv-x="512" />
<glyph horiz-adv-x="2048" />
<glyph horiz-adv-x="2048" />
<glyph unicode="&#xd;" horiz-adv-x="512" />
<glyph unicode=" "  horiz-adv-x="512" />
<glyph unicode="&#x09;" horiz-adv-x="512" />
<glyph unicode="&#xa0;" horiz-adv-x="512" />
<glyph unicode="!" horiz-adv-x="524" d="M61 201q0 41 16 77.5t43.5 63.5t64 43t77.5 16q42 0 78.5 -16t63.5 -43t43 -63.5t16 -77.5q0 -42 -16 -78.5t-43 -63.5t-63.5 -43t-78.5 -16q-41 0 -77.5 16t-64 43t-43.5 63.5t-16 78.5zM96 1370q0 35 13 65t35.5 52.5t53 35.5t64.5 13q35 0 65 -13t52.5 -35.5 t35.5 -52.5t13 -65l-20 -717q-2 -69 -39.5 -114t-106.5 -45t-106 45t-39 114z" />
<glyph unicode="&#x22;" horiz-adv-x="803" d="M53 1382q-4 32 7.5 62t33.5 53t52 37t63 14q32 0 62 -14t52.5 -37t34.5 -53t9 -62l-29 -284q-3 -26 -13 -49t-26.5 -40.5t-39 -27.5t-50.5 -10t-50.5 10t-38.5 27.5t-25.5 40.5t-12.5 49zM436 1382q-4 32 7.5 62t33.5 53t52 37t63 14q32 0 62 -14t52.5 -37t34.5 -53 t9 -62l-29 -284q-3 -26 -13 -49t-26.5 -40.5t-39 -27.5t-50.5 -10t-50.5 10t-38.5 27.5t-25.5 40.5t-12.5 49z" />
<glyph unicode="#" horiz-adv-x="1108" d="M12 715q2 29 14 53t31.5 41t45 27t53.5 10h61l16 139h-53q-31 0 -55.5 11.5t-41.5 31t-25 45.5t-5 55q3 27 16 50.5t32.5 41t44 27.5t51.5 10h61l14 150q4 26 16.5 49.5t31.5 41t43.5 28t52.5 10.5q29 0 53.5 -12.5t42.5 -32.5t27.5 -45.5t7.5 -52.5l-17 -136h111l16 152 q3 26 15.5 49.5t31.5 40.5t44.5 27t54.5 10t54.5 -12.5t43 -32.5t26.5 -45.5t5 -52.5l-19 -136h52q32 0 57.5 -10.5t42.5 -29.5t25.5 -44.5t5.5 -54.5q-3 -26 -16 -50t-32.5 -42.5t-44.5 -29.5t-53 -11h-61l-12 -139h47q32 0 57 -10.5t42 -29.5t25 -45t5 -56 q-3 -28 -16.5 -52t-33 -42t-44 -28t-50.5 -10h-61l-17 -149q-3 -25 -14 -48.5t-28.5 -41.5t-42 -28.5t-54.5 -10.5q-28 0 -53.5 11t-44.5 30t-28.5 44.5t-6.5 53.5l14 139h-112l-15 -147q-3 -25 -14.5 -49t-30 -42t-42.5 -29t-52 -11t-53.5 11t-44.5 30t-29 44.5t-8 53.5v2 l18 137h-53q-30 0 -54 11.5t-40.5 31t-24.5 45.5t-6 54zM489 846h111l16 139h-110z" />
<glyph unicode="$" horiz-adv-x="1223" d="M31 338q0 35 11.5 66.5t32.5 55t50.5 37t64.5 13.5q37 0 65 -15t53.5 -37.5t52.5 -49t62 -49t83 -37.5t115 -15q54 0 90.5 19t59 46t32.5 56t10 49q0 48 -31.5 83t-83.5 63t-118 52.5t-135.5 52.5t-135.5 61.5t-118 80t-83.5 109t-31.5 147.5q0 95 28.5 167t78 123.5 t117 83t146.5 46.5v37q0 33 12.5 62t34.5 51t51 34.5t62 12.5t62 -12.5t51 -34.5t34.5 -51t12.5 -62v-37q78 -17 142 -47.5t109.5 -68.5t71 -80.5t25.5 -83.5q0 -44 -12.5 -74.5t-33 -49.5t-46.5 -27.5t-53 -8.5q-41 0 -71 12.5t-55 31.5t-48 41t-50 41t-61.5 31.5 t-81.5 12.5q-31 0 -61.5 -8t-54 -24t-38 -41t-14.5 -60q0 -38 31.5 -65.5t83.5 -52t118 -47.5t135.5 -52t135.5 -66t118 -88.5t83.5 -120.5t31.5 -162q0 -108 -30.5 -192t-84.5 -145t-128.5 -100.5t-161.5 -57.5v-80q0 -33 -12.5 -62t-34.5 -51t-51 -34.5t-62 -12.5 t-62 12.5t-51 34.5t-34.5 51t-12.5 62v74q-84 16 -159.5 50.5t-132.5 81t-90 102.5t-33 116z" />
<glyph unicode="%" horiz-adv-x="2200" d="M82 1098q0 90 34.5 170t94 139.5t138.5 94t169 34.5q91 0 170.5 -34.5t139 -94t94 -139.5t34.5 -170t-34.5 -169.5t-94 -138.5t-139 -93.5t-170.5 -34.5q-90 0 -169 34.5t-138.5 93.5t-94 138.5t-34.5 169.5zM348 1098q0 -35 13.5 -66t36.5 -54t54 -36.5t66 -13.5 t66 13.5t54 36.5t36.5 54t13.5 66t-13.5 66t-36.5 54t-54 36.5t-66 13.5t-66 -13.5t-54 -36.5t-36.5 -54t-13.5 -66zM623 156q0 35 14 63l666 1237q24 47 55.5 63.5t73.5 16.5q33 0 60.5 -11.5t47 -31.5t30.5 -47t11 -57q0 -17 -5 -34.5t-13 -35.5l-664 -1239 q-23 -40 -60 -60t-75 -20q-31 0 -57 13t-45 34.5t-29 49.5t-10 59zM1243 436q0 91 34.5 170.5t94 139t138.5 94t169 34.5q91 0 171 -34.5t139.5 -94t94 -139t34.5 -170.5q0 -90 -34.5 -169t-94 -138.5t-139.5 -94t-171 -34.5q-90 0 -169 34.5t-138.5 94t-94 138.5t-34.5 169 zM1509 436q0 -35 13.5 -66t36.5 -54t54 -36.5t66 -13.5q36 0 67 13.5t54 36.5t36 54t13 66t-13 66t-36 54t-54 36.5t-67 13.5q-35 0 -66 -13.5t-54 -36.5t-36.5 -54t-13.5 -66z" />
<glyph unicode="&#x26;" horiz-adv-x="1362" d="M61 471q0 68 13.5 124t34 100.5t44.5 77.5t46.5 56t39 35.5t21.5 16.5q-13 19 -26.5 44t-24 56.5t-17 70t-6.5 83.5q0 97 35 176t97.5 135t149 86.5t189.5 30.5q59 0 116 -12.5t109 -35t96.5 -55t76.5 -72.5t50.5 -86.5t18.5 -97.5q0 -36 -13 -70t-36 -61t-55 -43 t-70 -16q-47 0 -76 16.5t-48.5 41.5t-33.5 54.5t-31 54.5t-40 41.5t-62 16.5q-30 0 -51.5 -10t-35 -26.5t-19.5 -38t-6 -44.5q0 -38 18.5 -71.5t52.5 -67.5l359 -367q6 26 6 48q2 81 38.5 123t111.5 42t114 -54.5t39 -145.5q0 -59 -16.5 -125.5t-50.5 -134.5l81 -82 q23 -23 37.5 -54t14.5 -65t-13.5 -64t-36.5 -52.5t-53.5 -36t-64.5 -13.5q-31 0 -59 9.5t-48 29.5l-67 70q-79 -62 -177.5 -99t-216.5 -37q-141 0 -245.5 38.5t-173 105.5t-102.5 158t-34 196zM395 504q0 -41 12 -83t38.5 -76t68.5 -55.5t102 -21.5q53 0 97.5 16t83.5 42 l-338 346q-37 -37 -50.5 -81t-13.5 -87z" />
<glyph unicode="'" horiz-adv-x="420" d="M53 1382q-4 32 7.5 62t33.5 53t52 37t63 14q32 0 62 -14t52.5 -37t34.5 -53t9 -62l-29 -284q-3 -26 -13 -49t-26.5 -40.5t-39 -27.5t-50.5 -10t-50.5 10t-38.5 27.5t-25.5 40.5t-12.5 49z" />
<glyph unicode="(" horiz-adv-x="639" d="M82 748q0 137 25.5 264t64.5 236t85.5 196.5t88.5 146.5q20 28 50.5 46t68.5 18q30 0 56 -11t45.5 -30.5t30.5 -46t11 -56.5q0 -20 -5 -37t-13 -32q-10 -21 -26 -62t-34 -96.5t-36.5 -121t-33 -136t-23.5 -141.5t-9 -137t9 -137.5t23.5 -142t33 -136t36.5 -121t34 -96.5 t26 -62q8 -15 13 -32t5 -37q0 -30 -11 -56.5t-30.5 -46t-45.5 -30.5t-56 -11q-38 0 -68.5 18t-50.5 46q-42 59 -88.5 146.5t-85.5 196.5t-64.5 236t-25.5 265z" />
<glyph unicode=")" horiz-adv-x="639" d="M31 -16q0 20 5 37t13 32q10 21 26 62t34 96.5t36.5 121t33 136t23.5 142t9 137.5t-9 137t-23.5 141.5t-33 136t-36.5 121t-34 96.5t-26 62q-8 15 -13 32t-5 37q0 30 11 56.5t30.5 46t45.5 30.5t56 11q38 0 68.5 -18t50.5 -46q42 -59 88.5 -146.5t85.5 -196.5t64.5 -236 t25.5 -264q0 -138 -25.5 -265t-64.5 -236t-85.5 -196.5t-88.5 -146.5q-20 -28 -50.5 -46t-68.5 -18q-30 0 -56 11t-45.5 30.5t-30.5 46t-11 56.5z" />
<glyph unicode="*" horiz-adv-x="836" d="M72.5 1000.5q-2.5 20.5 3 40t18 36t31.5 27.5l84 49l-84 49q-19 11 -31.5 27.5t-18 36t-3 40.5t13.5 40q11 18 27.5 30t36 17t40 2.5t39.5 -13.5l84 -49v99q0 21 8.5 40t22.5 33.5t33 22.5t41 8q21 0 40 -8t33.5 -22.5t22.5 -33.5t8 -40v-99l84 49q19 11 40 13.5 t40.5 -2.5t36 -17t27.5 -30q11 -19 13 -40t-3 -40.5t-17.5 -36t-31.5 -27.5l-86 -49l86 -49q19 -11 31.5 -27.5t17.5 -36t3 -40t-13 -39.5t-27.5 -31t-36 -17t-40.5 -2.5t-40 13.5l-84 47v-97q0 -21 -8 -40t-22.5 -33.5t-33.5 -22.5t-40 -8q-22 0 -41 8t-33 22.5t-22.5 33.5 t-8.5 40v97l-84 -47q-19 -11 -39.5 -13.5t-40 2.5t-36 17t-27.5 31t-13.5 39.5z" />
<glyph unicode="+" horiz-adv-x="987" d="M51 743q0 28 11 52t29 41.5t42 27.5t51 10h178v181q0 27 10.5 50.5t28.5 41.5t42.5 28.5t52.5 10.5q27 0 50.5 -10.5t41.5 -28.5t28.5 -41.5t10.5 -50.5v-181h178q28 0 52 -10t41.5 -27.5t27.5 -41.5t10 -52q0 -27 -10 -51t-27.5 -42t-41.5 -29t-52 -11h-178v-176 q0 -28 -10.5 -52.5t-28.5 -43t-41.5 -29t-50.5 -10.5q-28 0 -52.5 10.5t-42.5 29t-28.5 43t-10.5 52.5v176h-178q-27 0 -51 11t-42 29t-29 42t-11 51z" />
<glyph unicode="," horiz-adv-x="504" d="M51 201q0 41 16 77.5t43 63.5t63.5 43t78.5 16q41 0 77.5 -16t64 -43t43.5 -63.5t16 -77.5q0 -26 -8 -50.5t-17 -46.5l-96 -213q-13 -27 -40 -45t-59 -18q-24 0 -42.5 9t-32 23.5t-20.5 33t-7 38.5q0 25 8 41l23 47q-50 25 -80.5 73.5t-30.5 107.5z" />
<glyph unicode="-" horiz-adv-x="850" d="M51 688q0 32 12.5 60.5t33.5 49.5t49.5 33.5t60.5 12.5h436q32 0 60.5 -12.5t49.5 -33.5t33.5 -49.5t12.5 -60.5t-12.5 -60.5t-33.5 -49.5t-49.5 -33.5t-60.5 -12.5h-436q-32 0 -60.5 12.5t-49.5 33.5t-33.5 49.5t-12.5 60.5z" />
<glyph unicode="." horiz-adv-x="504" d="M51 201q0 41 16 77.5t43 63.5t63.5 43t78.5 16q41 0 77.5 -16t64 -43t43.5 -63.5t16 -77.5q0 -42 -16 -78.5t-43.5 -63.5t-64 -43t-77.5 -16q-42 0 -78.5 16t-63.5 43t-43 63.5t-16 78.5z" />
<glyph unicode="/" horiz-adv-x="1024" d="M31 72q0 14 3 28.5t9 28.5l698 1542q23 53 57 71.5t81 18.5q32 0 58.5 -11.5t45.5 -31t30 -45.5t11 -55q0 -34 -14 -66l-697 -1544q-21 -45 -59 -67.5t-80 -22.5q-31 0 -57 13t-45 34.5t-30 49.5t-11 57z" />
<glyph unicode="0" horiz-adv-x="1712" d="M61 768q0 110 28.5 211t80.5 189.5t124.5 161t161 124.5t190 80.5t210.5 28.5t210.5 -28.5t190 -80.5t161 -124.5t124.5 -161t80.5 -189.5t28.5 -211q0 -109 -28.5 -210.5t-80.5 -190t-124.5 -161t-161 -124.5t-189.5 -80.5t-211 -28.5q-109 0 -210.5 28.5t-190 80.5 t-161 124.5t-124.5 161t-80.5 190t-28.5 210.5zM420 768q0 -91 34 -170.5t93 -138.5t138.5 -93t170.5 -34t170.5 34t138.5 93t93 138.5t34 170.5t-34 170.5t-93 138.5t-138.5 93t-170.5 34t-170.5 -34t-138.5 -93t-93 -138.5t-34 -170.5z" />
<glyph unicode="1" horiz-adv-x="557" d="M-123 1370q0 35 13 65t35.5 52.5t53 35.5t64.5 13h242q38 0 70.5 -14t57 -38.5t38.5 -57t14 -70.5v-1176q0 -37 -14 -70t-38.5 -57.5t-57 -38.5t-70.5 -14t-71 14t-57.5 38.5t-38.5 57.5t-14 70v1024h-61q-34 0 -64.5 13t-53 35.5t-35.5 53t-13 64.5z" />
<glyph unicode="2" horiz-adv-x="1243" d="M61 166q0 37 14 68t36 51l620 575q21 20 38 39.5t29.5 40.5t19.5 44.5t7 51.5q0 41 -15.5 76t-42.5 61t-63 41t-77 15q-42 0 -80 -16t-66 -46t-44.5 -73.5t-16.5 -98.5q0 -37 -14 -69.5t-38 -56.5t-56.5 -38t-69.5 -14t-69.5 14t-57 38t-38.5 56.5t-14 69.5 q0 109 42 211.5t117.5 181.5t180 127t228.5 48q113 0 213 -40t175 -111t119 -170t44 -216q0 -58 -17 -111.5t-47.5 -104t-73.5 -98.5t-94 -96l-307 -284h373q35 0 65 -13t52.5 -35.5t35.5 -52.5t13 -65q0 -34 -13 -64.5t-35.5 -53t-52.5 -35.5t-65 -13h-789q-34 0 -64.5 13 t-53 35.5t-35.5 53t-13 64.5z" />
<glyph unicode="3" horiz-adv-x="1225" d="M51 494q0 38 12.5 71t35 58.5t55.5 40t73 14.5q38 0 71 -13.5t57.5 -37.5t38.5 -58t14 -75q0 -42 16 -76t44.5 -58t67.5 -37.5t85 -13.5q42 0 77.5 14.5t61.5 40.5t40.5 61t14.5 77q0 67 -20.5 109.5t-51.5 69.5t-67 43.5t-67 33.5t-51.5 39t-20.5 59t14 60t34.5 39 t44.5 28.5t44.5 28.5t34.5 40t14 62q0 23 -8.5 44t-24 37t-36 25t-44.5 9q-41 0 -65.5 -17.5t-41.5 -43.5t-31 -57t-34 -57t-50 -43.5t-79 -17.5q-37 0 -69.5 16t-56 43t-37 61.5t-13.5 70.5q0 80 35.5 149t99 120t151.5 80.5t193 29.5q93 0 178 -32.5t150.5 -90t104 -136 t38.5 -169.5q0 -68 -19.5 -116t-42.5 -78q-27 -35 -63 -58q60 -31 108 -81q20 -21 39.5 -49t34.5 -63t24.5 -77.5t9.5 -92.5q0 -122 -44 -222.5t-120 -172.5t-178.5 -112t-219.5 -40q-85 0 -160 21t-137.5 58t-111.5 87t-82.5 108t-51.5 121t-18 126z" />
<glyph unicode="4" horiz-adv-x="1358" d="M41 512v123q0 50 12 94.5t53 97.5l478 646q7 10 19 21t30.5 20.5t42.5 15.5t55 6h221q37 0 69.5 -14t57 -38t39 -56.5t15.5 -69.5v-723h61q32 0 60 -11.5t49 -32t33 -47.5t12 -59t-12 -60t-33 -48.5t-49 -32.5t-60 -12h-61v-152q0 -37 -14 -70t-38.5 -57.5t-57.5 -38.5 t-71 -14q-37 0 -70 14t-57.5 38.5t-38.5 57.5t-14 70v152h-553q-37 0 -69.5 14.5t-56.5 39t-38 57t-14 69.5zM373 635h399v541z" />
<glyph unicode="5" horiz-adv-x="1194" d="M31 387q0 33 12 62t32.5 50t49 33.5t61.5 12.5q48 0 77 -17.5t49.5 -44t37.5 -57.5t40.5 -57.5t59 -44t91.5 -17.5q48 0 91.5 15.5t77.5 44t54 68t20 87.5q0 103 -66 160t-188 57h-282q-42 0 -73.5 15t-51.5 39t-28.5 54t-4.5 60l55 447q5 32 17 64t36 58.5t63 43 t97 16.5h562q35 0 65 -13t52 -35.5t35 -52.5t13 -65q0 -34 -13 -64.5t-35 -53t-52 -35.5t-65 -13h-447l-18 -143h86q116 0 224.5 -30t192.5 -94.5t134.5 -167t50.5 -247.5q0 -122 -48.5 -223t-131 -173.5t-192 -112.5t-230.5 -40q-118 0 -212.5 39.5t-160.5 100.5 t-101.5 134t-35.5 140z" />
<glyph unicode="6" horiz-adv-x="1309" d="M61 565q0 84 19.5 161t62.5 142l414 625q22 32 60 51t81 19q37 0 69.5 -14t57 -38.5t38.5 -57t14 -69.5q0 -32 -11 -59.5t-26 -50.5l-82 -125q104 -19 193.5 -72t155 -130t103 -175t37.5 -207q0 -123 -46.5 -230.5t-127.5 -188t-189 -127t-231 -46.5t-230.5 46.5 t-188 127t-127 188t-46.5 230.5zM408 565q0 -51 19.5 -95.5t52.5 -78t77.5 -53t95.5 -19.5t95.5 19.5t78 53t53 78t19.5 95.5t-19.5 95.5t-53 78t-78 53t-95.5 19.5t-95.5 -19.5t-77.5 -53t-52.5 -78t-19.5 -95.5z" />
<glyph unicode="7" horiz-adv-x="1120" d="M10 1370q0 35 13 65t35.5 52.5t53 35.5t64.5 13h768q35 0 65 -13t52.5 -35.5t35.5 -52.5t13 -65q0 -22 -6 -41.5t-14 -38.5l-498 -1169q-22 -53 -66 -87t-104 -34q-37 0 -69.5 14t-56.5 38t-38 56.5t-14 69.5q0 38 16 78l399 948h-483q-34 0 -64.5 13t-53 35.5t-35.5 53 t-13 64.5z" />
<glyph unicode="8" horiz-adv-x="1225" d="M51 535q0 105 43.5 195.5t118.5 158.5q-37 48 -60.5 101t-23.5 112q0 100 38 184.5t103 146t152.5 96t187.5 34.5t188 -34.5t153 -96t103 -146t38 -184.5q0 -57 -23.5 -110.5t-58.5 -102.5q75 -68 119.5 -158.5t44.5 -195.5q0 -124 -44 -227t-120.5 -177.5t-179 -116 t-218.5 -41.5t-218 41.5t-178.5 116t-120.5 177.5t-44 227zM412 514q0 -42 16 -78t43 -63t63.5 -42.5t77.5 -15.5t77 15.5t63 42.5t43 63t16 78t-16 78.5t-43 63.5t-63 43t-77 16t-77.5 -16t-63.5 -43t-43 -63.5t-16 -78.5zM489 1102q0 -25 10 -47.5t26.5 -39.5t39 -26.5 t47.5 -9.5q26 0 48 9.5t39 26.5t26.5 39.5t9.5 47.5t-9.5 47.5t-26.5 39t-39 26.5t-48 10q-25 0 -47.5 -10t-39 -26.5t-26.5 -39t-10 -47.5z" />
<glyph unicode="9" horiz-adv-x="1309" d="M61 971q0 123 47 230.5t127.5 188t188.5 127t231 46.5t231 -46.5t188 -127t126.5 -188t46.5 -230.5q0 -84 -19 -161t-63 -142l-413 -625q-22 -32 -60 -51t-82 -19q-37 0 -69.5 14t-56.5 38.5t-38 57t-14 69.5q0 32 11 59.5t26 50.5l82 125q-105 19 -194.5 72t-155 130 t-103 175t-37.5 207zM410 971q0 -51 19.5 -95.5t52.5 -78t77.5 -53t95.5 -19.5t96 19.5t78 53t52.5 78t19.5 95.5t-19.5 95.5t-52.5 78t-78 53t-96 19.5t-95.5 -19.5t-77.5 -53t-52.5 -78t-19.5 -95.5z" />
<glyph unicode=":" horiz-adv-x="504" d="M51 201q0 41 16 77.5t43 63.5t63.5 43t78.5 16q41 0 77.5 -16t64 -43t43.5 -63.5t16 -77.5q0 -42 -16 -78.5t-43.5 -63.5t-64 -43t-77.5 -16q-42 0 -78.5 16t-63.5 43t-43 63.5t-16 78.5zM51 844q0 41 16 77.5t43 63.5t63.5 43t78.5 16q41 0 77.5 -16t64 -43t43.5 -63.5 t16 -77.5q0 -42 -16 -78.5t-43.5 -63.5t-64 -43t-77.5 -16q-42 0 -78.5 16t-63.5 43t-43 63.5t-16 78.5z" />
<glyph unicode=";" horiz-adv-x="504" d="M51 201q0 41 16 77.5t43 63.5t63.5 43t78.5 16q41 0 77.5 -16t64 -43t43.5 -63.5t16 -77.5q0 -26 -8 -50.5t-17 -46.5l-96 -213q-13 -27 -40 -45t-59 -18q-24 0 -42.5 9t-32 23.5t-20.5 33t-7 38.5q0 25 8 41l23 47q-50 25 -80.5 73.5t-30.5 107.5zM51 844q0 41 16 77.5 t43 63.5t63.5 43t78.5 16q41 0 77.5 -16t64 -43t43.5 -63.5t16 -77.5q0 -42 -16 -78.5t-43.5 -63.5t-64 -43t-77.5 -16q-42 0 -78.5 16t-63.5 43t-43 63.5t-16 78.5z" />
<glyph unicode="=" horiz-adv-x="987" d="M51 565q0 28 11 52t29 42t42 28.5t51 10.5h621q28 0 52 -10.5t41.5 -28.5t27.5 -42t10 -52q0 -27 -10 -51t-27.5 -42t-41.5 -29t-52 -11h-621q-27 0 -51 11t-42 29t-29 42t-11 51zM51 922q0 27 11 50.5t29 41.5t42 28.5t51 10.5h621q28 0 52 -10.5t41.5 -28.5t27.5 -41.5 t10 -50.5q0 -28 -10 -52.5t-27.5 -42.5t-41.5 -28.5t-52 -10.5h-621q-27 0 -51 10.5t-42 28.5t-29 42.5t-11 52.5z" />
<glyph unicode="?" horiz-adv-x="1182" d="M51 1055q0 44 14.5 96.5t44.5 105.5t74.5 103.5t104 89.5t134.5 62.5t165 23.5q112 0 211 -40t172.5 -110.5t116 -167t42.5 -208.5q0 -113 -43 -207.5t-116.5 -163t-172.5 -107t-210 -38.5q-36 0 -64.5 13t-48.5 34t-30.5 48.5t-10.5 55.5q0 33 11.5 61.5t32 49.5 t48.5 33t60 12q51 2 94.5 16.5t75 41.5t49.5 65t18 86t-18.5 88.5t-50.5 69.5t-75 45t-91 16q-68 0 -107.5 -24t-63.5 -60.5t-39.5 -78.5t-35.5 -78.5t-51.5 -60.5t-87.5 -24q-32 0 -60 12.5t-48.5 33.5t-32 48.5t-11.5 57.5zM387 201q0 41 16 77.5t43 63.5t63.5 43t78.5 16 q41 0 77.5 -16t63.5 -43t43 -63.5t16 -77.5q0 -42 -16 -78.5t-43 -63.5t-63.5 -43t-77.5 -16q-42 0 -78.5 16t-63.5 43t-43 63.5t-16 78.5z" />
<glyph unicode="@" horiz-adv-x="1866" d="M72 764q0 119 30.5 229t86.5 205.5t134.5 174.5t174 135t205.5 87t229 31t229 -31t205.5 -87t174.5 -135t135 -174.5t87 -205.5t31 -229q0 -77 -8 -154.5t-26.5 -149t-48.5 -133.5t-74.5 -107.5t-104 -72t-137.5 -26.5t-140 19t-106 55t-69.5 86.5t-32.5 113.5 q-60 -43 -121.5 -56t-132.5 -13q-53 0 -106.5 16t-96 48.5t-69.5 81.5t-27 114q0 59 16.5 102.5t45.5 75t68 52.5t83 35.5t92 23t94 14.5q56 7 95.5 15.5t64 21t36 29t11.5 38.5q0 23 -12.5 36.5t-32 21t-43 10t-45.5 2.5q-52 0 -85.5 -7t-55.5 -17t-35.5 -22t-26 -22 t-27.5 -17t-39 -7q-18 0 -34.5 7.5t-29 20t-20.5 29.5t-8 35q0 36 23.5 69.5t70 59.5t115.5 41.5t160 15.5q78 0 143.5 -17t111.5 -51t69.5 -84t15.5 -116l-51 -485q-3 -27 -1.5 -58.5t15 -58t41.5 -44.5t76 -18q54 0 90 42t58.5 107.5t32 144.5t9.5 153q0 134 -51 251.5 t-139 205.5t-206.5 139t-252.5 51q-89 0 -171.5 -23t-154 -65.5t-130.5 -101.5t-101 -131t-65 -154.5t-23 -171.5t23 -172.5t65 -155.5t101 -131.5t130.5 -102t154 -66t171.5 -23.5q33 0 49.5 2t26 4t17.5 4t24 2q45 0 73.5 -31.5t28.5 -75.5t-21.5 -67t-53.5 -33.5 t-67.5 -12t-64.5 -1.5q-123 0 -235.5 30.5t-210 86.5t-177 134.5t-135.5 174t-87 205.5t-31 229zM705 590q0 -23 12.5 -38t32 -24t43.5 -12.5t47 -3.5q35 0 73 9.5t70.5 28.5t55 48.5t26.5 69.5l8 69l-6 -2q-32 -8 -71 -13t-79.5 -10t-78.5 -12.5t-67.5 -21t-47.5 -34.5 t-18 -54z" />
<glyph unicode="A" horiz-adv-x="1411" d="M10 176q0 19 3.5 39t11.5 37l518 1171q23 53 64 83t100 30q58 0 99 -30t64 -83l514 -1171q17 -36 17 -76q0 -36 -14.5 -68t-38.5 -56t-56.5 -38t-68.5 -14q-60 0 -104.5 37.5t-65.5 91.5l-60 150h-573l-64 -156q-9 -27 -25.5 -49.5t-39 -39t-49.5 -25.5t-56 -9 q-36 0 -68 14t-56 38t-38 56t-14 68zM545 586h323l-161 401z" />
<glyph unicode="B" horiz-adv-x="1319" d="M92 180v1178q0 37 14 69.5t38.5 56.5t57.5 38t70 14h488q88 0 168 -28.5t140.5 -82.5t96 -131.5t35.5 -175.5q0 -85 -25 -141.5t-55 -89.5q-35 -39 -80 -60q64 -29 114 -82q21 -22 41.5 -52t36.5 -68t26 -85t10 -104q0 -91 -40 -170.5t-108.5 -138.5t-158.5 -93t-191 -34 h-500q-37 0 -69.5 14t-56.5 38.5t-38 57.5t-14 70zM453 332h301q32 0 59.5 12t48.5 32t33 48t12 59q0 32 -12 59.5t-33 48t-48.5 32.5t-59.5 12h-301v-303zM453 942h268q27 0 51 10.5t41.5 28t28 41.5t10.5 51t-10.5 51t-28 41.5t-41.5 28t-51 10.5h-268v-262z" />
<glyph unicode="C" horiz-adv-x="1554" d="M61 768q0 110 28.5 211t80.5 189.5t124.5 161t161 124.5t189.5 80.5t209 28.5q92 0 175.5 -17t157.5 -48.5t138.5 -76t118.5 -98.5q26 -28 42.5 -61.5t16.5 -75.5q0 -39 -14.5 -73.5t-39.5 -59.5t-59 -39.5t-73 -14.5q-45 0 -77.5 15t-60.5 38t-56.5 49.5t-64.5 49.5 t-85 38t-119 15q-90 0 -169 -34.5t-138 -93.5t-93 -138.5t-34 -169.5t34 -169.5t93 -138.5t138 -93.5t169 -34.5q70 0 119 15t85 38t64.5 49.5t56.5 49.5t60.5 38t77.5 15q39 0 73 -14.5t59 -39.5t39.5 -59.5t14.5 -73.5q0 -42 -16.5 -75.5t-42.5 -61.5 q-54 -54 -118.5 -98.5t-138.5 -76t-157.5 -48.5t-175.5 -17q-108 0 -209 28.5t-189.5 80.5t-161 124.5t-124.5 161t-80.5 190t-28.5 210.5z" />
<glyph unicode="D" horiz-adv-x="1536" d="M92 180v1176q0 38 14 70.5t38.5 57t57.5 38.5t70 14h480q103 0 196.5 -27.5t173.5 -77.5t145.5 -120t111.5 -156t71 -184t25 -205q0 -106 -25 -204.5t-71 -183.5t-111.5 -154.5t-145.5 -119.5t-173.5 -77t-196.5 -27h-480q-37 0 -70 14t-57.5 38.5t-38.5 57.5t-14 70z M453 332h254q87 0 161.5 35t129 94.5t85.5 138t31 166.5q0 87 -31 166.5t-85.5 140t-129 96t-161.5 35.5h-254v-872z" />
<glyph unicode="E" horiz-adv-x="1186" d="M92 180v1176q0 37 13.5 69.5t38.5 57t59 39t76 14.5h700q35 0 65 -13t52.5 -35.5t35.5 -52.5t13 -65q0 -34 -13 -64.5t-35.5 -53t-52.5 -35.5t-65 -13h-526v-262h405q32 0 60 -12t49 -33t33 -49t12 -60q0 -31 -12 -59t-33 -49t-49 -33t-60 -12h-405v-303h526q35 0 65 -13 t52.5 -35.5t35.5 -52.5t13 -65q0 -34 -13 -64.5t-35.5 -53t-52.5 -35.5t-65 -13h-700q-40 0 -74.5 14t-59.5 38.5t-39 57.5t-14 70z" />
<glyph unicode="F" horiz-adv-x="1145" d="M92 180v1176q0 37 13.5 69.5t37 57t55 39t68.5 14.5h692q35 0 65 -13t52.5 -35.5t35.5 -52.5t13 -65q0 -34 -13 -64.5t-35.5 -53t-52.5 -35.5t-65 -13h-505v-262h385q32 0 59.5 -12t48.5 -33t33 -49t12 -60q0 -31 -12 -59t-33 -49t-48.5 -33t-59.5 -12h-385v-455 q0 -37 -14 -70t-38.5 -57.5t-57.5 -38.5t-71 -14q-37 0 -70 14t-57.5 38.5t-38.5 57.5t-14 70z" />
<glyph unicode="G" horiz-adv-x="1577" d="M61 768q0 110 28.5 211t80.5 189.5t124.5 161t161 124.5t189.5 80.5t209 28.5q72 0 141 -14t129 -36t108 -48.5t79 -51.5q40 -31 68 -70t28 -90q0 -37 -14.5 -69.5t-39.5 -57t-58 -39t-70 -14.5q-35 0 -62.5 9.5t-52 24.5t-49 31.5t-54 31.5t-66.5 24.5t-87 9.5 q-90 0 -169 -34.5t-138 -93.5t-93 -138.5t-34 -169.5t34.5 -169.5t93.5 -138.5t138 -93.5t168 -34.5q35 0 70.5 6.5t69 18.5t62.5 28t50 35q18 17 28.5 34.5t10.5 37.5v79h-250q-33 0 -62 12.5t-50 33.5t-33.5 50t-12.5 62t12.5 62t33.5 51t50 34.5t62 12.5h430 q38 0 70.5 -14t57 -38.5t38.5 -57t14 -70.5v-312q0 -53 -16 -92.5t-57 -81.5q-49 -52 -111.5 -97.5t-135.5 -79.5t-156 -53.5t-175 -19.5q-108 0 -209 28.5t-189.5 80.5t-161 124.5t-124.5 161t-80.5 190t-28.5 210.5z" />
<glyph unicode="H" horiz-adv-x="1470" d="M92 180v1176q0 38 14 70.5t38.5 57t57.5 38.5t70 14q38 0 71 -14t57.5 -38.5t38.5 -57t14 -70.5v-414h565v414q0 38 14 70.5t38.5 57t57.5 38.5t70 14q38 0 70.5 -14t57 -38.5t38.5 -57t14 -70.5v-1176q0 -37 -14 -70t-38.5 -57.5t-57 -38.5t-70.5 -14q-37 0 -70 14 t-57.5 38.5t-38.5 57.5t-14 70v455h-565v-455q0 -37 -14 -70t-38.5 -57.5t-57.5 -38.5t-71 -14q-37 0 -70 14t-57.5 38.5t-38.5 57.5t-14 70z" />
<glyph unicode="I" horiz-adv-x="545" d="M92 180v1176q0 38 14 70.5t38.5 57t57.5 38.5t70 14q38 0 71 -14t57.5 -38.5t38.5 -57t14 -70.5v-1176q0 -37 -14 -70t-38.5 -57.5t-57.5 -38.5t-71 -14q-37 0 -70 14t-57.5 38.5t-38.5 57.5t-14 70z" />
<glyph unicode="J" horiz-adv-x="1313" d="M41 561q0 39 14 72t38 57t56.5 37.5t69.5 13.5q38 0 70.5 -14t57 -38t38.5 -57t14 -71q2 -49 20.5 -92t50 -75.5t73 -51t88.5 -18.5q48 0 89.5 19.5t72.5 52.5t49 76t18 91v793q0 38 14 70.5t38.5 57t57.5 38.5t70 14q38 0 71 -14t57.5 -38.5t38.5 -57t14 -70.5v-793 q0 -81 -21 -156t-59.5 -140.5t-92.5 -119.5t-119.5 -92.5t-141 -60t-156.5 -21.5t-156 21t-141 59.5t-119.5 92.5t-92.5 119t-60 140t-21 156z" />
<glyph unicode="K" horiz-adv-x="1368" d="M92 180v1176q0 38 14 70.5t38.5 57t57.5 38.5t70 14q38 0 71 -14t57.5 -38.5t38.5 -57t14 -70.5v-432l559 559q24 25 57.5 39t71.5 14t70.5 -13.5t56.5 -37.5t37.5 -56.5t13.5 -70.5q0 -44 -17.5 -78t-46.5 -61l-448 -437l469 -452q32 -31 52 -66.5t20 -83.5 q0 -37 -14 -70t-38 -57.5t-56.5 -38.5t-70.5 -14q-48 0 -82.5 21t-60.5 47l-573 573v-461q0 -37 -14 -70t-38.5 -57.5t-57.5 -38.5t-71 -14q-37 0 -70 14t-57.5 38.5t-38.5 57.5t-14 70z" />
<glyph unicode="L" horiz-adv-x="1104" d="M92 180v1176q0 38 14 70.5t38.5 57t57.5 38.5t70 14q38 0 71 -14t57.5 -38.5t38.5 -57t14 -70.5v-1024h465q35 0 65 -13t52 -35.5t35 -52.5t13 -65q0 -34 -13 -64.5t-35 -53t-52 -35.5t-65 -13h-639q-40 0 -74.5 14t-59.5 38.5t-39 57.5t-14 70z" />
<glyph unicode="M" horiz-adv-x="1786" d="M10 176q0 16 3 34.5t5 25.5l287 1144q8 32 23.5 60.5t38 49.5t51.5 33.5t63 12.5q60 0 105 -33.5t65 -87.5l242 -661l240 657q20 54 63.5 89.5t103.5 35.5q65 0 112 -38.5t63 -98.5l290 -1166q7 -21 9 -37.5t2 -19.5q0 -37 -14 -69t-38.5 -56t-57.5 -37.5t-71 -13.5 q-31 0 -59.5 10t-51 28t-38.5 43t-23 54l-153 608l-228 -626q-17 -48 -56 -82.5t-95 -34.5t-93.5 34.5t-54.5 82.5l-231 633l-150 -600q-7 -31 -23 -58.5t-38.5 -48t-51.5 -32t-63 -11.5q-37 0 -69 13.5t-56 37.5t-37.5 56t-13.5 69z" />
<glyph unicode="N" horiz-adv-x="1489" d="M92 180v1176q0 38 14 70.5t38.5 57t57.5 38.5t70 14q47 0 85 -21t63 -55l616 -813v709q0 38 14 70.5t38.5 57t57.5 38.5t71 14t70.5 -14t57 -38.5t38.5 -57t14 -70.5v-1176q0 -37 -14 -70t-38.5 -57.5t-57 -38.5t-70.5 -14q-48 0 -86.5 23t-67.5 61l-610 807v-711 q0 -37 -14 -70t-38.5 -57.5t-57.5 -38.5t-71 -14q-37 0 -70 14t-57.5 38.5t-38.5 57.5t-14 70z" />
<glyph unicode="O" horiz-adv-x="1710" d="M61 768q0 110 28.5 211t80 189.5t124.5 161t161 124.5t189 80.5t210 28.5q110 0 211 -28.5t189.5 -80.5t161 -124.5t124.5 -161t80.5 -189.5t28.5 -211q0 -109 -28.5 -210.5t-80.5 -190t-124.5 -161t-161 -124.5t-189.5 -80.5t-211 -28.5q-109 0 -210 28.5t-189 80.5 t-161 124.5t-124.5 161t-80 190t-28.5 210.5zM420 768q0 -90 34 -169.5t93 -138.5t138 -93.5t169 -34.5q91 0 170.5 34.5t138.5 93.5t93 138.5t34 169.5t-34 169.5t-93 138.5t-138.5 93.5t-170.5 34.5q-90 0 -169 -34.5t-138 -93.5t-93 -138.5t-34 -169.5z" />
<glyph unicode="P" horiz-adv-x="1278" d="M92 180v1176q0 37 14 69.5t38 57t57 39t71 14.5h404q114 0 214 -43t175 -117.5t118.5 -175t43.5 -215.5t-43.5 -215.5t-118.5 -175t-175 -117.5t-214 -43h-223v-254q0 -37 -14 -70t-38.5 -57.5t-57.5 -38.5t-71 -14q-37 0 -70 14t-57.5 38.5t-38.5 57.5t-14 70zM453 766 h198q45 0 84.5 17t68.5 47t45.5 70t16.5 85t-16.5 85t-45.5 70t-68.5 47t-84.5 17h-198v-438z" />
<glyph unicode="Q" horiz-adv-x="1710" d="M61 768q0 110 28.5 211t80 189.5t124.5 161t161 124.5t189 80.5t210 28.5q110 0 211 -28.5t189.5 -80.5t161 -124.5t124.5 -161t80.5 -189.5t28.5 -211q0 -106 -26.5 -203t-74.5 -184l115 -131q20 -23 29.5 -50t9.5 -53q0 -33 -12.5 -64.5t-35 -55.5t-53 -39t-67.5 -15 q-35 0 -68.5 14.5t-56.5 43.5l-84 98q-99 -74 -218.5 -115t-252.5 -41q-109 0 -210 28.5t-189 80.5t-161 124.5t-124.5 161t-80 190t-28.5 210.5zM420 768q0 -90 34 -169.5t93 -138.5t138 -93.5t169 -34.5q91 0 170.5 34.5t138.5 93.5t93 138.5t34 169.5t-34 169.5 t-93 138.5t-138.5 93.5t-170.5 34.5q-90 0 -169 -34.5t-138 -93.5t-93 -138.5t-34 -169.5z" />
<glyph unicode="R" horiz-adv-x="1288" d="M92 180v1176q0 37 14 69.5t38 57t57 39t71 14.5h404q114 0 214 -43t175 -117.5t118.5 -175t43.5 -215.5q0 -92 -23 -168t-62 -135.5t-90.5 -103t-109.5 -70.5l203 -184q34 -29 58 -66t24 -82q0 -36 -14.5 -68t-38.5 -56t-56.5 -38t-68.5 -14q-38 0 -68.5 16t-56.5 37 l-424 391h-47v-264q0 -37 -14 -70t-38.5 -57.5t-57.5 -38.5t-71 -14q-37 0 -70 14t-57.5 38.5t-38.5 57.5t-14 70zM453 766h198q45 0 84.5 17t68.5 47t45.5 70t16.5 85t-16.5 85t-45.5 70t-68.5 47t-84.5 17h-198v-438z" />
<glyph unicode="S" horiz-adv-x="1223" d="M31 338q0 35 11.5 66.5t32.5 55t50.5 37t64.5 13.5q37 0 65 -15t53.5 -37.5t52.5 -49t62 -49t83 -37.5t115 -15q54 0 90.5 19t59 46t32.5 56t10 49q0 48 -31.5 83t-83.5 63t-118 52.5t-135.5 52.5t-135.5 61.5t-118 80t-83.5 109t-31.5 147.5q0 119 43.5 202.5t117 135.5 t169.5 75.5t202 23.5q110 0 202.5 -27t160 -70t105.5 -96t38 -104q0 -44 -12.5 -74.5t-33 -49.5t-46.5 -27.5t-53 -8.5q-41 0 -71 12.5t-55 31.5t-48 41t-50 41t-61.5 31.5t-81.5 12.5q-31 0 -61.5 -8t-54 -24t-38 -41t-14.5 -60q0 -38 31.5 -65.5t83.5 -52t118 -47.5 t135.5 -52t135.5 -66t118 -88.5t83.5 -120.5t31.5 -162q0 -135 -47 -232.5t-127.5 -160.5t-188 -93t-228.5 -30q-69 0 -136.5 14t-128.5 38.5t-113 58.5t-90 74.5t-59.5 86t-21.5 93.5z" />
<glyph unicode="T" horiz-adv-x="1335" d="M20 1370q0 35 13 65t35.5 52.5t53 35.5t64.5 13h963q35 0 65 -13t52.5 -35.5t35.5 -52.5t13 -65q0 -34 -13 -64.5t-35.5 -53t-52.5 -35.5t-65 -13h-301v-1024q0 -37 -14 -70t-38.5 -57.5t-57 -38.5t-70.5 -14t-71 14t-57.5 38.5t-38.5 57.5t-14 70v1024h-301 q-34 0 -64.5 13t-53 35.5t-35.5 53t-13 64.5z" />
<glyph unicode="U" horiz-adv-x="1438" d="M92 600v756q0 38 14 70.5t38.5 57t57.5 38.5t70 14q38 0 71 -14t57.5 -38.5t38.5 -57t14 -70.5v-758q0 -55 21 -105t57 -87.5t84.5 -59.5t103.5 -22t103.5 22t84.5 59.5t57 87.5t21 105v758q0 38 14 70.5t38.5 57t57.5 38.5t70 14q38 0 71 -14t57.5 -38.5t38.5 -57 t14 -70.5v-756q0 -130 -49.5 -244t-134.5 -199t-199 -134.5t-244 -49.5t-244 49.5t-199 134.5t-134.5 199t-49.5 244z" />
<glyph unicode="V" horiz-adv-x="1411" d="M10 1360q0 36 14 68t38 56t56 38t68 14q59 0 104 -35t66 -88l351 -864l346 858q21 54 65.5 91.5t104.5 37.5q36 0 68.5 -14t56.5 -38t38.5 -56t14.5 -68q0 -40 -17 -76l-514 -1171q-23 -53 -64 -83t-99 -30q-59 0 -100 30t-64 83l-518 1171q-8 17 -11.5 37t-3.5 39z" />
<glyph unicode="W" horiz-adv-x="1970" d="M10 1358q0 38 13.5 70.5t37.5 56.5t56 37.5t69 13.5q73 0 117.5 -42t61.5 -105l194 -727q65 188 109.5 317.5t74 213.5t45 130t23 67.5t9.5 25.5l1 5q19 51 63 83t101 32q59 0 104 -32t64 -83l2 -5q2 -4 9 -25.5t23 -67.5t45 -130t73.5 -213.5t109.5 -317.5l193 727 q8 30 24.5 57t39 47t50.5 31.5t60 11.5q38 0 70.5 -13.5t56.5 -37.5t37.5 -56.5t13.5 -70.5q0 -14 -2.5 -27.5t-5.5 -25.5l-353 -1168q-20 -62 -61 -99.5t-111 -37.5q-60 0 -103.5 35.5t-61.5 89.5l-277 809l-276 -811q-19 -53 -62 -88t-106 -35q-34 0 -61.5 11t-49 29.5 t-36.5 44t-23 54.5l-353 1166q-3 12 -5.5 25.5t-2.5 27.5z" />
<glyph unicode="X" horiz-adv-x="1311" d="M10 180q0 35 12.5 65t32.5 56q58 75 109.5 142.5t98.5 128t89.5 116t81.5 107.5l-348 454q-17 22 -26 50t-9 59q0 38 14 70.5t38 56.5t56.5 37.5t69.5 13.5q47 0 85.5 -20.5t64.5 -57.5q0 -1 2.5 -5t12 -17.5t27.5 -38t48.5 -66t76 -101.5t109.5 -145q68 90 115 152.5 t77.5 104t47.5 64.5t25 34.5t10 14.5l2 3q26 37 64.5 57.5t84.5 20.5q38 0 70.5 -13.5t56.5 -37.5t38 -56.5t14 -70.5q0 -31 -9 -59t-26 -50l-351 -454q40 -53 82.5 -107.5t89 -114.5t98 -127t111.5 -145q20 -26 32.5 -56t12.5 -65q0 -37 -13.5 -70t-37.5 -57.5t-56.5 -38.5 t-70.5 -14q-45 0 -81.5 19t-61.5 53l-324 430l-323 -430q-25 -34 -62 -53t-82 -19q-37 0 -69.5 14t-56.5 38.5t-38 57.5t-14 70z" />
<glyph unicode="Y" d="M10 1358q0 38 13.5 70.5t37.5 56.5t56 37.5t69 13.5q51 0 90.5 -27t67.5 -65l305 -438l314 452q24 35 62.5 56.5t84.5 21.5q38 0 70.5 -13.5t56.5 -37.5t37.5 -56.5t13.5 -70.5q0 -60 -31 -103l-426 -612v-463q0 -37 -14 -70t-38 -57.5t-57 -38.5t-71 -14q-37 0 -70 14 t-57.5 38.5t-38.5 57.5t-14 70v459l-422 606q-18 26 -28.5 54t-10.5 59z" />
<glyph unicode="Z" horiz-adv-x="1266" d="M10 166q0 32 9 55.5t26 46.5l690 936h-536q-35 0 -65 13t-52.5 35.5t-35.5 53t-13 64.5q0 35 13 65t35.5 52.5t52.5 35.5t65 13h878q35 0 65.5 -13t53 -35.5t36 -52.5t13.5 -65q0 -31 -8.5 -54t-24.5 -44l-694 -940h572q35 0 65 -13t52 -35.5t35 -52.5t13 -65 q0 -34 -13 -64.5t-35 -53t-52 -35.5t-65 -13h-914q-34 0 -64 13t-52.5 35.5t-36 53t-13.5 64.5z" />
<glyph unicode="[" horiz-adv-x="604" d="M72 -27v1532q0 56 18.5 106t55.5 87t93.5 58.5t131.5 21.5h61q36 0 66 -11t51 -30.5t33 -47t12 -61.5t-12 -61.5t-33 -47t-51 -30t-66 -10.5h-57v-1481h57q36 0 66 -10.5t51 -29.5t33 -46.5t12 -61.5t-12 -61.5t-33 -47t-51 -30t-66 -10.5h-61q-75 0 -131.5 22t-93.5 59 t-55.5 86.5t-18.5 104.5z" />
<glyph unicode="\" horiz-adv-x="1024" d="M0 1618q0 29 11 55t30 45.5t46 31t58 11.5q47 0 81 -18.5t57 -71.5l698 -1542q6 -14 9 -28.5t3 -28.5q0 -29 -11 -57t-30 -49.5t-45 -34.5t-57 -13q-42 0 -80 22.5t-59 67.5l-697 1544q-14 32 -14 66z" />
<glyph unicode="]" horiz-adv-x="604" d="M10 -150q0 69 44.5 108.5t115.5 39.5h59v1481h-59q-71 0 -115.5 40.5t-44.5 108.5q0 34 12 61.5t33 47t50.5 30.5t64.5 11h63q75 0 131 -21.5t93.5 -58.5t56 -87t18.5 -106v-1532q0 -55 -18.5 -104.5t-56 -86.5t-93.5 -59t-131 -22h-63q-71 0 -115.5 40.5t-44.5 108.5z " />
<glyph unicode="_" horiz-adv-x="942" d="M-123 -197q0 28 10.5 52.5t29.5 43t44 29.5t55 11h914q29 0 54 -11t43 -29.5t28 -43t10 -52.5q0 -26 -10 -50.5t-28 -43t-43 -30t-54 -11.5h-914q-30 0 -55 11.5t-44 30t-29.5 43t-10.5 50.5z" />
<glyph unicode="`" horiz-adv-x="604" d="M72 1567q0 31 11.5 55t30.5 41t42 26t45 9q31 0 60.5 -13.5t64.5 -48.5l174 -176q17 -17 27 -39.5t10 -54.5q0 -33 -12.5 -55.5t-31.5 -37t-41.5 -20.5t-41.5 -6q-57 0 -93 33l-188 172q-19 16 -38 43.5t-19 71.5z" />
<glyph unicode="a" d="M51 573q0 125 44 230.5t117 182t168.5 119t197.5 42.5q77 0 137 -18t102 -40q49 -26 86 -59q16 51 58 84t96 33q33 0 62 -12.5t51 -34.5t34.5 -51t12.5 -62v-827q0 -33 -12.5 -62t-34.5 -51t-51 -34.5t-62 -12.5q-54 0 -96 33t-58 84q-37 -32 -86 -58q-42 -22 -102 -40.5 t-137 -18.5q-102 0 -197.5 43t-168.5 119.5t-117 181.5t-44 229zM371 573q0 -54 20.5 -102t56 -84t83 -57t102.5 -21q54 0 102 21t84 57t57 84t21 102q0 55 -21 103t-57 84t-84 57t-102 21q-55 0 -102.5 -21t-83 -57t-56 -84t-20.5 -103z" />
<glyph unicode="b" d="M82 160v1216q0 33 12.5 62t34.5 51t51 34.5t62 12.5t62 -12.5t50.5 -34.5t34 -51t12.5 -62v-344q34 32 82 58q41 22 100.5 39.5t137.5 17.5q102 0 197 -42.5t168 -119t117 -182t44 -230.5q0 -124 -44 -229t-117 -181.5t-168 -119.5t-197 -43q-77 0 -137.5 18.5 t-102.5 40.5q-49 26 -86 58q-7 -25 -22 -46.5t-35.5 -37.5t-44.5 -24.5t-51 -8.5q-33 0 -62 12.5t-51 34.5t-34.5 51t-12.5 62zM401 573q0 -54 21 -102t57 -84t84 -57t103 -21q54 0 102 21t83.5 57t56 84t20.5 102q0 55 -20.5 103t-56 84t-83.5 57t-102 21q-55 0 -103 -21 t-84 -57t-57 -84t-21 -103z" />
<glyph unicode="c" horiz-adv-x="1137" d="M51 573q0 129 46 237t125.5 185.5t186.5 120.5t228 43q78 0 159 -21t148 -58.5t109.5 -89t42.5 -111.5q0 -31 -12.5 -57.5t-34 -46t-49.5 -31t-60 -11.5q-29 0 -51.5 9t-42 22t-39.5 28.5t-44 28.5t-54 22t-72 9q-58 0 -108.5 -22t-88.5 -60t-60 -88.5t-22 -108.5 q0 -57 22 -108t60 -88.5t88.5 -59.5t108.5 -22q46 0 78.5 8t57 19.5t43.5 25.5t38 25.5t40.5 19.5t51.5 8q32 0 59 -9.5t47.5 -28.5t32 -45.5t11.5 -61.5q0 -44 -20.5 -81.5t-55 -67t-80 -52t-96.5 -37.5t-104.5 -22.5t-102.5 -7.5q-121 0 -228 43.5t-186.5 121t-125.5 185 t-46 235.5z" />
<glyph unicode="d" d="M51 573q0 125 44 230.5t117 182t168.5 119t197.5 42.5q78 0 137.5 -17.5t100.5 -39.5q48 -26 81 -58v344q0 33 12.5 62t34.5 51t51 34.5t62 12.5t62 -12.5t51 -34.5t34.5 -51t12.5 -62v-1216q0 -33 -12.5 -62t-34.5 -51t-51 -34.5t-62 -12.5q-54 0 -96 33t-58 84 q-37 -32 -86 -58q-42 -22 -102 -40.5t-137 -18.5q-102 0 -197.5 43t-168.5 119.5t-117 181.5t-44 229zM371 573q0 -54 20.5 -102t56 -84t83 -57t102.5 -21q54 0 102 21t84 57t57 84t21 102q0 55 -21 103t-57 84t-84 57t-102 21q-55 0 -102.5 -21t-83 -57t-56 -84t-20.5 -103 z" />
<glyph unicode="e" horiz-adv-x="1188" d="M51 573q0 129 46.5 237t126 185.5t186 120.5t227.5 43q62 0 124 -13t118.5 -37t105.5 -59t85 -79t56.5 -96.5t20.5 -112.5q0 -51 -24 -89t-70 -57l-600 -251q20 -19 47 -35q23 -14 57.5 -24.5t79.5 -10.5q46 0 79.5 8t58.5 20t44.5 26t38.5 26t39.5 20t46.5 8 q35 0 63 -12.5t48.5 -34t31.5 -50t11 -60.5q0 -37 -20.5 -71t-55.5 -62.5t-81 -51.5t-97 -39.5t-104.5 -25t-102.5 -8.5q-121 0 -228 43.5t-186.5 121t-125.5 185t-46 235.5zM358 590l455 192q-16 19 -42 35q-22 14 -54.5 24.5t-79.5 10.5q-59 0 -109.5 -23t-87.5 -60.5 t-58.5 -84t-23.5 -94.5z" />
<glyph unicode="f" horiz-adv-x="678" d="M0 1006q0 29 11 54.5t30 45t45 30.5t55 11v51q0 80 20 147t60.5 115.5t102 75.5t145.5 27q51 0 102.5 -11t93.5 -34.5t68.5 -61t26.5 -90.5q0 -26 -8.5 -50t-23 -42.5t-34.5 -29.5t-43 -11q-19 0 -37 6.5t-36 14t-37.5 14t-40.5 6.5q-25 0 -32 -23.5t-7 -52.5v-51h78 q29 0 54.5 -11t45 -30.5t30.5 -45t11 -54.5t-11 -55t-30.5 -45.5t-45 -30.5t-54.5 -11h-78v-704q0 -33 -12.5 -62t-34.5 -51t-51 -34.5t-62 -12.5t-62 12.5t-51 34.5t-34.5 51t-12.5 62v704q-29 0 -55 11t-45 30.5t-30 45.5t-11 55z" />
<glyph unicode="g" d="M51 573q0 125 44 230.5t117 182t168.5 119t197.5 42.5q77 0 137 -18t102 -40q49 -26 86 -59q16 51 58 84t96 33q33 0 62 -12.5t51 -34.5t34.5 -51t12.5 -62v-975q0 -127 -50 -224.5t-132 -164t-188 -101t-218 -34.5q-52 0 -109.5 9t-112.5 26t-105 42t-88 56.5t-60.5 69 t-22.5 80.5q0 37 12.5 66.5t34 50t50.5 31.5t61 11q29 0 51.5 -10t44.5 -25.5t44.5 -33t51 -33t64.5 -25.5t84 -10q42 0 89 13t87 40t66 68t26 98v99q-9 -8 -34.5 -26.5t-66 -37t-95.5 -33t-123 -14.5q-102 0 -197.5 43t-168.5 119.5t-117 181.5t-44 229zM371 573 q0 -54 20.5 -102t56 -84t83 -57t102.5 -21q54 0 102 21t84 57t57 84t21 102q0 55 -21 103t-57 84t-84 57t-102 21q-55 0 -102.5 -21t-83 -57t-56 -84t-20.5 -103z" />
<glyph unicode="h" horiz-adv-x="1155" d="M82 160v1216q0 33 12.5 62t34.5 51t51 34.5t62 12.5t62 -12.5t50.5 -34.5t34 -51t12.5 -62v-268q21 15 47 26q23 10 55.5 17.5t74.5 7.5q103 0 193 -39t157 -106t106 -157t39 -193v-504q0 -33 -12.5 -62t-34.5 -51t-51 -34.5t-62 -12.5t-62 12.5t-50.5 34.5t-34 51 t-12.5 62v504q0 36 -14 68.5t-38 57.5t-56 39.5t-68 14.5t-67 -14t-55 -38t-38.5 -55.5t-16.5 -66.5v-510q0 -33 -12.5 -62t-34 -51t-50.5 -34.5t-62 -12.5t-62 12.5t-51 34.5t-34.5 51t-12.5 62z" />
<glyph unicode="i" horiz-adv-x="483" d="M70 1376q0 35 13.5 66.5t37 55t54.5 37t67 13.5q35 0 66.5 -13.5t55 -37t37 -55t13.5 -66.5t-13.5 -66.5t-37 -55t-55 -37t-66.5 -13.5q-36 0 -67 13.5t-54.5 37t-37 55t-13.5 66.5zM82 160v827q0 33 12.5 62t34.5 51t51 34.5t62 12.5t62 -12.5t50.5 -34.5t34 -51 t12.5 -62v-827q0 -33 -12.5 -62t-34 -51t-50.5 -34.5t-62 -12.5t-62 12.5t-51 34.5t-34.5 51t-12.5 62z" />
<glyph unicode="j" horiz-adv-x="483" d="M-217 -193q0 70 31 110t77 40q19 0 37.5 -6.5t36.5 -14t37.5 -14t40.5 -6.5q25 0 32 23.5t7 52.5v995q0 33 12.5 62t34.5 51t51 34.5t62 12.5t62 -12.5t50.5 -34.5t34 -51t12.5 -62v-1012q0 -80 -19.5 -147t-60 -115t-102 -75t-145.5 -27q-51 0 -102.5 11t-93.5 34.5 t-68.5 60.5t-26.5 90zM70 1376q0 35 13.5 66.5t37 55t54.5 37t67 13.5q35 0 66.5 -13.5t55 -37t37 -55t13.5 -66.5t-13.5 -66.5t-37 -55t-55 -37t-66.5 -13.5q-36 0 -67 13.5t-54.5 37t-37 55t-13.5 66.5z" />
<glyph unicode="k" horiz-adv-x="1100" d="M82 160v1216q0 33 12.5 62t34.5 51t51 34.5t62 12.5t62 -12.5t50.5 -34.5t34 -51t12.5 -62v-600l420 336q44 35 94 35q31 0 59 -12t49 -32.5t33.5 -48t12.5 -59.5q0 -34 -14.5 -64.5t-42.5 -51.5l-316 -252l332 -375q41 -47 41 -105q0 -30 -12.5 -57t-34 -47t-49.5 -31.5 t-60 -11.5q-61 0 -108 53l-342 387l-62 -49v-231q0 -33 -12.5 -62t-34 -51t-50.5 -34.5t-62 -12.5t-62 12.5t-51 34.5t-34.5 51t-12.5 62z" />
<glyph unicode="l" horiz-adv-x="483" d="M82 160v1216q0 33 12.5 62t34.5 51t51 34.5t62 12.5t62 -12.5t50.5 -34.5t34 -51t12.5 -62v-1216q0 -33 -12.5 -62t-34 -51t-50.5 -34.5t-62 -12.5t-62 12.5t-51 34.5t-34.5 51t-12.5 62z" />
<glyph unicode="m" horiz-adv-x="1769" d="M82 160v504q0 103 36.5 193t101 157t152.5 106t191 39q94 0 176.5 -33t145.5 -92q63 59 144 92t177 33q103 0 191.5 -39t153 -106t101 -157t36.5 -193v-504q0 -33 -12.5 -62t-34.5 -51t-51 -34.5t-62 -12.5t-62 12.5t-51 34.5t-34.5 51t-12.5 62v504q0 36 -11.5 68.5 t-33 57.5t-51.5 39.5t-66 14.5q-34 0 -64 -13.5t-51.5 -37.5t-34 -57t-12.5 -72v-504q0 -33 -12.5 -62t-34 -51t-50.5 -34.5t-62 -12.5t-62 12.5t-51 34.5t-34.5 51t-12.5 62v504q0 36 -12 68.5t-33 57.5t-51 39.5t-66 14.5t-66 -14.5t-51 -39.5t-33 -57.5t-12 -68.5v-504 q0 -33 -12.5 -62t-34 -51t-50.5 -34.5t-62 -12.5t-62 12.5t-51 34.5t-34.5 51t-12.5 62z" />
<glyph unicode="n" horiz-adv-x="1155" d="M82 160v504q0 103 39 193t106 157t157.5 106t193.5 39t193 -39t157 -106t106 -157t39 -193v-504q0 -33 -12.5 -62t-34.5 -51t-51 -34.5t-62 -12.5t-62 12.5t-50.5 34.5t-34 51t-12.5 62v504q0 36 -14 68.5t-38 57.5t-56 39.5t-68 14.5t-68.5 -14.5t-56.5 -39.5t-38 -57.5 t-14 -68.5v-504q0 -33 -12.5 -62t-34 -51t-50.5 -34.5t-62 -12.5t-62 12.5t-51 34.5t-34.5 51t-12.5 62z" />
<glyph unicode="o" horiz-adv-x="1274" d="M51 573q0 129 46 237t125.5 185.5t186.5 120.5t228 43q122 0 228.5 -43t186 -120.5t125.5 -185.5t46 -237q0 -128 -46 -235.5t-125.5 -185t-186 -121t-228.5 -43.5q-121 0 -228 43.5t-186.5 121t-125.5 185t-46 235.5zM358 573q0 -57 22 -108t60 -88.5t88.5 -59.5 t108.5 -22t108.5 22t88 59.5t59.5 88.5t22 108q0 58 -22 108.5t-59.5 88.5t-88 60t-108.5 22t-108.5 -22t-88.5 -60t-60 -88.5t-22 -108.5z" />
<glyph unicode="p" d="M82 -231v1216q0 33 12.5 62t34.5 51t51 34.5t62 12.5q27 0 51 -8.5t44.5 -24.5t35.5 -37t22 -47q37 33 86 59q42 22 102.5 40t137.5 18q102 0 197 -43t168 -119.5t117 -181.5t44 -230t-44 -230t-117 -181.5t-168 -119t-197 -42.5q-78 0 -137.5 18t-100.5 40 q-48 26 -82 57v-344q0 -33 -12.5 -62t-34 -51t-50.5 -34.5t-62 -12.5t-62 12.5t-51 34.5t-34.5 51t-12.5 62zM401 571q0 -54 21 -102t57 -84t84 -57t103 -21q54 0 102 21t83.5 57t56 84t20.5 102q0 55 -20.5 103t-56 84t-83.5 57t-102 21q-55 0 -103 -21t-84 -57t-57 -84 t-21 -103z" />
<glyph unicode="q" d="M51 571q0 125 44 230t117 181.5t168.5 119.5t197.5 43q77 0 137 -18t102 -40q49 -26 86 -59q16 51 58 84t96 33q33 0 62 -12.5t51 -34.5t34.5 -51t12.5 -62v-1216q0 -33 -12.5 -62t-34.5 -51t-51 -34.5t-62 -12.5t-62 12.5t-51 34.5t-34.5 51t-12.5 62v344 q-33 -31 -81 -57q-41 -22 -100.5 -40t-137.5 -18q-102 0 -197.5 42.5t-168.5 119t-117 181.5t-44 230zM371 571q0 -54 20.5 -102t56 -84t83 -57t102.5 -21q54 0 102 21t84 57t57 84t21 102q0 55 -21 103t-57 84t-84 57t-102 21q-55 0 -102.5 -21t-83 -57t-56 -84t-20.5 -103 z" />
<glyph unicode="r" horiz-adv-x="831" d="M82 160v827q0 33 12.5 62t34.5 51t51 34.5t62 12.5q48 0 86.5 -26t58.5 -68q17 13 42 29t56.5 30.5t68 24.5t75.5 10q38 0 74 -11t64.5 -32.5t46 -54.5t17.5 -78q0 -50 -16.5 -85t-42 -56.5t-57.5 -31.5t-64 -10q-31 0 -52.5 10t-39.5 22t-35.5 22t-40.5 10 q-10 0 -23 -2.5t-25.5 -11.5t-22 -26t-11.5 -46v-606q0 -33 -12.5 -62t-34 -51t-50.5 -34.5t-62 -12.5t-62 12.5t-51 34.5t-34.5 51t-12.5 62z" />
<glyph unicode="s" horiz-adv-x="977" d="M10 272q0 73 33 115.5t96 42.5q31 0 53 -11.5t42.5 -29t41 -37.5t48 -37.5t65 -29t90.5 -11.5q21 0 42 5t38.5 15t28 25t10.5 35q0 30 -23 50t-61 35t-86.5 28.5t-99 30.5t-99 41t-86.5 60t-61 87t-23 123q0 65 23 127.5t70.5 112t119.5 80t170 30.5q91 0 169 -17 t135 -47t89.5 -71.5t32.5 -89.5q0 -28 -10.5 -52.5t-29.5 -43.5t-43.5 -30t-53.5 -11q-50 0 -87 15t-69 33t-63 33t-70 15q-23 0 -38 -13t-15 -34q0 -33 23 -55t61 -38t86 -30t98.5 -31t98.5 -41t86 -60t61 -88t23 -126q0 -97 -37.5 -170t-101 -122t-148 -73t-178.5 -24 q-77 0 -157 20t-145.5 57.5t-107 90t-41.5 116.5z" />
<glyph unicode="t" horiz-adv-x="682" d="M0 1006q0 29 11 54.5t30 45t45 30.5t55 11v180q0 32 12.5 61t34.5 50.5t51 34t62 12.5t62 -12.5t51 -34t34.5 -50.5t12.5 -61v-180h80q29 0 54.5 -11t45 -30.5t30.5 -45t11 -54.5t-11 -55t-30.5 -45.5t-45 -30.5t-54.5 -11h-80v-704q0 -33 -12.5 -62t-34.5 -51t-51 -34.5 t-62 -12.5t-62 12.5t-51 34.5t-34.5 51t-12.5 62v704q-29 0 -55 11t-45 30.5t-30 45.5t-11 55z" />
<glyph unicode="u" horiz-adv-x="1155" d="M82 483v504q0 33 12.5 62t34.5 51t51 34.5t62 12.5t62 -12.5t50.5 -34.5t34 -51t12.5 -62v-504q0 -36 14 -68.5t38 -57.5t56.5 -39.5t68.5 -14.5t68 14.5t56 39.5t38 57.5t14 68.5v504q0 33 12.5 62t34 51t50.5 34.5t62 12.5t62 -12.5t51 -34.5t34.5 -51t12.5 -62v-504 q0 -103 -39 -193t-106 -157t-157 -106t-193 -39t-193.5 39t-157.5 106t-106 157t-39 193z" />
<glyph unicode="v" horiz-adv-x="1114" d="M12 1008q2 38 20 68.5t50.5 50.5t77.5 20h7q41 1 77 -23q38 -26 57 -69l256 -568l256 568q19 43 57 69q36 24 77 23h7q45 0 77.5 -20t50.5 -51q20 -30 22 -68v-10q0 -33 -14 -64l-379 -842q-20 -43 -59 -67.5t-95 -24.5t-95 24.5t-59 67.5l-378 842q-14 31 -14 64 q1 5 1 10z" />
<glyph unicode="w" horiz-adv-x="1604" d="M14 1031q6 36 26.5 64.5t52.5 46t71 17.5q52 0 88 -27t53 -75l168 -477l182 464q10 25 23 46t30 36.5t40 24t53 8.5q60 0 92.5 -32.5t52.5 -82.5l184 -464l168 477q17 48 55 75t91 27q38 0 69.5 -17.5t51.5 -45.5q19 -29 25 -65q2 -11 2 -21q0 -26 -9 -52l-305 -858 q-17 -45 -51 -72.5t-86 -27.5q-45 0 -85 27t-59 73l-196 500l-195 -500q-18 -46 -57 -73t-84 -27q-56 0 -90 29t-51 77l-304 852q-9 25 -9 49q1 12 3 24z" />
<glyph unicode="x" horiz-adv-x="1053" d="M10 162q0 55 37 100l270 313l-266 312q-20 23 -30.5 50t-10.5 56q0 32 13 60t35.5 49t51.5 33t60 12q34 0 66 -14t55 -41l235 -275l236 275q23 27 55 41t66 14q32 0 60.5 -12t50.5 -33t35 -49t13 -60q0 -59 -41 -106l-266 -312l271 -313q18 -22 27 -48t9 -52 q0 -33 -12.5 -62.5t-34 -51.5t-51 -35t-63.5 -13q-32 0 -63 14.5t-54 40.5l-238 277l-237 -277q-23 -26 -54 -40.5t-63 -14.5q-34 0 -63.5 13t-51.5 35t-34.5 51.5t-12.5 62.5z" />
<glyph unicode="y" horiz-adv-x="1114" d="M-10 -209q0 69 35.5 112.5t97.5 43.5q30 0 45.5 -6.5t27 -15t23 -15t33.5 -6.5q29 0 48.5 22.5t33.5 53.5l61 139l-370 815q-8 17 -11.5 35t-3.5 35q1 28 11.5 54t30 45.5t47 31.5t61.5 12h7q41 0 77 -23q38 -26 57 -69l256 -572l256 572q19 43 57 69q36 23 77 23h7 q36 0 63.5 -12.5t47 -33t29.5 -47t10 -55.5q0 -17 -3 -33.5t-11 -31.5l-492 -1079q-26 -57 -58.5 -102.5t-74 -77t-94 -48t-119.5 -16.5q-47 0 -93.5 9t-84 30t-61 55.5t-23.5 85.5z" />
<glyph unicode="z" horiz-adv-x="1008" d="M10 164q0 34 8.5 62.5t30.5 54.5l479 583h-346q-29 0 -55 11t-45 30.5t-30 45.5t-11 55t11 54.5t30 45t45 30.5t55 11h613q35 0 66.5 -12.5t55 -34.5t37 -52t13.5 -65q0 -34 -9 -62.5t-30 -54.5l-479 -583h376q29 0 55 -11t45.5 -30.5t30.5 -45.5t11 -55t-11 -55 t-30.5 -45t-45.5 -30t-55 -11h-643q-35 0 -66.5 12.5t-55 34.5t-37 52t-13.5 65z" />
<glyph unicode="{" horiz-adv-x="668" d="M31 737q0 30 15 50t33 36t33 31.5t15 36.5v602q0 58 18.5 108.5t56 88.5t94.5 60t134 22h62q37 0 67.5 -11.5t52 -32t33.5 -49t12 -63.5q0 -36 -12 -65t-33.5 -50t-52 -32t-67.5 -11h-48v-567q0 -31 -7 -54t-18 -41t-24.5 -32.5t-27.5 -26.5q31 -26 54 -61.5t23 -91.5 v-566h48q37 0 67.5 -10.5t52 -31t33.5 -49t12 -64.5t-12 -65.5t-33.5 -50.5t-52 -32.5t-67.5 -11.5h-62q-77 0 -134 22.5t-94.5 61t-56 89.5t-18.5 108v600q0 19 -15 35.5t-33 34t-33 37.5t-15 46z" />
<glyph unicode="|" horiz-adv-x="483" d="M82 -86v1612q0 33 12.5 62t34.5 51t51 34.5t62 12.5t62 -12.5t50.5 -34.5t34 -51t12.5 -62v-1612q0 -33 -12.5 -62t-34 -51t-50.5 -34.5t-62 -12.5t-62 12.5t-51 34.5t-34.5 51t-12.5 62z" />
<glyph unicode="}" horiz-adv-x="668" d="M10 -137q0 36 12 64.5t34 49t52.5 31t67.5 10.5h47v566q0 56 23.5 91.5t54.5 61.5q-14 12 -28 26.5t-25 32.5t-18 41t-7 54v567h-47q-37 0 -67.5 11t-52.5 32t-34 50t-12 65q0 35 12 63.5t34 49t52.5 32t67.5 11.5h62q77 0 133.5 -22t94.5 -60t56.5 -88.5t18.5 -108.5 v-602q0 -21 15 -36.5t33 -31.5t33 -36t15 -50q0 -26 -15 -46t-33 -37.5t-33 -34t-15 -35.5v-600q0 -57 -18.5 -108t-56.5 -89.5t-94.5 -61t-133.5 -22.5h-62q-37 0 -67.5 11.5t-52.5 32.5t-34 50.5t-12 65.5z" />
<glyph unicode="&#xa1;" horiz-adv-x="524" d="M61 958q0 42 16 78.5t43.5 63.5t64 43t77.5 16q42 0 78.5 -16t63.5 -43t43 -63.5t16 -78.5q0 -41 -16 -77.5t-43 -63.5t-63.5 -43t-78.5 -16q-41 0 -77.5 16t-64 43t-43.5 63.5t-16 77.5zM96 -211l21 717q1 35 10.5 64t28 50.5t45.5 33.5t61 12q35 0 61.5 -12t45 -33.5 t28.5 -50.5t11 -64l20 -717q0 -35 -13 -65t-35.5 -52.5t-52.5 -35.5t-65 -13q-34 0 -64.5 13t-53 35.5t-35.5 52.5t-13 65z" />
<glyph unicode="&#xa2;" horiz-adv-x="915" d="M41 1090q0 88 27 164t75 135.5t114 100t144 58.5v72q0 23 9 43.5t24 36t35 24.5t43 9t43.5 -9t36 -24.5t24.5 -36t9 -43.5v-72q50 -11 97 -31.5t83 -48.5t58 -63t22 -74q0 -27 -11 -49.5t-29 -39.5t-42 -26.5t-51 -9.5q-39 0 -64.5 14.5t-49.5 32.5t-52 32.5t-72 14.5 t-82.5 -16.5t-67 -45t-45 -66.5t-16.5 -82q0 -43 16.5 -81t45 -66.5t67 -45t82.5 -16.5q34 0 57 6t40.5 15.5t32 20.5t30 20.5t35.5 15.5t49 6q26 0 49 -8.5t40.5 -24t27.5 -39t10 -53.5q0 -43 -22 -78t-58.5 -61t-83.5 -44t-96 -28v-123q0 -23 -9 -43.5t-24.5 -35.5 t-36 -23.5t-43.5 -8.5t-43 8.5t-35 23.5t-24 35.5t-9 43.5v125q-78 18 -144 58.5t-114 100t-75 136t-27 164.5z" />
<glyph unicode="&#xa3;" horiz-adv-x="1311" d="M10 705q0 30 11.5 57t31 47t46 31.5t57.5 11.5h41q-10 48 -18.5 93t-8.5 93q0 114 38.5 210t110 166t173 109.5t227.5 39.5q115 0 212.5 -43.5t168.5 -114.5t111 -162.5t40 -187.5q0 -58 -12.5 -100t-34.5 -69.5t-53 -41t-68 -13.5t-68.5 11.5t-54.5 33t-36 53.5t-13 72 q0 36 -10.5 74t-33.5 69.5t-59.5 52t-88.5 20.5q-48 0 -86.5 -14.5t-65.5 -39.5t-42 -57t-15 -68q0 -42 7 -88.5t15 -97.5h175q30 0 57 -11.5t47 -31.5t31.5 -47t11.5 -57q0 -31 -11.5 -57.5t-31.5 -46t-47 -31t-57 -11.5h-172q-8 -45 -19 -86t-21 -73q-11 -37 -22 -68h631 q35 0 65 -13t52.5 -35.5t35.5 -52.5t13 -65q0 -34 -13 -64.5t-35.5 -53t-52.5 -35.5t-65 -13h-809q-34 0 -64.5 13t-53 35.5t-35.5 53t-13 64.5q0 38 9.5 85.5t22.5 99.5t27 105t23 103h-55q-31 0 -57.5 11.5t-46 31t-31 46t-11.5 57.5z" />
<glyph unicode="&#xa5;" d="M10 1358q0 38 13.5 70.5t37.5 56.5t56 37.5t69 13.5q51 0 90.5 -27t67.5 -65l305 -438l314 452q24 35 62.5 56.5t84.5 21.5q38 0 70.5 -13.5t56.5 -37.5t37.5 -56.5t13.5 -70.5q0 -60 -31 -103l-219 -313h111q26 0 47 -8.5t37 -24t24.5 -36.5t8.5 -46q0 -24 -8.5 -44.5 t-24.5 -36t-37 -24.5t-47 -9h-270l-48 -70v-33h318q26 0 47 -8.5t37 -23.5t24.5 -35.5t8.5 -44.5q0 -50 -33 -81.5t-84 -31.5h-318v-205q0 -37 -14 -70t-38 -57.5t-57 -38.5t-71 -14q-37 0 -70 14t-57.5 38.5t-38.5 57.5t-14 70v205h-321q-22 0 -42.5 8.5t-36.5 23.5 t-25 35.5t-9 45.5q0 24 9 44.5t25 35.5t36.5 23.5t42.5 8.5h321v29l-51 74h-270q-25 0 -45.5 9t-35.5 24.5t-23.5 36t-8.5 44.5q0 50 31.5 82.5t81.5 32.5h110l-211 303q-18 26 -28.5 54t-10.5 59z" />
<glyph unicode="&#xa6;" horiz-adv-x="483" d="M82 -66v523q0 33 12.5 62t34.5 50.5t51 34t62 12.5t62 -12.5t50.5 -34t34 -50.5t12.5 -62v-523q0 -33 -12.5 -62t-34 -50.5t-50.5 -34t-62 -12.5t-62 12.5t-51 34t-34.5 50.5t-12.5 62zM82 983v543q0 33 12.5 62t34.5 51t51 34.5t62 12.5t62 -12.5t50.5 -34.5t34 -51 t12.5 -62v-543q0 -33 -12.5 -62t-34 -51t-50.5 -34.5t-62 -12.5t-62 12.5t-51 34.5t-34.5 51t-12.5 62z" />
<glyph unicode="&#xa8;" horiz-adv-x="739" d="M43 1448q0 32 12 59.5t32 47.5t46.5 32t56.5 12q32 0 59.5 -12t47 -32t30.5 -47.5t11 -59.5q0 -31 -11 -58t-30.5 -47t-47 -31.5t-59.5 -11.5q-30 0 -56.5 11.5t-46.5 31.5t-32 47t-12 58zM399 1448q0 32 11 59.5t30.5 47.5t47 32t59.5 12q30 0 56.5 -12t47 -32t32 -47.5 t11.5 -59.5q0 -31 -11.5 -58t-32 -47t-47 -31.5t-56.5 -11.5q-32 0 -59.5 11.5t-47 31.5t-30.5 47t-11 58z" />
<glyph unicode="&#xa9;" horiz-adv-x="1817" d="M102 768q0 111 29 214t81 192t126 163t163 126t192 81t214 29q112 0 215 -29t193 -81t163.5 -126t126 -163t81 -192t28.5 -214t-28.5 -214.5t-81 -193t-126 -163t-163.5 -126t-193 -81.5t-215 -29q-111 0 -214 29t-192 81.5t-163 126t-126 163t-81 193t-29 214.5z M238 768q0 -92 24 -177.5t67.5 -160t104.5 -136t135.5 -105t159.5 -67.5t176 -24q92 0 177.5 24t159.5 67.5t135 105t104.5 136t67.5 160t24 177.5q0 138 -52.5 259t-143 211.5t-212.5 143t-260 52.5q-91 0 -176 -24t-159.5 -67.5t-135.5 -104t-104.5 -134.5t-67.5 -159 t-24 -177zM391 768q0 107 41 201t111.5 164t164 110.5t199.5 40.5q121 0 217.5 -42t165.5 -114q17 -18 28 -40t11 -50q0 -25 -9.5 -47t-25.5 -38t-38 -25.5t-48 -9.5q-29 0 -50 10t-39.5 24.5t-37 32t-42.5 32t-55.5 24.5t-76.5 10q-58 0 -109.5 -22.5t-89.5 -60.5 t-60.5 -89.5t-22.5 -110.5q0 -58 22.5 -110t60.5 -91t89.5 -61.5t109.5 -22.5q45 0 76.5 10t55.5 24.5t42.5 32t37 32t39.5 24.5t50 10q26 0 48 -9.5t38 -25.5t25.5 -38t9.5 -47q0 -26 -11 -48.5t-28 -39.5q-69 -73 -165.5 -114.5t-217.5 -41.5q-106 0 -199.5 40.5 t-164 110.5t-111.5 164t-41 201z" />
<glyph unicode="&#xaa;" horiz-adv-x="928" d="M41 1130q0 89 31 163.5t83 128.5t119.5 84t139.5 30q45 0 84.5 -11.5t70.5 -25.5q36 -17 66 -37q15 32 44 53t64 21q26 0 48 -9t39 -25t26.5 -38.5t9.5 -48.5v-569q0 -25 -9.5 -47.5t-26 -38.5t-38.5 -25.5t-47 -9.5q-37 0 -66 20.5t-44 51.5l-27 -18t-46 -24t-65 -21 t-83 -9q-72 0 -139.5 30.5t-119.5 84.5t-83 128.5t-31 161.5zM281 1130q0 -35 13.5 -66.5t37 -55t54.5 -37t67 -13.5q35 0 66.5 13.5t55 37t37 55t13.5 66.5q0 36 -13.5 67.5t-37 55t-55 37t-66.5 13.5q-36 0 -67 -13.5t-54.5 -37t-37 -55t-13.5 -67.5z" />
<glyph unicode="&#xab;" horiz-adv-x="1104" d="M41 596q0 28 12.5 52.5t32.5 47.5l254 281q19 22 44.5 30.5t51.5 8.5q28 0 52.5 -11.5t43 -30t29 -42.5t10.5 -49q0 -32 -11 -54.5t-30 -44.5l-168 -188l168 -188q19 -22 30 -44.5t11 -54.5q0 -25 -10.5 -49t-29 -42.5t-43 -30t-52.5 -11.5q-26 0 -51.5 8.5t-44.5 30.5 l-254 281q-20 23 -32.5 47.5t-12.5 52.5zM512 596q0 28 12.5 52.5t32.5 47.5l254 281q19 22 44.5 30.5t51.5 8.5q28 0 52.5 -11.5t43 -30t29 -42.5t10.5 -49q0 -32 -11 -54.5t-30 -44.5l-167 -188l167 -188q19 -22 30 -44.5t11 -54.5q0 -25 -10.5 -49t-29 -42.5t-43 -30 t-52.5 -11.5q-26 0 -51.5 8.5t-44.5 30.5l-254 281q-20 23 -32.5 47.5t-12.5 52.5z" />
<glyph unicode="&#xad;" horiz-adv-x="850" d="M51 688q0 32 12.5 60.5t33.5 49.5t49.5 33.5t60.5 12.5h436q32 0 60.5 -12.5t49.5 -33.5t33.5 -49.5t12.5 -60.5t-12.5 -60.5t-33.5 -49.5t-49.5 -33.5t-60.5 -12.5h-436q-32 0 -60.5 12.5t-49.5 33.5t-33.5 49.5t-12.5 60.5z" />
<glyph unicode="&#xae;" horiz-adv-x="1311" d="M72 954q0 122 46 228t125 184.5t185.5 124t226.5 45.5q122 0 228 -45.5t185.5 -124t125 -184.5t45.5 -228q0 -120 -45.5 -226.5t-125 -185.5t-185.5 -125t-228 -46q-120 0 -226.5 46t-185.5 125t-125 185.5t-46 226.5zM205 954q0 -93 35.5 -174.5t97 -143t143 -97 t174.5 -35.5t175 35.5t143.5 97t97 143t35.5 174.5t-35.5 175t-97 143.5t-143.5 97t-175 35.5t-174.5 -35.5t-143 -97t-97 -143.5t-35.5 -175zM428 690v529q0 34 23.5 57.5t58.5 23.5h180q51 0 96.5 -19.5t79 -53t53 -79t19.5 -97.5q0 -42 -10 -76t-27 -61t-40.5 -46 t-49.5 -30l90 -84q16 -13 26.5 -29.5t10.5 -36.5q0 -16 -6.5 -30.5t-17.5 -25.5t-25.5 -17.5t-30.5 -6.5q-17 0 -30.5 7t-24.5 18l-191 176h-22v-119q0 -34 -23 -58t-57 -24t-58 24t-24 58zM590 952h90q20 0 37.5 8t30.5 21.5t20.5 31.5t7.5 38q0 21 -7.5 39t-20.5 31.5 t-30.5 21.5t-37.5 8h-90v-199z" />
<glyph unicode="&#xaf;" horiz-adv-x="836" d="M66 1466q0 27 10 51t27.5 41.5t41 28t50.5 10.5h446q26 0 49.5 -10.5t41 -28t28 -41.5t10.5 -51q0 -26 -10.5 -49t-28 -40.5t-41 -27.5t-49.5 -10h-446q-27 0 -50.5 10t-41 27.5t-27.5 40.5t-10 49z" />
<glyph unicode="&#xb0;" horiz-adv-x="762" d="M51 1206q0 69 26 129t71 104.5t105 70.5t128 26t128 -26t105 -70.5t71 -104.5t26 -129q0 -68 -26 -128t-71 -104.5t-105 -70.5t-128 -26t-128 26t-105 70.5t-71 104.5t-26 128zM272 1206q0 -22 8.5 -41.5t23.5 -33.5t35 -22.5t42 -8.5q45 0 75.5 30.5t30.5 75.5 q0 23 -8.5 42.5t-22.5 34.5t-33.5 23.5t-41.5 8.5t-42 -8.5t-35 -23.5t-23.5 -34.5t-8.5 -42.5z" />
<glyph unicode="&#xb1;" horiz-adv-x="987" d="M51 133q0 27 11 51t29 41.5t42 28t51 10.5h621q28 0 52 -10.5t41.5 -28t27.5 -41.5t10 -51q0 -28 -10 -52t-27.5 -42t-41.5 -28.5t-52 -10.5h-621q-27 0 -51 10.5t-42 28.5t-29 42t-11 52zM51 754q0 27 11 50.5t29 41.5t42 28.5t51 10.5h178v178q0 28 10.5 52t28.5 42 t42.5 28.5t52.5 10.5q27 0 50.5 -10.5t41.5 -28.5t28.5 -42t10.5 -52v-178h178q28 0 52 -10.5t41.5 -28.5t27.5 -41.5t10 -50.5q0 -28 -10 -52t-27.5 -42t-41.5 -28.5t-52 -10.5h-178v-179q0 -27 -10.5 -51t-28.5 -42t-41.5 -29t-50.5 -11q-28 0 -52.5 11t-42.5 29t-28.5 42 t-10.5 51v179h-178q-27 0 -51 10.5t-42 28.5t-29 42t-11 52z" />
<glyph unicode="&#xb2;" horiz-adv-x="743" d="M51 797q0 24 9.5 43.5t23.5 31.5l332 310q15 15 30 36.5t15 43.5q0 17 -7 32t-18.5 26.5t-27 18.5t-33.5 7q-37 0 -64.5 -28.5t-27.5 -78.5q0 -23 -9 -44t-24.5 -36.5t-36.5 -25t-45 -9.5q-23 0 -44.5 9.5t-37.5 25t-25.5 36.5t-9.5 44q0 62 24.5 121t68 104.5t103 73 t130.5 27.5q65 0 122 -22.5t100 -63.5t68 -97.5t25 -124.5q0 -67 -37 -123t-96 -110l-125 -119h148q23 0 43 -8.5t35 -23.5t23.5 -34.5t8.5 -41.5q0 -23 -8.5 -43t-23.5 -34.5t-35 -23t-43 -8.5h-422q-22 0 -41.5 8.5t-34.5 23t-24 34.5t-9 43z" />
<glyph unicode="&#xb3;" horiz-adv-x="743" d="M51 973q0 49 31 83t84 34q24 0 45.5 -8.5t37.5 -24t25 -37t9 -47.5q0 -35 27 -57.5t67 -22.5q35 0 59.5 24.5t24.5 59.5q0 26 -7.5 44.5t-19.5 31.5t-26 22t-27 15q-29 15 -49.5 32t-20.5 43q0 29 19 44.5t41 27.5q15 9 27 27.5t12 38.5q0 18 -11 30.5t-28 12.5 q-23 0 -37 -9.5t-24 -23t-18 -30t-18.5 -30t-25.5 -23t-39 -9.5q-25 0 -46 10t-37 27t-25 38.5t-9 44.5q0 47 21 88t58 71t89 47.5t113 17.5q53 0 101.5 -19t86 -53t60 -79.5t22.5 -98.5q0 -29 -7.5 -53.5t-17.5 -42.5q-11 -21 -26 -37q12 -8 29.5 -22t33 -37t26.5 -56.5 t11 -79.5q0 -70 -25 -128t-68 -99t-101 -63.5t-125 -22.5q-73 0 -132.5 26t-101.5 68.5t-65 96t-23 108.5z" />
<glyph unicode="&#xb4;" horiz-adv-x="604" d="M70 1366q0 32 9.5 54.5t26.5 39.5l175 176q35 35 64.5 48.5t60.5 13.5q22 0 45 -9t41.5 -26t30.5 -41t12 -55q0 -43 -19.5 -71t-38.5 -44l-188 -172q-36 -33 -92 -33q-19 0 -41.5 6t-41.5 20.5t-31.5 37t-12.5 55.5z" />
<glyph unicode="&#xb6;" horiz-adv-x="1186" d="M10 1169q0 86 32 158t88 124.5t131.5 82t162.5 29.5h559q29 0 54.5 -10.5t44.5 -30t30.5 -45.5t11.5 -58v-1726q0 -31 -11.5 -57t-30.5 -45t-44.5 -29.5t-54.5 -10.5q-28 0 -53 10.5t-44 29.5t-30.5 45t-11.5 57v1610h-99v-1610q0 -31 -11.5 -57t-30.5 -45t-44 -29.5 t-53 -10.5t-53 10.5t-44 29.5t-30.5 45t-11.5 57v1081h-43q-87 0 -162.5 29.5t-131.5 82t-88 125t-32 158.5zM283 1169q0 -30 10 -55t29 -43t45 -28.5t57 -10.5h43v271h-43q-31 0 -57 -10t-45 -28t-29 -42.5t-10 -53.5z" />
<glyph unicode="&#xb7;" horiz-adv-x="483" d="M41 752q0 41 16 77.5t43 63.5t63.5 43t78.5 16q41 0 77.5 -16t63.5 -43t43 -63.5t16 -77.5q0 -42 -16 -78.5t-43 -63.5t-63.5 -43t-77.5 -16q-42 0 -78.5 16t-63.5 43t-43 63.5t-16 78.5z" />
<glyph unicode="&#xb8;" horiz-adv-x="684" d="M68 -418q0 15 5.5 30t16.5 27t27 19.5t37 7.5q18 0 33 -4t29.5 -9t28.5 -9t29 -4q36 0 57 14.5t21 36.5q0 20 -16.5 31.5t-38.5 11.5q-15 0 -27.5 -2.5t-24.5 -6t-23.5 -6t-24.5 -2.5q-25 0 -41.5 14t-16.5 40q0 20 13 47q27 57 61 119t61 120h203l-57 -139 q40 -8 76.5 -24.5t64 -44.5t44 -67t16.5 -91q0 -54 -21 -99t-59.5 -77t-93 -50t-121.5 -18q-27 0 -70.5 5.5t-85.5 20.5t-72 41.5t-30 67.5z" />
<glyph unicode="&#xb9;" horiz-adv-x="459" d="M51 1427q0 47 32 78t79 31h129q24 0 45.5 -9t37.5 -24.5t25 -37t9 -46.5v-631q0 -24 -9 -45t-25 -36.5t-37.5 -24t-45.5 -8.5q-25 0 -46 8.5t-37 24t-25 36.5t-9 45v529h-12q-47 0 -79 31t-32 79z" />
<glyph unicode="&#xba;" horiz-adv-x="909" d="M41 1122q0 92 32.5 168t88.5 130.5t131.5 85t161.5 30.5t161 -30.5t131 -85t88.5 -130.5t32.5 -168q0 -90 -32.5 -166t-88.5 -131t-131 -85.5t-161 -30.5t-161.5 30.5t-131.5 85.5t-88.5 131t-32.5 166zM272 1122q0 -37 14.5 -70.5t39 -58t58 -39t71.5 -14.5t71 14.5 t57.5 39t39 58t14.5 70.5q0 38 -14.5 71.5t-39 58t-57.5 39t-71 14.5t-71.5 -14.5t-58 -39t-39 -58t-14.5 -71.5z" />
<glyph unicode="&#xbb;" horiz-adv-x="1104" d="M61 309q0 32 11.5 54.5t29.5 44.5l168 188l-168 188q-18 22 -29.5 44.5t-11.5 54.5q0 25 11 49t29.5 42.5t43 30t52.5 11.5q26 0 51.5 -8.5t44.5 -30.5l254 -281q20 -23 32.5 -47.5t12.5 -52.5t-12.5 -52.5t-32.5 -47.5l-254 -281q-19 -22 -44.5 -30.5t-51.5 -8.5 q-28 0 -52.5 11.5t-43 30t-29.5 42.5t-11 49zM532 309q0 32 11.5 54.5t29.5 44.5l168 188l-168 188q-18 22 -29.5 44.5t-11.5 54.5q0 25 11 49t29.5 42.5t43 30t52.5 11.5q26 0 51.5 -8.5t44.5 -30.5l254 -281q20 -23 32.5 -47.5t12.5 -52.5t-12.5 -52.5t-32.5 -47.5 l-254 -281q-19 -22 -44.5 -30.5t-51.5 -8.5q-28 0 -52.5 11.5t-43 30t-29.5 42.5t-11 49z" />
<glyph unicode="&#xbc;" horiz-adv-x="1481" d="M51 1427q0 47 32 78t79 31h129q24 0 45.5 -9t37.5 -24.5t25 -37t9 -46.5v-631q0 -24 -9 -45t-25 -36.5t-37.5 -24t-45.5 -8.5q-25 0 -46 8.5t-37 24t-25 36.5t-9 45v529h-12q-47 0 -79 31t-32 79zM170 139q0 16 2 30t10 28l678 1267q23 42 51.5 57t65.5 15q30 0 55 -10.5 t42.5 -28.5t27.5 -42t10 -52q0 -16 -5 -31t-11 -31l-678 -1269q-20 -35 -53.5 -53.5t-67.5 -18.5q-28 0 -51.5 11.5t-40.5 30.5t-26 44.5t-9 52.5zM690 295v65q0 31 9 56.5t32 56.5l254 344q9 14 32.5 29.5t63.5 15.5h117q23 0 44 -9t37 -25t25 -36.5t9 -43.5v-367h14 q21 0 39.5 -8t32.5 -21.5t22.5 -32.5t8.5 -40q0 -22 -8.5 -40.5t-22.5 -32t-32.5 -21t-39.5 -7.5h-14v-63q0 -50 -32.5 -82.5t-82.5 -32.5q-24 0 -45 8.5t-36.5 24t-24.5 36.5t-9 46v63h-276q-24 0 -45.5 9t-37 25t-25 37t-9.5 46zM930 381h153v209z" />
<glyph unicode="&#xbd;" horiz-adv-x="1499" d="M51 1427q0 47 32 78t79 31h129q24 0 45.5 -9t37.5 -24.5t25 -37t9 -46.5v-631q0 -24 -9 -45t-25 -36.5t-37.5 -24t-45.5 -8.5q-25 0 -46 8.5t-37 24t-25 36.5t-9 45v529h-12q-47 0 -79 31t-32 79zM170 139q0 16 2 30t10 28l678 1267q23 42 51.5 57t65.5 15q30 0 55 -10.5 t42.5 -28.5t27.5 -42t10 -52q0 -16 -5 -31t-11 -31l-678 -1269q-20 -35 -53.5 -53.5t-67.5 -18.5q-28 0 -51.5 11.5t-40.5 30.5t-26 44.5t-9 52.5zM807 109q0 24 9.5 43.5t23.5 31.5l331 310q16 15 31 36.5t15 42.5q0 17 -7 32t-18.5 26.5t-27.5 18.5t-34 7 q-37 0 -64.5 -28.5t-27.5 -77.5q0 -23 -8.5 -44t-24 -36.5t-36.5 -25t-45 -9.5q-23 0 -44.5 9.5t-37.5 25t-25.5 36.5t-9.5 44q0 62 24.5 121t68 104.5t103 73t130.5 27.5q65 0 122 -22.5t100 -63.5t68 -97.5t25 -124.5q0 -67 -37 -123t-96 -110l-125 -119h147 q23 0 43.5 -8.5t35.5 -23.5t23.5 -34.5t8.5 -41.5q0 -47 -32 -78t-79 -31h-422q-21 0 -40.5 8.5t-34.5 23t-24 34.5t-9 43z" />
<glyph unicode="&#xbe;" horiz-adv-x="1714" d="M51 944q0 50 31 83.5t84 33.5q49 0 83 -32t34 -85q0 -35 27 -57.5t67 -22.5q35 0 59.5 24.5t24.5 59.5q0 26 -7.5 44.5t-19.5 31.5t-26 22t-27 15q-29 15 -49.5 32.5t-20.5 43.5q0 29 19 44t41 27q15 10 27 28t12 38q0 18 -11 30.5t-28 12.5q-23 0 -37 -9.5t-24 -23 t-18 -30t-18.5 -30t-25.5 -23t-39 -9.5q-25 0 -46 10t-37 27t-25 39t-9 45q0 47 21 87.5t58 70.5t89 47.5t113 17.5q53 0 101.5 -19t86 -53t60 -79.5t22.5 -98.5q0 -29 -7.5 -53.5t-17.5 -42.5q-11 -21 -26 -37q12 -7 29.5 -21.5t33 -37.5t26.5 -56.5t11 -79.5 q0 -70 -25 -128t-68 -99t-101 -63.5t-125 -22.5q-73 0 -132.5 26.5t-101.5 69t-65 96t-23 107.5zM403 139q0 16 2.5 30t10.5 28l678 1267q23 42 51 57t65 15q30 0 55 -10.5t43 -28.5t28 -42t10 -52q0 -16 -5.5 -31t-11.5 -31l-678 -1269q-20 -35 -53.5 -53.5t-67.5 -18.5 q-28 0 -51.5 11.5t-40 30.5t-26 44.5t-9.5 52.5zM924 295v65q0 31 9 56.5t32 56.5l254 344q9 14 32.5 29.5t63.5 15.5h117q23 0 43.5 -9t36.5 -25t25 -36.5t9 -43.5v-367h15q21 0 39.5 -8t32.5 -21.5t22 -32.5t8 -40q0 -22 -8 -40.5t-22 -32t-32.5 -21t-39.5 -7.5h-15v-63 q0 -50 -32.5 -82.5t-81.5 -32.5q-50 0 -82.5 32.5t-32.5 82.5v63h-277q-24 0 -45 9t-36.5 25t-25 37t-9.5 46zM1163 381h154v209z" />
<glyph unicode="&#xbf;" horiz-adv-x="1182" d="M51 150q0 113 43 207.5t117 163t173 107t210 38.5q36 0 64.5 -13t48.5 -34.5t30.5 -48.5t10.5 -56q0 -33 -11.5 -61.5t-32 -49.5t-48.5 -33t-60 -12q-51 -1 -95 -16t-75.5 -42t-49.5 -65t-18 -85q0 -49 18.5 -89.5t51 -69.5t75.5 -45t91 -16q68 0 107.5 24t63.5 60.5 t39.5 78.5t35.5 78.5t51.5 60.5t87.5 24q32 0 60 -12.5t48 -33.5t31.5 -48.5t11.5 -57.5q0 -43 -14.5 -96t-44.5 -106t-74 -103.5t-104 -89.5t-134.5 -62.5t-164.5 -23.5q-112 0 -211 40t-172.5 111t-116.5 167.5t-43 208.5zM393 958q0 42 16 78.5t43 63.5t63.5 43t78.5 16 t78.5 -16t63.5 -43t43 -63.5t16 -78.5q0 -41 -16 -77.5t-43 -63.5t-63.5 -43t-78.5 -16t-78.5 16t-63.5 43t-43 63.5t-16 77.5z" />
<glyph unicode="&#xc0;" horiz-adv-x="1411" d="M10 176q0 -36 14 -68t38 -56t56 -38t68 -14q29 0 56 9t49.5 25.5t39 39t25.5 49.5l64 156h573l60 -150q21 -54 65.5 -91.5t104.5 -37.5q36 0 68.5 14t56.5 38t38.5 56t14.5 68q0 40 -17 76l-514 1171q-23 53 -64 83t-99 30q-59 0 -100 -30t-64 -83l-518 -1171 q-8 -17 -11.5 -37t-3.5 -39zM379 1976q0 31 12 55t30.5 41t41.5 26t45 9q31 0 60.5 -13t64.5 -48l174 -176q17 -17 27 -39.5t10 -54.5q0 -33 -12.5 -55.5t-31.5 -37t-41.5 -20.5t-41.5 -6q-58 0 -92 33l-189 172q-18 15 -37.5 43t-19.5 71zM545 586l162 401l161 -401h-323z " />
<glyph unicode="&#xc1;" horiz-adv-x="1391" d="M0 176q0 19 3 39t11 37l518 1171q23 53 64 83t100 30t100 -30t64 -83l514 -1171q8 -17 12.5 -37t4.5 -39q0 -36 -14.5 -68t-39 -56t-57 -38t-68.5 -14q-60 0 -104 37.5t-66 91.5l-59 150h-573l-64 -156q-9 -27 -25.5 -49.5t-39 -39t-49.5 -25.5t-56 -9q-36 0 -68 14 t-56 38t-38 56t-14 68zM535 586h323l-162 401zM537 1776q0 32 9.5 54.5t26.5 39.5l175 176q35 35 64 48t60 13q23 0 45.5 -9t41.5 -26t30.5 -41t11.5 -55q0 -43 -19 -71t-38 -43l-188 -172q-36 -33 -92 -33q-19 0 -41.5 6t-41.5 20.5t-31.5 37t-12.5 55.5z" />
<glyph unicode="&#xc2;" horiz-adv-x="1391" d="M0 176q0 -36 14 -68t38 -56t56 -38t68 -14q29 0 56 9t49.5 25.5t39 39t25.5 49.5l64 156h573l59 -150q22 -54 66 -91.5t104 -37.5q36 0 68.5 14t57 38t39 56t14.5 68q0 19 -4.5 39t-12.5 37l-514 1171q-23 53 -64 83t-100 30t-100 -30t-64 -83l-518 -1171q-8 -17 -11 -37 t-3 -39zM356 1776q0 23 9.5 50t27.5 44l213 211q16 17 39 30t51 13t51.5 -13t38.5 -30l213 -211q19 -17 28 -44t9 -50q0 -33 -12.5 -56t-31 -37.5t-40.5 -21t-41 -6.5q-28 0 -52.5 10t-43.5 27q-29 29 -59.5 60t-59.5 63q-29 -32 -59 -63t-59 -60q-19 -17 -44 -27t-53 -10 q-18 0 -40 6.5t-41 21t-31.5 37.5t-12.5 56zM535 586l161 401l162 -401h-323z" />
<glyph unicode="&#xc3;" horiz-adv-x="1411" d="M10 176q0 19 3.5 39t11.5 37l518 1171q23 53 64 83t100 30q58 0 99 -30t64 -83l514 -1171q17 -36 17 -76q0 -36 -14.5 -68t-38.5 -56t-56.5 -38t-68.5 -14q-60 0 -104.5 37.5t-65.5 91.5l-60 150h-573l-64 -156q-9 -27 -25.5 -49.5t-39 -39t-49.5 -25.5t-56 -9 q-36 0 -68 14t-56 38t-38 56t-14 68zM358 1862q0 37 18 67.5t46.5 53t64 35t70.5 12.5q42 0 71 -9.5t53.5 -20.5t51 -20.5t64.5 -9.5q16 0 30 8.5t29 18t32.5 18t39.5 8.5q29 0 52 -10.5t40 -29t26 -44t9 -55.5q0 -37 -17.5 -68t-46 -52.5t-65 -33.5t-74.5 -12 q-25 0 -55.5 9t-61.5 19.5t-61 19t-56 8.5q-18 0 -34.5 -8t-33 -18t-33 -18t-34.5 -8q-29 0 -52 11t-39.5 30.5t-25 45t-8.5 53.5zM545 586h323l-161 401z" />
<glyph unicode="&#xc4;" horiz-adv-x="1411" d="M10 176q0 19 3.5 39t11.5 37l518 1171q23 53 64 83t100 30q58 0 99 -30t64 -83l514 -1171q17 -36 17 -76q0 -36 -14.5 -68t-38.5 -56t-56.5 -38t-68.5 -14q-60 0 -104.5 37.5t-65.5 91.5l-60 150h-573l-64 -156q-9 -27 -25.5 -49.5t-39 -39t-49.5 -25.5t-56 -9 q-36 0 -68 14t-56 38t-38 56t-14 68zM381 1858q0 32 12 59.5t32 47.5t46.5 32t56.5 12q32 0 59.5 -12t47 -32t30.5 -47.5t11 -59.5q0 -31 -11 -58t-30.5 -47t-47 -31.5t-59.5 -11.5q-30 0 -56.5 11.5t-46.5 31.5t-32 47t-12 58zM545 586h323l-161 401zM737 1858 q0 32 11 59.5t30.5 47.5t47 32t59.5 12q30 0 56.5 -12t47 -32t32 -47.5t11.5 -59.5q0 -31 -11.5 -58t-32 -47t-47 -31.5t-56.5 -11.5q-32 0 -59.5 11.5t-47 31.5t-30.5 47t-11 58z" />
<glyph unicode="&#xc5;" horiz-adv-x="1411" d="M10 176q0 19 3.5 39t11.5 37l518 1171q23 53 64 83t100 30q58 0 99 -30t64 -83l514 -1171q17 -36 17 -76q0 -36 -14.5 -68t-38.5 -56t-56.5 -38t-68.5 -14q-60 0 -104.5 37.5t-65.5 91.5l-60 150h-573l-64 -156q-9 -27 -25.5 -49.5t-39 -39t-49.5 -25.5t-56 -9 q-36 0 -68 14t-56 38t-38 56t-14 68zM444 1896q0 56 20.5 104t56 84t83.5 56.5t103 20.5q57 0 105 -20.5t83.5 -56.5t55.5 -84t20 -104q0 -55 -20 -103.5t-55.5 -84.5t-83.5 -57t-105 -21q-55 0 -103 21t-83.5 57t-56 84.5t-20.5 103.5zM545 586h323l-161 401zM655 1896 q0 -21 15 -36t37 -15q21 0 36 15t15 36q0 22 -15 38t-36 16q-22 0 -37 -16t-15 -38z" />
<glyph unicode="&#xc6;" horiz-adv-x="1997" d="M10 176q0 19 3.5 39t11.5 37l510 1171q23 53 64 83t99 30h1092q35 0 65 -13t52.5 -35.5t35.5 -52.5t13 -65q0 -34 -13 -64.5t-35.5 -53t-52.5 -35.5t-65 -13h-526v-262h405q32 0 60 -12t49 -33t33 -49t12 -60q0 -31 -12 -59t-33 -49t-49 -33t-60 -12h-405v-303h526 q35 0 65 -13t52.5 -35.5t35.5 -52.5t13 -65q0 -34 -13 -64.5t-35.5 -53t-52.5 -35.5t-65 -13h-700q-40 0 -74.5 14t-59.5 38.5t-39 57.5t-14 70v99h-483l-64 -156q-9 -27 -25.5 -49.5t-39 -39t-49.5 -25.5t-56 -9q-36 0 -68 14t-56 38t-38 56t-14 68zM545 586h358v618h-108z " />
<glyph unicode="&#xc7;" horiz-adv-x="1554" d="M61 768q0 110 28.5 211t80.5 189.5t124.5 161t161 124.5t189.5 80.5t209 28.5q92 0 175.5 -17t157.5 -48.5t138.5 -76t118.5 -98.5q26 -28 42.5 -61.5t16.5 -75.5q0 -39 -14.5 -73.5t-39.5 -59.5t-59 -39.5t-73 -14.5q-45 0 -77.5 15t-60.5 38t-56.5 49.5t-64.5 49.5 t-85 38t-119 15q-90 0 -169 -34.5t-138 -93.5t-93 -138.5t-34 -169.5t34 -169.5t93 -138.5t138 -93.5t169 -34.5q70 0 119 15t85 38t64.5 49.5t56.5 49.5t60.5 38t77.5 15q39 0 73 -14.5t59 -39.5t39.5 -59.5t14.5 -73.5q0 -42 -16.5 -75.5t-42.5 -61.5 q-99 -100 -229.5 -162.5t-292.5 -73.5l-41 -100q40 -8 76 -24.5t63.5 -44.5t44 -67t16.5 -91q0 -54 -21 -99t-59.5 -77t-93 -50t-121.5 -18q-18 0 -44 2.5t-54.5 8t-57 15.5t-51.5 25t-37 35.5t-14 48.5q0 15 5.5 30t16.5 27t27 19.5t37 7.5q18 0 33.5 -4t29.5 -9t28.5 -9 t29.5 -4q35 0 56.5 14.5t21.5 36.5q0 20 -17 31.5t-38 11.5q-29 0 -52 -8.5t-49 -8.5q-24 0 -40.5 14t-16.5 40q0 11 3 22t9 25q23 49 52 102.5t55 106.5q-139 24 -259.5 93.5t-209 173.5t-139 236t-50.5 279z" />
<glyph unicode="&#xc8;" horiz-adv-x="1165" d="M82 180q0 -37 14 -70t39 -57.5t59 -38.5t74 -14h701q35 0 65 13t52.5 35.5t35.5 53t13 64.5q0 35 -13 65t-35.5 52.5t-52.5 35.5t-65 13h-527v303h406q32 0 59.5 12t48.5 33t33 49t12 59q0 32 -12 60t-33 49t-48.5 33t-59.5 12h-406v262h527q35 0 65 13t52.5 35.5 t35.5 53t13 64.5q0 35 -13 65t-35.5 52.5t-52.5 35.5t-65 13h-701q-41 0 -75.5 -14.5t-59 -39t-38 -57t-13.5 -69.5v-1176zM248 1976q0 31 11.5 55t30.5 41t42 26t45 9q31 0 60.5 -13t64.5 -48l174 -176q17 -17 27 -39.5t10 -54.5q0 -33 -12.5 -55.5t-31.5 -37t-41.5 -20.5 t-41.5 -6q-58 0 -92 33l-189 172q-18 15 -37.5 43t-19.5 71z" />
<glyph unicode="&#xc9;" horiz-adv-x="1186" d="M92 180v1176q0 37 13.5 69.5t38.5 57t59 39t76 14.5h700q35 0 65 -13t52.5 -35.5t35.5 -52.5t13 -65q0 -34 -13 -64.5t-35.5 -53t-52.5 -35.5t-65 -13h-526v-262h405q32 0 60 -12t49 -33t33 -49t12 -60q0 -31 -12 -59t-33 -49t-49 -33t-60 -12h-405v-303h526q35 0 65 -13 t52.5 -35.5t35.5 -52.5t13 -65q0 -34 -13 -64.5t-35.5 -53t-52.5 -35.5t-65 -13h-700q-40 0 -74.5 14t-59.5 38.5t-39 57.5t-14 70zM481 1776q0 32 10 54.5t27 39.5l174 176q35 35 64.5 48t60.5 13q23 0 45.5 -9t41.5 -26t30.5 -41t11.5 -55q0 -43 -19.5 -71t-37.5 -43 l-189 -172q-34 -33 -92 -33q-19 0 -41.5 6t-41.5 20.5t-31.5 37t-12.5 55.5z" />
<glyph unicode="&#xca;" horiz-adv-x="1165" d="M82 180q0 -37 14 -70t39 -57.5t59 -38.5t74 -14h701q35 0 65 13t52.5 35.5t35.5 53t13 64.5q0 35 -13 65t-35.5 52.5t-52.5 35.5t-65 13h-527v303h406q32 0 59.5 12t48.5 33t33 49t12 59q0 32 -12 60t-33 49t-48.5 33t-59.5 12h-406v262h527q35 0 65 13t52.5 35.5 t35.5 53t13 64.5q0 35 -13 65t-35.5 52.5t-52.5 35.5t-65 13h-701q-41 0 -75.5 -14.5t-59 -39t-38 -57t-13.5 -69.5v-1176zM248 1776q0 23 9 50t28 44l213 211q15 17 38.5 30t51.5 13t51 -13t39 -30l213 -211q18 -17 27.5 -44t9.5 -50q0 -33 -12.5 -56t-31.5 -37.5t-41 -21 t-40 -6.5q-28 0 -53 10t-43 27q-29 29 -59.5 60t-59.5 63q-29 -32 -59.5 -63t-59.5 -60q-19 -17 -43.5 -27t-52.5 -10q-18 0 -40 6.5t-41 21t-31.5 37.5t-12.5 56z" />
<glyph unicode="&#xcb;" horiz-adv-x="1165" d="M82 180v1176q0 37 13.5 69.5t38 57t59 39t75.5 14.5h701q35 0 65 -13t52.5 -35.5t35.5 -52.5t13 -65q0 -34 -13 -64.5t-35.5 -53t-52.5 -35.5t-65 -13h-527v-262h406q32 0 59.5 -12t48.5 -33t33 -49t12 -60q0 -31 -12 -59t-33 -49t-48.5 -33t-59.5 -12h-406v-303h527 q35 0 65 -13t52.5 -35.5t35.5 -52.5t13 -65q0 -34 -13 -64.5t-35.5 -53t-52.5 -35.5t-65 -13h-701q-40 0 -74 14t-59 38.5t-39 57.5t-14 70zM258 1858q0 32 12 59.5t32 47.5t47 32t57 12q32 0 59 -12t46.5 -32t30.5 -47.5t11 -59.5q0 -31 -11 -58t-30.5 -47t-46.5 -31.5 t-59 -11.5q-30 0 -57 11.5t-47 31.5t-32 47t-12 58zM614 1858q0 32 11 59.5t30.5 47.5t47 32t59.5 12q30 0 56.5 -12t47 -32t32 -47.5t11.5 -59.5q0 -31 -11.5 -58t-32 -47t-47 -31.5t-56.5 -11.5q-32 0 -59.5 11.5t-47 31.5t-30.5 47t-11 58z" />
<glyph unicode="&#xcc;" horiz-adv-x="524" d="M-59 1976q0 31 11.5 55t30.5 41t42 26t45 9q31 0 60 -13t65 -48l174 -176q17 -17 27 -39.5t10 -54.5q0 -33 -12.5 -55.5t-31.5 -37t-41.5 -20.5t-41.5 -6q-57 0 -93 33l-188 172q-19 15 -38 43t-19 71zM82 180q0 -37 14 -70t38.5 -57.5t57.5 -38.5t70 -14q38 0 70.5 14 t57 38.5t38.5 57.5t14 70v1176q0 38 -14 70.5t-38.5 57t-57 38.5t-70.5 14q-37 0 -70 -14t-57.5 -38.5t-38.5 -57t-14 -70.5v-1176z" />
<glyph unicode="&#xcd;" horiz-adv-x="524" d="M82 180v1176q0 38 14 70.5t38.5 57t57.5 38.5t70 14q38 0 70.5 -14t57 -38.5t38.5 -57t14 -70.5v-1176q0 -37 -14 -70t-38.5 -57.5t-57 -38.5t-70.5 -14q-37 0 -70 14t-57.5 38.5t-38.5 57.5t-14 70zM113 1776q0 32 10 54.5t27 39.5l174 176q35 35 64.5 48t60.5 13 q22 0 45 -9t41.5 -26t30.5 -41t12 -55q0 -43 -19.5 -71t-38.5 -43l-188 -172q-36 -33 -92 -33q-19 0 -41.5 6t-41.5 20.5t-31.5 37t-12.5 55.5z" />
<glyph unicode="&#xce;" horiz-adv-x="524" d="M-78 1776q0 23 9 50t28 44l213 211q16 17 39 30t51 13t51.5 -13t38.5 -30l213 -211q19 -17 28 -44t9 -50q0 -33 -12.5 -56t-31.5 -37.5t-41 -21t-40 -6.5q-28 0 -52.5 10t-43.5 27q-29 29 -59.5 60t-59.5 63q-29 -32 -59.5 -63t-59.5 -60q-18 -17 -43 -27t-53 -10 q-18 0 -40 6.5t-41 21t-31.5 37.5t-12.5 56zM82 180q0 -37 14 -70t38.5 -57.5t57.5 -38.5t70 -14q38 0 70.5 14t57 38.5t38.5 57.5t14 70v1176q0 38 -14 70.5t-38.5 57t-57 38.5t-70.5 14q-37 0 -70 -14t-57.5 -38.5t-38.5 -57t-14 -70.5v-1176z" />
<glyph unicode="&#xcf;" horiz-adv-x="524" d="M-63 1858q0 32 11.5 59.5t32 47.5t47 32t56.5 12q32 0 59 -12t46.5 -32t30.5 -47.5t11 -59.5q0 -31 -11 -58t-30.5 -47t-46.5 -31.5t-59 -11.5q-30 0 -56.5 11.5t-47 31.5t-32 47t-11.5 58zM82 180v1176q0 38 14 70.5t38.5 57t57.5 38.5t70 14q38 0 70.5 -14t57 -38.5 t38.5 -57t14 -70.5v-1176q0 -37 -14 -70t-38.5 -57.5t-57 -38.5t-70.5 -14q-37 0 -70 14t-57.5 38.5t-38.5 57.5t-14 70zM293 1858q0 32 11 59.5t30.5 47.5t46.5 32t59 12q30 0 57 -12t47 -32t32 -47.5t12 -59.5q0 -31 -12 -58t-32 -47t-47 -31.5t-57 -11.5q-32 0 -59 11.5 t-46.5 31.5t-30.5 47t-11 58z" />
<glyph unicode="&#xd0;" horiz-adv-x="1536" d="M-119 770q0 32 12.5 60.5t33.5 49.5t49.5 33.5t60.5 12.5h55v430q0 38 14 70.5t38.5 57t57.5 38.5t70 14h480q103 0 196.5 -27.5t173.5 -77.5t145.5 -120t111.5 -156t71 -184t25 -205q0 -106 -25 -204.5t-71 -183.5t-111.5 -154.5t-145.5 -119.5t-173.5 -77t-196.5 -27 h-480q-37 0 -70 14t-57.5 38.5t-38.5 57.5t-14 70v434h-55q-32 0 -60.5 12.5t-49.5 33.5t-33.5 49.5t-12.5 60.5zM453 332h254q87 0 161.5 35t129 94.5t85.5 138t31 166.5q0 87 -31 166.5t-85.5 140t-129 96t-161.5 35.5h-254v-278h122q33 0 61.5 -12.5t49.5 -33.5t33 -49.5 t12 -60.5t-12 -60.5t-33 -49.5t-49.5 -33.5t-61.5 -12.5h-122v-282z" />
<glyph unicode="&#xd1;" horiz-adv-x="1489" d="M92 180v1176q0 38 14 70.5t38.5 57t57.5 38.5t70 14q47 0 85 -21t63 -55l616 -813v709q0 38 14 70.5t38.5 57t57.5 38.5t71 14t70.5 -14t57 -38.5t38.5 -57t14 -70.5v-1176q0 -37 -14 -70t-38.5 -57.5t-57 -38.5t-70.5 -14q-48 0 -86.5 23t-67.5 61l-610 807v-711 q0 -37 -14 -70t-38.5 -57.5t-57.5 -38.5t-71 -14q-37 0 -70 14t-57.5 38.5t-38.5 57.5t-14 70zM381 1862q0 37 17.5 67.5t46 53t64 35t71.5 12.5q42 0 70.5 -9.5t53.5 -20.5t51.5 -20.5t63.5 -9.5q16 0 30.5 8.5t29.5 18t32 18t39 8.5q29 0 52 -10.5t40 -29t26 -44t9 -55.5 q0 -37 -17 -68t-45.5 -52.5t-65 -33.5t-75.5 -12q-25 0 -55 9t-61 19.5t-61 19t-56 8.5q-18 0 -34.5 -8t-33 -18t-33 -18t-34.5 -8q-29 0 -52.5 11t-39.5 30.5t-24.5 45t-8.5 53.5z" />
<glyph unicode="&#xd2;" horiz-adv-x="1690" d="M51 768q0 -109 28.5 -210.5t80 -190t124.5 -161t161 -124.5t189 -80.5t210 -28.5q110 0 211 28.5t189.5 80.5t161 124.5t124 161t80 190t28.5 210.5q0 110 -28.5 211t-80 189.5t-124 161t-161 124.5t-190 80.5t-210.5 28.5t-210 -28.5t-189 -80.5t-161 -124.5 t-124.5 -161t-80 -189.5t-28.5 -211zM410 768q0 90 34 169.5t93 138.5t138 93.5t169 34.5t169.5 -34.5t139 -93.5t93.5 -138.5t34 -169.5t-34 -169.5t-93.5 -138.5t-139 -93.5t-169.5 -34.5t-169 34.5t-138 93.5t-93 138.5t-34 169.5zM508 1976q0 31 12 55t30.5 41t41.5 26 t45 9q31 0 60.5 -13t64.5 -48l174 -176q17 -17 27 -39.5t10 -54.5q0 -33 -12.5 -55.5t-31.5 -37t-41.5 -20.5t-41.5 -6q-58 0 -92 33l-189 172q-18 15 -37.5 43t-19.5 71z" />
<glyph unicode="&#xd3;" horiz-adv-x="1690" d="M51 768q0 110 28.5 211t80 189.5t124.5 161t161 124.5t189 80.5t210 28.5t210.5 -28.5t190 -80.5t161 -124.5t124 -161t80 -189.5t28.5 -211q0 -109 -28.5 -210.5t-80 -190t-124 -161t-161 -124.5t-189.5 -80.5t-211 -28.5q-109 0 -210 28.5t-189 80.5t-161 124.5 t-124.5 161t-80 190t-28.5 210.5zM410 768q0 -90 34 -169.5t93 -138.5t138 -93.5t169 -34.5t169.5 34.5t139 93.5t93.5 138.5t34 169.5t-34 169.5t-93.5 138.5t-139 93.5t-169.5 34.5t-169 -34.5t-138 -93.5t-93 -138.5t-34 -169.5zM717 1776q0 32 10 54.5t27 39.5l174 176 q35 35 64.5 48t60.5 13q22 0 45 -9t41.5 -26t30.5 -41t12 -55q0 -43 -19.5 -71t-38.5 -43l-188 -172q-36 -33 -92 -33q-19 0 -41.5 6t-41.5 20.5t-31.5 37t-12.5 55.5z" />
<glyph unicode="&#xd4;" horiz-adv-x="1690" d="M51 768q0 -109 28.5 -210.5t80 -190t124.5 -161t161 -124.5t189 -80.5t210 -28.5q110 0 211 28.5t189.5 80.5t161 124.5t124 161t80 190t28.5 210.5q0 110 -28.5 211t-80 189.5t-124 161t-161 124.5t-190 80.5t-210.5 28.5t-210 -28.5t-189 -80.5t-161 -124.5 t-124.5 -161t-80 -189.5t-28.5 -211zM410 768q0 90 34 169.5t93 138.5t138 93.5t169 34.5t169.5 -34.5t139 -93.5t93.5 -138.5t34 -169.5t-34 -169.5t-93.5 -138.5t-139 -93.5t-169.5 -34.5t-169 34.5t-138 93.5t-93 138.5t-34 169.5zM504 1776q0 23 9 50t28 44l213 211 q15 17 38.5 30t51.5 13t51 -13t39 -30l213 -211q18 -17 27.5 -44t9.5 -50q0 -33 -12.5 -56t-31.5 -37.5t-41 -21t-40 -6.5q-28 0 -53 10t-43 27q-29 29 -59.5 60t-59.5 63q-29 -32 -59.5 -63t-59.5 -60q-19 -17 -43.5 -27t-52.5 -10q-18 0 -40 6.5t-41 21t-31.5 37.5 t-12.5 56z" />
<glyph unicode="&#xd5;" horiz-adv-x="1710" d="M61 768q0 110 28.5 211t80 189.5t124.5 161t161 124.5t189 80.5t210 28.5q110 0 211 -28.5t189.5 -80.5t161 -124.5t124.5 -161t80.5 -189.5t28.5 -211q0 -109 -28.5 -210.5t-80.5 -190t-124.5 -161t-161 -124.5t-189.5 -80.5t-211 -28.5q-109 0 -210 28.5t-189 80.5 t-161 124.5t-124.5 161t-80 190t-28.5 210.5zM420 768q0 -90 34 -169.5t93 -138.5t138 -93.5t169 -34.5q91 0 170.5 34.5t138.5 93.5t93 138.5t34 169.5t-34 169.5t-93 138.5t-138.5 93.5t-170.5 34.5q-90 0 -169 -34.5t-138 -93.5t-93 -138.5t-34 -169.5zM504 1862 q0 37 17.5 67.5t46 53t64 35t70.5 12.5q42 0 71 -9.5t54 -20.5t51.5 -20.5t63.5 -9.5q16 0 30.5 8.5t29.5 18t32 18t39 8.5q29 0 52 -10.5t40 -29t26 -44t9 -55.5q0 -37 -17 -68t-45.5 -52.5t-65 -33.5t-75.5 -12q-25 0 -55 9t-61.5 19.5t-61.5 19t-55 8.5q-18 0 -34.5 -8 t-33 -18t-33 -18t-34.5 -8q-29 0 -52.5 11t-39.5 30.5t-24.5 45t-8.5 53.5z" />
<glyph unicode="&#xd6;" horiz-adv-x="1710" d="M61 768q0 110 28.5 211t80 189.5t124.5 161t161 124.5t189 80.5t210 28.5q110 0 211 -28.5t189.5 -80.5t161 -124.5t124.5 -161t80.5 -189.5t28.5 -211q0 -109 -28.5 -210.5t-80.5 -190t-124.5 -161t-161 -124.5t-189.5 -80.5t-211 -28.5q-109 0 -210 28.5t-189 80.5 t-161 124.5t-124.5 161t-80 190t-28.5 210.5zM420 768q0 -90 34 -169.5t93 -138.5t138 -93.5t169 -34.5q91 0 170.5 34.5t138.5 93.5t93 138.5t34 169.5t-34 169.5t-93 138.5t-138.5 93.5t-170.5 34.5q-90 0 -169 -34.5t-138 -93.5t-93 -138.5t-34 -169.5zM528 1858 q0 32 12 59.5t32 47.5t47 32t57 12q32 0 59 -12t46.5 -32t30.5 -47.5t11 -59.5q0 -31 -11 -58t-30.5 -47t-46.5 -31.5t-59 -11.5q-30 0 -57 11.5t-47 31.5t-32 47t-12 58zM885 1858q0 32 11 59.5t30.5 47.5t46.5 32t59 12q30 0 57 -12t47 -32t32 -47.5t12 -59.5 q0 -31 -12 -58t-32 -47t-47 -31.5t-57 -11.5q-32 0 -59 11.5t-46.5 31.5t-30.5 47t-11 58z" />
<glyph unicode="&#xd7;" horiz-adv-x="805" d="M51 522q0 22 7.5 49t29.5 47l127 125l-127 127q-19 19 -28 43t-9 50q0 18 6.5 41t22.5 43.5t41.5 34.5t62.5 14q55 0 92 -37l127 -127l125 127q19 18 43.5 27.5t49.5 9.5q29 0 53.5 -11t42 -29.5t27.5 -42.5t10 -50q0 -51 -37 -93l-125 -127l125 -125q21 -21 29 -45.5 t8 -50.5q0 -20 -8 -42.5t-24 -42t-40.5 -32t-58.5 -12.5q-26 0 -50.5 7.5t-46.5 29.5l-123 123l-124 -123q-22 -20 -45.5 -28.5t-51.5 -8.5q-16 0 -38.5 6t-43 20.5t-35 39.5t-14.5 63z" />
<glyph unicode="&#xd8;" horiz-adv-x="1710" d="M61 768q0 110 28.5 211t80 189.5t124.5 161t161 124.5t189 80.5t210 28.5q93 0 178.5 -20.5t163.5 -57.5l59 86q16 23 39 37.5t49.5 19t53.5 -1t51 -22.5q22 -15 36 -38t18.5 -49t-1 -53t-20.5 -51l-62 -88q107 -108 168.5 -250.5t61.5 -306.5q0 -109 -28.5 -210.5 t-80.5 -190t-124.5 -161t-161 -124.5t-189.5 -80.5t-211 -28.5q-90 0 -173 19.5t-161 54.5l-57 -84q-16 -23 -39 -37.5t-49.5 -19t-53.5 1t-51 22.5q-22 15 -35.5 38t-18 49t1 53t20.5 51l57 84q-54 54 -97 117.5t-73.5 135t-47 149.5t-16.5 161zM420 768q0 -74 23 -141 t65 -121l475 678q-31 9 -63 14.5t-66 5.5q-90 0 -169 -34.5t-138 -93.5t-93 -138.5t-34 -169.5zM733 348q28 -8 58.5 -12t62.5 -4q91 0 170.5 34.5t138.5 93.5t93 138.5t34 169.5q0 71 -21.5 136.5t-62.5 119.5z" />
<glyph unicode="&#xd9;" horiz-adv-x="1417" d="M82 600q0 -86 22.5 -166.5t63 -150t98 -126.5t127 -98t149.5 -63.5t167 -22.5t167 22.5t149.5 63.5t126.5 98t97.5 126.5t63 150t22.5 166.5v756q0 38 -14 70.5t-38.5 57t-57 38.5t-70.5 14q-37 0 -70 -14t-57.5 -38.5t-38.5 -57t-14 -70.5v-758q0 -55 -21 -105 t-57 -87.5t-84.5 -59.5t-103.5 -22t-104 22t-85 59.5t-57 87.5t-21 105v758q0 38 -14 70.5t-38.5 57t-57 38.5t-70.5 14q-37 0 -70 -14t-57.5 -38.5t-38.5 -57t-14 -70.5v-756zM346 1976q0 31 12 55t30.5 41t41.5 26t45 9q31 0 60.5 -13t64.5 -48l174 -176q17 -17 27 -39.5 t10 -54.5q0 -33 -12.5 -55.5t-31.5 -37t-41.5 -20.5t-41.5 -6q-58 0 -92 33l-189 172q-18 15 -37.5 43t-19.5 71z" />
<glyph unicode="&#xda;" horiz-adv-x="1417" d="M82 600v756q0 38 14 70.5t38.5 57t57.5 38.5t70 14q38 0 70.5 -14t57 -38.5t38.5 -57t14 -70.5v-758q0 -55 21 -105t57 -87.5t85 -59.5t104 -22t103.5 22t84.5 59.5t57 87.5t21 105v758q0 38 14 70.5t38.5 57t57.5 38.5t70 14q38 0 70.5 -14t57 -38.5t38.5 -57t14 -70.5 v-756q0 -86 -22.5 -166.5t-63 -150t-97.5 -126.5t-126.5 -98t-149.5 -63.5t-167 -22.5t-167 22.5t-149.5 63.5t-127 98t-98 126.5t-63 150t-22.5 166.5zM559 1776q0 32 10 54.5t27 39.5l174 176q35 35 64.5 48t60.5 13q22 0 45 -9t41.5 -26t30.5 -41t12 -55q0 -43 -19.5 -71 t-37.5 -43l-189 -172q-34 -33 -92 -33q-19 0 -41.5 6t-41.5 20.5t-31.5 37t-12.5 55.5z" />
<glyph unicode="&#xdb;" horiz-adv-x="1417" d="M82 600q0 -86 22.5 -166.5t63 -150t98 -126.5t127 -98t149.5 -63.5t167 -22.5t167 22.5t149.5 63.5t126.5 98t97.5 126.5t63 150t22.5 166.5v756q0 38 -14 70.5t-38.5 57t-57 38.5t-70.5 14q-37 0 -70 -14t-57.5 -38.5t-38.5 -57t-14 -70.5v-758q0 -55 -21 -105 t-57 -87.5t-84.5 -59.5t-103.5 -22t-104 22t-85 59.5t-57 87.5t-21 105v758q0 38 -14 70.5t-38.5 57t-57 38.5t-70.5 14q-37 0 -70 -14t-57.5 -38.5t-38.5 -57t-14 -70.5v-756zM365 1776q0 23 9 50t27 44l213 211q16 17 39.5 30t51.5 13q27 0 50.5 -13t39.5 -30l213 -211 q18 -17 27 -44t9 -50q0 -33 -12.5 -56t-31 -37.5t-40.5 -21t-40 -6.5q-28 0 -53 10t-44 27q-29 29 -59 60t-59 63q-29 -32 -59.5 -63t-59.5 -60q-19 -17 -44 -27t-53 -10q-18 0 -40 6.5t-40.5 21t-31 37.5t-12.5 56z" />
<glyph unicode="&#xdc;" horiz-adv-x="1438" d="M92 600v756q0 38 14 70.5t38.5 57t57.5 38.5t70 14q38 0 71 -14t57.5 -38.5t38.5 -57t14 -70.5v-758q0 -55 21 -105t57 -87.5t84.5 -59.5t103.5 -22t103.5 22t84.5 59.5t57 87.5t21 105v758q0 38 14 70.5t38.5 57t57.5 38.5t70 14q38 0 71 -14t57.5 -38.5t38.5 -57 t14 -70.5v-756q0 -130 -49.5 -244t-134.5 -199t-199 -134.5t-244 -49.5t-244 49.5t-199 134.5t-134.5 199t-49.5 244zM389 1858q0 32 12 59.5t32 47.5t47 32t57 12q32 0 59 -12t46.5 -32t30.5 -47.5t11 -59.5q0 -31 -11 -58t-30.5 -47t-46.5 -31.5t-59 -11.5q-30 0 -57 11.5 t-47 31.5t-32 47t-12 58zM745 1858q0 32 11 59.5t30.5 47.5t47 32t59.5 12q30 0 56.5 -12t47 -32t32 -47.5t11.5 -59.5q0 -31 -11.5 -58t-32 -47t-47 -31.5t-56.5 -11.5q-32 0 -59.5 11.5t-47 31.5t-30.5 47t-11 58z" />
<glyph unicode="&#xdd;" d="M10 1358q0 38 13.5 70.5t37.5 56.5t56 37.5t69 13.5q51 0 90.5 -27t67.5 -65l305 -438l314 452q24 35 62.5 56.5t84.5 21.5q38 0 70.5 -13.5t56.5 -37.5t37.5 -56.5t13.5 -70.5q0 -60 -31 -103l-426 -612v-463q0 -37 -14 -70t-38 -57.5t-57 -38.5t-71 -14q-37 0 -70 14 t-57.5 38.5t-38.5 57.5t-14 70v459l-422 606q-18 26 -28.5 54t-10.5 59zM526 1776q0 32 10 54.5t27 39.5l174 176q35 35 64.5 48t60.5 13q23 0 45.5 -9t41.5 -26t30.5 -41t11.5 -55q0 -43 -19.5 -71t-37.5 -43l-189 -172q-34 -33 -92 -33q-19 0 -41.5 6t-41.5 20.5t-31.5 37 t-12.5 55.5z" />
<glyph unicode="&#xde;" horiz-adv-x="1278" d="M92 180v1176q0 38 14 70.5t38.5 57t57.5 38.5t70 14q38 0 71 -14t57.5 -38.5t38.5 -57t14 -70.5v-25h202q114 0 214 -35t175 -101t118.5 -160.5t43.5 -213.5t-43.5 -213.5t-118.5 -160.5t-175 -101t-214 -35h-202v-131q0 -37 -14 -70t-38.5 -57.5t-57.5 -38.5t-71 -14 q-37 0 -70 14t-57.5 38.5t-38.5 57.5t-14 70zM453 643h178q45 0 84.5 11t68.5 33t45.5 55.5t16.5 78.5t-16.5 78.5t-45.5 55.5t-68.5 33t-84.5 11h-178v-356z" />
<glyph unicode="&#xdf;" horiz-adv-x="1212" d="M82 162v913q0 54 7.5 110t26 108.5t49.5 99t78 81t112 54.5t151 20q120 0 206.5 -30.5t142.5 -79t83 -109t27 -121.5q0 -49 -18 -90.5t-45 -76.5t-59 -63.5t-59 -52t-45 -42t-18 -33.5q0 -28 33.5 -52.5t83.5 -51.5t108 -60t108 -77t83.5 -102.5t33.5 -137.5 q0 -94 -34 -165t-90 -119t-127 -72.5t-146 -24.5q-93 0 -158.5 23t-109 59.5t-68.5 81.5t-37 88v-88q-2 -33 -15.5 -61t-35.5 -48.5t-49.5 -31.5t-58.5 -11q-32 0 -61 12.5t-51 34t-35 51.5t-13 64zM401 426q17 34 47.5 54t67.5 20q75 0 107 -34.5t39 -107.5q2 -22 6 -42.5 t14 -36.5t28.5 -25.5t49.5 -9.5q28 0 46.5 10t30 27t16.5 40t5 48q0 37 -18.5 65.5t-48.5 51.5t-68.5 43.5t-78.5 42.5t-78.5 47t-68.5 57.5t-48.5 74.5t-18.5 97q0 40 16.5 71.5t41 57t53 48.5t53 46.5t41 50t16.5 60.5q0 20 -8.5 38t-24.5 32t-38 22t-48 8q-28 0 -52 -8 t-41.5 -30.5t-27.5 -63.5t-10 -107v-647z" />
<glyph unicode="&#xe0;" d="M51 573q0 -124 44 -229t117 -181.5t168.5 -119.5t197.5 -43q77 0 137 18.5t102 40.5q49 26 86 58q16 -51 58 -84t96 -33q33 0 62 12.5t51 34.5t34.5 51t12.5 62v827q0 33 -12.5 62t-34.5 51t-51 34.5t-62 12.5q-54 0 -96 -33t-58 -84q-37 33 -86 59q-42 22 -102 40 t-137 18q-102 0 -197.5 -42.5t-168.5 -119t-117 -182t-44 -230.5zM291 1567q0 31 11.5 55t30.5 41t42 26t45 9q31 0 60.5 -13.5t64.5 -48.5l174 -176q17 -17 27 -39.5t10 -54.5q0 -33 -12.5 -55.5t-31.5 -37t-41.5 -20.5t-41.5 -6q-58 0 -92 33l-189 172q-9 8 -19 18.5 t-18.5 25t-14 32t-5.5 39.5zM371 573q0 55 20.5 103t56 84t83 57t102.5 21q54 0 102 -21t84 -57t57 -84t21 -103q0 -54 -21 -102t-57 -84t-84 -57t-102 -21q-55 0 -102.5 21t-83 57t-56 84t-20.5 102z" />
<glyph unicode="&#xe1;" d="M51 573q0 125 44 230.5t117 182t168.5 119t197.5 42.5q77 0 137 -18t102 -40q49 -26 86 -59q16 51 58 84t96 33q33 0 62 -12.5t51 -34.5t34.5 -51t12.5 -62v-827q0 -33 -12.5 -62t-34.5 -51t-51 -34.5t-62 -12.5q-54 0 -96 33t-58 84q-37 -32 -86 -58q-42 -22 -102 -40.5 t-137 -18.5q-102 0 -197.5 43t-168.5 119.5t-117 181.5t-44 229zM371 573q0 -54 20.5 -102t56 -84t83 -57t102.5 -21q54 0 102 21t84 57t57 84t21 102q0 55 -21 103t-57 84t-84 57t-102 21q-55 0 -102.5 -21t-83 -57t-56 -84t-20.5 -103zM512 1366q0 32 10 54.5t27 39.5 l174 176q35 35 64.5 48.5t60.5 13.5q22 0 45 -9t41.5 -26t30.5 -41t12 -55q0 -22 -5.5 -39.5t-14 -32t-18.5 -25t-19 -18.5l-189 -172q-34 -33 -92 -33q-19 0 -41.5 6t-41.5 20.5t-31.5 37t-12.5 55.5z" />
<glyph unicode="&#xe2;" d="M51 573q0 -124 44 -229t117 -181.5t168.5 -119.5t197.5 -43q77 0 137 18.5t102 40.5q49 26 86 58q16 -51 58 -84t96 -33q33 0 62 12.5t51 34.5t34.5 51t12.5 62v827q0 33 -12.5 62t-34.5 51t-51 34.5t-62 12.5q-54 0 -96 -33t-58 -84q-37 33 -86 59q-42 22 -102 40 t-137 18q-102 0 -197.5 -42.5t-168.5 -119t-117 -182t-44 -230.5zM293 1366q0 23 9 50t28 44l213 211q15 17 38.5 30t51.5 13t51 -13t39 -30l213 -211q19 -17 28 -44t9 -50q0 -33 -12.5 -56t-31.5 -37.5t-41 -21t-40 -6.5q-28 0 -53 10t-43 27q-29 29 -59.5 60t-59.5 63 q-29 -32 -59.5 -63t-59.5 -60q-19 -17 -43.5 -27t-52.5 -10q-18 0 -40 6.5t-41 21t-31.5 37.5t-12.5 56zM371 573q0 55 20.5 103t56 84t83 57t102.5 21q54 0 102 -21t84 -57t57 -84t21 -103q0 -54 -21 -102t-57 -84t-84 -57t-102 -21q-55 0 -102.5 21t-83 57t-56 84 t-20.5 102z" />
<glyph unicode="&#xe3;" d="M51 573q0 125 44 230.5t117 182t168.5 119t197.5 42.5q77 0 137 -18t102 -40q49 -26 86 -59q16 51 58 84t96 33q33 0 62 -12.5t51 -34.5t34.5 -51t12.5 -62v-827q0 -33 -12.5 -62t-34.5 -51t-51 -34.5t-62 -12.5q-54 0 -96 33t-58 84q-37 -32 -86 -58q-42 -22 -102 -40.5 t-137 -18.5q-102 0 -197.5 43t-168.5 119.5t-117 181.5t-44 229zM281 1452q0 37 17.5 67.5t46 53t64 35t70.5 12.5q42 0 71 -9t53.5 -20.5t51 -20.5t64.5 -9q16 0 30.5 8.5t29.5 18t32 18t39 8.5q29 0 52 -10.5t40 -29.5t26 -44t9 -55q0 -38 -17 -68.5t-45.5 -52.5 t-65 -33.5t-75.5 -11.5q-25 0 -55 8.5t-61.5 19t-61.5 19t-55 8.5q-18 0 -34.5 -8t-33 -17.5t-33 -17.5t-34.5 -8q-29 0 -52.5 11t-39.5 30t-24.5 44.5t-8.5 53.5zM371 573q0 -54 20.5 -102t56 -84t83 -57t102.5 -21q54 0 102 21t84 57t57 84t21 102q0 55 -21 103t-57 84 t-84 57t-102 21q-55 0 -102.5 -21t-83 -57t-56 -84t-20.5 -103z" />
<glyph unicode="&#xe4;" d="M51 573q0 125 44 230.5t117 182t168.5 119t197.5 42.5q77 0 137 -18t102 -40q49 -26 86 -59q16 51 58 84t96 33q33 0 62 -12.5t51 -34.5t34.5 -51t12.5 -62v-827q0 -33 -12.5 -62t-34.5 -51t-51 -34.5t-62 -12.5q-54 0 -96 33t-58 84q-37 -32 -86 -58q-42 -22 -102 -40.5 t-137 -18.5q-102 0 -197.5 43t-168.5 119.5t-117 181.5t-44 229zM305 1448q0 32 12 59.5t32 47.5t47 32t57 12q32 0 59 -12t46.5 -32t30.5 -47.5t11 -59.5q0 -31 -11 -58t-30.5 -47t-46.5 -31.5t-59 -11.5q-30 0 -57 11.5t-47 31.5t-32 47t-12 58zM371 573q0 -54 20.5 -102 t56 -84t83 -57t102.5 -21q54 0 102 21t84 57t57 84t21 102q0 55 -21 103t-57 84t-84 57t-102 21q-55 0 -102.5 -21t-83 -57t-56 -84t-20.5 -103zM662 1448q0 32 11 59.5t30.5 47.5t46.5 32t59 12q30 0 56.5 -12t47 -32t32 -47.5t11.5 -59.5q0 -31 -11.5 -58t-32 -47 t-47 -31.5t-56.5 -11.5q-32 0 -59 11.5t-46.5 31.5t-30.5 47t-11 58z" />
<glyph unicode="&#xe5;" d="M51 573q0 125 44 230.5t117 182t168.5 119t197.5 42.5q77 0 137 -18t102 -40q49 -26 86 -59q16 51 58 84t96 33q33 0 62 -12.5t51 -34.5t34.5 -51t12.5 -62v-827q0 -33 -12.5 -62t-34.5 -51t-51 -34.5t-62 -12.5q-54 0 -96 33t-58 84q-37 -32 -86 -58q-42 -22 -102 -40.5 t-137 -18.5q-102 0 -197.5 43t-168.5 119.5t-117 181.5t-44 229zM365 1487q0 55 20.5 103t56 84t83 56.5t102.5 20.5q57 0 105 -20.5t83.5 -56.5t55.5 -84t20 -103t-20 -103.5t-55.5 -84.5t-83.5 -57t-105 -21q-55 0 -102.5 21t-83 57t-56 84.5t-20.5 103.5zM371 573 q0 -54 20.5 -102t56 -84t83 -57t102.5 -21q54 0 102 21t84 57t57 84t21 102q0 55 -21 103t-57 84t-84 57t-102 21q-55 0 -102.5 -21t-83 -57t-56 -84t-20.5 -103zM575 1487q0 -22 15 -36.5t37 -14.5q21 0 36 14.5t15 36.5t-15 37.5t-36 15.5q-22 0 -37 -15.5t-15 -37.5z" />
<glyph unicode="&#xe6;" horiz-adv-x="2034" d="M51 573q0 125 44 230.5t117 182t168.5 119t197.5 42.5q77 0 137 -18t102 -40q49 -26 86 -59q16 51 58 84t96 33q40 0 73.5 -18.5t55.5 -47.5q65 37 139 57.5t158 20.5q62 0 124 -13t118.5 -37t105.5 -59t85 -79t56.5 -96.5t20.5 -112.5q0 -51 -24 -89t-71 -57l-600 -251 q21 -19 48 -35q23 -14 57.5 -24.5t79.5 -10.5q46 0 79 8t58.5 20t45 26t38.5 26t39 20t47 8q35 0 63 -12.5t48.5 -34t31.5 -50t11 -60.5q0 -37 -20.5 -71t-55.5 -62.5t-81 -51.5t-97.5 -39.5t-104.5 -25t-102 -8.5q-168 0 -297 78q-22 -31 -55.5 -48.5t-73.5 -17.5 q-54 0 -96 33t-58 84q-37 -32 -86 -58q-42 -22 -102 -40.5t-137 -18.5q-102 0 -197.5 43t-168.5 119.5t-117 181.5t-44 229zM371 573q0 -54 20.5 -102t56 -84t83 -57t102.5 -21q54 0 102 21t84 57t57 84t21 102q0 55 -21 103t-57 84t-84 57t-102 21q-55 0 -102.5 -21 t-83 -57t-56 -84t-20.5 -103zM1204 590l455 192q-16 19 -42 35q-22 14 -54.5 24.5t-79.5 10.5q-59 0 -109.5 -23t-87.5 -60.5t-58.5 -84t-23.5 -94.5z" />
<glyph unicode="&#xe7;" horiz-adv-x="1137" d="M51 573q0 129 46 237t125.5 185.5t186.5 120.5t228 43q78 0 159 -21t148 -58.5t109.5 -89t42.5 -111.5q0 -31 -12.5 -57.5t-34 -46t-49.5 -31t-60 -11.5q-29 0 -51.5 9t-42 22t-39.5 28.5t-44 28.5t-54 22t-72 9q-58 0 -108.5 -22t-88.5 -60t-60 -88.5t-22 -108.5 q0 -57 22 -108t60 -88.5t88.5 -59.5t108.5 -22q46 0 78.5 8t57 19.5t43.5 25.5t38 25.5t40.5 19.5t51.5 8q32 0 59 -9.5t47.5 -28.5t32 -45.5t11.5 -61.5q0 -60 -35 -106.5t-91.5 -79.5t-126 -52.5t-138.5 -25.5l-41 -101q40 -8 76 -24.5t63.5 -44.5t44 -67t16.5 -91 q0 -54 -21 -98.5t-59.5 -77t-93 -50.5t-121.5 -18q-18 0 -44 2.5t-54.5 8t-57 15.5t-51.5 25.5t-37 36t-14 48.5q0 15 5.5 30t16.5 27t27 19.5t37 7.5q18 0 33 -4t29.5 -9.5t29 -9.5t29.5 -4q35 0 56.5 14.5t21.5 36.5q0 20 -17 31.5t-38 11.5q-29 0 -52 -8t-49 -8 q-24 0 -40.5 13.5t-16.5 39.5q0 20 12 47q25 51 54 104.5t55 106.5q-97 21 -180 71.5t-144 124.5t-95 169.5t-34 205.5z" />
<glyph unicode="&#xe8;" horiz-adv-x="1188" d="M51 573q0 -128 46 -235.5t125.5 -185t186.5 -121t228 -43.5q49 0 102.5 8.5t104.5 25t97 39.5t81 51.5t55.5 62.5t20.5 71q0 32 -11 60.5t-31.5 50t-48.5 34t-63 12.5q-26 0 -46.5 -8t-39.5 -20t-38.5 -26t-44.5 -26t-58.5 -20t-79.5 -8q-45 0 -79.5 10.5t-57.5 24.5 q-27 16 -47 35l600 251q46 19 70 57t24 89q0 60 -20.5 112.5t-56.5 96.5t-85 79t-105.5 59t-118.5 37t-124 13q-121 0 -227.5 -43t-186 -120.5t-126 -185.5t-46.5 -237zM276 1567q0 31 12 55t30.5 41t42 26t45.5 9q30 0 59.5 -13.5t64.5 -48.5l175 -176q17 -17 26.5 -39.5 t9.5 -54.5q0 -33 -12.5 -55.5t-31.5 -37t-41 -20.5t-42 -6q-56 0 -92 33l-188 172q-19 16 -38.5 44t-19.5 71zM358 590q2 48 23.5 94.5t58.5 84t87.5 60.5t109.5 23q47 0 79.5 -10.5t54.5 -24.5q26 -16 42 -35z" />
<glyph unicode="&#xe9;" horiz-adv-x="1188" d="M51 573q0 129 46.5 237t126 185.5t186 120.5t227.5 43q62 0 124 -13t118.5 -37t105.5 -59t85 -79t56.5 -96.5t20.5 -112.5q0 -51 -24 -89t-70 -57l-600 -251q20 -19 47 -35q23 -14 57.5 -24.5t79.5 -10.5q46 0 79.5 8t58.5 20t44.5 26t38.5 26t39.5 20t46.5 8 q35 0 63 -12.5t48.5 -34t31.5 -50t11 -60.5q0 -37 -20.5 -71t-55.5 -62.5t-81 -51.5t-97 -39.5t-104.5 -25t-102.5 -8.5q-121 0 -228 43.5t-186.5 121t-125.5 185t-46 235.5zM358 590l455 192q-16 19 -42 35q-22 14 -54.5 24.5t-79.5 10.5q-59 0 -109.5 -23t-87.5 -60.5 t-58.5 -84t-23.5 -94.5zM479 1366q0 32 10 54.5t27 39.5l174 176q35 35 64.5 48.5t60.5 13.5q22 0 45 -9t41.5 -26t30.5 -41t12 -55q0 -22 -5.5 -39.5t-14 -32t-18.5 -25t-19 -18.5l-189 -172q-34 -33 -92 -33q-19 0 -41.5 6t-41.5 20.5t-31.5 37t-12.5 55.5z" />
<glyph unicode="&#xea;" horiz-adv-x="1188" d="M51 573q0 -128 46 -235.5t125.5 -185t186.5 -121t228 -43.5q49 0 102.5 8.5t104.5 25t97 39.5t81 51.5t55.5 62.5t20.5 71q0 32 -11 60.5t-31.5 50t-48.5 34t-63 12.5q-26 0 -46.5 -8t-39.5 -20t-38.5 -26t-44.5 -26t-58.5 -20t-79.5 -8q-45 0 -79.5 10.5t-57.5 24.5 q-27 16 -47 35l600 251q46 19 70 57t24 89q0 60 -20.5 112.5t-56.5 96.5t-85 79t-105.5 59t-118.5 37t-124 13q-121 0 -227.5 -43t-186 -120.5t-126 -185.5t-46.5 -237zM258 1366q0 23 9 50t28 44l213 211q15 17 38.5 30t51.5 13t51.5 -13t38.5 -30l213 -211q19 -17 28 -44 t9 -50q0 -33 -12.5 -56t-31.5 -37.5t-41 -21t-40 -6.5q-28 0 -53 10t-43 27q-29 29 -59.5 60t-59.5 63q-29 -32 -59.5 -63t-59.5 -60q-18 -17 -43 -27t-53 -10q-18 0 -40 6.5t-41 21t-31.5 37.5t-12.5 56zM358 590q2 48 23.5 94.5t58.5 84t87.5 60.5t109.5 23 q47 0 79.5 -10.5t54.5 -24.5q26 -16 42 -35z" />
<glyph unicode="&#xeb;" horiz-adv-x="1188" d="M51 573q0 129 46.5 237t126 185.5t186 120.5t227.5 43q62 0 124 -13t118.5 -37t105.5 -59t85 -79t56.5 -96.5t20.5 -112.5q0 -51 -24 -89t-70 -57l-600 -251q20 -19 47 -35q23 -14 57.5 -24.5t79.5 -10.5q46 0 79.5 8t58.5 20t44.5 26t38.5 26t39.5 20t46.5 8 q35 0 63 -12.5t48.5 -34t31.5 -50t11 -60.5q0 -37 -20.5 -71t-55.5 -62.5t-81 -51.5t-97 -39.5t-104.5 -25t-102.5 -8.5q-121 0 -228 43.5t-186.5 121t-125.5 185t-46 235.5zM272 1448q0 32 12 59.5t32 47.5t47 32t57 12q32 0 59 -12t46.5 -32t30.5 -47.5t11 -59.5 q0 -31 -11 -58t-30.5 -47t-46.5 -31.5t-59 -11.5q-30 0 -57 11.5t-47 31.5t-32 47t-12 58zM358 590l455 192q-16 19 -42 35q-22 14 -54.5 24.5t-79.5 10.5q-59 0 -109.5 -23t-87.5 -60.5t-58.5 -84t-23.5 -94.5zM629 1448q0 32 11 59.5t30.5 47.5t46.5 32t59 12q30 0 57 -12 t47 -32t32 -47.5t12 -59.5q0 -31 -12 -58t-32 -47t-47 -31.5t-57 -11.5q-32 0 -59 11.5t-46.5 31.5t-30.5 47t-11 58z" />
<glyph unicode="&#xec;" horiz-adv-x="483" d="M-92 1567q0 31 11.5 55t30.5 41t42 26t45 9q31 0 60.5 -13.5t64.5 -48.5l174 -176q17 -17 27 -39.5t10 -54.5q0 -33 -12.5 -55.5t-31.5 -37t-41.5 -20.5t-41.5 -6q-58 0 -92 33l-189 172q-9 8 -19 18.5t-18.5 25t-14 32t-5.5 39.5zM82 160v827q0 33 12.5 62t34.5 51 t51 34.5t62 12.5t62 -12.5t50.5 -34.5t34 -51t12.5 -62v-827q0 -33 -12.5 -62t-34 -51t-50.5 -34.5t-62 -12.5t-62 12.5t-51 34.5t-34.5 51t-12.5 62z" />
<glyph unicode="&#xed;" horiz-adv-x="483" d="M82 160v827q0 33 12.5 62t34.5 51t51 34.5t62 12.5t62 -12.5t50.5 -34.5t34 -51t12.5 -62v-827q0 -33 -12.5 -62t-34 -51t-50.5 -34.5t-62 -12.5t-62 12.5t-51 34.5t-34.5 51t-12.5 62zM98 1366q0 32 10 54.5t27 39.5l174 176q35 35 64.5 48.5t60.5 13.5q23 0 45.5 -9 t41.5 -26t30.5 -41t11.5 -55q0 -22 -5.5 -39.5t-14 -32t-18.5 -25t-19 -18.5l-189 -172q-34 -33 -92 -33q-19 0 -41.5 6t-41.5 20.5t-31.5 37t-12.5 55.5z" />
<glyph unicode="&#xee;" horiz-adv-x="483" d="M-98 1366q0 23 9 50t28 44l213 211q15 17 38.5 30t51.5 13t51 -13t39 -30l213 -211q18 -17 27.5 -44t9.5 -50q0 -33 -12.5 -56t-31.5 -37.5t-41 -21t-40 -6.5q-28 0 -53 10t-44 27q-29 29 -59 60t-59 63q-29 -32 -59.5 -63t-59.5 -60q-19 -17 -44 -27t-52 -10 q-19 0 -41 6.5t-40.5 21t-31 37.5t-12.5 56zM82 160v827q0 33 12.5 62t34.5 51t51 34.5t62 12.5t62 -12.5t50.5 -34.5t34 -51t12.5 -62v-827q0 -33 -12.5 -62t-34 -51t-50.5 -34.5t-62 -12.5t-62 12.5t-51 34.5t-34.5 51t-12.5 62z" />
<glyph unicode="&#xef;" horiz-adv-x="483" d="M-84 1448q0 32 12 59.5t32 47.5t46.5 32t56.5 12q33 0 60 -12t46.5 -32t30.5 -47.5t11 -59.5q0 -31 -11 -58t-30.5 -47t-46.5 -31.5t-60 -11.5q-30 0 -56.5 11.5t-46.5 31.5t-32 47t-12 58zM82 160v827q0 33 12.5 62t34.5 51t51 34.5t62 12.5t62 -12.5t50.5 -34.5t34 -51 t12.5 -62v-827q0 -33 -12.5 -62t-34 -51t-50.5 -34.5t-62 -12.5t-62 12.5t-51 34.5t-34.5 51t-12.5 62zM272 1448q0 32 11 59.5t30.5 47.5t47 32t59.5 12q30 0 56.5 -12t47 -32t32 -47.5t11.5 -59.5q0 -31 -11.5 -58t-32 -47t-47 -31.5t-56.5 -11.5q-32 0 -59.5 11.5 t-47 31.5t-30.5 47t-11 58z" />
<glyph unicode="&#xf0;" horiz-adv-x="1274" d="M51 573q0 122 46 228.5t125.5 186t186.5 125.5t228 46q32 0 64.5 -4t64.5 -10q0 34 -11.5 86t-31.5 112l-78 -65q-19 -15 -41.5 -21.5t-45 -4t-42.5 13t-35 28.5t-22 40.5t-5 44.5t12.5 43t29.5 36l129 109q-22 38 -44.5 69.5t-43.5 51.5q-39 31 -39 84q0 22 8.5 41.5 t22.5 34.5t33.5 23.5t41.5 8.5q11 0 21.5 -2.5t19.5 -5.5q2 -1 15.5 -11.5t34.5 -30t49 -47.5t59 -65l108 90q20 15 42.5 21.5t44.5 4.5t42 -13t35 -29t22 -40.5t5 -44.5t-12.5 -43t-28.5 -36l-117 -98q53 -82 103 -183.5t89 -221.5t63 -258t24 -294q0 -121 -46 -227.5 t-125.5 -186t-186 -125.5t-228.5 -46q-121 0 -228 46t-186.5 125.5t-125.5 186t-46 227.5zM358 573q0 -57 22 -108t60 -88.5t88.5 -59.5t108.5 -22t108.5 22t88 59.5t59.5 88.5t22 108q0 58 -22 108.5t-59.5 88.5t-88 60t-108.5 22t-108.5 -22t-88.5 -60t-60 -88.5 t-22 -108.5z" />
<glyph unicode="&#xf1;" horiz-adv-x="1155" d="M82 160v504q0 103 39 193t106 157t157.5 106t193.5 39t193 -39t157 -106t106 -157t39 -193v-504q0 -33 -12.5 -62t-34.5 -51t-51 -34.5t-62 -12.5t-62 12.5t-50.5 34.5t-34 51t-12.5 62v504q0 36 -14 68.5t-38 57.5t-56 39.5t-68 14.5t-68.5 -14.5t-56.5 -39.5t-38 -57.5 t-14 -68.5v-504q0 -33 -12.5 -62t-34 -51t-50.5 -34.5t-62 -12.5t-62 12.5t-51 34.5t-34.5 51t-12.5 62zM229 1452q0 37 18 67.5t46.5 53t64 35t70.5 12.5q42 0 71 -9t53.5 -20.5t51 -20.5t64.5 -9q16 0 30 8.5t29 18t32.5 18t39.5 8.5q28 0 51.5 -10.5t40 -29.5t26 -44 t9.5 -55q0 -38 -17.5 -68.5t-46 -52.5t-65 -33.5t-74.5 -11.5q-25 0 -55.5 8.5t-61.5 19t-61 19t-56 8.5q-18 0 -34.5 -8t-33 -17.5t-33 -17.5t-34.5 -8q-29 0 -52.5 11t-39.5 30t-24.5 44.5t-8.5 53.5z" />
<glyph unicode="&#xf2;" horiz-adv-x="1274" d="M51 573q0 -128 46 -235.5t125.5 -185t186.5 -121t228 -43.5q122 0 228.5 43.5t186 121t125.5 185t46 235.5q0 129 -46 237t-125.5 185.5t-186 120.5t-228.5 43q-121 0 -228 -43t-186.5 -120.5t-125.5 -185.5t-46 -237zM285 1567q0 31 11.5 55t30.5 41t42 26t45 9 q31 0 60.5 -13.5t64.5 -48.5l174 -176q17 -17 27 -39.5t10 -54.5q0 -33 -12.5 -55.5t-31.5 -37t-41.5 -20.5t-41.5 -6q-57 0 -93 33l-188 172q-19 16 -38 43.5t-19 71.5zM358 573q0 58 22 108.5t60 88.5t88.5 60t108.5 22t108.5 -22t88 -60t59.5 -88.5t22 -108.5 q0 -57 -22 -108t-59.5 -88.5t-88 -59.5t-108.5 -22t-108.5 22t-88.5 59.5t-60 88.5t-22 108z" />
<glyph unicode="&#xf3;" horiz-adv-x="1274" d="M51 573q0 129 46 237t125.5 185.5t186.5 120.5t228 43q122 0 228.5 -43t186 -120.5t125.5 -185.5t46 -237q0 -128 -46 -235.5t-125.5 -185t-186 -121t-228.5 -43.5q-121 0 -228 43.5t-186.5 121t-125.5 185t-46 235.5zM358 573q0 -57 22 -108t60 -88.5t88.5 -59.5 t108.5 -22t108.5 22t88 59.5t59.5 88.5t22 108q0 58 -22 108.5t-59.5 88.5t-88 60t-108.5 22t-108.5 -22t-88.5 -60t-60 -88.5t-22 -108.5zM508 1366q0 32 10 54.5t27 39.5l174 176q35 35 64.5 48.5t60.5 13.5q22 0 45 -9t41.5 -26t30.5 -41t12 -55q0 -43 -19.5 -71 t-38.5 -44l-188 -172q-36 -33 -92 -33q-19 0 -41.5 6t-41.5 20.5t-31.5 37t-12.5 55.5z" />
<glyph unicode="&#xf4;" horiz-adv-x="1274" d="M51 573q0 -128 46 -235.5t125.5 -185t186.5 -121t228 -43.5q122 0 228.5 43.5t186 121t125.5 185t46 235.5q0 129 -46 237t-125.5 185.5t-186 120.5t-228.5 43q-121 0 -228 -43t-186.5 -120.5t-125.5 -185.5t-46 -237zM305 1366q0 23 9 50t28 44l213 211q15 17 38.5 30 t51.5 13t51.5 -13t38.5 -30l213 -211q19 -17 28 -44t9 -50q0 -33 -12.5 -56t-31.5 -37.5t-41 -21t-40 -6.5q-28 0 -53 10t-43 27q-29 29 -59.5 60t-59.5 63q-29 -32 -59.5 -63t-59.5 -60q-18 -17 -43 -27t-53 -10q-18 0 -40 6.5t-41 21t-31.5 37.5t-12.5 56zM358 573 q0 58 22 108.5t60 88.5t88.5 60t108.5 22t108.5 -22t88 -60t59.5 -88.5t22 -108.5q0 -57 -22 -108t-59.5 -88.5t-88 -59.5t-108.5 -22t-108.5 22t-88.5 59.5t-60 88.5t-22 108z" />
<glyph unicode="&#xf5;" horiz-adv-x="1274" d="M51 573q0 129 46 237t125.5 185.5t186.5 120.5t228 43q122 0 228.5 -43t186 -120.5t125.5 -185.5t46 -237q0 -128 -46 -235.5t-125.5 -185t-186 -121t-228.5 -43.5q-121 0 -228 43.5t-186.5 121t-125.5 185t-46 235.5zM297 1452q0 37 17.5 67.5t46 53t64 35t71.5 12.5 q42 0 70.5 -9t53.5 -20.5t51.5 -20.5t63.5 -9q16 0 30.5 8.5t29.5 18t32 18t39 8.5q29 0 52 -10.5t40 -29.5t26 -44t9 -55q0 -38 -17 -68.5t-45.5 -52.5t-65 -33.5t-74.5 -11.5q-25 0 -55.5 8.5t-61.5 19t-61 19t-56 8.5q-18 0 -34.5 -8t-33 -17.5t-33 -17.5t-34.5 -8 q-29 0 -52.5 11t-39.5 30t-24.5 44.5t-8.5 53.5zM358 573q0 -57 22 -108t60 -88.5t88.5 -59.5t108.5 -22t108.5 22t88 59.5t59.5 88.5t22 108q0 58 -22 108.5t-59.5 88.5t-88 60t-108.5 22t-108.5 -22t-88.5 -60t-60 -88.5t-22 -108.5z" />
<glyph unicode="&#xf6;" horiz-adv-x="1274" d="M51 573q0 129 46 237t125.5 185.5t186.5 120.5t228 43q122 0 228.5 -43t186 -120.5t125.5 -185.5t46 -237q0 -128 -46 -235.5t-125.5 -185t-186 -121t-228.5 -43.5q-121 0 -228 43.5t-186.5 121t-125.5 185t-46 235.5zM317 1448q0 32 12 59.5t32 47.5t47 32t57 12 q32 0 59 -12t46.5 -32t30.5 -47.5t11 -59.5q0 -31 -11 -58t-30.5 -47t-46.5 -31.5t-59 -11.5q-30 0 -57 11.5t-47 31.5t-32 47t-12 58zM358 573q0 -57 22 -108t60 -88.5t88.5 -59.5t108.5 -22t108.5 22t88 59.5t59.5 88.5t22 108q0 58 -22 108.5t-59.5 88.5t-88 60 t-108.5 22t-108.5 -22t-88.5 -60t-60 -88.5t-22 -108.5zM674 1448q0 32 11 59.5t30.5 47.5t46.5 32t59 12q30 0 57 -12t47 -32t32 -47.5t12 -59.5q0 -31 -12 -58t-32 -47t-47 -31.5t-57 -11.5q-32 0 -59 11.5t-46.5 31.5t-30.5 47t-11 58z" />
<glyph unicode="&#xf8;" horiz-adv-x="1274" d="M51 573q0 129 46 237t125.5 185.5t186.5 120.5t228 43q127 0 235 -47l60 86q18 25 45 37t55 12q25 0 45.5 -10t35.5 -27t23.5 -38t8.5 -44q0 -17 -5 -33t-16 -30l-59 -84q74 -77 116 -180.5t42 -227.5q0 -128 -46 -235.5t-125.5 -185t-186 -121t-228.5 -43.5 q-63 0 -121.5 11t-112.5 34l-57 -84q-18 -25 -43 -37t-53 -12q-25 0 -46 9.5t-37 25.5t-25 37.5t-9 45.5q0 37 21 64l57 82q-75 77 -117.5 180.5t-42.5 228.5zM358 573q0 -40 10.5 -75.5t28.5 -67.5l289 416q-24 6 -49 6q-58 0 -108.5 -22t-88.5 -60t-60 -88.5t-22 -108.5z M590 299q12 -2 23.5 -3t23.5 -1q58 0 108.5 22t88 59.5t59.5 88.5t22 108q0 38 -9.5 72.5t-26.5 65.5z" />
<glyph unicode="&#xf9;" horiz-adv-x="1155" d="M82 483q0 -103 39 -193t106 -157t157.5 -106t193.5 -39t193 39t157 106t106 157t39 193v504q0 33 -12.5 62t-34.5 51t-51 34.5t-62 12.5t-62 -12.5t-50.5 -34.5t-34 -51t-12.5 -62v-504q0 -36 -14 -68.5t-38 -57.5t-56 -39.5t-68 -14.5t-68.5 14.5t-56.5 39.5t-38 57.5 t-14 68.5v504q0 33 -12.5 62t-34 51t-50.5 34.5t-62 12.5t-62 -12.5t-51 -34.5t-34.5 -51t-12.5 -62v-504zM215 1567q0 31 12 55t30.5 41t41.5 26t45 9q31 0 60.5 -13.5t64.5 -48.5l174 -176q17 -17 27 -39.5t10 -54.5q0 -33 -12.5 -55.5t-31.5 -37t-41.5 -20.5t-41.5 -6 q-58 0 -92 33l-189 172q-9 8 -19 18.5t-18.5 25t-14 32t-5.5 39.5z" />
<glyph unicode="&#xfa;" horiz-adv-x="1155" d="M82 483v504q0 33 12.5 62t34.5 51t51 34.5t62 12.5t62 -12.5t50.5 -34.5t34 -51t12.5 -62v-504q0 -36 14 -68.5t38 -57.5t56.5 -39.5t68.5 -14.5t68 14.5t56 39.5t38 57.5t14 68.5v504q0 33 12.5 62t34 51t50.5 34.5t62 12.5t62 -12.5t51 -34.5t34.5 -51t12.5 -62v-504 q0 -103 -39 -193t-106 -157t-157 -106t-193 -39t-193.5 39t-157.5 106t-106 157t-39 193zM459 1366q0 32 10 54.5t27 39.5l174 176q35 35 64.5 48.5t60.5 13.5q22 0 45 -9t41.5 -26t30.5 -41t12 -55q0 -43 -19.5 -71t-38.5 -44l-188 -172q-36 -33 -92 -33q-19 0 -41.5 6 t-41.5 20.5t-31.5 37t-12.5 55.5z" />
<glyph unicode="&#xfb;" horiz-adv-x="1155" d="M82 483q0 -103 39 -193t106 -157t157.5 -106t193.5 -39t193 39t157 106t106 157t39 193v504q0 33 -12.5 62t-34.5 51t-51 34.5t-62 12.5t-62 -12.5t-50.5 -34.5t-34 -51t-12.5 -62v-504q0 -36 -14 -68.5t-38 -57.5t-56 -39.5t-68 -14.5t-68.5 14.5t-56.5 39.5t-38 57.5 t-14 68.5v504q0 33 -12.5 62t-34 51t-50.5 34.5t-62 12.5t-62 -12.5t-51 -34.5t-34.5 -51t-12.5 -62v-504zM236 1366q0 23 9 50t27 44l213 211q16 17 39.5 30t50.5 13q28 0 51.5 -13t39.5 -30l213 -211q18 -17 27 -44t9 -50q0 -33 -12.5 -56t-31 -37.5t-40.5 -21t-40 -6.5 q-28 0 -53 10t-44 27q-29 29 -59.5 60t-59.5 63q-29 -32 -59 -63t-59 -60q-19 -17 -44 -27t-53 -10q-18 0 -40 6.5t-40.5 21t-31 37.5t-12.5 56z" />
<glyph unicode="&#xfc;" horiz-adv-x="1155" d="M82 483v504q0 33 12.5 62t34.5 51t51 34.5t62 12.5t62 -12.5t50.5 -34.5t34 -51t12.5 -62v-504q0 -36 14 -68.5t38 -57.5t56.5 -39.5t68.5 -14.5t68 14.5t56 39.5t38 57.5t14 68.5v504q0 33 12.5 62t34 51t50.5 34.5t62 12.5t62 -12.5t51 -34.5t34.5 -51t12.5 -62v-504 q0 -103 -39 -193t-106 -157t-157 -106t-193 -39t-193.5 39t-157.5 106t-106 157t-39 193zM250 1448q0 32 11.5 59.5t32 47.5t47 32t56.5 12q32 0 59.5 -12t47 -32t30.5 -47.5t11 -59.5q0 -31 -11 -58t-30.5 -47t-47 -31.5t-59.5 -11.5q-30 0 -56.5 11.5t-47 31.5t-32 47 t-11.5 58zM606 1448q0 32 11 59.5t30.5 47.5t47 32t59.5 12q30 0 56.5 -12t47 -32t32 -47.5t11.5 -59.5q0 -31 -11.5 -58t-32 -47t-47 -31.5t-56.5 -11.5q-32 0 -59.5 11.5t-47 31.5t-30.5 47t-11 58z" />
<glyph unicode="&#xfd;" horiz-adv-x="1114" d="M-10 -209q0 69 35.5 112.5t97.5 43.5q30 0 45.5 -6.5t27 -15t23 -15t33.5 -6.5q29 0 48.5 22.5t33.5 53.5l61 139l-370 815q-8 17 -11.5 35t-3.5 35q1 28 11.5 54t30 45.5t47 31.5t61.5 12q45 2 83.5 -23.5t57.5 -68.5l256 -572l256 572q19 43 57.5 68.5t83.5 23.5 q36 0 63.5 -12.5t47 -33t29.5 -47t10 -55.5q0 -17 -3 -33.5t-11 -31.5l-492 -1079q-26 -57 -58.5 -102.5t-74 -77t-94 -48t-119.5 -16.5q-47 0 -93.5 9t-84 30t-61 55.5t-23.5 85.5zM438 1366q0 32 10 54.5t27 39.5l174 176q35 35 64.5 48.5t60.5 13.5q23 0 45.5 -9 t41.5 -26t30.5 -41t11.5 -55q0 -22 -5.5 -39.5t-14 -32t-18.5 -25t-19 -18.5l-189 -172q-34 -33 -92 -33q-19 0 -41.5 6t-41.5 20.5t-31.5 37t-12.5 55.5z" />
<glyph unicode="&#xfe;" d="M82 -231v1607q0 33 12.5 62t34.5 51t51 34.5t62 12.5t62 -12.5t50.5 -34.5t34 -51t12.5 -62v-342q10 9 36.5 27t67 37t95 33t121.5 14q102 0 197 -43t168 -119.5t117 -181.5t44 -230t-44 -230t-117 -181.5t-168 -119t-197 -42.5q-78 0 -137.5 18t-100.5 40q-48 26 -82 57 v-344q0 -33 -12.5 -62t-34 -51t-50.5 -34.5t-62 -12.5t-62 12.5t-51 34.5t-34.5 51t-12.5 62zM401 571q0 -54 21 -102t57 -84t84 -57t103 -21q54 0 102 21t83.5 57t56 84t20.5 102q0 55 -20.5 103t-56 84t-83.5 57t-102 21q-55 0 -103 -21t-84 -57t-57 -84t-21 -103z" />
<glyph unicode="&#xff;" horiz-adv-x="1114" d="M-10 -209q0 69 35.5 112.5t97.5 43.5q30 0 45.5 -6.5t27 -15t23 -15t33.5 -6.5q29 0 48.5 22.5t33.5 53.5l61 139l-370 815q-8 17 -11.5 35t-3.5 35q1 28 11.5 54t30 45.5t47 31.5t61.5 12q45 2 83.5 -23.5t57.5 -68.5l256 -572l256 572q19 43 57.5 68.5t83.5 23.5 q36 0 63.5 -12.5t47 -33t29.5 -47t10 -55.5q0 -17 -3 -33.5t-11 -31.5l-492 -1079q-26 -57 -58.5 -102.5t-74 -77t-94 -48t-119.5 -16.5q-47 0 -93.5 9t-84 30t-61 55.5t-23.5 85.5zM231 1448q0 32 12 59.5t32 47.5t47 32t57 12q32 0 59 -12t46.5 -32t30.5 -47.5t11 -59.5 q0 -31 -11 -58t-30.5 -47t-46.5 -31.5t-59 -11.5q-30 0 -57 11.5t-47 31.5t-32 47t-12 58zM588 1448q0 32 11 59.5t30.5 47.5t46.5 32t59 12q30 0 57 -12t47 -32t32 -47.5t12 -59.5q0 -31 -12 -58t-32 -47t-47 -31.5t-57 -11.5q-32 0 -59 11.5t-46.5 31.5t-30.5 47t-11 58z " />
<glyph unicode="&#x152;" horiz-adv-x="2384" d="M61 768q0 110 28.5 211t80 189.5t124.5 161t161 124.5t189 80.5t210 28.5q125 0 238.5 -37.5t210.5 -102.5q18 50 64.5 81.5t109.5 31.5h700q35 0 65 -13t52.5 -35.5t35.5 -52.5t13 -65q0 -34 -13 -64.5t-35.5 -53t-52.5 -35.5t-65 -13h-526v-262h405q32 0 60 -12t49 -33 t33 -49t12 -60q0 -31 -12 -59t-33 -49t-49 -33t-60 -12h-405v-303h526q35 0 65 -13t52.5 -35.5t35.5 -52.5t13 -65q0 -34 -13 -64.5t-35.5 -53t-52.5 -35.5t-65 -13h-700q-62 0 -108 31t-66 82q-96 -66 -210 -103t-239 -37q-109 0 -210 28.5t-189 80.5t-161 124.5 t-124.5 161t-80 190t-28.5 210.5zM420 768q0 -90 34 -169.5t93 -138.5t138 -93.5t169 -34.5q91 0 170.5 34.5t138.5 93.5t93 138.5t34 169.5q0 93 -35 173t-94.5 138.5t-138.5 91.5t-168 33q-90 0 -169 -34.5t-138 -93.5t-93 -138.5t-34 -169.5z" />
<glyph unicode="&#x153;" horiz-adv-x="2052" d="M51 573q0 129 46 237t125.5 185.5t186.5 120.5t228 43q128 0 239.5 -47.5t192.5 -134.5q81 87 192.5 134.5t239.5 47.5q62 0 124 -13t118.5 -37t105.5 -59t85 -79t56.5 -96.5t20.5 -112.5q0 -51 -24 -89t-70 -57l-600 -251q20 -19 47 -35q23 -14 57.5 -24.5t79.5 -10.5 q46 0 79.5 8t59 20t45 26t38 26t39 20t46.5 8q35 0 63.5 -12.5t48.5 -34t31 -50t11 -60.5q0 -37 -20.5 -71t-55.5 -62.5t-81 -51.5t-97 -39.5t-104.5 -25t-102.5 -8.5q-130 0 -240.5 47.5t-191.5 134.5q-81 -87 -192.5 -134.5t-239.5 -47.5q-121 0 -228 43.5t-186.5 121 t-125.5 185t-46 235.5zM358 573q0 -57 22 -108t60 -88.5t88.5 -59.5t108.5 -22t108.5 22t88 59.5t59.5 88.5t22 108q0 60 -22.5 111t-60.5 88.5t-88.5 58.5t-106.5 21q-58 0 -108.5 -22t-88.5 -60t-60 -88.5t-22 -108.5zM1223 590l454 192q-16 19 -42 35q-22 14 -54.5 24.5 t-79.5 10.5q-59 0 -109.5 -23t-87.5 -60.5t-58 -84t-23 -94.5z" />
<glyph unicode="&#x178;" d="M10 1358q0 38 13.5 70.5t37.5 56.5t56 37.5t69 13.5q51 0 90.5 -27t67.5 -65l305 -438l314 452q24 35 62.5 56.5t84.5 21.5q38 0 70.5 -13.5t56.5 -37.5t37.5 -56.5t13.5 -70.5q0 -60 -31 -103l-426 -612v-463q0 -37 -14 -70t-38 -57.5t-57 -38.5t-71 -14q-37 0 -70 14 t-57.5 38.5t-38.5 57.5t-14 70v459l-422 606q-18 26 -28.5 54t-10.5 59zM322 1858q0 32 11.5 59.5t32 47.5t47 32t56.5 12q32 0 59 -12t46.5 -32t30.5 -47.5t11 -59.5q0 -31 -11 -58t-30.5 -47t-46.5 -31.5t-59 -11.5q-30 0 -56.5 11.5t-47 31.5t-32 47t-11.5 58zM678 1858 q0 32 11 59.5t30.5 47.5t46.5 32t59 12q30 0 57 -12t47 -32t32 -47.5t12 -59.5q0 -31 -12 -58t-32 -47t-47 -31.5t-57 -11.5q-32 0 -59 11.5t-46.5 31.5t-30.5 47t-11 58z" />
<glyph unicode="&#x2c6;" horiz-adv-x="809" d="M63 1366q0 23 9.5 50t27.5 44l213 211q16 17 39.5 30t50.5 13q28 0 51.5 -13t39.5 -30l213 -211q18 -17 27 -44t9 -50q0 -33 -12.5 -56t-31 -37.5t-40.5 -21t-41 -6.5q-27 0 -52 10t-44 27q-29 29 -59.5 60t-59.5 63q-29 -32 -59 -63t-59 -60q-19 -17 -44 -27t-53 -10 q-18 0 -40 6.5t-41 21t-31.5 37.5t-12.5 56z" />
<glyph unicode="&#x2dc;" horiz-adv-x="848" d="M76 1452q0 37 17.5 67.5t46 53t64 35t70.5 12.5q42 0 71 -9t54 -20.5t51.5 -20.5t63.5 -9q16 0 30.5 8.5t29.5 18t32 18t39 8.5q29 0 52 -10.5t40 -29.5t26 -44t9 -55q0 -38 -17 -68.5t-45.5 -52.5t-65 -33.5t-75.5 -11.5q-25 0 -55 8.5t-61.5 19t-61.5 19t-55 8.5 q-18 0 -34.5 -8t-33 -17.5t-33 -17.5t-34.5 -8q-29 0 -52.5 11t-39.5 30t-24.5 44.5t-8.5 53.5z" />
<glyph unicode="&#x2000;" horiz-adv-x="1080" />
<glyph unicode="&#x2001;" horiz-adv-x="2161" />
<glyph unicode="&#x2002;" horiz-adv-x="1080" />
<glyph unicode="&#x2003;" horiz-adv-x="2161" />
<glyph unicode="&#x2004;" horiz-adv-x="720" />
<glyph unicode="&#x2005;" horiz-adv-x="540" />
<glyph unicode="&#x2006;" horiz-adv-x="360" />
<glyph unicode="&#x2007;" horiz-adv-x="360" />
<glyph unicode="&#x2008;" horiz-adv-x="270" />
<glyph unicode="&#x2009;" horiz-adv-x="432" />
<glyph unicode="&#x200a;" horiz-adv-x="120" />
<glyph unicode="&#x2010;" horiz-adv-x="850" d="M51 688q0 32 12.5 60.5t33.5 49.5t49.5 33.5t60.5 12.5h436q32 0 60.5 -12.5t49.5 -33.5t33.5 -49.5t12.5 -60.5t-12.5 -60.5t-33.5 -49.5t-49.5 -33.5t-60.5 -12.5h-436q-32 0 -60.5 12.5t-49.5 33.5t-33.5 49.5t-12.5 60.5z" />
<glyph unicode="&#x2011;" horiz-adv-x="850" d="M51 688q0 32 12.5 60.5t33.5 49.5t49.5 33.5t60.5 12.5h436q32 0 60.5 -12.5t49.5 -33.5t33.5 -49.5t12.5 -60.5t-12.5 -60.5t-33.5 -49.5t-49.5 -33.5t-60.5 -12.5h-436q-32 0 -60.5 12.5t-49.5 33.5t-33.5 49.5t-12.5 60.5z" />
<glyph unicode="&#x2012;" horiz-adv-x="850" d="M51 688q0 32 12.5 60.5t33.5 49.5t49.5 33.5t60.5 12.5h436q32 0 60.5 -12.5t49.5 -33.5t33.5 -49.5t12.5 -60.5t-12.5 -60.5t-33.5 -49.5t-49.5 -33.5t-60.5 -12.5h-436q-32 0 -60.5 12.5t-49.5 33.5t-33.5 49.5t-12.5 60.5z" />
<glyph unicode="&#x2013;" horiz-adv-x="1436" d="M61 688q0 29 11 55t29.5 45t44 30t53.5 11h1036q29 0 54.5 -11t44.5 -30t29.5 -45t10.5 -55t-10.5 -55t-29.5 -45t-44.5 -30t-54.5 -11h-1036q-28 0 -53.5 11t-44 30t-29.5 45t-11 55z" />
<glyph unicode="&#x2014;" horiz-adv-x="2517" d="M61 688q0 29 11 55t30 45t44.5 30t54.5 11h2113q30 0 56 -11t45 -30t30 -45t11 -55t-11 -55t-30 -45t-45 -30t-56 -11h-2113q-29 0 -54.5 11t-44.5 30t-30 45t-11 55z" />
<glyph unicode="&#x201a;" horiz-adv-x="483" d="M41 201q0 41 16 77.5t43 63.5t63.5 43t78.5 16q41 0 77.5 -16t63.5 -43t43 -63.5t16 -77.5q0 -26 -7.5 -50.5t-16.5 -46.5l-96 -213q-13 -27 -40 -45t-59 -18q-24 0 -42.5 9t-32 23.5t-20.5 33t-7 38.5q0 25 8 41l23 47q-50 25 -80.5 73.5t-30.5 107.5z" />
<glyph unicode="&#x201c;" horiz-adv-x="954" d="M51 1190q0 26 7.5 50t17.5 46l96 213q12 28 39 46t59 18q24 0 43 -9t32.5 -23.5t20.5 -33.5t7 -39q0 -11 -1.5 -21t-6.5 -20l-23 -47q50 -25 80.5 -73t30.5 -107q0 -42 -16 -78.5t-43.5 -63.5t-64 -43t-77.5 -16q-42 0 -78.5 16t-63.5 43t-43 63.5t-16 78.5zM502 1190 q0 26 7.5 50t16.5 46l97 213q12 28 39 46t59 18q24 0 42.5 -9t32 -23.5t20.5 -33.5t7 -39q0 -11 -1.5 -21t-6.5 -20l-22 -47q49 -25 79.5 -73t30.5 -107q0 -42 -16 -78.5t-43 -63.5t-63.5 -43t-78.5 -16q-41 0 -77.5 16t-63.5 43t-43 63.5t-16 78.5z" />
<glyph unicode="&#x201d;" horiz-adv-x="954" d="M51 1362q0 42 16 78.5t43 63.5t63.5 43t78.5 16q41 0 77.5 -16t64 -43t43.5 -63.5t16 -78.5q0 -26 -8 -50.5t-17 -45.5l-96 -213q-13 -28 -40 -46t-59 -18q-24 0 -42.5 9t-32 23.5t-20.5 33.5t-7 39q0 11 1.5 21t6.5 20l23 47q-50 24 -80.5 72.5t-30.5 107.5zM502 1362 q0 42 16 78.5t43 63.5t63.5 43t77.5 16q42 0 78.5 -16t63.5 -43t43 -63.5t16 -78.5q0 -26 -7.5 -50.5t-16.5 -45.5l-97 -213q-12 -28 -39 -46t-59 -18q-24 0 -42.5 9t-32 23.5t-20.5 33.5t-7 39q0 11 1.5 21t6.5 20l22 47q-49 24 -79.5 72.5t-30.5 107.5z" />
<glyph unicode="&#x201e;" horiz-adv-x="934" d="M41 201q0 41 16 77.5t43 63.5t63.5 43t78.5 16q41 0 77.5 -16t63.5 -43t43 -63.5t16 -77.5q0 -26 -7.5 -50.5t-16.5 -46.5l-96 -213q-13 -27 -40 -45t-59 -18q-24 0 -42.5 9t-32 23.5t-20.5 33t-7 38.5q0 25 8 41l23 47q-50 25 -80.5 73.5t-30.5 107.5zM492 201 q0 41 16 77.5t43 63.5t63.5 43t77.5 16q42 0 78.5 -16t63.5 -43t43 -63.5t16 -77.5q0 -26 -7.5 -50.5t-17.5 -46.5l-96 -213q-12 -27 -39 -45t-59 -18q-24 0 -43 9t-32.5 23.5t-20.5 33t-7 38.5q0 11 2 21.5t7 19.5l22 47q-49 25 -79.5 73.5t-30.5 107.5z" />
<glyph unicode="&#x2022;" horiz-adv-x="631" d="M72 766q0 51 19 95.5t52 77.5t77 52t95 19t95.5 -19t77.5 -52t52 -77.5t19 -95.5t-19 -95.5t-52 -77.5t-77.5 -52t-95.5 -19t-95 19t-77 52t-52 77.5t-19 95.5z" />
<glyph unicode="&#x2026;" horiz-adv-x="1507" d="M61 201q0 41 16 77.5t43.5 63.5t64 43t77.5 16q42 0 78.5 -16t63.5 -43t43 -63.5t16 -77.5q0 -42 -16 -78.5t-43 -63.5t-63.5 -43t-78.5 -16q-41 0 -77.5 16t-64 43t-43.5 63.5t-16 78.5zM553 201q0 41 16 77.5t43 63.5t63.5 43t78.5 16q41 0 77.5 -16t63.5 -43t43 -63.5 t16 -77.5q0 -42 -16 -78.5t-43 -63.5t-63.5 -43t-77.5 -16q-42 0 -78.5 16t-63.5 43t-43 63.5t-16 78.5zM1044 201q0 41 16 77.5t43.5 63.5t64 43t77.5 16q42 0 78.5 -16t63.5 -43t43 -63.5t16 -77.5q0 -42 -16 -78.5t-43 -63.5t-63.5 -43t-78.5 -16q-41 0 -77.5 16t-64 43 t-43.5 63.5t-16 78.5z" />
<glyph unicode="&#x202f;" horiz-adv-x="432" />
<glyph unicode="&#x2039;" horiz-adv-x="633" d="M41 596q0 28 12.5 52.5t32.5 47.5l254 281q19 22 44.5 30.5t51.5 8.5q28 0 52.5 -11.5t43 -30t29 -42.5t10.5 -49q0 -32 -11 -54.5t-30 -44.5l-168 -188l168 -188q19 -22 30 -44.5t11 -54.5q0 -25 -10.5 -49t-29 -42.5t-43 -30t-52.5 -11.5q-26 0 -51.5 8.5t-44.5 30.5 l-254 281q-20 23 -32.5 47.5t-12.5 52.5z" />
<glyph unicode="&#x203a;" horiz-adv-x="633" d="M61 309q0 32 11.5 54.5t29.5 44.5l168 188l-168 188q-18 22 -29.5 44.5t-11.5 54.5q0 25 11 49t29.5 42.5t43 30t52.5 11.5q26 0 51.5 -8.5t44.5 -30.5l254 -281q20 -23 32.5 -47.5t12.5 -52.5t-12.5 -52.5t-32.5 -47.5l-254 -281q-19 -22 -44.5 -30.5t-51.5 -8.5 q-28 0 -52.5 11.5t-43 30t-29.5 42.5t-11 49z" />
<glyph unicode="&#x205f;" horiz-adv-x="540" />
<glyph unicode="&#x20ac;" horiz-adv-x="1333" d="M-10 745q0 31 11 58t30.5 47t46 31.5t57.5 11.5h33q12 152 52 275.5t112.5 211.5t181.5 135.5t260 47.5q85 0 156 -18t127.5 -48.5t98.5 -70t70 -83.5t42 -89.5t14 -86.5q0 -43 -13.5 -74t-36 -50t-51.5 -28t-61 -9q-60 0 -101 30.5t-56 93.5q-6 21 -19.5 44t-36 42 t-55.5 31.5t-78 12.5q-77 0 -126.5 -30.5t-78.5 -81.5t-41.5 -117.5t-15.5 -137.5h276q31 0 58 -11.5t47 -31.5t31.5 -47t11.5 -58q0 -30 -11.5 -56.5t-31.5 -46t-47 -31t-58 -11.5h-270q15 -108 46.5 -172t69 -98.5t75.5 -45t65 -10.5q45 0 78 10.5t56 28t37 39t20 43.5 q15 62 57.5 90.5t99.5 28.5q32 0 60.5 -9t51 -28t35.5 -49.5t13 -73.5q0 -63 -31.5 -130.5t-94.5 -123t-158.5 -91.5t-223.5 -36q-135 0 -241 46t-182.5 129t-122 198.5t-60.5 253.5h-33q-31 0 -57.5 11.5t-46 31t-30.5 46t-11 56.5z" />
<glyph unicode="&#x2122;" horiz-adv-x="1446" d="M41 1460q0 31 22 53.5t54 22.5h432q31 0 53.5 -22.5t22.5 -53.5t-22.5 -52.5t-53.5 -21.5h-135v-460q0 -34 -23.5 -58t-58.5 -24q-34 0 -57 24t-23 58v460h-135q-32 0 -54 21.5t-22 52.5zM590 924q0 6 1 14.5t3 11.5l129 514q6 29 27 50.5t53 21.5q26 0 46 -15.5 t30 -39.5l108 -297l109 295q8 24 28 40.5t47 16.5q28 0 49 -18t29 -45l131 -525q2 -9 3 -15.5t1 -8.5q0 -34 -23.5 -57t-57.5 -23q-28 0 -49 17.5t-27 43.5l-70 273l-102 -281q-8 -22 -25.5 -37.5t-42.5 -15.5q-26 0 -42.5 15.5t-24.5 37.5l-105 285l-67 -271 q-7 -29 -27 -48t-51 -19q-34 0 -57 23t-23 57z" />
<glyph unicode="&#xe000;" horiz-adv-x="1145" d="M0 0v1145h1145v-1145h-1145z" />
<glyph unicode="&#xfb01;" horiz-adv-x="1141" d="M0 1006q0 29 11 54.5t30 45t45 30.5t55 11v51q0 80 20 147t60.5 115.5t102 75.5t145.5 27q40 0 81 -7t78 -21t66.5 -36.5t46.5 -54.5q20 46 62 75t96 29q35 0 66.5 -13.5t55 -37t37 -55t13.5 -66.5t-13.5 -66.5t-37 -55t-55 -37t-66.5 -13.5q-51 0 -91.5 26.5t-62.5 69.5 q-14 -29 -38.5 -48t-55.5 -19q-19 0 -37 6.5t-36 14t-37.5 14t-40.5 6.5q-25 0 -32 -23.5t-7 -52.5v-51h78q29 0 54.5 -11t45 -30.5t30.5 -45t11 -54.5t-11 -55t-30.5 -45.5t-45 -30.5t-54.5 -11h-78v-704q0 -33 -12.5 -62t-34.5 -51t-51 -34.5t-62 -12.5t-62 12.5t-51 34.5 t-34.5 51t-12.5 62v704q-29 0 -55 11t-45 30.5t-30 45.5t-11 55zM739 160v827q0 33 12.5 62t34.5 51t51 34.5t62 12.5t62 -12.5t51 -34.5t34.5 -51t12.5 -62v-827q0 -33 -12.5 -62t-34.5 -51t-51 -34.5t-62 -12.5t-62 12.5t-51 34.5t-34.5 51t-12.5 62z" />
<glyph unicode="&#xfb02;" horiz-adv-x="1139" d="M0 1006q0 29 11 54.5t30 45t45 30.5t55 11v51q0 80 20 147t60.5 115.5t102 75.5t145.5 27q42 0 85 -7.5t81 -23.5t68 -40.5t45 -59.5q17 45 56.5 74.5t92.5 29.5q33 0 62 -12.5t51 -34.5t34.5 -51t12.5 -62v-1216q0 -33 -12.5 -62t-34.5 -51t-51 -34.5t-62 -12.5 t-62 12.5t-51 34.5t-34.5 51t-12.5 62v1124q-15 -23 -37.5 -37t-48.5 -14q-19 0 -37 6.5t-36 14t-37.5 14t-40.5 6.5q-25 0 -32 -23.5t-7 -52.5v-51h78q29 0 54.5 -11t45 -30.5t30.5 -45t11 -54.5t-11 -55t-30.5 -45.5t-45 -30.5t-54.5 -11h-78v-704q0 -33 -12.5 -62 t-34.5 -51t-51 -34.5t-62 -12.5t-62 12.5t-51 34.5t-34.5 51t-12.5 62v704q-29 0 -55 11t-45 30.5t-30 45.5t-11 55z" />
</font>
</defs>
</svg>
