<?xml version="1.0" standalone="no"?>
<!DOCTYPE svg PUBLIC "-//W3C//DTD SVG 1.1//EN" "http://www.w3.org/Graphics/SVG/1.1/DTD/svg11.dtd" >
<svg xmlns="http://www.w3.org/2000/svg">
<metadata>
Created by FontPrep 20130207 at Tue Nov 26 13:15:34 2019
 By Mauricio Duran
2003 Hans Reichel, published by FontShop International for the FontFont library.
</metadata>
<defs>
<font id="6e8a48171c0c0d507acd2a42f1e21a3b" horiz-adv-x='1024' >
  <font-face 
    font-family="DaxCompact-Bold"
    font-weight="400"
    font-stretch="normal"
    units-per-em="2048"
    panose-1="2 0 5 6 4 0 0 2 0 4"
    ascent="1720"
    descent="-328"
    x-height="1249"
    cap-height="1720"
    bbox="-213 -424 2154 2179"
    underline-thickness="102"
    underline-position="-102"
    unicode-range="U+0020-FB02"
  />
<missing-glyph horiz-adv-x="2048" 
 />
    <glyph glyph-name="fi" unicode="fi" horiz-adv-x="1130" 
d="M528 1538q-98 0 -98 -149v-140h139v-198h-139v-1051h-268v1051h-101v198h101v131q0 188 87 272.5t238 84.5q42 0 82 -8v-193q-10 2 -13 2h-28zM752 0v1249h266v-1249h-266zM1032 1593.5q0 -61.5 -43 -104.5t-104.5 -43t-104.5 43t-43 104.5t43 104.5t104.5 43t104.5 -43
t43 -104.5z" />
    <glyph glyph-name="fl" unicode="fl" horiz-adv-x="1130" 
d="M528 1538q-98 0 -98 -149v-140h139v-198h-139v-1051h-268v1051h-101v198h101v131q0 188 87 272.5t238 84.5q42 0 82 -8v-193q-10 2 -13 2h-28zM752 0v1720h266v-1720h-266z" />
    <glyph glyph-name=".notdef" horiz-adv-x="2048" 
 />
    <glyph glyph-name=".null" horiz-adv-x="0" 
 />
    <glyph glyph-name="nonmarkingreturn" horiz-adv-x="458" 
 />
    <glyph glyph-name="space" unicode=" " horiz-adv-x="458" 
 />
    <glyph glyph-name="exclam" unicode="!" horiz-adv-x="569" 
d="M399 510h-229l-49 1210h328zM453 147.5q0 -69.5 -49.5 -118.5t-119 -49t-118.5 49t-49 118.5t49 118.5t118.5 49t119 -49t49.5 -118.5z" />
    <glyph glyph-name="quotedbl" unicode="&#x22;" horiz-adv-x="845" 
d="M616 1741q83 0 123 -66l-49 -590h-151l-47 590q41 66 124 66zM230 1741q83 0 124 -66l-49 -590h-151l-48 590q41 66 124 66z" />
    <glyph glyph-name="numbersign" unicode="#" horiz-adv-x="1310" 
d="M1139 700v-202h-187l-63 -498h-215l61 498h-254l-63 -498h-215l61 498h-162v202h189l43 340h-162v203h186l62 477h215l-60 -477h254l62 477h215l-59 -477h161v-203h-186l-45 -340h162zM551 1040l-45 -340h256l43 340h-254z" />
    <glyph glyph-name="dollar" unicode="$" horiz-adv-x="935" 
d="M852 412q0 -148 -88 -266.5t-248 -153.5l27 -320h-205l29 305q-170 7 -293 84l76 220q29 -18 88 -37t118 -19q106 0 159.5 59.5t53.5 150.5t-35.5 153.5t-89 117t-206 182t-152.5 392.5q0 190 88 306t248 147l-23 303h203l-27 -293q152 -7 261 -84l-66 -199
q-29 18 -84 34.5t-110 16.5q-110 0 -164 -61t-54 -151q0 -89 37 -150.5t91.5 -114.5t119 -106.5t118.5 -121t91 -157t37 -237.5z" />
    <glyph glyph-name="percent" unicode="%" horiz-adv-x="1785" 
d="M1390.5 1159q313.5 0 313.5 -591t-313.5 -591t-313.5 591t313.5 591zM395.5 1743q313.5 0 313.5 -591t-313.5 -591t-313.5 591t313.5 591zM723 -20l-154 40l492 1721l151 -43zM510 1159q0 217 -26.5 317.5t-88 100.5t-87 -100.5t-25.5 -317.5t25.5 -316.5t87 -99.5
t88 99.5t26.5 316.5zM1503 575.5q0 217.5 -25.5 316.5t-87 99t-88 -99t-26.5 -316.5t26.5 -316.5t88 -99t87 99t25.5 316.5z" />
    <glyph glyph-name="ampersand" unicode="&#x26;" horiz-adv-x="1122" 
d="M406 1311q0 -92 55 -150.5t150 -58.5t196.5 48t210.5 122l78 -215q-52 -43 -174 -80v-916q-47 -33 -144.5 -58.5t-220.5 -25.5q-236 0 -361.5 131.5t-125.5 366.5q0 190 89 310.5t208 181.5v2q-1 2 -21 11t-61 41t-95.5 104.5t-54.5 185.5q0 208 112 320t287 112t279 -84
l-57 -197q-70 49 -161 49t-140 -54t-49 -146zM346 504q0 -147 60.5 -225t152.5 -78q58 0 94 18v672q-307 -94 -307 -387z" />
    <glyph glyph-name="quotesingle" unicode="'" horiz-adv-x="460" 
d="M230 1741q83 0 124 -66l-49 -590h-151l-48 590q41 66 124 66z" />
    <glyph glyph-name="parenleft" unicode="(" horiz-adv-x="651" 
d="M461 -328q-373 547 -373 1095t373 1097l153 -78q-184 -313 -215.5 -600t-31.5 -493t62 -469t185 -474z" />
    <glyph glyph-name="parenright" unicode=")" horiz-adv-x="651" 
d="M190 1864q373 -547 373 -1096.5t-373 -1095.5l-153 78q183 312 215.5 597.5t32.5 487t-61.5 469t-186.5 482.5z" />
    <glyph glyph-name="asterisk" unicode="*" 
d="M604 1212l205 -286l-158 -131l-155 329l-156 -329l-158 131l205 286l-274 78l51 199l266 -141l-29 372h189l-29 -372l266 141l52 -199z" />
    <glyph glyph-name="plus" unicode="+" 
d="M598 721v-340h-203v340h-280v192h278v338h205v-338h279v-192h-279z" />
    <glyph glyph-name="comma" unicode="," horiz-adv-x="518" 
d="M305 307q55 0 87 -26.5t38 -61.5l-237 -547h-177l123 545q55 90 166 90z" />
    <glyph glyph-name="hyphen" unicode="-" horiz-adv-x="671" 
d="M104 684v229h463v-229h-463z" />
    <glyph glyph-name="hyphen" unicode="&#xad;" horiz-adv-x="671" 
d="M104 684v229h463v-229h-463z" />
    <glyph glyph-name="period" unicode="." horiz-adv-x="518" 
d="M426 147.5q0 -69.5 -48 -118.5t-118 -49t-119 49t-49 118.5t49 118.5t119 49t118 -49t48 -118.5z" />
    <glyph glyph-name="slash" unicode="/" horiz-adv-x="917" 
d="M227 -319l-207 65l609 2087l207 -66z" />
    <glyph glyph-name="zero" unicode="0" 
d="M909 860q0 -213 -22.5 -378t-72.5 -277.5t-129 -170t-189.5 -57.5t-189.5 57.5t-129 170t-72.5 277.5t-22.5 378t22.5 378t72.5 276.5t129 170t189.5 58.5t189.5 -58.5t129 -170t72.5 -276.5t22.5 -378zM649 867q0 175 -8 300t-26.5 203t-48 115t-91.5 37t-97.5 -148.5
t-35.5 -415.5q0 -266 8 -390t26.5 -201.5t48.5 -114.5t71 -37t70.5 37t48 114.5t26.5 201.5t8 299z" />
    <glyph glyph-name="one" unicode="1" 
d="M461 0v1354q-138 -63 -305 -72l-27 195q124 17 247 89t156 154h205v-1720h-276z" />
    <glyph glyph-name="two" unicode="2" 
d="M329 1505q-120 0 -206 -47l-66 201q49 33 140 58.5t207 25.5q224 0 334 -130.5t110 -338.5q0 -162 -117 -383l-332 -625h473v-266h-829l449 956q75 164 75 283t-59 192.5t-179 73.5z" />
    <glyph glyph-name="three" unicode="3" 
d="M347 1509q-116 0 -204 -51l-65 201q53 35 140.5 59.5t191.5 24.5q206 0 319 -121t113 -307q0 -131 -69.5 -230t-151.5 -145v-4q154 -93 198.5 -216.5t44.5 -223.5q0 -217 -131.5 -368t-334.5 -151t-337 84l72 215q82 -53 200 -53t183.5 80.5t65.5 208.5t-90 211.5
t-226 83.5v184q133 8 219 90t86 188q0 107 -54 173.5t-170 66.5z" />
    <glyph glyph-name="four" unicode="4" 
d="M811 350v-350h-260v350h-471v213l473 1157h258v-1159h100v-211h-100zM563 1260q0 17 4 77h-6q-10 -31 -25 -83t-36 -101l-240 -592h303v699z" />
    <glyph glyph-name="five" unicode="5" 
d="M150 276q76 -53 197 -53t186 87.5t65 189.5q0 195 -119.5 282t-339.5 33l70 905h645v-256h-448l-33 -434q239 16 373.5 -124.5t134.5 -376.5t-133 -394t-347 -158q-104 0 -189 25t-134 59z" />
    <glyph glyph-name="six" unicode="6" 
d="M530 1047q84 0 159 -41t124 -112t74.5 -167t25.5 -266.5t-105 -327t-300 -156.5t-308.5 175t-113.5 445t63.5 459t160 330.5t213 231.5t222.5 129l84 -225q-130 -49 -251 -182.5t-170 -311.5q38 19 122 19zM506 215q149 0 149 313q0 230 -73.5 280t-129.5 50t-92 -14
q-16 -86 -16 -256t43 -271.5t119 -101.5z" />
    <glyph glyph-name="seven" unicode="7" 
d="M98 1464v256h848l-145 -463q-227 -719 -316 -1257h-335l481 1464h-533z" />
    <glyph glyph-name="eight" unicode="8" 
d="M909 416q0 -191 -120 -315t-297 -124t-293.5 122.5t-116.5 329.5t100.5 313t153.5 153q-109 100 -167 201.5t-58 214.5q0 112 29.5 188t81.5 130t122 84t193.5 30t234.5 -115t111 -299q0 -130 -59.5 -223.5t-170.5 -194.5q123 -113 169 -191.5t66.5 -145t20.5 -158.5z
M487 754q-172 -152 -172 -290q0 -118 49.5 -182.5t125.5 -64.5q77 0 123 63.5t46 156.5t-43 166t-129 151zM664 1331q0 82 -45 138.5t-117 56.5t-113 -56.5t-41 -138.5t39 -144.5t115 -137.5q78 74 120 137t42 145z" />
    <glyph glyph-name="nine" unicode="9" 
d="M462 674q-86 0 -160.5 41t-149 148t-74.5 337t104.5 386.5t300.5 156.5t309 -174.5t113 -444.5t-63.5 -459.5t-159.5 -330.5t-213 -231.5t-223 -129.5l-84 226q131 50 248 178.5t174 314.5q-36 -18 -122 -18zM485 1522q-149 0 -149 -320q0 -227 74 -280.5t130 -53.5
t91 15q16 86 16 257t-43 276.5t-119 105.5z" />
    <glyph glyph-name="colon" unicode=":" horiz-adv-x="518" 
d="M426 147.5q0 -69.5 -48 -118.5t-118 -49t-119 49t-49 118.5t49 118.5t119 49t118 -49t48 -118.5zM426 798.5q0 -69.5 -48 -117.5t-118 -48t-119 48t-49 117.5t49 119t119 49.5t118 -49.5t48 -119z" />
    <glyph glyph-name="semicolon" unicode=";" horiz-adv-x="518" 
d="M305 307q55 0 87 -26.5t38 -61.5l-237 -547h-177l123 545q55 90 166 90zM430 798.5q0 -69.5 -49 -117.5t-118.5 -48t-119 48t-49.5 117.5t49.5 119t119 49.5t118.5 -49.5t49 -119z" />
    <glyph glyph-name="semicolon" unicode="&#x37e;" horiz-adv-x="518" 
d="M305 307q55 0 87 -26.5t38 -61.5l-237 -547h-177l123 545q55 90 166 90zM430 798.5q0 -69.5 -49 -117.5t-118.5 -48t-119 48t-49.5 117.5t49.5 119t119 49.5t118.5 -49.5t49 -119z" />
    <glyph glyph-name="less" unicode="&#x3c;" 
d="M115 729v176l762 320v-219l-553 -189l553 -184v-223z" />
    <glyph glyph-name="equal" unicode="=" 
d="M115 911v193h762v-193h-762zM115 530v193h762v-193h-762z" />
    <glyph glyph-name="greater" unicode="&#x3e;" 
d="M115 410v223l553 184l-553 189v219l762 -320v-176z" />
    <glyph glyph-name="question" unicode="?" horiz-adv-x="843" 
d="M292 1501q-95 0 -167 -45l-68 203q45 31 124 57.5t174 26.5q187 0 297 -113t110 -282q0 -209 -97.5 -304.5t-146.5 -125.5l-24 -408h-228l-28 461q106 48 175.5 139.5t69.5 182.5t-48 149.5t-143 58.5zM547 147.5q0 -69.5 -48 -118.5t-118 -49t-119 49t-49 118.5
t49 118.5t119 49t118 -49t48 -118.5z" />
    <glyph glyph-name="at" unicode="@" horiz-adv-x="1761" 
d="M1008 -350q-427 0 -674.5 284t-247.5 748t170 681.5t326 298.5t344 81q361 0 555 -246.5t194 -628.5t-181.5 -579t-448.5 -197t-401 160t-134 449t110 449.5t310 160.5q101 0 174.5 -37t116.5 -88v-869q153 64 192 244t39 314q0 297 -130 491.5t-390 194.5
q-289 0 -456 -243t-167 -623t182 -615.5t517 -235.5q174 0 300 58.5t203 132.5l103 -156q-239 -229 -606 -229zM733 712q0 -206 62.5 -313.5t210.5 -111.5v817q-35 29 -86 29q-90 0 -138.5 -107.5t-48.5 -313.5z" />
    <glyph glyph-name="A" unicode="A" horiz-adv-x="1050" 
d="M741 0l-59 336h-336l-61 -336h-262l350 1720h305l350 -1720h-287zM547 1153q-25 137 -31 250h-4q-7 -145 -29 -250l-108 -612h278z" />
    <glyph glyph-name="B" unicode="B" horiz-adv-x="1048" 
d="M479 1743q473 0 473 -475q0 -140 -73 -242t-154 -131v-4q88 -32 167 -134t79 -282q0 -248 -126 -373t-362 -125q-125 0 -222 27t-146 57v1598q51 31 146 57.5t218 26.5zM475 203q221 0 221 294q0 159 -64.5 228.5t-193.5 69.5h-55v-578q33 -14 92 -14zM680 1255
q0 150 -50 213.5t-159 63.5q-57 0 -88 -14v-543h53q244 -1 244 280z" />
    <glyph glyph-name="C" unicode="C" horiz-adv-x="872" 
d="M582 -23q-242 0 -370 219.5t-128 664t128 663.5t370 219q88 0 149.5 -27.5t91.5 -56.5l-61 -199q-64 41 -133 41q-131 0 -194.5 -154.5t-63.5 -478.5q0 -633 256 -632q71 0 133 40l63 -215q-31 -29 -92 -56.5t-149 -27.5z" />
    <glyph glyph-name="D" unicode="D" horiz-adv-x="1079" 
d="M461 1743q534 0 534 -881q0 -639 -196.5 -762t-334.5 -123q-226 0 -349 84v1598q130 84 346 84zM715 868q0 509 -92.5 580.5t-147.5 71.5t-86 -13v-1280q36 -12 89 -12q117 0 177 153.5t60 499.5z" />
    <glyph glyph-name="E" unicode="E" horiz-adv-x="806" 
d="M115 0v1720h604v-225h-328v-502h289v-225h-289v-537h328v-231h-604z" />
    <glyph glyph-name="F" unicode="F" horiz-adv-x="798" 
d="M391 1495v-502h289v-225h-289v-768h-276v1720h604v-225h-328z" />
    <glyph glyph-name="G" unicode="G" horiz-adv-x="1062" 
d="M84 860q0 426 150.5 654.5t420.5 228.5q104 0 178 -26.5t109 -57.5l-57 -199q-77 45 -171 45t-221.5 -72t-127.5 -570q0 -497 95.5 -570.5t147.5 -73.5t82 12v545h-139v221h405v-936q-118 -84 -329 -84q-543 0 -543 883z" />
    <glyph glyph-name="H" unicode="H" horiz-adv-x="1081" 
d="M690 0v768h-299v-768h-276v1720h276v-727h299v727h277v-1720h-277z" />
    <glyph glyph-name="I" unicode="I" horiz-adv-x="518" 
d="M121 0v1720h276v-1720h-276z" />
    <glyph glyph-name="J" unicode="J" horiz-adv-x="526" 
d="M406 150q0 -233 -117 -363.5t-330 -136.5v235q68 12 120 82t52 174v1579h275v-1570z" />
    <glyph glyph-name="K" unicode="K" horiz-adv-x="1044" 
d="M395 864v-864h-276v1720h276v-809h4q14 55 39 113l283 696h285l-361 -827l375 -893h-305l-275 727q-10 23 -16 47t-13 46t-12 44h-4z" />
    <glyph glyph-name="L" unicode="L" horiz-adv-x="753" 
d="M119 0v1720h276v-1489h305v-231h-581z" />
    <glyph glyph-name="M" unicode="M" horiz-adv-x="1474" 
d="M1053 1190v72h-4l-11 -72q-6 -50 -26 -152l-205 -1038h-166l-203 1038q-20 102 -26 152l-11 72h-4v-72q0 -90 -6 -152l-72 -1038h-253l174 1720h270l195 -962q9 -42 18 -111q8 -68 12 -98h4q2 31 9 67q6 63 22 142l195 962h270l174 -1720h-279l-71 1038q-6 62 -6 152z
" />
    <glyph glyph-name="N" unicode="N" horiz-adv-x="1128" 
d="M786 598q-4 58 -4 73v1049h232v-1720h-209l-393 1012q-14 35 -35 99q-20 63 -31 93h-4q0 -31 2 -63l2 -131v-1010h-231v1720h241l367 -940q25 -68 37 -111t22 -71h4z" />
    <glyph glyph-name="O" unicode="O" horiz-adv-x="1085" 
d="M1001 860q0 -209 -24.5 -373.5t-79.5 -277.5t-142 -172.5t-212 -59.5t-212 59.5t-142.5 172.5t-80 277.5t-24.5 373.5t24.5 374t80 277.5t142.5 172t212 59.5t212 -59.5t142 -172t79.5 -277.5t24.5 -374zM719 867q0 175 -9.5 299t-31 203t-54 115t-104.5 36t-112.5 -148
t-40.5 -506q0 -357 41 -504t157.5 -147t135 238.5t18.5 413.5z" />
    <glyph glyph-name="P" unicode="P" horiz-adv-x="1011" 
d="M115 1659q144 84 370 84t346.5 -133t120.5 -367t-123.5 -371t-365.5 -137q-45 0 -76 6v-741h-272v1659zM451 944q227 0 227 300q0 140 -49 212t-160 72q-47 0 -82 -15v-567q14 -2 19 -2h45z" />
    <glyph glyph-name="Q" unicode="Q" horiz-adv-x="1085" 
d="M543 -23q-359 0 -409 337t-50 546t24.5 374t80 277.5t142.5 172t270 59.5t291.5 -222t108.5 -661q0 -604 -206 -788l297 -207l-213 -180l-269 297q-20 -5 -67 -5zM719 867q0 175 -9.5 299t-31 203t-54 115t-104.5 36t-112.5 -148t-40.5 -506q0 -357 41 -504t157.5 -147
t135 238.5t18.5 413.5z" />
    <glyph glyph-name="R" unicode="R" horiz-adv-x="1048" 
d="M387 852v-852h-272v1659q53 33 148 58.5t215 25.5q238 0 358 -130.5t120 -369.5q0 -163 -93 -273.5t-201 -148.5l352 -821h-305l-271 709q-20 49 -47 143h-4zM477 1528q-48 0 -90 -15v-579q18 -6 47 -6q113 0 178.5 76t65.5 224t-46 224t-155 76z" />
    <glyph glyph-name="S" unicode="S" horiz-adv-x="856" 
d="M713 1460q-71 49 -191 49q-70 0 -122 -56t-52 -142t32 -150.5t81 -123t104.5 -116t104.5 -126t80.5 -155t31.5 -196.5q0 -209 -118 -338t-304 -129q-100 0 -178 26t-121 58l66 220q27 -18 78 -36t100 -18q91 0 143 60.5t52 146.5t-32 151.5t-79 124t-181 197.5t-134 404
q0 201 119 316.5t301 115.5q92 0 164.5 -26.5t111.5 -57.5z" />
    <glyph glyph-name="T" unicode="T" horiz-adv-x="856" 
d="M565 1495v-1495h-274v1495h-244v225h762v-225h-244z" />
    <glyph glyph-name="U" unicode="U" horiz-adv-x="1056" 
d="M942 401q0 -199 -116 -311.5t-297.5 -112.5t-297.5 112.5t-116 311.5v1319h276v-1327q0 -84 40 -128t107.5 -44t107.5 44t40 128v1327h256v-1319z" />
    <glyph glyph-name="V" unicode="V" horiz-adv-x="1017" 
d="M651 0h-284l-342 1720h299l168 -1079q22 -173 26 -246h4q2 37 6 75t8.5 81t12.5 90l172 1079h272z" />
    <glyph glyph-name="W" unicode="W" horiz-adv-x="1529" 
d="M1083 469q0 51 7.5 113.5t11.5 99.5l135 1038h252l-281 -1720h-258l-159 985q-19 120 -25 211h-4q-2 -33 -6 -67t-7.5 -70.5t-9.5 -73.5l-159 -985h-258l-281 1720h276l136 -1038q7 -65 16 -213h4q4 62 27 213l170 1038h215l170 -1038q6 -37 10 -74.5t8 -71.5t6 -67h4z
" />
    <glyph glyph-name="X" unicode="X" horiz-adv-x="1015" 
d="M682 0l-178 629h-4l-189 -629h-282l323 881l-299 839h293l166 -587h4l178 587h269l-299 -813l323 -907h-305z" />
    <glyph glyph-name="Y" unicode="Y" horiz-adv-x="980" 
d="M629 0h-277v729l-338 991h299l189 -698h4l186 698h275l-338 -991v-729z" />
    <glyph glyph-name="Z" unicode="Z" horiz-adv-x="827" 
d="M70 1497v223h696l-383 -1491h385v-229h-729l395 1497h-364z" />
    <glyph glyph-name="bracketleft" unicode="[" horiz-adv-x="614" 
d="M117 -328v2270h442v-183h-199v-1896h199v-191h-442z" />
    <glyph glyph-name="backslash" unicode="\" horiz-adv-x="917" 
d="M688 -319l-606 2086l205 66l608 -2087z" />
    <glyph glyph-name="bracketright" unicode="]" horiz-adv-x="614" 
d="M55 -328v191h199v1896h-199v183h443v-2270h-443z" />
    <glyph glyph-name="asciicircum" unicode="^" 
d="M496.5 1536q67.5 0 111.5 -70l271 -430l-121 -131l-262 352l-263 -352l-120 131l270 430q46 70 113.5 70z" />
    <glyph glyph-name="underscore" unicode="_" 
d="M-20 -424v211h1032v-211h-1032z" />
    <glyph glyph-name="grave" unicode="`" horiz-adv-x="499" 
d="M129 1688q80 0 141 -43l99 -277h-127l-211 277q18 43 98 43z" />
    <glyph glyph-name="a" unicode="a" horiz-adv-x="929" 
d="M461 -20q-190 0 -290.5 109t-100.5 306t129 306t362 143v49q0 164 -151 164q-126 0 -238 -60l-57 191q47 29 138 55.5t206 26.5q170 0 265 -98.5t95 -303.5v-800q-118 -88 -358 -88zM473 180q51 0 88 21v467q-115 -16 -178.5 -79t-63.5 -173q0 -236 154 -236z" />
    <glyph glyph-name="b" unicode="b" horiz-adv-x="978" 
d="M537 1264q174 0 269 -163t95 -442q0 -679 -461 -679q-208 0 -329 81v1659h266v-491q72 35 160 35zM455 193q100 0 138 115.5t38 332.5t-37 320.5t-127 103.5q-54 0 -90 -18v-838q37 -16 78 -16z" />
    <glyph glyph-name="c" unicode="c" horiz-adv-x="765" 
d="M78 624q0 323 108.5 484.5t292.5 161.5q149 0 236 -82l-62 -180q-49 49 -125 49q-176 0 -176 -426q0 -219 49.5 -321.5t129.5 -102.5t122 47l62 -193q-76 -81 -249 -81t-280.5 160.5t-107.5 483.5z" />
    <glyph glyph-name="d" unicode="d" horiz-adv-x="978" 
d="M78 616q0 319 107.5 482.5t289.5 163.5q81 0 127 -23v481h266v-1659q-115 -81 -337 -81t-337.5 158.5t-115.5 477.5zM537 1065q-111 0 -150 -115.5t-39 -323.5t42 -320.5t138 -112.5q39 0 74 14v848q-25 10 -65 10z" />
    <glyph glyph-name="e" unicode="e" horiz-adv-x="968" 
d="M78 622q0 307 106.5 477.5t309.5 170.5t300 -163t97 -450q0 -56 -4 -112l-541 -68q4 -117 58.5 -193.5t154.5 -76.5q148 0 242 59l61 -205q-115 -81 -337 -81t-334.5 167.5t-112.5 474.5zM500.5 1077q-126.5 0 -143.5 -161.5t-15 -253.5l285 34q0 381 -126.5 381z" />
    <glyph glyph-name="f" unicode="f" horiz-adv-x="638" 
d="M528 1538q-98 0 -98 -149v-140h139v-198h-139v-1051h-268v1051h-101v198h101v131q0 188 87 272.5t238 84.5q42 0 82 -8v-193q-10 2 -13 2h-28z" />
    <glyph glyph-name="g" unicode="g" horiz-adv-x="978" 
d="M541 1270q212 0 327 -82v-1065q0 -233 -114.5 -352t-310.5 -119t-328 84l67 207q31 -23 94.5 -41.5t131.5 -18.5q104 0 149 60.5t45 152.5v33q-58 -35 -153 -35q-175 0 -273 149.5t-98 401.5q0 445 174 535t289 90zM510 303q59 0 92 21v729q-33 14 -78 14
q-96 0 -136 -105.5t-40 -285.5t37 -276.5t125 -96.5z" />
    <glyph glyph-name="h" unicode="h" horiz-adv-x="987" 
d="M563 1270q160 0 237 -94.5t77 -253.5v-922h-267v909q0 78 -28.5 119t-96.5 41t-108 -33v-1036h-266v1720h266v-501q86 51 186 51z" />
    <glyph glyph-name="i" unicode="i" horiz-adv-x="491" 
d="M113 0v1249h268v-1249h-268zM393 1593.5q0 -61.5 -43 -104.5t-104.5 -43t-104.5 43t-43 104.5t43 104.5t104.5 43t104.5 -43t43 -104.5z" />
    <glyph glyph-name="j" unicode="j" horiz-adv-x="501" 
d="M389 88q0 -226 -96.5 -329t-323.5 -107v215q72 4 113 52t41 163v1167h266v-1161zM403 1593.5q0 -61.5 -43 -104.5t-104 -43t-104 43t-43 104.5t43 104.5t104 43t104 -43t43 -104.5z" />
    <glyph glyph-name="k" unicode="k" horiz-adv-x="974" 
d="M379 623v-623h-266v1720h266v-1054h4l10 30q5 17 27 64l227 489h285l-309 -602l323 -647h-301l-227 522q-21 42 -35 101h-4z" />
    <glyph glyph-name="l" unicode="l" horiz-adv-x="493" 
d="M113 0v1720h268v-1720h-268z" />
    <glyph glyph-name="m" unicode="m" horiz-adv-x="1486" 
d="M1040 1270q165 0 250.5 -92.5t85.5 -257.5v-920h-266v907q0 162 -123 162q-63 0 -110 -51v-1018h-267v913q0 156 -133 156q-52 0 -100 -22v-1047h-266v1188q137 82 372 82q119 0 179.5 -31t99.5 -76q113 107 278 107z" />
    <glyph glyph-name="n" unicode="n" horiz-adv-x="987" 
d="M610 907q0 162 -126 162q-67 0 -107 -22v-1047h-266v1188q148 82 366 82q219 0 309.5 -92.5t90.5 -257.5v-920h-267v907z" />
    <glyph glyph-name="o" unicode="o" horiz-adv-x="966" 
d="M483.5 1270q405.5 0 405.5 -645t-405.5 -645t-405.5 645t405.5 645zM616 631q0 223 -27.5 330.5t-105 107.5t-105.5 -107.5t-28 -330.5t28 -330.5t105.5 -107.5t105 107.5t27.5 330.5z" />
    <glyph glyph-name="p" unicode="p" horiz-adv-x="978" 
d="M450 1270q451 0 451 -639q0 -317 -106.5 -480t-288.5 -163q-85 0 -129 22v-338h-266v1516q117 82 339 82zM444 199q111 0 149 115.5t38 323.5t-42 319.5t-138 111.5q-44 0 -74 -12v-848q25 -10 67 -10z" />
    <glyph glyph-name="q" unicode="q" horiz-adv-x="978" 
d="M541 1270q210 0 327 -82v-1516h-266v348q-71 -34 -159 -34q-174 0 -269.5 162.5t-95.5 441.5q0 680 463 680zM524 1067q-100 0 -138 -114.5t-38 -332t38 -322.5t128 -105q48 0 88 20v838q-37 16 -78 16z" />
    <glyph glyph-name="r" unicode="r" horiz-adv-x="638" 
d="M477 1270q77 0 133 -8l-51 -226q-41 23 -93 25t-89 -14v-1047h-266v1188q138 82 366 82z" />
    <glyph glyph-name="s" unicode="s" horiz-adv-x="739" 
d="M456 1051q-62 0 -95 -37t-33 -93t25.5 -95.5t64.5 -73t84 -69.5t109.5 -112t64.5 -235t-100 -257.5t-255 -98.5q-156 0 -268 81l62 205q67 -57 164 -57q53 0 87.5 33.5t34.5 91.5t-24.5 99.5t-62.5 76.5t-81 70.5t-105 110.5t-62 231t89 252t244 96t256 -82l-59 -187
q-78 50 -140 50z" />
    <glyph glyph-name="t" unicode="t" horiz-adv-x="647" 
d="M442 -14q-135 0 -207.5 85t-72.5 232v748h-101v198h101v256l268 84v-340h139v-198h-139v-709q0 -137 88 -137q27 0 51 10v-201q-42 -28 -127 -28z" />
    <glyph glyph-name="u" unicode="u" horiz-adv-x="985" 
d="M504 193q64 0 102 24v1032h268v-1188q-51 -35 -149 -58t-227 -23q-186 0 -286.5 89t-100.5 291v889h266v-919q0 -137 127 -137z" />
    <glyph glyph-name="v" unicode="v" horiz-adv-x="929" 
d="M602 0h-272l-293 1249h280l127 -692q6 -37 17 -102.5t14 -106.5h4q2 31 7 64t10.5 70.5t13.5 74.5l131 692h252z" />
    <glyph glyph-name="w" unicode="w" horiz-adv-x="1415" 
d="M989 367q0 27 4 53t7.5 56t9.5 63l123 710h235l-258 -1249h-240l-135 641q-8 31 -12 60.5t-8 56.5t-6 53h-4q-3 -25 -7 -51t-8 -57t-10 -62l-135 -641h-242l-256 1249h258l119 -710l8 -62t8 -57t6 -53h5q2 27 6 53t8 57t10 62l139 710h209l138 -710q6 -33 10 -63t8 -56
t6 -53h4z" />
    <glyph glyph-name="x" unicode="x" horiz-adv-x="905" 
d="M594 0l-145 418h-5l-157 -418h-258l280 629l-264 620h270l142 -397h4l155 397h244l-264 -590l281 -659h-283z" />
    <glyph glyph-name="y" unicode="y" horiz-adv-x="929" 
d="M510 -328h-272l110 367l-311 1210h280l127 -696q11 -67 18 -124q7 -56 11 -87h4q4 31 9 65t10.5 71.5t13.5 74.5l133 696h250z" />
    <glyph glyph-name="z" unicode="z" horiz-adv-x="751" 
d="M74 1051v198h606l-295 -1042h299v-207h-629l312 1051h-293z" />
    <glyph glyph-name="braceleft" unicode="{" horiz-adv-x="741" 
d="M670 -340q-213 0 -319.5 90t-106.5 279v483q0 109 -45 153t-109 44v182q63 0 108.5 43t45.5 151v482q0 186 106.5 274t319.5 88v-170q-90 0 -135.5 -44t-45.5 -148v-482q0 -121 -52 -197.5t-138 -86.5v-4q86 -10 138 -87t52 -198v-483q0 -104 45.5 -148.5t135.5 -44.5
v-176z" />
    <glyph glyph-name="bar" unicode="|" horiz-adv-x="454" 
d="M117 -328v2048h221v-2048h-221z" />
    <glyph glyph-name="braceright" unicode="}" horiz-adv-x="741" 
d="M651 709q-63 0 -109 -44t-46 -153v-483q0 -188 -105.5 -278.5t-318.5 -90.5v176q90 0 135 44t45 149v483q0 121 52 197.5t138 87.5v4q-86 10 -138 87t-52 197v482q0 104 -45 148t-135 44v170q213 0 318.5 -88t105.5 -274v-482q0 -109 46 -151.5t109 -42.5v-182z" />
    <glyph glyph-name="asciitilde" unicode="~" 
d="M629 901q95 0 157 78l97 -135q-23 -68 -79 -112t-120 -44t-101.5 16.5t-73.5 37t-71 37t-76 16.5q-96 0 -157 -76l-96 133q23 68 79 113t120 45t101 -17.5t72 -37t71 -37t77 -17.5z" />
    <glyph glyph-name="nonbreakingspace" unicode="&#xa0;" horiz-adv-x="458" 
 />
    <glyph glyph-name="exclamdown" unicode="&#xa1;" horiz-adv-x="569" 
d="M121 -328l49 1211h229l50 -1211h-328zM453 1245.5q0 -69.5 -49.5 -119t-119 -49.5t-118.5 49.5t-49 119t49 118.5t118.5 49t119 -49t49.5 -118.5z" />
    <glyph glyph-name="cent" unicode="&#xa2;" horiz-adv-x="880" 
d="M96 624.5q0 272.5 98.5 430t254.5 198.5l-29 316h201l-27 -301q137 -6 219 -80l-63 -180q-18 16 -58.5 32.5t-93.5 16.5q-104 0 -166.5 -106.5t-62.5 -320.5t62.5 -318.5t160.5 -104.5t158 47l63 -193q-69 -74 -219 -81l27 -308h-201l29 324q-156 41 -254.5 198.5
t-98.5 430z" />
    <glyph glyph-name="sterling" unicode="&#xa3;" 
d="M430 1251q0 -121 25 -237h307v-219h-273q45 -294 -73 -531h508v-264h-858q131 183 166.5 354.5t35.5 267.5t-16 173h-182v219h133q-35 152 -35 257q0 210 114 341t334 131q111 0 189 -26.5t119 -57.5l-66 -201q-80 51 -190 51q-111 0 -174.5 -68.5t-63.5 -189.5z" />
    <glyph glyph-name="currency" unicode="&#xa4;" horiz-adv-x="1130" 
d="M995 797q0 -175 -96 -301l141 -199l-166 -117l-135 189q-82 -41 -174 -41t-174 41l-135 -189l-166 117l141 199q-96 126 -96 300t92 302l-137 194l166 117l129 -182q80 43 180.5 43t179.5 -43l129 182l166 -117l-137 -194q92 -126 92 -301zM737 805q0 125 -47 205
t-125 80t-125 -80t-47 -205t47 -204t125 -79t125 79t47 204z" />
    <glyph glyph-name="yen" unicode="&#xa5;" horiz-adv-x="1126" 
d="M700 0h-274v598l-311 -18v174l311 -19l-90 234l-221 -21v174l170 -16l-234 614h297l225 -721h5l225 721h272l-233 -614l170 16v-174l-221 21l-91 -234l312 19v-174l-312 18v-598z" />
    <glyph glyph-name="brokenbar" unicode="&#xa6;" horiz-adv-x="454" 
d="M117 -328v799h221v-799h-221zM117 942v778h221v-778h-221z" />
    <glyph glyph-name="section" unicode="&#xa7;" horiz-adv-x="1032" 
d="M632 1532q-79 0 -119 -40t-40 -92t16.5 -88t45 -73.5t108.5 -113.5q156 -148 230.5 -254.5t74.5 -233.5t-65 -229.5t-144 -153.5q80 -121 80 -261t-108 -241.5t-262 -101.5q-86 0 -158 25.5t-115 58.5l72 194q64 -51 145 -51q80 0 125 40t45 116t-58.5 142.5
t-120.5 121.5q-150 133 -225 236.5t-75 247.5t68 243t151 152q-74 110 -74 203q0 171 100.5 267.5t262.5 96.5q84 0 150.5 -27.5t97.5 -56.5l-64 -178q-65 51 -144 51zM721 596q0 64 -28.5 120t-73 108.5t-98.5 103.5t-105 104q-35 -25 -71 -79t-36 -127t29 -129t73 -106
t99 -97.5t108 -98.5q35 29 69 83t34 118z" />
    <glyph glyph-name="dieresis" unicode="&#xa8;" horiz-adv-x="499" 
d="M530 1477q0 -47 -32.5 -80t-79.5 -33t-80 33t-33 80t33 79.5t80 32.5t79.5 -32.5t32.5 -79.5zM195 1477q0 -47 -33 -80t-80 -33t-80 33t-33 80t33 79.5t80 32.5t80 -32.5t33 -79.5z" />
    <glyph glyph-name="copyright" unicode="&#xa9;" horiz-adv-x="1687" 
d="M1602 860.5q0 -190.5 -53.5 -352.5t-153 -279.5t-239.5 -184.5t-312 -67t-312.5 67t-239.5 184.5t-152.5 279.5t-53.5 352.5t53.5 352t152.5 279.5t239.5 184.5t312.5 66.5t312 -66.5t239.5 -184.5t153 -279.5t53.5 -352zM1401 864.5q0 159.5 -37 293.5t-108.5 229.5
t-175 148.5t-236.5 53t-236.5 -53t-175.5 -148.5t-108.5 -229.5t-36.5 -293.5t36.5 -294t108.5 -230.5t175.5 -149.5t236.5 -53.5t236.5 53.5t175 149.5t108.5 230.5t37 294zM879 352q-170 0 -270.5 132t-100.5 386t100.5 385t270.5 131q129 0 200 -65l-51 -123
q-52 39 -134 39t-134.5 -88.5t-52.5 -276.5t53 -274t135 -86t131 37l53 -131q-77 -66 -200 -66z" />
    <glyph glyph-name="ordfeminine" unicode="&#xaa;" horiz-adv-x="909" 
d="M799 778q-111 -69 -316 -69t-303 90t-98 227q0 310 475 373v39q0 129 -147 129q-120 0 -232 -49l-53 157q45 23 134 44.5t196 21.5q160 0 252 -79t92 -243v-641zM458 872q59 0 99 17v366q-106 -14 -173 -61t-67 -152q0 -72 41 -121t100 -49z" />
    <glyph glyph-name="guillemotleft" unicode="&#xab;" horiz-adv-x="983" 
d="M731 307l-231 471l231 471l148 -65l-146 -406l146 -405zM338 307l-234 471l234 471l145 -65l-143 -406l143 -405z" />
    <glyph glyph-name="logicalnot" unicode="&#xac;" 
d="M672 381v340h-557v192h762v-532h-205z" />
    <glyph glyph-name="registered" unicode="&#xae;" horiz-adv-x="1687" 
d="M1602 860.5q0 -190.5 -53.5 -352.5t-153 -279.5t-239.5 -184.5t-312 -67t-312.5 67t-239.5 184.5t-152.5 279.5t-53.5 352.5t53.5 352t152.5 279.5t239.5 184.5t312.5 66.5t312 -66.5t239.5 -184.5t153 -279.5t53.5 -352zM1401 864.5q0 159.5 -37 293.5t-108.5 229.5
t-175 148.5t-236.5 53t-236.5 -53t-175.5 -148.5t-108.5 -229.5t-36.5 -293.5t36.5 -294t108.5 -230.5t175.5 -149.5t236.5 -53.5t236.5 53.5t175 149.5t108.5 230.5t37 294zM844 1389q145 0 225 -78t80 -213q0 -91 -54 -157t-122 -79l201 -493h-205l-174 503h-27v-503h-182
v970q113 50 258 50zM963 1098q0 164 -132 164q-41 0 -63 -9v-327q10 -2 13 -2h34q76 0 112 51t36 123z" />
    <glyph glyph-name="macron" unicode="&#xaf;" horiz-adv-x="499" 
d="M0 1405v147h500v-147h-500z" />
    <glyph glyph-name="macron" unicode="&#x2c9;" horiz-adv-x="499" 
d="M0 1405v147h500v-147h-500z" />
    <glyph glyph-name="degree" unicode="&#xb0;" 
d="M889 1352q0 -82 -31 -154t-84 -125t-124.5 -84t-153.5 -31t-154 31t-125 84t-84 125t-31 154t31 152.5t84 123.5t125 84t154 31t153.5 -31t124.5 -84t84 -123.5t31 -152.5zM684 1352q0 80 -54.5 136t-134 56t-134 -56t-54.5 -136t54.5 -135.5t134 -55.5t134 55.5
t54.5 135.5z" />
    <glyph glyph-name="plusminus" unicode="&#xb1;" 
d="M598 827v-307h-203v307h-280v193h278v305h205v-305h279v-193h-279zM115 215v174h762v-174h-762z" />
    <glyph glyph-name="twosuperior" unicode="&#xb2;" horiz-adv-x="718" 
d="M403 1426q0 149 -138 149q-75 0 -138 -35l-45 143q102 60 238 60q137 0 210.5 -82t73.5 -195t-94 -278l-174 -309h291v-193h-564l285 565q55 108 55 175z" />
    <glyph glyph-name="threesuperior" unicode="&#xb3;" horiz-adv-x="718" 
d="M90 1683q102 60 229 60t202 -75t75 -197t-129 -218v-4q98 -47 124.5 -127t26.5 -142q0 -131 -90.5 -223.5t-229.5 -92.5t-224 61l55 156q62 -43 135 -43t111.5 44t38.5 116t-52.5 116.5t-144.5 44.5v127q86 10 135 57.5t49 106.5q0 125 -125 125q-68 0 -135 -35z" />
    <glyph glyph-name="acute" unicode="&#xb4;" horiz-adv-x="499" 
d="M345 1688q104 0 124 -43l-211 -277h-127l98 277q61 43 116 43z" />
    <glyph glyph-name="mu" unicode="&#xb5;" horiz-adv-x="985" 
d="M571 -20q-53 0 -109 15t-85 32v-355h-266v1577h266v-1028q45 -28 115 -28t114 24v1032h268v-1188q-115 -81 -303 -81z" />
    <glyph glyph-name="mu" unicode="&#x3bc;" horiz-adv-x="985" 
d="M571 -20q-53 0 -109 15t-85 32v-355h-266v1577h266v-1028q45 -28 115 -28t114 24v1032h268v-1188q-115 -81 -303 -81z" />
    <glyph glyph-name="paragraph" unicode="&#xb6;" 
d="M844 1567v-1895h-174v1895h-211v-1895h-174v1284q-125 33 -190.5 130.5t-65.5 242.5q0 276 143 333.5t246 57.5h514v-153h-88z" />
    <glyph glyph-name="periodcentered" unicode="&#xb7;" horiz-adv-x="518" 
d="M426 798.5q0 -69.5 -48 -117.5t-118 -48t-119 48t-49 117.5t49 119t119 49.5t118 -49.5t48 -119z" />
    <glyph glyph-name="periodcentered" unicode="&#x2219;" horiz-adv-x="518" 
d="M426 798.5q0 -69.5 -48 -117.5t-118 -48t-119 48t-49 117.5t49 119t119 49.5t118 -49.5t48 -119z" />
    <glyph glyph-name="cedilla" unicode="&#xb8;" horiz-adv-x="499" 
d="M285 -211.5q0 42.5 -191 31.5l49 96q20 2 25 2h47q131 0 191.5 -32.5t60.5 -106.5t-94.5 -119t-249.5 -45q-59 0 -129 8l49 96q115 -12 178.5 7.5t63.5 62z" />
    <glyph glyph-name="onesuperior" unicode="&#xb9;" horiz-adv-x="718" 
d="M303 686v795q-84 -34 -199 -39l-18 131q84 10 163 50t107 97h148v-1034h-201z" />
    <glyph glyph-name="ordmasculine" unicode="&#xba;" horiz-adv-x="942" 
d="M471 1741q389 0 389 -516t-389 -516t-389 516t389 516zM604 1231q0 180 -30.5 263t-102.5 83t-102.5 -83t-30.5 -263t30.5 -265t102.5 -85t102.5 85t30.5 265z" />
    <glyph glyph-name="guillemotright" unicode="&#xbb;" horiz-adv-x="983" 
d="M645 307l-145 66l143 405l-143 406l145 65l234 -471zM252 307l-148 66l146 405l-146 406l148 65l231 -471z" />
    <glyph glyph-name="onequarter" unicode="&#xbc;" horiz-adv-x="1556" 
d="M1403 203v-203h-193v203h-317v141l321 690h189v-690h59v-141h-59zM551 -31l-168 62l629 1720l168 -61zM270 686v784q-80 -31 -198 -36l-19 129q88 10 165 54t106 103h147v-1034h-201zM1214 720q0 9 5 54h-5q-4 -16 -11 -34t-14 -39t-18 -42l-143 -315h186v376z" />
    <glyph glyph-name="onehalf" unicode="&#xbd;" horiz-adv-x="1556" 
d="M508 -31l-170 62l629 1720l170 -61zM1178 1057q150 0 219 -82t69 -195t-98 -278l-182 -309h287v-193h-564l297 565q58 114 58 179q0 145 -127 145q-70 0 -125 -35l-45 143q102 60 211 60zM270 686v795q-84 -34 -198 -39l-19 131q84 10 163 50t108 97h147v-1034h-201z" />
    <glyph glyph-name="threequarters" unicode="&#xbe;" horiz-adv-x="1556" 
d="M1403 203v-203h-193v203h-317v141l321 690h189v-690h59v-141h-59zM592 -33l-168 62l629 1720l168 -61zM285 1743q159 0 234 -75t75 -197t-129 -218v-4q98 -47 124.5 -127t26.5 -142q0 -131 -90.5 -223.5t-230.5 -92.5t-223 61l55 156q62 -43 135 -43t111.5 44t38.5 116
t-52.5 116.5t-144.5 44.5v127q86 10 136 57.5t50 106.5q0 125 -125 125q-70 0 -137 -35l-49 143q101 60 195 60zM1214 720q0 9 5 54h-5q-4 -16 -11 -34t-14 -39t-18 -42l-143 -315h186v376z" />
    <glyph glyph-name="questiondown" unicode="&#xbf;" horiz-adv-x="843" 
d="M551 -109q94 0 168 46l67 -203q-45 -31 -123.5 -57.5t-173.5 -26.5q-188 0 -297.5 113.5t-109.5 281.5q0 209 97 304t147 126l24 408h228l28 -461q-103 -45 -174.5 -137.5t-71.5 -184.5t48.5 -150.5t142.5 -58.5zM631 1245.5q0 -69.5 -49.5 -119t-119 -49.5t-117.5 49.5
t-48 119t48 118.5t117.5 49t119 -49t49.5 -118.5z" />
    <glyph glyph-name="Agrave" unicode="&#xc0;" horiz-adv-x="1050" 
d="M741 0l-59 336h-336l-61 -336h-262l350 1720h305l350 -1720h-287zM547 1153q-25 137 -31 250h-4q-7 -145 -29 -250l-108 -612h278zM365 2159q80 0 141 -43l98 -277h-125l-213 277q19 43 99 43z" />
    <glyph glyph-name="Aacute" unicode="&#xc1;" horiz-adv-x="1050" 
d="M741 0l-59 336h-336l-61 -336h-262l350 1720h305l350 -1720h-287zM547 1153q-25 137 -31 250h-4q-7 -145 -29 -250l-108 -612h278zM662 2159q102 0 122 -43l-211 -277h-127l101 277q61 43 115 43z" />
    <glyph glyph-name="Acircumflex" unicode="&#xc2;" horiz-adv-x="1050" 
d="M741 0l-59 336h-336l-61 -336h-262l350 1720h305l350 -1720h-287zM547 1153q-25 137 -31 250h-4q-7 -145 -29 -250l-108 -612h278zM526 2136q42 0 74 -37l188 -209l-59 -73l-203 145l-204 -145l-60 73l189 209q33 37 75 37z" />
    <glyph glyph-name="Atilde" unicode="&#xc3;" horiz-adv-x="1050" 
d="M741 0l-59 336h-336l-61 -336h-262l350 1720h305l350 -1720h-287zM547 1153q-25 137 -31 250h-4q-7 -145 -29 -250l-108 -612h278zM647 1843q-47 0 -72.5 10.5t-68 34t-98.5 23.5t-99 -58l-69 86q20 47 65 82t93 35q64 0 122 -33.5t116.5 -33.5t98.5 57l70 -84
q-20 -47 -65.5 -83t-92.5 -36z" />
    <glyph glyph-name="Adieresis" unicode="&#xc4;" horiz-adv-x="1050" 
d="M741 0l-59 336h-336l-61 -336h-262l350 1720h305l350 -1720h-287zM547 1153q-25 137 -31 250h-4q-7 -145 -29 -250l-108 -612h278zM807 1948q0 -47 -33 -80t-80 -33t-79.5 33t-32.5 80t32.5 79.5t79.5 32.5t80 -32.5t33 -79.5zM471 1948q0 -47 -32.5 -80t-80 -33t-80 33
t-32.5 80t32.5 79.5t80 32.5t80 -32.5t32.5 -79.5z" />
    <glyph glyph-name="Aring" unicode="&#xc5;" horiz-adv-x="1050" 
d="M741 0l-59 336h-336l-61 -336h-262l350 1720h305l350 -1720h-287zM547 1153q-25 137 -31 250h-4q-7 -145 -29 -250l-108 -612h278zM700 2003q0 -37 -13 -68.5t-36.5 -55.5t-55.5 -38t-69 -14t-68.5 14t-55 38t-38 55.5t-14.5 68.5t14.5 68.5t38 55t55 38t68.5 14.5
t69 -14.5t55.5 -38t36.5 -55t13 -68.5zM608 2003q0 35 -23.5 60.5t-58 25.5t-58.5 -25.5t-24 -60.5t24 -59.5t58.5 -24.5t58 24.5t23.5 59.5z" />
    <glyph glyph-name="AE" unicode="&#xc6;" horiz-adv-x="1355" 
d="M1190 1720v-225h-408l80 -502h328v-225h-295l86 -539h322v-229h-572l-43 336h-348l-78 -336h-266l450 1720h744zM578 1415h-5q-4 -41 -11 -79t-15 -83t-19 -88l-147 -624h291l-80 624q-6 45 -8 90t-4 83t-2 77z" />
    <glyph glyph-name="Ccedilla" unicode="&#xc7;" horiz-adv-x="872" 
d="M582 -23q-242 0 -370 219.5t-128 664t128 663.5t370 219q88 0 149.5 -27.5t91.5 -56.5l-61 -199q-64 41 -133 41q-131 0 -194.5 -154.5t-63.5 -478.5q0 -633 256 -632q71 0 133 40l63 -215q-31 -29 -92 -56.5t-149 -27.5zM502 -211.5q0 42.5 -191 31.5l49 96q20 2 24 2
h48q131 0 191.5 -32.5t60.5 -106.5t-94.5 -119t-249.5 -45q-59 0 -129 8l49 96q115 -12 178.5 7.5t63.5 62z" />
    <glyph glyph-name="Egrave" unicode="&#xc8;" horiz-adv-x="806" 
d="M115 0v1720h604v-225h-328v-502h289v-225h-289v-537h328v-231h-604zM273 2159q80 0 141 -43l98 -277h-127l-211 277q19 43 99 43z" />
    <glyph glyph-name="Eacute" unicode="&#xc9;" horiz-adv-x="806" 
d="M115 0v1720h604v-225h-328v-502h289v-225h-289v-537h328v-231h-604zM524 2159q104 0 123 -43l-213 -277h-125l99 277q62 43 116 43z" />
    <glyph glyph-name="Ecircumflex" unicode="&#xca;" horiz-adv-x="806" 
d="M115 0v1720h604v-225h-328v-502h289v-225h-289v-537h328v-231h-604zM417 2136q42 0 75 -37l188 -209l-59 -73l-203 145l-205 -145l-59 73l188 209q33 37 75 37z" />
    <glyph glyph-name="Edieresis" unicode="&#xcb;" horiz-adv-x="806" 
d="M115 0v1720h604v-225h-328v-502h289v-225h-289v-537h328v-231h-604zM362 1948q0 -47 -32.5 -80t-79.5 -33t-80 33t-33 80t33 79.5t80 32.5t79.5 -32.5t32.5 -79.5zM696 1948q0 -47 -32.5 -80t-79.5 -33t-80 33t-33 80t33 79.5t80 32.5t79.5 -32.5t32.5 -79.5z" />
    <glyph glyph-name="Igrave" unicode="&#xcc;" horiz-adv-x="518" 
d="M121 0v1720h276v-1720h-276zM108 2159q79 0 140 -43l100 -277h-127l-211 277q19 43 98 43z" />
    <glyph glyph-name="Iacute" unicode="&#xcd;" horiz-adv-x="518" 
d="M121 0v1720h276v-1720h-276zM384 2159q105 0 124 -43l-213 -277h-125l98 277q62 43 116 43z" />
    <glyph glyph-name="Icircumflex" unicode="&#xce;" horiz-adv-x="518" 
d="M121 0v1720h276v-1720h-276zM259 2136q42 0 75 -37l188 -209l-59 -73l-205 145l-203 -145l-59 73l188 209q33 37 75 37z" />
    <glyph glyph-name="Idieresis" unicode="&#xcf;" horiz-adv-x="518" 
d="M121 0v1720h276v-1720h-276zM203 1948q0 -47 -33 -80t-80 -33t-80 33t-33 80t33 79.5t80 32.5t80 -32.5t33 -79.5zM539 1948q0 -47 -33 -80t-80 -33t-80 33t-33 80t33 79.5t80 32.5t80 -32.5t33 -79.5z" />
    <glyph glyph-name="Eth" unicode="&#xd0;" horiz-adv-x="1110" 
d="M492 1743q534 0 534 -881q0 -639 -196.5 -762t-334.5 -123t-223.5 28t-126.5 56v707h-86v223h86v668q130 84 347 84zM508 215q240 1 240 653t-149.5 652t-180.5 -13v-516h143v-223h-143v-541q36 -12 90 -12z" />
    <glyph glyph-name="Ntilde" unicode="&#xd1;" horiz-adv-x="1128" 
d="M786 598q-4 58 -4 73v1049h232v-1720h-209l-393 1012q-14 35 -35 99q-20 63 -31 93h-4q0 -31 2 -63l2 -131v-1010h-231v1720h241l367 -940q25 -68 37 -111t22 -71h4zM686 1843q-47 0 -72.5 10.5t-68 34t-98.5 23.5t-99 -58l-69 86q20 47 64.5 82t92.5 35
q64 0 122.5 -33.5t117 -33.5t98.5 57l70 -84q-20 -47 -65.5 -83t-92.5 -36z" />
    <glyph glyph-name="Ograve" unicode="&#xd2;" horiz-adv-x="1085" 
d="M1001 860q0 -209 -24.5 -373.5t-79.5 -277.5t-142 -172.5t-212 -59.5t-212 59.5t-142.5 172.5t-80 277.5t-24.5 373.5t24.5 374t80 277.5t142.5 172t212 59.5t212 -59.5t142 -172t79.5 -277.5t24.5 -374zM719 867q0 175 -9.5 299t-31 203t-54 115t-104.5 36t-112.5 -148
t-40.5 -506q0 -357 41 -504t157.5 -147t135 238.5t18.5 413.5zM389 2159q80 0 141 -43l99 -277h-125l-213 277q18 43 98 43z" />
    <glyph glyph-name="Oacute" unicode="&#xd3;" horiz-adv-x="1085" 
d="M1001 860q0 -209 -24.5 -373.5t-79.5 -277.5t-142 -172.5t-212 -59.5t-212 59.5t-142.5 172.5t-80 277.5t-24.5 373.5t24.5 374t80 277.5t142.5 172t212 59.5t212 -59.5t142 -172t79.5 -277.5t24.5 -374zM719 867q0 175 -9.5 299t-31 203t-54 115t-104.5 36t-112.5 -148
t-40.5 -506q0 -357 41 -504t157.5 -147t135 238.5t18.5 413.5zM672 2159q101 0 123 -43l-211 -277h-127l100 277q61 43 115 43z" />
    <glyph glyph-name="Ocircumflex" unicode="&#xd4;" horiz-adv-x="1085" 
d="M1001 860q0 -209 -24.5 -373.5t-79.5 -277.5t-142 -172.5t-212 -59.5t-212 59.5t-142.5 172.5t-80 277.5t-24.5 373.5t24.5 374t80 277.5t142.5 172t212 59.5t212 -59.5t142 -172t79.5 -277.5t24.5 -374zM719 867q0 175 -9.5 299t-31 203t-54 115t-104.5 36t-112.5 -148
t-40.5 -506q0 -357 41 -504t157.5 -147t135 238.5t18.5 413.5zM544 2136q42 0 74 -37l189 -209l-59 -73l-205 145l-203 -145l-59 73l188 209q33 37 75 37z" />
    <glyph glyph-name="Otilde" unicode="&#xd5;" horiz-adv-x="1085" 
d="M1001 860q0 -209 -24.5 -373.5t-79.5 -277.5t-142 -172.5t-212 -59.5t-212 59.5t-142.5 172.5t-80 277.5t-24.5 373.5t24.5 374t80 277.5t142.5 172t212 59.5t212 -59.5t142 -172t79.5 -277.5t24.5 -374zM719 867q0 175 -9.5 299t-31 203t-54 115t-104.5 36t-112.5 -148
t-40.5 -506q0 -357 41 -504t157.5 -147t135 238.5t18.5 413.5zM676 1843q-47 0 -72.5 10.5t-69 34t-100 23.5t-96.5 -58l-70 86q20 47 65.5 82t92.5 35q63 0 121.5 -33.5t117.5 -33.5t99 57l70 -84q-20 -47 -65.5 -83t-92.5 -36z" />
    <glyph glyph-name="Odieresis" unicode="&#xd6;" horiz-adv-x="1085" 
d="M1001 860q0 -209 -24.5 -373.5t-79.5 -277.5t-142 -172.5t-212 -59.5t-212 59.5t-142.5 172.5t-80 277.5t-24.5 373.5t24.5 374t80 277.5t142.5 172t212 59.5t212 -59.5t142 -172t79.5 -277.5t24.5 -374zM719 867q0 175 -9.5 299t-31 203t-54 115t-104.5 36t-112.5 -148
t-40.5 -506q0 -357 41 -504t157.5 -147t135 238.5t18.5 413.5zM823 1948q0 -47 -32.5 -80t-79.5 -33t-80 33t-33 80t33 79.5t80 32.5t79.5 -32.5t32.5 -79.5zM487 1948q0 -47 -32.5 -80t-79.5 -33t-80 33t-33 80t33 79.5t80 32.5t79.5 -32.5t32.5 -79.5z" />
    <glyph glyph-name="multiply" unicode="&#xd7;" 
d="M731 377l-235 287l-236 -287l-156 121l263 321l-263 320l156 123l236 -289l235 289l156 -123l-262 -320l262 -321z" />
    <glyph glyph-name="Oslash" unicode="&#xd8;" horiz-adv-x="1085" 
d="M885 1536q116 -219 116 -666t-108.5 -670t-349.5 -223q-168 0 -271 109l-90 -213l-96 43l115 270q-117 221 -117 667q0 447 109.5 668.5t349.5 221.5q170 0 272 -109l90 213l94 -41zM696 1356q-44 176 -151 176t-149 -156t-42 -508q0 -171 8 -299zM733 868q0 169 -8 287
l-332 -784q43 -166 150 -166q104 0 147 152t43 511z" />
    <glyph glyph-name="Ugrave" unicode="&#xd9;" horiz-adv-x="1056" 
d="M942 401q0 -199 -116 -311.5t-297.5 -112.5t-297.5 112.5t-116 311.5v1319h276v-1327q0 -84 40 -128t107.5 -44t107.5 44t40 128v1327h256v-1319zM385 2159q80 0 141 -43l99 -277h-125l-213 277q18 43 98 43z" />
    <glyph glyph-name="Uacute" unicode="&#xda;" horiz-adv-x="1056" 
d="M942 401q0 -199 -116 -311.5t-297.5 -112.5t-297.5 112.5t-116 311.5v1319h276v-1327q0 -84 40 -128t107.5 -44t107.5 44t40 128v1327h256v-1319zM662 2159q102 0 122 -43l-211 -277h-127l101 277q61 43 115 43z" />
    <glyph glyph-name="Ucircumflex" unicode="&#xdb;" horiz-adv-x="1056" 
d="M942 401q0 -199 -116 -311.5t-297.5 -112.5t-297.5 112.5t-116 311.5v1319h276v-1327q0 -84 40 -128t107.5 -44t107.5 44t40 128v1327h256v-1319zM532.5 2136q42.5 0 75.5 -37l187 -209l-60 -73l-203 145l-202 -145l-60 73l187 209q33 37 75.5 37z" />
    <glyph glyph-name="Udieresis" unicode="&#xdc;" horiz-adv-x="1056" 
d="M942 401q0 -199 -116 -311.5t-297.5 -112.5t-297.5 112.5t-116 311.5v1319h276v-1327q0 -84 40 -128t107.5 -44t107.5 44t40 128v1327h256v-1319zM483 1948q0 -47 -32.5 -80t-79.5 -33t-80 33t-33 80t33 79.5t80 32.5t79.5 -32.5t32.5 -79.5zM819 1948q0 -47 -32.5 -80
t-80 -33t-80 33t-32.5 80t32.5 79.5t80 32.5t80 -32.5t32.5 -79.5z" />
    <glyph glyph-name="Yacute" unicode="&#xdd;" horiz-adv-x="980" 
d="M629 0h-277v729l-338 991h299l189 -698h4l186 698h275l-338 -991v-729zM636 2159q103 0 122 -43l-211 -277h-127l100 277q62 43 116 43z" />
    <glyph glyph-name="Thorn" unicode="&#xde;" horiz-adv-x="1011" 
d="M467 1417q246 0 365.5 -130t119.5 -364q0 -235 -129 -370t-360 -135q-45 0 -76 6v-424h-272v1720h272v-315q36 12 80 12zM678 924q0 143 -49 211.5t-160 68.5q-51 0 -82 -12v-565q14 -2 19 -2h45q121 0 174 78t53 221z" />
    <glyph glyph-name="germandbls" unicode="&#xdf;" horiz-adv-x="1067" 
d="M999 338q0 -165 -90.5 -261.5t-232.5 -96.5q-70 0 -129.5 26.5t-87.5 54.5l47 199q14 -14 47 -28.5t76 -14.5t72.5 36.5t29.5 96.5t-36 112t-78 105.5t-77.5 117t-35.5 159.5t49 159.5t106 92.5q11 74 11 185q0 110 -34 183.5t-111 73.5t-112.5 -83t-35.5 -279v-1176
h-266v1151q0 285 102 438.5t306 153.5t309.5 -136.5t105.5 -357.5q0 -152 -21 -215q-155 -50 -155 -200q0 -63 38 -113.5t83 -106t82.5 -123t37.5 -153.5z" />
    <glyph glyph-name="agrave" unicode="&#xe0;" horiz-adv-x="929" 
d="M461 -20q-190 0 -290.5 109t-100.5 306t129 306t362 143v49q0 164 -151 164q-126 0 -238 -60l-57 191q47 29 138 55.5t206 26.5q170 0 265 -98.5t95 -303.5v-800q-118 -88 -358 -88zM473 180q51 0 88 21v467q-115 -16 -178.5 -79t-63.5 -173q0 -236 154 -236zM320 1688
q80 0 141 -43l98 -277h-125l-213 277q19 43 99 43z" />
    <glyph glyph-name="aacute" unicode="&#xe1;" horiz-adv-x="929" 
d="M461 -20q-190 0 -290.5 109t-100.5 306t129 306t362 143v49q0 164 -151 164q-126 0 -238 -60l-57 191q47 29 138 55.5t206 26.5q170 0 265 -98.5t95 -303.5v-800q-118 -88 -358 -88zM473 180q51 0 88 21v467q-115 -16 -178.5 -79t-63.5 -173q0 -236 154 -236zM590 1688
q101 0 123 -43l-211 -277h-127l100 277q61 43 115 43z" />
    <glyph glyph-name="acircumflex" unicode="&#xe2;" horiz-adv-x="929" 
d="M461 -20q-190 0 -290.5 109t-100.5 306t129 306t362 143v49q0 164 -151 164q-126 0 -238 -60l-57 191q47 29 138 55.5t206 26.5q170 0 265 -98.5t95 -303.5v-800q-118 -88 -358 -88zM473 180q51 0 88 21v467q-115 -16 -178.5 -79t-63.5 -173q0 -236 154 -236zM459 1665
q43 0 76 -37l186 -209l-59 -73l-203 145l-203 -145l-59 73l186 209q33 37 76 37z" />
    <glyph glyph-name="atilde" unicode="&#xe3;" horiz-adv-x="929" 
d="M461 -20q-190 0 -290.5 109t-100.5 306t129 306t362 143v49q0 164 -151 164q-126 0 -238 -60l-57 191q47 29 138 55.5t206 26.5q170 0 265 -98.5t95 -303.5v-800q-118 -88 -358 -88zM473 180q51 0 88 21v467q-115 -16 -178.5 -79t-63.5 -173q0 -236 154 -236zM590 1372
q-47 0 -72.5 10.5t-69 34t-99 23.5t-95.5 -58l-70 86q20 47 65.5 82t92.5 35q63 0 121.5 -33.5t116.5 -33.5t98 57l72 -84q-20 -47 -66.5 -83t-93.5 -36z" />
    <glyph glyph-name="adieresis" unicode="&#xe4;" horiz-adv-x="929" 
d="M461 -20q-190 0 -290.5 109t-100.5 306t129 306t362 143v49q0 164 -151 164q-126 0 -238 -60l-57 191q47 29 138 55.5t206 26.5q170 0 265 -98.5t95 -303.5v-800q-118 -88 -358 -88zM473 180q51 0 88 21v467q-115 -16 -178.5 -79t-63.5 -173q0 -236 154 -236zM758 1477
q0 -47 -33 -80t-80 -33t-80 33t-33 80t33 79.5t80 32.5t80 -32.5t33 -79.5zM422 1477q0 -47 -33 -80t-80 -33t-79.5 33t-32.5 80t32.5 79.5t79.5 32.5t80 -32.5t33 -79.5z" />
    <glyph glyph-name="aring" unicode="&#xe5;" horiz-adv-x="929" 
d="M461 -20q-190 0 -290.5 109t-100.5 306t129 306t362 143v49q0 164 -151 164q-126 0 -238 -60l-57 191q47 29 138 55.5t206 26.5q170 0 265 -98.5t95 -303.5v-800q-118 -88 -358 -88zM473 180q51 0 88 21v467q-115 -16 -178.5 -79t-63.5 -173q0 -236 154 -236zM651 1532
q0 -37 -14 -68.5t-38 -55.5t-55.5 -38t-68.5 -14t-68.5 14t-55 38t-37 55.5t-13.5 68.5t13.5 68.5t37 55t55 38t68.5 14.5t68.5 -14.5t55.5 -38t38 -55t14 -68.5zM557 1532q0 35 -23.5 60.5t-58.5 25.5t-57.5 -25.5t-22.5 -60.5t22.5 -59.5t57.5 -24.5t58.5 24.5t23.5 59.5z
" />
    <glyph glyph-name="ae" unicode="&#xe6;" horiz-adv-x="1433" 
d="M70 379q0 394 493 465v49q0 76 -38 120t-115 44q-126 0 -238 -60l-57 191q51 31 133 56.5t172 25.5q210 0 285 -156q52 100 133.5 128t155.5 28t218 -87.5t144 -525.5q0 -28 -6 -112l-539 -68q8 -121 61.5 -195.5t151.5 -74.5q146 0 240 59l63 -205q-115 -81 -317 -81
q-161 0 -225 73.5t-76 102.5q-22 -64 -91.5 -120t-179.5 -56q-180 0 -274 107.5t-94 291.5zM319 414q0 -112 33.5 -173t89.5 -61t88.5 37t32.5 100v351q-115 -16 -179.5 -79t-64.5 -175zM933 1077q-58 0 -94 -114.5t-32 -300.5l285 34q0 269 -50.5 325t-108.5 56z" />
    <glyph glyph-name="ccedilla" unicode="&#xe7;" horiz-adv-x="765" 
d="M78 624q0 323 108.5 484.5t292.5 161.5q149 0 236 -82l-62 -180q-49 49 -125 49q-176 0 -176 -426q0 -219 49.5 -321.5t129.5 -102.5t122 47l62 -193q-76 -81 -249 -81t-280.5 160.5t-107.5 483.5zM440 -211.5q0 42.5 -190 31.5l49 96q20 2 25 2h45q131 0 192.5 -32.5
t61.5 -106.5t-95 -119t-249 -45q-62 0 -132 8l52 96q115 -12 178 7.5t63 62z" />
    <glyph glyph-name="egrave" unicode="&#xe8;" horiz-adv-x="968" 
d="M78 622q0 307 106.5 477.5t309.5 170.5t300 -163t97 -450q0 -56 -4 -112l-541 -68q4 -117 58.5 -193.5t154.5 -76.5q148 0 242 59l61 -205q-115 -81 -337 -81t-334.5 167.5t-112.5 474.5zM500.5 1077q-126.5 0 -143.5 -161.5t-15 -253.5l285 34q0 381 -126.5 381z
M340 1688q80 0 141 -43l99 -277h-125l-213 277q18 43 98 43z" />
    <glyph glyph-name="eacute" unicode="&#xe9;" horiz-adv-x="968" 
d="M78 622q0 307 106.5 477.5t309.5 170.5t300 -163t97 -450q0 -56 -4 -112l-541 -68q4 -117 58.5 -193.5t154.5 -76.5q148 0 242 59l61 -205q-115 -81 -337 -81t-334.5 167.5t-112.5 474.5zM500.5 1077q-126.5 0 -143.5 -161.5t-15 -253.5l285 34q0 381 -126.5 381z
M614 1688q102 0 121 -43l-211 -277h-127l101 277q62 43 116 43z" />
    <glyph glyph-name="ecircumflex" unicode="&#xea;" horiz-adv-x="968" 
d="M78 622q0 307 106.5 477.5t309.5 170.5t300 -163t97 -450q0 -56 -4 -112l-541 -68q4 -117 58.5 -193.5t154.5 -76.5q148 0 242 59l61 -205q-115 -81 -337 -81t-334.5 167.5t-112.5 474.5zM500.5 1077q-126.5 0 -143.5 -161.5t-15 -253.5l285 34q0 381 -126.5 381z
M493 1665q42 0 74 -37l189 -209l-60 -73l-204 145l-203 -145l-60 73l189 209q33 37 75 37z" />
    <glyph glyph-name="edieresis" unicode="&#xeb;" horiz-adv-x="968" 
d="M78 622q0 307 106.5 477.5t309.5 170.5t300 -163t97 -450q0 -56 -4 -112l-541 -68q4 -117 58.5 -193.5t154.5 -76.5q148 0 242 59l61 -205q-115 -81 -337 -81t-334.5 167.5t-112.5 474.5zM500.5 1077q-126.5 0 -143.5 -161.5t-15 -253.5l285 34q0 381 -126.5 381z
M774 1477q0 -47 -32.5 -80t-80 -33t-80 33t-32.5 80t32.5 79.5t80 32.5t80 -32.5t32.5 -79.5zM438 1477q0 -47 -32.5 -80t-79.5 -33t-80 33t-33 80t33 79.5t80 32.5t79.5 -32.5t32.5 -79.5z" />
    <glyph glyph-name="igrave" unicode="&#xec;" horiz-adv-x="491" 
d="M111 0v1249h268v-1249h-268zM101 1688q79 0 141 -43l100 -277h-127l-211 277q18 43 97 43z" />
    <glyph glyph-name="iacute" unicode="&#xed;" horiz-adv-x="491" 
d="M113 0v1249h268v-1249h-268zM366 1688q102 0 121 -43l-211 -277h-126l100 277q62 43 116 43z" />
    <glyph glyph-name="icircumflex" unicode="&#xee;" horiz-adv-x="491" 
d="M113 0v1249h268v-1249h-268zM247 1665q42 0 75 -37l188 -209l-59 -73l-205 145l-203 -145l-59 73l188 209q33 37 75 37z" />
    <glyph glyph-name="idieresis" unicode="&#xef;" horiz-adv-x="491" 
d="M111 0v1249h268v-1249h-268zM190 1477q0 -47 -32.5 -80t-79.5 -33t-80 33t-33 80t33 79.5t80 32.5t79.5 -32.5t32.5 -79.5zM524 1477q0 -47 -32.5 -80t-79.5 -33t-80 33t-33 80t33 79.5t80 32.5t79.5 -32.5t32.5 -79.5z" />
    <glyph glyph-name="eth" unicode="&#xf0;" horiz-adv-x="970" 
d="M383 -20q-305 0 -305 648q0 314 102.5 474t274.5 160q45 0 75 -13q-38 111 -69 178l-154 -55q-13 32 -71 129l153 55q-35 56 -80 113l226 74q38 -48 75 -107l146 54q6 -10 29 -47t46 -82l-145 -52q203 -400 203 -882q0 -313 -100.5 -480t-405.5 -167zM500 1077
q-152 0 -152 -443q0 -226 29 -333.5t106.5 -107.5t106 107.5t28.5 332.5t-43 434q-31 10 -75 10z" />
    <glyph glyph-name="ntilde" unicode="&#xf1;" horiz-adv-x="987" 
d="M610 907q0 162 -126 162q-67 0 -107 -22v-1047h-266v1188q148 82 366 82q219 0 309.5 -92.5t90.5 -257.5v-920h-267v907zM600 1372q-47 0 -72.5 10.5t-68 34t-98.5 23.5t-99 -58l-69 86q20 47 65 82t92 35q64 0 122.5 -33.5t117 -33.5t98.5 57l70 -84q-20 -47 -65.5 -83
t-92.5 -36z" />
    <glyph glyph-name="ograve" unicode="&#xf2;" horiz-adv-x="966" 
d="M483.5 1270q405.5 0 405.5 -645t-405.5 -645t-405.5 645t405.5 645zM616 631q0 223 -27.5 330.5t-105 107.5t-105.5 -107.5t-28 -330.5t28 -330.5t105.5 -107.5t105 107.5t27.5 330.5zM329 1688q79 0 140 -43l100 -277h-127l-211 277q19 43 98 43z" />
    <glyph glyph-name="oacute" unicode="&#xf3;" horiz-adv-x="966" 
d="M483.5 1270q405.5 0 405.5 -645t-405.5 -645t-405.5 645t405.5 645zM616 631q0 223 -27.5 330.5t-105 107.5t-105.5 -107.5t-28 -330.5t28 -330.5t105.5 -107.5t105 107.5t27.5 330.5zM614 1688q102 0 121 -43l-211 -277h-127l101 277q62 43 116 43z" />
    <glyph glyph-name="ocircumflex" unicode="&#xf4;" horiz-adv-x="966" 
d="M483.5 1270q405.5 0 405.5 -645t-405.5 -645t-405.5 645t405.5 645zM616 631q0 223 -27.5 330.5t-105 107.5t-105.5 -107.5t-28 -330.5t28 -330.5t105.5 -107.5t105 107.5t27.5 330.5zM483.5 1665q42.5 0 75.5 -37l186 -209l-59 -73l-203 145l-202 -145l-60 73l187 209
q33 37 75.5 37z" />
    <glyph glyph-name="otilde" unicode="&#xf5;" horiz-adv-x="966" 
d="M483.5 1270q405.5 0 405.5 -645t-405.5 -645t-405.5 645t405.5 645zM616 631q0 223 -27.5 330.5t-105 107.5t-105.5 -107.5t-28 -330.5t28 -330.5t105.5 -107.5t105 107.5t27.5 330.5zM604 1372q-47 0 -72.5 10.5t-68 34t-97.5 23.5t-98 -58l-71 86q20 47 65.5 82
t93.5 35q64 0 122.5 -33.5t116 -33.5t97.5 57l70 -84q-20 -47 -65.5 -83t-92.5 -36z" />
    <glyph glyph-name="odieresis" unicode="&#xf6;" horiz-adv-x="966" 
d="M483.5 1270q405.5 0 405.5 -645t-405.5 -645t-405.5 645t405.5 645zM616 631q0 223 -27.5 330.5t-105 107.5t-105.5 -107.5t-28 -330.5t28 -330.5t105.5 -107.5t105 107.5t27.5 330.5zM764 1477q0 -47 -33 -80t-80 -33t-79.5 33t-32.5 80t32.5 79.5t79.5 32.5t80 -32.5
t33 -79.5zM428 1477q0 -47 -33 -80t-80 -33t-79.5 33t-32.5 80t32.5 79.5t79.5 32.5t80 -32.5t33 -79.5z" />
    <glyph glyph-name="divide" unicode="&#xf7;" 
d="M115 721v192h762v-192h-762zM627 1147q0 -53 -39 -92t-92.5 -39t-92 39t-38.5 92t38.5 92t92 39t92.5 -39t39 -92zM627 487.5q0 -53.5 -39 -92.5t-92.5 -39t-92 39t-38.5 92.5t38.5 92t92 38.5t92.5 -38.5t39 -92z" />
    <glyph glyph-name="oslash" unicode="&#xf8;" horiz-adv-x="966" 
d="M483 1270q141 0 230 -76l88 178l86 -47l-107 -211q109 -163 109 -489q0 -645 -406 -645q-139 0 -227 75l-90 -178l-84 47l104 209q-109 164 -108 492q0 645 405 645zM338 694q0 -166 6 -243l254 514q-33 113 -117 113t-113.5 -109t-29.5 -275zM629 631v65q0 66 -4 103
l-254 -510q33 -105 115 -105t112.5 109t30.5 338z" />
    <glyph glyph-name="ugrave" unicode="&#xf9;" horiz-adv-x="985" 
d="M504 193q64 0 102 24v1032h268v-1188q-51 -35 -149 -58t-227 -23q-186 0 -286.5 89t-100.5 291v889h266v-919q0 -137 127 -137zM343 1688q79 0 140 -43l99 -277h-125l-211 277q18 43 97 43z" />
    <glyph glyph-name="uacute" unicode="&#xfa;" horiz-adv-x="985" 
d="M504 193q64 0 102 24v1032h268v-1188q-51 -35 -149 -58t-227 -23q-186 0 -286.5 89t-100.5 291v889h266v-919q0 -137 127 -137zM616 1688q104 0 123 -43l-211 -277h-127l99 277q62 43 116 43z" />
    <glyph glyph-name="ucircumflex" unicode="&#xfb;" horiz-adv-x="985" 
d="M504 193q64 0 102 24v1032h268v-1188q-51 -35 -149 -58t-227 -23q-186 0 -286.5 89t-100.5 291v889h266v-919q0 -137 127 -137zM493 1665q42 0 74 -37l189 -209l-60 -73l-204 145l-203 -145l-60 73l189 209q33 37 75 37z" />
    <glyph glyph-name="udieresis" unicode="&#xfc;" horiz-adv-x="985" 
d="M504 193q64 0 102 24v1032h268v-1188q-51 -35 -149 -58t-227 -23q-186 0 -286.5 89t-100.5 291v889h266v-919q0 -137 127 -137zM436 1477q0 -47 -32.5 -80t-80 -33t-80 33t-32.5 80t32.5 79.5t80 32.5t80 -32.5t32.5 -79.5zM772 1477q0 -47 -32.5 -80t-80 -33t-80 33
t-32.5 80t32.5 79.5t80 32.5t80 -32.5t32.5 -79.5z" />
    <glyph glyph-name="yacute" unicode="&#xfd;" horiz-adv-x="929" 
d="M510 -328h-272l110 367l-311 1210h280l127 -696q11 -67 18 -124q7 -56 11 -87h4q4 31 9 65t10.5 71.5t13.5 74.5l133 696h250zM612 1688q104 0 123 -43l-213 -277h-125l99 277q62 43 116 43z" />
    <glyph glyph-name="thorn" unicode="&#xfe;" horiz-adv-x="978" 
d="M535 1264q174 0 269 -163t95 -442q0 -671 -442 -671q-50 0 -82 12v-328h-264v2048h264v-491q72 35 160 35zM629 641q0 217 -37 320.5t-127 103.5q-54 0 -90 -18v-838q37 -16 78 -16q100 0 138 115.5t38 332.5z" />
    <glyph glyph-name="ydieresis" unicode="&#xff;" horiz-adv-x="929" 
d="M510 -328h-272l110 367l-311 1210h280l127 -696q11 -67 18 -124q7 -56 11 -87h4q4 31 9 65t10.5 71.5t13.5 74.5l133 696h250zM424 1477q0 -47 -33 -80t-80 -33t-79.5 33t-32.5 80t32.5 79.5t79.5 32.5t80 -32.5t33 -79.5zM760 1477q0 -47 -33 -80t-80 -33t-79.5 33
t-32.5 80t32.5 79.5t79.5 32.5t80 -32.5t33 -79.5z" />
    <glyph glyph-name="dotlessi" unicode="&#x131;" horiz-adv-x="491" 
d="M113 0v1249h268v-1249h-268z" />
    <glyph glyph-name="Lslash" unicode="&#x141;" horiz-adv-x="784" 
d="M150 0v823l-82 -32v221l82 35v673h276v-559l147 64v-224l-147 -63v-707h303v-231h-579z" />
    <glyph glyph-name="lslash" unicode="&#x142;" horiz-adv-x="569" 
d="M416 0h-269v834l-90 -39v217l90 39v669h269v-559l102 43v-217l-102 -43v-944z" />
    <glyph glyph-name="OE" unicode="&#x152;" horiz-adv-x="1370" 
d="M556 -23q-116 0 -207 62.5t-149.5 178.5t-87 278.5t-28.5 469.5t118.5 542t362.5 235q95 0 164 -23h553v-225h-328v-502h287v-225h-287v-539h328v-229h-553q-57 -23 -173 -23zM578 1520q-111 0 -161 -168t-50 -485.5t50 -485.5t161 -168q75 0 106 18v1268q-42 21 -106 21
z" />
    <glyph glyph-name="oe" unicode="&#x153;" horiz-adv-x="1488" 
d="M471 -20q-190 0 -291.5 165.5t-101.5 479t101.5 479.5t291.5 166q103 0 175.5 -57t98.5 -142q29 82 102 140.5t175 58.5q194 0 291.5 -164.5t97.5 -448.5q0 -56 -4 -112l-541 -68q10 -121 62.5 -195.5t150.5 -74.5q148 0 242 59l61 -205q-115 -81 -317 -81
q-113 0 -198 58t-117 142q-25 -80 -94.5 -140t-184.5 -60zM616 631q0 223 -27.5 330.5t-105 107.5t-105.5 -107.5t-28 -330.5t28 -330.5t105.5 -107.5t105 107.5t27.5 330.5zM1021.5 1077q-125.5 0 -143.5 -161.5t-16 -253.5l285 34q0 381 -125.5 381z" />
    <glyph glyph-name="Scaron" unicode="&#x160;" horiz-adv-x="856" 
d="M713 1460q-71 49 -191 49q-70 0 -122 -56t-52 -142t32 -150.5t81 -123t104.5 -116t104.5 -126t80.5 -155t31.5 -196.5q0 -209 -118 -338t-304 -129q-100 0 -178 26t-121 58l66 220q27 -18 78 -36t100 -18q91 0 143 60.5t52 146.5t-32 151.5t-79 124t-181 197.5t-134 404
q0 201 119 316.5t301 115.5q92 0 164.5 -26.5t111.5 -57.5zM468 1829q-42 0 -75 37l-188 209l59 73l205 -147l203 147l59 -73l-188 -209q-33 -37 -75 -37z" />
    <glyph glyph-name="scaron" unicode="&#x161;" horiz-adv-x="739" 
d="M456 1051q-62 0 -95 -37t-33 -93t25.5 -95.5t64.5 -73t84 -69.5t109.5 -112t64.5 -235t-100 -257.5t-255 -98.5q-156 0 -268 81l62 205q67 -57 164 -57q53 0 87.5 33.5t34.5 91.5t-24.5 99.5t-62.5 76.5t-81 70.5t-105 110.5t-62 231t89 252t244 96t256 -82l-59 -187
q-78 50 -140 50zM381 1358q-43 0 -76 37l-186 209l59 73l203 -147l203 147l59 -73l-186 -209q-33 -37 -76 -37z" />
    <glyph glyph-name="Ydieresis" unicode="&#x178;" horiz-adv-x="980" 
d="M629 0h-277v729l-338 991h299l189 -698h4l186 698h275l-338 -991v-729zM449 1948q0 -47 -33 -80t-80 -33t-80 33t-33 80t33 79.5t80 32.5t80 -32.5t33 -79.5zM784 1948q0 -47 -32.5 -80t-79.5 -33t-80 33t-33 80t33 79.5t80 32.5t79.5 -32.5t32.5 -79.5z" />
    <glyph glyph-name="Zcaron" unicode="&#x17d;" horiz-adv-x="827" 
d="M70 1497v223h696l-383 -1491h385v-229h-729l395 1497h-364zM417 1829q-42 0 -75 37l-188 209l59 73l203 -147l205 147l59 -73l-188 -209q-33 -37 -75 -37z" />
    <glyph glyph-name="zcaron" unicode="&#x17e;" horiz-adv-x="751" 
d="M74 1051v198h606l-295 -1042h299v-207h-629l312 1051h-293zM372 1358q-42 0 -75 37l-188 209l59 73l205 -147l202 147l60 -73l-189 -209q-32 -37 -74 -37z" />
    <glyph glyph-name="florin" unicode="&#x192;" 
d="M822 1530q-46 0 -88 -39t-52 -127l-39 -299h197v-199h-222l-110 -874q-23 -174 -119 -256t-223 -82t-184 39l43 201q38 -19 80 -19t84 37t53 125l106 829h-164v199h191l41 336q23 174 118 256t222 82t186 -37l-41 -189q-33 17 -79 17z" />
    <glyph glyph-name="circumflex" unicode="&#x2c6;" horiz-adv-x="499" 
d="M250 1665q43 0 76 -37l186 -209l-59 -73l-203 145l-203 -145l-59 73l186 209q33 37 76 37z" />
    <glyph glyph-name="caron" unicode="&#x2c7;" horiz-adv-x="499" 
d="M250 1358q-43 0 -76 37l-186 209l59 73l203 -147l203 147l59 -73l-186 -209q-33 -37 -76 -37z" />
    <glyph glyph-name="breve" unicode="&#x2d8;" horiz-adv-x="499" 
d="M55.5 1453q-67.5 83 -67.5 171l102 29q35 -137 160 -137t160 137l102 -29q0 -86 -67.5 -170t-194.5 -84t-194.5 83z" />
    <glyph glyph-name="dotaccent" unicode="&#x2d9;" horiz-adv-x="499" 
d="M385 1499q0 -55 -40 -95t-95 -40t-95 40t-40 95t40 94t95 39t95 -39t40 -94z" />
    <glyph glyph-name="ring" unicode="&#x2da;" horiz-adv-x="499" 
d="M426 1532q0 -37 -14.5 -68.5t-38 -55.5t-55 -38t-68.5 -14t-68.5 14t-55.5 38t-38 55.5t-14 68.5t14 68.5t38 55t55.5 38t68.5 14.5t68.5 -14.5t55 -38t38 -55t14.5 -68.5zM332 1532q0 35 -23.5 60.5t-58.5 25.5t-58.5 -25.5t-23.5 -60.5t23.5 -59.5t58.5 -24.5
t58.5 24.5t23.5 59.5z" />
    <glyph glyph-name="ogonek" unicode="&#x2db;" horiz-adv-x="499" 
d="M321 -373q-96 0 -153 44t-57 110q0 136 206 235h154q-86 -47 -133 -104t-47 -105q-1 -61 65 -61t131 35l27 -94q-97 -60 -193 -60z" />
    <glyph glyph-name="tilde" unicode="&#x2dc;" horiz-adv-x="499" 
d="M374 1372q-48 0 -73 10.5t-67.5 34t-99.5 23.5t-97 -58l-70 86q20 47 65.5 82t92.5 35q63 0 121.5 -33.5t116.5 -33.5t100 57l69 -84q-20 -47 -65 -83t-93 -36z" />
    <glyph glyph-name="hungarumlaut" unicode="&#x2dd;" horiz-adv-x="499" 
d="M278 1655q64 0 64 -41l-223 -254h-103l150 252q48 43 112 43zM547 1655q63 0 63 -41l-221 -254h-102l149 252q48 43 111 43z" />
    <glyph glyph-name="endash" unicode="&#x2013;" horiz-adv-x="716" 
d="M0 721v192h717v-192h-717z" />
    <glyph glyph-name="emdash" unicode="&#x2014;" horiz-adv-x="1433" 
d="M115 721v192h1204v-192h-1204z" />
    <glyph glyph-name="quoteleft" unicode="&#x2018;" horiz-adv-x="555" 
d="M202 1085q-50 0 -79 27t-35 62l231 546h160l-125 -546q-52 -89 -152 -89z" />
    <glyph glyph-name="quoteright" unicode="&#x2019;" horiz-adv-x="555" 
d="M199 1651q52 88 152 88q50 0 80 -26.5t36 -61.5l-231 -547h-160z" />
    <glyph glyph-name="quotesinglbase" unicode="&#x201a;" horiz-adv-x="555" 
d="M351 307q50 0 80 -26.5t36 -61.5l-231 -547h-160l123 547q52 88 152 88z" />
    <glyph glyph-name="quotedblleft" unicode="&#x201c;" horiz-adv-x="958" 
d="M607 1085q-50 0 -78.5 27t-34.5 62l229 546h160l-123 -546q-52 -89 -153 -89zM202 1085q-50 0 -79 27t-35 62l231 546h160l-125 -546q-52 -89 -152 -89z" />
    <glyph glyph-name="quotedblright" unicode="&#x201d;" horiz-adv-x="958" 
d="M199 1651q52 88 152 88q50 0 80 -26.5t36 -61.5l-231 -547h-160zM757 1739q50 0 78.5 -26.5t34.5 -61.5l-229 -547h-160l123 547q52 88 153 88z" />
    <glyph glyph-name="quotedblbase" unicode="&#x201e;" horiz-adv-x="958" 
d="M351 307q50 0 80 -26.5t36 -61.5l-231 -547h-160l123 547q52 88 152 88zM757 307q50 0 78.5 -26.5t34.5 -61.5l-229 -547h-160l123 547q52 88 153 88z" />
    <glyph glyph-name="dagger" unicode="&#x2020;" horiz-adv-x="1126" 
d="M692 997v-1325h-258v1325h-348v252h348v471h258v-471h348v-252h-348z" />
    <glyph glyph-name="daggerdbl" unicode="&#x2021;" horiz-adv-x="1126" 
d="M692 334v-662h-258v662h-348v252h348v411h-348v252h348v471h258v-471h348v-252h-348v-411h348v-252h-348z" />
    <glyph glyph-name="bullet" unicode="&#x2022;" horiz-adv-x="737" 
d="M566.5 614.5q-84.5 -82.5 -198.5 -82.5q-115 0 -198.5 82.5t-83.5 200.5q0 117 83 200t199 83t199.5 -83t83.5 -200q0 -118 -84.5 -200.5z" />
    <glyph glyph-name="ellipsis" unicode="&#x2026;" horiz-adv-x="1558" 
d="M1466 147.5q0 -69.5 -48 -118.5t-117.5 -49t-118.5 49t-49 118.5t49 118.5t118.5 49t117.5 -49t48 -118.5zM946 147.5q0 -69.5 -48 -118.5t-117.5 -49t-119 49t-49.5 118.5t49.5 118.5t119 49t117.5 -49t48 -118.5zM426 147.5q0 -69.5 -48 -118.5t-118 -49t-119 49
t-49 118.5t49 118.5t119 49t118 -49t48 -118.5z" />
    <glyph glyph-name="perthousand" unicode="&#x2030;" horiz-adv-x="2236" 
d="M1975 973q179 0 179 -498t-280.5 -498t-280.5 427t101.5 498t280.5 71zM920 475q0 498 280.5 498t280.5 -498t-280.5 -498t-280.5 498zM362.5 1743q280.5 0 280.5 -497.5t-280.5 -497.5t-280.5 497.5t280.5 497.5zM606 -20l-141 40l491 1721l140 -43zM467 1251
q0 174 -22.5 260t-82 86t-81 -86t-21.5 -260t21.5 -259t81 -85t82 85t22.5 259zM1305 481q0 174 -22.5 260t-82 86t-81 -86t-21.5 -260t21.5 -259t81 -85t82 85t22.5 259zM1976 481q0 174 -21.5 260t-80.5 86t-82 -86t-23 -260t23 -259t82 -85t80.5 85t21.5 259z" />
    <glyph glyph-name="guilsinglleft" unicode="&#x2039;" horiz-adv-x="587" 
d="M338 307l-234 471l234 471l145 -65l-143 -406l143 -405z" />
    <glyph glyph-name="guilsinglright" unicode="&#x203a;" horiz-adv-x="587" 
d="M252 307l-148 66l146 405l-146 406l148 65l231 -471z" />
    <glyph glyph-name="fraction" unicode="&#x2044;" horiz-adv-x="372" 
d="M-43 -31l-170 62l629 1720l170 -61z" />
    <glyph glyph-name="fraction" unicode="&#x2215;" horiz-adv-x="372" 
d="M-43 -31l-170 62l629 1720l170 -61z" />
    <glyph glyph-name="Euro" unicode="&#x20ac;" horiz-adv-x="1249" 
d="M883 1743q176 0 295 -84l-80 -195q-97 47 -187 47q-283 0 -354 -376l451 18v-176l-467 20q-9 -140 -2 -249l469 18v-174l-451 18q68 -389 354 -389q90 0 187 47l80 -207q-119 -84 -295 -84q-238 0 -398.5 160t-208.5 473l-186 -18v174l172 -16q-7 106 2 243l-174 -16v176
l191 -20q51 303 208.5 456.5t393.5 153.5z" />
    <glyph glyph-name="trademark" unicode="&#x2122;" horiz-adv-x="1638" 
d="M1315 1407v41h-4q-3 -24 -11 -63t-12 -62l-139 -606h-123l-137 606q-11 61 -16 84t-9 41h-4v-51q0 -51 -2 -74l-47 -606h-182l119 1003h194l131 -555q4 -23 7 -43t7 -41t7 -39h4q2 18 6 38t7 41.5t7 43.5l131 555h195l119 -1003h-199l-45 606q-4 46 -4 84zM428 1575v-858
h-197v858h-174v145h545v-145h-174z" />
    <glyph glyph-name="minus" unicode="&#x2212;" 
d="M115 721v192h762v-192h-762z" />
  </font>
</defs>
</svg>
