<?xml version="1.0" standalone="no"?>
<!DOCTYPE svg PUBLIC "-//W3C//DTD SVG 1.1//EN" "http://www.w3.org/Graphics/SVG/1.1/DTD/svg11.dtd" >
<svg xmlns="http://www.w3.org/2000/svg">
<metadata>
Created by FontPrep 20130207 at Tue Nov 26 13:15:35 2019
 By Mauricio Duran
&#60; info@fontfont.de &#62; Copyright Hans Reichel, 1997. Published by FontShop International.  FontFont Release 21
</metadata>
<defs>
<font id="ba84ba515d8e93693c893d2396bce978" horiz-adv-x='1024' >
  <font-face 
    font-family="Dax-Italic"
    font-weight="5"
    font-style="italic"
    font-stretch="normal"
    units-per-em="2048"
    panose-1="0 0 0 0 0 0 0 0 0 0"
    ascent="1638"
    descent="-410"
    x-height="1104"
    cap-height="1409"
    bbox="-311 -465 2331 1841"
    underline-thickness="102"
    underline-position="-153"
    unicode-range="U+0020-F002"
  />
<missing-glyph horiz-adv-x="1638" 
d="M1434 102v1434h-1229v-1434h1229zM102 0v1638h1434v-1638h-1434z" />
    <glyph glyph-name=".notdef" horiz-adv-x="1638" 
d="M1434 102v1434h-1229v-1434h1229zM102 0v1638h1434v-1638h-1434z" />
    <glyph glyph-name=".null" horiz-adv-x="0" 
 />
    <glyph glyph-name="nonmarkingreturn" horiz-adv-x="565" 
 />
    <glyph glyph-name="space" unicode=" " horiz-adv-x="565" 
 />
    <glyph glyph-name="exclam" unicode="!" horiz-adv-x="612" 
d="M255 227q103 0 103 -97q0 -48 -44 -92t-94 -44q-103 0 -103 97q0 48 44 92t94 44zM379 463h-137l157 946h213z" />
    <glyph glyph-name="quotedbl" unicode="&#x22;" horiz-adv-x="798" 
d="M425 1425q56 0 79 -41l-150 -514h-96l70 514q41 41 97 41zM752 1425q54 0 79 -41l-147 -514h-96l69 514q41 41 95 41z" />
    <glyph glyph-name="numbersign" unicode="#" 
d="M498 883l-68 -320h242l67 320h-241zM1063 883h-217l-70 -320h211l-10 -92h-219l-96 -471h-107l98 471h-241l-101 -471h-102l98 471h-209l11 92h217l67 320h-209l13 92h215l90 434h104l-88 -434h240l90 434h106l-90 -434h211z" />
    <glyph glyph-name="dollar" unicode="$" 
d="M459 1008q0 -106 106.5 -178t210.5 -138q113 -92 113 -229q0 -170 -120 -314.5t-335 -164.5l-31 -244h-118l67 242q-190 0 -291 75l72 121q90 -59 231 -59q142 0 235 95t93 228q0 102 -103.5 173t-203.5 137q-109 92 -109 240t117 281.5t312 151.5l30 234h113l-64 -232
q138 0 242 -75l-63 -109q-78 57 -212 57t-213 -93t-79 -199z" />
    <glyph glyph-name="percent" unicode="%" horiz-adv-x="1763" 
d="M1147 223q0 -149 98 -149q119 0 171 149.5t78 274.5t26 205t-23 119.5t-82 39.5t-106 -59.5t-80 -152.5t-57.5 -216t-24.5 -211zM330 711q0 -150 98 -150q116 0 167.5 147.5t79 277.5t27.5 207t-22.5 117t-81.5 40t-106.5 -59.5t-80 -153t-57 -216t-24.5 -210.5z
M1030 246q0 98 64.5 397t335.5 299q109 0 155.5 -72t46.5 -182t-66 -409t-336 -299q-200 0 -200 266zM582 -14l-95 26l773 1411l92 -26zM815 1161q0 -98 -26.5 -219.5t-70.5 -225.5t-120 -176.5t-184 -72.5q-200 0 -201 266q0 98 26.5 221t100.5 299.5t274 176.5
q201 0 201 -269z" />
    <glyph glyph-name="ampersand" unicode="&#x26;" horiz-adv-x="1282" 
d="M274 310q0 -94 74 -154t199 -60t211 35l139 668q-190 -43 -302.5 -84.5t-186.5 -102.5q-134 -112 -134 -302zM727 872q220 0 569 164l29 -118q-115 -50 -244 -80l-161 -779q-141 -79 -370 -79t-348.5 89t-119.5 244q0 106 51 196.5t147.5 165t264.5 126.5
q-219 70 -219 260q0 147 118.5 258t314.5 111t304 -78l-72 -101q-75 56 -210 56t-206 -74t-71 -167t60.5 -143.5t162.5 -50.5z" />
    <glyph glyph-name="quotesingle" unicode="'" horiz-adv-x="468" 
d="M425 1425q56 0 79 -41l-150 -514h-96l70 514q41 41 97 41z" />
    <glyph glyph-name="parenleft" unicode="(" horiz-adv-x="753" 
d="M133 367q0 346 143.5 596.5t263 389t271.5 279.5l88 -55q-274 -298 -412 -586q-165 -351 -165 -709t165 -692l-90 -55q-264 422 -264 832z" />
    <glyph glyph-name="parenright" unicode=")" horiz-adv-x="753" 
d="M653 799q0 -348 -198 -690q-88 -156 -208 -294.5t-272 -279.5l-88 55q275 300 426.5 618.5t151.5 677.5t-166 691l90 55q264 -425 264 -833z" />
    <glyph glyph-name="asterisk" unicode="*" horiz-adv-x="913" 
d="M413 1145q85 0 85 -80q0 -39 -33 -71.5t-73 -32.5t-62.5 22.5t-22.5 60.5t33 69.5t73 31.5zM755 1145q85 0 85 -80q0 -39 -33 -71.5t-73 -32.5t-62.5 22.5t-22.5 60.5t33 69.5t73 31.5zM608 1190q-33 0 -53 18t-20 50t28.5 61t62.5 29t53 -19.5t19 -52.5t-28.5 -59.5
t-61.5 -26.5zM362 1260q-39 0 -61 22t-22 60t33.5 70t72.5 32t61.5 -22.5t22.5 -60.5t-34 -69.5t-73 -31.5zM881 1260q-39 0 -62.5 22t-23.5 60t33.5 70t72.5 32t62.5 -21.5t23.5 -60.5t-33.5 -70.5t-72.5 -31.5zM679 1628q85 0 85 -80q0 -39 -33 -71.5t-73 -32.5
t-63.5 21.5t-23.5 60.5t34 70.5t74 31.5z" />
    <glyph glyph-name="plus" unicode="+" 
d="M963 625h-330l-74 -361h-131l76 361h-330l27 123h327l74 356h129l-72 -356h328z" />
    <glyph glyph-name="comma" unicode="," horiz-adv-x="540" 
d="M252 215q74 0 74 -55l-369 -506h-111l277 506q55 55 129 55z" />
    <glyph glyph-name="hyphen" unicode="-" horiz-adv-x="710" 
d="M610 616h-467l31 144h465z" />
    <glyph glyph-name="period" unicode="." horiz-adv-x="524" 
d="M196 227q104 0 103 -97q0 -48 -44 -92t-94 -44q-104 0 -104 97q0 48 44.5 92t94.5 44z" />
    <glyph glyph-name="slash" unicode="/" horiz-adv-x="1011" 
d="M-51 -463l-131 57l1175 2038l131 -57z" />
    <glyph glyph-name="zero" unicode="0" 
d="M887 1061q0 258 -164 258q-259 0 -347.5 -410.5t-88.5 -550.5q0 -258 166 -258q257 0 345.5 410t88.5 551zM429 -20q-159 0 -232.5 115.5t-73.5 290.5t45 363.5t119.5 341t185.5 246t269 93.5t232.5 -118t74.5 -292t-45 -361t-119 -339t-185.5 -246t-270.5 -94z" />
    <glyph glyph-name="one" unicode="1" 
d="M293 1079v113q340 43 485 217h127l-291 -1409h-182l244 1178q-72 -39 -182.5 -69t-200.5 -30z" />
    <glyph glyph-name="two" unicode="2" 
d="M639 1430q186 0 285.5 -81t99.5 -209t-70.5 -242t-189.5 -239l-485 -509h565l-31 -150h-840l645 707q92 102 150.5 200.5t58.5 202.5q0 184 -235 184q-145 0 -275 -59l-24 117q160 78 346 78z" />
    <glyph glyph-name="three" unicode="3" 
d="M620 1430q177 0 271 -68t94 -198t-105.5 -237.5t-232.5 -142.5q109 -33 181.5 -103.5t72.5 -191.5q0 -199 -152.5 -354t-420.5 -155q-202 0 -336 77l74 119q37 -25 108.5 -43t151.5 -18q172 0 277.5 109.5t105.5 244.5t-96.5 186.5t-254.5 51.5l21 102q188 0 304 99.5
t116 236.5q0 156 -197 155q-153 0 -283 -61l-24 113q148 78 325 78z" />
    <glyph glyph-name="four" unicode="4" 
d="M842 1229q-72 -99 -152 -201l-469 -600h449l123 592q20 107 49 209zM836 428h114l-22 -106h-115l-65 -322h-168l67 322h-577l24 116l770 971h174z" />
    <glyph glyph-name="five" unicode="5" 
d="M727 496q0 111 -79 174t-255 63q-76 0 -174 -12l201 688h657l-28 -149h-533l-121 -431q55 6 105 7q199 0 309.5 -90.5t110.5 -241.5q0 -217 -163 -370.5t-391 -153.5t-354 77l72 119q102 -61 258 -61t270.5 103.5t114.5 277.5z" />
    <glyph glyph-name="six" unicode="6" 
d="M274 338q0 -236 193 -236q150 0 243 134.5t93 289.5q0 215 -254 215q-102 0 -197 -36q-78 -181 -78 -367zM598 842q168 0 270.5 -82t102.5 -240q0 -201 -136.5 -370.5t-383.5 -169.5q-168 0 -255 97t-87 245t46 290t133 287t224 260t267 177.5t227 84.5l22 -121
q-168 -49 -336 -159.5t-295 -335.5q97 37 201 37z" />
    <glyph glyph-name="seven" unicode="7" 
d="M887 971q-166 -260 -321.5 -534.5t-231.5 -436.5h-232l811 1260h-651l31 149h872z" />
    <glyph glyph-name="eight" unicode="8" 
d="M238 285q0 -84 59 -135.5t152 -51.5q133 0 231 86t98 230q0 70 -41.5 130t-152.5 132q-156 -78 -251 -168t-95 -223zM725 1321q-125 0 -209 -84t-84 -205q0 -66 39 -115t135 -112q182 90 240.5 169t58.5 167t-46 134t-134 46zM944 406q0 -176 -145.5 -301t-360.5 -125
q-156 0 -260 74.5t-104 203.5t86 246t319 239q-109 70 -156 133.5t-47 145.5q0 162 132.5 285t326.5 123q143 0 232.5 -75t89.5 -207t-95 -232.5t-251 -178.5q233 -155 233 -331z" />
    <glyph glyph-name="nine" unicode="9" 
d="M889 1079q0 234 -195 234q-158 0 -247 -138.5t-89 -262.5t63.5 -182t184.5 -58t201 35q33 74 57.5 179t24.5 193zM563 567q-170 0 -270 88t-100 240q0 190 138 362.5t380 172.5q170 0 256 -96t86 -246q0 -281 -164 -553q-100 -166 -239.5 -284t-269.5 -181.5t-224 -85.5
l-23 122q168 51 336 161t295 337q-97 -37 -201 -37z" />
    <glyph glyph-name="colon" unicode=":" horiz-adv-x="524" 
d="M196 227q104 0 103 -97q0 -48 -44 -92t-94 -44q-104 0 -104 97q0 48 44.5 92t94.5 44zM294 623q-104 0 -104 97q0 48 44.5 92t93.5 44t75.5 -26.5t26.5 -73.5t-43 -90t-93 -43z" />
    <glyph glyph-name="semicolon" unicode=";" horiz-adv-x="540" 
d="M252 215q74 0 74 -55l-369 -506h-111l277 506q55 55 129 55zM344 856q102 0 102 -97q0 -48 -44 -92t-93 -44q-102 0 -102 97q0 48 44 92t93 44z" />
    <glyph glyph-name="less" unicode="&#x3c;" 
d="M1008 954l-695 -270l584 -268l-27 -129l-716 344l22 119l862 346z" />
    <glyph glyph-name="equal" unicode="=" 
d="M924 440h-785l25 123h784zM999 805h-784l25 123h784z" />
    <glyph glyph-name="greater" unicode="&#x3e;" 
d="M958 631l-860 -344l29 143l696 268l-583 271l26 127l717 -346z" />
    <glyph glyph-name="question" unicode="?" horiz-adv-x="821" 
d="M330 227q102 0 102 -97q0 -48 -44 -92t-93 -44q-102 0 -102 97q0 48 44 92t93 44zM566 1430q165 0 254 -69t89 -207t-107 -242.5t-267 -153.5l-82 -295h-136l45 356q147 35 253 115t106 209q0 78 -46 117.5t-158 39.5t-224 -57l-33 109q141 78 306 78z" />
    <glyph glyph-name="at" unicode="@" horiz-adv-x="1796" 
d="M588 371q0 -152 129 -152q76 0 150.5 52.5t134 133t103.5 182t44 182.5t-37.5 122t-101.5 41t-125.5 -38t-127 -117t-117.5 -192.5t-52 -213.5zM1018 322q-153 -187 -346 -187q-98 0 -147.5 61.5t-49.5 171.5t63.5 243.5t146.5 224t160 134.5t170 44t142 -54.5t49 -140.5
l66 160h100l-211 -500q-49 -115 -49 -203q0 -61 62 -61t143.5 69.5t206.5 262.5t125 434q0 178 -106.5 278.5t-290.5 100.5t-351.5 -74t-326 -219t-267 -360t-108.5 -441t142.5 -348.5t382.5 -122.5t415.5 73t349.5 226l39 -57q-170 -158 -357.5 -235.5t-427.5 -77.5
q-291 0 -461.5 140t-170.5 386t118.5 481.5t378 467t639.5 231.5q223 0 356.5 -117t133.5 -322q0 -135 -57.5 -288.5t-144.5 -283.5t-191.5 -209t-215.5 -79q-117 0 -116 129q0 27 6 62z" />
    <glyph glyph-name="A" unicode="A" horiz-adv-x="1200" 
d="M764 1069q-4 45 -6 93t-4 77q-19 -55 -78 -170l-281 -534h422zM868 0l-45 422h-483l-223 -422h-183l768 1409h172l183 -1409h-189z" />
    <glyph glyph-name="B" unicode="B" horiz-adv-x="1155" 
d="M436 98q209 0 310.5 108t101.5 263q0 225 -375 225h-102l-117 -563q78 -33 182 -33zM940 1137q0 182 -244 182q-109 0 -202 -31l-105 -500h103q240 0 316.5 71t104 138.5t27.5 139.5zM1032 464q0 -96 -33.5 -178.5t-100.5 -154.5t-188.5 -111.5t-257.5 -39.5
q-257 0 -391 77l267 1295q164 78 374 78t316 -78t106 -216t-103.5 -249.5t-246.5 -138.5q106 -23 182 -105.5t76 -178.5z" />
    <glyph glyph-name="C" unicode="C" horiz-adv-x="983" 
d="M1014 1247q-70 49 -162 49t-164 -35.5t-155.5 -129t-147 -286t-63.5 -366.5q0 -356 260 -356q118 0 209 59l28 -125q-99 -77 -291 -77t-296.5 134t-104.5 356t82 439t242.5 369t377.5 152q162 0 256 -78z" />
    <glyph glyph-name="D" unicode="D" horiz-adv-x="1216" 
d="M985 979q0 330 -297 330q-97 0 -188 -31l-234 -1139q70 -26 162 -26q225 0 333.5 151.5t166 354t57.5 360.5zM714 1430q224 0 340.5 -129.5t116.5 -358.5q0 -182 -66.5 -391t-164.5 -327q-203 -245 -537 -244q-102 0 -195 21.5t-147 55.5l269 1295q160 78 384 78z" />
    <glyph glyph-name="E" unicode="E" horiz-adv-x="913" 
d="M975 1282h-465l-100 -491h415l-24 -125h-418l-111 -539h465l-26 -127h-654l291 1409h653z" />
    <glyph glyph-name="F" unicode="F" horiz-adv-x="897" 
d="M971 1282h-461l-100 -491h413l-24 -125h-416l-137 -666h-189l291 1409h649z" />
    <glyph glyph-name="G" unicode="G" horiz-adv-x="1208" 
d="M911 1298q-133 0 -238.5 -56t-184 -168.5t-125 -272t-46.5 -325.5t80 -266.5t208 -100.5t198 34l108 529h-239l24 119h420l-151 -734q-146 -77 -363 -77t-346 135t-129 383q0 176 62.5 360t227 378t474.5 194q197 0 315 -78l-73 -109q-89 55 -222 55z" />
    <glyph glyph-name="H" unicode="H" horiz-adv-x="1228" 
d="M963 0h-189l137 666h-528l-137 -666h-189l291 1409h189l-127 -618h528l127 618h188z" />
    <glyph glyph-name="I" unicode="I" horiz-adv-x="528" 
d="M254 0h-191l291 1409h191z" />
    <glyph glyph-name="J" unicode="J" horiz-adv-x="528" 
d="M272 90q-47 -229 -204.5 -372.5t-352.5 -170.5l31 140q115 31 209 137t125 256l274 1329h191z" />
    <glyph glyph-name="K" unicode="K" horiz-adv-x="1083" 
d="M575 743l363 -743h-207l-328 729l-153 -729h-187l293 1409h187l-135 -653l596 653h202z" />
    <glyph glyph-name="L" unicode="L" horiz-adv-x="851" 
d="M676 0h-613l291 1409h189l-264 -1282h423z" />
    <glyph glyph-name="M" unicode="M" horiz-adv-x="1609" 
d="M1393 0h-174l112 1059q13 143 21 166q-28 -72 -74 -166l-520 -1059h-125l-78 1061q0 118 -6 164q-27 -103 -45 -164l-332 -1061h-164l459 1409h201l71 -1026q0 -102 4 -156q32 80 70 156l504 1026h201z" />
    <glyph glyph-name="N" unicode="N" horiz-adv-x="1331" 
d="M1065 0h-158l-389 1026q-36 102 -57 172q-6 -33 -8 -46t-25 -128l-213 -1024h-158l291 1409h193l374 -989q20 -51 31.5 -93t18.5 -57q6 27 11 57.5t19 98.5l203 983h158z" />
    <glyph glyph-name="O" unicode="O" horiz-adv-x="1249" 
d="M309 424q1 -303 221 -303q116 0 192.5 59.5t140 175t111.5 310t48 340.5q0 297 -212 297q-112 0 -189.5 -57.5t-144 -174.5t-117 -309.5t-50.5 -337.5zM127 428q0 200 58.5 402t200 401t427.5 199q201 0 296 -123t95 -321t-59.5 -408t-149.5 -339q-181 -259 -473 -259
q-201 0 -298 124t-97 324z" />
    <glyph glyph-name="P" unicode="P" 
d="M535 692q98 0 180 38t148.5 132.5t66.5 249.5q0 205 -248 205q-102 0 -174 -29l-121 -588q50 -8 148 -8zM508 575q-58 0 -146 11l-120 -586h-185l281 1352q156 78 363 78t308 -87.5t101 -238.5q0 -193 -132 -348q-66 -78 -187 -129.5t-283 -51.5z" />
    <glyph glyph-name="Q" unicode="Q" horiz-adv-x="1249" 
d="M309 424q1 -303 221 -303q116 0 192.5 59.5t140 175t111.5 310t48 340.5q0 297 -212 297q-112 0 -188.5 -57.5t-144 -174.5t-118 -309.5t-50.5 -337.5zM522 -20q-201 0 -298 124t-97 324t58.5 402t200 401t427.5 199q201 0 296 -123t95 -321t-59.5 -408t-155.5 -347
q-98 -134 -217 -192l176 -303l-168 -125l-127 387q-61 -18 -131 -18z" />
    <glyph glyph-name="R" unicode="R" horiz-adv-x="1126" 
d="M684 1319q-94 0 -168 -31l-121 -586q41 -12 115 -12q211 0 292 89t106.5 167t25.5 162q0 211 -250 211zM1120 1106q0 -197 -144 -341t-384 -144l338 -621h-205l-336 659l-141 -659h-185l281 1352q156 78 359 78t310 -87.5t107 -236.5z" />
    <glyph glyph-name="S" unicode="S" horiz-adv-x="948" 
d="M683 1298q-134 0 -213 -92t-79 -198t107.5 -178t212.5 -138q113 -92 112 -229q0 -182 -137 -332.5t-363 -150.5t-331 77l71 123q90 -59 231 -59q142 0 235.5 93t93.5 228q0 102 -107 179q-100 63 -201 129q-109 92 -108 229q0 174 132 312.5t347 138.5q169 0 275 -78
l-66 -111q-78 57 -212 57z" />
    <glyph glyph-name="T" unicode="T" horiz-adv-x="874" 
d="M971 1282h-281l-264 -1282h-188l266 1282h-279l27 127h743z" />
    <glyph glyph-name="U" unicode="U" horiz-adv-x="1198" 
d="M509 -20q-185 0 -282.5 89t-97.5 238q0 36 10 96l209 1006h189l-209 -1006q-10 -47 -11 -79q0 -94 53.5 -145.5t157.5 -51.5t197.5 76t118.5 200l207 1006h172l-207 -1008q-37 -186 -179.5 -303.5t-327.5 -117.5z" />
    <glyph glyph-name="V" unicode="V" horiz-adv-x="1093" 
d="M528 0h-166l-129 1409h197l55 -999l7 -185q17 45 81 185l474 999h182z" />
    <glyph glyph-name="W" unicode="W" horiz-adv-x="1681" 
d="M969 1103q0 9 2 38q-35 -95 -64 -158l-444 -983h-166l-37 1409h189l-9 -1026q0 -98 -8 -160q12 38 68 160l456 1026h144l28 -1026q0 -98 -4 -160l488 1186h178l-621 -1409h-165l-35 983v120z" />
    <glyph glyph-name="X" unicode="X" horiz-adv-x="1067" 
d="M680 745l231 -745h-202l-154 586l-412 -586h-200l536 729l-200 680h196l127 -535l383 535h186z" />
    <glyph glyph-name="Y" unicode="Y" horiz-adv-x="1050" 
d="M639 625l-129 -625h-188l129 625l-220 784h195l145 -637l428 637h189z" />
    <glyph glyph-name="Z" unicode="Z" horiz-adv-x="894" 
d="M225 127h520l-26 -127h-768l778 1282h-483l26 127h723z" />
    <glyph glyph-name="bracketleft" unicode="[" horiz-adv-x="712" 
d="M813 1501h-281l-378 -1833h278l-20 -108h-443l424 2048h443z" />
    <glyph glyph-name="backslash" unicode="\" horiz-adv-x="1179" 
d="M815 -465l-557 2036l135 61l557 -2038z" />
    <glyph glyph-name="bracketright" unicode="]" horiz-adv-x="712" 
d="M352 -440h-442l22 108h281l377 1833h-279l23 107h442z" />
    <glyph glyph-name="asciicircum" unicode="^" horiz-adv-x="1191" 
d="M783 1425q56 0 87 -51l220 -395l-78 -66l-252 373l-404 -373l-61 66l383 395q49 51 105 51z" />
    <glyph glyph-name="underscore" unicode="_" 
d="M918 -403h-1123l25 116h1122z" />
    <glyph glyph-name="grave" unicode="`" horiz-adv-x="434" 
d="M297 1540q61 0 100 -35l88 -280h-94l-180 278q25 37 86 37z" />
    <glyph glyph-name="a" unicode="a" horiz-adv-x="1093" 
d="M719 1016q-96 0 -176 -49t-137.5 -141.5t-91 -217t-33.5 -246.5q0 -264 237 -264q109 0 172 35l176 852q-51 31 -147 31zM498 -20q-193 0 -295.5 106.5t-102.5 288.5q0 135 48.5 278.5t175 307t413.5 163.5q96 0 184.5 -23.5t135.5 -53.5l-205 -990q-57 -33 -151.5 -55
t-202.5 -22z" />
    <glyph glyph-name="b" unicode="b" horiz-adv-x="1085" 
d="M616 1012q-112 0 -196 -43l-172 -848q47 -25 141 -25q199 0 320.5 193t121.5 458t-215 265zM680 1116q150 0 240 -100.5t90 -282.5q0 -131 -100.5 -442t-536.5 -311q-98 0 -185.5 20t-134.5 57l322 1551h178l-111 -541q88 49 238 49z" />
    <glyph glyph-name="c" unicode="c" horiz-adv-x="860" 
d="M829 950q-57 49 -147 49t-160.5 -46t-122 -132t-83 -207.5t-31.5 -239.5t50 -188.5t149 -70.5t180 59l24 -117q-39 -33 -109.5 -55t-146.5 -22q-152 0 -240 111.5t-88 297.5q0 131 40 265t113 243t176.5 168t203.5 59q180 0 260 -77z" />
    <glyph glyph-name="d" unicode="d" 
d="M276 371q0 -273 240 -273q106 0 170 35l180 862q-62 19 -152 19t-171.5 -50.5t-141 -142.5t-92.5 -215t-33 -235zM715 1118q98 0 172 -24l104 514h180l-321 -1551q-57 -33 -151.5 -55t-202.5 -22q-190 0 -294 105t-104 290q0 295 170 519t447 224z" />
    <glyph glyph-name="e" unicode="e" horiz-adv-x="1073" 
d="M663 1010q-88 0 -162.5 -49.5t-130 -148.5t-81.5 -232l547 82q16 82 16 133q0 109 -50.5 162t-138.5 53zM541 109q150 0 278 67l23 -119q-59 -33 -152.5 -55t-189.5 -22q-184 0 -292 99t-108 296q0 123 41 263t115 251.5t184 173t254 61.5t232 -90t88 -264
q0 -91 -23 -188l-715 -101q-6 -47 -6 -90q0 -129 60.5 -205.5t210.5 -76.5z" />
    <glyph glyph-name="f" unicode="f" horiz-adv-x="643" 
d="M786 1493q-76 0 -145.5 -51t-91.5 -164l-35 -174h193l-23 -111h-195l-204 -993h-181l205 993h-125l23 111h127l31 156q35 178 147.5 264t253.5 86l45 -2z" />
    <glyph glyph-name="g" unicode="g" horiz-adv-x="1085" 
d="M270 341q0 -247 222 -247q114 0 194 45l176 848q-56 29 -151 29q-96 0 -178 -54.5t-138.5 -151.5t-90.5 -223t-34 -246zM94 365q0 129 45 271t123 250.5t199 173t247 64.5q223 0 341 -75l-222 -1072q-43 -209 -176 -323.5t-335 -114.5t-330 78l73 111q100 -58 245 -58
q146 0 230 80t113 207l19 76q-92 -47 -240 -47t-240 100t-92 279z" />
    <glyph glyph-name="h" unicode="h" horiz-adv-x="1093" 
d="M649 1010q-107 0 -229 -62l-199 -948h-180l334 1608h180l-115 -555q51 29 127 50t144 21q145 0 222 -68.5t77 -189.5v-51q-7 -25 -9 -35l-161 -780h-181l164 791l6 59q0 160 -180 160z" />
    <glyph glyph-name="i" unicode="i" horiz-adv-x="485" 
d="M229 0h-180l230 1104h178zM417 1315q-44 0 -68.5 22.5t-24.5 63.5t37 76.5t83 35.5t70.5 -22.5t24.5 -62.5t-39 -76.5t-83 -36.5z" />
    <glyph glyph-name="j" unicode="j" horiz-adv-x="497" 
d="M258 84q-45 -215 -187.5 -355.5t-355.5 -181.5l27 129q125 41 213 145.5t119 248.5l215 1034h180zM430 1315q-45 0 -69.5 22.5t-24.5 62.5t39 76.5t83 36.5t68.5 -22.5t24.5 -62.5t-38 -76.5t-83 -36.5z" />
    <glyph glyph-name="k" unicode="k" horiz-adv-x="976" 
d="M514 582l352 -582h-202l-314 569l-123 -569h-176l334 1608h176l-209 -1016l502 512h195z" />
    <glyph glyph-name="l" unicode="l" horiz-adv-x="491" 
d="M229 0h-178l334 1608h178z" />
    <glyph glyph-name="m" unicode="m" horiz-adv-x="1712" 
d="M1274 1008q-145 0 -248 -107l-186 -901h-181l168 803q4 14 4 17v36q0 152 -202 152q-109 0 -205 -37l-203 -971h-180l217 1047q174 77 398 77t305 -133q63 57 162.5 95t207.5 38q156 0 227.5 -69.5t71.5 -184.5q0 -27 -8 -75l-164 -795h-180l166 795l6 65q0 148 -176 148
z" />
    <glyph glyph-name="n" unicode="n" horiz-adv-x="1093" 
d="M660 1008q-131 0 -236 -37l-203 -971h-180l217 1047q175 77 380 77q206 0 290 -70.5t84 -187.5q0 -47 -8 -82l-164 -784h-181l166 795l6 63q0 66 -46.5 108t-124.5 42z" />
    <glyph glyph-name="o" unicode="o" horiz-adv-x="1083" 
d="M834 783q0 227 -177 227q-255 0 -320 -284t-65 -390q0 -232 183 -232q247 0 313 287t66 392zM420 -20q-154 0 -238 99t-84 251t39 298t108.5 257.5t177 175t260.5 63.5t238 -99t85 -251t-39 -297t-110 -257t-177 -176t-260 -64z" />
    <glyph glyph-name="p" unicode="p" horiz-adv-x="1085" 
d="M610 1014q-108 0 -184 -33l-180 -864q45 -20 125 -21q217 0 338.5 200t121.5 459q-1 259 -221 259zM415 -16q-117 0 -192 26l-94 -450h-178l309 1487q150 77 347 77t299 -103t102 -288q0 -129 -43 -267t-122 -248t-195 -172t-233 -62z" />
    <glyph glyph-name="q" unicode="q" horiz-adv-x="1085" 
d="M714 1016q-97 0 -179 -53.5t-137.5 -148.5t-90.5 -225t-35 -239q0 -254 228 -254q109 0 188 43l174 848q-51 29 -148 29zM96 365q0 131 43 271t123 250.5t201 174t245 63.5q220 0 345 -77l-310 -1487h-176l99 473q-87 -49 -240 -49q-152 0 -241 101t-89 280z" />
    <glyph glyph-name="r" unicode="r" horiz-adv-x="665" 
d="M546 997q-73 0 -124 -28l-201 -969h-180l217 1047q154 77 412 77l78 -4l-70 -137q-59 14 -132 14z" />
    <glyph glyph-name="s" unicode="s" horiz-adv-x="829" 
d="M342 787q0 -90 177 -179.5t177 -241.5t-122.5 -269t-308.5 -117t-283 77l69 113q68 -59 189 -59q122 0 196 71.5t74 167.5t-171 184.5t-171 231.5t109.5 250.5t271.5 107.5t258 -77l-64 -99q-60 56 -165 56t-170.5 -63.5t-65.5 -153.5z" />
    <glyph glyph-name="t" unicode="t" horiz-adv-x="661" 
d="M442 111q20 0 58 10l-23 -117q-37 -16 -102 -16q-113 0 -167 58t-54 151v23q0 22 8 52l147 721h-125l23 111h127l51 254l195 55l-66 -309h191l-25 -111h-191l-147 -721l-6 -55q0 -106 106 -106z" />
    <glyph glyph-name="u" unicode="u" horiz-adv-x="1073" 
d="M283 260q0 -154 186 -154q123 0 203 35l198 963h181l-217 -1047q-61 -33 -166 -55t-224 -22q-174 0 -258 68.5t-84 195.5q0 56 11 98l157 762h181l-160 -768q-8 -33 -8 -76z" />
    <glyph glyph-name="v" unicode="v" horiz-adv-x="1019" 
d="M449 210q0 -7 2 -32q11 47 55 133l399 793h174l-585 -1104h-164l-137 1104h186l70 -793v-101z" />
    <glyph glyph-name="w" unicode="w" horiz-adv-x="1601" 
d="M889 788v130q-20 -62 -53 -130l-390 -788h-157l-84 1104h178l29 -793q0 -85 -4 -131q14 46 57 131l389 793h154l53 -793v-131q13 42 53 133l363 791h170l-543 -1104h-158z" />
    <glyph glyph-name="x" unicode="x" horiz-adv-x="978" 
d="M592 580l225 -580h-188l-150 446l-336 -446h-192l463 575l-197 529h178l133 -402l308 402h178z" />
    <glyph glyph-name="y" unicode="y" horiz-adv-x="1021" 
d="M444 309v-137q24 69 60 137l401 795h174l-825 -1544h-195l273 442l-139 1102h188z" />
    <glyph glyph-name="z" unicode="z" horiz-adv-x="862" 
d="M227 113h467l-22 -113h-711l666 993h-426l24 111h660z" />
    <glyph glyph-name="braceleft" unicode="{" horiz-adv-x="770" 
d="M166 -12v22q0 23 8 58l74 354q8 32 8 82q0 121 -123 121l21 100q157 0 198 201l82 393q33 160 144.5 224.5t298.5 64.5l-21 -99q-111 0 -176.5 -42t-87.5 -150l-80 -391q-27 -129 -81 -180.5t-140 -69.5q57 -18 91 -63.5t34 -114.5v-45q-6 -23 -8 -31l-76 -363
q-8 -32 -8 -73q0 -147 186 -148l-23 -100q-321 0 -321 250z" />
    <glyph glyph-name="bar" unicode="|" horiz-adv-x="452" 
d="M104 -440h-149l424 2048h149z" />
    <glyph glyph-name="braceright" unicode="}" horiz-adv-x="770" 
d="M418 848q0 31 10 78l78 372q8 28 8 70q0 141 -188 141l20 99q324 0 324 -246q0 -37 -8 -78l-74 -358q-10 -51 -10 -82q0 -119 124 -119l-20 -100q-158 0 -199 -203l-82 -385q-35 -168 -146.5 -233.5t-297.5 -65.5l20 100q113 0 178.5 47t86.5 150l82 387q27 123 80 178
t139 72q-125 35 -125 176z" />
    <glyph glyph-name="asciitilde" unicode="~" horiz-adv-x="1193" 
d="M807 557q-66 0 -174.5 65.5t-174.5 65.5q-117 0 -206 -139l-45 108q96 164 258 164q76 0 181.5 -65.5t167.5 -65.5t106.5 37t87.5 107l51 -113q-78 -164 -252 -164z" />
    <glyph glyph-name="nonbreakingspace" unicode="&#xa0;" horiz-adv-x="565" 
 />
    <glyph glyph-name="exclamdown" unicode="&#xa1;" horiz-adv-x="612" 
d="M236 -440h-213l235 946h135zM382 743q-103 0 -103 98q0 48 44 92t93 44t75.5 -26.5t26.5 -73.5t-43 -90.5t-93 -43.5z" />
    <glyph glyph-name="cent" unicode="&#xa2;" 
d="M787 1083q-85 0 -146 -29.5t-114.5 -92t-89.5 -177t-36 -215.5q0 -233 211 -233q111 0 179 49l22 -109q-84 -61 -233 -61l-29 -215h-125l66 219q-123 16 -195 106.5t-72 229.5t48.5 269t152.5 240t268 128l27 215h125l-60 -213q128 0 203 -59l-57 -95q-60 43 -145 43z
" />
    <glyph glyph-name="sterling" unicode="&#xa3;" 
d="M526 880q0 -60 4 -98h279l-23 -106h-256q0 -207 -75.5 -343t-118.5 -183h590l-31 -150h-836q115 111 196 236.5t98.5 213t19.5 126t2 100.5h-199l23 106h168q-14 122 -7 175t28.5 159.5t151.5 210t328 103.5q88 0 166 -22t119 -50l-66 -109q-29 16 -89 33.5t-124 17.5
q-133 0 -221 -80.5t-107.5 -180t-19.5 -159.5z" />
    <glyph glyph-name="currency" unicode="&#xa4;" 
d="M628 965q-110 0 -208 -98.5t-98 -223.5q0 -90 56 -148.5t164 -58.5t207 97.5t99 220.5q0 92 -55 151.5t-165 59.5zM657 1077q125 0 211 -76l172 144l66 -78l-172 -145q37 -68 37 -151t-36 -164t-97 -142l120 -150l-81 -63l-117 147q-117 -80 -243 -80t-214 76l-174 -143
l-66 76l175 145q-41 70 -41 160q0 166 133 299l-119 149l78 66l121 -150q122 80 247 80z" />
    <glyph glyph-name="yen" unicode="&#xa5;" 
d="M840 901l225 14l-18 -92l-248 17l-144 -205l355 14l-19 -94l-352 20l-119 -575h-176l119 575l-363 -20l19 94l352 -14l-59 205l-256 -17l20 92l219 -14l-143 508h184l148 -653l434 653h178z" />
    <glyph glyph-name="section" unicode="&#xa7;" 
d="M309 512q0 -111 90 -201l133 -133q117 66 180.5 136.5t63.5 181.5q0 55 -17.5 96t-64.5 90l-141 145q-115 -61 -179.5 -132.5t-64.5 -182.5zM785 1313q-93 0 -154.5 -57.5t-61.5 -145.5t97 -184l137 -140q129 -133 129 -270t-89 -236.5t-239 -179.5q96 -104 96 -227
t-106.5 -228.5t-273.5 -105.5t-271 78l68 107q27 -23 76 -41.5t104 -18.5q102 0 170 61.5t68 155.5q0 37 -15.5 70t-62.5 80l-176 178q-117 117 -117 265t86 245.5t239 183.5q-79 92 -79 213t102 217.5t255 96.5t249 -78l-62 -95q-76 56 -169 56z" />
    <glyph glyph-name="dieresis" unicode="&#xa8;" horiz-adv-x="434" 
d="M236 1440q79 0 79 -78q0 -37 -33.5 -68.5t-72.5 -31.5q-82 0 -82 75q0 37 35 70t74 33zM549 1262q-82 0 -82 76q0 38 34 70t72 32t60 -20.5t22 -57.5t-33.5 -68.5t-72.5 -31.5z" />
    <glyph glyph-name="copyright" unicode="&#xa9;" horiz-adv-x="1703" 
d="M559 635q0 -117 74 -190.5t192 -73.5q76 0 151 33.5t130 91.5l65 -60q-163 -155 -358 -155q-156 0 -253 99t-97 247q0 195 159.5 352.5t354.5 157.5q102 0 179 -43t118 -113l-70 -55q-86 125 -238 125q-153 0 -280 -129t-127 -287zM1024 1348q-303 0 -541.5 -237
t-238.5 -538q0 -221 142 -365.5t372 -144.5q303 0 541.5 234.5t238.5 536.5q0 221 -142.5 367.5t-371.5 146.5zM752 -20q-262 0 -431 166.5t-169 420.5q0 336 269 599.5t609 263.5q262 0 432 -168t170 -424q0 -336 -271 -597t-609 -261z" />
    <glyph glyph-name="ordfeminine" unicode="&#xaa;" horiz-adv-x="765" 
d="M588 1337q-117 0 -195 -121.5t-78 -287.5t146 -166q68 0 104 20l111 539q-27 16 -88 16zM180 916q0 208 114.5 358.5t307.5 150.5q140 0 217 -55l-135 -647q-94 -53 -230 -53t-205 70t-69 176z" />
    <glyph glyph-name="guillemotleft" unicode="&#xab;" horiz-adv-x="1032" 
d="M287 674l176 -373l-107 -61l-209 446l392 444l92 -69zM666 674l176 -373l-107 -61l-209 446l392 444l90 -69z" />
    <glyph glyph-name="logicalnot" unicode="&#xac;" 
d="M872 297h-131l68 328h-657l26 123h787z" />
    <glyph glyph-name="registered" unicode="&#xae;" horiz-adv-x="1703" 
d="M1102 963q0 116 -166 116q-51 0 -105 -16l-65 -315h84q111 0 181.5 57t70.5 158zM950 1159q110 0 180 -51t70 -139q0 -123 -90 -203t-223 -80l209 -397h-109l-201 393h-32l-82 -393h-97l173 827q92 43 202 43zM1024 1348q-303 0 -541.5 -237t-238.5 -538
q0 -221 142 -365.5t372 -144.5q303 0 541.5 234.5t238.5 536.5q0 221 -142.5 367.5t-371.5 146.5zM752 -20q-262 0 -431 166.5t-169 420.5q0 338 270 600.5t608 262.5q262 0 432 -168t170 -424q0 -336 -271 -597t-609 -261z" />
    <glyph glyph-name="degree" unicode="&#xb0;" horiz-adv-x="878" 
d="M354 1092q0 -180 176 -179q88 0 168 78t80 165t-44 135t-132 48t-168 -79.5t-80 -167.5zM504 817q-111 0 -182.5 69.5t-71.5 174.5q0 143 114.5 256t262.5 113q111 0 182.5 -70t71.5 -176q0 -139 -113.5 -253t-263.5 -114z" />
    <glyph glyph-name="plusminus" unicode="&#xb1;" 
d="M862 147h-784l22 117h787zM987 745h-330l-73 -354h-129l73 354h-327l24 119h328l72 350h129l-72 -350h330z" />
    <glyph glyph-name="acute" unicode="&#xb4;" horiz-adv-x="434" 
d="M563 1540q68 0 78 -37l-297 -278h-106l200 280q57 35 125 35z" />
    <glyph glyph-name="mu" unicode="&#xb5;" horiz-adv-x="1075" 
d="M344.5 119q61.5 -21 151.5 -21t176 37l200 969h181l-217 -1047q-146 -77 -336 -77q-90 0 -160 23.5t-107 51.5l-102 -495h-180l319 1544h181l-195 -944q27 -20 88.5 -41z" />
    <glyph glyph-name="paragraph" unicode="&#xb6;" 
d="M209 971q0 158 117.5 298t355.5 140h504l-21 -92h-69l-365 -1757h-129l365 1757h-260l-365 -1757h-129l227 1106q-111 25 -171 108.5t-60 196.5z" />
    <glyph glyph-name="cedilla" unicode="&#xb8;" horiz-adv-x="434" 
d="M324 -231q0 -84 -93 -131.5t-288 -47.5q-37 0 -81 3.5t-95 5.5l55 69l104 -4q260 0 260 94q0 55 -141 56l-106 -4l53 63l108 6q224 0 224 -110z" />
    <glyph glyph-name="ordmasculine" unicode="&#xba;" horiz-adv-x="765" 
d="M311 914q0 -150 114 -150q60 0 101 23.5t77 73.5t62.5 152.5t26.5 180.5q0 147 -116 147q-60 0 -99 -23.5t-74.5 -75.5t-63.5 -152.5t-28 -175.5zM426 670q-123 0 -184.5 69t-61.5 177t34 211.5t115 200.5t246 97q125 0 185.5 -67.5t60.5 -177.5t-34 -214t-90 -168
q-112 -128 -271 -128z" />
    <glyph glyph-name="guillemotright" unicode="&#xbb;" horiz-adv-x="1032" 
d="M188 240l-92 67l344 387l-176 373l105 63l211 -448zM567 240l-92 67l342 387l-174 373l105 63l210 -448z" />
    <glyph glyph-name="questiondown" unicode="&#xbf;" horiz-adv-x="821" 
d="M-49 -185q0 137 107.5 243t265.5 153l84 297h135l-45 -356q-147 -35 -253 -115t-106 -209q0 -78 46 -118t157 -40t225 56l33 -107q-147 -78 -311 -78t-251 68.5t-87 205.5zM564 981q104 0 104 -97q0 -48 -44.5 -92t-94.5 -44q-103 0 -103 97q0 48 44 92t94 44z" />
    <glyph glyph-name="Agrave" unicode="&#xc0;" horiz-adv-x="1200" 
d="M764 1069q-4 45 -6 93t-4 77q-19 -55 -78 -170l-281 -534h422zM868 0l-45 422h-483l-223 -422h-183l768 1409h172l183 -1409h-189zM678 1831q61 0 100 -35l88 -280h-94l-180 278q25 37 86 37z" />
    <glyph glyph-name="Aacute" unicode="&#xc1;" horiz-adv-x="1200" 
d="M764 1069q-4 45 -6 93t-4 77q-19 -55 -78 -170l-281 -534h422zM868 0l-45 422h-483l-223 -422h-183l768 1409h172l183 -1409h-189zM1057 1831q68 0 78 -37l-297 -278h-107l201 280q57 35 125 35z" />
    <glyph glyph-name="Acircumflex" unicode="&#xc2;" horiz-adv-x="1200" 
d="M764 1069q-4 45 -6 93t-4 77q-19 -55 -78 -170l-281 -534h422zM868 0l-45 422h-483l-223 -422h-183l768 1409h172l183 -1409h-189zM868.5 1794q36.5 0 61.5 -31l160 -204l-58 -48l-182 164l-248 -164l-51 48l244 204q37 31 73.5 31z" />
    <glyph glyph-name="Atilde" unicode="&#xc3;" horiz-adv-x="1200" 
d="M764 1069q-4 45 -6 93t-4 77q-19 -55 -78 -170l-281 -534h422zM868 0l-45 422h-483l-223 -422h-183l768 1409h172l183 -1409h-189zM944 1645q39 0 75 23.5t56 62.5l51 -78q-27 -51 -73 -81t-98 -30t-126.5 40t-107.5 40q-80 0 -133 -88l-47 80q65 115 182 115
q51 0 116.5 -42t104.5 -42z" />
    <glyph glyph-name="Adieresis" unicode="&#xc4;" horiz-adv-x="1200" 
d="M764 1069q-4 45 -6 93t-4 77q-19 -55 -78 -170l-281 -534h422zM868 0l-45 422h-483l-223 -422h-183l768 1409h172l183 -1409h-189zM653 1550q-82 0 -82 76q0 37 35 70t73 33t59.5 -21.5t21.5 -57.5t-34 -68t-73 -32zM993 1550q-82 0 -82 77q0 38 34 70t72 32t60.5 -23.5
t22.5 -57.5t-34 -66t-73 -32z" />
    <glyph glyph-name="Aring" unicode="&#xc5;" horiz-adv-x="1200" 
d="M764 1069q-4 45 -6 93t-4 77q-19 -55 -78 -170l-281 -534h422zM868 0l-45 422h-483l-223 -422h-183l768 1409h172l183 -1409h-189zM940 1700q0 78 -78 78q-41 0 -78 -39q-36 -39 -36 -80q1 -86 73 -84q49 0 84 39t35 86zM676 1652q0 68 58 128t128 61q70 0 110 -38
q40 -39 40 -105t-58 -126t-130 -61q-70 0 -109 37q-39 36 -39 104z" />
    <glyph glyph-name="AE" unicode="&#xc6;" horiz-adv-x="1523" 
d="M756 1214v35q-34 -82 -62 -131l-307 -581h428l-55 583q-4 62 -4 94zM1430 1282h-541l57 -491h393l-24 -125h-354l65 -539h383l-27 -127h-520l-41 422h-493l-226 -422h-180l778 1409h754z" />
    <glyph glyph-name="Ccedilla" unicode="&#xc7;" horiz-adv-x="983" 
d="M653 -231q0 -84 -93 -131.5t-288 -47.5q-37 0 -81 3.5t-95 5.5l56 69l104 -4q260 0 260 94q0 55 -141 56l-107 -4l54 63l108 6q223 0 223 -110zM1014 1247q-70 49 -162 49t-164 -35.5t-155.5 -129t-147 -286t-63.5 -366.5q0 -356 260 -356q118 0 209 59l28 -125
q-99 -77 -291 -77t-296.5 134t-104.5 356t82 439t242.5 369t377.5 152q162 0 256 -78z" />
    <glyph glyph-name="Egrave" unicode="&#xc8;" horiz-adv-x="913" 
d="M975 1282h-465l-100 -491h415l-24 -125h-418l-111 -539h465l-26 -127h-654l291 1409h653zM595 1831q62 0 101 -35l88 -280h-94l-180 278q23 37 85 37z" />
    <glyph glyph-name="Eacute" unicode="&#xc9;" horiz-adv-x="913" 
d="M975 1282h-465l-100 -491h415l-24 -125h-418l-111 -539h465l-26 -127h-654l291 1409h653zM930 1831q68 0 78 -37l-297 -278h-107l201 280q57 35 125 35z" />
    <glyph glyph-name="Ecircumflex" unicode="&#xca;" horiz-adv-x="913" 
d="M975 1282h-465l-100 -491h415l-24 -125h-418l-111 -539h465l-26 -127h-654l291 1409h653zM743.5 1794q36.5 0 61.5 -31l160 -204l-58 -48l-182 164l-248 -164l-51 48l244 204q37 31 73.5 31z" />
    <glyph glyph-name="Edieresis" unicode="&#xcb;" horiz-adv-x="913" 
d="M975 1282h-465l-100 -491h415l-24 -125h-418l-111 -539h465l-26 -127h-654l291 1409h653zM532 1550q-81 0 -81 76q0 37 34.5 70t72.5 33t59.5 -21.5t21.5 -57.5t-34 -68t-73 -32zM872 1550q-81 0 -81 77q0 38 33.5 70t71.5 32t60.5 -23.5t22.5 -57.5t-34 -66t-73 -32z
" />
    <glyph glyph-name="Igrave" unicode="&#xcc;" horiz-adv-x="528" 
d="M254 0h-191l291 1409h191zM389 1831q61 0 100 -35l89 -280h-95l-180 278q25 37 86 37z" />
    <glyph glyph-name="Iacute" unicode="&#xcd;" horiz-adv-x="528" 
d="M254 0h-191l291 1409h191zM688 1831q68 0 78 -37l-297 -278h-107l201 280q57 35 125 35z" />
    <glyph glyph-name="Icircumflex" unicode="&#xce;" horiz-adv-x="528" 
d="M254 0h-191l291 1409h191zM528 1794q36 0 62 -31l160 -204l-58 -48l-182 164l-248 -164l-51 48l244 204q37 31 73 31z" />
    <glyph glyph-name="Idieresis" unicode="&#xcf;" horiz-adv-x="528" 
d="M254 0h-191l291 1409h191zM315 1550q-82 0 -82 76q0 37 35 70t74 33q39 -1 59 -21q21 -20 21 -57t-34 -69t-73 -32zM655 1550q-82 0 -82 77q0 38 34 70t72 32q39 -1 61 -21t22 -57t-34 -69t-73 -32z" />
    <glyph glyph-name="Ntilde" unicode="&#xd1;" horiz-adv-x="1331" 
d="M1065 0h-158l-389 1026q-36 102 -57 172q-6 -33 -8 -46t-25 -128l-213 -1024h-158l291 1409h193l374 -989q20 -51 31.5 -93t18.5 -57q6 27 11 57.5t19 98.5l203 983h158zM1008 1645q39 0 74.5 23.5t56.5 62.5l51 -78q-27 -51 -73 -81t-98 -30t-127 40t-108 40
q-78 0 -133 -88l-47 80q65 115 182 115q51 0 117 -42t105 -42z" />
    <glyph glyph-name="Ograve" unicode="&#xd2;" horiz-adv-x="1249" 
d="M309 424q0 -303 220 -303q116 0 193 59q161 123 252 486q48 195 48 340q0 297 -212 297q-112 1 -189 -57q-168 -124 -262 -484q-50 -193 -50 -338zM127 428q0 200 58 402q57 202 151 333q191 267 477 267q201 0 296 -123t95 -321t-60 -408q-113 -397 -356 -533
q-117 -66 -266 -65q-201 0 -298 124t-97 324zM737 1831q61 0 101 -35l88 -280h-95l-180 278q25 37 86 37z" />
    <glyph glyph-name="Oacute" unicode="&#xd3;" horiz-adv-x="1249" 
d="M309 424q0 -303 220 -303q116 0 193 59q161 123 252 486q48 195 48 340q0 297 -212 297q-112 1 -189 -57q-168 -124 -262 -484q-50 -193 -50 -338zM127 428q0 200 58 402q57 202 151 333q191 267 477 267q201 0 296 -123t95 -321t-60 -408q-113 -397 -356 -533
q-117 -66 -266 -65q-201 0 -298 124t-97 324zM1053 1831q68 0 77 -37l-296 -278h-107l201 280q57 35 125 35z" />
    <glyph glyph-name="Ocircumflex" unicode="&#xd4;" horiz-adv-x="1249" 
d="M309 424q0 -303 220 -303q116 0 193 59q161 123 252 486q48 195 48 340q0 297 -212 297q-112 1 -189 -57q-168 -124 -262 -484q-50 -193 -50 -338zM127 428q0 200 58 402q57 202 151 333q191 267 477 267q201 0 296 -123t95 -321t-60 -408q-113 -397 -356 -533
q-117 -66 -266 -65q-201 0 -298 124t-97 324zM889 1794q37 0 61 -31l160 -204l-57 -48l-183 164l-247 -164l-52 48l244 204q37 31 74 31z" />
    <glyph glyph-name="Otilde" unicode="&#xd5;" horiz-adv-x="1249" 
d="M309 424q0 -303 220 -303q116 0 193 59q161 123 252 486q48 195 48 340q0 297 -212 297q-112 1 -189 -57q-168 -124 -262 -484q-50 -193 -50 -338zM127 428q0 200 58 402q57 202 151 333q191 267 477 267q201 0 296 -123t95 -321t-60 -408q-113 -397 -356 -533
q-117 -66 -266 -65q-201 0 -298 124t-97 324zM975 1645q84 0 133 86l51 -78q-27 -51 -73 -81t-98 -30t-127 40t-107 40q-79 0 -133 -88l-48 80q61 115 183 115q50 0 116 -42t103 -42z" />
    <glyph glyph-name="Odieresis" unicode="&#xd6;" horiz-adv-x="1249" 
d="M309 424q0 -303 220 -303q116 0 193 59q161 123 252 486q48 195 48 340q0 297 -212 297q-112 1 -189 -57q-168 -124 -262 -484q-50 -193 -50 -338zM127 428q0 200 58 402q57 202 151 333q191 267 477 267q201 0 296 -123t95 -321t-60 -408q-113 -397 -356 -533
q-117 -66 -266 -65q-201 0 -298 124t-97 324zM676 1548q-84 0 -82 76q0 37 35 70q35 32 74 32t59 -20t20 -57t-34 -69t-72 -32zM1016 1548q-84 0 -82 77q0 38 34 70q34 31 72 31t60 -20t22 -57t-34 -69t-72 -32z" />
    <glyph glyph-name="Oslash" unicode="&#xd8;" horiz-adv-x="1249" 
d="M328 248q53 -139 213 -139q109 0 190.5 62t147 182t113.5 312.5t48 344.5l-4 75zM1016 1171q-52 146 -207 146q-104 0 -185 -59.5t-152 -182.5t-120 -313.5t-49 -349.5l6 -78zM817 1430q204 0 303 -134l148 174l51 -47l-160 -190q51 -109 51 -279t-58 -375.5t-197 -402
t-427 -196.5q-209 0 -309 139l-143 -170l-56 45l160 188q-49 110 -49 276t60.5 371t199.5 403t426 198z" />
    <glyph glyph-name="Ugrave" unicode="&#xd9;" horiz-adv-x="1198" 
d="M129 307q0 34 10 96l209 1006h189l-209 -1006q-10 -47 -11 -79q-1 -94 53 -146t158 -51q104 0 197 76q94 76 119 200l207 1006h172l-207 -1008q-37 -186 -179 -304q-141 -117 -327 -117t-284 89q-97 89 -97 238zM743 1831q61 0 101 -35l88 -280h-94l-181 278q25 37 86 37
z" />
    <glyph glyph-name="Uacute" unicode="&#xda;" horiz-adv-x="1198" 
d="M129 307q0 34 10 96l209 1006h189l-209 -1006q-10 -47 -11 -79q-1 -94 53 -146t158 -51q104 0 197 76q94 76 119 200l207 1006h172l-207 -1008q-37 -186 -179 -304q-141 -117 -327 -117t-284 89q-97 89 -97 238zM1032 1831q68 0 78 -37l-297 -278h-106l200 280
q57 35 125 35z" />
    <glyph glyph-name="Ucircumflex" unicode="&#xdb;" horiz-adv-x="1198" 
d="M129 307q0 34 10 96l209 1006h189l-209 -1006q-10 -47 -11 -79q-1 -94 53 -146t158 -51q104 0 197 76q94 76 119 200l207 1006h172l-207 -1008q-37 -186 -179 -304q-141 -117 -327 -117t-284 89q-97 89 -97 238zM868 1794q36 0 62 -31l160 -204l-58 -48l-182 164
l-248 -164l-51 48l244 204q37 31 73 31z" />
    <glyph glyph-name="Udieresis" unicode="&#xdc;" horiz-adv-x="1198" 
d="M129 307q0 34 10 96l209 1006h189l-209 -1006q-10 -47 -11 -79q-1 -94 53 -146t158 -51q104 0 197 76q94 76 119 200l207 1006h172l-207 -1008q-37 -186 -179 -304q-141 -117 -327 -117t-284 89q-97 89 -97 238zM659 1550q-83 0 -81 76q0 37 34 70q35 33 74 33
q39 -1 59 -21q21 -20 21 -57t-34 -69t-73 -32zM999 1550q-83 0 -81 77q0 38 33 70q34 32 72 32q39 -1 61 -21t22 -57t-34 -69t-73 -32z" />
    <glyph glyph-name="germandbls" unicode="&#xdf;" horiz-adv-x="1142" 
d="M836 348q0 78 -114 187t-114 215t82 182t203 110q61 116 61 290q0 175 -161 175q-131 0 -216 -113.5t-124 -297.5l-228 -1096h-174l225 1085q45 221 176.5 380t350.5 159q156 0 235.5 -88t79.5 -245t-84 -312q-111 -12 -187.5 -66.5t-76.5 -158.5q0 -70 119 -179.5
t119 -222.5q0 -147 -116 -256.5t-300 -109.5q-129 0 -195 49l60 110q47 -28 141 -28t166 64.5t72 166.5z" />
    <glyph glyph-name="agrave" unicode="&#xe0;" horiz-adv-x="1093" 
d="M719 1016q-196 0 -313 -191q-58 -92 -92 -217q-34 -124 -34 -246q1 -263 238 -264q109 0 172 35l176 852q-51 31 -147 31zM712 1124q120 0 210 -24q88 -24 135 -53l-205 -990q-58 -33 -152 -55t-202 -22q-193 0 -295 106t-103 289q0 135 48 278t130 249t198 164t236 58z
M655 1540q61 0 101 -35l88 -280h-94l-181 278q25 37 86 37z" />
    <glyph glyph-name="aacute" unicode="&#xe1;" horiz-adv-x="1093" 
d="M719 1016q-196 0 -313 -191q-58 -92 -92 -217q-34 -124 -34 -246q1 -263 238 -264q109 0 172 35l176 852q-51 31 -147 31zM712 1124q120 0 210 -24q88 -24 135 -53l-205 -990q-58 -33 -152 -55t-202 -22q-193 0 -295 106t-103 289q0 135 48 278t130 249t198 164t236 58z
M1006 1540q68 0 77 -37l-297 -278h-106l201 280q57 35 125 35z" />
    <glyph glyph-name="acircumflex" unicode="&#xe2;" horiz-adv-x="1093" 
d="M719 1016q-196 0 -313 -191q-58 -92 -92 -217q-34 -124 -34 -246q1 -263 238 -264q109 0 172 35l176 852q-51 31 -147 31zM712 1124q120 0 210 -24q88 -24 135 -53l-205 -990q-58 -33 -152 -55t-202 -22q-193 0 -295 106t-103 289q0 135 48 278t130 249t198 164t236 58z
M967 1221l-183 163l-247 -163l-52 47l244 205q37 31 74 31t61 -31l160 -205z" />
    <glyph glyph-name="atilde" unicode="&#xe3;" horiz-adv-x="1093" 
d="M719 1016q-196 0 -313 -191q-58 -92 -92 -217q-34 -124 -34 -246q1 -263 238 -264q109 0 172 35l176 852q-51 31 -147 31zM712 1124q120 0 210 -24q88 -24 135 -53l-205 -990q-58 -33 -152 -55t-202 -22q-193 0 -295 106t-103 289q0 135 48 278t130 249t198 164t236 58z
M868 1354q84 0 133 86l52 -78q-27 -51 -73 -81t-98 -30t-127 40t-108 40q-80 0 -133 -88l-47 80q61 115 182 115q51 0 117 -42t102 -42z" />
    <glyph glyph-name="adieresis" unicode="&#xe4;" horiz-adv-x="1093" 
d="M719 1016q-196 0 -313 -191q-58 -92 -92 -217q-34 -124 -34 -246q1 -263 238 -264q109 0 172 35l176 852q-51 31 -147 31zM712 1124q120 0 210 -24q88 -24 135 -53l-205 -990q-58 -33 -152 -55t-202 -22q-193 0 -295 106t-103 289q0 135 48 278t130 249t198 164t236 58z
M602 1262q-82 0 -82 75q0 37 35 70t74 33t59 -20t20 -58q0 -36 -33 -68q-34 -32 -73 -32zM942 1262q-82 0 -82 76q0 38 34 70t72 32t60 -20t23 -58q0 -36 -34 -68t-73 -32z" />
    <glyph glyph-name="aring" unicode="&#xe5;" horiz-adv-x="1093" 
d="M719 1016q-196 0 -313 -191q-58 -92 -92 -217q-34 -124 -34 -246q1 -263 238 -264q109 0 172 35l176 852q-51 31 -147 31zM712 1124q120 0 210 -24q88 -24 135 -53l-205 -990q-58 -33 -152 -55t-202 -22q-193 0 -295 106t-103 289q0 135 48 278t130 249t198 164t236 58z
M883 1411q0 78 -78 78q-41 0 -78 -39t-37 -80q0 -84 74 -84q49 0 84 39t35 86zM768 1223q-70 0 -111 37q-39 36 -39 104t58 128t128 60t110 -38t40 -104t-58 -127q-58 -60 -128 -60z" />
    <glyph glyph-name="ae" unicode="&#xe6;" horiz-adv-x="1658" 
d="M221 253q0 -167 187 -167q92 0 170.5 57.5t99.5 155.5l65 322q-221 -27 -321 -77t-150.5 -127t-50.5 -164zM1245 1008q-125 0 -223 -105.5t-143 -320.5l542 80q17 91 17 139q0 207 -193 207zM858 379q0 -273 281 -273q142 0 268 64l23 -117q-53 -31 -145.5 -52
t-197.5 -21q-248 0 -327 202q-70 -104 -156 -153t-230 -49t-230.5 66t-86.5 190t75 223.5t180.5 148.5t209 71.5t242.5 37.5q22 95 22 131q0 92 -61 126t-135 34q-144 0 -283 -68l-20 107q147 77 338 77q246 0 280 -198q68 98 165 148t198 50q162 0 248 -86t86 -262
q0 -96 -23 -194l-713 -101q-8 -46 -8 -102z" />
    <glyph glyph-name="ccedilla" unicode="&#xe7;" horiz-adv-x="860" 
d="M555 -231q0 -84 -93 -131.5t-288 -47.5q-37 0 -81 3.5t-95 5.5l55 69l105 -4q260 0 260 94q0 55 -142 56l-106 -4l53 63l109 6q223 0 223 -110zM829 950q-57 49 -147 49t-160.5 -46t-122 -132t-83 -207.5t-31.5 -239.5t50 -188.5t149 -70.5t180 59l24 -117
q-39 -33 -109.5 -55t-146.5 -22q-152 0 -240 111.5t-88 297.5q0 131 40 265t113 243t176.5 168t203.5 59q180 0 260 -77z" />
    <glyph glyph-name="egrave" unicode="&#xe8;" horiz-adv-x="1073" 
d="M852 795q0 109 -50 162t-139 53q-183 0 -292 -198q-55 -99 -82 -232l547 82q16 82 16 133zM100 375q0 123 41 263q90 309 298 425q111 61 255 61t232 -90t88 -264q0 -91 -23 -188l-715 -101q-6 -47 -6 -90q0 -284 262 -282q160 0 287 67l23 -119q-58 -33 -152 -55
t-190 -22q-184 0 -292 99t-108 296zM600 1540q61 0 100 -35l88 -280h-94l-180 278q25 37 86 37z" />
    <glyph glyph-name="eacute" unicode="&#xe9;" horiz-adv-x="1073" 
d="M852 795q0 109 -50 162t-139 53q-183 0 -292 -198q-55 -99 -82 -232l547 82q16 82 16 133zM100 375q0 123 41 263q90 309 298 425q111 61 255 61t232 -90t88 -264q0 -91 -23 -188l-715 -101q-6 -47 -6 -90q0 -284 262 -282q160 0 287 67l23 -119q-58 -33 -152 -55
t-190 -22q-184 0 -292 99t-108 296zM946 1540q68 0 78 -37l-297 -278h-106l200 280q57 35 125 35z" />
    <glyph glyph-name="ecircumflex" unicode="&#xea;" horiz-adv-x="1073" 
d="M852 795q0 109 -50 162t-139 53q-183 0 -292 -198q-55 -99 -82 -232l547 82q16 82 16 133zM100 375q0 123 41 263q90 309 298 425q111 61 255 61t232 -90t88 -264q0 -91 -23 -188l-715 -101q-6 -47 -6 -90q0 -284 262 -282q160 0 287 67l23 -119q-58 -33 -152 -55
t-190 -22q-184 0 -292 99t-108 296zM920 1221l-183 163l-248 -163l-51 47l244 205q37 31 74 31t61 -31l160 -205z" />
    <glyph glyph-name="edieresis" unicode="&#xeb;" horiz-adv-x="1073" 
d="M852 795q0 109 -50 162t-139 53q-183 0 -292 -198q-55 -99 -82 -232l547 82q16 82 16 133zM100 375q0 123 41 263q90 309 298 425q111 61 255 61t232 -90t88 -264q0 -91 -23 -188l-715 -101q-6 -47 -6 -90q0 -284 262 -282q160 0 287 67l23 -119q-58 -33 -152 -55
t-190 -22q-184 0 -292 99t-108 296zM578 1440q79 0 79 -78q0 -37 -33 -69q-34 -31 -73 -31q-85 0 -83 75q0 37 36 70q35 33 74 33zM891 1262q-85 0 -83 76q0 38 35 70q34 32 72 32q39 0 61 -20t22 -58q0 -37 -34 -69q-34 -31 -73 -31z" />
    <glyph glyph-name="igrave" unicode="&#xec;" horiz-adv-x="485" 
d="M229 0h-180l230 1104h180zM303 1540q61 0 100 -35l89 -280h-95l-180 278q25 37 86 37z" />
    <glyph glyph-name="iacute" unicode="&#xed;" horiz-adv-x="485" 
d="M229 0h-180l230 1104h180zM608 1540q68 0 78 -37l-297 -278h-106l200 280q57 35 125 35z" />
    <glyph glyph-name="icircumflex" unicode="&#xee;" horiz-adv-x="485" 
d="M229 0h-180l230 1104h180zM608 1221l-182 163l-248 -163l-51 47l244 205q37 31 73 31t62 -31l160 -205z" />
    <glyph glyph-name="idieresis" unicode="&#xef;" horiz-adv-x="485" 
d="M229 0h-180l230 1104h180zM233 1262q-83 0 -81 75q0 37 34 70q35 33 74 33t59 -20q21 -20 21 -58q0 -36 -34 -68t-73 -32zM573 1262q-81 0 -81 76q0 38 33 70q34 32 72 32q39 0 61 -20t22 -58q0 -36 -34 -68t-73 -32z" />
    <glyph glyph-name="ntilde" unicode="&#xf1;" horiz-adv-x="1093" 
d="M660 1008q-131 0 -236 -37l-203 -971h-180l217 1047q175 77 380 77q206 0 290 -70t84 -188q0 -47 -8 -82l-164 -784h-181l166 795l6 63q0 66 -47 108q-46 42 -124 42zM825 1251q-47 0 -122 40t-107 40q-80 0 -133 -88l-47 80q61 115 182 115q51 0 117 -42t102 -42
q84 0 133 86l51 -78q-59 -111 -176 -111z" />
    <glyph glyph-name="ograve" unicode="&#xf2;" horiz-adv-x="1083" 
d="M834 783q0 227 -177 227q-255 0 -354 -432q-31 -135 -31 -242q0 -230 183 -232q247 0 346 431q33 143 33 248zM98 330q0 152 39 298q133 496 547 496q152 0 237 -99t85 -251t-39 -297q-83 -309 -286 -433q-105 -65 -243 -64q-172 0 -256 99t-84 251zM584 1540
q61 0 100 -35l88 -280h-94l-180 278q25 37 86 37z" />
    <glyph glyph-name="oacute" unicode="&#xf3;" horiz-adv-x="1083" 
d="M834 783q0 227 -177 227q-255 0 -354 -432q-31 -135 -31 -242q0 -230 183 -232q247 0 346 431q33 143 33 248zM98 330q0 152 39 298q133 496 547 496q152 0 237 -99t85 -251t-39 -297q-83 -309 -286 -433q-105 -65 -243 -64q-172 0 -256 99t-84 251zM930 1540
q68 0 78 -37l-297 -278h-107l201 280q57 35 125 35z" />
    <glyph glyph-name="ocircumflex" unicode="&#xf4;" horiz-adv-x="1083" 
d="M834 783q0 227 -177 227q-255 0 -354 -432q-31 -135 -31 -242q0 -230 183 -232q247 0 346 431q33 143 33 248zM98 330q0 152 39 298q133 496 547 496q152 0 237 -99t85 -251t-39 -297q-83 -309 -286 -433q-105 -65 -243 -64q-172 0 -256 99t-84 251zM909 1221l-182 163
l-248 -163l-51 47l244 205q38 31 74 31t61 -31l160 -205z" />
    <glyph glyph-name="otilde" unicode="&#xf5;" horiz-adv-x="1083" 
d="M834 783q0 227 -177 227q-255 0 -354 -432q-31 -135 -31 -242q0 -230 183 -232q247 0 346 431q33 143 33 248zM98 330q0 152 39 298q133 496 547 496q152 0 237 -99t85 -251t-39 -297q-83 -309 -286 -433q-105 -65 -243 -64q-172 0 -256 99t-84 251zM825 1251
q-47 0 -122 40t-107 40q-80 0 -133 -88l-47 80q61 115 182 115q51 0 117 -42t102 -42q84 0 133 86l51 -78q-59 -111 -176 -111z" />
    <glyph glyph-name="odieresis" unicode="&#xf6;" horiz-adv-x="1083" 
d="M834 783q0 227 -177 227q-255 0 -354 -432q-31 -135 -31 -242q0 -230 183 -232q247 0 346 431q33 143 33 248zM98 330q0 152 39 298q133 496 547 496q152 0 237 -99t85 -251t-39 -297q-83 -309 -286 -433q-105 -65 -243 -64q-172 0 -256 99t-84 251zM532 1262
q-84 0 -82 75q0 37 35 70t74 33t59 -20t20 -58q0 -36 -33 -68q-34 -32 -73 -32zM872 1262q-82 0 -82 76q0 38 34 70t72 32t60 -20t23 -58q0 -36 -34 -68t-73 -32z" />
    <glyph glyph-name="divide" unicode="&#xf7;" 
d="M525 457q89 0 89 -86q0 -41 -38 -79t-80 -38t-66 22.5t-24 63.5t37.5 79t81.5 38zM961 629h-787l23 106h786zM629 905q-88 0 -88 86q0 41 37.5 79t79.5 38t67 -22.5t25 -62.5t-39 -79t-82 -39z" />
    <glyph glyph-name="oslash" unicode="&#xf8;" horiz-adv-x="1083" 
d="M442 90q104 0 171 54.5t116 151.5t82 234.5t33 217.5t-8 122l-545 -694q47 -86 151 -86zM664 1026q-101 0 -172.5 -56.5t-120.5 -153.5t-80 -234.5t-31 -203.5v-54q0 -54 6 -76l545 692q-46 86 -147 86zM96 339q0 140 41 288.5t150.5 322.5t376.5 174q147 0 233 -75
l121 153l49 -37l-129 -164q66 -92 66 -235t-39 -288.5t-151 -321.5t-378 -176q-150 0 -237 81l-125 -161l-47 43l131 168q-62 88 -62 228z" />
    <glyph glyph-name="ugrave" unicode="&#xf9;" horiz-adv-x="1073" 
d="M283 260q0 -154 186 -154q123 0 203 35l198 963h181l-217 -1047q-62 -33 -166 -55t-224 -22q-174 0 -258 68t-84 196q0 57 11 98l157 762h181l-160 -768q-8 -33 -8 -76zM604 1540q61 0 101 -35l88 -280h-95l-180 278q25 37 86 37z" />
    <glyph glyph-name="uacute" unicode="&#xfa;" horiz-adv-x="1073" 
d="M283 260q0 -154 186 -154q123 0 203 35l198 963h181l-217 -1047q-62 -33 -166 -55t-224 -22q-174 0 -258 68t-84 196q0 57 11 98l157 762h181l-160 -768q-8 -33 -8 -76zM930 1540q68 0 78 -37l-297 -278h-107l201 280q57 35 125 35z" />
    <glyph glyph-name="ucircumflex" unicode="&#xfb;" horiz-adv-x="1073" 
d="M283 260q0 -154 186 -154q123 0 203 35l198 963h181l-217 -1047q-62 -33 -166 -55t-224 -22q-174 0 -258 68t-84 196q0 57 11 98l157 762h181l-160 -768q-8 -33 -8 -76zM905 1221l-182 163l-248 -163l-51 47l244 205q38 31 74 31t61 -31l160 -205z" />
    <glyph glyph-name="udieresis" unicode="&#xfc;" horiz-adv-x="1073" 
d="M283 260q0 -154 186 -154q123 0 203 35l198 963h181l-217 -1047q-62 -33 -166 -55t-224 -22q-174 0 -258 68t-84 196q0 57 11 98l157 762h181l-160 -768q-8 -33 -8 -76zM528 1262q-82 0 -82 75q0 37 35 70t74 33t59 -20t20 -58q0 -36 -33 -68q-34 -32 -73 -32zM868 1262
q-82 0 -82 76q0 38 34 70t72 32t60 -20t23 -58q0 -36 -34 -68t-73 -32z" />
    <glyph glyph-name="ydieresis" unicode="&#xff;" horiz-adv-x="1021" 
d="M444 309v-137q24 69 60 137l401 795h174l-825 -1544h-195l273 442l-139 1102h188zM537 1440q79 0 79 -78q0 -37 -33 -69q-34 -31 -73 -31q-82 0 -82 75q0 37 35 70t74 33zM850 1262q-82 0 -82 76q0 38 34 70t72 32t60 -20t22 -58q0 -37 -33 -69q-34 -31 -73 -31z" />
    <glyph glyph-name="dotlessi" unicode="&#x131;" horiz-adv-x="485" 
d="M229 0h-180l230 1104h180z" />
    <glyph glyph-name="OE" unicode="&#x152;" horiz-adv-x="1564" 
d="M840 1313q-100 0 -183.5 -52.5t-160 -164t-129 -299t-52.5 -346.5t61.5 -252t211.5 -93q106 0 160 17l243 1175q-51 15 -151 15zM565 -20q-213 0 -325.5 131t-112.5 341t63.5 406.5t219 384t454.5 187.5q87 0 166 -21h623l-27 -127h-463l-102 -491h418l-25 -125h-420
l-108 -537h463l-27 -129h-625q-78 -20 -172 -20z" />
    <glyph glyph-name="oe" unicode="&#x153;" horiz-adv-x="1728" 
d="M831 791q0 219 -165 219q-87 0 -145 -36t-111.5 -114t-96.5 -235t-43 -275t39 -183t130 -65t155.5 47.5t113 132.5t86 239.5t37.5 269.5zM1321 1016q-125 0 -226.5 -110.5t-144.5 -323.5l543 77q16 86 16 140q0 217 -188 217zM1337 1124q332 0 332 -346q0 -75 -22 -196
l-707 -101q-6 -49 -6 -88q0 -154 72.5 -220.5t202.5 -66.5t266 68l24 -117q-142 -77 -338 -77q-131 0 -220 61t-118 190q-141 -252 -389 -251q-170 0 -253 100t-83 266t53.5 333t173.5 306t342 139t281 -227q72 111 177.5 169t211.5 58z" />
    <glyph glyph-name="Ydieresis" unicode="&#x178;" horiz-adv-x="1050" 
d="M639 625l-129 -625h-188l129 625l-220 784h195l145 -637l428 637h189zM606 1729q80 0 80 -78q0 -37 -34 -69t-73 -32q-83 0 -81 76q0 37 34 70q35 33 74 33zM919 1550q-83 0 -81 77q0 38 33 70q34 32 72 32q38 -1 61 -21q22 -20 22 -57t-34 -69t-73 -32z" />
    <glyph glyph-name="florin" unicode="&#x192;" horiz-adv-x="1161" 
d="M-41 -457q-55 0 -125 27l49 125q31 -12 74 -12q98 0 160.5 68.5t126.5 228.5l299 751h-224l25 113h244l78 194q82 197 174 293t262 96q90 0 151 -26l-49 -113q-32 14 -108 14t-132.5 -61t-107.5 -190l-82 -207h221l-22 -113h-248l-299 -754q-82 -207 -185.5 -320.5
t-281.5 -113.5z" />
    <glyph glyph-name="hungarumlaut" unicode="&#x2ba;" horiz-adv-x="434" 
d="M436 1518q61 0 56 -33l-297 -262h-86l223 260q43 35 104 35zM715 1518q55 0 49 -33l-297 -262h-86l223 260q44 35 111 35z" />
    <glyph glyph-name="caron" unicode="&#x2c7;" horiz-adv-x="434" 
d="M442 1255q-38 -31 -76 -31t-63 31l-160 207l58 45l182 -164l252 164l53 -45z" />
    <glyph glyph-name="macron" unicode="&#x2c9;" horiz-adv-x="434" 
d="M670 1290h-580l23 103h579z" />
    <glyph glyph-name="breve" unicode="&#x2d8;" horiz-adv-x="434" 
d="M376 1225q-122 0 -176.5 60.5t-54.5 137.5l7 45l63 23q0 -162 163 -162t240 162l62 -23q-18 -88 -100 -165.5t-204 -77.5z" />
    <glyph glyph-name="dotaccent" unicode="&#x2d9;" horiz-adv-x="434" 
d="M393 1315q-90 0 -90 84q0 41 35 77.5t78 36.5t67.5 -22.5t24.5 -60.5t-36 -76.5t-79 -38.5z" />
    <glyph glyph-name="ring" unicode="&#x2da;" horiz-adv-x="434" 
d="M496 1411q0 78 -78 78q-41 0 -78 -39t-37 -80q0 -84 74 -84q49 0 84 39t35 86zM380 1223q-70 0 -109.5 36.5t-39.5 104.5t58.5 128t128.5 60t109.5 -37.5t39.5 -104.5t-58.5 -127t-128.5 -60z" />
    <glyph glyph-name="ogonek" unicode="&#x2db;" horiz-adv-x="434" 
d="M119 -215q0 -25 22.5 -42t73.5 -17t137 30l6 -69q-118 -47 -203 -47t-132.5 33t-47.5 95t68 141t207 152h131q-262 -143 -262 -276z" />
    <glyph glyph-name="circumflex" unicode="&#x302;" horiz-adv-x="434" 
d="M586 1221l-183 163l-247 -163l-52 47l244 205q37 31 74 30.5t61 -30.5l160 -205z" />
    <glyph glyph-name="tilde" unicode="&#x303;" horiz-adv-x="434" 
d="M498 1354q82 0 133 86l51 -78q-27 -51 -73 -81t-98 -30t-127 40t-108 40q-78 0 -133 -88l-47 80q61 115 183 115q51 0 116.5 -42t102.5 -42z" />
    <glyph glyph-name="summation" unicode="&#x3a3;" 
d="M1096 1280h-586l264 -694l-604 -877h616l-28 -149h-873l703 1018l-312 831h844z" />
    <glyph glyph-name="Omega" unicode="&#x3a9;" horiz-adv-x="1335" 
d="M299 127q-121 207 -121 501q0 148 60.5 317t205 327t414.5 158q209 0 319.5 -119t110.5 -331t-118 -455t-277 -398h272l-26 -127h-494q111 100 207 248.5t175 353.5t79 395q0 308 -260 308q-98 0 -176 -40t-153 -134.5t-123 -284t-48 -354.5q0 -311 135 -492h-485l27 127
h276z" />
    <glyph glyph-name="pi" unicode="&#x3c0;" horiz-adv-x="1310" 
d="M983 202q0 -84 123 -83l-27 -119l-55 -4q-121 0 -171 54t-50 120t16 141l142 680h-426l-205 -991h-178l204 991h-145l22 113h1076l-23 -113h-147l-142 -680q-14 -69 -14 -109z" />
    <glyph glyph-name="endash" unicode="&#x2013;" horiz-adv-x="802" 
d="M834 625h-816l25 125h815z" />
    <glyph glyph-name="emdash" unicode="&#x2014;" horiz-adv-x="1605" 
d="M1638 633h-1620l23 106h1620z" />
    <glyph glyph-name="quoteleft" unicode="&#x2018;" horiz-adv-x="540" 
d="M293 1051q-37 0 -53.5 15t-16.5 36l352 506h101l-266 -506q-47 -51 -117 -51z" />
    <glyph glyph-name="quoteright" unicode="&#x2019;" horiz-adv-x="540" 
d="M469 1565q47 51 119 51q37 0 53 -15.5t16 -35.5l-354 -506h-100z" />
    <glyph glyph-name="quotesinglbase" unicode="&#x201a;" horiz-adv-x="540" 
d="M299 211q37 0 52.5 -15.5t15.5 -35.5l-353 -506h-100l266 506q47 51 119 51z" />
    <glyph glyph-name="quotedblleft" unicode="&#x201c;" horiz-adv-x="903" 
d="M293 1051q-37 0 -53.5 15t-16.5 36l352 506h101l-266 -506q-47 -51 -117 -51zM655 1051q-37 0 -53 15t-16 36l352 506h102l-266 -506q-47 -51 -119 -51z" />
    <glyph glyph-name="quotedblright" unicode="&#x201d;" horiz-adv-x="903" 
d="M469 1565q47 51 119 51q37 0 53 -15.5t16 -35.5l-354 -506h-100zM950 1616q37 0 53.5 -15.5t16.5 -35.5l-352 -506h-103l269 506q47 51 116 51z" />
    <glyph glyph-name="quotedblbase" unicode="&#x201e;" horiz-adv-x="903" 
d="M297 211q37 0 53.5 -15.5t16.5 -35.5l-353 -506h-100l266 506q47 51 117 51zM543 160q47 51 119 51q37 0 52 -15.5t15 -35.5l-352 -506h-101z" />
    <glyph glyph-name="dagger" unicode="&#x2020;" horiz-adv-x="1142" 
d="M1122 936l-387 16l-268 -1392h-186l307 1392l-391 -16l36 176l383 -16l89 512h186l-127 -512l395 16z" />
    <glyph glyph-name="daggerdbl" unicode="&#x2021;" horiz-adv-x="1144" 
d="M1126 956l-387 15l-71 -365l-78 -354l395 14l-33 -155l-389 14l-98 -565h-180l135 565l-395 -14l32 155l389 -14l70 352l80 367l-395 -15l32 156l388 -14l88 510h180l-123 -510l393 14z" />
    <glyph glyph-name="bullet" unicode="&#x2022;" horiz-adv-x="704" 
d="M369 522q-87 0 -135 48t-48 133t76 159t162 74t135 -49t49 -133t-76 -158t-163 -74z" />
    <glyph glyph-name="ellipsis" unicode="&#x2026;" horiz-adv-x="1552" 
d="M196 227q104 0 103 -97q0 -48 -44 -92t-94 -44q-104 0 -104 97q0 48 44.5 92t94.5 44zM714 227q103 0 103 -97q0 -48 -44 -92t-94 -44q-104 0 -104 97q0 48 44.5 92t94.5 44zM1197 -6q-103 0 -103 97q0 48 44 92t93 44t76.5 -25.5t27.5 -72.5t-44 -91t-94 -44z" />
    <glyph glyph-name="perthousand" unicode="&#x2030;" horiz-adv-x="2461" 
d="M1147 223q0 -149 98 -149q119 0 171 149.5t78 274.5t26 205t-23 119.5t-82 39.5t-106 -59.5t-80 -152.5t-57.5 -216t-24.5 -211zM2116 862q-59 0 -106.5 -59.5t-80.5 -150.5t-58.5 -220t-25.5 -205t22.5 -114.5t80.5 -38.5t105.5 57t79.5 147.5t59.5 220.5t27.5 207
t-22.5 116.5t-81.5 39.5zM330 711q0 -150 98 -150q116 0 167.5 147.5t79 277.5t27.5 207t-22.5 117t-81.5 40t-106.5 -59.5t-80 -153t-57 -216t-24.5 -210.5zM1030 246q0 98 64.5 397t335.5 299q109 0 155.5 -72t46.5 -182t-66 -409t-336 -299q-200 0 -200 266zM2331 676
q0 -219 -90 -434q-110 -262 -310 -262q-109 0 -155.5 71t-46.5 183q0 227 101.5 467.5t300.5 240.5q200 0 200 -266zM582 -14l-95 26l773 1411l92 -26zM815 1161q0 -98 -26.5 -219.5t-70.5 -225.5t-120 -176.5t-184 -72.5q-200 0 -201 266q0 98 26.5 221t100.5 299.5
t274 176.5q201 0 201 -269z" />
    <glyph glyph-name="guilsinglleft" unicode="&#x2039;" horiz-adv-x="653" 
d="M287 674l176 -373l-107 -61l-209 446l392 444l92 -69z" />
    <glyph glyph-name="guilsinglright" unicode="&#x203a;" horiz-adv-x="653" 
d="M188 240l-92 67l344 387l-176 373l105 63l211 -448z" />
    <glyph glyph-name="trademark" unicode="&#x2122;" horiz-adv-x="1615" 
d="M768 1331h-199l-129 -633h-102l131 633h-199l15 78h499zM1507 698h-100l55 621l-317 -621h-96l-62 621l-199 -621h-100l240 711h141l49 -610l297 610h146z" />
    <glyph glyph-name="partialdiff" unicode="&#x2202;" 
d="M684 770q-84 0 -162 -29.5t-143.5 -92t-106.5 -157t-41 -188.5t42 -146.5t125 -52.5t151.5 46.5t128 137.5t103.5 234.5t44 231.5q-57 16 -141 16zM61 280q0 124 60.5 246.5t190 234t352.5 111.5q82 0 163 -20q0 176 -87 296t-216 171l56 113q170 -57 293.5 -211
t123.5 -394q0 -162 -50 -331.5t-140 -290.5q-170 -225 -435 -225q-142 0 -226.5 88t-84.5 212z" />
    <glyph glyph-name="Delta" unicode="&#x2206;" horiz-adv-x="1198" 
d="M762 1069q-4 43 -6 84t-4 70q-44 -91 -78 -154l-502 -950h688zM-66 0l768 1409h172l183 -1409h-1123z" />
    <glyph glyph-name="product" unicode="&#x220f;" horiz-adv-x="1703" 
d="M976 1077q-62 0 -114 -18l-69 -336l69 -4q135 0 200.5 63.5t65.5 148.5t-45 115.5t-107 30.5zM978 1157q108 0 179.5 -51t71.5 -168t-94.5 -209t-278.5 -92l-80 6l-80 -383h-100l176 854q98 43 206 43zM1024 1348q-303 0 -541.5 -237t-238.5 -538q0 -221 142 -365.5
t372 -144.5q303 0 541.5 234.5t238.5 536.5q0 221 -142.5 367.5t-371.5 146.5zM752 -20q-262 0 -431 166.5t-169 420.5q0 336 269 599.5t609 263.5q262 0 432 -168t170 -424q0 -336 -271 -597t-609 -261z" />
    <glyph glyph-name="fraction" unicode="&#x2215;" horiz-adv-x="366" 
d="M-213 -39l-98 49l966 1436l105 -45z" />
    <glyph glyph-name="periodcentered" unicode="&#x2219;" horiz-adv-x="501" 
d="M309 821q103 0 103 -97q0 -48 -44.5 -92t-93.5 -44q-102 0 -102 97q0 48 44 92t93 44z" />
    <glyph glyph-name="radical" unicode="&#x221a;" 
d="M580 0h-174l-91 993h-161l24 111h297l49 -885l576 1389h168z" />
    <glyph glyph-name="infinity" unicode="&#x221e;" horiz-adv-x="1755" 
d="M558 911q-96 0 -177.5 -79.5t-81.5 -188.5q0 -74 48 -122t131 -48t161 49t201 176q-78 123 -132 168t-150 45zM1356 915q-84 0 -159 -46t-204 -177q72 -119 125.5 -167t151.5 -48t181 81t83 190q0 74 -47 120.5t-131 46.5zM1243 352q-119 0 -192.5 56.5t-153.5 193.5
q-133 -137 -227 -193.5t-216 -56.5t-198 74t-76 210t111.5 269t300.5 133q113 0 182.5 -54t159.5 -196q119 115 206 182.5t224 67.5t213 -76t76 -210t-108.5 -267t-301.5 -133z" />
    <glyph glyph-name="integral" unicode="&#x222b;" 
d="M1053 1489q-96 0 -168 -51.5t-97 -169.5l-280 -1356q-35 -174 -148.5 -264t-267.5 -90l-53 2l24 121q98 0 171 55t96 166l282 1353q37 182 153 268.5t259 86.5l53 -2z" />
    <glyph glyph-name="approxequal" unicode="&#x2248;" 
d="M698 365q-68 0 -177 66.5t-173 66.5t-112 -24.5t-105 -74.5l19 129q100 90 217 90q61 0 173.5 -67.5t176.5 -67.5q111 0 229 109l-18 -127q-39 -45 -100.5 -72.5t-129.5 -27.5zM796 856q115 0 228 107l-18 -127q-39 -47 -101.5 -75t-130.5 -28t-177 68.5t-173 68.5
t-114 -26.5t-103 -71.5l18 127q101 92 219 92q63 0 177.5 -67.5t174.5 -67.5z" />
    <glyph glyph-name="notequal" unicode="&#x2260;" 
d="M995 803h-262l-192 -238h403l-22 -116h-476l-192 -236l-74 47l154 189h-197l25 116h264l195 238h-410l25 117h477l182 223l76 -47l-144 -176h193z" />
    <glyph glyph-name="lessequal" unicode="&#x2264;" 
d="M963 625h-789l25 123h788z" />
    <glyph glyph-name="greaterequal" unicode="&#x2265;" 
d="M657 674l244 -355l-94 -75l-244 348l-387 -348l-78 88l396 356l-246 354l98 80l242 -350l389 350l76 -90z" />
    <glyph glyph-name="lozenge" unicode="&#x25ca;" horiz-adv-x="1314" 
d="M803 1208l-492 -506l283 -499l491 506zM553 -8l-408 713l697 712l409 -712z" />
    <glyph glyph-name="fi" unicode="&#xf001;" horiz-adv-x="1073" 
d="M819 0h-180l229 1104h181zM786 1493q-76 0 -145.5 -51t-91.5 -164l-35 -174h193l-23 -111h-195l-204 -993h-181l205 993h-125l23 111h127l31 156q35 178 147.5 264t253.5 86l45 -2zM1006 1315q-44 0 -68.5 22.5t-24.5 63.5t38 76.5t83 35.5t69.5 -22.5t24.5 -62.5
t-39 -76.5t-83 -36.5z" />
    <glyph glyph-name="fl" unicode="&#xf002;" horiz-adv-x="1093" 
d="M831 0h-180l334 1608h180zM786 1493q-76 0 -145.5 -51t-91.5 -164l-35 -174h193l-23 -111h-195l-204 -993h-181l205 993h-125l23 111h127l31 156q35 178 147.5 264t253.5 86l45 -2z" />
    <glyph glyph-name="Lslash" horiz-adv-x="886" 
d="M711 0h-611l176 852l-141 -68l23 109l139 68l94 448h189l-78 -381l164 76l-23 -105l-164 -75l-164 -797h422z" />
    <glyph glyph-name="lslash" horiz-adv-x="608" 
d="M639 993l-166 -75l-188 -918h-179l177 850l-160 -76l22 115l160 72l135 647h178l-120 -580l164 76z" />
    <glyph glyph-name="Scaron" horiz-adv-x="948" 
d="M683 1298q-134 0 -213 -92t-79 -198t108 -179q108 -72 212 -137q113 -92 112 -229q0 -182 -137 -333q-137 -150 -363 -150t-331 77l71 123q90 -59 231 -59q142 0 235 93t94 228q0 102 -107 179q-100 63 -201 129q-109 92 -108 229q0 174 132 312t347 139q172 0 275 -78
l-66 -111q-78 57 -212 57zM758 1546q-37 -30 -76 -30t-64 30l-159 207l57 45l182 -164l252 164l54 -45z" />
    <glyph glyph-name="scaron" horiz-adv-x="829" 
d="M342 787q0 -89 177 -179t177 -242t-123 -270q-123 -116 -309 -116t-282 77l69 113q68 -59 189 -59q122 -1 196 71t74 168t-171 184t-171 232q0 143 110 251q110 107 272 107t257 -77l-64 -99q-58 54 -164 55q-105 1 -171 -63t-66 -153zM641 1255q-37 -31 -76 -31t-63 31
l-160 207l57 45l183 -164l252 164l53 -45z" />
    <glyph glyph-name="Zcaron" horiz-adv-x="894" 
d="M225 127h520l-26 -127h-768l778 1282h-483l26 127h723zM729 1546q-37 -30 -76 -30t-63 30l-160 207l57 45l183 -164l252 164l53 -45z" />
    <glyph glyph-name="zcaron" horiz-adv-x="862" 
d="M227 113h467l-22 -113h-711l666 993h-426l24 111h660zM651 1255q-37 -31 -76 -31t-63 31l-160 207l58 45l182 -164l252 164l53 -45z" />
    <glyph glyph-name="brokenbar" horiz-adv-x="452" 
d="M104 -440h-149l166 809h151zM362 799h-151l168 809h149z" />
    <glyph glyph-name="Eth" horiz-adv-x="1271" 
d="M1040 975q0 334 -301 334q-109 0 -188 -29l-96 -467h237l-22 -102h-236l-119 -574q75 -26 164 -26q227 0 338 152.5t167 353t56 358.5zM457 -20q-100 0 -196.5 22.5t-147.5 54.5l135 654h-123l22 102h123l113 539q160 78 384 78t342 -130.5t118 -359.5q0 -180 -69.5 -392
t-169.5 -328t-227.5 -178t-303.5 -62z" />
    <glyph glyph-name="glyph233" horiz-adv-x="1085" 
d="M276 356q0 -254 197 -254q84 0 143.5 47.5t108.5 147.5t76.5 248.5t27.5 262.5t-12 181q-62 23 -147 23q-84 0 -150.5 -49.5t-120 -141.5t-88.5 -225t-35 -240zM1006 809q0 -164 -37 -322.5t-111 -276.5t-174 -176.5t-252 -58.5t-243 103.5t-91 286.5q0 135 43 277
t160 308t367 166q71 0 139 -22q-31 168 -80 286l-197 -57l-34 78l192 57q-39 85 -63 119l145 45q44 -66 68 -119l180 53q5 -5 35 -75l-176 -54q129 -302 129 -618z" />
    <glyph glyph-name="Yacute" horiz-adv-x="1050" 
d="M639 625l-129 -625h-188l129 625l-220 784h195l145 -637l428 637h189zM971 1831q68 0 78 -37l-297 -278h-107l201 280q57 35 125 35z" />
    <glyph glyph-name="yacute" horiz-adv-x="1021" 
d="M444 309v-137q24 69 60 137l401 795h174l-825 -1544h-195l273 442l-139 1102h188zM907 1540q68 0 78 -37l-297 -278h-106l200 280q57 35 125 35z" />
    <glyph glyph-name="Thorn" 
d="M453 446q199 0 306 116t107 292q0 223 -250 223q-67 0 -153 -22l-125 -600q88 -9 115 -9zM442 332q-37 0 -127 10l-71 -342h-187l291 1409h187l-52 -248q94 25 176 25q186 0 288 -87t102 -239q0 -220 -154 -374t-453 -154z" />
    <glyph glyph-name="thorn" 
d="M836 758q0 121 -57.5 187.5t-190.5 66.5q-88 0 -166 -37l-178 -862q63 -23 149 -23t168 51.5t140.5 138.5t96.5 222t38 256zM643 1120q178 0 273.5 -97t95.5 -258t-48.5 -306t-132.5 -254q-176 -223 -446 -223q-83 0 -164 24l-92 -446h-178l424 2048h178l-113 -537
q105 49 203 49z" />
    <glyph glyph-name="minus" 
d="M868 217h-790l24 113h789zM1038 1047l-688 -232l592 -231l-24 -119l-728 301l25 106l852 304z" />
    <glyph glyph-name="multiply" 
d="M868 217h-790l24 113h791zM983 766l-854 -301l29 131l690 231l-594 232l22 117l730 -302z" />
    <glyph glyph-name="onesuperior" horiz-adv-x="765" 
d="M281 1200v76q100 12 183 50t120 83h92l-178 -866h-133l143 696q-119 -39 -227 -39z" />
    <glyph glyph-name="twosuperior" horiz-adv-x="765" 
d="M523 1423q112 0 173.5 -51t61.5 -130t-44 -150.5t-120 -151.5l-272 -287h329l-22 -110h-541l408 446q120 133 120 225q0 106 -137 107q-83 0 -157 -37l-17 92q106 47 218 47z" />
    <glyph glyph-name="threesuperior" horiz-adv-x="765" 
d="M492 1327q-76 0 -156 -39l-19 86q98 49 203 49t163 -44t58 -121.5t-49 -137t-133 -90.5q59 -20 96 -65t37 -113q0 -129 -91 -225.5t-245 -96.5t-229 50l55 90q60 -37 158 -37t155.5 61.5t57.5 140.5t-55.5 106.5t-153.5 27.5l16 84q102 0 175 51t73 133q0 90 -116 90z
" />
    <glyph glyph-name="onehalf" horiz-adv-x="1646" 
d="M1483 699q0 -79 -44 -150.5t-120 -151.5l-270 -286h327l-22 -111h-539l406 446q122 131 122 226q0 106 -137 106q-77 0 -153 -37l-17 93q101 47 213 47q111 0 172.5 -51.5t61.5 -130.5zM336 -39l-100 49l970 1436l101 -45zM225 1200v76q100 12 183.5 50t119.5 83h93
l-179 -866h-133l144 696q-119 -39 -228 -39z" />
    <glyph glyph-name="onequarter" horiz-adv-x="1646" 
d="M1307 729q-30 -43 -80 -108l-269 -345h250l74 347zM1333 276h70l-17 -83h-69l-41 -193h-123l41 193h-352l18 86l471 587h125zM371 -39l-99 49l967 1436l104 -45zM217 1200v76q100 12 183 50t120 83h92l-178 -866h-133l143 696q-119 -39 -227 -39z" />
    <glyph glyph-name="threequarters" horiz-adv-x="1646" 
d="M1346 729q-46 -66 -78 -108l-269 -345h248l74 347zM1372 276h70l-17 -83h-69l-39 -193h-125l41 193h-350l16 86l471 587h125zM475 -39l-100 49l971 1436l102 -45zM492 1327q-76 0 -156 -39l-19 86q98 49 203 49t163 -44t58 -121.5t-49 -137t-133 -90.5q59 -20 96 -65
t37 -113q0 -129 -91 -225.5t-245 -96.5t-229 50l55 90q60 -37 158 -37t155.5 61.5t57.5 140.5t-55.5 106.5t-153.5 27.5l16 84q102 0 175 51t73 133q0 90 -116 90z" />
  </font>
</defs>
</svg>
