<?xml version="1.0" standalone="no"?>
<!DOCTYPE svg PUBLIC "-//W3C//DTD SVG 1.1//EN" "http://www.w3.org/Graphics/SVG/1.1/DTD/svg11.dtd" >
<svg xmlns="http://www.w3.org/2000/svg">
<metadata>
Created by FontPrep 20130207 at Tue Nov 26 13:15:32 2019
 By Mauricio Duran
Copyright Hans Reichel, 1996. Published by FontShop International FontFont release 17
</metadata>
<defs>
<font id="1c9b2ae3b15b7f470e682518e3856134" horiz-adv-x='1024' >
  <font-face 
    font-family="Dax-Medium"
    font-weight="500"
    font-stretch="normal"
    units-per-em="2048"
    panose-1="0 0 0 0 0 0 0 0 0 0"
    ascent="1608"
    descent="-440"
    x-height="1104"
    cap-height="1409"
    bbox="-223 -469 2370 1853"
    underline-thickness="102"
    underline-position="-153"
    unicode-range="U+0020-FB02"
  />
<missing-glyph horiz-adv-x="2048" 
 />
    <glyph glyph-name=".notdef" horiz-adv-x="2048" 
 />
    <glyph glyph-name=".null" horiz-adv-x="0" 
 />
    <glyph glyph-name="nonmarkingreturn" horiz-adv-x="681" 
 />
    <glyph glyph-name="space" unicode=" " horiz-adv-x="557" 
 />
    <glyph glyph-name="exclam" unicode="!" horiz-adv-x="636" 
d="M190 136q0 62 43 106t105 45q62 -1 107 -45q44 -44 44 -106t-44 -106t-106 -44t-106 44q-43 44 -43 106zM487 1409l-53 -926h-190l-54 926h297z" />
    <glyph glyph-name="quotedbl" unicode="&#x22;" horiz-adv-x="845" 
d="M240 1429q70 0 114 -55l-49 -543h-129l-47 543q41 55 111 55zM604 1429q70 0 113 -53l-49 -545h-129l-47 545q42 53 112 53z" />
    <glyph glyph-name="numbersign" unicode="#" 
d="M694 866h-221l-51 -288h219zM1053 866h-217l-54 -288h197v-123h-217l-78 -455h-141l78 455h-220l-82 -455h-139l78 455h-192v123h215l51 288h-195v123h215l74 420h141l-73 -420h223l71 420h142l-74 -418h197v-125z" />
    <glyph glyph-name="dollar" unicode="$" 
d="M938 410q0 -164 -99 -278t-264 -140l23 -258h-152l21 252q-203 6 -311 75l61 172q102 -63 220 -63t180 61q63 61 63 155t-52 150t-173 103q-287 115 -287 377q0 156 95 270t257 133l-20 242h145l-20 -238q158 -8 260 -73l-54 -148q-103 60 -205 60t-159 -58t-57 -150
q0 -94 53 -144t166 -99q309 -133 309 -401z" />
    <glyph glyph-name="percent" unicode="%" horiz-adv-x="1783" 
d="M553 952q0 268 -60 339q-28 32 -71 32q-78 0 -104 -102q-26 -103 -26 -269t26 -265t104 -99q88 0 110 120q21 102 21 244zM1491 469q0 266 -60 337q-28 32 -71 32q-78 0 -104 -102t-26 -268q0 -165 26 -265q26 -101 109 -101t104 112q22 112 22 255zM422 465
q-293 0 -293 482t293 483q86 0 147 -44t93 -118q56 -133 55 -322q0 -189 -55 -320q-30 -75 -92 -118t-148 -43zM1192 1393l-479 -1411l-125 32l479 1411zM1655 463q-1 -90 -13 -168q-50 -315 -282 -315q-293 0 -293 483q0 187 54 320q30 75 91 119q62 44 148 44t147 -44
q148 -107 148 -439z" />
    <glyph glyph-name="ampersand" unicode="&#x26;" horiz-adv-x="1298" 
d="M365 403q0 -264 290 -264q101 0 156 25v600q-240 -55 -343 -134t-103 -227zM186 1100q0 145 112 237q112 93 302 93t313 -78l-73 -146q-86 51 -195 51q-209 0 -209 -180q0 -88 68 -140t170 -52q227 0 532 159l74 -153q-111 -51 -225 -80v-750q-129 -81 -397 -81t-415 108
q-146 108 -147 301q0 150 94 252t246 150v4q-250 84 -250 305z" />
    <glyph glyph-name="quotesingle" unicode="'" horiz-adv-x="485" 
d="M242 1429q72 0 114 -55l-51 -543h-127l-49 543q41 55 113 55z" />
    <glyph glyph-name="parenleft" unicode="(" horiz-adv-x="780" 
d="M125 586q0 264 114 514t363 534l121 -69q-334 -463 -334 -977t334 -985l-119 -68q-252 283 -365 535q-114 252 -114 516z" />
    <glyph glyph-name="parenright" unicode=")" horiz-adv-x="780" 
d="M655 586q1 -264 -113 -516t-366 -535l-119 68q334 475 334 984t-334 978l119 69q252 -284 366 -534t113 -514z" />
    <glyph glyph-name="asterisk" unicode="*" horiz-adv-x="905" 
d="M287 1176q41 0 69 -30t29 -72q0 -42 -29 -72q-30 -30 -70 -30t-70 30t-30 72t30 72t71 30zM299 1367q0 -42 -30 -71q-31 -28 -71 -28t-69 28t-29 71q0 42 30 72q30 29 71 29t69 -30t29 -71zM715 1073q0 -43 -30 -72t-71 -29q-42 0 -70 30t-28 72t30 71t70 29t70 -29
q29 -29 29 -72zM535 1285q0 -35 -24 -59q-25 -24 -59 -24t-58 25t-24 59t24 59q24 23 59 23t59 -24t23 -59zM453 1651q41 0 69 -30t29 -72q0 -43 -29 -71q-30 -28 -70 -28t-69 29t-29 71t29 71q29 30 70 30zM805 1366q0 -43 -30 -72q-31 -28 -71 -28t-69 28t-29 72
q0 43 29 73q29 29 70 29t71 -30t29 -72z" />
    <glyph glyph-name="plus" unicode="+" 
d="M963 600h-322v-342h-164v342h-321v164h321v340h164v-340h322v-164z" />
    <glyph glyph-name="comma" unicode="," horiz-adv-x="577" 
d="M348 275q96 0 109 -72l-297 -549h-148l183 549q57 72 153 72z" />
    <glyph glyph-name="hyphen" unicode="-" horiz-adv-x="716" 
d="M608 594h-499v190h499v-190z" />
    <glyph glyph-name="period" unicode="." horiz-adv-x="542" 
d="M422 138q0 -62 -44 -106t-106 -44t-107 44q-44 44 -44 106t44 106t106 45q62 0 107 -44q44 -45 44 -107z" />
    <glyph glyph-name="slash" unicode="/" horiz-adv-x="1171" 
d="M1147 1556l-967 -2025l-155 76l966 2025z" />
    <glyph glyph-name="zero" unicode="0" 
d="M774 710q0 564 -215 564t-215 -564t215 -565q215 1 215 565zM1014 705q0 -356 -137 -562q-49 -71 -131 -117t-187 -46q-104 0 -186 46q-264 148 -269 679q0 215 57 391q32 98 81 170t131 118t186 46t186 -46t132 -118q96 -141 124 -364q13 -95 13 -197z" />
    <glyph glyph-name="one" unicode="1" 
d="M793 0h-254v1128q-119 -66 -346 -84l-31 150q178 23 294 83t158 132h179v-1409z" />
    <glyph glyph-name="two" unicode="2" 
d="M963 0h-891l487 700q127 180 127 318q0 229 -258 229q-143 0 -254 -57l-61 160q156 80 379 80t341 -111q117 -111 117 -272t-182 -402l-332 -438h527v-207z" />
    <glyph glyph-name="three" unicode="3" 
d="M969 418q1 -197 -141 -318q-142 -120 -376 -120t-374 77l67 168q111 -59 257 -59t223 66q76 66 75 186q0 162 -129 218q-109 48 -245 44v135q156 14 244 82t89 166q0 98 -60 143t-157 45q-158 0 -264 -55l-63 156q147 78 351 78t326 -90q120 -90 119 -242
q1 -117 -75 -194t-168 -111l2 -5q299 -91 299 -370z" />
    <glyph glyph-name="four" unicode="4" 
d="M678 1165l-12 -24q-19 -41 -93 -174l-305 -527h404l2 518zM1016 299h-109v-299h-235v299h-568v154l560 956h243v-969h109v-141z" />
    <glyph glyph-name="five" unicode="5" 
d="M985 430q0 -198 -141 -324t-375 -126t-371 77l66 170q115 -63 276 -63q115 0 196 68t81 186q0 154 -127 230t-420 32l70 729h696v-207h-522l-29 -366q299 25 449 -92q150 -116 151 -314z" />
    <glyph glyph-name="six" unicode="6" 
d="M780 434q0 289 -270 289q-80 0 -152 -29q-16 -84 -16 -182q0 -166 55 -266t167 -100t165 83q51 84 51 205zM559 852q195 0 326 -106t131 -312q0 -205 -120 -330q-120 -124 -339 -124t-333 148t-113 390q0 178 55 330t137 249t183 170q173 125 335 154l64 -164
q-362 -111 -492 -434q76 29 166 29z" />
    <glyph glyph-name="seven" unicode="7" 
d="M121 1202v207h932l-185 -436q-260 -612 -344 -973h-307l533 1202h-629z" />
    <glyph glyph-name="eight" unicode="8" 
d="M324 350q0 -92 68 -152t165 -60q99 0 163 58q64 60 64 151t-46 156t-185 144q-137 -80 -183 -143q-46 -62 -46 -154zM768 1090q0 84 -57 140t-149 56t-146 -55q-56 -55 -56 -139t43 -138t162 -129q117 70 160 126t43 139zM1014 344q0 -164 -127 -264t-325 -100t-328 97
t-130 265q0 121 69 210t226 181q-135 82 -194 163t-60 189q0 152 119 248q119 97 295 97t295 -96t119 -247q-1 -109 -59 -187t-195 -159q159 -94 227 -186t68 -211z" />
    <glyph glyph-name="nine" unicode="9" 
d="M774 928q0 135 -55 236q-55 102 -167 102t-164 -84t-52 -207q0 -289 270 -289q74 0 152 31q16 76 16 211zM1008 883q0 -178 -56 -330t-136 -248q-81 -96 -183 -170q-167 -121 -336 -155l-64 165q362 106 492 433q-86 -29 -166 -29q-195 0 -326 106t-131 310t121 330
t340 126t332 -148t113 -390z" />
    <glyph glyph-name="colon" unicode=":" horiz-adv-x="542" 
d="M422 138q0 -62 -44 -106t-106 -44t-107 44q-44 44 -44 106t44 106t106 45q62 0 107 -44q44 -45 44 -107zM422 775q0 -62 -44 -106t-106 -44t-107 44q-44 44 -44 106q0 63 44 107t106 44t107 -44q44 -45 44 -107z" />
    <glyph glyph-name="semicolon" unicode=";" horiz-adv-x="577" 
d="M348 279q96 0 109 -76l-297 -549h-148l183 549q57 76 153 76zM457 775q0 -62 -44 -106q-45 -44 -107 -44t-106 44t-44 106q0 63 44 107t106 44t107 -44q44 -45 44 -107z" />
    <glyph glyph-name="less" unicode="&#x3c;" 
d="M963 262l-807 348v152l807 348v-178l-609 -246l609 -246v-178z" />
    <glyph glyph-name="equal" unicode="=" 
d="M963 401h-807v164h807v-164zM963 797h-807v164h807v-164z" />
    <glyph glyph-name="greater" unicode="&#x3e;" 
d="M963 610l-807 -348v178l608 246l-608 246v178l807 -348v-152z" />
    <glyph glyph-name="question" unicode="?" horiz-adv-x="864" 
d="M274 136q0 62 43 106t105 45q62 -1 107 -45q44 -44 44 -106t-44 -105t-106 -43t-106 43q-43 43 -43 105zM838 1098q0 -142 -94 -229t-205 -121l-23 -265h-188l-31 340q115 25 197 87t82 150t-55 139q-54 52 -165 52t-209 -51l-67 148q136 78 330 78t311 -93t117 -235z
" />
    <glyph glyph-name="at" unicode="@" horiz-adv-x="1779" 
d="M612 460q0 -92 45 -154t131 -62t158 82q132 150 137 366q2 104 -49 166t-135 62t-156 -84q-71 -84 -101 -184t-30 -192zM1657 848q0 -147 -50 -306t-161 -284t-254 -125q-74 0 -111 42t-45 138q-117 -176 -309 -176q-125 0 -188 93q-63 94 -63 222t46 254q48 126 148 221
t227 95q160 0 233 -172l29 137h125l-78 -360q-45 -207 -45 -270q1 -63 17 -91t57 -26q119 0 215 206t96 418q0 211 -139 346q-139 136 -367 136t-416 -128q-190 -128 -292 -331t-103 -430q1 -303 183 -470t481 -167q223 0 380 76t300 227l57 -72q-150 -159 -322 -239
t-417 -80q-350 0 -561 192t-211 537q0 393 273 682t661 289q270 0 437 -158t167 -426z" />
    <glyph glyph-name="A" unicode="A" horiz-adv-x="1226" 
d="M788 514l-145 496q-23 77 -35 149l-2 21h-4q-6 -66 -39 -170l-151 -496h376zM1202 0h-268l-109 362h-454l-113 -362h-233l467 1409h245z" />
    <glyph glyph-name="B" unicode="B" horiz-adv-x="1189" 
d="M842 389q0 149 -87 219t-284 66l-80 -2v-506q66 -27 164 -27q287 0 287 250zM805 1049q0 233 -258 233q-84 0 -156 -25v-456l80 -2q182 -3 258 57t76 193zM1102 385q0 -203 -144 -304t-403 -101q-260 0 -410 79v1291q145 80 397 80t382 -100q131 -100 131 -265
q0 -133 -79 -215t-183 -105v-4q115 -25 212 -121t97 -235z" />
    <glyph glyph-name="C" unicode="C" horiz-adv-x="993" 
d="M643 1430q180 0 291 -80l-57 -156q-82 49 -190 49q-107 0 -183 -81q-135 -144 -133 -455q0 -225 81 -377t242 -152q100 0 178 49l62 -168q-102 -80 -293 -79q-258 0 -399 208q-142 208 -142 514q0 308 144 518t399 210z" />
    <glyph glyph-name="D" unicode="D" horiz-adv-x="1241" 
d="M877 712q0 284 -82 415q-82 132 -258 133q-80 0 -134 -21v-1059q61 -20 138 -20q178 0 257 134t79 418zM1141 715q-1 -217 -59 -378t-194 -259t-370 -98t-373 79v1291q156 80 385 80q307 0 459 -192t152 -523z" />
    <glyph glyph-name="E" unicode="E" horiz-adv-x="923" 
d="M831 0h-686v1409h686v-174h-425v-426h378v-172h-378v-463h425v-174z" />
    <glyph glyph-name="F" unicode="F" horiz-adv-x="907" 
d="M829 1235h-423v-426h376v-172h-376v-637h-261v1409h684v-174z" />
    <glyph glyph-name="G" unicode="G" horiz-adv-x="1226" 
d="M100 704q0 342 171 534t450 192q221 0 352 -78l-78 -160q-90 53 -243 53q-387 0 -387 -545q0 -260 94 -400t246 -140q92 0 141 26v463h-203v160h449v-750q-137 -80 -377 -79q-287 0 -451 191t-164 533z" />
    <glyph glyph-name="H" unicode="H" horiz-adv-x="1255" 
d="M1110 0h-260v637h-444v-637h-261v1409h261v-600h444v600h260v-1409z" />
    <glyph glyph-name="I" unicode="I" horiz-adv-x="561" 
d="M412 0h-262v1409h262v-1409z" />
    <glyph glyph-name="J" unicode="J" horiz-adv-x="561" 
d="M412 76q0 -236 -140 -371t-356 -156v183q102 24 168 106t66 215v1356h262v-1333z" />
    <glyph glyph-name="K" unicode="K" horiz-adv-x="1136" 
d="M410 713v-713h-260v1409h260v-643h4l403 643h266l-440 -651l465 -758h-291l-403 713h-4z" />
    <glyph glyph-name="L" unicode="L" horiz-adv-x="864" 
d="M801 0h-651v1409h262v-1235h389v-174z" />
    <glyph glyph-name="M" unicode="M" horiz-adv-x="1617" 
d="M1524 0h-246l-90 932l-6 170h-4q-14 -80 -41 -170q-252 -885 -269 -932h-147l-266 934l-41 168h-4q2 -80 -7 -168q-88 -893 -90 -934h-219l158 1409h262l252 -903l37 -158h4q10 68 37 158l260 903h262z" />
    <glyph glyph-name="N" unicode="N" horiz-adv-x="1331" 
d="M1186 0h-209l-535 909l-82 158h-4q8 -80 9 -164v-903h-220v1409h246l504 -856l76 -143h4q-6 68 -6 149v850h217v-1409z" />
    <glyph glyph-name="O" unicode="O" horiz-adv-x="1259" 
d="M365 714q0 -542 265 -542t265 543t-264 542q-266 -1 -266 -543zM1159 705q0 -324 -130 -525t-398 -200q-182 0 -304 99q-225 182 -227 626q0 325 131 525t399 200t399 -200q130 -200 130 -525z" />
    <glyph glyph-name="P" unicode="P" horiz-adv-x="1124" 
d="M799 993q1 145 -63 216t-206 71q-78 0 -131 -23v-546l54 -4q346 -29 346 286zM1049 986q-1 -204 -149 -330t-445 -103l-56 4v-557h-254v1350q154 80 402 80t375 -120t127 -324z" />
    <glyph glyph-name="Q" unicode="Q" horiz-adv-x="1259" 
d="M631 174q266 0 266 542t-266 541q-266 1 -266 -541t266 -542zM1159 707q0 -467 -258 -650l234 -288l-191 -170l-199 399q-59 -14 -114 -14q-182 0 -304 99t-174 257t-53 367q0 323 131 523t400 200q139 0 242 -56q191 -105 256 -386q30 -127 30 -281z" />
    <glyph glyph-name="R" unicode="R" horiz-adv-x="1159" 
d="M502 692q299 0 299 300q-1 146 -63 218q-62 70 -203 70q-76 0 -129 -25v-553q27 -10 96 -10zM406 639v-639h-256v1350q156 80 400 80t374 -113q131 -113 131 -316q-1 -158 -105 -260t-272 -112v-4l420 -625h-289l-399 639h-4z" />
    <glyph glyph-name="S" unicode="S" horiz-adv-x="970" 
d="M874 410q0 -188 -126 -310q-127 -120 -338 -120t-334 79l63 183q98 -66 219 -66q122 0 182 60t60 148q0 89 -50 143t-169 104q-291 123 -291 385q0 174 116 294t310 120t305 -80l-57 -160q-102 63 -208 63t-158 -55q-54 -55 -54 -145q0 -89 54 -141t171 -101t192 -123
t94 -136t19 -142z" />
    <glyph glyph-name="T" unicode="T" horiz-adv-x="911" 
d="M850 1235h-264v-1235h-260v1235h-263v174h787v-174z" />
    <glyph glyph-name="U" unicode="U" horiz-adv-x="1220" 
d="M1075 410q0 -193 -129 -313t-336 -120t-336 120t-129 313v999h261v-997q0 -109 61 -171q61 -63 153 -63t153 62q60 62 61 172v997h241v-999z" />
    <glyph glyph-name="V" unicode="V" horiz-adv-x="1124" 
d="M1096 1409l-416 -1409h-225l-424 1409h276l230 -905l36 -178h5q16 96 36 178l234 905h248z" />
    <glyph glyph-name="W" unicode="W" horiz-adv-x="1697" 
d="M1642 1409l-323 -1409h-229l-211 862l-27 154h-4q-6 -72 -27 -154l-209 -862h-229l-324 1409h260l175 -922l24 -159h4q10 80 29 159l213 922h192l211 -922l27 -159h4q8 84 23 159l182 922h239z" />
    <glyph glyph-name="X" unicode="X" horiz-adv-x="1101" 
d="M1071 0h-291l-235 520h-4l-244 -520h-266l381 721l-342 688h280l205 -477h4l232 477h247l-350 -657z" />
    <glyph glyph-name="Y" unicode="Y" horiz-adv-x="1054" 
d="M657 0h-260v608l-379 801h277l242 -584h4l252 584h247l-383 -801v-608z" />
    <glyph glyph-name="Z" unicode="Z" horiz-adv-x="925" 
d="M858 0h-815l479 1235h-440v174h764l-467 -1235h479v-174z" />
    <glyph glyph-name="bracketleft" unicode="[" horiz-adv-x="724" 
d="M637 -440h-492v2048h492v-144h-270v-1759h270v-145z" />
    <glyph glyph-name="backslash" unicode="\" horiz-adv-x="1179" 
d="M1155 -391l-158 -78l-972 2023l157 78z" />
    <glyph glyph-name="bracketright" unicode="]" horiz-adv-x="724" 
d="M580 -440h-492v145h270v1759h-270v144h492v-2048z" />
    <glyph glyph-name="asciicircum" unicode="^" horiz-adv-x="1218" 
d="M610 1425q70 0 115 -59l313 -412l-96 -94l-332 375l-334 -375l-96 94l314 412q46 59 116 59z" />
    <glyph glyph-name="underscore" unicode="_" 
d="M1139 -428h-1159v156h1159v-156z" />
    <glyph glyph-name="grave" unicode="`" horiz-adv-x="454" 
d="M373 1221h-137l-250 282q18 43 100 44t145 -38z" />
    <glyph glyph-name="a" unicode="a" horiz-adv-x="1062" 
d="M547 119q88 0 149 31v454q-196 -25 -288 -82t-93 -198q0 -205 232 -205zM80 315q0 211 184 301q158 79 432 107v59q0 100 -56 142t-178 41q-122 0 -261 -68l-58 143q173 84 369 84t307 -90t111 -291v-684q-150 -79 -386 -79t-350 87t-114 248z" />
    <glyph glyph-name="b" unicode="b" horiz-adv-x="1124" 
d="M508 133q276 0 276 420t-254 420q-90 0 -149 -33v-784q51 -23 127 -23zM598 1118q194 0 314 -147t120 -411t-139 -422t-388 -158t-372 79v1549h248v-535q98 45 217 45z" />
    <glyph glyph-name="c" unicode="c" horiz-adv-x="851" 
d="M92 554q0 267 124 419q124 151 302 151t268 -75l-53 -142q-59 47 -147 47q-242 0 -242 -395q0 -187 62 -293t164 -106t161 49l57 -154q-84 -75 -268 -75t-306 154t-122 420z" />
    <glyph glyph-name="d" unicode="d" horiz-adv-x="1124" 
d="M340 556q0 -417 272 -417q90 0 129 25v794q-49 14 -110 15q-291 0 -291 -417zM92 540q0 266 133 420t350 154q96 0 166 -20v514h250v-1549q-143 -79 -386 -79t-378 147t-135 413z" />
    <glyph glyph-name="e" unicode="e" horiz-adv-x="1099" 
d="M772 657q0 313 -217 314q-115 -1 -179 -97t-61 -286zM631 154q160 0 278 61l60 -158q-141 -77 -372 -77t-368 150t-137 421q0 272 126 423q126 150 346 150t335 -144t107 -421l-676 -98q31 -307 301 -307z" />
    <glyph glyph-name="f" unicode="f" horiz-adv-x="679" 
d="M627 944h-181v-944h-249v944h-123v160h123v133q0 186 114 286q115 99 316 85v-160q-86 -2 -133 -44t-48 -142v-158h181v-160z" />
    <glyph glyph-name="g" unicode="g" 
d="M614 977q-274 0 -274 -436q0 -205 62 -305t200 -101q82 0 141 35v782q-43 25 -129 25zM985 -16q0 -217 -121 -332q-122 -115 -350 -115t-358 78l69 164q119 -66 264 -66q254 0 254 248v70q-72 -41 -206 -41q-201 0 -323 145t-122 407t137 422t385 160t371 -80v-1060z" />
    <glyph glyph-name="h" unicode="h" horiz-adv-x="1136" 
d="M1004 0h-250v776q0 186 -195 187q-100 0 -176 -45v-918h-250v1608h250v-551q121 59 246 59q195 0 285 -95t90 -239v-782z" />
    <glyph glyph-name="i" unicode="i" horiz-adv-x="532" 
d="M391 0h-250v1104h250v-1104zM266 1542q57 0 97 -36t40 -88q1 -52 -39 -88t-98 -36t-97 36q-40 36 -40 87t40 88t97 37z" />
    <glyph glyph-name="j" unicode="j" horiz-adv-x="536" 
d="M395 94q0 -246 -126 -392t-316 -161v166q96 33 144 115t48 246v1036h250v-1010zM408 1417q0 -51 -40 -87t-98 -36t-97 36q-40 36 -40 87t40 88t97 37q58 0 98 -37t40 -88z" />
    <glyph glyph-name="k" unicode="k" horiz-adv-x="1046" 
d="M389 563v-563h-248v1608h248v-1004h4l350 500h254l-381 -506l426 -598h-280l-369 563h-4z" />
    <glyph glyph-name="l" unicode="l" horiz-adv-x="536" 
d="M393 0h-250v1608h250v-1608z" />
    <glyph glyph-name="m" unicode="m" horiz-adv-x="1757" 
d="M1624 0h-250v784q0 78 -46 129t-148 51t-176 -75v-889h-250v791q0 82 -54 129t-148 47q-95 0 -169 -31v-936h-250v1044q167 80 407 80t351 -120q131 121 354 120q183 0 281 -98t98 -240v-786z" />
    <glyph glyph-name="n" unicode="n" horiz-adv-x="1136" 
d="M1004 0h-250v782q0 184 -199 185q-94 0 -172 -31v-936h-250v1044q171 80 417 80t350 -94t104 -244v-786z" />
    <glyph glyph-name="o" unicode="o" horiz-adv-x="1101" 
d="M551 967q-211 -1 -211 -409t211 -408q128 0 173 123q38 104 38 286t-45 295t-166 113zM1010 552q0 -257 -118 -415q-118 -157 -341 -157t-341 158t-118 414q0 257 118 415q118 157 342 157t341 -158t117 -414z" />
    <glyph glyph-name="p" unicode="p" horiz-adv-x="1124" 
d="M784 558q0 206 -63 311t-211 106q-74 0 -129 -23v-798q43 -18 111 -19q144 1 218 109t74 314zM520 1124q238 0 375 -148t137 -413q0 -266 -133 -422t-352 -155q-109 0 -166 22v-448h-248v1484q149 80 387 80z" />
    <glyph glyph-name="q" unicode="q" horiz-adv-x="1124" 
d="M614 977q-274 0 -274 -436q0 -406 260 -406q84 0 143 35v784q-45 23 -129 23zM991 -440h-248v469q-86 -45 -211 -45q-200 0 -320 146t-120 406t133 424t402 164q227 0 364 -80v-1484z" />
    <glyph glyph-name="r" unicode="r" horiz-adv-x="696" 
d="M383 0h-250v1044q183 88 533 78l-50 -182q-137 47 -233 -8v-932z" />
    <glyph glyph-name="s" unicode="s" horiz-adv-x="849" 
d="M764 317q0 -139 -109 -237t-291 -98t-298 79l65 160q80 -63 207 -63q76 0 123 44t47 112t-37 109q-37 40 -125 73q-143 55 -198 133q-54 78 -54 176q0 135 97 227t259 92t281 -77l-61 -146q-76 61 -163 61t-129 -41q-42 -43 -42 -105t41 -101t123 -72q152 -59 208 -139
t56 -187z" />
    <glyph glyph-name="t" unicode="t" horiz-adv-x="702" 
d="M197 944h-123v160h123v244l249 69v-313h181v-160h-181v-645q0 -143 121 -143q25 0 60 10v-156q-49 -23 -127 -22q-152 0 -228 86t-75 213v657z" />
    <glyph glyph-name="u" unicode="u" 
d="M133 350v754h250v-768q0 -84 47 -135t144 -51t161 36v918h250v-1038q-166 -88 -424 -89q-428 0 -428 373z" />
    <glyph glyph-name="v" unicode="v" horiz-adv-x="1034" 
d="M995 1104l-354 -1104h-238l-360 1104h266l195 -713q17 -59 26 -151h5q6 70 28 151l199 713h233z" />
    <glyph glyph-name="w" unicode="w" horiz-adv-x="1611" 
d="M1559 1104l-308 -1104h-225l-190 692q-21 87 -21 123l-2 19h-4q-4 -70 -25 -142l-194 -692h-225l-308 1104h252l162 -715l21 -145h4q6 61 28 145l195 715h209l186 -715l27 -145h4q6 76 22 147l170 713h222z" />
    <glyph glyph-name="x" unicode="x" horiz-adv-x="1015" 
d="M983 0h-274l-207 401h-4l-211 -401h-254l342 571l-307 533h262l186 -361h4l195 361h235l-313 -516z" />
    <glyph glyph-name="y" unicode="y" horiz-adv-x="1034" 
d="M995 1104l-503 -1544h-265l181 440l-365 1104h266l191 -715q20 -78 20 -137l2 -21h4q6 72 31 158l205 715h233z" />
    <glyph glyph-name="z" unicode="z" horiz-adv-x="876" 
d="M801 0h-744l420 944h-385v160h696l-405 -944h418v-160z" />
    <glyph glyph-name="braceleft" unicode="{" horiz-adv-x="792" 
d="M690 -260q-192 0 -312 79t-120 259v307q0 123 -43 173t-125 54v131q82 5 125 55t43 169v303q0 180 119 259t313 79v-129q-111 0 -163 -47t-52 -150v-356q0 -209 -182 -246v-4q182 -37 182 -252v-356q0 -102 52 -150t163 -47v-131z" />
    <glyph glyph-name="bar" unicode="|" horiz-adv-x="489" 
d="M344 -440h-199v2048h199v-2048z" />
    <glyph glyph-name="braceright" unicode="}" horiz-adv-x="792" 
d="M535 385v-307q0 -338 -433 -338v131q111 0 164 47t53 150v356q0 215 181 252v4q-180 37 -181 246v356q0 102 -53 150t-164 47v129q195 0 314 -79t119 -259v-303q0 -119 43 -169t124 -55v-131q-82 -4 -124 -55t-43 -172z" />
    <glyph glyph-name="asciitilde" unicode="~" horiz-adv-x="1218" 
d="M1057 725q-47 -143 -226 -166q-103 -11 -215 64q-111 75 -202 63q-121 -12 -176 -143l-76 151q35 76 84 120t129 52q79 8 153 -28t142 -73q68 -36 129 -28q125 16 178 142z" />
    <glyph glyph-name="nbspace" unicode="&#xa0;" horiz-adv-x="557" 
 />
    <glyph glyph-name="exclamdown" unicode="&#xa1;" horiz-adv-x="636" 
d="M487 -440h-297l54 925h190zM190 832q0 62 43 106t105 43q62 1 107 -43q44 -44 44 -106t-44 -106t-106 -44t-106 44q-43 44 -43 106z" />
    <glyph glyph-name="cent" unicode="&#xa2;" 
d="M176 706q0 206 95 332t253 154l-20 215h155l-16 -209q141 -8 213 -63l-51 -125q-63 41 -146 41q-121 0 -181 -90t-60 -249t62 -248t177 -89q84 0 148 39l53 -135q-74 -55 -219 -64l18 -213h-157l22 219q-162 27 -254 153t-92 332z" />
    <glyph glyph-name="sterling" unicode="&#xa3;" 
d="M1014 0h-881q211 246 211 485q0 82 -27 174h-196v146h158q-39 139 -39 252q0 157 114 265t317 108q204 0 324 -76l-57 -154q-98 51 -219 51q-121 1 -181 -69t-60 -174t28 -203h278v-146h-254q36 -178 -16 -326q-31 -89 -57 -126h557v-207z" />
    <glyph glyph-name="currency" unicode="&#xa4;" 
d="M803 700q0 102 -72 173t-172 71t-172 -71t-72 -173t72 -173t172 -71t172 72q72 70 72 172zM560 301q-130 0 -234 78l-146 -146l-88 89l144 145q-76 104 -76 234t76 235l-144 143l88 88l146 -143q104 76 234 76t235 -76l143 143l88 -88l-143 -143q75 -104 75 -234
t-75 -237l143 -143l-88 -89l-143 144q-105 -76 -235 -76z" />
    <glyph glyph-name="yen" unicode="&#xa5;" 
d="M440 0v547l-348 -17v115l342 -14l-90 186l-252 -16v112l213 -14l-246 510h260l248 -600h2l260 600h230l-246 -510l211 14v-112l-248 16l-92 -186l340 14v-115l-346 17l2 -547h-240z" />
    <glyph glyph-name="brokenbar" unicode="&#xa6;" horiz-adv-x="489" 
d="M344 -440h-199v813h199v-813zM344 795h-199v813h199v-813z" />
    <glyph glyph-name="section" unicode="&#xa7;" 
d="M776 422q0 68 -24 118q-25 50 -90 105l-187 160q-145 -94 -145 -219q0 -70 28 -121t91 -107l178 -151q149 96 149 215zM975 446q0 -190 -236 -337q133 -123 133 -259t-99 -222q-99 -85 -267 -85t-287 80l60 150q86 -63 176 -63t138 35q48 36 48 91t-18 93t-80 89
l-219 185q-100 84 -140 164q-39 80 -39 186q0 199 232 346q-113 105 -113 233t92 210t250 81q158 0 271 -73l-58 -133q-88 53 -169 53t-123 -35t-42 -91t26 -100t97 -104l183 -154q102 -86 143 -163t41 -177z" />
    <glyph glyph-name="dieresis" unicode="&#xa8;" horiz-adv-x="454" 
d="M160 1354q0 -45 -35 -76t-82 -31t-82 31t-35 76q0 44 35 74t82 30t82 -30t35 -74zM526 1354q0 -45 -34 -76t-82 -31q-47 0 -82 31t-35 76q0 44 35 74t82 30q48 0 82 -30t34 -74z" />
    <glyph glyph-name="copyright" unicode="&#xa9;" horiz-adv-x="1667" 
d="M410 708q0 178 126 304q126 125 312 125t317 -152l-88 -74q-100 113 -234 113q-135 0 -227 -93t-92 -223t92 -224t226 -93q134 0 235 113l90 -72q-135 -154 -320 -154t-311 126t-126 304zM1450 702q0 256 -180 438t-437 183q-257 0 -437 -181q-180 -180 -181 -438
q0 -258 180 -438q179 -180 437 -180t438 180t180 436zM1559 702q0 -301 -212 -512q-212 -210 -513 -210t-513 210t-212 512q0 300 212 514t512 214t513 -214t213 -514z" />
    <glyph glyph-name="ordfeminine" unicode="&#xaa;" horiz-adv-x="749" 
d="M240 922q0 -119 153 -119q57 0 94 16v266q-129 -14 -188 -47t-59 -116zM394 705q-312 0 -312 213q0 137 123 193q97 45 282 63v32q0 109 -139 109q-92 0 -178 -43l-39 100q102 51 248 51q270 0 270 -239v-426q-96 -53 -255 -53z" />
    <glyph glyph-name="guillemotleft" unicode="&#xab;" horiz-adv-x="1087" 
d="M545 301l-135 -82l-308 465l308 465l135 -82l-252 -383zM956 301l-137 -82l-307 465l307 465l137 -82l-251 -383z" />
    <glyph glyph-name="logicalnot" unicode="&#xac;" 
d="M963 285h-170v317h-637v164h807v-481z" />
    <glyph glyph-name="registered" unicode="&#xae;" horiz-adv-x="1667" 
d="M977 913q0 80 -53 113q-54 33 -110 33t-101 -12v-299h63q201 -1 201 165zM713 670v-377h-117v819q90 43 214 43q124 -1 206 -67t82 -172t-65 -166q-65 -61 -171 -72l277 -385h-142l-260 377h-24zM1450 703q0 257 -180 439t-437 183q-257 0 -437 -182q-180 -181 -181 -439
q0 -258 180 -438q179 -180 437 -180t438 180t180 437zM1559 702q0 -301 -212 -512q-212 -210 -513 -210t-513 210t-212 512q0 300 212 514t512 214t513 -214t213 -514z" />
    <glyph glyph-name="macron" unicode="&#xaf;" horiz-adv-x="454" 
d="M539 1284h-623v135h623v-135z" />
    <glyph glyph-name="degree" unicode="&#xb0;" horiz-adv-x="856" 
d="M621 1118q-1 80 -57 135t-136 55t-136 -54q-56 -56 -56 -136t56 -136t136 -56t136 56t57 136zM743 1118q0 -131 -92 -223t-223 -92t-223 92t-92 223t92 223q92 93 223 93t223 -92t92 -224z" />
    <glyph glyph-name="plusminus" unicode="&#xb1;" 
d="M963 141h-807v154h807v-154zM963 743h-322v-329h-164v329h-321v154h321v328h164v-328h322v-154z" />
    <glyph glyph-name="twosuperior" unicode="&#xb2;" horiz-adv-x="770" 
d="M657 545h-573l307 432q76 105 76 171t-39 102t-116 36t-142 -33l-47 117q96 51 237 51q141 1 215 -69t74 -172t-112 -248l-189 -242h309v-145z" />
    <glyph glyph-name="threesuperior" unicode="&#xb3;" horiz-adv-x="770" 
d="M446 1191q0 107 -139 105q-68 0 -137 -34l-47 110q96 51 222 51t200 -55t73 -154q0 -123 -129 -182q166 -63 166 -225q0 -123 -89 -199q-88 -76 -232 -76t-240 54l49 121q72 -39 158 -39t127 37t41 100q0 152 -223 147v103q96 8 148 46t52 90z" />
    <glyph glyph-name="acute" unicode="&#xb4;" horiz-adv-x="454" 
d="M469 1503l-250 -282h-137l141 288q63 39 145 38t101 -44z" />
    <glyph glyph-name="mu" unicode="&#xb5;" horiz-adv-x="1136" 
d="M635 -16q-133 0 -252 61v-485h-250v1544h250v-918q89 -47 195 -47t176 37v928h250v-1036q-156 -84 -369 -84z" />
    <glyph glyph-name="paragraph" unicode="&#xb6;" 
d="M1034 1292h-65v-1732h-162v1732h-246v-1732h-162v1077q-160 23 -254 123t-94 254q0 201 135 298t344 97h504v-117z" />
    <glyph glyph-name="periodcentered" unicode="&#xb7;" horiz-adv-x="536" 
d="M420 705q0 -63 -44 -107t-108 -45q-64 0 -107 44q-44 43 -44 107t44 108t107 44q64 0 108 -44t44 -107z" />
    <glyph glyph-name="cedilla" unicode="&#xb8;" horiz-adv-x="454" 
d="M502 -254q0 -98 -146 -138t-403 -18l49 84q138 -12 234 6t96 62q0 43 -58 56t-194 3l47 78q375 33 375 -133z" />
    <glyph glyph-name="onesuperior" unicode="&#xb9;" horiz-adv-x="770" 
d="M543 545h-176v667q-76 -27 -209 -36l-19 102q211 25 279 131h125v-864z" />
    <glyph glyph-name="ordmasculine" unicode="&#xba;" horiz-adv-x="749" 
d="M375 825q135 0 135 247t-135 247t-135 -247t135 -247zM376 1425q150 0 228 -98t78 -259t-79 -261t-229 -100t-228 100q-79 100 -78 260q0 160 78 259q79 99 230 99z" />
    <glyph glyph-name="guillemotright" unicode="&#xbb;" horiz-adv-x="1087" 
d="M573 684l-305 -465l-137 82l252 383l-252 383l137 82zM985 684l-307 -465l-135 82l252 383l-252 383l135 82z" />
    <glyph glyph-name="onequarter" unicode="&#xbc;" horiz-adv-x="1687" 
d="M1317 285v286l2 119h-4q-25 -59 -58 -117l-170 -288h230zM489 545h-176v667q-76 -27 -211 -36l-18 102q213 27 283 131h122v-864zM1229 1393l-658 -1436l-139 59l658 1434zM1550 178h-65v-178h-168v178h-342v109l344 577h166v-579h65v-107z" />
    <glyph glyph-name="onehalf" unicode="&#xbd;" horiz-adv-x="1687" 
d="M489 545h-176v667q-76 -27 -211 -36l-18 102q213 27 283 131h122v-864zM1196 1393l-657 -1436l-140 59l658 1434zM1550 0h-569l307 426q74 104 74 186q0 131 -154 131q-66 0 -131 -32l-47 114q102 51 234 51t206 -70q74 -72 74 -178t-112 -247l-189 -236h307v-145z" />
    <glyph glyph-name="threequarters" unicode="&#xbe;" horiz-adv-x="1687" 
d="M1327 285v286l2 119l-32 -60q-15 -30 -29 -57l-170 -288h229zM446 1191q0 107 -139 105q-68 0 -137 -34l-47 110q96 51 222 51t200 -55t73 -154q0 -123 -129 -182q166 -63 166 -225q0 -123 -89 -199q-88 -76 -232 -76t-240 54l49 121q72 -39 158 -39t127 37t41 100
q0 152 -223 147v103q96 8 148 46t52 90zM1292 1393l-659 -1436l-137 59l657 1434zM1561 178h-66v-178h-168v178h-342v109l344 577h166v-579h66v-107z" />
    <glyph glyph-name="questiondown" unicode="&#xbf;" horiz-adv-x="864" 
d="M505 -457q-193 0 -309 93q-116 92 -116 234t94 230t205 121l22 264h189l31 -338q-115 -25 -197 -87t-82 -150t54 -140t162 -52t212 53l68 -148q-141 -80 -333 -80zM643 833q0 -61 -43 -105t-105 -44t-107 43q-44 43 -44 105t44 107q44 44 106 44t106 -44q43 -44 43 -106z
" />
    <glyph glyph-name="Agrave" unicode="&#xc0;" horiz-adv-x="1226" 
d="M788 514l-145 496q-30 101 -37 166h-4q-6 -61 -39 -166l-151 -496h376zM1202 0h-268l-109 362h-454l-113 -362h-233l467 1409h245zM403 1841q82 0 148 -39l141 -286h-139l-248 282q16 43 98 43z" />
    <glyph glyph-name="Aacute" unicode="&#xc1;" horiz-adv-x="1226" 
d="M788 514l-145 496q-30 101 -37 166h-4q-6 -61 -39 -166l-151 -496h376zM1202 0h-268l-109 362h-454l-113 -362h-233l467 1409h245zM804 1841q82 0 101 -43l-250 -282h-137l141 286q63 39 145 39z" />
    <glyph glyph-name="Acircumflex" unicode="&#xc2;" horiz-adv-x="1226" 
d="M788 514l-145 496q-30 101 -37 166h-4q-6 -61 -39 -166l-151 -496h376zM1202 0h-268l-109 362h-454l-113 -362h-233l467 1409h245zM901 1567l-67 -62l-220 158l-219 -158l-69 62l209 211q35 34 79 34t80 -34z" />
    <glyph glyph-name="Atilde" unicode="&#xc3;" horiz-adv-x="1226" 
d="M788 514l-145 496q-30 101 -37 166h-4q-6 -61 -39 -166l-151 -496h376zM1202 0h-268l-109 362h-454l-113 -362h-233l467 1409h245zM918 1647q-33 -96 -150 -111q-60 -8 -150 38t-139 42q-80 -10 -117 -96l-59 110q47 106 154 117q63 6 148 -40t132 -42q84 10 119 94z" />
    <glyph glyph-name="Adieresis" unicode="&#xc4;" horiz-adv-x="1226" 
d="M788 514l-145 496q-30 101 -37 166h-4q-6 -61 -39 -166l-151 -496h376zM1202 0h-268l-109 362h-454l-113 -362h-233l467 1409h245zM547 1642q0 -44 -35 -74t-82 -30t-82 30t-35 74t35 76q35 31 82 31t82 -31t35 -76zM915 1642q-1 -44 -35 -74t-81 -30t-82 30t-35 74
t35 76q35 31 82 31t81 -31t35 -76z" />
    <glyph glyph-name="Aring" unicode="&#xc5;" horiz-adv-x="1226" 
d="M788 514l-145 496q-30 101 -37 166h-4q-6 -61 -39 -166l-151 -496h376zM524 1680q0 -38 26 -64t64 -27q38 1 64 27q27 26 27 64t-27 64t-65 26q-37 0 -63 -26t-26 -64zM1202 0h-268l-109 362h-454l-113 -362h-233l467 1409h245zM786 1680q0 -72 -51 -122t-122 -50
t-121 50t-50 122t50 122q50 51 122 51t122 -51t50 -122z" />
    <glyph glyph-name="AE" unicode="&#xc6;" horiz-adv-x="1538" 
d="M811 516l-111 531l-16 135h-4q-12 -63 -41 -135l-205 -531h377zM1489 0h-578l-80 360h-456l-144 -360h-237l590 1409h766v-174h-484l107 -426h377v-172h-338l114 -463h363v-174z" />
    <glyph glyph-name="Ccedilla" unicode="&#xc7;" horiz-adv-x="993" 
d="M827 -254q0 -98 -146 -138t-402 -18l49 84q139 -12 234 6t95 62q0 43 -58 56t-193 3l47 78q374 33 374 -133zM643 1430q180 0 291 -80l-57 -156q-82 49 -190 49q-107 0 -183 -81q-135 -144 -133 -455q0 -225 81 -377t242 -152q100 0 178 49l62 -168q-102 -80 -293 -79
q-258 0 -399 208q-142 208 -142 514q0 308 144 518t399 210z" />
    <glyph glyph-name="Egrave" unicode="&#xc8;" horiz-adv-x="919" 
d="M831 0h-686v1409h686v-174h-425v-426h378v-172h-378v-463h425v-174zM313 1841q82 0 148 -39l141 -286h-139l-248 282q16 43 98 43z" />
    <glyph glyph-name="Eacute" unicode="&#xc9;" horiz-adv-x="919" 
d="M831 0h-686v1409h686v-174h-425v-426h378v-172h-378v-463h425v-174zM661 1841q81 0 99 -43l-248 -282h-139l141 286q66 39 147 39z" />
    <glyph glyph-name="Ecircumflex" unicode="&#xca;" horiz-adv-x="919" 
d="M831 0h-686v1409h686v-174h-425v-426h378v-172h-378v-463h425v-174zM764 1567l-70 -62l-217 158l-221 -158l-70 62l209 211q35 34 80 34t80 -34z" />
    <glyph glyph-name="Edieresis" unicode="&#xcb;" horiz-adv-x="919" 
d="M834 0h-689v1409h689v-174h-426v-426h376v-172h-376v-463h426v-174zM416 1642q0 -44 -35 -74t-82 -30t-82 30t-35 74t35 76q35 31 82 31t82 -31t35 -76zM782 1642q0 -44 -34 -74t-82 -30q-47 0 -82 30t-35 74t35 76q35 31 82 31q48 0 82 -31t34 -76z" />
    <glyph glyph-name="Igrave" unicode="&#xcc;" horiz-adv-x="561" 
d="M412 0h-260v1409h260v-1409zM118 1841q82 0 148 -39l142 -286h-140l-248 282q16 43 98 43z" />
    <glyph glyph-name="Iacute" unicode="&#xcd;" horiz-adv-x="561" 
d="M412 0h-262v1409h262v-1409zM443 1841q82 0 98 -43l-248 -282h-139l141 286q66 39 148 39z" />
    <glyph glyph-name="Icircumflex" unicode="&#xce;" horiz-adv-x="561" 
d="M412 0h-262v1409h262v-1409zM567 1567l-67 -62l-219 158l-220 -158l-67 62l207 211q35 34 80 34t79 -34z" />
    <glyph glyph-name="Idieresis" unicode="&#xcf;" horiz-adv-x="561" 
d="M410 0h-260v1409h260v-1409zM213 1642q0 -44 -35 -74t-82 -30t-82 30q-34 30 -34 74t34 76q35 31 82 31t82 -31t35 -76zM582 1642q0 -44 -35 -74t-82 -30t-82 30t-35 74t35 76q35 31 82 31t82 -31t35 -76z" />
    <glyph glyph-name="Eth" unicode="&#xd0;" horiz-adv-x="1292" 
d="M930 712q0 284 -86 417q-86 134 -264 135q-78 0 -136 -23v-410h201v-149h-201v-504q55 -20 140 -20q182 0 264 135t82 419zM580 1430q308 0 460 -192t152 -525q0 -332 -148 -533t-454 -200q-262 0 -400 79v623h-112v149h112v519q156 80 390 80z" />
    <glyph glyph-name="Ntilde" unicode="&#xd1;" horiz-adv-x="1331" 
d="M1186 0h-209l-535 909l-82 158h-4q8 -80 9 -164v-903h-220v1409h246l504 -856l76 -143h4q-6 68 -6 149v850h217v-1409zM971 1647q-37 -96 -152 -111q-61 -8 -150 38t-137 42q-82 -10 -118 -96l-58 110q43 106 154 117q61 6 146 -40t135 -42q86 10 116 94z" />
    <glyph glyph-name="Ograve" unicode="&#xd2;" horiz-adv-x="1259" 
d="M365 714q0 -542 265 -542t265 543t-264 542q-266 -1 -266 -543zM1159 705q0 -324 -130 -525t-398 -200q-182 0 -304 99q-225 182 -227 626q0 325 131 525t399 200t399 -200q130 -200 130 -525zM460 1841q82 0 146 -39l142 -286h-138l-250 282q18 43 100 43z" />
    <glyph glyph-name="Oacute" unicode="&#xd3;" horiz-adv-x="1259" 
d="M365 714q0 -542 265 -542t265 543t-264 542q-266 -1 -266 -543zM1159 705q0 -324 -130 -525t-398 -200q-182 0 -304 99q-225 182 -227 626q0 325 131 525t399 200t399 -200q130 -200 130 -525zM792 1841q82 0 99 -43l-248 -282h-139l143 286q63 39 145 39z" />
    <glyph glyph-name="Ocircumflex" unicode="&#xd4;" horiz-adv-x="1259" 
d="M365 714q0 -542 265 -542t265 543t-264 542q-266 -1 -266 -543zM1159 705q0 -324 -130 -525t-398 -200q-182 0 -304 99q-225 182 -227 626q0 325 131 525t399 200t399 -200q130 -200 130 -525zM920 1567l-70 -62l-217 158l-221 -158l-70 62l209 211q35 34 80 34t80 -34z
" />
    <glyph glyph-name="Otilde" unicode="&#xd5;" horiz-adv-x="1259" 
d="M365 714q0 -542 265 -542t265 543t-264 542q-266 -1 -266 -543zM1159 705q0 -324 -130 -525t-398 -200q-182 0 -304 99q-225 182 -227 626q0 325 131 525t399 200t399 -200q130 -200 130 -525zM934 1647q-33 -96 -150 -111q-61 -8 -150 38t-138 42q-80 -10 -117 -96
l-60 110q47 106 156 117q61 6 147 -40t132 -42q84 10 118 94z" />
    <glyph glyph-name="Odieresis" unicode="&#xd6;" horiz-adv-x="1259" 
d="M365 714q0 -542 265 -542t265 543t-264 542q-266 -1 -266 -543zM1159 705q0 -324 -130 -525t-398 -200q-182 0 -304 99q-225 182 -227 626q0 325 131 525t399 200t399 -200q130 -200 130 -525zM563 1642q0 -44 -35 -74t-82 -30q-48 0 -82 30t-34 74t35 76q35 31 81 31
t82 -31q35 -31 35 -76zM932 1642q0 -44 -35 -74t-82 -30t-82 30t-35 74t35 76q35 31 82 31t82 -31t35 -76z" />
    <glyph glyph-name="multiply" unicode="&#xd7;" 
d="M973 346l-111 -108l-303 329l-301 -327l-113 108l306 332l-306 334l111 108l303 -327l301 327l113 -110l-305 -332z" />
    <glyph glyph-name="Oslash" unicode="&#xd8;" horiz-adv-x="1267" 
d="M918 713q0 176 -46 295l-450 -709q72 -145 213 -145q283 0 283 559zM350 713q0 -180 43 -291l451 706q-72 145 -209 146q-285 0 -285 -561zM1163 717q0 -336 -130 -537t-398 -200q-209 0 -334 129l-111 -175l-75 48l123 194q-134 193 -134 523q0 331 132 531t399 200
q197 0 323 -123l109 172l76 -47l-121 -191q141 -188 141 -524z" />
    <glyph glyph-name="Ugrave" unicode="&#xd9;" horiz-adv-x="1220" 
d="M1075 410q0 -193 -129 -313t-336 -120t-336 120t-129 313v999h261v-997q0 -109 61 -171q61 -63 153 -63t153 62q60 62 61 172v997h241v-999zM468 1841q81 0 146 -39l142 -286h-138l-249 282q18 43 99 43z" />
    <glyph glyph-name="Uacute" unicode="&#xda;" horiz-adv-x="1220" 
d="M1075 410q0 -193 -129 -313t-336 -120t-336 120t-129 313v999h261v-997q0 -109 61 -171q61 -63 153 -63t153 62q60 62 61 172v997h241v-999zM780 1841q82 0 101 -43l-250 -282h-137l141 286q63 39 145 39z" />
    <glyph glyph-name="Ucircumflex" unicode="&#xdb;" horiz-adv-x="1220" 
d="M1075 410q0 -193 -129 -313t-336 -120t-336 120t-129 313v999h261v-997q0 -109 61 -171q61 -63 153 -63t153 62q60 62 61 172v997h241v-999zM907 1567l-69 -62l-220 158l-219 -158l-69 62l209 211q35 34 79 34t80 -34z" />
    <glyph glyph-name="Udieresis" unicode="&#xdc;" horiz-adv-x="1220" 
d="M1075 410q0 -193 -129 -313t-336 -120t-336 120t-129 313v999h261v-997q0 -109 61 -171q61 -63 153 -63t153 62q60 62 61 172v997h241v-999zM555 1642q0 -44 -35 -74t-82 -30t-82 30q-34 30 -34 74t34 76q35 31 82 31t82 -31t35 -76zM924 1642q0 -44 -35 -74t-83 -30
t-82 30t-34 74t34 76q34 31 82 31t83 -31t35 -76z" />
    <glyph glyph-name="Yacute" unicode="&#xdd;" horiz-adv-x="1054" 
d="M657 0h-260v608l-379 801h281l242 -584h4l250 584h245l-383 -801v-608zM720 1841q82 0 101 -43l-250 -282h-137l141 286q63 39 145 39z" />
    <glyph glyph-name="Thorn" unicode="&#xde;" horiz-adv-x="1128" 
d="M793 747q0 141 -72 219t-199 76q-63 0 -121 -18v-549l48 -4q176 -13 260 61t84 215zM1042 745q0 -204 -147 -329t-438 -103l-56 4v-317h-256v1409h256v-240q72 20 142 21q251 0 375 -120t124 -325z" />
    <glyph glyph-name="germandbls" unicode="&#xdf;" horiz-adv-x="1179" 
d="M1098 319q0 -149 -106 -241t-254 -92q-150 0 -224 53l45 164q55 -35 128 -35t119 43t46 109t-29 105q-29 40 -100 85q-158 102 -158 262q0 94 53 160t144 94q14 47 14 121q0 311 -188 311q-201 0 -201 -379v-1079h-250v1061q0 241 111 403t327 162q215 0 329 -135
t114 -338q0 -113 -27 -188q-195 -29 -194 -174q0 -51 27 -91q28 -39 104 -90q170 -115 170 -291z" />
    <glyph glyph-name="agrave" unicode="&#xe0;" horiz-adv-x="1062" 
d="M547 119q88 0 149 31v454q-196 -25 -288 -82t-93 -198q0 -205 232 -205zM80 315q0 211 184 301q158 79 432 107v59q0 100 -56 142t-178 41q-122 0 -261 -68l-58 143q173 84 369 84t307 -90t111 -291v-684q-150 -79 -386 -79t-350 87t-114 248zM666 1221h-138l-249 282
q18 43 100 44t145 -38z" />
    <glyph glyph-name="aacute" unicode="&#xe1;" horiz-adv-x="1062" 
d="M547 119q88 0 149 31v454q-196 -25 -288 -82t-93 -198q0 -205 232 -205zM80 315q0 211 184 301q158 79 432 107v59q0 100 -56 142t-178 41q-122 0 -261 -68l-58 143q173 84 369 84t307 -90t111 -291v-684q-150 -79 -386 -79t-350 87t-114 248zM838 1503l-248 -282h-139
l143 288q60 39 144 38t100 -44z" />
    <glyph glyph-name="acircumflex" unicode="&#xe2;" horiz-adv-x="1062" 
d="M547 119q88 0 149 31v454q-196 -25 -288 -82t-93 -198q0 -205 232 -205zM80 315q0 211 184 301q158 79 432 107v59q0 100 -56 142t-178 41q-122 0 -261 -68l-58 143q173 84 369 84t307 -90t111 -291v-684q-150 -79 -386 -79t-350 87t-114 248zM539 1518q47 0 79 -35
l209 -211l-69 -62l-217 160l-222 -160l-69 62l209 211q33 35 80 35z" />
    <glyph glyph-name="atilde" unicode="&#xe3;" horiz-adv-x="1062" 
d="M547 119q88 0 149 31v454q-196 -25 -288 -82t-93 -198q0 -205 232 -205zM80 315q0 211 184 301q158 79 432 107v59q0 100 -56 142t-178 41q-122 0 -261 -68l-58 143q173 84 369 84t307 -90t111 -291v-684q-150 -79 -386 -79t-350 87t-114 248zM840 1352
q-37 -96 -152 -109q-61 -8 -150 37t-137 41q-82 -8 -116 -96l-60 112q47 104 154 115q63 6 148 -39t132 -41q84 8 119 94z" />
    <glyph glyph-name="adieresis" unicode="&#xe4;" horiz-adv-x="1062" 
d="M547 119q88 0 149 31v454q-196 -25 -288 -82t-93 -198q0 -205 232 -205zM80 315q0 211 184 301q158 79 432 107v59q0 100 -56 142t-178 41q-122 0 -261 -68l-58 143q173 84 369 84t307 -90t111 -291v-684q-150 -79 -386 -79t-350 87t-114 248zM246 1354q0 44 34 74t82 30
t82 -30q35 -30 35 -75q0 -44 -36 -75t-83 -31q-46 0 -80 31t-34 76zM846 1354q0 -45 -35 -76t-82 -31t-81 31t-34 76q0 44 34 74t81 30t82 -30t35 -74z" />
    <glyph glyph-name="aring" unicode="&#xe5;" horiz-adv-x="1062" 
d="M547 119q88 0 149 31v454q-196 -25 -288 -82t-93 -198q0 -205 232 -205zM544 1296q38 0 64 26t27 63q0 38 -27 65q-26 27 -64 27t-64 -27t-26 -65q0 -37 26 -63t64 -26zM80 315q0 211 184 301q158 79 432 107v59q0 100 -56 142t-178 41q-122 0 -261 -68l-58 143
q173 84 369 84t307 -90t111 -291v-684q-150 -79 -386 -79t-350 87t-114 248zM717 1386q0 -72 -50 -122t-122 -52q-72 0 -123 52t-51 122q0 72 51 122t122 50t122 -50t51 -122z" />
    <glyph glyph-name="ae" unicode="&#xe6;" horiz-adv-x="1673" 
d="M690 305v293q-197 -23 -291 -80t-94 -196q0 -201 197 -201q80 0 134 50t54 134zM1346 657q-2 315 -220 316q-109 0 -172 -96t-61 -287zM1206 152q164 0 275 57l61 -152q-145 -77 -371 -77t-348 182q-92 -182 -334 -182q-203 0 -306 87t-103 248q0 200 181 296
q159 84 429 112v59q0 184 -225 185q-127 0 -266 -66l-54 141q152 82 374 82t300 -174q51 84 139 129t181 45q219 0 333 -144t107 -423l-672 -96q25 -309 299 -309z" />
    <glyph glyph-name="ccedilla" unicode="&#xe7;" horiz-adv-x="851" 
d="M713 -254q1 -98 -145 -138t-404 -18l49 84q139 -12 234 6t96 64q-1 41 -59 54t-193 3l47 78q375 33 375 -133zM92 554q0 267 124 419q124 151 302 151t268 -75l-53 -142q-59 47 -147 47q-242 0 -242 -395q0 -187 62 -293t164 -106t161 49l57 -154q-84 -75 -268 -75
t-306 154t-122 420z" />
    <glyph glyph-name="egrave" unicode="&#xe8;" horiz-adv-x="1099" 
d="M772 657q0 313 -217 314q-115 -1 -179 -97t-61 -286zM631 154q160 0 278 61l60 -158q-141 -77 -372 -77t-368 150t-137 421q0 272 126 423q126 150 346 150t335 -144t107 -421l-676 -98q31 -307 301 -307zM670 1221h-138l-249 282q18 43 100 44t145 -38z" />
    <glyph glyph-name="eacute" unicode="&#xe9;" horiz-adv-x="1099" 
d="M772 657q0 313 -217 314q-115 -1 -179 -97t-61 -286zM631 154q160 0 278 61l60 -158q-141 -77 -372 -77t-368 150t-137 421q0 272 126 423q126 150 346 150t335 -144t107 -421l-676 -98q31 -307 301 -307zM850 1503l-248 -282h-139l143 288q60 39 144 38t100 -44z" />
    <glyph glyph-name="ecircumflex" unicode="&#xea;" horiz-adv-x="1099" 
d="M772 657q0 313 -217 314q-115 -1 -179 -97t-61 -286zM631 154q160 0 278 61l60 -158q-141 -77 -372 -77t-368 150t-137 421q0 272 126 423q126 150 346 150t335 -144t107 -421l-676 -98q31 -307 301 -307zM559 1518q47 0 80 -35l209 -211l-70 -62l-219 160l-219 -160
l-70 62l209 211q33 35 80 35z" />
    <glyph glyph-name="edieresis" unicode="&#xeb;" horiz-adv-x="1099" 
d="M772 657q0 313 -217 314q-115 -1 -179 -97t-61 -286zM631 154q160 0 278 61l60 -158q-141 -77 -372 -77t-368 150t-137 421q0 272 126 423q126 150 346 150t335 -144t107 -421l-676 -98q31 -307 301 -307zM496 1354q0 -45 -35 -76t-82 -31t-82 31t-35 76q0 44 35 74
t82 30t82 -30t35 -74zM864 1354q0 -45 -35 -76t-83 -31t-81 31q-34 31 -34 76q0 44 34 74t82 30q49 0 83 -30t34 -74z" />
    <glyph glyph-name="igrave" unicode="&#xec;" horiz-adv-x="532" 
d="M391 0h-250v1104h250v-1104zM393 1221h-139l-248 282q16 43 99 44t145 -38z" />
    <glyph glyph-name="iacute" unicode="&#xed;" horiz-adv-x="532" 
d="M391 0h-250v1104h250v-1104zM528 1503l-249 -282h-138l142 288q63 39 145 38t100 -44z" />
    <glyph glyph-name="icircumflex" unicode="&#xee;" horiz-adv-x="532" 
d="M391 0h-248v1104h248v-1104zM266 1518q47 0 80 -35l209 -211l-70 -62l-217 160l-221 -160l-70 62l209 211q33 35 80 35z" />
    <glyph glyph-name="idieresis" unicode="&#xef;" horiz-adv-x="532" 
d="M391 0h-250v1104h250v-1104zM-33 1354q0 44 34 74t82 30t83 -30t35 -75q0 -44 -36 -75t-83 -31t-81 31t-34 76zM567 1354q0 -45 -35 -76q-34 -31 -82 -31t-82 31t-34 76q0 44 34 74t82 30t82 -30t35 -74z" />
    <glyph glyph-name="eth" unicode="&#xf0;" horiz-adv-x="1110" 
d="M557 150q115 0 160 108t45 316q0 206 -66 378q-61 16 -116 17q-132 0 -186 -108t-54 -310q0 -401 217 -401zM1010 553q0 -262 -115 -419t-335 -157t-344 154t-124 404q0 251 115 415t328 164q63 0 122 -16q-68 160 -127 252l-184 -58q-27 53 -65 97l180 55
q-41 59 -96 117l208 65q66 -70 97 -113l164 52q27 -31 67 -95l-164 -53q273 -432 273 -864z" />
    <glyph glyph-name="ntilde" unicode="&#xf1;" horiz-adv-x="1136" 
d="M1004 0h-250v791q0 176 -199 176q-94 0 -172 -31v-936h-250v1044q170 80 436 80q434 0 435 -333v-791zM868 1352q-35 -94 -149 -109q-61 -8 -151 37t-138 41q-78 -6 -117 -96l-59 112q47 104 156 115q61 6 146 -39t132 -41q84 8 119 94z" />
    <glyph glyph-name="ograve" unicode="&#xf2;" horiz-adv-x="1101" 
d="M551 967q-211 -1 -211 -409t211 -408q128 0 173 123q38 104 38 286t-45 295t-166 113zM1010 552q0 -257 -118 -415q-118 -157 -341 -157t-341 158t-118 414q0 257 118 415q118 157 342 157t341 -158t117 -414zM657 1221h-139l-248 282q16 43 100 44t146 -38z" />
    <glyph glyph-name="oacute" unicode="&#xf3;" horiz-adv-x="1101" 
d="M551 967q-211 -1 -211 -409t211 -408q128 0 173 123q38 104 38 286t-45 295t-166 113zM1010 552q0 -257 -118 -415q-118 -157 -341 -157t-341 158t-118 414q0 257 118 415q118 157 342 157t341 -158t117 -414zM838 1503l-248 -282h-139l143 288q60 39 144 38t100 -44z
" />
    <glyph glyph-name="ocircumflex" unicode="&#xf4;" horiz-adv-x="1101" 
d="M551 967q-211 -1 -211 -409t211 -408q128 0 173 123q38 104 38 286t-45 295t-166 113zM1010 552q0 -257 -118 -415q-118 -157 -341 -157t-341 158t-118 414q0 257 118 415q118 157 342 157t341 -158t117 -414zM551 1518q47 0 80 -35l209 -211l-70 -62l-219 160l-219 -160
l-70 62l209 211q33 35 80 35z" />
    <glyph glyph-name="otilde" unicode="&#xf5;" horiz-adv-x="1101" 
d="M551 967q-211 -1 -211 -409t211 -408q128 0 173 123q38 104 38 286t-45 295t-166 113zM1010 552q0 -257 -118 -415q-118 -157 -341 -157t-341 158t-118 414q0 257 118 415q118 157 342 157t341 -158t117 -414zM856 1352q-37 -94 -151 -109q-61 -8 -151 37t-136 41
q-80 -8 -119 -96l-57 112q43 104 153 115q61 6 147 -39t134 -41q86 8 117 94z" />
    <glyph glyph-name="odieresis" unicode="&#xf6;" horiz-adv-x="1101" 
d="M551 967q-211 -1 -211 -409t211 -408q128 0 173 123q38 104 38 286t-45 295t-166 113zM1010 552q0 -257 -118 -415q-118 -157 -341 -157t-341 158t-118 414q0 257 118 415q118 157 342 157t341 -158t117 -414zM483 1354q-1 -45 -35 -76t-81 -31t-82 31t-35 76q0 44 35 74
t82 30t81 -30t35 -74zM618 1354q0 44 34 74t82 30t83 -30t35 -75q0 -44 -36 -75t-83 -31t-81 31t-34 76z" />
    <glyph glyph-name="divide" unicode="&#xf7;" 
d="M676 350q0 -49 -35 -83t-83 -34t-83 34t-35 83t35 84t83 35t83 -35t35 -84zM963 614h-807v129h807v-129zM676 1008q0 -49 -35 -83t-83 -34t-83 34t-35 83t35 84q35 34 83 34t83 -34t35 -84z" />
    <glyph glyph-name="oslash" unicode="&#xf8;" horiz-adv-x="1110" 
d="M786 555q0 170 -41 264l-348 -602q61 -84 158 -84q231 0 231 422zM555 987q-66 0 -114 -37q-49 -37 -73 -100q-46 -120 -46 -286q0 -167 40 -263l351 602q-61 84 -158 84zM1018 551q0 -254 -120 -413t-343 -158q-150 0 -250 75l-94 -161l-64 34l101 172
q-156 154 -156 432t119 435q119 158 342 157q141 0 246 -71l90 157l63 -36l-96 -164q162 -156 162 -459z" />
    <glyph glyph-name="ugrave" unicode="&#xf9;" 
d="M133 350v754h250v-768q0 -84 47 -135t144 -51t161 36v918h250v-1038q-166 -88 -424 -89q-428 0 -428 373zM686 1221h-139l-248 282q16 43 99 44t147 -38z" />
    <glyph glyph-name="uacute" unicode="&#xfa;" 
d="M133 350v754h250v-768q0 -84 47 -135t144 -51t161 36v918h250v-1038q-166 -88 -424 -89q-428 0 -428 373zM848 1503l-248 -282h-139l141 288q62 39 146 38t100 -44z" />
    <glyph glyph-name="ucircumflex" unicode="&#xfb;" 
d="M133 350v754h250v-768q0 -84 47 -135t144 -51t161 36v918h250v-1038q-166 -88 -424 -89q-428 0 -428 373zM559 1518q47 0 80 -35l209 -211l-70 -62l-217 160l-221 -160l-68 62l207 211q33 35 80 35z" />
    <glyph glyph-name="udieresis" unicode="&#xfc;" 
d="M133 350v754h250v-768q0 -84 47 -135t144 -51t161 36v918h250v-1038q-166 -88 -424 -89q-428 0 -428 373zM492 1354q0 -45 -35 -76t-82 -31t-82 31t-35 76q0 44 35 74t82 30t82 -30t35 -74zM860 1354q0 -45 -35 -76t-83 -31t-82 31t-33 76q-1 44 33 74t82 30t83 -30
t35 -74z" />
    <glyph glyph-name="yacute" unicode="&#xfd;" horiz-adv-x="1034" 
d="M995 1104l-503 -1544h-267l185 440l-367 1104h266l219 -825h4l228 825h235zM813 1503l-248 -282h-139l141 288q63 39 147 38t99 -44z" />
    <glyph glyph-name="thorn" unicode="&#xfe;" horiz-adv-x="1126" 
d="M786 557q0 416 -274 416q-68 0 -129 -29v-792q61 -16 109 -17q154 0 224 117t70 305zM1034 569q0 -265 -139 -423t-354 -158q-88 0 -158 20v-448h-250v2048h248v-533q86 45 192 45q211 0 336 -143t125 -408z" />
    <glyph glyph-name="ydieresis" unicode="&#xff;" horiz-adv-x="1034" 
d="M995 1104l-503 -1544h-267l185 440l-367 1104h266l219 -825h4l228 825h235zM465 1354q0 -45 -35 -76t-82 -31t-82 31t-35 76q0 44 35 74t82 30t82 -30t35 -74zM600 1354q0 44 34 74t82 30t83 -30t35 -75q0 -44 -36 -75t-83 -31t-81 31t-34 76z" />
    <glyph glyph-name="dotlessi" unicode="&#x131;" horiz-adv-x="514" 
d="M381 0h-248v1104h248v-1104z" />
    <glyph glyph-name="Lslash" unicode="&#x141;" horiz-adv-x="882" 
d="M825 0h-651v793l-117 -60v144l117 57v475h262v-383l148 72v-142l-148 -69v-713h389v-174z" />
    <glyph glyph-name="lslash" unicode="&#x142;" horiz-adv-x="638" 
d="M444 0h-249v799l-132 -70v148l132 65v666h249v-578l146 74v-146l-146 -71v-887z" />
    <glyph glyph-name="OE" unicode="&#x152;" horiz-adv-x="1568" 
d="M367 711q0 -557 319 -557q76 0 125 12v1085q-57 16 -125 17q-319 0 -319 -557zM1481 0h-635q-70 -20 -170 -20q-285 0 -430 196q-146 196 -146 530q0 332 144 528t430 196q94 0 172 -21h635v-174h-426v-426h379v-172h-379v-461h426v-176z" />
    <glyph glyph-name="oe" unicode="&#x153;" horiz-adv-x="1738" 
d="M658 185q100 82 100 375t-99 371q-45 36 -112 36q-213 0 -213 -409t213 -408q68 0 111 35zM1192 979q-109 0 -172 -96t-57 -283l448 53q0 326 -219 326zM550 -20q-224 0 -341 158t-117 414q0 257 118 415q118 157 334 157t324 -200q109 201 336 200q449 0 441 -573
l-668 -80q18 -186 99 -253q80 -66 220 -66t252 61l60 -156q-145 -78 -365 -77q-258 0 -369 221q-100 -221 -324 -221z" />
    <glyph glyph-name="Scaron" unicode="&#x160;" horiz-adv-x="970" 
d="M874 410q0 -188 -126 -310q-127 -120 -338 -120t-334 79l63 183q98 -66 219 -66q122 0 182 60t60 148q0 89 -50 143t-169 104q-291 123 -291 385q0 174 116 294t310 120t305 -80l-57 -160q-102 63 -208 63t-158 -55q-54 -55 -54 -145q0 -89 54 -141t171 -101t192 -123
t94 -136t19 -142zM487 1507q-47 0 -81 35l-209 211l67 62l225 -162l222 162l67 -62l-209 -211q-35 -35 -82 -35z" />
    <glyph glyph-name="scaron" unicode="&#x161;" horiz-adv-x="849" 
d="M764 317q0 -139 -109 -237t-291 -98t-298 79l65 160q80 -63 207 -63q76 0 123 44t47 112t-37 109q-37 40 -125 73q-143 55 -198 133q-54 78 -54 176q0 135 97 227t259 92t281 -77l-61 -146q-76 61 -163 61t-129 -41q-42 -43 -42 -105t41 -101t123 -72q152 -59 208 -139
t56 -187zM425 1214q-48 0 -81 35l-209 211l70 60l223 -160l221 160l70 -60l-211 -211q-35 -35 -83 -35z" />
    <glyph glyph-name="Ydieresis" unicode="&#x178;" horiz-adv-x="1054" 
d="M657 0h-260v608l-379 801h281l242 -584h4l250 584h245l-383 -801v-608zM473 1643q0 -45 -35 -75t-83 -30t-82 30q-33 30 -33 74t33 76q34 31 81 31t83 -31t36 -75zM840 1642q0 -44 -35 -74t-82 -30t-81 30t-34 74t34 76q34 31 81 31t82 -31t35 -76z" />
    <glyph glyph-name="Zcaron" unicode="&#x17d;" horiz-adv-x="925" 
d="M858 0h-815l479 1235h-440v174h764l-467 -1235h479v-174zM462 1507q-46 0 -81 35l-211 211l70 62l223 -162l221 162l70 -62l-211 -211q-35 -35 -81 -35z" />
    <glyph glyph-name="zcaron" unicode="&#x17e;" horiz-adv-x="876" 
d="M801 0h-744l420 944h-385v160h696l-405 -944h418v-160zM435 1214q-46 0 -81 35l-211 211l70 60l223 -160l221 160l70 -60l-211 -211q-35 -35 -81 -35z" />
    <glyph glyph-name="florin" unicode="&#x192;" horiz-adv-x="1198" 
d="M975 1257q-139 0 -189 -264l-28 -147h221v-158h-254l-133 -694q-37 -193 -137 -320t-271 -127q-96 0 -170 35l33 174q43 -25 94 -24q86 0 133 72t78 239l123 645h-219v158h252l31 158q39 196 117 311q79 115 270 115q100 0 190 -33l-33 -160q-55 20 -108 20z" />
    <glyph glyph-name="circumflex" unicode="&#x2c6;" horiz-adv-x="454" 
d="M227 1518q47 0 80 -35l209 -211l-70 -62l-219 160l-219 -160l-69 62l208 211q33 35 80 35z" />
    <glyph glyph-name="caron" unicode="&#x2c7;" horiz-adv-x="454" 
d="M227 1214q-49 0 -82 35l-208 211l67 60l223 -160l224 160l67 -60l-209 -211q-33 -35 -82 -35z" />
    <glyph glyph-name="breve" unicode="&#x2d8;" horiz-adv-x="454" 
d="M227 1219q-98 0 -165 46q-115 79 -113 220l84 26q41 -159 191 -159t200 159l82 -26q0 -98 -69 -182t-210 -84z" />
    <glyph glyph-name="dotaccent" unicode="&#x2d9;" horiz-adv-x="454" 
d="M352 1415q0 -51 -37 -88t-88 -37t-88 37t-37 88t37 88t88 37t88 -37t37 -88z" />
    <glyph glyph-name="ring" unicode="&#x2da;" horiz-adv-x="454" 
d="M226 1477q-38 0 -64 -27t-25 -65q0 -37 26 -63q25 -26 63 -26t64 26t27 63q0 38 -26 65q-27 27 -65 27zM399 1386q0 -72 -50 -122t-122 -52q-72 0 -123 52t-51 122q0 72 51 122t123 50t122 -50t50 -122z" />
    <glyph glyph-name="ogonek" unicode="&#x2db;" horiz-adv-x="454" 
d="M293 -211q0 -60 104 -54q53 3 121 29l27 -79q-141 -72 -281 -55t-139 118q0 78 49 138t174 126h152q-125 -72 -166 -121t-41 -102z" />
    <glyph glyph-name="tilde" unicode="&#x2dc;" horiz-adv-x="454" 
d="M535 1352q-35 -94 -152 -109q-61 -8 -151 37t-136 41q-82 -8 -116 -96l-60 112q47 104 154 115q63 6 148 -39t132 -41q84 8 119 94z" />
    <glyph glyph-name="hungarumlaut" unicode="&#x2dd;" horiz-adv-x="454" 
d="M216 1522q65 0 69 -39l-244 -262h-96l157 260q49 41 114 41zM498 1522q64 0 69 -39l-243 -262h-97l158 260q49 41 113 41z" />
    <glyph glyph-name="Delta" unicode="&#x394;" horiz-adv-x="1212" 
d="M891 158l-254 852l-37 149h-4q-23 -98 -39 -149l-260 -852h594zM1196 0h-1180l465 1409h250z" />
    <glyph glyph-name="Omega" unicode="&#x3a9;" horiz-adv-x="1372" 
d="M686 1257q-302 0 -303 -479q0 -225 62 -433t169 -345h-528v176h258q-88 113 -151 287t-64 332q0 287 143 461q144 174 414 174t414 -174t143 -461q0 -156 -63 -330t-150 -289h256v-176h-530q109 135 171 345t62 434t-73 351q-72 127 -230 127z" />
    <glyph glyph-name="pi" unicode="&#x3c0;" horiz-adv-x="1357" 
d="M862 317v629h-370v-946h-250v946h-142v158h1151v-158h-139v-614q0 -55 6 -87t39 -59t94 -24v-162q-109 -10 -185 8t-115 49q-38 31 -59 84q-22 53 -26 89t-4 87z" />
    <glyph glyph-name="endash" unicode="&#x2013;" horiz-adv-x="839" 
d="M840 608h-840v158h840v-158z" />
    <glyph glyph-name="emdash" unicode="&#x2014;" horiz-adv-x="1679" 
d="M1679 618h-1679v136h1679v-136z" />
    <glyph glyph-name="quoteleft" unicode="&#x2018;" horiz-adv-x="587" 
d="M204 987q-87 0 -102 72l285 549h129l-174 -549q-51 -72 -138 -72z" />
    <glyph glyph-name="quoteright" unicode="&#x2019;" horiz-adv-x="587" 
d="M383 1618q86 0 102 -72l-284 -549h-129l174 549q51 72 137 72z" />
    <glyph glyph-name="quotesinglbase" unicode="&#x201a;" horiz-adv-x="587" 
d="M382 275q85 0 103 -72l-284 -549h-129l174 549q51 72 136 72z" />
    <glyph glyph-name="quotedblleft" unicode="&#x201c;" horiz-adv-x="987" 
d="M204 987q-87 0 -102 72l285 549h129l-174 -549q-51 -72 -138 -72zM605 987q-87 0 -101 72l282 549h129l-172 -549q-51 -72 -138 -72z" />
    <glyph glyph-name="quotedblright" unicode="&#x201d;" horiz-adv-x="987" 
d="M383 1618q86 0 102 -72l-284 -549h-129l174 549q51 72 137 72zM784 1618q88 0 101 -72l-285 -549h-127l172 549q51 72 139 72z" />
    <glyph glyph-name="quotedblbase" unicode="&#x201e;" horiz-adv-x="987" 
d="M382 275q85 0 103 -72l-284 -549h-129l174 549q51 72 136 72zM784 275q88 0 101 -72l-285 -549h-127l172 549q51 72 139 72z" />
    <glyph glyph-name="dagger" unicode="&#x2020;" horiz-adv-x="1183" 
d="M1092 866l-396 21l23 -1327h-256l22 1327l-393 -21v248l393 -20l-22 514h256l-23 -514l396 20v-248z" />
    <glyph glyph-name="daggerdbl" unicode="&#x2021;" horiz-adv-x="1183" 
d="M1092 104l-398 15l21 -559h-246l20 559l-397 -15v205l397 -14l-4 309l4 316l-397 -15v207l397 -14l-20 510h246l-21 -510l398 14v-207l-398 15l4 -316l-4 -309l398 14v-205z" />
    <glyph glyph-name="bullet" unicode="&#x2022;" horiz-adv-x="733" 
d="M608 735q0 -100 -70 -171q-70 -70 -171 -70q-100 0 -171 70t-71 171q0 100 71 171t171 71q101 0 171 -71t70 -171z" />
    <glyph glyph-name="ellipsis" unicode="&#x2026;" horiz-adv-x="1808" 
d="M451 138q0 -62 -43 -106q-44 -44 -106 -44t-106 44t-44 106t44 106t106 43q62 0 106 -43q43 -44 43 -106zM1055 138q0 -62 -44 -106q-45 -44 -107 -44t-106 44t-44 106t44 106t106 43q62 0 107 -43q44 -44 44 -106zM1657 138q0 -62 -44 -106q-43 -44 -105 -44t-106 44
t-44 106t44 106t105 43q61 0 106 -43q44 -44 44 -106z" />
    <glyph glyph-name="perthousand" unicode="&#x2030;" horiz-adv-x="2498" 
d="M553 952q0 268 -60 339q-28 32 -71 32q-78 0 -104 -102q-26 -103 -26 -269t26 -265t104 -99q88 0 110 120q21 102 21 244zM1491 511q0 122 -26 224q-26 103 -107 103t-107 -123q-20 -98 -20 -210q0 -305 60 -372q28 -31 70 -31t70 31q60 66 60 378zM2077 838
q-86 0 -111 -123q-20 -98 -20 -211q0 -304 60 -371q28 -31 71 -31q77 0 103 100t26 265q4 371 -129 371zM422 465q-293 0 -293 482t293 483q86 0 147 -44t93 -118q56 -133 55 -322q0 -189 -55 -320q-30 -75 -92 -118t-148 -43zM1192 1393l-479 -1411l-125 32l479 1411z
M1655 463q0 -184 -54 -322q-29 -73 -91 -117t-148 -44t-149 44q-146 104 -146 438t147 440q62 44 148 44t146 -44q147 -108 147 -439zM2370 463q0 -90 -12 -169q-50 -314 -281 -317q-87 1 -149 45q-146 104 -146 441q0 481 295 481q170 0 237 -161q56 -135 56 -320z" />
    <glyph glyph-name="guilsinglleft" unicode="&#x2039;" horiz-adv-x="675" 
d="M545 301l-135 -82l-308 465l308 465l135 -82l-252 -383z" />
    <glyph glyph-name="guilsinglright" unicode="&#x203a;" horiz-adv-x="675" 
d="M573 684l-307 -465l-135 82l250 383l-250 383l135 82z" />
    <glyph glyph-name="fraction" unicode="&#x2044;" horiz-adv-x="350" 
d="M573 1393l-657 -1436l-139 59l657 1434z" />
    <glyph glyph-name="trademark" unicode="&#x2122;" horiz-adv-x="1601" 
d="M598 1313h-192v-611h-127v611h-195v96h514v-96zM1477 702h-125l-68 578l-172 -578h-119l-174 578l-65 -578h-125l98 707h168l160 -567l155 567h170z" />
    <glyph glyph-name="partialdiff" unicode="&#x2202;" 
d="M326 352q0 -206 163 -207q143 0 221 160q76 160 76 402q-208 61 -334 -44t-126 -311zM1020 702q0 -148 -30 -267q-112 -453 -540 -453q-160 0 -260 98q-98 98 -98 266t93 300t249 185t332 5q-29 166 -148 274t-258 147l74 164q102 -23 201 -76q237 -130 331 -361
q54 -134 54 -282z" />
    <glyph glyph-name="product" unicode="&#x220f;" horiz-adv-x="1667" 
d="M1018 893q0 172 -187 172q-43 0 -86 -14v-322q125 -16 199 27t74 137zM841 1161q126 1 212 -67t86 -205t-108 -206t-286 -50v-371h-118v854q88 45 214 45zM1450 703q0 257 -180 439t-437 183q-257 0 -437 -182q-180 -181 -181 -439q0 -258 180 -438q179 -180 437 -180
t438 180t180 437zM1559 702q0 -301 -212 -512q-212 -210 -513 -210t-513 210t-212 512q0 300 212 514t512 214t513 -214t213 -514z" />
    <glyph glyph-name="summation" unicode="&#x2211;" 
d="M1026 -440h-934l496 989l-490 860h908v-174h-537l381 -651l-414 -824h590v-200z" />
    <glyph glyph-name="minus" unicode="&#x2212;" 
d="M963 598h-807v164h807v-164z" />
    <glyph glyph-name="radical" unicode="&#x221a;" 
d="M45 881v143h354l187 -725h4l266 1309h217l-364 -1608h-226l-274 881h-164z" />
    <glyph glyph-name="infinity" unicode="&#x221e;" horiz-adv-x="1740" 
d="M477 881q-78 1 -133 -55t-55 -136t55 -135t135 -55q79 0 139 42t144 148q-88 104 -148 148t-137 43zM1450 696q0 82 -56 138t-136 55q-80 0 -137 -39q-56 -39 -144 -152q84 -106 143 -148t140 -42t136 53q54 53 54 135zM1610 694q0 -154 -98 -256t-235 -102
q-136 0 -224 53t-185 176q-100 -127 -182 -178t-201 -51q-158 0 -256 101t-98 256t99 258t255 104q113 1 195 -53t190 -181q109 131 186 183t216 51q138 1 238 -103t100 -258z" />
    <glyph glyph-name="integral" unicode="&#x222b;" 
d="M725 1262v-1325q0 -183 -125 -287t-330 -90v164q90 -4 149 39q58 44 58 143v1323q0 185 124 289t329 88v-162q-90 4 -148 -40t-57 -142z" />
    <glyph glyph-name="approxequal" unicode="&#x2248;" 
d="M735 330q-69 0 -181 63t-181 64q-129 0 -217 -92v163q82 90 217 90q71 0 183 -63t177 -63q137 0 230 100v-162q-88 -100 -228 -100zM735 731q-69 -1 -181 63t-181 64q-129 0 -217 -92v164q84 88 217 88q71 0 183 -64t177 -63q139 0 230 102v-162q-84 -100 -228 -100z" />
    <glyph glyph-name="notequal" unicode="&#x2260;" 
d="M963 416h-488l-139 -236l-103 60l107 176h-184v153h270l133 224h-403v151h487l133 227l105 -59l-101 -168h183v-151h-269l-133 -224h402v-153z" />
    <glyph glyph-name="lessequal" unicode="&#x2264;" 
d="M963 190h-807v144h807v-144zM963 457l-807 299v135l807 299v-158l-609 -209l609 -209v-157z" />
    <glyph glyph-name="greaterequal" unicode="&#x2265;" 
d="M963 190h-807v144h807v-144zM963 756l-807 -299v157l608 209l-608 209v158l807 -299v-135z" />
    <glyph glyph-name="lozenge" unicode="&#x25ca;" horiz-adv-x="1304" 
d="M1010 688l-373 465l-342 -432l373 -465zM1212 705l-561 -701l-559 701l559 700z" />
    <glyph glyph-name="fi" unicode="&#xfb01;" horiz-adv-x="1161" 
d="M629 944h-183v-944h-249v944h-123v160h123v133q0 186 114 286q115 99 318 85v-160q-88 -2 -135 -44t-48 -142v-158h183v-160zM1018 0h-248l-2 1104h250v-1104zM1030 1418q0 -50 -40 -86t-97 -36t-98 36t-41 86t41 86t98 36t97 -36t40 -86z" />
    <glyph glyph-name="fl" unicode="&#xfb02;" horiz-adv-x="1171" 
d="M629 944h-183v-944h-249v944h-123v160h123v133q0 186 114 286q115 99 318 85v-160q-88 -2 -135 -44t-48 -142v-158h183v-160zM1028 0h-250v1608h250v-1608z" />
    </font>
</defs>
</svg>
