<?xml version="1.0" standalone="no"?>
<!DOCTYPE svg PUBLIC "-//W3C//DTD SVG 1.1//EN" "http://www.w3.org/Graphics/SVG/1.1/DTD/svg11.dtd" >
<svg xmlns="http://www.w3.org/2000/svg">
<metadata>
Created by FontPrep 20130207 at Mon Feb 16 09:52:00 2015
 By Mauricio Duran
(c) Copyright 1997, 2001 Berthold LLC. All rights reserved. http://www.bertholdtypes.com
</metadata>
<defs>
<font id="72fb132c04038ec20704cd8e379fef59" horiz-adv-x='1024' >
  <font-face 
    font-family="NissanAG-Regular"
    font-weight="400"
    font-stretch="normal"
    units-per-em="2048"
    panose-1="0 0 0 0 0 0 0 0 0 0"
    ascent="1536"
    descent="-512"
    x-height="965"
    cap-height="1446"
    bbox="-319 -477 2513 1931"
    underline-thickness="102"
    underline-position="-102"
    unicode-range="U+000D-FB02"
  />
<missing-glyph horiz-adv-x="2048" 
 />
    <glyph glyph-name=".notdef" horiz-adv-x="2048" 
 />
    <glyph glyph-name=".null" horiz-adv-x="0" 
 />
    <glyph glyph-name=".null" horiz-adv-x="0" 
 />
    <glyph glyph-name="nonmarkingreturn" unicode="&#xd;" horiz-adv-x="512" 
 />
    <glyph glyph-name="space" unicode=" " 
 />
    <glyph glyph-name="exclam" unicode="!" 
d="M236 0v184h161v-184h-161zM397 856q0 -53 -6 -92t-10 -92l-33 -371h-63l-33 385q-4 57 -10 96t-6 97v567h161v-590z" />
    <glyph glyph-name="quotedbl" unicode="&#x22;" horiz-adv-x="710" 
d="M215 920h-65l-60 602h182zM561 920h-63l-60 602h180z" />
    <glyph glyph-name="numbersign" unicode="#" horiz-adv-x="1366" 
d="M586 848l-33 -221h229l31 221h-227zM1229 627v-158h-307l-68 -469h-162l68 469h-228l-67 -469h-166l72 469h-285v158h305l33 221h-291v158h311l64 438h164l-64 -438h226l65 438h160l-62 -438h283v-158h-303l-33 -221h285z" />
    <glyph glyph-name="dollar" unicode="$" horiz-adv-x="1280" 
d="M1016 346q0 89 -55.5 140t-134 81.5t-101.5 36.5v-485q78 6 145.5 27.5t106.5 83.5t39 116zM399.5 949.5q61.5 -41.5 188.5 -85.5v451q-101 -9 -175.5 -67.5t-74.5 -157.5t61.5 -140.5zM1075 77.5q-154 -114.5 -350 -114.5v-244h-137v244q-84 10 -284.5 79t-262.5 376
l209 24q29 -129 118 -212t220 -105v518q-306 81 -381.5 203.5t-75.5 217.5q0 182 133.5 283t323.5 119v226h137v-226q41 -14 113.5 -25t186 -97.5t136.5 -162t31 -102.5l-191 -18q-16 59 -81.5 143t-194.5 105v-484q219 -60 361.5 -160t142.5 -287q0 -186 -154 -300.5z" />
    <glyph glyph-name="percent" unicode="%" horiz-adv-x="1835" 
d="M547.5 1173.5q-42.5 108.5 -157.5 108.5t-158.5 -107.5t-43.5 -290t68 -244.5t134 -62t105.5 35.5t67 107.5t27.5 208t-42.5 244.5zM1562.5 690.5q-43.5 110.5 -161.5 110.5q-63 0 -103.5 -36t-60.5 -89t-27.5 -113.5t-7.5 -154t45.5 -202t158.5 -108.5t156.5 107.5
t43.5 240.5q0 134 -43.5 244.5zM641.5 598.5q-81.5 -139.5 -251.5 -139.5q-169 0 -253 144t-84 324q0 179 84 325.5t253 146.5q170 0 251.5 -146.5t81.5 -330.5t-81.5 -323.5zM621 -59l-113 53l651 1403l111 -54zM1660 120.5q-79 -138.5 -255 -138.5q-177 0 -255.5 137.5
t-78.5 304.5q0 168 29.5 247t65.5 128t98 86t146 37t149 -44t122.5 -143t57.5 -287.5t-79 -327z" />
    <glyph glyph-name="ampersand" unicode="&#x26;" horiz-adv-x="1236" 
d="M326 216.5q74 -75.5 182 -75.5q72 0 127 31t106 76q-39 59 -74.5 118.5t-78.5 128.5t-105 195q-92 -37 -161.5 -115t-69.5 -180.5t74 -178zM807 1173q0 53 -36.5 95.5t-104.5 42.5t-111 -54.5t-43 -132.5t68 -217q82 32 134 81.5t72.5 90.5t20.5 94zM1141 -16
q-100 0 -169 37.5t-134 109.5q-18 -12 -36 -26.5t-58 -42.5t-116.5 -54t-156.5 -26q-164 0 -278.5 114.5t-114.5 282.5q0 111 59 219.5t151.5 158.5t127.5 74q-25 66 -46.5 129.5t-21.5 134.5q0 144 90 242.5t224 98.5t220.5 -80.5t86.5 -206.5q0 -167 -123.5 -260
t-153.5 -106t-37 -19q58 -146 205 -365q62 118 96 267h158q-2 -4 -2 -8.5t-2 -8.5l-12 -67q-41 -169 -86 -235t-56 -85q79 -106 201 -106q15 0 57 6v-170q-33 -8 -73 -8z" />
    <glyph glyph-name="quotesingle" unicode="'" horiz-adv-x="362" 
d="M215 920h-65l-60 602h182z" />
    <glyph glyph-name="parenleft" unicode="(" horiz-adv-x="645" 
d="M82 691q0 144 50 317.5t124 285.5t120 160q69 72 102 100t104 80l67 -82q-35 -33 -74.5 -70t-99.5 -116q-203 -280 -203 -694q0 -281 102.5 -526.5t278.5 -385.5l-65 -94q-16 12 -26.5 21.5t-18.5 15.5q-129 103 -229 239t-154 281q-78 207 -78 468z" />
    <glyph glyph-name="parenright" unicode=")" horiz-adv-x="653" 
d="M580 650q0 -220 -84 -449t-203.5 -345t-214.5 -184l-68 80q106 100 242.5 269.5t136.5 615.5q0 278 -101 523.5t-280 385.5l68 94q16 -12 26.5 -21t47.5 -39q97 -78 173 -182t166.5 -265.5t90.5 -482.5z" />
    <glyph glyph-name="asterisk" unicode="*" horiz-adv-x="714" 
d="M281 1450h127v-215l210 70l44 -111l-213 -76l129 -170l-99 -76l-135 175l-121 -175l-102 74l121 174l-205 58l35 116l209 -55v211z" />
    <glyph glyph-name="plus" unicode="+" horiz-adv-x="1482" 
d="M831 537v-469h-180v469h-458v159h458v467h180v-467h461v-159h-461z" />
    <glyph glyph-name="comma" unicode="," horiz-adv-x="468" 
d="M332 100q0 -232 -84 -419h-96q67 189 67 319h-90v223h203v-123z" />
    <glyph glyph-name="hyphen" unicode="-" horiz-adv-x="757" 
d="M92 537v155h574v-155h-574z" />
    <glyph glyph-name="period" unicode="." horiz-adv-x="468" 
d="M131 0v231h203v-231h-203z" />
    <glyph glyph-name="slash" unicode="/" horiz-adv-x="681" 
d="M184 0h-157l477 1438h153z" />
    <glyph glyph-name="zero" unicode="0" horiz-adv-x="1193" 
d="M911 699q0 75 -12 167t-46 173t-95.5 136.5t-160.5 55.5t-206.5 -93.5t-107.5 -445.5q0 -351 107.5 -448t207.5 -97t161.5 57.5t95.5 142.5t45 181t11 171zM1096 716q0 -141 -26 -264.5t-84 -227t-152.5 -170t-233.5 -66.5t-235.5 64.5t-180.5 211t-84 417.5t83 422.5
t178.5 220.5t247.5 69t271 -109.5t182 -315.5q34 -111 34 -252z" />
    <glyph glyph-name="one" unicode="1" horiz-adv-x="1193" 
d="M539 0v1010h-297v127q157 0 241.5 51t110.5 192h137v-1380h-192z" />
    <glyph glyph-name="two" unicode="2" horiz-adv-x="1193" 
d="M158 980q0 85 31.5 165t121 164t285.5 84t324.5 -122t128.5 -317q0 -284 -336 -567q-154 -131 -214.5 -167t-95.5 -62h662v-158h-903v176q132 62 330.5 233.5t282.5 293.5q83 122 83 254q0 133 -67.5 204.5t-197.5 71.5t-192.5 -74t-62.5 -201q0 -63 24 -161h-180
q-24 98 -24 183z" />
    <glyph glyph-name="three" unicode="3" horiz-adv-x="1193" 
d="M891 400q0 230 -311 231q-61 0 -127 -6v166q67 -5 112 -5q117 0 205 50t88 168t-84 177.5t-177 59.5t-189.5 -48.5t-96.5 -274.5l-182 8l8 94t21 94q47 145 160.5 212t285.5 67t305 -100t133 -289q0 -148 -92 -236q-16 -16 -36.5 -28.5t-39.5 -24.5q209 -97 209 -330
q0 -129 -82.5 -242t-207.5 -134t-179 -21h-14q-233 0 -375.5 120t-142.5 349h184q12 -156 82 -230.5t238 -74.5q212 0 258.5 89t46.5 159z" />
    <glyph glyph-name="four" unicode="4" horiz-adv-x="1193" 
d="M272 487h439l8 619zM889 332v-332h-178v332h-625v166l659 882h144v-893h201v-155h-201z" />
    <glyph glyph-name="five" unicode="5" horiz-adv-x="1193" 
d="M313 854q134 113 321 113t314 -137.5t127 -348.5t-133.5 -352t-345.5 -141t-346 119t-154 323l183 12q14 -131 90.5 -214t217.5 -83t219.5 99.5t78.5 241.5t-79 231.5t-220 89.5q-88 0 -163 -47t-110 -131h-166l46 751h784v-161h-645z" />
    <glyph glyph-name="six" unicode="6" horiz-adv-x="1193" 
d="M823 661.5q-76 83.5 -201 83.5t-207.5 -81t-82.5 -211q0 -129 82 -215t209 -86t201.5 86t74.5 213t-76 210.5zM864 1012q-46 225 -233 225q-185 0 -251 -140t-77 -354q123 168 342 168q187 0 310.5 -127.5t123.5 -326.5t-129 -334t-332 -135q-168 0 -296 110
q-164 142 -179.5 321t-15.5 277t21.5 225.5t77 231.5t150.5 172t242 68q94 0 194 -40t151 -120t79 -197z" />
    <glyph glyph-name="seven" unicode="7" horiz-adv-x="1193" 
d="M1042 1182q0 -66 -24.5 -108t-54.5 -95l-72 -125q-154 -275 -223.5 -443t-106.5 -411h-217q45 348 225.5 635t224.5 359t70.5 109t26.5 114h-547v-263h-147v426h845v-198z" />
    <glyph glyph-name="eight" unicode="8" horiz-adv-x="1193" 
d="M901 415.5q0 67.5 -26.5 115t-69.5 76t-98.5 40.5t-115 12t-113.5 -14t-95 -44t-65.5 -77t-24.5 -141.5t88.5 -160.5t218.5 -66q207 0 254 96t47 163.5zM590 813q278 0 278 215q0 109 -83.5 158t-196.5 49q-182 0 -223 -74t-41 -132q0 -109 77 -162.5t189 -53.5z
M1053 1022q0 -191 -156 -281q18 -12 25 -16q86 -57 128 -130t42 -191t-70 -224t-184 -149t-228 -43h-14q-330 0 -453 252q-37 76 -37 174q0 100 48.5 189t140.5 138q-154 97 -154 287t131.5 277.5t337.5 87.5q309 0 376 -135.5t67 -235.5z" />
    <glyph glyph-name="nine" unicode="9" horiz-adv-x="1193" 
d="M797 1135q-84 98 -224 98t-212 -96.5t-72 -230.5t75.5 -215t207.5 -81t220.5 75.5t88.5 213.5t-84 236zM328 367q51 -224 239 -224q178 0 251 145t83 335q-74 -86 -152.5 -131.5t-188.5 -45.5q-207 0 -330.5 131.5t-123.5 340.5t131.5 338.5t337.5 129.5
q269 0 384.5 -195t115.5 -469q0 -235 -76 -457t-226 -249.5t-210 -27.5q-166 0 -269.5 95t-143.5 249z" />
    <glyph glyph-name="colon" unicode=":" 
d="M217 0v231h203v-231h-203zM217 772v229h203v-229h-203z" />
    <glyph glyph-name="semicolon" unicode=";" 
d="M422 102q0 -242 -37 -322.5t-43 -96.5h-92q51 159 51 317h-82v227h203v-125zM219 778v226h203v-226h-203z" />
    <glyph glyph-name="less" unicode="&#x3c;" horiz-adv-x="1482" 
d="M233 526v183l953 481v-180l-787 -389l787 -388v-186z" />
    <glyph glyph-name="equal" unicode="=" horiz-adv-x="1482" 
d="M203 334v158h1077v-158h-1077zM203 717v160h1077v-160h-1077z" />
    <glyph glyph-name="greater" unicode="&#x3e;" horiz-adv-x="1482" 
d="M295 43v182l786 387l-786 387v187l952 -477v-185z" />
    <glyph glyph-name="question" unicode="?" horiz-adv-x="1150" 
d="M514 0v199h182v-199h-182zM598 1305q-274 0 -274 -340h-179v14q0 152 60.5 263.5t204.5 176.5q84 39 186 39t188 -31.5t150.5 -89t103.5 -139.5t39 -188t-69.5 -226t-172 -139.5t-147.5 -26.5v-311h-162v484q123 0 199.5 15.5t128.5 77.5q53 62 53 141q0 137 -90.5 208.5
t-218.5 71.5z" />
    <glyph glyph-name="at" unicode="@" horiz-adv-x="1835" 
d="M1106 735q0 74 -44 134.5t-119 60.5t-126 -43q-83 -70 -124.5 -181.5t-41.5 -184.5q0 -119 41 -182t111 -63q69 0 115.5 31t80 77t56.5 100.5t37 115.5t14 135zM1051 319q-133 -174 -281 -174q-142 0 -211.5 96.5t-69.5 235.5q0 234 131.5 408t317.5 174q70 0 130 -47
t89 -125l31 127h139l-67 -307q-18 -84 -38 -175.5t-20 -178.5t64 -87t142 93t122.5 231.5t44.5 262.5q0 235 -136 365t-364 130q-174 0 -323.5 -73t-260 -192.5t-173 -276t-62.5 -314.5q0 -300 189.5 -466.5t480.5 -166.5q378 0 686 299l67 -84q-152 -152 -343 -240
t-394 -88t-371 72q-215 92 -322.5 262t-107.5 383t72 390t199 311t299 214t372 80q271 0 441 -158.5t170 -431.5q0 -343 -165.5 -534t-276.5 -191t-157 49.5t-44 126.5z" />
    <glyph glyph-name="A" unicode="A" horiz-adv-x="1323" 
d="M670 1208l-221 -604h432zM1096 0l-158 442h-551l-162 -442h-205l551 1446h201l526 -1446h-202z" />
    <glyph glyph-name="B" unicode="B" horiz-adv-x="1409" 
d="M340 170h444q163 0 220 33t82.5 81t25.5 125q0 142 -88 204.5t-225 62.5l-459 -2v-504zM340 838h214q214 0 308.5 5t148.5 71q54 65 54 140q0 126 -74.5 175t-187.5 49l-463 -2v-438zM823 0h-665v1446h633q115 0 213 -23.5t180 -113.5q84 -88 84 -215
q0 -128 -57.5 -212.5t-163.5 -119.5q131 -35 197.5 -133.5t66.5 -242.5t-84 -240q-84 -95 -185.5 -120.5t-218.5 -25.5z" />
    <glyph glyph-name="C" unicode="C" horiz-adv-x="1536" 
d="M820 -37q-344 0 -532 216.5t-188 552.5t199 543.5t550 207.5t479 -165t163 -278l-195 -41q-45 157 -171.5 243.5t-292.5 86.5q-167 0 -343 -118t-176 -484q0 -260 133.5 -432t382.5 -172q196 0 324 116.5t158 309.5l209 -25q-24 -119 -93 -225q-104 -168 -263.5 -252
t-343.5 -84z" />
    <glyph glyph-name="D" unicode="D" horiz-adv-x="1449" 
d="M1151 719q0 451 -313 536q-70 21 -222 21h-258v-1108h256q178 0 260 31t135.5 86t97.5 152t44 282zM160 0v1446h534q159 0 259 -34t247.5 -170t147.5 -536t-168 -527.5t-301 -160.5q-61 -16 -220 -16l-133 -2h-366z" />
    <glyph glyph-name="E" unicode="E" horiz-adv-x="1236" 
d="M162 0v1446h995v-170h-811v-447h705v-167h-705v-494h836v-168h-1020z" />
    <glyph glyph-name="F" unicode="F" horiz-adv-x="1110" 
d="M352 1274v-426h684v-168h-684v-680h-192v1446h927v-172h-735z" />
    <glyph glyph-name="G" unicode="G" horiz-adv-x="1662" 
d="M1350 0v203q-81 -119 -221.5 -179.5t-303.5 -60.5q-322 0 -522.5 206.5t-200.5 539.5t205 553.5t543 220.5q222 0 401 -110.5t267 -309.5l-201 -53q-53 160 -178 236.5t-271 76.5q-268 0 -410.5 -171t-142.5 -425q0 -255 140 -425.5t387 -170.5q210 0 359 117t149 342v12
h-504v162h672v-764h-168z" />
    <glyph glyph-name="H" unicode="H" horiz-adv-x="1492" 
d="M1139 0v662h-787v-662h-190v1446h190v-615h787v615h194v-1446h-194z" />
    <glyph glyph-name="I" unicode="I" horiz-adv-x="468" 
d="M137 0v1446h195v-1446h-195z" />
    <glyph glyph-name="J" unicode="J" horiz-adv-x="768" 
d="M180 154q96 0 141.5 24.5t65 66.5t22.5 99t3 123v979h196v-1088q0 -118 -22 -174q-45 -119 -144.5 -170t-200.5 -51t-223 21v211q66 -41 162 -41z" />
    <glyph glyph-name="K" unicode="K" horiz-adv-x="1280" 
d="M330 0h-193v1446h193v-707l686 707h237l-585 -598l610 -848h-236l-507 713l-205 -209v-504z" />
    <glyph glyph-name="L" unicode="L" horiz-adv-x="1067" 
d="M139 0v1446h193v-1274h700v-172h-893z" />
    <glyph glyph-name="M" unicode="M" horiz-adv-x="1662" 
d="M139 0v1446h250l442 -1186l447 1186h250v-1446h-193l27 1212l-457 -1212h-149l-449 1194l21 -1194h-189z" />
    <glyph glyph-name="N" unicode="N" horiz-adv-x="1449" 
d="M160 0v1446h182l782 -1159l-8 1159h174v-1446h-174l-792 1176l18 -1176h-182z" />
    <glyph glyph-name="O" unicode="O" horiz-adv-x="1662" 
d="M1221 1158q-131 169 -387 169q-257 0 -389 -170t-132 -434q0 -265 135.5 -436.5t392.5 -171.5t384 177.5t127 437t-131 428.5zM296 181q-192 218 -192 552t200 542t527 208t528.5 -207.5t201.5 -544.5t-195.5 -552.5t-536.5 -215.5t-533 218z" />
    <glyph glyph-name="P" unicode="P" horiz-adv-x="1280" 
d="M1067 1039q0 130 -73.5 185.5t-190.5 55.5h-461v-496h457q125 0 196.5 62.5t71.5 192.5zM1257 1036q0 -225 -119 -318.5t-209.5 -99.5t-142.5 -6h-444v-612h-186v1446h680q105 0 168 -23q129 -45 191 -150.5t62 -236.5z" />
    <glyph glyph-name="Q" unicode="Q" horiz-adv-x="1662" 
d="M1219 1157.5q-135 175.5 -388 175.5q-174 0 -301 -93t-184 -255q-39 -107 -39 -245q0 -275 139 -448t390 -173q252 0 385 171t133 431q0 261 -135 436.5zM814 -37q-155 0 -290 57.5t-281.5 214t-146.5 494.5t204 546t539 208q336 0 529 -215t193 -549q0 -212 -86 -377
q-10 -20 -23.5 -39.5t-24.5 -40.5l224 -192l-123 -144l-230 195q-111 -84 -220 -121t-264 -37z" />
    <glyph glyph-name="R" unicode="R" horiz-adv-x="1366" 
d="M811 1286h-463v-510h385q114 0 185.5 15.5t121.5 76.5q50 62 50 173q0 112 -78 178.5t-201 66.5zM348 614v-614h-188v1446h618q143 0 245.5 -31t179.5 -130t77 -239q0 -291 -223 -387q-29 -12 -57.5 -18t-59.5 -14l406 -627h-230l-395 614h-373z" />
    <glyph glyph-name="S" unicode="S" horiz-adv-x="1366" 
d="M1266 402q0 -104 -50.5 -190.5t-168 -167.5t-355.5 -81q-510 0 -563 227.5t-53 272.5l207 26q0 -177 115.5 -275.5t299.5 -98.5q237 0 299 105.5t62 175.5q0 122 -69.5 169.5t-184.5 72.5t-387.5 83.5t-272.5 357.5q0 145 95.5 244.5t240.5 138.5q86 21 179 21
q386 0 522 -252q34 -64 59 -193l-194 -14q-12 164 -112.5 236.5t-258.5 72.5q-216 0 -274 -81t-58 -144t27.5 -101t69.5 -62.5t92.5 -38t97.5 -25.5l157 -39q160 -33 241 -72t130 -86t78 -112.5t29 -169.5z" />
    <glyph glyph-name="T" unicode="T" horiz-adv-x="1110" 
d="M649 1278v-1278h-192v1278h-434v168h1058v-168h-432z" />
    <glyph glyph-name="U" unicode="U" horiz-adv-x="1409" 
d="M156 1446h192v-924q0 -289 125 -342t203 -53q289 0 335 151t46 285v883h194v-924q0 -245 -135 -402t-371.5 -157t-380.5 87t-192 257q-18 62 -18 174l2 70v895z" />
    <glyph glyph-name="V" unicode="V" horiz-adv-x="1236" 
d="M702 0h-190l-489 1446h204l383 -1208l398 1208h204z" />
    <glyph glyph-name="W" unicode="W" horiz-adv-x="2091" 
d="M1612 0h-189l-381 1198l-368 -1198h-193l-444 1446h203l342 -1198l366 1198h189l381 -1198l337 1198h199z" />
    <glyph glyph-name="X" unicode="X" horiz-adv-x="1280" 
d="M1012 0l-375 588l-371 -588h-223l481 758l-454 688h229l338 -520l324 520h227l-443 -688l494 -758h-227z" />
    <glyph glyph-name="Y" unicode="Y" horiz-adv-x="1280" 
d="M731 0h-194v662l-508 784h227l381 -612l385 612h229l-520 -784v-662z" />
    <glyph glyph-name="Z" unicode="Z" horiz-adv-x="1236" 
d="M37 0v188l893 1082h-821v176h1040v-180l-889 -1092h909v-174h-1132z" />
    <glyph glyph-name="bracketleft" unicode="[" horiz-adv-x="567" 
d="M139 -295v1890h377v-120h-213v-1649h213v-121h-377z" />
    <glyph glyph-name="backslash" unicode="\" horiz-adv-x="681" 
d="M504 0l-477 1438h157l473 -1438h-153z" />
    <glyph glyph-name="bracketright" unicode="]" horiz-adv-x="565" 
d="M47 -293v121h213v1649h-213v118h377v-1888h-377z" />
    <glyph glyph-name="asciicircum" unicode="^" horiz-adv-x="1482" 
d="M1065 588l-320 694l-321 -694h-193l418 858h187l415 -858h-186z" />
    <glyph glyph-name="underscore" unicode="_" horiz-adv-x="1024" 
d="M-20 -442v161h1064v-161h-1064z" />
    <glyph glyph-name="grave" unicode="`" 
d="M313 1067l-170 295h183l86 -295h-99z" />
    <glyph glyph-name="a" unicode="a" horiz-adv-x="1024" 
d="M711 395q0 18 -1 38t-1 38q-80 -12 -175.5 -25.5t-155.5 -39.5q-132 -56 -132 -157t74.5 -119.5t107.5 -18.5q131 0 207 75.5t76 208.5zM944 135q27 0 51 8v-137q-55 -18 -108 -18q-143 0 -164 143q-141 -158 -326 -158q-135 0 -233 72.5t-98 202.5q0 90 48 153t120.5 96
t154.5 48.5t166 20.5t154 12v18q0 139 -31 186t-74 67.5t-123 20.5t-138 -43t-58 -139v-20l-170 10q8 153 110.5 235t261.5 82q206 0 291.5 -88t89.5 -163.5t4 -116.5v-246q0 -246 72 -246z" />
    <glyph glyph-name="b" unicode="b" horiz-adv-x="1150" 
d="M821 742.5q-78 103.5 -226 103.5q-147 0 -224.5 -107.5t-77.5 -260.5q0 -154 77 -261.5t228 -107.5t226 110t75 265t-78 258.5zM297 0h-164v1446h164v-615q125 164 331 164t325.5 -142.5t119.5 -360.5t-110 -370.5t-327 -152.5t-339 156v-125z" />
    <glyph glyph-name="c" unicode="c" horiz-adv-x="1067" 
d="M1012 348q-63 -379 -469 -379q-207 0 -335 140t-128 364.5t121.5 373t343.5 148.5q165 0 291 -82t157 -241l-180 -19q-18 111 -87 167.5t-166 56.5q-167 0 -233.5 -117.5t-66.5 -284.5q0 -256 111.5 -317.5t195.5 -61.5q135 0 193.5 75t75.5 194z" />
    <glyph glyph-name="d" unicode="d" horiz-adv-x="1150" 
d="M781.5 741q-76.5 105 -221.5 105t-224.5 -103t-79.5 -257.5t71 -262.5t226 -108t230 108t75 261q0 152 -76.5 257zM854 0v125q-125 -156 -332 -156q-158 0 -300 114t-142 405q0 223 121 365t323 142q92 0 183.5 -40t146.5 -117v608h164v-1446h-164z" />
    <glyph glyph-name="e" unicode="e" horiz-adv-x="1067" 
d="M811 571q0 125 -77.5 211t-198.5 86t-191.5 -85t-83.5 -212h551zM507.5 -31q-172.5 0 -300 140t-127.5 372q0 353 276 473q92 41 198 41q209 0 322 -148.5t113 -373.5v-18h-733v-17q0 -140 81.5 -243t219.5 -103q212 0 266 225l166 -22q-29 -80 -57 -125
q-61 -98 -156.5 -149.5t-268 -51.5z" />
    <glyph glyph-name="f" unicode="f" 
d="M409 1436q51 0 146 -13v-129q-191 41 -202 -38.5t-11 -112.5v-178h182v-136h-182v-829h-160v829h-159v136h159v155q0 150 38 209.5t88 83t101 23.5z" />
    <glyph glyph-name="g" unicode="g" horiz-adv-x="1150" 
d="M854 495.5q0 73.5 -18.5 137t-56.5 112t-96 76t-169 27.5t-186.5 -108t-75.5 -259q0 -253 111.5 -308.5t194.5 -55.5t139.5 31.5t91 85t50 121t15.5 141zM1018 14q0 -168 -69.5 -325.5t-395.5 -157.5q-165 0 -287 90t-137 268h184q0 -115 74.5 -170t185.5 -55
q112 0 165 34t81.5 87.5t28.5 78.5v275q-63 -80 -136.5 -125t-181.5 -45q-207 0 -326.5 147t-119.5 365t113 366t327 148h8q104 0 177 -44t139 -117v131h170v-951z" />
    <glyph glyph-name="h" unicode="h" horiz-adv-x="1067" 
d="M772 0v510q0 37 2.5 135t-76.5 162q-58 45 -116 45q-212 0 -247.5 -124t-35.5 -236v-492h-164v1446h164v-578q66 66 133.5 96.5t171.5 30.5t209.5 -61.5t115 -172t9.5 -151.5v-610h-166z" />
    <glyph glyph-name="i" unicode="i" horiz-adv-x="425" 
d="M141 0v965h158v-965h-158zM141 1257v189h158v-189h-158z" />
    <glyph glyph-name="j" unicode="j" horiz-adv-x="425" 
d="M41 -322q57 0 74.5 34t17.5 110v1143h160v-1211q0 -119 -56.5 -171t-175.5 -52q-50 0 -108 8v146q63 -7 88 -7zM133 1255v191h160v-191h-160z" />
    <glyph glyph-name="k" unicode="k" horiz-adv-x="937" 
d="M299 0h-166v1446h166v-891l385 410h201l-359 -381l441 -584h-205l-346 463l-117 -123v-340z" />
    <glyph glyph-name="l" unicode="l" horiz-adv-x="425" 
d="M137 0v1446h156v-1446h-156z" />
    <glyph glyph-name="m" unicode="m" horiz-adv-x="1579" 
d="M1157 995q95 0 173 -58q79 -58 98.5 -132t19.5 -164v-641h-162l2 594q0 116 -34.5 181t-132.5 65t-155 -45q-58 -45 -79 -88t-21 -109v-598h-159v621q0 219 -179 219q-70 0 -154.5 -51t-86.5 -121t-2 -95v-573h-154v965h154v-131q59 70 128.5 115.5t175.5 45.5t189 -90
q18 -20 30.5 -42.5t27.5 -45.5q155 178 321 178z" />
    <glyph glyph-name="n" unicode="n" horiz-adv-x="1067" 
d="M295 823q99 172 309 172q102 0 206 -65.5t113 -161.5t9 -131v-637h-162l2 614q0 228 -225 228q-76 0 -157 -52.5t-88 -129t-7 -111.5v-549h-164v965h164v-142z" />
    <glyph glyph-name="o" unicode="o" horiz-adv-x="1110" 
d="M784 759.5q-68 104.5 -224 104.5t-228 -112t-72 -281q0 -250 108.5 -310.5t192.5 -60.5t140.5 34t103.5 113.5t47 243.5t-68 268.5zM900.5 115.5q-127.5 -146.5 -347.5 -146.5t-345.5 142t-125.5 369t129 371t350 144t344 -144.5t123 -366.5t-127.5 -368.5z" />
    <glyph glyph-name="p" unicode="p" horiz-adv-x="1150" 
d="M828.5 735q-74.5 107 -225.5 107q-150 0 -230 -109t-80 -266t80 -255.5t230 -98.5t225 102.5t75 257.5t-74.5 262zM1071 483v-6q0 -221 -120.5 -364.5t-331.5 -143.5t-326 144v-572h-160v1424h160v-140q140 170 346 170q135 0 239 -79q192 -146 193 -433z" />
    <glyph glyph-name="q" unicode="q" horiz-adv-x="1150" 
d="M333.5 206.5q73.5 -104.5 224.5 -104.5q150 0 228 95.5t78 254.5q0 158 -73.5 274t-232.5 116t-228.5 -102.5t-69.5 -265.5t73.5 -267.5zM518 995q217 0 334 -174v144h166v-1426h-166v576q-124 -146 -333 -146q-210 0 -323.5 140.5t-113.5 376.5t90 334t170 136t176 39z
" />
    <glyph glyph-name="r" unicode="r" horiz-adv-x="641" 
d="M604 805h-51q-85 0 -153 -46t-85.5 -120t-17.5 -158v-481h-164v965h164v-177q102 189 330 189v-176q-18 4 -23 4z" />
    <glyph glyph-name="s" unicode="s" horiz-adv-x="980" 
d="M790 47q-125 -78 -282 -78q-281 0 -356.5 125t-88.5 217l187 29q0 -135 70.5 -190.5t209.5 -55.5t176 57.5t37 103.5q0 80 -49.5 108t-132.5 43q-84 16 -270.5 56t-186.5 245q0 146 111 217t267 71t275 -83t134 -234l-176 -23q-1 61 -13 91q-25 60 -97 92t-124 32
q-95 0 -155 -37t-60 -98t48 -91t120 -50.5t157 -38.5t204.5 -71.5t119.5 -206.5q0 -152 -125 -230z" />
    <glyph glyph-name="t" unicode="t" horiz-adv-x="598" 
d="M419 113q44 0 111 22v-135q-39 -4 -75.5 -10t-75.5 -6q-111 0 -151 39.5t-40 144.5v661h-155v136h155v305h168v-305h174v-136h-174v-606q0 -41 9.5 -75.5t53.5 -34.5z" />
    <glyph glyph-name="u" unicode="u" horiz-adv-x="1067" 
d="M770 0v147q-16 -16 -29.5 -32.5t-29.5 -32.5q-117 -106 -275 -107q-94 0 -173 47t-104.5 126t-25.5 174v643h162v-613q0 -104 41 -163.5t145 -59.5t176 48t92.5 113.5t20.5 149.5v525h160v-965h-160z" />
    <glyph glyph-name="v" unicode="v" horiz-adv-x="894" 
d="M524 0h-147l-352 965h170l256 -740l254 740h167z" />
    <glyph glyph-name="w" unicode="w" horiz-adv-x="1492" 
d="M1118 0h-143l-232 719l-235 -719h-150l-335 965h176l241 -717l238 717h143l228 -717l251 717h173z" />
    <glyph glyph-name="x" unicode="x" horiz-adv-x="811" 
d="M608 0l-205 344l-200 -344h-185l299 489l-284 476h188l193 -332l194 332h185l-291 -476l291 -489h-185z" />
    <glyph glyph-name="y" unicode="y" horiz-adv-x="894" 
d="M236.5 -284.5q39.5 41.5 59.5 102.5q21 61 33.5 99t26.5 77l-327 971h174l241 -766l256 766h170l-405 -1141q-51 -150 -109 -225.5t-188 -75.5q-80 0 -150 20v148q49 -17 114 -17t104.5 41.5z" />
    <glyph glyph-name="z" unicode="z" horiz-adv-x="854" 
d="M27 0v135l555 688h-502v142h704v-131l-561 -699h574v-135h-770z" />
    <glyph glyph-name="braceleft" unicode="{" horiz-adv-x="575" 
d="M471 -303q-78 0 -124 16.5t-80 56.5t-46 90t-12 169v342q-1 113 -19 147q-34 61 -155 72v123q80 7 115 29t47 60t12 128v342q0 118 16 185q32 135 246 145l78 2v-119h-35q-73 0 -106 -33q-28 -36 -30.5 -71t-2.5 -41v-414q0 -128 -26.5 -170.5t-59.5 -65t-82 -41.5
q120 -34 144 -108t24 -166v-338q0 -114 8 -143q20 -78 133 -78h33v-119h-78z" />
    <glyph glyph-name="bar" unicode="|" horiz-adv-x="483" 
d="M158 -293v1888h164v-1888h-164z" />
    <glyph glyph-name="braceright" unicode="}" horiz-adv-x="575" 
d="M367 29q0 -108 -15 -172q-39 -160 -248 -160h-79v119h34q79 0 106 29t31.5 74.5t4.5 117.5l-2 336q0 128 26.5 171.5t59 65t82.5 41.5q-123 35 -145.5 109t-22.5 166l2 336q0 109 -11 145q-20 76 -133 76h-32v119h77q78 0 124 -15.5t80 -57.5t48 -96t13 -163v-10l-2 -332
q0 -102 20 -148q18 -33 53 -48t101 -21v-123q-138 -12 -156 -69.5t-18 -147.5l2 -332v-10z" />
    <glyph glyph-name="asciitilde" unicode="~" horiz-adv-x="1482" 
d="M475 795q75 0 146 -30t127 -54l92 -41q72 -33 102 -42.5t62 -9.5q73 0 133 48q37 25 104 102l92 -123q-47 -59 -124 -132t-205 -73q-98 0 -254 78l-72 35q-130 63 -209 63q-80 0 -120 -38.5t-105 -114.5l-92 125q49 70 108 125q92 82 215 82z" />
    <glyph glyph-name="nonbreakingspace" unicode="&#xa0;" 
 />
    <glyph glyph-name="exclamdown" unicode="&#xa1;" 
d="M158 0v590q0 53 6 92t10 92l33 371h63l33 -385q4 -57 10 -96t6 -97v-567h-161zM158 1262v184h161v-184h-161z" />
    <glyph glyph-name="cent" unicode="&#xa2;" horiz-adv-x="1024" 
d="M473 858q-242 -71 -242 -364t112 -337t130 -46v747zM596 -236h-123v211q-149 25 -242 101q-92 76 -133 187.5t-41 201.5q0 167 77 310.5t187.5 172.5t153.5 37v197h121v-195q150 -20 239 -99t136 -224l-185 -17q-10 90 -59 137t-131 70v-745q202 34 215 260l180 -17
q-35 -166 -129 -262t-266 -115v-211z" />
    <glyph glyph-name="sterling" unicode="&#xa3;" horiz-adv-x="1366" 
d="M322 193q-66 1 -66 -49t73 -50q30 0 69.5 18.5t66.5 45.5q-105 35 -143 35zM713 382q0 -73 -23 -153q49 -33 122 -58.5t132 -25.5q98 0 150.5 63.5t52.5 156.5l190 -13q-13 -158 -103.5 -267.5t-240.5 -109.5q-102 0 -171.5 26t-113.5 46.5t-94 40.5q-18 -10 -35 -25
t-49 -35t-89.5 -39.5t-105.5 -19.5t-90 11.5t-76 35t-54.5 58.5t-20.5 102.5t68.5 113.5t159.5 46t200 -37q4 16 4 33q0 107 -90 243h-362v134h268q-10 14 -17 28.5t-31 57.5q-76 140 -77 252q0 210 164.5 323t375.5 113q210 0 356.5 -128.5t146.5 -332.5l-216 -23
q5 25 5 66t-22.5 95t-86 114.5t-197.5 60.5q-208 0 -256.5 -99.5t-48.5 -159.5t14.5 -107t37 -90t51 -84t55.5 -86h428v-134h-354q43 -120 43 -193z" />
    <glyph glyph-name="currency" unicode="&#xa4;" horiz-adv-x="1357" 
d="M938 955.5q-102 105.5 -257 105.5t-259.5 -105.5t-104.5 -261t104.5 -260t260.5 -104.5t257 105t101 260t-102 260.5zM685 1233q179 0 312 -107l154 154l115 -115l-154 -153q57 -86 81 -158t24 -161t-25 -162.5t-82 -155.5l154 -156l-115 -113l-154 156
q-126 -87 -198.5 -96.5t-142.5 -9.5q-140 0 -294 106l-155 -151l-113 112l156 152q-59 82 -83 155.5t-24 165.5t23.5 163t83.5 155l-152 151l113 113l151 -152q146 107 325 107z" />
    <glyph glyph-name="yen" unicode="&#xa5;" horiz-adv-x="1280" 
d="M1130 881v-148h-325l-78 -106h403v-148h-399v-479h-192v479h-398v148h398l-66 104h-332v146h232l-344 509h229l379 -587l387 587h227l-350 -505h229z" />
    <glyph glyph-name="brokenbar" unicode="&#xa6;" horiz-adv-x="516" 
d="M174 -281v822h168v-822h-168zM174 784v824h168v-824h-168z" />
    <glyph glyph-name="section" unicode="&#xa7;" horiz-adv-x="1280" 
d="M262 788q0 -94 80 -161q80 -66 272.5 -149t235.5 -103q68 25 123 84t55 125q0 65 -35 110q-73 106 -227 162.5t-203 77.5l-131 53q-64 -21 -117 -82.5t-53 -116.5zM1116 82q0 -66 -37 -133q-57 -104 -162 -151.5t-197 -47.5q-147 0 -284.5 47t-273.5 119l82 152
q96 -68 219 -112t249 -44t163.5 52t37.5 93v6q0 72 -45 99.5t-78.5 40.5t-79.5 33t-256.5 110t-306.5 209q-71 87 -71 195t55 192t139 131q-41 41 -63.5 82t-22.5 100q0 106 99 215t313 109h12q167 0 387 -98q29 -12 55.5 -26.5t55.5 -24.5l-82 -146q-100 57 -199.5 101.5
t-199.5 44.5t-152.5 -24t-77 -51.5t-24.5 -66.5t16 -63.5t42 -42t56.5 -29.5t88.5 -35t146 -55.5t162 -67.5q160 -76 242 -161.5t82 -225.5q0 -100 -53 -186t-139 -135q102 -93 102 -205z" />
    <glyph glyph-name="dieresis" unicode="&#xa8;" 
d="M-14 1108v211h178v-211h-178zM387 1108v211h182v-211h-182z" />
    <glyph glyph-name="copyright" unicode="&#xa9;" horiz-adv-x="1720" 
d="M556 371.5q-118 127.5 -118 339.5t126 350.5t323 138.5q147 0 236 -67.5t139 -214.5l-138 -39q-43 106 -95 147t-144 41q-135 0 -215 -95t-80 -253t75 -248t191 -90t178 51t96 162l140 -29q-47 -166 -146.5 -243.5t-274.5 -77.5t-293 127.5zM1516 715q0 137 -50.5 260
t-188 265t-417.5 142q-135 0 -255 -52t-209 -141t-140 -210t-51 -258t51 -257t139 -209t208 -140.5t255 -51.5t255 51.5t209 139.5t141.5 206t52.5 255zM1589 730q0 -154 -55 -288.5t-208.5 -291t-467.5 -156.5q-152 0 -284 57.5t-230 155.5t-155.5 231t-57.5 284.5
t57.5 285t155.5 231.5t231 155.5t285 57.5t284 -56.5t231.5 -153.5t156.5 -227.5t57 -284.5z" />
    <glyph glyph-name="ordfeminine" unicode="&#xaa;" horiz-adv-x="641" 
d="M180 1020q0 -38 32 -56t69 -18q76 0 113.5 47t37.5 119v35q-192 -21 -234 -69q-18 -20 -18 -58zM535 1034q0 -71 45 -71q20 0 30 10v-94q-31 -12 -63 -13q-78 0 -109 76q-43 -47 -87.5 -65.5t-112.5 -18.5t-122.5 42t-54.5 116t39 112.5t108.5 62.5t223.5 30v22
q0 63 -21 103t-89 40t-94.5 -28.5t-26.5 -91.5l-113 8q8 18 9 39.5t12 42.5q50 114 206 114q98 0 159 -50t61 -152v-234z" />
    <glyph glyph-name="guillemotleft" unicode="&#xab;" horiz-adv-x="811" 
d="M86 512v174l276 240v-187l-159 -139l159 -137v-182zM410 520v170l274 238v-183l-164 -145l164 -135v-176z" />
    <glyph glyph-name="logicalnot" unicode="&#xac;" horiz-adv-x="1482" 
d="M1120 12v523h-977v163h1160v-686h-183z" />
    <glyph glyph-name="registered" unicode="&#xae;" horiz-adv-x="1720" 
d="M1024 917.5q0 75.5 -47 108.5t-156 33h-102v-285h117q98 0 143 34t45 109.5zM717 649v-387h-142v922h267q170 0 247.5 -63t77.5 -185t-47 -184t-149 -90l209 -400h-158l-195 387h-110zM1516 715q0 137 -50.5 260t-188 265t-417.5 142q-135 0 -255 -52t-208 -141
t-139 -210t-51 -258t51 -257t139 -209t207 -140.5t254 -51.5t255 51.5t209 139.5t141.5 206t52.5 255zM1589 730q0 -154 -55 -288.5t-208.5 -291t-467.5 -156.5q-152 0 -284 57.5t-230 155.5t-155.5 231t-57.5 284.5t57.5 285t155.5 231.5t231 155.5t285 57.5t284 -56.5
t231.5 -153.5t156.5 -227.5t57 -284.5z" />
    <glyph glyph-name="macron" unicode="&#xaf;" 
d="M-14 1108v139h583v-139h-583z" />
    <glyph glyph-name="degree" unicode="&#xb0;" horiz-adv-x="724" 
d="M524 1220.5q0 67.5 -47 114.5t-114.5 47t-114.5 -47t-47 -113t48.5 -114.5t114.5 -48.5t113 47t47 114.5zM692 1218q0 -138 -95.5 -235.5t-232.5 -97.5t-234 97t-97 234.5t96.5 233.5t234.5 96t233 -95t95 -233z" />
    <glyph glyph-name="plusminus" unicode="&#xb1;" horiz-adv-x="1482" 
d="M1290 162v-162h-1097l-3 162h1100zM831 727v-448h-180v448h-458v160h458v444h180v-444h461v-160h-461z" />
    <glyph glyph-name="twosuperior" unicode="&#xb2;" horiz-adv-x="768" 
d="M219 1122q0 -60 17 -125h-134q-12 55 -12 109q0 135 83 214t215 79t216 -77.5t84 -216.5q0 -240 -418 -513h428v-115h-608v125q287 170 375 305t88 212t-49 120t-127 43t-118 -50t-40 -110z" />
    <glyph glyph-name="threesuperior" unicode="&#xb3;" horiz-adv-x="768" 
d="M719 731q0 -132 -92 -202t-230 -70q-247 0 -300.5 115.5t-53.5 195.5h137q0 -104 56.5 -148t143.5 -44t141 34t54 108t-33.5 116.5t-59.5 42.5h-169v120q106 0 173 22.5t67 103.5q0 82 -53.5 119.5t-118.5 37.5q-100 0 -138 -61.5t-38 -151.5l-133 2q0 147 76.5 237.5
t219.5 90.5t232.5 -70.5t89.5 -201.5t-147 -181q176 -40 176 -215z" />
    <glyph glyph-name="acute" unicode="&#xb4;" 
d="M231 1069h-84l84 295h177z" />
    <glyph glyph-name="mu" unicode="&#xb5;" horiz-adv-x="1155" 
d="M997 -18q-84 0 -126 37.5t-54 125.5q-47 -92 -105.5 -130t-142.5 -38t-136 28t-97 93l8 -540h-168v1405h164v-484q0 -117 9 -176t36 -99t75 -64.5t108 -24.5t141.5 56.5t84.5 175t3 173.5l2 443h162v-711q0 -82 13 -110.5t47 -28.5t64 14v-131q-54 -14 -88 -14z" />
    <glyph glyph-name="paragraph" unicode="&#xb6;" horiz-adv-x="1314" 
d="M1008 1335v-1677h-117v1677h-299v-1677h-117v1004q-58 9 -94 22q-104 39 -164.5 133.5t-60.5 202.5q0 203 112 311q63 61 141 88t205 27h461v-111h-67z" />
    <glyph glyph-name="periodcentered" unicode="&#xb7;" horiz-adv-x="409" 
d="M100 467v254h209v-254h-209z" />
    <glyph glyph-name="cedilla" unicode="&#xb8;" 
d="M336.5 -373q-79.5 -43 -180.5 -43v47q4 -2 26 -2t51 18.5t29 49.5q0 48 -31 67.5t-92 38.5l150 230l59 -15l-59 -106q13 -10 47 -28q80 -41 80 -128q0 -86 -79.5 -129z" />
    <glyph glyph-name="onesuperior" unicode="&#xb9;" horiz-adv-x="768" 
d="M340 477v670h-176v92q88 4 141 35t70 127h102v-924h-137z" />
    <glyph glyph-name="ordmasculine" unicode="&#xba;" horiz-adv-x="681" 
d="M468.5 1311.5q-43.5 62.5 -128.5 62.5q-129 0 -149.5 -88t-20.5 -129t9 -80t30.5 -68.5t54.5 -47t80 -17.5t80 18.5t60.5 61.5t27.5 134t-43.5 153.5zM551 938.5q-78 -84.5 -210 -84.5t-210 84t-78 217t80.5 222t210 89t207.5 -88.5t78 -221.5t-78 -217.5z" />
    <glyph glyph-name="guillemotright" unicode="&#xbb;" horiz-adv-x="811" 
d="M127 274v185l164 143l-164 137v174l274 -231v-170zM446 279v184l162 141l-162 135v183l277 -232v-172z" />
    <glyph glyph-name="onequarter" unicode="&#xbc;" horiz-adv-x="1792" 
d="M1206 338h281l4 391zM340 477v670h-176v92q88 4 141 35t70 127h102v-924h-137zM621 -59l-113 53l651 1403l111 -54zM1614 223v-223h-129v223h-416v119l438 580h109v-584h131v-115h-133z" />
    <glyph glyph-name="onehalf" unicode="&#xbd;" horiz-adv-x="1792" 
d="M340 477v670h-176v92q88 4 141 35t70 127h102v-924h-137zM571 -59l-112 53l651 1403l111 -54zM1243 646q0 -59 17 -124h-134q-12 53 -12 107q0 137 83 215t214 78t215 -77.5t84 -217.5q0 -239 -416 -510h428v-117h-608v125q284 159 373.5 299.5t89.5 217.5t-48 121
t-128 44t-119 -51t-39 -110z" />
    <glyph glyph-name="threequarters" unicode="&#xbe;" horiz-adv-x="1792" 
d="M1206 338h281l4 391zM719 731q0 -132 -92 -202t-230 -70q-247 0 -300.5 115.5t-53.5 195.5h137q0 -104 56.5 -148t143.5 -44t141 34t54 108t-33.5 116.5t-59.5 42.5h-169v120q106 0 173 22.5t67 103.5q0 82 -53.5 119.5t-118.5 37.5q-100 0 -138 -61.5t-38 -151.5l-133 2
q0 147 76.5 237.5t219.5 90.5t232.5 -70.5t89.5 -201.5t-147 -181q176 -40 176 -215zM709 -59l-113 53l651 1403l111 -54zM1614 223v-223h-129v223h-416v119l438 580h109v-584h131v-115h-133z" />
    <glyph glyph-name="questiondown" unicode="&#xbf;" horiz-adv-x="1150" 
d="M827 477h181v-16q0 -211 -127 -342t-327 -131t-339 126.5t-139 312.5t110.5 285.5t278.5 114.5v312h160v-484q-118 0 -198.5 -16.5t-131.5 -82.5t-51 -138q0 -130 90 -203.5t221 -73.5q272 0 272 336zM455 1247v199h182v-199h-182z" />
    <glyph glyph-name="Agrave" unicode="&#xc0;" horiz-adv-x="1323" 
d="M670 1208l-221 -604h432zM1096 0l-158 442h-551l-162 -442h-205l551 1446h201l526 -1446h-202zM625 1579l-179 254h205l97 -254h-123z" />
    <glyph glyph-name="Aacute" unicode="&#xc1;" horiz-adv-x="1323" 
d="M670 1208l-221 -604h432zM1096 0l-158 442h-551l-162 -442h-205l551 1446h201l526 -1446h-202zM698 1579h-123l99 254h203z" />
    <glyph glyph-name="Acircumflex" unicode="&#xc2;" horiz-adv-x="1323" 
d="M670 1208l-221 -604h432zM1096 0l-158 442h-551l-162 -442h-205l551 1446h201l526 -1446h-202zM786 1579l-127 152l-120 -152h-154l207 254h133l219 -254h-158z" />
    <glyph glyph-name="Atilde" unicode="&#xc3;" horiz-adv-x="1323" 
d="M670 1208l-221 -604h432zM1096 0l-158 442h-551l-162 -442h-205l551 1446h201l526 -1446h-202zM528.5 1673q-28.5 0 -45 -18.5t-20.5 -44.5h-101q33 202 179 202q44 0 128.5 -34.5t123.5 -34.5t50 18.5t21 44.5h97q-35 -204 -170 -204q-50 0 -111.5 24.5t-92 35.5t-59 11
z" />
    <glyph glyph-name="Adieresis" unicode="&#xc4;" horiz-adv-x="1323" 
d="M670 1208l-221 -604h432zM1096 0l-158 442h-551l-162 -442h-205l551 1446h201l526 -1446h-202zM377 1599v209h178v-209h-178zM778 1599v209h178v-209h-178z" />
    <glyph glyph-name="Aring" unicode="&#xc5;" horiz-adv-x="1323" 
d="M670 1208l-221 -604h432zM774 1739q0 45 -30.5 73.5t-72.5 28.5t-73 -30.5t-31 -72.5t29 -73t74 -31t74.5 30t29.5 75zM1096 0l-158 442h-551l-162 -442h-205l551 1446h201l526 -1446h-202zM866 1737q0 -125 -77.5 -160t-117.5 -35q-81 0 -138.5 57.5t-57.5 136.5
t56.5 137t138.5 58t139 -56t57 -138z" />
    <glyph glyph-name="AE" unicode="&#xc6;" horiz-adv-x="2134" 
d="M1053 641v619l-404 -619h404zM1053 0v475h-516l-316 -475h-225l989 1446h1067v-170h-809v-473h653v-162h-653v-473h834v-168h-1024z" />
    <glyph glyph-name="Ccedilla" unicode="&#xc7;" horiz-adv-x="1536" 
d="M696 -416v47q4 -2 26 -2t51.5 18.5t29.5 49.5t-12.5 47t-31 27.5t-40 18.5t-39.5 13l106 162q-76 8 -149 19.5t-159 49.5t-160 112.5t-146 215t-72 336.5q0 370 199 577.5t552 207.5t479 -165t161 -278l-195 -41q-53 160 -175.5 245t-266.5 85t-239 -44
q-164 -76 -233 -223t-69 -301q0 -294 133.5 -466t382.5 -172q196 0 324 116.5t158 309.5l209 -25q-31 -163 -149.5 -307t-285.5 -207q-83 -31 -223 -41l-33 -57q25 -16 47.5 -28.5t51 -37.5t28.5 -101t-79.5 -118.5t-180.5 -42.5z" />
    <glyph glyph-name="Egrave" unicode="&#xc8;" horiz-adv-x="1236" 
d="M162 0v1446h995v-170h-811v-447h705v-167h-705v-494h836v-168h-1020zM604 1579l-178 254h203l96 -254h-121z" />
    <glyph glyph-name="Eacute" unicode="&#xc9;" horiz-adv-x="1236" 
d="M162 0v1446h995v-170h-811v-447h705v-167h-705v-494h836v-168h-1020zM676 1579h-123l98 254h203z" />
    <glyph glyph-name="Ecircumflex" unicode="&#xca;" horiz-adv-x="1236" 
d="M162 0v1446h995v-170h-811v-447h705v-167h-705v-494h836v-168h-1020zM776 1579l-127 152l-121 -152h-153l207 254h133l219 -254h-158z" />
    <glyph glyph-name="Edieresis" unicode="&#xcb;" horiz-adv-x="1236" 
d="M162 0v1446h995v-170h-811v-447h705v-167h-705v-494h836v-168h-1020zM360 1599v209h179v-209h-179zM762 1599v209h180v-209h-180z" />
    <glyph glyph-name="Igrave" unicode="&#xcc;" horiz-adv-x="468" 
d="M137 0v1446h195v-1446h-195zM199 1579l-179 254h203l96 -254h-120z" />
    <glyph glyph-name="Iacute" unicode="&#xcd;" horiz-adv-x="468" 
d="M137 0v1446h195v-1446h-195zM272 1579h-122l98 254h201z" />
    <glyph glyph-name="Icircumflex" unicode="&#xce;" horiz-adv-x="468" 
d="M137 0v1446h195v-1446h-195zM360 1579l-127 152l-120 -152h-154l207 254h133l219 -254h-158z" />
    <glyph glyph-name="Idieresis" unicode="&#xcf;" horiz-adv-x="468" 
d="M137 0v1446h195v-1446h-195zM-55 1599v209h178v-209h-178zM346 1599v209h178v-209h-178z" />
    <glyph glyph-name="Eth" unicode="&#xd0;" horiz-adv-x="1449" 
d="M1151 727q0 441 -313 528q-70 21 -222 21h-258v-455h344v-123h-344v-530h256q180 0 264 33q85 33 136 89t94 155.5t43 281.5zM160 0v698h-133v123h133v625h534q159 0 259 -34t247.5 -170t147.5 -536t-168 -527.5t-301 -160.5q-61 -16 -220 -16l-133 -2h-366z" />
    <glyph glyph-name="Ntilde" unicode="&#xd1;" horiz-adv-x="1449" 
d="M160 0v1446h182l782 -1159l-8 1159h174v-1446h-174l-792 1176l18 -1176h-182zM593 1673q-28 0 -45.5 -18.5t-21.5 -44.5h-98q8 82 40 125t63.5 60t70.5 17t69.5 -11t61.5 -23.5t62.5 -23.5t64.5 -11t46.5 17.5t21.5 45.5h96q-35 -204 -170 -204q-49 0 -110.5 24.5
t-92 35.5t-58.5 11z" />
    <glyph glyph-name="Ograve" unicode="&#xd2;" horiz-adv-x="1662" 
d="M1221 1158q-131 169 -387 169q-257 0 -389 -170t-132 -434q0 -265 135.5 -436.5t392.5 -171.5t384 177.5t127 437t-131 428.5zM296 181q-192 218 -192 552t200 542t527 208t528.5 -207.5t201.5 -544.5t-195.5 -552.5t-536.5 -215.5t-533 218zM797 1579l-179 254h203
l97 -254h-121z" />
    <glyph glyph-name="Oacute" unicode="&#xd3;" horiz-adv-x="1662" 
d="M1221 1158q-131 169 -387 169q-257 0 -389 -170t-132 -434q0 -265 135.5 -436.5t392.5 -171.5t384 177.5t127 437t-131 428.5zM296 181q-192 218 -192 552t200 542t527 208t528.5 -207.5t201.5 -544.5t-195.5 -552.5t-536.5 -215.5t-533 218zM868 1579h-123l99 254h203z
" />
    <glyph glyph-name="Ocircumflex" unicode="&#xd4;" horiz-adv-x="1662" 
d="M1221 1158q-131 169 -387 169q-257 0 -389 -170t-132 -434q0 -265 135.5 -436.5t392.5 -171.5t384 177.5t127 437t-131 428.5zM296 181q-192 218 -192 552t200 542t527 208t528.5 -207.5t201.5 -544.5t-195.5 -552.5t-536.5 -215.5t-533 218zM958 1579l-127 152
l-122 -152h-152l205 254h133l221 -254h-158z" />
    <glyph glyph-name="Otilde" unicode="&#xd5;" horiz-adv-x="1662" 
d="M1221 1158q-131 169 -387 169q-257 0 -389 -170t-132 -434q0 -265 135.5 -436.5t392.5 -171.5t384 177.5t127 437t-131 428.5zM296 181q-192 218 -192 552t200 542t527 208t528.5 -207.5t201.5 -544.5t-195.5 -552.5t-536.5 -215.5t-533 218zM709 1812q39 0 69.5 -11
t61 -23.5t62.5 -23.5t64.5 -11t46 17.5t21.5 45.5h96q-35 -204 -164 -204q-55 0 -144 35.5t-120 35.5t-48 -18.5t-21 -44.5h-98q14 138 74.5 170t99.5 32z" />
    <glyph glyph-name="Odieresis" unicode="&#xd6;" horiz-adv-x="1662" 
d="M1221 1158q-131 169 -387 169q-257 0 -389 -170t-132 -434q0 -265 135.5 -436.5t392.5 -171.5t384 177.5t127 437t-131 428.5zM296 181q-192 218 -192 552t200 542t527 208t528.5 -207.5t201.5 -544.5t-195.5 -552.5t-536.5 -215.5t-533 218zM551 1599v209h178v-209h-178
zM952 1599v209h178v-209h-178z" />
    <glyph glyph-name="multiply" unicode="&#xd7;" horiz-adv-x="1482" 
d="M1055 172l-334 326l-324 -328l-114 113l323 327l-336 330l127 127l334 -328l322 328l114 -113l-321 -327l334 -328z" />
    <glyph glyph-name="Oslash" unicode="&#xd8;" horiz-adv-x="1662" 
d="M1350 676q0 218 -78 373l-813 -781q93 -84 173 -118.5t201 -34.5t218.5 46t163 125t100.5 183.5t35 206.5zM315 719q0 -160 66 -324l809 774q-147 160 -381 160t-364 -177t-130 -433zM1563 721q0 -174 -72 -334q-96 -213 -272.5 -318.5t-405.5 -105.5q-147 0 -258 46
t-225 136l-133 -127l-101 103l142 135q-136 229 -136 465q0 328 145.5 486.5t280 217t290.5 58.5t275 -43t230 -142l141 134l99 -105l-146 -137q146 -197 146 -469z" />
    <glyph glyph-name="Ugrave" unicode="&#xd9;" horiz-adv-x="1409" 
d="M156 1446h192v-924q0 -289 125 -342t203 -53q289 0 335 151t46 285v883h194v-924q0 -245 -135 -402t-371.5 -157t-380.5 87t-192 257q-18 62 -18 174l2 70v895zM668 1579l-179 254h203l99 -254h-123z" />
    <glyph glyph-name="Uacute" unicode="&#xda;" horiz-adv-x="1409" 
d="M156 1446h192v-924q0 -289 125 -342t203 -53q289 0 335 151t46 285v883h194v-924q0 -245 -135 -402t-371.5 -157t-380.5 87t-192 257q-18 62 -18 174l2 70v895zM741 1579h-123l99 254h203z" />
    <glyph glyph-name="Ucircumflex" unicode="&#xdb;" horiz-adv-x="1409" 
d="M156 1446h192v-924q0 -289 125 -342t203 -53q289 0 335 151t46 285v883h194v-924q0 -245 -135 -402t-371.5 -157t-380.5 87t-192 257q-18 62 -18 174l2 70v895zM829 1579l-127 152l-120 -152h-154l207 254h133l219 -254h-158z" />
    <glyph glyph-name="Udieresis" unicode="&#xdc;" horiz-adv-x="1409" 
d="M156 1446h192v-924q0 -289 125 -342t203 -53q289 0 335 151t46 285v883h194v-924q0 -245 -135 -402t-371.5 -157t-380.5 87t-192 257q-18 62 -18 174l2 70v895zM412 1599v209h178v-209h-178zM815 1599v209h178v-209h-178z" />
    <glyph glyph-name="Yacute" unicode="&#xdd;" horiz-adv-x="1280" 
d="M731 0h-194v662l-508 784h227l381 -612l385 612h229l-520 -784v-662zM676 1579h-123l98 254h203z" />
    <glyph glyph-name="Thorn" unicode="&#xde;" horiz-adv-x="1280" 
d="M805 1014h-463v-496h451q74 0 133 20.5t100 83.5t41 172t-72.5 164.5t-189.5 55.5zM1257 770q0 -219 -121 -316t-210.5 -101.5t-141.5 -4.5h-442v-348h-186v1446h186v-264h489q110 0 173 -23q131 -43 192 -150.5t61 -238.5z" />
    <glyph glyph-name="germandbls" unicode="&#xdf;" horiz-adv-x="1110" 
d="M1030 500q0 -523 -446 -523q-104 0 -191 31v172q103 -43 190 -43q154 0 217.5 87.5t63.5 238.5q0 191 -151 274q-63 35 -147.5 41t-155.5 6v162q40 -4 86 -4q106 0 184 50.5t78 148.5t-65.5 144t-160.5 46q-142 0 -189 -74t-48.5 -141t-1.5 -108v-1008h-162v1061
q0 124 32.5 216.5t125.5 147.5q93 58 235 58q274 0 336 -123t62 -213q0 -203 -185 -277q149 -19 221 -127.5t72 -242.5z" />
    <glyph glyph-name="agrave" unicode="&#xe0;" horiz-adv-x="1024" 
d="M711 395q0 18 -1 38t-1 38q-80 -12 -175.5 -25.5t-155.5 -39.5q-132 -56 -132 -157t74.5 -119.5t107.5 -18.5q131 0 207 75.5t76 208.5zM944 135q27 0 51 8v-137q-55 -18 -108 -18q-143 0 -164 143q-141 -158 -326 -158q-135 0 -233 72.5t-98 202.5q0 90 48 153t120.5 96
t154.5 48.5t166 20.5t154 12v18q0 139 -31 186t-74 67.5t-123 20.5t-138 -43t-58 -139v-20l-170 10q8 153 110.5 235t261.5 82q206 0 291.5 -88t89.5 -163.5t4 -116.5v-246q0 -246 72 -246zM475 1067l-170 295h182l84 -295h-96z" />
    <glyph glyph-name="aacute" unicode="&#xe1;" horiz-adv-x="1024" 
d="M711 395q0 18 -1 38t-1 38q-80 -12 -175.5 -25.5t-155.5 -39.5q-132 -56 -132 -157t74.5 -119.5t107.5 -18.5q131 0 207 75.5t76 208.5zM944 135q27 0 51 8v-137q-55 -18 -108 -18q-143 0 -164 143q-141 -158 -326 -158q-135 0 -233 72.5t-98 202.5q0 90 48 153t120.5 96
t154.5 48.5t166 20.5t154 12v18q0 139 -31 186t-74 67.5t-123 20.5t-138 -43t-58 -139v-20l-170 10q8 153 110.5 235t261.5 82q206 0 291.5 -88t89.5 -163.5t4 -116.5v-246q0 -246 72 -246zM549 1069h-84l84 295h176z" />
    <glyph glyph-name="acircumflex" unicode="&#xe2;" horiz-adv-x="1024" 
d="M711 395q0 18 -1 38t-1 38q-80 -12 -175.5 -25.5t-155.5 -39.5q-132 -56 -132 -157t74.5 -119.5t107.5 -18.5q131 0 207 75.5t76 208.5zM944 135q27 0 51 8v-137q-55 -18 -108 -18q-143 0 -164 143q-141 -158 -326 -158q-135 0 -233 72.5t-98 202.5q0 90 48 153t120.5 96
t154.5 48.5t166 20.5t154 12v18q0 139 -31 186t-74 67.5t-123 20.5t-138 -43t-58 -139v-20l-170 10q8 153 110.5 235t261.5 82q206 0 291.5 -88t89.5 -163.5t4 -116.5v-246q0 -246 72 -246zM637 1071l-125 195l-121 -195h-143l192 309h138l213 -309h-154z" />
    <glyph glyph-name="atilde" unicode="&#xe3;" horiz-adv-x="1024" 
d="M711 395q0 18 -1 38t-1 38q-80 -12 -175.5 -25.5t-155.5 -39.5q-132 -56 -132 -157t74.5 -119.5t107.5 -18.5q131 0 207 75.5t76 208.5zM944 135q27 0 51 8v-137q-55 -18 -108 -18q-143 0 -164 143q-141 -158 -326 -158q-135 0 -233 72.5t-98 202.5q0 90 48 153t120.5 96
t154.5 48.5t166 20.5t154 12v18q0 139 -31 186t-74 67.5t-123 20.5t-138 -43t-58 -139v-20l-170 10q8 153 110.5 235t261.5 82q206 0 291.5 -88t89.5 -163.5t4 -116.5v-246q0 -246 72 -246zM649 1237q54 0 64 63h98q-4 -16 -7 -31t-13 -51t-48 -79t-93 -43t-144.5 35.5
t-121.5 35.5t-49.5 -18.5t-21.5 -44.5h-100q8 82 53 142.5t127 60.5q41 0 100.5 -23.5t91 -35t64.5 -11.5z" />
    <glyph glyph-name="adieresis" unicode="&#xe4;" horiz-adv-x="1024" 
d="M711 395q0 18 -1 38t-1 38q-80 -12 -175.5 -25.5t-155.5 -39.5q-132 -56 -132 -157t74.5 -119.5t107.5 -18.5q131 0 207 75.5t76 208.5zM944 135q27 0 51 8v-137q-55 -18 -108 -18q-143 0 -164 143q-141 -158 -326 -158q-135 0 -233 72.5t-98 202.5q0 90 48 153t120.5 96
t154.5 48.5t166 20.5t154 12v18q0 139 -31 186t-74 67.5t-123 20.5t-138 -43t-58 -139v-20l-170 10q8 153 110.5 235t261.5 82q206 0 291.5 -88t89.5 -163.5t4 -116.5v-246q0 -246 72 -246zM215 1108v211h178v-211h-178zM616 1108v211h183v-211h-183z" />
    <glyph glyph-name="aring" unicode="&#xe5;" horiz-adv-x="1024" 
d="M711 395q0 18 -1 38t-1 38q-80 -12 -175.5 -25.5t-155.5 -39.5q-132 -56 -132 -157t74.5 -119.5t107.5 -18.5q131 0 207 75.5t76 208.5zM608 1247q0 43 -30.5 74t-73.5 31t-74 -31t-31 -74t30 -74.5t74 -31.5t74.5 31.5t30.5 74.5zM944 135q27 0 51 8v-137
q-55 -18 -108 -18q-143 0 -164 143q-141 -158 -326 -158q-135 0 -233 72.5t-98 202.5q0 90 48 153t120.5 96t154.5 48.5t166 20.5t154 12v18q0 139 -31 186t-74 67.5t-123 20.5t-138 -43t-58 -139v-20l-170 10q8 153 110.5 235t261.5 82q206 0 291.5 -88t89.5 -163.5
t4 -116.5v-246q0 -246 72 -246zM641 1108q-57 -57 -138 -57t-136.5 57t-55.5 137t56.5 137.5t135.5 57.5t137 -56.5t58 -137.5t-57 -138z" />
    <glyph glyph-name="ae" unicode="&#xe6;" horiz-adv-x="1662" 
d="M637 438q-292 0 -365 -102q-34 -49 -34 -87q0 -72 58 -111.5t131 -39.5q141 0 222.5 99t81.5 241h-94zM1421 557q0 114 -78 208.5t-192.5 94.5t-186 -92t-71.5 -211h528zM1595 457v-19h-700q0 -140 70 -238t206 -98q92 0 156 58.5t80 146.5l172 -26
q-30 -141 -153.5 -226.5t-272.5 -85.5q-250 0 -365 203q-153 -203 -391 -203q-137 0 -233 71t-96 202q0 92 51 158.5t113 98.5t122 42t123.5 13t125 2t110.5 -1h18v16q0 200 -86.5 249.5t-162.5 49.5t-134.5 -54t-58.5 -140l-172 10q12 148 115 228.5t255 80.5
q231 0 330 -172q126 172 334 172q107 0 187 -43t168.5 -144t88.5 -351z" />
    <glyph glyph-name="ccedilla" unicode="&#xe7;" horiz-adv-x="1067" 
d="M432 -416v47q4 -2 26 -2t51.5 18.5t29.5 49.5t-12.5 47t-31 26.5t-40 17.5t-39.5 15l108 168q-117 10 -185 41q-124 57 -191.5 185t-67.5 259q0 248 124 393.5t346 145.5q221 0 349 -139q87 -98 94 -184l-180 -19q-41 223 -264 224q-153 0 -221 -113t-68 -279
q0 -265 109.5 -327t193.5 -62q133 0 193.5 75t79.5 194l176 -17q-20 -123 -91 -220t-194 -134q-31 -10 -62.5 -13.5t-64.5 -7.5l-37 -61q25 -14 47.5 -26.5t52 -39t29.5 -101.5t-79.5 -118t-180.5 -43z" />
    <glyph glyph-name="egrave" unicode="&#xe8;" horiz-adv-x="1067" 
d="M811 571q0 125 -77.5 211t-198.5 86t-191.5 -85t-83.5 -212h551zM507.5 -31q-172.5 0 -300 140t-127.5 372q0 353 276 473q92 41 198 41q209 0 322 -148.5t113 -373.5v-18h-733v-17q0 -140 81.5 -243t219.5 -103q212 0 266 225l166 -22q-29 -80 -57 -125
q-61 -98 -156.5 -149.5t-268 -51.5zM506 1067l-168 295h182l84 -295h-98z" />
    <glyph glyph-name="eacute" unicode="&#xe9;" horiz-adv-x="1067" 
d="M811 571q0 125 -77.5 211t-198.5 86t-191.5 -85t-83.5 -212h551zM507.5 -31q-172.5 0 -300 140t-127.5 372q0 353 276 473q92 41 198 41q209 0 322 -148.5t113 -373.5v-18h-733v-17q0 -140 81.5 -243t219.5 -103q212 0 266 225l166 -22q-29 -80 -57 -125
q-61 -98 -156.5 -149.5t-268 -51.5zM571 1069h-86l86 295h177z" />
    <glyph glyph-name="ecircumflex" unicode="&#xea;" horiz-adv-x="1067" 
d="M811 571q0 125 -77.5 211t-198.5 86t-191.5 -85t-83.5 -212h551zM507.5 -31q-172.5 0 -300 140t-127.5 372q0 353 276 473q92 41 198 41q209 0 322 -148.5t113 -373.5v-18h-733v-17q0 -140 81.5 -243t219.5 -103q212 0 266 225l166 -22q-29 -80 -57 -125
q-61 -98 -156.5 -149.5t-268 -51.5zM657 1071l-125 195l-120 -195h-144l193 309h139l213 -309h-156z" />
    <glyph glyph-name="edieresis" unicode="&#xeb;" horiz-adv-x="1067" 
d="M811 571q0 125 -77.5 211t-198.5 86t-191.5 -85t-83.5 -212h551zM507.5 -31q-172.5 0 -300 140t-127.5 372q0 353 276 473q92 41 198 41q209 0 322 -148.5t113 -373.5v-18h-733v-17q0 -140 81.5 -243t219.5 -103q212 0 266 225l166 -22q-29 -80 -57 -125
q-61 -98 -156.5 -149.5t-268 -51.5zM266 1108v211h178v-211h-178zM668 1108v211h182v-211h-182z" />
    <glyph glyph-name="igrave" unicode="&#xec;" horiz-adv-x="425" 
d="M137 0v965h158v-965h-158zM186 1067l-168 295h181l86 -295h-99z" />
    <glyph glyph-name="iacute" unicode="&#xed;" horiz-adv-x="425" 
d="M137 0v965h158v-965h-158zM240 1069h-84l84 295h176z" />
    <glyph glyph-name="icircumflex" unicode="&#xee;" horiz-adv-x="425" 
d="M137 0v965h158v-965h-158zM338 1071l-125 195l-121 -195h-143l192 309h140l211 -309h-154z" />
    <glyph glyph-name="idieresis" unicode="&#xef;" horiz-adv-x="425" 
d="M137 0v965h158v-965h-158zM-76 1108v211h178v-211h-178zM328 1108v211h180v-211h-180z" />
    <glyph glyph-name="eth" unicode="&#xf0;" horiz-adv-x="1110" 
d="M784 759.5q-68 104.5 -224 104.5t-228 -112t-72 -281q0 -250 108.5 -310.5t192.5 -60.5t140.5 34t103.5 113.5t47 243.5t-68 268.5zM1028 526q0 -242 -117.5 -399.5t-348.5 -157.5q-230 0 -355 139.5t-125 366.5t123.5 373.5t341.5 146.5q158 0 274 -116
q-48 189 -123 292l-364 -118l-37 92l338 112q-44 57 -146 154l127 59q64 -58 154 -170l174 60l39 -96l-152 -50q197 -317 197 -688z" />
    <glyph glyph-name="ntilde" unicode="&#xf1;" horiz-adv-x="1067" 
d="M295 823q99 172 309 172q102 0 206 -65.5t113 -161.5t9 -131v-637h-162l2 614q0 228 -225 228q-76 0 -157 -52.5t-88 -129t-7 -111.5v-549h-164v965h164v-142zM664 1096q-36 0 -69.5 11t-67 24.5t-65.5 24.5t-60.5 11t-46 -18.5t-21.5 -44.5h-101q14 137 76 170t101 33
t70.5 -11.5t63 -23.5t62.5 -23.5t63.5 -11.5t45 18.5t20.5 44.5h96q-4 -76 -36.5 -120.5t-63.5 -64t-67 -19.5z" />
    <glyph glyph-name="ograve" unicode="&#xf2;" horiz-adv-x="1110" 
d="M784 759.5q-68 104.5 -224 104.5t-228 -112t-72 -281q0 -250 108.5 -310.5t192.5 -60.5t140.5 34t103.5 113.5t47 243.5t-68 268.5zM900.5 115.5q-127.5 -146.5 -347.5 -146.5t-345.5 142t-125.5 369t129 371t350 144t344 -144.5t123 -366.5t-127.5 -368.5zM528 1067
l-170 295h183l84 -295h-97z" />
    <glyph glyph-name="oacute" unicode="&#xf3;" horiz-adv-x="1110" 
d="M784 759.5q-68 104.5 -224 104.5t-228 -112t-72 -281q0 -250 108.5 -310.5t192.5 -60.5t140.5 34t103.5 113.5t47 243.5t-68 268.5zM900.5 115.5q-127.5 -146.5 -347.5 -146.5t-345.5 142t-125.5 369t129 371t350 144t344 -144.5t123 -366.5t-127.5 -368.5zM582 1069h-84
l84 295h176z" />
    <glyph glyph-name="ocircumflex" unicode="&#xf4;" horiz-adv-x="1110" 
d="M784 759.5q-68 104.5 -224 104.5t-228 -112t-72 -281q0 -250 108.5 -310.5t192.5 -60.5t140.5 34t103.5 113.5t47 243.5t-68 268.5zM900.5 115.5q-127.5 -146.5 -347.5 -146.5t-345.5 142t-125.5 369t129 371t350 144t344 -144.5t123 -366.5t-127.5 -368.5zM680 1071
l-125 195l-121 -195h-143l192 309h138l213 -309h-154z" />
    <glyph glyph-name="otilde" unicode="&#xf5;" horiz-adv-x="1110" 
d="M784 759.5q-68 104.5 -224 104.5t-228 -112t-72 -281q0 -250 108.5 -310.5t192.5 -60.5t140.5 34t103.5 113.5t47 243.5t-68 268.5zM900.5 115.5q-127.5 -146.5 -347.5 -146.5t-345.5 142t-125.5 369t129 371t350 144t344 -144.5t123 -366.5t-127.5 -368.5zM690 1237
q57 0 66 63h98q-4 -16 -7 -31t-13 -51t-48 -79t-94 -43t-118 24.5t-92.5 35.5t-59.5 11q-49 0 -68 -63h-98q31 203 180 203q41 0 100.5 -23.5t90 -35t63.5 -11.5z" />
    <glyph glyph-name="odieresis" unicode="&#xf6;" horiz-adv-x="1110" 
d="M784 759.5q-68 104.5 -221 104.5t-228 -110.5t-75 -272.5q0 -259 104.5 -320t189.5 -61t143.5 34t106.5 113.5t48 243.5t-68 268.5zM900.5 115.5q-127.5 -146.5 -346.5 -146.5t-345.5 143t-126.5 369q0 225 127 369.5t350 144.5q224 0 346.5 -144.5t122.5 -366.5
t-127.5 -368.5zM272 1108v211h179v-211h-179zM676 1108v211h180v-211h-180z" />
    <glyph glyph-name="divide" unicode="&#xf7;" horiz-adv-x="1482" 
d="M651 168v225h183v-225h-183zM162 532v166h1159v-166h-1159zM651 838v225h183v-225h-183z" />
    <glyph glyph-name="oslash" unicode="&#xf8;" horiz-adv-x="1110" 
d="M344 211q86 -111 223 -111t216 109.5t79 251.5t-41 211zM550 864q-137 0 -215.5 -111t-78.5 -255q0 -97 35 -195l473 457q-47 47 -94 75.5t-120 28.5zM942 791q88 -124 88 -327t-129.5 -349t-336.5 -146t-333 131l-81 -82l-72 74l88 86q-82 148 -82 303q0 214 132 364
t345 150q169 0 313 -125l91 88l71 -73z" />
    <glyph glyph-name="ugrave" unicode="&#xf9;" horiz-adv-x="1067" 
d="M770 0v147q-16 -16 -29.5 -32.5t-29.5 -32.5q-117 -106 -275 -107q-94 0 -173 47t-104.5 126t-25.5 174v643h162v-613q0 -104 41 -163.5t145 -59.5t176 48t92.5 113.5t20.5 149.5v525h160v-965h-160zM506 1067l-168 295h182l84 -295h-98z" />
    <glyph glyph-name="uacute" unicode="&#xfa;" horiz-adv-x="1067" 
d="M770 0v147q-16 -16 -29.5 -32.5t-29.5 -32.5q-117 -106 -275 -107q-94 0 -173 47t-104.5 126t-25.5 174v643h162v-613q0 -104 41 -163.5t145 -59.5t176 48t92.5 113.5t20.5 149.5v525h160v-965h-160zM561 1069h-86l86 295h176z" />
    <glyph glyph-name="ucircumflex" unicode="&#xfb;" horiz-adv-x="1067" 
d="M770 0v147q-16 -16 -29.5 -32.5t-29.5 -32.5q-117 -106 -275 -107q-94 0 -173 47t-104.5 126t-25.5 174v643h162v-613q0 -104 41 -163.5t145 -59.5t176 48t92.5 113.5t20.5 149.5v525h160v-965h-160zM657 1071l-125 195l-120 -195h-144l193 309h139l213 -309h-156z" />
    <glyph glyph-name="udieresis" unicode="&#xfc;" horiz-adv-x="1067" 
d="M295 352q-1 -223 187 -223q100 0 190 56t94 153.5t4 142.5v484h160v-965h-160v147q-14 -16 -25.5 -30.5t-27.5 -28.5q-119 -113 -281 -113q-98 0 -178 50t-102.5 130.5t-22.5 176.5v633h162v-613zM238 1108v211h178v-211h-178zM639 1108v211h182v-211h-182z" />
    <glyph glyph-name="yacute" unicode="&#xfd;" horiz-adv-x="894" 
d="M236.5 -284.5q39.5 41.5 59.5 102.5q21 61 33.5 99t26.5 77l-327 971h174l241 -766l256 766h170l-405 -1141q-51 -150 -109 -225.5t-188 -75.5q-80 0 -150 20v148q49 -17 114 -17t104.5 41.5zM485 1069h-84l84 295h177z" />
    <glyph glyph-name="thorn" unicode="&#xfe;" horiz-adv-x="1150" 
d="M828.5 735q-74.5 107 -225.5 107q-150 0 -230 -109t-80 -266t80 -255.5t230 -98.5t225 102.5t75 257.5t-74.5 262zM1071 483v-6q0 -221 -120.5 -364.5t-331.5 -143.5t-326 144v-572h-160v1905h160v-621q140 170 346 170q135 0 239 -79q192 -146 193 -433z" />
    <glyph glyph-name="ydieresis" unicode="&#xff;" horiz-adv-x="894" 
d="M236.5 -284.5q39.5 41.5 59.5 102.5q21 61 33.5 99t26.5 77l-327 971h174l241 -766l256 766h170l-405 -1141q-51 -150 -109 -225.5t-188 -75.5q-80 0 -150 20v148q49 -17 114 -17t104.5 41.5zM160 1108v211h178v-211h-178zM561 1108v211h182v-211h-182z" />
    <glyph glyph-name="dotlessi" unicode="&#x131;" horiz-adv-x="425" 
d="M137 0v965h158v-965h-158z" />
    <glyph glyph-name="Lslash" unicode="&#x141;" horiz-adv-x="1067" 
d="M139 0v479l-129 -123v162l129 123v805h193v-627l315 289v-160l-315 -286v-490h700v-172h-893z" />
    <glyph glyph-name="lslash" unicode="&#x142;" horiz-adv-x="425" 
d="M293 0h-156v668l-114 -99v138l114 102v637h156v-488l110 101v-144l-110 -102v-813z" />
    <glyph glyph-name="OE" unicode="&#x152;" horiz-adv-x="2347" 
d="M1239 479q27 99 27 257t-31 263q-47 154 -159 244t-258 90q-260 0 -385.5 -180.5t-125.5 -433.5q0 -334 162.5 -465t330.5 -131q167 0 279.5 97t159.5 259zM1266 168q-172 -205 -486 -205q-150 0 -278.5 61.5t-264 220.5t-135.5 485t193.5 539.5t519.5 213.5
q141 0 246.5 -44t204.5 -145v152h1003v-172h-819v-449h661v-168h-661v-489h842v-168h-1026v168z" />
    <glyph glyph-name="oe" unicode="&#x153;" horiz-adv-x="1792" 
d="M755 746q-70 112 -213 112t-212.5 -114.5t-69.5 -264.5t69.5 -261.5t212.5 -111.5t213 112t70 264t-70 264zM1236 864q-93 0 -163.5 -87.5t-83.5 -215.5h547q-22 201 -114.5 252t-185.5 51zM555 995q215 0 350 -178q10 12 18.5 24.5t18.5 22.5q114 131 328 131t330 -160
t116 -397h-727q0 -140 80 -239t217 -99q100 0 161.5 59.5t90.5 151.5l166 -22q-53 -143 -159.5 -231.5t-266.5 -88.5q-111 0 -212 47t-161 146q-131 -193 -358 -193t-344 149t-117 363q0 134 49 252q49 117 162 189.5t258 72.5z" />
    <glyph glyph-name="Scaron" unicode="&#x160;" horiz-adv-x="1366" 
d="M1266 402q0 -104 -50.5 -190.5t-168 -167.5t-355.5 -81q-510 0 -563 227.5t-53 272.5l207 26q0 -177 115.5 -275.5t299.5 -98.5q237 0 299 105.5t62 175.5q0 122 -69.5 169.5t-184.5 72.5t-387.5 83.5t-272.5 357.5q0 145 95.5 244.5t240.5 138.5q86 21 179 21
q386 0 522 -252q34 -64 59 -193l-194 -14q-12 164 -112.5 236.5t-258.5 72.5q-216 0 -274 -81t-58 -144t27.5 -101t69.5 -62.5t92.5 -38t97.5 -25.5l157 -39q160 -33 241 -72t130 -86t78 -112.5t29 -169.5zM752 1579h-134l-217 254h156l127 -158l121 158h153z" />
    <glyph glyph-name="scaron" unicode="&#x161;" horiz-adv-x="980" 
d="M790 47q-125 -78 -282 -78q-281 0 -356.5 125t-88.5 217l187 29q0 -135 70.5 -190.5t209.5 -55.5t176 57.5t37 103.5q0 80 -49.5 108t-132.5 43q-84 16 -270.5 56t-186.5 245q0 146 111 217t267 71t275 -83t134 -234l-176 -23q-1 61 -13 91q-25 60 -97 92t-124 32
q-95 0 -155 -37t-60 -98t48 -91t120 -50.5t157 -38.5t204.5 -71.5t119.5 -206.5q0 -152 -125 -230zM553 1069h-137l-209 309h151l125 -196l121 196h146z" />
    <glyph glyph-name="Ydieresis" unicode="&#x178;" horiz-adv-x="1280" 
d="M731 0h-194v662l-508 784h227l381 -612l385 612h229l-520 -784v-662zM350 1599v209h178v-209h-178zM752 1599v209h178v-209h-178z" />
    <glyph glyph-name="Zcaron" unicode="&#x17d;" horiz-adv-x="1236" 
d="M37 0v188l893 1082h-821v176h1040v-180l-889 -1092h909v-174h-1132zM688 1579h-135l-215 254h156l127 -158l120 158h154z" />
    <glyph glyph-name="zcaron" unicode="&#x17e;" horiz-adv-x="854" 
d="M27 0v135l555 688h-502v142h704v-131l-561 -699h574v-135h-770zM510 1069h-137l-207 309h151l123 -196l121 196h146z" />
    <glyph glyph-name="florin" unicode="&#x192;" horiz-adv-x="894" 
d="M115 -469q-43 0 -123 25l31 120q37 -14 66 -14q53 0 73 32.5t37 100.5l245 1043h-147l31 127h147l70 270q27 115 76.5 171t134.5 56t139 -20l-29 -123q-30 10 -68 10t-56.5 -14.5t-30 -37t-16.5 -49t-11 -50.5l-51 -213h174l-31 -127h-172l-266 -1108q-23 -96 -72 -147.5
t-151 -51.5z" />
    <glyph glyph-name="circumflex" unicode="&#x2c6;" 
d="M395 1071l-125 195l-120 -195h-144l193 309h137l213 -309h-154z" />
    <glyph glyph-name="caron" unicode="&#x2c7;" 
d="M352 1069h-137l-209 309h152l125 -196l120 196h146z" />
    <glyph glyph-name="breve" unicode="&#x2d8;" 
d="M292 1075q-123 0 -199.5 78.5t-76.5 187.5h103q16 -53 58.5 -92t98.5 -39q103 0 150 111q4 6 4 20l104 -37q-18 -102 -95 -165.5t-147 -63.5z" />
    <glyph glyph-name="dotaccent" unicode="&#x2d9;" 
d="M188 1108v203h179v-203h-179z" />
    <glyph glyph-name="ring" unicode="&#x2da;" 
d="M383 1248q0 44 -32 74t-75 30t-73.5 -31t-30.5 -74t30.5 -74.5t73.5 -31.5t75 31.5t32 75.5zM276.5 1051q-81.5 0 -137 57t-55.5 137t56 137.5t136 57.5t137.5 -57.5t57.5 -138.5t-56.5 -137t-138 -56z" />
    <glyph glyph-name="ogonek" unicode="&#x2db;" 
d="M422 -383q-138 0 -191 15.5t-84.5 47.5t-31.5 82q0 78 38 128.5t115 121.5l152 -2q-18 -14 -42 -31.5t-56.5 -53.5t-32.5 -73t25.5 -60t125.5 -23v-152h-18z" />
    <glyph glyph-name="tilde" unicode="&#x2dc;" 
d="M414 1237q53 0 63 63h101q-4 -16 -7.5 -31t-14.5 -51t-48 -79t-86 -43q-62 0 -150.5 35.5t-120.5 35.5q-61 0 -71 -63h-103q14 137 76 170t101 33t70.5 -11.5t91 -35t98.5 -23.5z" />
    <glyph glyph-name="hungarumlaut" unicode="&#x2dd;" 
d="M92 1067h-94l94 295h180zM381 1067h-94l88 295h182z" />
    <glyph glyph-name="Mu" unicode="&#x39c;" horiz-adv-x="1067" 
d="M770 0v147q-91 -154 -166.5 -163t-105.5 -9t-75 17t-57 28l-71 72v-551h-162v1424h162v-543q0 -93 37.5 -190.5t191.5 -100.5q108 0 177 74t69 235v525h160v-965h-160z" />
    <glyph glyph-name="pi" unicode="&#x3c0;" horiz-adv-x="1146" 
d="M1024 0q-78 0 -156.5 19t-86 99.5t-7.5 143.5v561h-412v-823h-161v823h-111v142h959v-142h-111v-544q0 -79 11 -99q24 -43 108 -43h22v-137h-55z" />
    <glyph glyph-name="endash" unicode="&#x2013;" horiz-adv-x="1228" 
d="M92 537v155h1045v-155h-1045z" />
    <glyph glyph-name="emdash" unicode="&#x2014;" horiz-adv-x="1832" 
d="M92 537v155h1649v-155h-1649z" />
    <glyph glyph-name="quoteleft" unicode="&#x2018;" horiz-adv-x="468" 
d="M129 901v105q0 139 19.5 228.5t66.5 211.5h96q-50 -142 -67 -322h88v-223h-203z" />
    <glyph glyph-name="quoteright" unicode="&#x2019;" horiz-adv-x="468" 
d="M332 1339q0 -242 -84 -438h-96q67 189 67 320h-90v225h203v-107z" />
    <glyph glyph-name="quotesinglbase" unicode="&#x201a;" horiz-adv-x="468" 
d="M332 100q0 -232 -84 -419h-96q67 189 67 319h-90v223h203v-123z" />
    <glyph glyph-name="quotedblleft" unicode="&#x201c;" horiz-adv-x="768" 
d="M129 1018q0 231 86 428h96q-67 -179 -67 -322h88v-223h-203v117zM434 1018q0 231 86 428h94q-60 -136 -65 -322h88v-223h-203v117z" />
    <glyph glyph-name="quotedblright" unicode="&#x201d;" horiz-adv-x="768" 
d="M332 1321q0 -233 -84 -420h-96q67 189 67 320h-90v225h203v-125zM637 1309q0 -211 -40 -301t-46 -107h-94q41 115 51 192.5t14 127.5h-88v225h203v-137z" />
    <glyph glyph-name="quotedblbase" unicode="&#x201e;" horiz-adv-x="768" 
d="M332 100q0 -232 -84 -419h-96q67 189 67 319h-90v223h203v-123zM637 86q0 -166 -62 -346q-6 -16 -12 -29.5t-12 -29.5h-94q51 155 65 319h-88v223h203v-137z" />
    <glyph glyph-name="dagger" unicode="&#x2020;" horiz-adv-x="937" 
d="M555 862v-862h-164v862h-350v162h350v422h164v-422h348v-162h-348z" />
    <glyph glyph-name="daggerdbl" unicode="&#x2021;" horiz-adv-x="937" 
d="M555 371v-371h-164v371h-352v161h352v330h-350v162h350v422h164v-422h348v-162h-348v-330h348v-161h-348z" />
    <glyph glyph-name="bullet" unicode="&#x2022;" horiz-adv-x="681" 
d="M109 494v464h466v-464h-466z" />
    <glyph glyph-name="ellipsis" unicode="&#x2026;" horiz-adv-x="2048" 
d="M244 0v190h192v-190h-192zM926 0v190h194v-190h-194zM1610 0v190h194v-190h-194z" />
    <glyph glyph-name="perthousand" unicode="&#x2030;" horiz-adv-x="2560" 
d="M547.5 1173.5q-42.5 108.5 -157.5 108.5t-158.5 -107.5t-43.5 -290t68 -244.5t134 -62t105.5 35.5t67 107.5t27.5 208t-42.5 244.5zM1562.5 690.5q-43.5 110.5 -161.5 110.5q-63 0 -103.5 -36t-60.5 -89t-27.5 -113.5t-7.5 -154t45.5 -202t158.5 -108.5t156.5 107.5
t43.5 240.5q0 134 -43.5 244.5zM2376 450q0 353 -203 353q-111 0 -155 -108.5t-44 -241.5q0 -224 70 -288.5t133.5 -64.5t102 36t67.5 108t29 206zM641.5 598.5q-81.5 -139.5 -251.5 -139.5q-169 0 -253 144t-84 324q0 179 84 325.5t253 146.5q170 0 251.5 -146.5
t81.5 -330.5t-81.5 -323.5zM621 -59l-113 53l651 1403l111 -54zM1660 120.5q-79 -138.5 -255 -138.5q-177 0 -255.5 137.5t-78.5 304.5q0 168 29.5 247t65.5 128t98 86t146 37t149 -44t122.5 -143t57.5 -287.5t-79 -327zM2513 451q0 -184 -83 -326.5t-254 -142.5t-254 137
t-83 322t81 333t254 148t256 -141t83 -322v-8z" />
    <glyph glyph-name="guilsinglleft" unicode="&#x2039;" horiz-adv-x="512" 
d="M98 520v170l275 238v-183l-164 -145l164 -135v-176z" />
    <glyph glyph-name="guilsinglright" unicode="&#x203a;" horiz-adv-x="512" 
d="M139 274v185l164 143l-164 137v174l275 -231v-170z" />
    <glyph glyph-name="fraction" unicode="&#x2044;" horiz-adv-x="256" 
d="M-250 -20l-69 38l825 1450l69 -38z" />
    <glyph glyph-name="Euro" unicode="&#x20ac;" horiz-adv-x="1433" 
d="M197 674v38q0 38 4 62h-154l47 127h121q53 281 228 431.5t462 150.5q139 0 258 -29t226 -125l-66 -186q-78 100 -174 143t-223 43q-213 0 -337 -111.5t-165 -316.5h817l-45 -127h-786v-41l2 -59h749l-45 -127h-690q37 -203 166 -312.5t336 -109.5q131 0 253 51t205 156
v-217q-188 -152 -478 -152t-471 150.5t-228 433.5h-162l47 127h103z" />
    <glyph glyph-name="trademark" unicode="&#x2122;" horiz-adv-x="1421" 
d="M365 1346v-580h-121v580h-197v100h512v-100h-194zM629 766v680h159l168 -543l162 543h154v-680h-111l4 534l-159 -534h-111l-154 526l2 -526h-114z" />
    <glyph glyph-name="Omega" unicode="&#x2126;" horiz-adv-x="1519" 
d="M862 0v164q68 27 102.5 50.5t80.5 77.5t77 136q64 168 64 321q0 278 -114.5 425t-313.5 147t-313.5 -151.5t-114.5 -426.5q0 -172 53 -309q33 -90 98 -162q35 -41 71 -62.5t103 -45.5v-164h-555v164h324q-299 178 -299 614q0 317 176 510t467 193t454.5 -182.5
t163.5 -493.5q0 -219 -80.5 -384t-234.5 -257h346v-164h-555z" />
    <glyph glyph-name="partialdiff" unicode="&#x2202;" horiz-adv-x="1112" 
d="M531 727q-126 0 -195.5 -85t-69.5 -224t63.5 -215t186.5 -76q252 0 260 489q-119 111 -245 111zM494 1319q-73 0 -189 -37l-22 152q121 43 243 43q231 0 338 -173t107 -540q1 -285 -51 -452t-159.5 -251t-274.5 -84t-283.5 118.5t-116.5 321.5t119.5 332.5t310.5 129.5
q152 0 272 -88v24q0 504 -294 504z" />
    <glyph glyph-name="Delta" unicode="&#x2206;" horiz-adv-x="1310" 
d="M653 1212l-387 -1044h778zM-8 0l567 1446h199l561 -1446h-1327z" />
    <glyph glyph-name="product" unicode="&#x220f;" horiz-adv-x="1443" 
d="M1120 -250v1526h-794v-1526h-187v1696h1164v-1696h-183z" />
    <glyph glyph-name="summation" unicode="&#x2211;" horiz-adv-x="1214" 
d="M1163 -80v-170h-1104v160l572 706l-572 666v164h1106v-170l-876 2l575 -655l-590 -703h889z" />
    <glyph glyph-name="minus" unicode="&#x2212;" horiz-adv-x="1482" 
d="M162 532v166h1159v-166h-1159z" />
    <glyph glyph-name="radical" unicode="&#x221a;" horiz-adv-x="1484" 
d="M786 -379h-178l-276 602l-139 -63l-66 147l305 137l254 -583l455 1585h186z" />
    <glyph glyph-name="infinity" unicode="&#x221e;" horiz-adv-x="1482" 
d="M383 838q-68 0 -115 -62.5t-47 -161t46.5 -163t110.5 -64.5t108 37t75 72.5t84 111.5q-72 123 -133 176.5t-129 53.5zM1264 607q0 99 -46.5 164t-110.5 65t-124.5 -51.5t-144.5 -170.5q69 -114 112 -156q76 -73 148 -73t119 61.5t47 160.5zM393 997q197 0 355 -254
q70 98 124 152q102 102 233 102t222.5 -106t91.5 -271q0 -167 -96 -280t-240 -113q-68 0 -149 37q-57 31 -88 67t-47 53.5t-68 92.5l-14 -20q-77 -108 -142 -156q-86 -72 -209 -72t-213 106.5t-90 269.5t94.5 277.5t235.5 114.5z" />
    <glyph glyph-name="integral" unicode="&#x222b;" horiz-adv-x="690" 
d="M522 1325q-41 0 -60 -19t-25.5 -46t-6.5 -93v-687q0 -687 -33 -740q-25 -45 -80 -72.5t-118 -27.5t-129 24v162q61 -37 100 -37q39 1 57 21t24.5 46.5t6.5 92.5v88l-2 1069v107q0 107 28 157q28 49 86 78t120 29t135 -27v-166q-62 41 -103 41z" />
    <glyph glyph-name="approxequal" unicode="&#x2248;" horiz-adv-x="1482" 
d="M1013 418q114 0 230 149l90 -125q-47 -55 -121 -124.5t-208 -69.5q-123 0 -254 74l-72 34q-120 60 -206 60t-146 -56q-12 -12 -20.5 -20t-16.5 -18.5t-19.5 -22.5t-27.5 -35l-90 123q50 69 108 123q95 78 215 78q76 0 146.5 -28t126.5 -52l92 -41q113 -49 173 -49z
M448 815q-62 0 -122 -55l-14 -14q-15 -15 -23 -25t-19.5 -22.5t-27.5 -34.5l-90 122q54 75 104 117q97 84 217 84q101 0 275 -80l92 -41q98 -42 122.5 -45.5t38.5 -3.5q72 0 136 45q29 18 49 39t57 66l90 -125q-82 -96 -161 -145q-80 -49 -175 -49t-247 73l-72 35
q-72 35 -120 47t-110 12z" />
    <glyph glyph-name="notequal" unicode="&#x2260;" horiz-adv-x="1482" 
d="M203 334v158h405l107 225l-512 -2v162h594l159 323h156l-160 -323h328v-162h-410l-106 -223h516v-158h-594l-170 -346h-156l168 346h-325z" />
    <glyph glyph-name="lessequal" unicode="&#x2264;" horiz-adv-x="1482" 
d="M262 0v162h955v-162h-955zM262 709v184l955 448v-180l-789 -362l789 -367v-186z" />
    <glyph glyph-name="greaterequal" unicode="&#x2265;" horiz-adv-x="1482" 
d="M266 0v162h955v-162h-955zM266 246v180l789 360l-789 367v188l955 -462v-185z" />
    <glyph glyph-name="lozenge" unicode="&#x25ca;" horiz-adv-x="1482" 
d="M748 1286l-279 -561l268 -563l283 565zM827 0h-178l-364 723l372 723h181l360 -723z" />
    <glyph glyph-name="fi" unicode="&#xfb01;" horiz-adv-x="980" 
d="M409 1436q51 0 146 -13v-129q-191 41 -202 -38.5t-11 -112.5v-178h182v-136h-182v-829h-160v829h-159v136h159v155q0 150 38 209.5t88 83t101 23.5zM694 0v965h160v-965h-160zM694 1257v189h160v-189h-160z" />
    <glyph glyph-name="fl" unicode="&#xfb02;" horiz-adv-x="980" 
d="M409 1436q51 0 146 -13v-129q-191 41 -202 -38.5t-11 -112.5v-178h182v-136h-182v-829h-160v829h-159v136h159v155q0 150 38 209.5t88 83t101 23.5zM690 0v1446h158v-1446h-158z" />
    <glyph glyph-name="apple" horiz-adv-x="1366" 
d="M975 -55q-51 0 -94 18.5t-71 30.5t-54 12h-47q-47 0 -83 -13t-77 -31.5t-82 -18.5q-71 0 -126.5 49t-116.5 140q-60 90 -109 226t-49 246q0 209 100.5 341t282.5 132q59 0 135.5 -30.5t114.5 -30.5q46 0 130.5 32.5t149.5 32.5q188 0 297 -145q-74 -57 -119 -121.5
t-45 -166.5t53.5 -181.5t149.5 -120.5q-104 -254 -196.5 -327.5t-143.5 -73.5zM983 1395q0 -135 -90.5 -234.5t-212.5 -99.5q4 150 83 243t220 111v-20z" />
  </font>
</defs>
</svg>
