<?xml version="1.0" standalone="no"?>
<!DOCTYPE svg PUBLIC "-//W3C//DTD SVG 1.1//EN" "http://www.w3.org/Graphics/SVG/1.1/DTD/svg11.dtd" >
<svg xmlns="http://www.w3.org/2000/svg">
<metadata>
Created by FontPrep 20130207 at Mon Mar 28 10:29:44 2016
 By Mauricio Duran
Copyright 2015 Nissan Motors Co., Ltd. All rights reserved.
</metadata>
<defs>
<font id="a8e363129ad8a4145ee757f329c0e495" horiz-adv-x='1024' >
  <font-face 
    font-family="NissanBrand-Regular"
    font-weight="400"
    font-stretch="normal"
    units-per-em="2048"
    panose-1="2 11 5 4 2 2 4 3 2 4"
    ascent="1528"
    descent="-520"
    x-height="1051"
    cap-height="1331"
    bbox="-393 -614 2564 2179"
    underline-thickness="102"
    underline-position="-153"
    unicode-range="U+000D-FEFF"
  />
<missing-glyph horiz-adv-x="1007" 
d="M829 174v1188h-651v-1188h651zM1008 1536v-1536h-1008v1536h1008z" />
    <glyph glyph-name="f_i.liga" unicode="fi" horiz-adv-x="1183" 
d="M1030 0h-184v1051h184v-1051zM1042 1204h-208v189h208v-189zM551 1481q57 0 174 -27v-162q-96 25 -182 25q-168 0 -168 -156v-110h350v-158h-350v-893h-185v893h-200v158h200v112q0 178 98 248t263 70z" />
    <glyph glyph-name="f_l.liga" unicode="fl" horiz-adv-x="1183" 
d="M1030 0h-184v1415h184v-1415zM551 1481q57 0 174 -27v-162q-96 25 -182 25q-168 0 -168 -156v-110h350v-158h-350v-893h-185v893h-200v158h200v112q0 178 98 248t263 70z" />
    <glyph glyph-name="f_f.liga" unicode="ff" horiz-adv-x="1374" 
d="M1225 1317q-168 0 -168 -156v-110h350v-158h-350v-893h-185v893h-497v-893h-185v893h-200v158h200v112q0 178 98 248t263 70q57 0 174 -27v-162q-96 25 -182 25q-168 0 -168 -156v-110h497v112q0 178 98 248t263 70q57 0 174 -27v-162q-96 25 -182 25z" />
    <glyph glyph-name="f_f_i.liga" unicode="ffi" horiz-adv-x="1865" 
d="M1528 1051h184v-1051h-184v1051zM1724 1393v-189h-208v189h208zM872 1051v112q0 178 98 248t263 70q57 0 174 -27v-162q-96 25 -182 25q-168 0 -168 -156v-110h350v-158h-350v-893h-185v893h-497v-893h-185v893h-200v158h200v112q0 178 98 248t263 70q57 0 174 -27v-162
q-96 25 -182 25q-168 0 -168 -156v-110h497z" />
    <glyph glyph-name="f_f_l.liga" unicode="ffl" horiz-adv-x="1865" 
d="M1712 1415v-1415h-184v1415h184zM872 1051v112q0 178 98 248t263 70q57 0 174 -27v-162q-96 25 -182 25q-168 0 -168 -156v-110h350v-158h-350v-893h-185v893h-497v-893h-185v893h-200v158h200v112q0 178 98 248t263 70q57 0 174 -27v-162q-96 25 -182 25
q-168 0 -168 -156v-110h497z" />
    <glyph glyph-name=".notdef" horiz-adv-x="1007" 
d="M829 174v1188h-651v-1188h651zM1008 1536v-1536h-1008v1536h1008z" />
    <glyph glyph-name=".null" horiz-adv-x="0" 
 />
    <glyph glyph-name="nonmarkingreturn" horiz-adv-x="681" 
 />
    <glyph glyph-name="CR" unicode="&#xd;" horiz-adv-x="514" 
 />
    <glyph glyph-name="space" unicode=" " horiz-adv-x="514" 
 />
    <glyph glyph-name="exclam" unicode="!" horiz-adv-x="409" 
d="M307 0h-205v199h205v-199zM307 1331l-24 -969h-152l-25 969h201z" />
    <glyph glyph-name="quotedbl" unicode="&#x22;" horiz-adv-x="905" 
d="M686 1010h-137l-25 471h187zM356 1010h-135l-26 471h188z" />
    <glyph glyph-name="numbersign" unicode="#" horiz-adv-x="1228" 
d="M500 893l-60 -322h254l58 322h-252zM1147 1036v-143h-238l-57 -322h215v-145h-240l-75 -426h-158l74 426h-252l-76 -426h-158l76 426h-215v145h242l57 322h-215v143h240l79 445h158l-80 -445h252l80 445h158l-80 -445h213z" />
    <glyph glyph-name="dollar" unicode="$" horiz-adv-x="1230" 
d="M936 356q0 141 -199 195l-28 8v-395q106 20 167 70q60 50 60 122zM303 991q0 -131 195 -184l55 -16v385q-250 -27 -250 -185zM1135 362q0 -160 -111 -257t-315 -121v-189h-156v180q-227 2 -463 91v194q72 -21 124 -39q195 -69 339 -69v450l-129 35q-315 84 -315 354
q0 164 121 253q122 89 323 108v184h156v-182q182 -6 368 -68v-184q-231 70 -368 78v-432l127 -37q299 -83 299 -349z" />
    <glyph glyph-name="percent" unicode="%" horiz-adv-x="1806" 
d="M1403 608q-78 0 -119 -64t-41 -177q0 -250 156 -250q164 0 164 264q0 107 -41 167t-119 60zM1402 754q171 0 257 -110t86 -285t-87 -280t-257 -105t-256 104t-86 280t86 286t257 110zM408 1212q-162 0 -166 -264q-2 -106 40 -166t120 -61q78 1 122 65q43 64 41 175
q-3 251 -157 251zM662 0h-203l690 1331h199zM61 970q-1 174 87 280t258 106t256 -104t86 -281q0 -176 -86 -286t-258 -110t-257 110q-86 110 -86 285z" />
    <glyph glyph-name="ampersand" unicode="&#x26;" horiz-adv-x="1441" 
d="M508 608q-231 -131 -232 -276q0 -80 54 -138t157 -59q197 0 349 141q-242 228 -328 332zM262 1028q0 136 106 234t312 98q205 0 344 -68v-184q-182 86 -322 86q-76 0 -134 -22q-115 -45 -114 -149q1 -103 121 -242q121 -138 392 -382q49 51 115 141t89 134h213
q-139 -213 -288 -381q61 -49 179 -147t177 -146h-278q-63 49 -209 168q-107 -98 -241 -150t-261 -53q-182 0 -282 96q-99 95 -99 227t62 233t245 220q-75 93 -101 153t-26 134z" />
    <glyph glyph-name="quotesingle" unicode="'" horiz-adv-x="577" 
d="M356 1010h-135l-26 471h188z" />
    <glyph glyph-name="parenleft" unicode="(" horiz-adv-x="602" 
d="M279 573q0 -256 74 -443t142 -301t76 -128h-188q-137 239 -204 441t-67 434t68 434q66 200 203 440h186q-6 -12 -57 -96q-171 -282 -213 -532q-20 -120 -20 -249z" />
    <glyph glyph-name="parenright" unicode=")" horiz-adv-x="602" 
d="M324 574q0 266 -76 454t-142 299q-67 111 -73 123h186q137 -240 204 -440t67 -433t-68 -435q-66 -202 -203 -441h-188q8 14 57 96q170 287 214 529q22 120 22 248z" />
    <glyph glyph-name="asterisk" unicode="*" horiz-adv-x="774" 
d="M586 1276l-140 -191l236 23v-117l-231 27l135 -199l-103 -51l-94 211l-100 -215l-99 55l138 197l-236 -25v117l238 -23l-142 191l101 55l100 -211l96 211z" />
    <glyph glyph-name="plus" unicode="+" horiz-adv-x="1042" 
d="M608 172h-174v352h-352v174h352v353h174v-353h353v-174h-353v-352z" />
    <glyph glyph-name="comma" unicode="," horiz-adv-x="391" 
d="M172 -264h-172l127 463h213z" />
    <glyph glyph-name="hyphen" unicode="-" horiz-adv-x="839" 
d="M758 537h-676v174h676v-174z" />
    <glyph glyph-name="period" unicode="." horiz-adv-x="409" 
d="M307 0h-205v199h205v-199z" />
    <glyph glyph-name="slash" unicode="/" horiz-adv-x="1032" 
d="M242 -164h-201l745 1565h205z" />
    <glyph glyph-name="zero" unicode="0" horiz-adv-x="1384" 
d="M692 1180q-164 0 -278 -130t-115 -378q0 -248 117 -382q118 -134 272 -134t276 135t122 383t-115 377t-279 129zM692 1356q268 0 425 -188t157 -500t-161 -502t-422 -190t-421 188q-160 190 -160 502t158 502q156 188 424 188z" />
    <glyph glyph-name="one" unicode="1" horiz-adv-x="798" 
d="M584 0h-181v1130l-329 -90v168l510 148v-1356z" />
    <glyph glyph-name="two" unicode="2" horiz-adv-x="1191" 
d="M586 1356q214 0 344 -108t129 -294q0 -352 -647 -778h671v-176h-958v166q98 70 150 110l156 118q103 80 165 140q183 180 222 262q40 83 40 142q0 110 -72 176t-240 66t-380 -101v191q206 86 420 86z" />
    <glyph glyph-name="three" unicode="3" horiz-adv-x="1210" 
d="M1106 416q0 -215 -154 -328t-415 -113q-162 0 -410 70v186q274 -76 401 -75q381 0 385 262q0 150 -142 191q-113 34 -318 34h-93v129l408 385h-641v174h922v-139l-426 -393q176 -4 320 -85q75 -42 119 -119t44 -179z" />
    <glyph glyph-name="four" unicode="4" horiz-adv-x="1261" 
d="M829 469v322h181v-322h196v-166h-196v-303h-181v303h-747v127q150 225 349 472q200 247 390 429h236q-455 -444 -729 -862h501z" />
    <glyph glyph-name="five" unicode="5" horiz-adv-x="1218" 
d="M1004 1157h-625l-35 -326q117 27 242 27q242 0 382 -117t140 -313t-147 -324q-147 -129 -412 -129q-188 0 -432 76v182q266 -77 434 -77t267 70q100 70 100 194t-96 192t-263 68q-166 0 -412 -62l74 713h783v-174z" />
    <glyph glyph-name="six" unicode="6" horiz-adv-x="1245" 
d="M938 453q0 135 -90 209t-225 75q-135 0 -225 -80q-90 -81 -89 -209q0 -128 82 -210q83 -82 227 -82t232 81t88 216zM649 901q223 0 353 -128q130 -129 130 -321t-140 -334t-370 -142t-370 140q-139 142 -139 380t118 420q233 358 758 436v-178q-199 -27 -378 -125
t-253 -252q35 37 124 71t167 33z" />
    <glyph glyph-name="seven" unicode="7" horiz-adv-x="1112" 
d="M1055 1331v-119q-410 -623 -631 -1212l-197 2q213 563 602 1159h-753v170h979z" />
    <glyph glyph-name="eight" unicode="8" horiz-adv-x="1280" 
d="M640 616q-159 0 -248 -72t-89 -178q0 -108 101 -165q100 -57 234 -57t236 56q102 58 102 164t-88 180q-89 72 -248 72zM639 1190q-129 0 -208 -57t-79 -147t82 -152q82 -64 205 -64t207 62t84 153q0 89 -81 147t-210 58zM164 993q0 175 138 269t339 94t339 -93t138 -270
q0 -96 -68 -172t-159 -119q100 -34 187 -120t87 -207q0 -191 -145 -295q-146 -104 -380 -104t-380 106t-145 297q0 119 87 206t189 117q-227 117 -227 291z" />
    <glyph glyph-name="nine" unicode="9" horiz-adv-x="1245" 
d="M630 1176q-144 0 -232 -80t-89 -215q0 -135 90 -210q89 -75 225 -75t225 80t89 209t-82 210t-226 81zM113 880q0 192 141 334q142 142 372 142t368 -140t139 -382q0 -348 -246 -574t-629 -285v179q197 27 377 128t254 255q-35 -37 -125 -71t-168 -34q-221 0 -352 128
t-131 320z" />
    <glyph glyph-name="colon" unicode=":" horiz-adv-x="409" 
d="M307 0h-205v199h205v-199zM307 745h-205v199h205v-199z" />
    <glyph glyph-name="semicolon" unicode=";" horiz-adv-x="409" 
d="M143 -264h-172l127 463h213zM307 745h-205v199h205v-199z" />
    <glyph glyph-name="less" unicode="&#x3c;" horiz-adv-x="1206" 
d="M1124 997l-852 -331l852 -326v-176l-1042 409v189l1042 412v-177z" />
    <glyph glyph-name="equal" unicode="=" horiz-adv-x="1044" 
d="M963 289h-881v174h881v-174zM963 682h-881v174h881v-174z" />
    <glyph glyph-name="greater" unicode="&#x3e;" horiz-adv-x="1206" 
d="M1124 762v-189l-1042 -409v176l852 326l-852 331v177z" />
    <glyph glyph-name="question" unicode="?" horiz-adv-x="1136" 
d="M555 0h-205v199h205v-199zM516 1356q553 0 553 -363q0 -109 -54 -181t-131 -106q-77 -36 -153 -70t-130 -95t-54 -156v-61h-180v84q0 104 53 184t130 125q76 45 152 84t129 85t54 103q0 193 -373 193q-199 0 -442 -97v183q237 88 446 88z" />
    <glyph glyph-name="at" unicode="@" horiz-adv-x="1998" 
d="M992 780q-126 0 -200 -72t-73 -196q0 -125 77 -201q76 -75 202 -75t214 71v404q-94 69 -220 69zM1026 1423q362 0 609 -196q122 -96 192 -253t69 -356q0 -262 -114 -418t-278 -155q-163 0 -244 109q-113 -80 -269 -78q-195 2 -321 118t-127 314q0 198 124 318t324 120
q143 0 248 -63l14 51h136v-617q0 -104 104 -104q94 0 160 112q65 112 65 306q0 195 -99 343q-186 280 -599 277q-326 -1 -531 -205t-205 -512t221 -525q220 -216 562 -216q147 0 307 41v-176q-150 -33 -301 -33q-436 0 -703 260q-268 261 -268 653t257 638t667 247z" />
    <glyph glyph-name="A" unicode="A" horiz-adv-x="1357" 
d="M389 516h588q-162 403 -295 641q-133 -250 -293 -641zM1368 0h-201q-63 193 -123 344h-725q-82 -207 -122 -344h-207q133 403 309 794.5t266 536.5h228q122 -197 295.5 -603t279.5 -728z" />
    <glyph glyph-name="B" unicode="B" horiz-adv-x="1380" 
d="M356 596v-420h324q283 0 349 99q28 42 28 106q0 215 -369 215h-332zM356 1155v-389h340q315 0 316 205q0 120 -107 156q-84 28 -209 28h-340zM164 1331h575q129 -1 231 -29t172 -104q71 -76 70 -194q0 -221 -202 -308v-2q248 -82 247 -336q0 -204 -165 -285
q-146 -73 -402 -73h-526v1331z" />
    <glyph glyph-name="C" unicode="C" horiz-adv-x="1441" 
d="M893 1356q246 0 436 -86v-201q-207 106 -451.5 106.5t-408.5 -135t-164 -385.5q0 -131 53.5 -230t141.5 -157q172 -112 403 -112q125 0 213 18.5t223 71.5v-189q-197 -82 -446 -82q-249 -1 -441 97q-350 178 -350 598q0 158 64.5 295t175.5 221q225 170 551 170z" />
    <glyph glyph-name="D" unicode="D" horiz-adv-x="1460" 
d="M356 1155v-979h203q289 0 433.5 128t144.5 361.5t-136.5 361.5t-422.5 128h-222zM164 1331h452q308 0 510 -147q104 -76 163 -208t59 -308t-62 -308t-168 -208q-212 -153 -518 -152h-436v1331z" />
    <glyph glyph-name="E" unicode="E" horiz-adv-x="1226" 
d="M1104 1155h-748v-383h688v-174h-688v-422h748v-176h-940v1331h940v-176z" />
    <glyph glyph-name="F" unicode="F" horiz-adv-x="1193" 
d="M1102 1155h-746v-420h686v-176h-686v-559h-192v1331h938v-176z" />
    <glyph glyph-name="G" unicode="G" horiz-adv-x="1476" 
d="M912.5 1356q191.5 0 414.5 -82v-189q-246 90 -471 90.5t-388 -133t-163 -383.5q0 -302 257 -432q140 -71 304 -71t275 30v467h192v-596q-217 -82 -456 -82q-299 0 -525 154q-114 78 -182 213t-68 310t62.5 311.5t171 220.5t247 128t330 44z" />
    <glyph glyph-name="H" unicode="H" horiz-adv-x="1472" 
d="M1309 0h-193v575h-760v-575h-192v1331h192v-579h760v579h193v-1331z" />
    <glyph glyph-name="I" unicode="I" horiz-adv-x="520" 
d="M356 0h-192v1331h192v-1331z" />
    <glyph glyph-name="J" unicode="J" horiz-adv-x="929" 
d="M776 1331v-954q0 -184 -116 -293q-114 -109 -288 -109t-352 54v192q174 -63 324 -63q240 0 240 264v909h192z" />
    <glyph glyph-name="K" unicode="K" horiz-adv-x="1349" 
d="M1044 1331h295q-457 -377 -708 -663q410 -354 708 -668h-270q-293 303 -696 651q311 367 671 680zM356 0h-192v1331h192v-1331z" />
    <glyph glyph-name="L" unicode="L" horiz-adv-x="1140" 
d="M356 176h764v-176h-956v1331h192v-1155z" />
    <glyph glyph-name="M" unicode="M" horiz-adv-x="1769" 
d="M1253 1331h195q39 -117 55 -191q16 -73 41 -169t40 -180t50 -270t74 -521h-195q-90 672 -190 1071q-219 -526 -371 -930h-135q-317 840 -366 920q-104 -428 -193 -1061h-197q106 779 243 1240q22 75 26 91h194q178 -395 361 -870q190 469 368 870z" />
    <glyph glyph-name="N" unicode="N" horiz-adv-x="1486" 
d="M1323 0h-162l-807 1073v-1073h-190v1331h221l748 -995v995h190v-1331z" />
    <glyph glyph-name="O" unicode="O" horiz-adv-x="1622" 
d="M816 1176q-230 0 -370.5 -130.5t-140.5 -373t141.5 -377.5t368.5 -135t366.5 136t139.5 377t-137.5 372t-367.5 131zM820 1356q331 0 515.5 -187.5t184.5 -501.5t-192.5 -503t-514.5 -189t-516.5 188.5t-194.5 504t193.5 502t524.5 186.5z" />
    <glyph glyph-name="P" unicode="P" horiz-adv-x="1296" 
d="M356 1155v-545h336q134 0 226 64t92 208t-90 209t-228 64h-336zM164 1331h553q127 0 222 -39q93 -39 147 -86t92 -131q38 -85 36 -193q0 -108 -36 -191t-92 -130q-147 -127 -369 -127h-361v-434h-192v1331z" />
    <glyph glyph-name="Q" unicode="Q" horiz-adv-x="1622" 
d="M1321 673q1 241 -137 372t-368 131t-370 -130t-141 -373q0 -243 141 -378q140 -135 368 -135t368 136q139 136 139 377zM102 668q0 316 194 502t524 186q331 0 515 -188t185 -500q0 -209 -87 -366t-245 -241l184 -139l-115 -145l-292 211q-68 -12 -144 -13
q-331 1 -525 189t-194 504z" />
    <glyph glyph-name="R" unicode="R" horiz-adv-x="1351" 
d="M356 664h340q113 0 207 44q51 24 82 76t31 127q0 129 -89 186.5t-222 57.5h-349v-491zM356 487v-487h-192v1331h559q157 0 307 -77q82 -42 134.5 -129t52.5 -207q0 -170 -95.5 -273.5t-232.5 -138.5q192 -205 411 -506h-256q-168 248 -395 487h-293z" />
    <glyph glyph-name="S" unicode="S" horiz-adv-x="1239" 
d="M559.5 152q179.5 0 279 55t99.5 149q0 141 -199 195l-313 86q-315 84 -315 354q0 184 152 274.5t377.5 90.5t438.5 -70v-184q-258 80 -416 80t-258 -44t-100 -147q0 -131 195 -184l338 -96q299 -82 299 -349q0 -186 -147.5 -286.5t-402 -100.5t-495.5 91v194
q288 -108 467.5 -108z" />
    <glyph glyph-name="T" unicode="T" horiz-adv-x="1282" 
d="M1241 1155h-504v-1155h-192v1155h-504v176h1200v-176z" />
    <glyph glyph-name="U" unicode="U" horiz-adv-x="1470" 
d="M1307 1331v-760q1 -250 -121 -415q-134 -181 -457 -181t-457 181q-118 160 -118 415v760h192v-762q0 -414 381 -413q387 0 387 413v762h193z" />
    <glyph glyph-name="V" unicode="V" horiz-adv-x="1357" 
d="M1167 1331h201q-106 -322 -278 -725t-297 -606h-228q-90 144 -266 536t-309 795h207q43 -141 199 -531t286 -626q94 168 192 393t148 363t145 401z" />
    <glyph glyph-name="W" unicode="W" horiz-adv-x="1787" 
d="M1573 1331h199q-139 -668 -375 -1331h-203q-131 309 -305 782q-156 -455 -301 -782h-199q-76 207 -111.5 311.5t-118.5 405.5t-143 614h197q111 -535 283 -1075q139 313 321 854h148q37 -111 138 -389.5t185 -466.5q156 461 285 1077z" />
    <glyph glyph-name="X" unicode="X" horiz-adv-x="1294" 
d="M778 674l527 -674h-242l-420 543l-401 -543h-252l530 672l-526 659h248l399 -520l414 520h237z" />
    <glyph glyph-name="Y" unicode="Y" horiz-adv-x="1241" 
d="M717 0h-193v451q-78 102 -239.5 364t-294.5 516h225q170 -340 406 -704q209 317 399 704h231q-129 -248 -292.5 -512t-241.5 -368v-451z" />
    <glyph glyph-name="Z" unicode="Z" horiz-adv-x="1226" 
d="M1141 176v-176h-1059v170l807 985h-807v176h1063v-170l-805 -985h801z" />
    <glyph glyph-name="bracketleft" unicode="[" horiz-adv-x="602" 
d="M541 1450v-135h-203v-1477h203v-137h-377v1749h377z" />
    <glyph glyph-name="backslash" unicode="\" horiz-adv-x="1032" 
d="M246 1401l745 -1565h-200l-750 1565h205z" />
    <glyph glyph-name="bracketright" unicode="]" horiz-adv-x="602" 
d="M438 -299h-377v137h203v1477h-203v135h377v-1749z" />
    <glyph glyph-name="asciicircum" unicode="^" horiz-adv-x="974" 
d="M872 575h-167l-220 566l-215 -566h-168l310 756h149z" />
    <glyph glyph-name="underscore" unicode="_" horiz-adv-x="1024" 
d="M1024 -614h-1024v174h1024v-174z" />
    <glyph glyph-name="grave" unicode="`" horiz-adv-x="491" 
d="M430 1210h-162l-207 297h218z" />
    <glyph glyph-name="a" unicode="a" horiz-adv-x="1234" 
d="M303 328q0 -98 73 -141.5t181 -43.5q172 0 340 107v190q-139 74 -324 74q-270 0 -270 -186zM610.5 1073q231.5 0 351 -103.5t119.5 -348.5v-621h-139l-24 96q-178 -121 -376 -121t-315.5 91.5t-117.5 263.5t126.5 255t320.5 83t341 -74v61q0 150 -94 198t-251 48
t-378 -72v183q205 61 436.5 61z" />
    <glyph glyph-name="b" unicode="b" horiz-adv-x="1314" 
d="M649 147q178 0 279 109q100 110 100 274t-96 270t-276 105q-180 0 -318 -117v-546q133 -95 311 -95zM711 1073q215 0 363 -142t148 -400q0 -259 -163 -407q-164 -148 -376 -148t-376 102l-20 -78h-133v1415h184v-444q159 102 373 102z" />
    <glyph glyph-name="c" unicode="c" horiz-adv-x="1132" 
d="M670 1073q117 0 185.5 -13t168.5 -50v-183q-197 74 -352.5 74t-271 -98t-115.5 -267.5t109.5 -279t295.5 -109.5q68 0 107 6.5t52 7.5t48 11t41 12t51 16.5t51 16.5v-182q-199 -59 -366 -60q-248 0 -415 147.5t-167 401.5t166 401.5t412 147.5z" />
    <glyph glyph-name="d" unicode="d" horiz-adv-x="1314" 
d="M287 524q-1 -182 111 -280t274 -98t305 96v569q-131 94 -297 94t-280 -99q-113 -100 -113 -282zM1161 1415v-1415h-133l-20 78q-164 -102 -357 -103q-239 -1 -399 143t-160 400t163 406t400 149q190 0 322 -82v424h184z" />
    <glyph glyph-name="e" unicode="e" horiz-adv-x="1196" 
d="M631 901q-135 0 -234.5 -73t-111.5 -214h626q-4 127 -74.5 207t-205.5 80zM1100 457h-824q27 -309 388 -310q106 0 185 16.5t230 61.5v-178q-203 -72 -433.5 -72t-392 135.5t-161.5 407.5q0 143 45 254q45 110 123 174q155 126 373.5 126.5t342.5 -134.5t124 -373v-108z
" />
    <glyph glyph-name="f" unicode="f" horiz-adv-x="692" 
d="M551 1481q57 0 174 -27v-162q-96 25 -182 25q-168 0 -168 -156v-110h350v-158h-350v-893h-185v893h-200v158h200v112q0 178 98 248t263 70z" />
    <glyph glyph-name="g" unicode="g" horiz-adv-x="1314" 
d="M673 145q163 0 304 93v569q-133 98 -298 98t-278.5 -100t-113.5 -283.5t111.5 -280t274.5 -96.5zM1161 1047v-1006q0 -475 -538 -475q-223 0 -453 94v182q260 -104 426.5 -104t273.5 58.5t107 201.5v57q-154 -80 -326 -80q-238 0 -398.5 142.5t-160.5 398.5t163 406.5
t386 150.5t365 -104l18 78h137z" />
    <glyph glyph-name="h" unicode="h" horiz-adv-x="1320" 
d="M752 1073q211 0 313 -90t102 -319v-664h-184v631q0 147 -55.5 206.5t-216.5 59.5q-98 0 -201.5 -40t-171.5 -91v-766h-184v1415h184v-471q76 49 189.5 89t224.5 40z" />
    <glyph glyph-name="i" unicode="i" horiz-adv-x="491" 
d="M338 0h-184v1051h184v-1051zM350 1204h-209v189h209v-189z" />
    <glyph glyph-name="j" unicode="j" horiz-adv-x="468" 
d="M313 1051v-1168q0 -178 -96 -248t-260 -69q-57 0 -174 26v162q225 -59 305 12q41 36 41 119v1166h184zM328 1204h-209v189h209v-189z" />
    <glyph glyph-name="k" unicode="k" horiz-adv-x="1155" 
d="M844 1051h280q-360 -289 -528 -492q121 -98 316.5 -298t242.5 -261h-260q-270 315 -530 545q211 273 479 506zM338 0h-184v1415h184v-1415z" />
    <glyph glyph-name="l" unicode="l" horiz-adv-x="491" 
d="M338 0h-184v1415h184v-1415z" />
    <glyph glyph-name="m" unicode="m" horiz-adv-x="2002" 
d="M1464 1073q199 0 292 -90t93 -319v-664h-184v633q0 147 -51 205t-203 59q-152 0 -324 -129q6 -49 7 -104v-664h-185v633q0 147 -50 205q-51 58 -205 59q-154 0 -316 -129v-768h-184v1051h135l33 -117q70 51 180 95t209 44q258 0 338 -158q77 59 193 109t222 49z" />
    <glyph glyph-name="n" unicode="n" horiz-adv-x="1320" 
d="M752 1073q211 0 313 -90t102 -319v-664h-184v631q0 147 -55.5 206.5t-216.5 59.5q-98 0 -204 -40t-169 -91v-766h-184v1051h135l30 -121q68 51 190 97t243 46z" />
    <glyph glyph-name="o" unicode="o" horiz-adv-x="1310" 
d="M655.5 901q-161.5 0 -266 -103.5t-104.5 -269.5t95 -272t275 -106q179 0 275 108t96 272t-104.5 267.5t-266 103.5zM655.5 1073q237.5 0 400.5 -145.5t163 -406.5t-163 -403.5t-402 -142.5t-400.5 142.5t-161.5 403.5t163 406.5t400.5 145.5z" />
    <glyph glyph-name="p" unicode="p" horiz-adv-x="1314" 
d="M649 147q178 0 279 109q100 108 100 272t-96 270t-276 107q-180 0 -318 -119v-544q133 -95 311 -95zM701 1073q225 0 373 -143t148 -400q0 -258 -163 -406q-164 -148 -389 -149q-182 0 -332 86v-471h-184v1461h135l26 -99q162 121 386 121z" />
    <glyph glyph-name="q" unicode="q" horiz-adv-x="1314" 
d="M671 145q161 0 306 95v571q-131 94 -297 94t-280 -99q-114 -100 -114 -282t112 -280t273 -99zM1161 1051v-1461h-184v467q-158 -82 -326 -82q-239 -1 -399 143t-160 400t163 406t387 150t364 -101l18 78h137z" />
    <glyph glyph-name="r" unicode="r" horiz-adv-x="823" 
d="M338 0h-184v1051h135l33 -117q218 137 454 139v-184q-285 -2 -438 -123v-766z" />
    <glyph glyph-name="s" unicode="s" horiz-adv-x="1050" 
d="M537 1073q199 0 389 -55v-178q-190 63 -384 63q-194 1 -238 -57q-22 -28 -23 -72q0 -84 151 -119l234 -53q147 -35 225 -99.5t78 -209.5q0 -176 -128 -247t-340 -71t-419 58v178q215 -66 399 -66q301 0 301 150q0 53 -37.5 82t-107.5 47l-307 74q-113 27 -175.5 100.5
t-62.5 167.5q1 307 445 307z" />
    <glyph glyph-name="t" unicode="t" horiz-adv-x="817" 
d="M725 1051v-158h-350v-598q0 -156 168 -156q100 0 213 37v-164q-125 -37 -205 -37q-166 0 -263.5 70t-97.5 248v600h-200v158h200l25 268h160v-268h350z" />
    <glyph glyph-name="u" unicode="u" horiz-adv-x="1308" 
d="M1155 1051v-1051h-135l-27 96q-205 -121 -450 -121q-170 0 -279.5 99.5t-109.5 306.5v670h184v-621q0 -162 68.5 -222.5t201.5 -60.5q207 0 363 105v799h184z" />
    <glyph glyph-name="v" unicode="v" horiz-adv-x="1103" 
d="M920 1051h204q-201 -520 -501 -1051h-148q-299 530 -495 1051h210q162 -442 367 -813q207 377 363 813z" />
    <glyph glyph-name="w" unicode="w" horiz-adv-x="1757" 
d="M1577 1051h190q-164 -569 -407 -1051h-166q-76 160 -171 399.5t-138 380.5q-100 -309 -330 -780h-160q-254 518 -405 1051h200q154 -504 291 -818q94 188 196.5 453.5t127.5 364.5h188q29 -111 114 -356.5t177 -458.5q146 313 293 815z" />
    <glyph glyph-name="x" unicode="x" horiz-adv-x="1071" 
d="M662 516l411 -516h-239l-289 385l-307 -385h-244l426 516l-430 535h231l320 -406l307 406h233z" />
    <glyph glyph-name="y" unicode="y" horiz-adv-x="1107" 
d="M213 -410l246 437q-291 524 -479 1024h204q150 -412 379 -828q188 373 350 828h215q-246 -674 -702 -1461h-213z" />
    <glyph glyph-name="z" unicode="z" horiz-adv-x="1091" 
d="M1010 158v-158h-928v164l686 729h-657v158h888v-164l-682 -729h693z" />
    <glyph glyph-name="braceleft" unicode="{" horiz-adv-x="698" 
d="M10 647q137 0 210 54t73 241v74q0 221 94 322t342 112v-135q-164 -13 -213 -71t-49 -226v-74q0 -164 -37 -235q-55 -111 -223 -134q166 -23 221 -133q39 -76 39 -237v-78q0 -168 49 -225t213 -66v-135q-252 11 -344 113t-92 321v70q0 189 -73 243t-210 58v141z" />
    <glyph glyph-name="bar" unicode="|" horiz-adv-x="520" 
d="M356 -512h-192v2048h192v-2048z" />
    <glyph glyph-name="braceright" unicode="}" horiz-adv-x="698" 
d="M406 135q0 -219 -92 -320t-345 -114v135q164 8 213 66t49 225v78q0 162 39 237q55 111 222 133q-168 23 -224 134q-37 72 -37 235v74q0 168 -49 226t-213 71v135q248 -10 342 -112t95 -322v-74q0 -186 77 -246q68 -49 205 -49v-141q-137 -4 -210 -58t-72 -243v-70z" />
    <glyph glyph-name="asciitilde" unicode="~" horiz-adv-x="1046" 
d="M965 772q0 -104 -73 -171t-179 -66q-61 -1 -176 37t-171 38t-90 -19q-35 -19 -36 -56h-158q0 104 73 171t179 66q63 0 176 -38t169 -38t91 20t37 56h158z" />
    <glyph glyph-name="uni00A0" unicode="&#xa0;" horiz-adv-x="514" 
 />
    <glyph glyph-name="exclamdown" unicode="&#xa1;" horiz-adv-x="409" 
d="M131 688h152l24 -969h-201zM102 852v199h205v-199h-205z" />
    <glyph glyph-name="cent" unicode="&#xa2;" horiz-adv-x="1132" 
d="M727 -61h-180v178q-203 37 -329 178t-126 360t127 361t328 178v201h180v-191q135 -6 297 -63v-183q-196 74 -352 74t-272 -98t-116 -268t110 -278q110 -110 296 -109q75 0 111 6q35 6 48 7q26 2 89 23l51 17q45 14 51 16v-182q-174 -53 -313 -60v-167z" />
    <glyph glyph-name="sterling" unicode="&#xa3;" horiz-adv-x="1134" 
d="M1114 0h-950v127q88 79 126 147t38 197v217h-185v158h185v172q0 178 85 258t275 80q129 0 285 -45v-172q-165 41 -271 41t-144 -37t-38 -125v-172h338v-158h-338v-237q0 -219 -123 -275h717v-176z" />
    <glyph glyph-name="currency" unicode="&#xa4;" horiz-adv-x="1228" 
d="M596 969q-121 0 -207 -85t-86 -206t86 -206t207 -85t206 85t85 206t-85 206t-206 85zM1034 678q0 -129 -86 -256l131 -131l-96 -96l-133 129q-121 -84 -255 -84t-255 84l-133 -129l-96 96l129 133q-84 121 -84 255t84 255l-131 131l96 96l133 -129q119 82 254 82t260 -82
l131 129l96 -96l-131 -133q86 -125 86 -254z" />
    <glyph glyph-name="yen" unicode="&#xa5;" horiz-adv-x="1226" 
d="M1155 735v-157h-446v-154h446v-158h-446v-266h-193v266h-444v158h444v154h-444v157h348q-227 293 -430 596h219q207 -326 407 -598q169 227 396 598h225q-260 -367 -436 -596h354z" />
    <glyph glyph-name="brokenbar" unicode="&#xa6;" horiz-adv-x="520" 
d="M356 -512h-192v860h192v-860zM164 1503h192v-827h-192v827z" />
    <glyph glyph-name="section" unicode="&#xa7;" horiz-adv-x="991" 
d="M336 571q0 -61 76 -96l88 -43q86 41 121 78t35 97t-76 95l-95 46q-81 -36 -115 -76t-34 -101zM848 106q0 -126 -97 -202t-280 -76q-127 0 -287 41v178q152 -47 271 -47t159 27t41 69q0 42 -27 65q-28 22 -130 70l-195 97q-160 78 -160 211q-1 96 49 159t166 111l-12 6
q-203 96 -203 272q1 127 99 198t242 71t282 -33v-178q-136 39 -244 39t-146 -23t-38 -67t31 -73q31 -28 125 -75l194 -96q160 -78 160 -211q0 -97 -50 -159t-171 -107l18 -11q115 -55 159 -111t44 -145z" />
    <glyph glyph-name="dieresis" unicode="&#xa8;" horiz-adv-x="729" 
d="M668 1204h-201v197h201v-197zM262 1204h-201v197h201v-197z" />
    <glyph glyph-name="copyright" unicode="&#xa9;" horiz-adv-x="1744" 
d="M893 1165q127 0 272 -49l-2 -137q-159 55 -281 55t-204 -75t-82 -206t77 -215t206 -83q129 0 299 61v-143q-135 -49 -311 -49t-299 112q-122 114 -122 310t125 308t322 111zM1552 739q0 283 -198 482q-199 199 -483 199q-285 0 -481 -198t-196 -479t196 -479t480 -196
q284 0 483 194t199 477zM1642 743q0 -325 -221 -545t-551 -220t-548 218t-220 544q0 326 220 549q220 222 550 222t550 -222t220 -546z" />
    <glyph glyph-name="ordfeminine" unicode="&#xaa;" horiz-adv-x="1120" 
d="M154 174h813v-174h-813v174zM526 602q143 0 273 78v139q-125 57 -252 58q-213 0 -213 -144q0 -71 58 -101t134 -30zM598 1356q186 0 278 -82q91 -82 91 -297v-516h-127l-23 65q-155 -86 -309 -86t-253 75t-99 221t105 222t261 76t277 -57v29q1 114 -63 152t-198 38
t-329 -57v166q203 51 389 51z" />
    <glyph glyph-name="guillemotleft" unicode="&#xab;" horiz-adv-x="1042" 
d="M709 545l200 -393h-153l-219 403l217 393h153zM305 545l201 -393h-154l-219 403l219 393h152z" />
    <glyph glyph-name="logicalnot" unicode="&#xac;" horiz-adv-x="1044" 
d="M788 223v357h-706v174h881v-531h-175z" />
    <glyph glyph-name="softhyphen" unicode="&#xad;" horiz-adv-x="839" 
d="M758 537h-676v174h676v-174z" />
    <glyph glyph-name="registered" unicode="&#xae;" horiz-adv-x="1110" 
d="M467 918h96q94 0 94 72t-98 71h-92v-143zM756 991q0 -115 -101 -149q43 -55 131 -180h-108q-84 119 -127 167h-84v-167h-94v485h194q77 0 133 -38t56 -118zM554 537q154 0 262 105t108 259q0 153 -108 261t-262 108t-261 -106t-107 -260q0 -153 106 -260t262 -107z
M555 1356q195 0 324 -131t129 -321t-130 -321q-130 -130 -324 -130t-323 128t-129 320q0 191 129 323t324 132z" />
    <glyph glyph-name="macron" unicode="&#xaf;" horiz-adv-x="684" 
d="M623 1260h-562v157h562v-157z" />
    <glyph glyph-name="degree" unicode="&#xb0;" horiz-adv-x="716" 
d="M276 1171q57 0 98 40q40 39 40 97t-40 98t-98 40t-97 -40q-40 -40 -40 -97t40 -97t97 -41zM276 1053q-106 1 -181 75t-75 180t75 182q75 75 181 75t182 -75t74 -181q0 -106 -74 -182q-76 -74 -182 -74z" />
    <glyph glyph-name="plusminus" unicode="&#xb1;" horiz-adv-x="1050" 
d="M944 0h-838v174h838v-174zM612 291h-174v254h-332v174h332v307h174v-307h332v-174h-332v-254z" />
    <glyph glyph-name="twosuperior" unicode="&#xb2;" 
d="M414 1542q270 0 270 -231q0 -103 -82 -209t-221 -191h319v-127h-559v107q397 268 398 418q0 100 -140 100q-94 0 -235 -49v135q135 47 250 47z" />
    <glyph glyph-name="threesuperior" unicode="&#xb3;" 
d="M719 1022q0 -126 -92 -190q-93 -64 -227 -64t-267 35v135q135 -37 244 -37q197 0 196 117q0 59 -60 81t-179 21h-80v90l199 187h-316v127h539v-113l-209 -176q252 -20 252 -213z" />
    <glyph glyph-name="acute" unicode="&#xb4;" horiz-adv-x="491" 
d="M223 1210h-162l152 297h217z" />
    <glyph glyph-name="uni00B5" unicode="&#xb5;" horiz-adv-x="1288" 
d="M1135 0h-136l-26 96q-205 -121 -430 -121q-111 0 -205 45v-430h-184v1461h184v-621q0 -162 69 -222t201 -61q186 0 342 105v799h185v-1051z" />
    <glyph glyph-name="paragraph" unicode="&#xb6;" horiz-adv-x="1191" 
d="M1028 -154h-180v1328h-186v-1328h-181v676q-399 35 -399 400q0 410 512 409h434v-1485z" />
    <glyph glyph-name="periodcentered" unicode="&#xb7;" horiz-adv-x="409" 
d="M307 526h-205v199h205v-199z" />
    <glyph glyph-name="cedilla" unicode="&#xb8;" horiz-adv-x="532" 
d="M471 -233q0 -190 -229 -191q-86 0 -181 27v137q107 -33 187 -33t80 62q0 51 -92 51q-45 0 -82 -6l63 196h125l-27 -90q156 -16 156 -153z" />
    <glyph glyph-name="onesuperior" unicode="&#xb9;" 
d="M418 786v582l-213 -49v127l350 94v-754h-137z" />
    <glyph glyph-name="ordmasculine" unicode="&#xba;" horiz-adv-x="1124" 
d="M969 0h-813v174h813v-174zM562 1194q-128 0 -210 -82t-82 -212t76 -214t218 -84t217 84t75 214t-83 212t-211 82zM562 1354q200 0 335 -121t135 -339t-135 -337t-335 -119t-335 119t-135 337t135 339t335 121z" />
    <glyph glyph-name="guillemotright" unicode="&#xbb;" horiz-adv-x="1042" 
d="M909 555l-219 -403h-153l200 393l-198 403h151zM506 555l-219 -403h-154l201 393l-199 403h154z" />
    <glyph glyph-name="onequarter" unicode="&#xbc;" horiz-adv-x="1779" 
d="M1716 172h-121v-172h-133v172h-432v100q162 256 340 465h176q-199 -219 -344 -438h260v219h133v-219h121v-127zM653 0h-202l690 1331h198zM418 582v581l-213 -49v127l350 94v-753h-137z" />
    <glyph glyph-name="onehalf" unicode="&#xbd;" horiz-adv-x="1835" 
d="M1430 756q270 0 270 -232q0 -104 -82 -210t-221 -189h319v-127h-559v106q397 268 397 418q0 100 -139 101q-94 0 -235 -50v136q135 47 250 47zM653 0h-202l690 1331h198zM418 582v581l-213 -49v127l350 94v-753h-137z" />
    <glyph glyph-name="threequarters" unicode="&#xbe;" horiz-adv-x="1785" 
d="M1722 172h-120v-172h-134v172h-432v100q162 256 340 465h176q-199 -219 -344 -438h260v219h134v-219h120v-127zM457 0l690 1331h199l-687 -1331h-202zM719 829q0 -127 -92 -190q-93 -63 -227 -63t-267 34v135q135 -37 244 -36q197 0 196 116q0 59 -60 81t-179 22h-80v90
l199 186h-316v127h539v-112l-209 -177q252 -20 252 -213z" />
    <glyph glyph-name="questiondown" unicode="&#xbf;" horiz-adv-x="1136" 
d="M621 -305q-553 0 -553 362q0 109 54 181t130 108t152 69q76 34 132 95q54 61 54 156v61h180v-84q0 -88 -38 -160q-38 -73 -96 -113q-124 -86 -254 -151t-130 -158q0 -193 373 -192q199 0 442 96v-182q-237 -88 -446 -88zM582 1051h204v-199h-204v199z" />
    <glyph glyph-name="Agrave" unicode="&#xc0;" horiz-adv-x="1357" 
d="M389 516h588q-162 403 -295 641q-133 -250 -293 -641zM1368 0h-201q-63 193 -123 344h-725q-82 -207 -122 -344h-207q133 403 309 794.5t266 536.5h228q122 -197 295.5 -603t279.5 -728zM614 1454l-206 297h217l151 -297h-162z" />
    <glyph glyph-name="Aacute" unicode="&#xc1;" horiz-adv-x="1357" 
d="M389 516h588q-162 403 -295 641q-133 -250 -293 -641zM1368 0h-201q-63 193 -123 344h-725q-82 -207 -122 -344h-207q133 403 309 794.5t266 536.5h228q122 -197 295.5 -603t279.5 -728zM754 1454h-162l151 297h218z" />
    <glyph glyph-name="Acircumflex" unicode="&#xc2;" horiz-adv-x="1357" 
d="M389 516h588q-162 403 -295 641q-133 -250 -293 -641zM1368 0h-201q-63 193 -123 344h-725q-82 -207 -122 -344h-207q133 403 309 794.5t266 536.5h228q122 -197 295.5 -603t279.5 -728zM526 1454h-166l207 297h226l206 -297h-165l-154 176z" />
    <glyph glyph-name="Atilde" unicode="&#xc3;" horiz-adv-x="1357" 
d="M389 516h588q-162 403 -295 641q-133 -250 -293 -641zM1368 0h-201q-63 193 -123 344h-725q-82 -207 -122 -344h-207q133 403 309 794.5t266 536.5h228q122 -197 295.5 -603t279.5 -728zM556 1565q-32 0 -46 -14.5t-23 -47.5h-122q12 90 61 144.5t131 54.5
q45 0 122 -27.5t112 -27.5q61 0 69 61h123q-12 -90 -61.5 -144.5t-130.5 -54.5q-39 0 -121 28t-114 28z" />
    <glyph glyph-name="Adieresis" unicode="&#xc4;" horiz-adv-x="1357" 
d="M389 516h588q-162 403 -295 641q-133 -250 -293 -641zM1368 0h-201q-63 193 -123 344h-725q-82 -207 -122 -344h-207q133 403 309 794.5t266 536.5h228q122 -197 295.5 -603t279.5 -728zM985 1448h-205v201h205v-201zM580 1448h-205v201h205v-201z" />
    <glyph glyph-name="Aring" unicode="&#xc5;" horiz-adv-x="1357" 
d="M389 516h588q-162 403 -295 641q-133 -250 -293 -641zM1368 0h-201q-63 193 -123 344h-725q-82 -207 -122 -344h-207q133 403 309 794.5t266 536.5h228q122 -197 295.5 -603t279.5 -728zM679.5 1714q-106.5 0 -106.5 -82t106.5 -82t106.5 82t-106.5 82zM680 1456
q-98 0 -152.5 48t-54.5 128t54.5 128t152.5 48t152.5 -48t54.5 -128t-54.5 -128t-152.5 -48z" />
    <glyph glyph-name="AE" unicode="&#xc6;" horiz-adv-x="1955" 
d="M969 543v620q-240 -287 -453 -620h453zM1163 1155v-383h615v-174h-615v-422h670v-176h-862v367h-563q-86 -139 -213 -367h-226q244 428 486.5 775t427.5 556h950v-176h-670z" />
    <glyph glyph-name="Ccedilla" unicode="&#xc7;" horiz-adv-x="1441" 
d="M889 -25h-10l-17 -55q156 -16 156 -153q0 -190 -230 -191q-86 0 -180 27v137q106 -33 186.5 -33t79.5 62q0 51 -92 51q-45 0 -82 -6l56 170q-265 33 -450 187q-204 169 -204 491q0 164 64.5 302t175.5 222q225 170 551 170q246 0 436 -86v-201q-207 106 -451.5 106.5
t-408.5 -135t-164 -385.5q0 -131 53.5 -230t141.5 -157q172 -112 403 -112q125 0 213 18.5t223 71.5v-189q-196 -82 -450 -82z" />
    <glyph glyph-name="Egrave" unicode="&#xc8;" horiz-adv-x="1226" 
d="M1104 1155h-748v-383h688v-174h-688v-422h748v-176h-940v1331h940v-176zM731 1454h-162l-207 297h218z" />
    <glyph glyph-name="Eacute" unicode="&#xc9;" horiz-adv-x="1226" 
d="M1104 1155h-748v-383h688v-174h-688v-422h748v-176h-940v1331h940v-176zM709 1454h-162l151 297h217z" />
    <glyph glyph-name="Ecircumflex" unicode="&#xca;" horiz-adv-x="1226" 
d="M1104 1155h-748v-383h688v-174h-688v-422h748v-176h-940v1331h940v-176zM954 1454h-166l-153 176l-154 -176h-166l207 297h226z" />
    <glyph glyph-name="Edieresis" unicode="&#xcb;" horiz-adv-x="1226" 
d="M1104 1155h-748v-383h688v-174h-688v-422h748v-176h-940v1331h940v-176zM940 1448h-205v201h205v-201zM535 1448h-205v201h205v-201z" />
    <glyph glyph-name="Igrave" unicode="&#xcc;" horiz-adv-x="520" 
d="M356 0h-192v1331h192v-1331zM356 1454h-161l-207 297h217z" />
    <glyph glyph-name="Iacute" unicode="&#xcd;" horiz-adv-x="520" 
d="M356 0h-192v1331h192v-1331zM334 1454h-162l152 297h217z" />
    <glyph glyph-name="Icircumflex" unicode="&#xce;" horiz-adv-x="520" 
d="M356 0h-192v1331h192v-1331zM580 1454h-166l-154 176l-154 -176h-165l206 297h226z" />
    <glyph glyph-name="Idieresis" unicode="&#xcf;" horiz-adv-x="520" 
d="M356 0h-192v1331h192v-1331zM565 1448h-205v201h205v-201zM160 1448h-205v201h205v-201z" />
    <glyph glyph-name="Eth" unicode="&#xd0;" horiz-adv-x="1447" 
d="M356 176h203q289 0 433.5 128t144.5 361.5t-136.5 361.5t-422.5 128h-222v-379h422v-176h-422v-424zM164 1331h452q308 0 510 -147q104 -76 163 -208t59 -308t-62 -308t-168 -208q-212 -153 -518 -152h-436v600h-164v176h164v555z" />
    <glyph glyph-name="Ntilde" unicode="&#xd1;" horiz-adv-x="1486" 
d="M1323 0h-162l-807 1073v-1073h-190v1331h221l748 -995v995h190v-1331zM868 1509q-39 0 -120.5 28t-113.5 28t-46.5 -14.5t-22.5 -47.5h-123q12 90 61.5 144.5t131.5 54.5q45 0 122 -27.5t111 -27.5q62 0 70 61h123q-12 -90 -61.5 -144.5t-131.5 -54.5z" />
    <glyph glyph-name="Ograve" unicode="&#xd2;" horiz-adv-x="1622" 
d="M816 1176q-230 0 -370.5 -130.5t-140.5 -373t141.5 -377.5t368.5 -135t366.5 136t139.5 377t-137.5 372t-367.5 131zM820 1356q331 0 515.5 -187.5t184.5 -501.5t-192.5 -503t-514.5 -189t-516.5 188.5t-194.5 504t193.5 502t524.5 186.5zM897 1454h-162l-207 297h217z
" />
    <glyph glyph-name="Oacute" unicode="&#xd3;" horiz-adv-x="1622" 
d="M816 1176q-230 0 -370.5 -130.5t-140.5 -373t141.5 -377.5t368.5 -135t366.5 136t139.5 377t-137.5 372t-367.5 131zM820 1356q331 0 515.5 -187.5t184.5 -501.5t-192.5 -503t-514.5 -189t-516.5 188.5t-194.5 504t193.5 502t524.5 186.5zM874 1454h-161l151 297h217z
" />
    <glyph glyph-name="Ocircumflex" unicode="&#xd4;" horiz-adv-x="1622" 
d="M816 1176q-230 0 -370.5 -130.5t-140.5 -373t141.5 -377.5t368.5 -135t366.5 136t139.5 377t-137.5 372t-367.5 131zM820 1356q331 0 515.5 -187.5t184.5 -501.5t-192.5 -503t-514.5 -189t-516.5 188.5t-194.5 504t193.5 502t524.5 186.5zM1120 1454h-166l-153 176
l-154 -176h-166l207 297h225z" />
    <glyph glyph-name="Otilde" unicode="&#xd5;" horiz-adv-x="1622" 
d="M816 1176q-230 0 -370.5 -130.5t-140.5 -373t141.5 -377.5t368.5 -135t366.5 136t139.5 377t-137.5 372t-367.5 131zM820 1356q331 0 515.5 -187.5t184.5 -501.5t-192.5 -503t-514.5 -189t-516.5 188.5t-194.5 504t193.5 502t524.5 186.5zM911 1509q-39 0 -120.5 28
t-112.5 28q-55 0 -70 -62h-123q12 90 61.5 144.5t131.5 54.5q45 0 122 -27.5t111.5 -27.5t50 14t19.5 47h123q-12 -90 -61.5 -144.5t-131.5 -54.5z" />
    <glyph glyph-name="Odieresis" unicode="&#xd6;" horiz-adv-x="1622" 
d="M816 1176q-230 0 -370.5 -130.5t-140.5 -373t141.5 -377.5t368.5 -135t366.5 136t139.5 377t-137.5 372t-367.5 131zM820 1356q331 0 515.5 -187.5t184.5 -501.5t-192.5 -503t-514.5 -189t-516.5 188.5t-194.5 504t193.5 502t524.5 186.5zM1106 1448h-205v201h205v-201z
M700 1448h-204v201h204v-201z" />
    <glyph glyph-name="multiply" unicode="&#xd7;" horiz-adv-x="1042" 
d="M893 362l-123 -122l-248 247l-250 -247l-122 122l247 250l-247 248l122 123l250 -248l248 248l123 -123l-248 -248z" />
    <glyph glyph-name="Oslash" unicode="&#xd8;" horiz-adv-x="1622" 
d="M821 160q221 0 360.5 136t139.5 360.5t-104 353.5l-664 -791q114 -59 268 -59zM305 687.5q0 -228.5 117 -365.5l665 792q-113 61 -268 62q-233 0 -373.5 -130t-140.5 -358.5zM821 -25q-229 0 -395 95l-107 -127l-126 106l100 119q-190 186 -190.5 500.5t193 501
t523.5 186.5q229 0 393 -94l91 108l127 -106l-87 -103q176 -186 176.5 -497t-192 -500t-506.5 -189z" />
    <glyph glyph-name="Ugrave" unicode="&#xd9;" horiz-adv-x="1470" 
d="M1307 1331v-760q1 -250 -121 -415q-134 -181 -457 -181t-457 181q-118 160 -118 415v760h192v-762q0 -414 381 -413q387 0 387 413v762h193zM811 1454h-162l-207 297h217z" />
    <glyph glyph-name="Uacute" unicode="&#xda;" horiz-adv-x="1470" 
d="M1307 1331v-760q1 -250 -121 -415q-134 -181 -457 -181t-457 181q-118 160 -118 415v760h192v-762q0 -414 381 -413q387 0 387 413v762h193zM788 1454h-161l151 297h217z" />
    <glyph glyph-name="Ucircumflex" unicode="&#xdb;" horiz-adv-x="1470" 
d="M1307 1331v-760q1 -250 -121 -415q-134 -181 -457 -181t-457 181q-118 160 -118 415v760h192v-762q0 -414 381 -413q387 0 387 413v762h193zM1034 1454h-166l-153 176l-154 -176h-166l207 297h225z" />
    <glyph glyph-name="Udieresis" unicode="&#xdc;" horiz-adv-x="1470" 
d="M1307 1331v-760q1 -250 -121 -415q-134 -181 -457 -181t-457 181q-118 160 -118 415v760h192v-762q0 -414 381 -413q387 0 387 413v762h193zM1020 1448h-205v201h205v-201zM614 1448h-204v201h204v-201z" />
    <glyph glyph-name="Yacute" unicode="&#xdd;" horiz-adv-x="1241" 
d="M717 0h-193v451q-78 102 -239.5 364t-294.5 516h225q170 -340 406 -704q209 317 399 704h231q-129 -248 -292.5 -512t-241.5 -368v-451zM688 1454h-162l152 297h217z" />
    <glyph glyph-name="Thorn" unicode="&#xde;" horiz-adv-x="1296" 
d="M356 938v-545h336q134 -1 226 63t92 208t-90 210q-90 64 -228 64h-336zM356 1114h361q127 0 222 -39q93 -39 147 -86t92 -131t36 -192q0 -108 -36 -192q-36 -83 -92 -130q-147 -127 -369 -127h-361v-217h-192v1331h192v-217z" />
    <glyph glyph-name="germandbls" unicode="&#xdf;" horiz-adv-x="1179" 
d="M154 1118q0 190 90 276t275 87q185 0 287 -84t101 -232q0 -148 -88 -224q-37 -31 -75 -55q-89 -55 -89 -106q0 -33 23 -52t98 -48l133 -51q115 -43 172 -116t58 -191q1 -168 -103 -257t-297 -90q-127 0 -288 58v196q53 -37 137 -59t153 -23q205 0 205 175q0 102 -141 155
l-178 66q-164 61 -164 227q0 136 89 192q38 24 75 44q88 48 88 151q0 152 -201 152q-94 0 -135 -44t-41 -143v-1122h-184v1118z" />
    <glyph glyph-name="agrave" unicode="&#xe0;" horiz-adv-x="1234" 
d="M303 328q0 -98 73 -141.5t181 -43.5q172 0 340 107v190q-139 74 -324 74q-270 0 -270 -186zM610.5 1073q231.5 0 351 -103.5t119.5 -348.5v-621h-139l-24 96q-178 -121 -376 -121t-315.5 91.5t-117.5 263.5t126.5 255t320.5 83t341 -74v61q0 150 -94 198t-251 48
t-378 -72v183q205 61 436.5 61zM543 1210l-207 297h217l152 -297h-162z" />
    <glyph glyph-name="aacute" unicode="&#xe1;" horiz-adv-x="1234" 
d="M303 328q0 -98 73 -141.5t181 -43.5q172 0 340 107v190q-139 74 -324 74q-270 0 -270 -186zM610.5 1073q231.5 0 351 -103.5t119.5 -348.5v-621h-139l-24 96q-178 -121 -376 -121t-315.5 91.5t-117.5 263.5t126.5 255t320.5 83t341 -74v61q0 150 -94 198t-251 48
t-378 -72v183q205 61 436.5 61zM694 1210h-162l152 297h217z" />
    <glyph glyph-name="acircumflex" unicode="&#xe2;" horiz-adv-x="1234" 
d="M303 328q0 -98 73 -141.5t181 -43.5q172 0 340 107v190q-139 74 -324 74q-270 0 -270 -186zM610.5 1073q231.5 0 351 -103.5t119.5 -348.5v-621h-139l-24 96q-178 -121 -376 -121t-315.5 91.5t-117.5 263.5t126.5 255t320.5 83t341 -74v61q0 150 -94 198t-251 48
t-378 -72v183q205 61 436.5 61zM461 1210h-166l207 297h225l207 -297h-166l-154 176z" />
    <glyph glyph-name="atilde" unicode="&#xe3;" horiz-adv-x="1234" 
d="M303 328q0 -98 73 -141.5t181 -43.5q172 0 340 107v190q-139 74 -324 74q-270 0 -270 -186zM610.5 1073q231.5 0 351 -103.5t119.5 -348.5v-621h-139l-24 96q-178 -121 -376 -121t-315.5 91.5t-117.5 263.5t126.5 255t320.5 83t341 -74v61q0 150 -94 198t-251 48
t-378 -72v183q205 61 436.5 61zM498 1319q-55 0 -70 -62h-123q12 90 61.5 144.5t131.5 54.5q45 0 121.5 -27.5t111.5 -27.5t50.5 14.5t19.5 46.5h123q-12 -90 -61.5 -144t-131.5 -54q-39 0 -120.5 27.5t-112.5 27.5z" />
    <glyph glyph-name="adieresis" unicode="&#xe4;" horiz-adv-x="1234" 
d="M303 328q0 -98 73 -141.5t181 -43.5q172 0 340 107v190q-139 74 -324 74q-270 0 -270 -186zM610.5 1073q231.5 0 351 -103.5t119.5 -348.5v-621h-139l-24 96q-178 -121 -376 -121t-315.5 91.5t-117.5 263.5t126.5 255t320.5 83t341 -74v61q0 150 -94 198t-251 48
t-378 -72v183q205 61 436.5 61zM918 1204h-201v197h201v-197zM512 1204h-201v197h201v-197z" />
    <glyph glyph-name="aring" unicode="&#xe5;" horiz-adv-x="1234" 
d="M303 328q0 -98 73 -141.5t181 -43.5q172 0 340 107v190q-139 74 -324 74q-270 0 -270 -186zM610.5 1073q231.5 0 351 -103.5t119.5 -348.5v-621h-139l-24 96q-178 -121 -376 -121t-315.5 91.5t-117.5 263.5t126.5 255t320.5 83t341 -74v61q0 150 -94 198t-251 48
t-378 -72v183q205 61 436.5 61zM608.5 1446q-106.5 0 -106.5 -82t106.5 -82t106.5 82t-106.5 82zM608.5 1188q-98.5 0 -153 48t-54.5 128t54.5 128t153 48t152.5 -48t54 -128t-54 -128t-152.5 -48z" />
    <glyph glyph-name="ae" unicode="&#xe6;" horiz-adv-x="2000" 
d="M573 514q-270 0 -270 -186q0 -98 73 -141.5t181 -43.5q199 0 383 133q-31 78 -39 162q-154 76 -328 76zM1435.5 901q-135.5 0 -234.5 -72.5t-111 -212.5h626q-4 127 -74.5 206t-206 79zM1440 1073q217 0 341 -135t124 -373v-108h-824q27 -309 387 -310q106 0 185.5 16.5
t230.5 61.5v-178q-203 -72 -424 -72q-293 0 -444 179q-152 -98 -260.5 -138.5t-231.5 -40.5q-180 0 -297.5 91.5t-117.5 263.5t126.5 255t320.5 83t341 -74v61q0 150 -94 198t-251 48t-378 -72v183q205 61 412 61q328 0 430 -176q152 176 424 176z" />
    <glyph glyph-name="ccedilla" unicode="&#xe7;" horiz-adv-x="1132" 
d="M848 -233q0 -190 -230 -191q-86 0 -180 27v137q106 -33 186.5 -33t80.5 62q0 51 -93 51q-45 0 -82 -6l54 168q-215 27 -353.5 170t-138.5 384.5t166 389t412 147.5q117 0 185.5 -13t168.5 -50v-183q-197 74 -352.5 74t-271 -98t-115.5 -267.5t109.5 -279t295.5 -109.5
q68 0 107 6.5t52 7.5t48 11t41 12t51 16.5t51 16.5v-182q-182 -55 -331 -60l-17 -55q156 -16 156 -153z" />
    <glyph glyph-name="egrave" unicode="&#xe8;" horiz-adv-x="1196" 
d="M631 901q-135 0 -234.5 -73t-111.5 -214h626q-4 127 -74.5 207t-205.5 80zM1100 457h-824q27 -309 388 -310q106 0 185 16.5t230 61.5v-178q-203 -72 -433.5 -72t-392 135.5t-161.5 407.5q0 143 45 254q45 110 123 174q155 126 373.5 126.5t342.5 -134.5t124 -373v-108z
M547 1210l-207 297h217l152 -297h-162z" />
    <glyph glyph-name="eacute" unicode="&#xe9;" horiz-adv-x="1196" 
d="M631 901q-135 0 -234.5 -73t-111.5 -214h626q-4 127 -74.5 207t-205.5 80zM1100 457h-824q27 -309 388 -310q106 0 185 16.5t230 61.5v-178q-203 -72 -433.5 -72t-392 135.5t-161.5 407.5q0 143 45 254q45 110 123 174q155 126 373.5 126.5t342.5 -134.5t124 -373v-108z
M698 1210h-161l151 297h217z" />
    <glyph glyph-name="ecircumflex" unicode="&#xea;" horiz-adv-x="1196" 
d="M631 901q-135 0 -234.5 -73t-111.5 -214h626q-4 127 -74.5 207t-205.5 80zM1100 457h-824q27 -309 388 -310q106 0 185 16.5t230 61.5v-178q-203 -72 -433.5 -72t-392 135.5t-161.5 407.5q0 143 45 254q45 110 123 174q155 126 373.5 126.5t342.5 -134.5t124 -373v-108z
M465 1210h-166l207 297h225l207 -297h-166l-154 176z" />
    <glyph glyph-name="edieresis" unicode="&#xeb;" horiz-adv-x="1196" 
d="M631 901q-135 0 -234.5 -73t-111.5 -214h626q-4 127 -74.5 207t-205.5 80zM1100 457h-824q27 -309 388 -310q106 0 185 16.5t230 61.5v-178q-203 -72 -433.5 -72t-392 135.5t-161.5 407.5q0 143 45 254q45 110 123 174q155 126 373.5 126.5t342.5 -134.5t124 -373v-108z
M922 1204h-201v197h201v-197zM516 1204h-201v197h201v-197z" />
    <glyph glyph-name="igrave" unicode="&#xec;" horiz-adv-x="491" 
d="M338 0h-184v1051h184v-1051zM336 1210h-162l-207 297h217z" />
    <glyph glyph-name="iacute" unicode="&#xed;" horiz-adv-x="491" 
d="M338 0h-184v1051h184v-1051zM326 1210h-162l151 297h217z" />
    <glyph glyph-name="icircumflex" unicode="&#xee;" horiz-adv-x="491" 
d="M338 0h-184v1051h184v-1051zM246 1386l-154 -176h-166l207 297h225l207 -297h-166z" />
    <glyph glyph-name="idieresis" unicode="&#xef;" horiz-adv-x="491" 
d="M338 0h-184v1051h184v-1051zM549 1204h-201v197h201v-197zM143 1204h-200v197h200v-197z" />
    <glyph glyph-name="eth" unicode="&#xf0;" horiz-adv-x="1310" 
d="M660 150q181 0 274 119q92 120 92 335l-2 66q-104 84 -196 116t-222 33q-129 0 -225 -89q-96 -88 -96 -234t97 -246t278 -100zM1219 604q0 -317 -160 -473t-401 -156q-242 1 -404 137t-162 378t146 371q146 130 361 130q214 0 398 -121q-45 197 -182 308l-145 -103
l-76 111l94 65q-102 45 -256 74l49 156q219 -45 363 -121l174 121l76 -111l-131 -92q256 -211 256 -674z" />
    <glyph glyph-name="ntilde" unicode="&#xf1;" horiz-adv-x="1320" 
d="M752 1073q211 0 313 -90t102 -319v-664h-184v631q0 147 -55.5 206.5t-216.5 59.5q-98 0 -204 -40t-169 -91v-766h-184v1051h135l30 -121q68 51 190 97t243 46zM540 1319q-32 0 -46.5 -14.5t-22.5 -47.5h-123q12 90 61.5 144.5t131.5 54.5q45 0 121.5 -27.5t111.5 -27.5
q61 0 70 61h123q-12 -90 -61.5 -144t-131.5 -54q-39 0 -120.5 27.5t-113.5 27.5z" />
    <glyph glyph-name="ograve" unicode="&#xf2;" horiz-adv-x="1310" 
d="M655.5 901q-161.5 0 -266 -103.5t-104.5 -269.5t95 -272t275 -106q179 0 275 108t96 272t-104.5 267.5t-266 103.5zM655.5 1073q237.5 0 400.5 -145.5t163 -406.5t-163 -403.5t-402 -142.5t-400.5 142.5t-161.5 403.5t163 406.5t400.5 145.5zM745 1210h-161l-207 297h217
z" />
    <glyph glyph-name="oacute" unicode="&#xf3;" horiz-adv-x="1310" 
d="M655.5 901q-161.5 0 -266 -103.5t-104.5 -269.5t95 -272t275 -106q179 0 275 108t96 272t-104.5 267.5t-266 103.5zM655.5 1073q237.5 0 400.5 -145.5t163 -406.5t-163 -403.5t-402 -142.5t-400.5 142.5t-161.5 403.5t163 406.5t400.5 145.5zM735 1210h-162l152 297h217z
" />
    <glyph glyph-name="ocircumflex" unicode="&#xf4;" horiz-adv-x="1310" 
d="M655.5 901q-161.5 0 -266 -103.5t-104.5 -269.5t95 -272t275 -106q179 0 275 108t96 272t-104.5 267.5t-266 103.5zM655.5 1073q237.5 0 400.5 -145.5t163 -406.5t-163 -403.5t-402 -142.5t-400.5 142.5t-161.5 403.5t163 406.5t400.5 145.5zM655 1386l-153 -176h-166
l207 297h225l207 -297h-166z" />
    <glyph glyph-name="otilde" unicode="&#xf5;" horiz-adv-x="1310" 
d="M655.5 901q-161.5 0 -266 -103.5t-104.5 -269.5t95 -272t275 -106t275.5 107.5t95.5 272t-104.5 268t-266 103.5zM655.5 1073q237.5 0 400.5 -145.5t163 -406.5t-163 -403.5t-402 -142.5t-400.5 142.5t-161.5 403.5t163 406.5t400.5 145.5zM772 1264q-39 0 -121 27.5
t-112 27.5q-55 0 -70 -62h-123q12 90 61.5 144.5t131.5 54.5q45 0 121.5 -27.5t111.5 -27.5t50.5 14t19.5 47h123q-12 -90 -61.5 -144t-131.5 -54z" />
    <glyph glyph-name="odieresis" unicode="&#xf6;" horiz-adv-x="1310" 
d="M655.5 901q-161.5 0 -266 -103.5t-104.5 -269.5t95 -272t275 -106q179 0 275 108t96 272t-104.5 267.5t-266 103.5zM655.5 1073q237.5 0 400.5 -145.5t163 -406.5t-163 -403.5t-402 -142.5t-400.5 142.5t-161.5 403.5t163 406.5t400.5 145.5zM958 1204h-200v197h200v-197
zM553 1204h-201v197h201v-197z" />
    <glyph glyph-name="divide" unicode="&#xf7;" horiz-adv-x="1044" 
d="M623 172h-205v199h205v-199zM82 698h881v-174h-881v174zM623 852h-205v199h205v-199z" />
    <glyph glyph-name="oslash" unicode="&#xf8;" horiz-adv-x="1310" 
d="M657 150q178 0 273.5 107.5t95.5 254.5t-72 246l-479 -572q80 -36 182 -36zM285 538.5q0 -155.5 71 -251.5l480 573q-78 41 -181 41q-162 0 -266 -103.5t-104 -259zM653 -25q-166 0 -297 70l-82 -98l-122 96l79 96q-139 145 -139 394t163 394.5t400 145.5q166 0 299 -74
l82 99l123 -97l-80 -96q139 -150 139.5 -397.5t-162.5 -390t-403 -142.5z" />
    <glyph glyph-name="ugrave" unicode="&#xf9;" horiz-adv-x="1308" 
d="M1155 1051v-1051h-135l-27 96q-205 -121 -450 -121q-170 0 -279.5 99.5t-109.5 306.5v670h184v-621q0 -162 68.5 -222.5t201.5 -60.5q207 0 363 105v799h184zM584 1210l-207 297h217l151 -297h-161z" />
    <glyph glyph-name="uacute" unicode="&#xfa;" horiz-adv-x="1308" 
d="M1155 1051v-1051h-135l-27 96q-205 -121 -450 -121q-170 0 -279.5 99.5t-109.5 306.5v670h184v-621q0 -162 68.5 -222.5t201.5 -60.5q207 0 363 105v799h184zM735 1210h-162l152 297h217z" />
    <glyph glyph-name="ucircumflex" unicode="&#xfb;" horiz-adv-x="1308" 
d="M1155 1051v-1051h-135l-27 96q-205 -121 -450 -121q-170 0 -279.5 99.5t-109.5 306.5v670h184v-621q0 -162 68.5 -222.5t201.5 -60.5q207 0 363 105v799h184zM502 1210h-166l207 297h225l207 -297h-166l-154 176z" />
    <glyph glyph-name="udieresis" unicode="&#xfc;" horiz-adv-x="1308" 
d="M1155 1051v-1051h-135l-27 96q-205 -121 -450 -121q-170 0 -279.5 99.5t-109.5 306.5v670h184v-621q0 -162 68.5 -222.5t201.5 -60.5q207 0 363 105v799h184zM958 1204h-200v197h200v-197zM553 1204h-201v197h201v-197z" />
    <glyph glyph-name="yacute" unicode="&#xfd;" horiz-adv-x="1107" 
d="M213 -410l246 437q-291 524 -479 1024h204q150 -412 379 -828q188 373 350 828h215q-246 -674 -702 -1461h-213zM606 1210h-162l152 297h217z" />
    <glyph glyph-name="thorn" unicode="&#xfe;" horiz-adv-x="1314" 
d="M649 147q178 0 279 109q100 110 100 274t-96 270t-276 105q-180 0 -318 -117v-546q133 -95 311 -95zM711 1073q215 0 363 -142t148 -400q0 -259 -163 -407q-164 -148 -389 -149q-172 0 -332 84v-469h-184v1825h184v-444q159 102 373 102z" />
    <glyph glyph-name="ydieresis" unicode="&#xff;" horiz-adv-x="1107" 
d="M213 -410l246 437q-291 524 -479 1024h204q150 -412 379 -828q188 373 350 828h215q-246 -674 -702 -1461h-213zM829 1204h-200v197h200v-197zM424 1204h-201v197h201v-197z" />
    <glyph glyph-name="Amacron" unicode="&#x100;" horiz-adv-x="1357" 
d="M389 516h588q-162 403 -295 641q-133 -250 -293 -641zM1368 0h-201q-63 193 -123 344h-725q-82 -207 -122 -344h-207q133 403 309 794.5t266 536.5h228q122 -197 295.5 -603t279.5 -728zM961 1466h-562v158h562v-158z" />
    <glyph glyph-name="amacron" unicode="&#x101;" horiz-adv-x="1234" 
d="M303 328q0 -98 73 -141.5t181 -43.5q172 0 340 107v190q-139 74 -324 74q-270 0 -270 -186zM610.5 1073q231.5 0 351 -103.5t119.5 -348.5v-621h-139l-24 96q-178 -121 -376 -121t-315.5 91.5t-117.5 263.5t126.5 255t320.5 83t341 -74v61q0 150 -94 198t-251 48
t-378 -72v183q205 61 436.5 61zM895 1260h-561v157h561v-157z" />
    <glyph glyph-name="Abreve" unicode="&#x102;" horiz-adv-x="1357" 
d="M389 516h588q-162 403 -295 641q-133 -250 -293 -641zM1368 0h-201q-63 193 -123 344h-725q-82 -207 -122 -344h-207q133 403 309 794.5t266 536.5h228q122 -197 295.5 -603t279.5 -728zM680 1450q-264 0 -291 244h158q14 -109 133 -109t133 109h158q-27 -244 -291 -244z
" />
    <glyph glyph-name="abreve" unicode="&#x103;" horiz-adv-x="1234" 
d="M303 328q0 -98 73 -141.5t181 -43.5q172 0 340 107v190q-139 74 -324 74q-270 0 -270 -186zM610.5 1073q231.5 0 351 -103.5t119.5 -348.5v-621h-139l-24 96q-178 -121 -376 -121t-315.5 91.5t-117.5 263.5t126.5 255t320.5 83t341 -74v61q0 150 -94 198t-251 48
t-378 -72v183q205 61 436.5 61zM618.5 1214q-264.5 0 -290.5 244h157q14 -109 133 -108.5t134 108.5h157q-26 -244 -290.5 -244z" />
    <glyph glyph-name="Aogonek" unicode="&#x104;" horiz-adv-x="1357" 
d="M389 516h588q-162 403 -295 641q-133 -250 -293 -641zM1181.5 -240q64.5 0 157.5 47l2 -139q-92 -41 -184 -41q-193 0 -192 150q0 78 64.5 140.5t135.5 90.5q-63 184 -121 336h-725q-82 -207 -122 -344h-207q133 403 309 794.5t266 536.5h228q122 -197 295.5 -603
t279.5 -728h-45q-94 -43 -150.5 -93t-56 -98.5t65 -48.5z" />
    <glyph glyph-name="aogonek" unicode="&#x105;" horiz-adv-x="1234" 
d="M303 328q0 -98 73 -141.5t181 -43.5q172 0 340 107v190q-139 74 -324 74q-270 0 -270 -186zM932 -373q-193 0 -193 150q0 78 64.5 140.5t136.5 90.5l-22 88q-178 -121 -376 -121t-315.5 91.5t-117.5 263.5t126.5 255t320.5 83t341 -74v61q0 150 -94 198t-251 48t-378 -72
v183q205 61 436.5 61t351 -103.5t119.5 -348.5v-621q-190 -100 -190 -188q0 -51 64.5 -51.5t158.5 46.5l2 -139q-92 -41 -184 -41z" />
    <glyph glyph-name="Cacute" unicode="&#x106;" horiz-adv-x="1441" 
d="M893 1356q246 0 436 -86v-201q-207 106 -451.5 106.5t-408.5 -135t-164 -385.5q0 -131 53.5 -230t141.5 -157q172 -112 403 -112q125 0 213 18.5t223 71.5v-189q-197 -82 -446 -82q-249 -1 -441 97q-350 178 -350 598q0 158 64.5 295t175.5 221q225 170 551 170z
M907 1454h-162l152 297h217z" />
    <glyph glyph-name="cacute" unicode="&#x107;" horiz-adv-x="1132" 
d="M670 1073q117 0 185.5 -13t168.5 -50v-183q-197 74 -352.5 74t-271 -98t-115.5 -267.5t109.5 -279t295.5 -109.5q68 0 107 6.5t52 7.5t48 11t41 12t51 16.5t51 16.5v-182q-199 -59 -366 -60q-248 0 -415 147.5t-167 401.5t166 401.5t412 147.5zM727 1210h-162l152 297
h217z" />
    <glyph glyph-name="Ccircumflex" unicode="&#x108;" horiz-adv-x="1441" 
d="M893 1356q246 0 436 -86v-201q-207 106 -451.5 106.5t-408.5 -135t-164 -385.5q0 -131 53.5 -230t141.5 -157q172 -112 403 -112q125 0 213 18.5t223 71.5v-189q-197 -82 -446 -82q-249 -1 -441 97q-350 178 -350 598q0 158 64.5 295t175.5 221q225 170 551 170z
M1153 1454h-166l-153 176l-154 -176h-166l207 297h225z" />
    <glyph glyph-name="ccircumflex" unicode="&#x109;" horiz-adv-x="1132" 
d="M670 1073q117 0 185.5 -13t168.5 -50v-183q-197 74 -352.5 74t-271 -98t-115.5 -267.5t109.5 -279t295.5 -109.5q68 0 107 6.5t52 7.5t48 11t41 12t51 16.5t51 16.5v-182q-199 -59 -366 -60q-248 0 -415 147.5t-167 401.5t166 401.5t412 147.5zM647 1386l-153 -176h-166
l207 297h225l207 -297h-166z" />
    <glyph glyph-name="Cdotaccent" unicode="&#x10a;" horiz-adv-x="1441" 
d="M893 1356q246 0 436 -86v-201q-207 106 -451.5 106.5t-408.5 -135t-164 -385.5q0 -131 53.5 -230t141.5 -157q172 -112 403 -112q125 0 213 18.5t223 71.5v-189q-197 -82 -446 -82q-249 -1 -441 97q-350 178 -350 598q0 158 64.5 295t175.5 221q225 170 551 170z
M936 1448h-205v201h205v-201z" />
    <glyph glyph-name="cdotaccent" unicode="&#x10b;" horiz-adv-x="1132" 
d="M670 1073q117 0 185.5 -13t168.5 -50v-183q-197 74 -352.5 74t-271 -98t-115.5 -267.5t109.5 -279t295.5 -109.5q68 0 107 6.5t52 7.5t48 11t41 12t51 16.5t51 16.5v-182q-199 -59 -366 -60q-248 0 -415 147.5t-167 401.5t166 401.5t412 147.5zM748 1204h-201v197h201
v-197z" />
    <glyph glyph-name="Ccaron" unicode="&#x10c;" horiz-adv-x="1441" 
d="M893 1356q246 0 436 -86v-201q-207 106 -451.5 106.5t-408.5 -135t-164 -385.5q0 -131 53.5 -230t141.5 -157q172 -112 403 -112q125 0 213 18.5t223 71.5v-189q-197 -82 -446 -82q-249 -1 -441 97q-350 178 -350 598q0 158 64.5 295t175.5 221q225 170 551 170z
M946 1454h-225l-207 297h166l154 -176l153 176h166z" />
    <glyph glyph-name="ccaron" unicode="&#x10d;" horiz-adv-x="1132" 
d="M670 1073q117 0 185.5 -13t168.5 -50v-183q-197 74 -352.5 74t-271 -98t-115.5 -267.5t109.5 -279t295.5 -109.5q68 0 107 6.5t52 7.5t48 11t41 12t51 16.5t51 16.5v-182q-199 -59 -366 -60q-248 0 -415 147.5t-167 401.5t166 401.5t412 147.5zM760 1210h-225l-207 297
h166l153 -176l154 176h166z" />
    <glyph glyph-name="Dcaron" unicode="&#x10e;" horiz-adv-x="1460" 
d="M356 1155v-979h203q289 0 433.5 128t144.5 361.5t-136.5 361.5t-422.5 128h-222zM164 1331h452q308 0 510 -147q104 -76 163 -208t59 -308t-62 -308t-168 -208q-212 -153 -518 -152h-436v1331zM774 1454h-225l-207 297h166l154 -176l153 176h166z" />
    <glyph glyph-name="dcaron" unicode="&#x10f;" horiz-adv-x="1521" 
d="M287 524q-1 -182 111 -280t274 -98t305 96v569q-131 94 -297 94t-280 -99q-113 -100 -113 -282zM1532 1415l-131 -340h-152l90 340h193zM977 1415h184v-1415h-133l-20 78q-164 -102 -357 -103q-239 -1 -399 143t-160 400t163 406t400 149q190 0 322 -82v424z" />
    <glyph glyph-name="Dcroat" unicode="&#x110;" horiz-adv-x="1447" 
d="M356 176h203q289 0 433.5 128t144.5 361.5t-136.5 361.5t-422.5 128h-222v-379h422v-176h-422v-424zM164 1331h452q308 0 510 -147q104 -76 163 -208t59 -308t-62 -308t-168 -208q-212 -153 -518 -152h-436v600h-164v176h164v555z" />
    <glyph glyph-name="dcroat" unicode="&#x111;" horiz-adv-x="1314" 
d="M287 524q-1 -182 111 -280t274 -98t305 96v569q-131 94 -297 94t-280 -99q-113 -100 -113 -282zM1386 1315v-158h-225v-1157h-133l-20 78q-164 -102 -357 -103q-239 -1 -399 143t-160 400t163 406t400 149q190 0 322 -82v166h-291v158h291v100h184v-100h225z" />
    <glyph glyph-name="Emacron" unicode="&#x112;" horiz-adv-x="1226" 
d="M1104 1155h-748v-383h688v-174h-688v-422h748v-176h-940v1331h940v-176zM915 1466h-561v158h561v-158z" />
    <glyph glyph-name="emacron" unicode="&#x113;" horiz-adv-x="1196" 
d="M631 901q-135 0 -234.5 -73t-111.5 -214h626q-4 127 -74.5 207t-205.5 80zM1100 457h-824q27 -309 388 -310q106 0 185 16.5t230 61.5v-178q-203 -72 -433.5 -72t-392 135.5t-161.5 407.5q0 143 45 254q45 110 123 174q155 126 373.5 126.5t342.5 -134.5t124 -373v-108z
M899 1260h-561v157h561v-157z" />
    <glyph glyph-name="Ebreve" unicode="&#x114;" horiz-adv-x="1226" 
d="M1104 1155h-748v-383h688v-174h-688v-422h748v-176h-940v1331h940v-176zM635 1450q-264 0 -291 244h158q14 -109 133 -109t133 109h158q-27 -244 -291 -244z" />
    <glyph glyph-name="ebreve" unicode="&#x115;" horiz-adv-x="1196" 
d="M631 901q-135 0 -234.5 -73t-111.5 -214h626q-4 127 -74.5 207t-205.5 80zM1100 457h-824q27 -309 388 -310q106 0 185 16.5t230 61.5v-178q-203 -72 -433.5 -72t-392 135.5t-161.5 407.5q0 143 45 254q45 110 123 174q155 126 373.5 126.5t342.5 -134.5t124 -373v-108z
M622.5 1214q-264.5 0 -290.5 244h157q14 -109 133 -108.5t134 108.5h157q-26 -244 -290.5 -244z" />
    <glyph glyph-name="Edotaccent" unicode="&#x116;" horiz-adv-x="1226" 
d="M1104 1155h-748v-383h688v-174h-688v-422h748v-176h-940v1331h940v-176zM737 1448h-205v201h205v-201z" />
    <glyph glyph-name="edotaccent" unicode="&#x117;" horiz-adv-x="1196" 
d="M631 901q-135 0 -234.5 -73t-111.5 -214h626q-4 127 -74.5 207t-205.5 80zM1100 457h-824q27 -309 388 -310q106 0 185 16.5t230 61.5v-178q-203 -72 -433.5 -72t-392 135.5t-161.5 407.5q0 143 45 254q45 110 123 174q155 126 373.5 126.5t342.5 -134.5t124 -373v-108z
M719 1204h-201v197h201v-197z" />
    <glyph glyph-name="Eogonek" unicode="&#x118;" horiz-adv-x="1226" 
d="M356 1155v-383h688v-174h-688v-422h748v-176h-133q-94 -43 -150.5 -93t-56.5 -95q0 -52 64 -52t159 47l2 -139q-92 -41 -184 -41q-193 0 -193 150q0 72 55.5 130t127.5 93h-631v1331h940v-176h-748z" />
    <glyph glyph-name="eogonek" unicode="&#x119;" horiz-adv-x="1196" 
d="M631 901q-135 0 -234.5 -73t-111.5 -214h626q-4 127 -74.5 207t-205.5 80zM1100 457h-824q27 -309 388 -310q106 0 185 16.5t230 61.5v-178q-49 -18 -143 -39q-100 -43 -161.5 -95t-61.5 -102t64.5 -50.5t158.5 46.5l2 -139q-92 -41 -184 -41q-193 0 -193 150
q0 115 139 198h-45q-240 0 -401.5 135.5t-161.5 407.5q0 143 45 254q45 110 123 174q155 126 373.5 126.5t342.5 -134.5t124 -373v-108z" />
    <glyph glyph-name="Ecaron" unicode="&#x11a;" horiz-adv-x="1226" 
d="M1104 1155h-748v-383h688v-174h-688v-422h748v-176h-940v1331h940v-176zM748 1454h-226l-207 297h166l154 -176l153 176h166z" />
    <glyph glyph-name="ecaron" unicode="&#x11b;" horiz-adv-x="1196" 
d="M631 901q-135 0 -234.5 -73t-111.5 -214h626q-4 127 -74.5 207t-205.5 80zM1100 457h-824q27 -309 388 -310q106 0 185 16.5t230 61.5v-178q-203 -72 -433.5 -72t-392 135.5t-161.5 407.5q0 143 45 254q45 110 123 174q155 126 373.5 126.5t342.5 -134.5t124 -373v-108z
M506 1210l-207 297h166l153 -176l154 176h166l-207 -297h-225z" />
    <glyph glyph-name="Gcircumflex" unicode="&#x11c;" horiz-adv-x="1476" 
d="M912.5 1356q191.5 0 414.5 -82v-189q-246 90 -471 90.5t-388 -133t-163 -383.5q0 -302 257 -432q140 -71 304 -71t275 30v467h192v-596q-217 -82 -456 -82q-299 0 -525 154q-114 78 -182 213t-68 310t62.5 311.5t171 220.5t247 128t330 44zM1120 1454h-166l-153 176
l-154 -176h-166l207 297h225z" />
    <glyph glyph-name="gcircumflex" unicode="&#x11d;" horiz-adv-x="1314" 
d="M673 145q163 0 304 93v569q-133 98 -298 98t-278.5 -100t-113.5 -283.5t111.5 -280t274.5 -96.5zM1161 1047v-1006q0 -475 -538 -475q-223 0 -453 94v182q260 -104 426.5 -104t273.5 58.5t107 201.5v57q-154 -80 -326 -80q-238 0 -398.5 142.5t-160.5 398.5t163 406.5
t386 150.5t365 -104l18 78h137zM510 1210h-166l207 297h225l207 -297h-166l-153 176z" />
    <glyph glyph-name="Gbreve" unicode="&#x11e;" horiz-adv-x="1476" 
d="M912.5 1356q191.5 0 414.5 -82v-189q-246 90 -471 90.5t-388 -133t-163 -383.5q0 -302 257 -432q140 -71 304 -71t275 30v467h192v-596q-217 -82 -456 -82q-299 0 -525 154q-114 78 -182 213t-68 310t62.5 311.5t171 220.5t247 128t330 44zM801 1450q-264 0 -291 244h158
q14 -109 133 -109t133 109h158q-27 -244 -291 -244z" />
    <glyph glyph-name="gbreve" unicode="&#x11f;" horiz-adv-x="1314" 
d="M673 145q163 0 304 93v569q-133 98 -298 98t-278.5 -100t-113.5 -283.5t111.5 -280t274.5 -96.5zM1161 1047v-1006q0 -475 -538 -475q-223 0 -453 94v182q260 -104 426.5 -104t273.5 58.5t107 201.5v57q-154 -80 -326 -80q-238 0 -398.5 142.5t-160.5 398.5t163 406.5
t386 150.5t365 -104l18 78h137zM667.5 1214q-264.5 0 -290.5 244h158q14 -109 132.5 -108.5t133.5 108.5h157q-26 -244 -290.5 -244z" />
    <glyph glyph-name="Gdotaccent" unicode="&#x120;" horiz-adv-x="1476" 
d="M912.5 1356q191.5 0 414.5 -82v-189q-246 90 -471 90.5t-388 -133t-163 -383.5q0 -302 257 -432q140 -71 304 -71t275 30v467h192v-596q-217 -82 -456 -82q-299 0 -525 154q-114 78 -182 213t-68 310t62.5 311.5t171 220.5t247 128t330 44zM903 1448h-205v201h205v-201z
" />
    <glyph glyph-name="gdotaccent" unicode="&#x121;" horiz-adv-x="1314" 
d="M673 145q163 0 304 93v569q-133 98 -298 98t-278.5 -100t-113.5 -283.5t111.5 -280t274.5 -96.5zM1161 1047v-1006q0 -475 -538 -475q-223 0 -453 94v182q260 -104 426.5 -104t273.5 58.5t107 201.5v57q-154 -80 -326 -80q-238 0 -398.5 142.5t-160.5 398.5t163 406.5
t386 150.5t365 -104l18 78h137zM764 1204h-201v197h201v-197z" />
    <glyph glyph-name="Gcommaaccent" unicode="&#x122;" horiz-adv-x="1476" 
d="M803 -451h-141l90 338h182zM912.5 1356q191.5 0 414.5 -82v-189q-246 90 -471 90.5t-388 -133t-163 -383.5q0 -302 257 -432q140 -71 304 -71t275 30v467h192v-596q-217 -82 -456 -82q-299 0 -525 154q-114 78 -182 213t-68 310t62.5 311.5t171 220.5t247 128t330 44z
" />
    <glyph glyph-name="gcommaaccent" unicode="&#x123;" horiz-adv-x="1314" 
d="M673 145q163 0 304 93v569q-133 98 -298 98t-278.5 -100t-113.5 -283.5t111.5 -280t274.5 -96.5zM1161 1047v-1006q0 -475 -538 -475q-223 0 -453 94v182q260 -104 426.5 -104t273.5 58.5t107 201.5v57q-154 -80 -326 -80q-238 0 -398.5 142.5t-160.5 398.5t163 406.5
t386 150.5t365 -104l18 78h137zM709 1217h-183l131 337h142z" />
    <glyph glyph-name="Hcircumflex" unicode="&#x124;" horiz-adv-x="1472" 
d="M1309 0h-193v575h-760v-575h-192v1331h192v-579h760v579h193v-1331zM1057 1454h-166l-154 176l-153 -176h-166l207 297h225z" />
    <glyph glyph-name="hcircumflex" unicode="&#x125;" horiz-adv-x="1320" 
d="M752 1073q211 0 313 -90t102 -319v-664h-184v631q0 147 -55.5 206.5t-216.5 59.5q-98 0 -201.5 -40t-171.5 -91v-766h-184v1415h184v-471q76 49 189.5 89t224.5 40zM324 1497h-166l207 297h225l207 -297h-166l-154 176z" />
    <glyph glyph-name="Hbar" unicode="&#x126;" horiz-adv-x="1464" 
d="M1116 1006h-760v-254h760v254zM1464 1006h-155v-1006h-193v575h-760v-575h-192v1006h-164v155h164v170h192v-170h760v170h193v-170h155v-155z" />
    <glyph glyph-name="hbar" unicode="&#x127;" horiz-adv-x="1320" 
d="M752 1073q211 0 313 -90t102 -319v-664h-184v631q0 147 -55.5 206.5t-216.5 59.5q-98 0 -201.5 -40t-171.5 -91v-766h-184v1157h-226v158h226v100h184v-100h291v-158h-291v-213q76 49 189.5 89t224.5 40z" />
    <glyph glyph-name="Itilde" unicode="&#x128;" horiz-adv-x="520" 
d="M356 0h-192v1331h192v-1331zM371 1509q-39 0 -121 28t-113 28q-55 0 -69 -62h-123q12 90 61 144.5t131 54.5q45 0 122 -27.5t112 -27.5t50 14t19 47h123q-12 -90 -61 -144.5t-131 -54.5z" />
    <glyph glyph-name="itilde" unicode="&#x129;" horiz-adv-x="491" 
d="M338 0h-184v1051h184v-1051zM362 1264q-39 0 -120.5 27.5t-112.5 27.5q-55 0 -70 -62h-122q12 90 61 144.5t131 54.5q45 0 122 -27.5t111.5 -27.5t50 14t19.5 47h123q-12 -90 -61.5 -144t-131.5 -54z" />
    <glyph glyph-name="Imacron" unicode="&#x12a;" horiz-adv-x="520" 
d="M356 0h-192v1331h192v-1331zM541 1466h-561v158h561v-158z" />
    <glyph glyph-name="imacron" unicode="&#x12b;" horiz-adv-x="491" 
d="M338 0h-184v1051h184v-1051zM526 1260h-561v157h561v-157z" />
    <glyph glyph-name="Ibreve" unicode="&#x12c;" horiz-adv-x="520" 
d="M356 0h-192v1331h192v-1331zM260 1450q-264 0 -291 244h158q14 -109 133 -109t133 109h158q-27 -244 -291 -244z" />
    <glyph glyph-name="ibreve" unicode="&#x12d;" horiz-adv-x="491" 
d="M338 0h-184v1051h184v-1051zM250 1214q-264 0 -291 244h158q14 -109 133 -109t133 109h158q-27 -244 -291 -244z" />
    <glyph glyph-name="Iogonek" unicode="&#x12e;" horiz-adv-x="520" 
d="M356 0h-34q-94 -43 -150.5 -93t-56.5 -95q1 -52 65 -52t158 47l2 -139q-92 -41 -184 -41q-193 0 -193 150q0 78 64.5 140.5t136.5 90.5v1323h192v-1331z" />
    <glyph glyph-name="iogonek" unicode="&#x12f;" horiz-adv-x="491" 
d="M154 1051h184v-1051h-27q-94 -43 -150.5 -93t-56.5 -95q0 -52 65 -52t159 47l2 -139q-92 -41 -185 -41q-193 0 -192 150q0 78 64.5 140.5t136.5 90.5v1043zM346 1401v-197h-201v197h201z" />
    <glyph glyph-name="Idotaccent" unicode="&#x130;" horiz-adv-x="520" 
d="M356 0h-192v1331h192v-1331zM362 1448h-204v201h204v-201z" />
    <glyph glyph-name="dotlessi" unicode="&#x131;" horiz-adv-x="491" 
d="M338 0h-184v1051h184v-1051z" />
    <glyph glyph-name="IJ" unicode="&#x132;" horiz-adv-x="1449" 
d="M1296 1331v-954q0 -184 -116 -293q-114 -109 -288 -109t-351 54v192q174 -63 323 -63q240 0 240 264v909h192zM356 0h-192v1331h192v-1331z" />
    <glyph glyph-name="ij" unicode="&#x133;" horiz-adv-x="960" 
d="M805 1051v-1168q0 -178 -96 -248t-260 -69q-57 0 -175 26v162q96 -24 180 -24t126 36q41 36 41 119v1166h184zM338 0h-184v1051h184v-1051zM819 1204h-209v189h209v-189zM350 1204h-209v189h209v-189z" />
    <glyph glyph-name="Jcircumflex" unicode="&#x134;" horiz-adv-x="929" 
d="M776 1331v-954q0 -184 -116 -293q-114 -109 -288 -109t-352 54v192q174 -63 324 -63q240 0 240 264v909h192zM774 1454h-166l-153 176l-154 -176h-166l207 297h225z" />
    <glyph glyph-name="jcircumflex" unicode="&#x135;" horiz-adv-x="466" 
d="M313 1051v-1168q0 -178 -96 -247.5t-260 -69.5q-57 0 -174 26v162q96 -24 180 -24t125 35.5t41 119.5v1166h184zM221 1386l-153 -176h-166l207 297h225l207 -297h-166z" />
    <glyph glyph-name="Kcommaaccent" unicode="&#x136;" horiz-adv-x="1349" 
d="M653 -451h-141l90 338h182zM1044 1331h295q-457 -377 -708 -663q410 -354 708 -668h-270q-293 303 -696 651q311 367 671 680zM356 0h-192v1331h192v-1331z" />
    <glyph glyph-name="kcommaaccent" unicode="&#x137;" horiz-adv-x="1155" 
d="M565 -451h-141l90 338h182zM844 1051h280q-360 -289 -528 -492q121 -98 316.5 -298t242.5 -261h-260q-270 315 -530 545q211 273 479 506zM338 0h-184v1415h184v-1415z" />
    <glyph glyph-name="kgreenlandic" unicode="&#x138;" horiz-adv-x="1155" 
d="M844 1051h268q-358 -283 -524 -484q137 -109 323.5 -300t243.5 -267h-260q-270 315 -530 545q211 273 479 506zM338 0h-184v1051h184v-1051z" />
    <glyph glyph-name="Lacute" unicode="&#x139;" horiz-adv-x="1140" 
d="M356 176h764v-176h-956v1331h192v-1155zM348 1454h-162l152 297h217z" />
    <glyph glyph-name="lacute" unicode="&#x13a;" horiz-adv-x="491" 
d="M338 0h-184v1415h184v-1415zM326 1497h-162l151 297h217z" />
    <glyph glyph-name="Lcommaaccent" unicode="&#x13b;" horiz-adv-x="1140" 
d="M602 -451h-141l90 338h182zM356 176h764v-176h-956v1331h192v-1155z" />
    <glyph glyph-name="lcommaaccent" unicode="&#x13c;" horiz-adv-x="491" 
d="M197 -451h-142l90 338h183zM338 0h-184v1415h184v-1415z" />
    <glyph glyph-name="Lcaron" unicode="&#x13d;" horiz-adv-x="1140" 
d="M799 991h-152l90 340h193zM356 176h764v-176h-956v1331h192v-1155z" />
    <glyph glyph-name="lcaron" unicode="&#x13e;" horiz-adv-x="735" 
d="M614 1075h-151l90 340h192zM338 0h-184v1415h184v-1415z" />
    <glyph glyph-name="Ldot" unicode="&#x13f;" horiz-adv-x="1140" 
d="M891 707h-205v198h205v-198zM356 176h764v-176h-956v1331h192v-1155z" />
    <glyph glyph-name="ldot" unicode="&#x140;" horiz-adv-x="686" 
d="M686 885h-205v198h205v-198zM338 0h-184v1415h184v-1415z" />
    <glyph glyph-name="Lslash" unicode="&#x141;" horiz-adv-x="1134" 
d="M1120 176v-176h-956v645l-164 -43v172l164 43v514h192v-463l422 111v-172l-422 -111v-520h764z" />
    <glyph glyph-name="lslash" unicode="&#x142;" horiz-adv-x="528" 
d="M358 0h-184v655l-215 -59v172l215 59v588h184v-536l211 57v-172l-211 -57v-707z" />
    <glyph glyph-name="Nacute" unicode="&#x143;" horiz-adv-x="1486" 
d="M1323 0h-162l-807 1073v-1073h-190v1331h221l748 -995v995h190v-1331zM831 1454h-161l151 297h217z" />
    <glyph glyph-name="nacute" unicode="&#x144;" horiz-adv-x="1320" 
d="M752 1073q211 0 313 -90t102 -319v-664h-184v631q0 147 -55.5 206.5t-216.5 59.5q-98 0 -204 -40t-169 -91v-766h-184v1051h135l30 -121q68 51 190 97t243 46zM737 1210h-162l152 297h217z" />
    <glyph glyph-name="Ncommaaccent" unicode="&#x145;" horiz-adv-x="1486" 
d="M780 -451h-141l90 338h182zM1323 0h-162l-807 1073v-1073h-190v1331h221l748 -995v995h190v-1331z" />
    <glyph glyph-name="ncommaaccent" unicode="&#x146;" horiz-adv-x="1320" 
d="M588 -113h182l-131 -338h-141zM752 1073q211 0 313 -90t102 -319v-664h-184v631q0 147 -55.5 206.5t-216.5 59.5q-98 0 -204 -40t-169 -91v-766h-184v1051h135l30 -121q68 51 190 97t243 46z" />
    <glyph glyph-name="Ncaron" unicode="&#x147;" horiz-adv-x="1486" 
d="M1323 0h-162l-807 1073v-1073h-190v1331h221l748 -995v995h190v-1331zM870 1454h-225l-207 297h166l154 -176l153 176h166z" />
    <glyph glyph-name="ncaron" unicode="&#x148;" horiz-adv-x="1320" 
d="M752 1073q211 0 313 -90t102 -319v-664h-184v631q0 147 -55.5 206.5t-216.5 59.5q-98 0 -204 -40t-169 -91v-766h-184v1051h135l30 -121q68 51 190 97t243 46zM545 1210l-207 297h166l153 -176l154 176h166l-207 -297h-225z" />
    <glyph glyph-name="napostrophe" unicode="&#x149;" horiz-adv-x="1382" 
d="M813 1073q211 0 313.5 -90t102.5 -319v-664h-185v631q0 147 -55 206.5t-217 59.5q-98 0 -203.5 -40t-169.5 -91v-766h-184v1051h135l31 -121q68 51 189.5 97t242.5 46zM272 1415l-131 -340h-141l90 340h182z" />
    <glyph glyph-name="Eng" unicode="&#x14a;" horiz-adv-x="1486" 
d="M1323 1331v-1421q0 -184 -116 -293t-289 -109t-351 54v192q174 -63 324 -63q242 0 242 264v84l-779 1034v-1073h-190v1331h221l748 -995v995h190z" />
    <glyph glyph-name="eng" unicode="&#x14b;" horiz-adv-x="1320" 
d="M752 1073q211 0 313 -90t102 -319v-781q0 -178 -96 -248t-260 -69q-57 0 -174 26v162q225 -59 305 12q41 36 41 119v746q0 147 -55 207t-217 59q-97 0 -203 -40t-170 -91v-766h-184v1051h135l30 -121q68 51 190 97t243 46z" />
    <glyph glyph-name="Omacron" unicode="&#x14c;" horiz-adv-x="1622" 
d="M816 1176q-230 0 -370.5 -130.5t-140.5 -373t141.5 -377.5t368.5 -135t366.5 136t139.5 377t-137.5 372t-367.5 131zM820 1356q331 0 515.5 -187.5t184.5 -501.5t-192.5 -503t-514.5 -189t-516.5 188.5t-194.5 504t193.5 502t524.5 186.5zM1081 1466h-561v158h561v-158z
" />
    <glyph glyph-name="omacron" unicode="&#x14d;" horiz-adv-x="1310" 
d="M655.5 901q-161.5 0 -266 -103.5t-104.5 -269.5t95 -272t275 -106q179 0 275 108t96 272t-104.5 267.5t-266 103.5zM655.5 1073q237.5 0 400.5 -145.5t163 -406.5t-163 -403.5t-402 -142.5t-400.5 142.5t-161.5 403.5t163 406.5t400.5 145.5zM936 1260h-561v157h561v-157
z" />
    <glyph glyph-name="Obreve" unicode="&#x14e;" horiz-adv-x="1622" 
d="M816 1176q-230 0 -370.5 -130.5t-140.5 -373t141.5 -377.5t368.5 -135t366.5 136t139.5 377t-137.5 372t-367.5 131zM820 1356q331 0 515.5 -187.5t184.5 -501.5t-192.5 -503t-514.5 -189t-516.5 188.5t-194.5 504t193.5 502t524.5 186.5zM801 1450q-264 0 -291 244h158
q14 -109 133 -109t133 109h158q-27 -244 -291 -244z" />
    <glyph glyph-name="obreve" unicode="&#x14f;" horiz-adv-x="1310" 
d="M655.5 901q-161.5 0 -266 -103.5t-104.5 -269.5t95 -272t275 -106t275.5 107.5t95.5 272t-104.5 268t-266 103.5zM655.5 1073q237.5 0 400.5 -145.5t163 -406.5t-163 -403.5t-402 -142.5t-400.5 142.5t-161.5 403.5t163 406.5t400.5 145.5zM659 1214q-264 0 -290 244h157
q14 -109 133.5 -109t133.5 109h157q-27 -244 -291 -244z" />
    <glyph glyph-name="Ohungarumlaut" unicode="&#x150;" horiz-adv-x="1622" 
d="M816 1176q-230 0 -370.5 -130.5t-140.5 -373t141.5 -377.5t368.5 -135t366.5 136t139.5 377t-137.5 372t-367.5 131zM820 1356q331 0 515.5 -187.5t184.5 -501.5t-192.5 -503t-514.5 -189t-516.5 188.5t-194.5 504t193.5 502t524.5 186.5zM1059 1454h-160l152 297h219z
M717 1454h-160l152 297h219z" />
    <glyph glyph-name="ohungarumlaut" unicode="&#x151;" horiz-adv-x="1310" 
d="M655.5 901q-161.5 0 -266 -103.5t-104.5 -269.5t95 -272t275 -106q179 0 275 108t96 272t-104.5 267.5t-266 103.5zM655.5 1073q237.5 0 400.5 -145.5t163 -406.5t-163 -403.5t-402 -142.5t-400.5 142.5t-161.5 403.5t163 406.5t400.5 145.5zM932 1210h-160l152 297h219z
M590 1210h-160l152 297h219z" />
    <glyph glyph-name="OE" unicode="&#x152;" horiz-adv-x="2068" 
d="M801 1180q-231 0 -365 -130t-135 -377q0 -247 138 -384t362 -137q121 0 205 24v973q-84 31 -205 31zM1198 1155v-383h688v-174h-688v-422h748v-176h-920q-100 -25 -225 -25q-328 1 -513 187q-186 186 -186 506t180 503q180 184 519 185q125 0 223 -25h922v-176h-748z" />
    <glyph glyph-name="oe" unicode="&#x153;" horiz-adv-x="2131" 
d="M1567 901q-135 0 -235 -73t-111 -214h626q-4 127 -74 207q-71 80 -206 80zM655 150q180 0 276 107q95 109 95 273t-104 268t-266 103q-162 0 -267 -103q-104 -104 -104 -270t95 -272t275 -106zM2036 457h-824q27 -309 387 -310q105 1 185 17t231 61v-178
q-203 -72 -424 -72q-330 0 -475 222q-76 -105 -198 -163t-265 -59q-237 1 -399 143t-162 403t163 407t400 145q141 0 263 -57t196 -166q141 223 457 223q217 0 341 -135t124 -373v-108z" />
    <glyph glyph-name="Racute" unicode="&#x154;" horiz-adv-x="1351" 
d="M356 664h340q113 0 207 44q51 24 82 76t31 127q0 129 -89 186.5t-222 57.5h-349v-491zM356 487v-487h-192v1331h559q157 0 307 -77q82 -42 134.5 -129t52.5 -207q0 -170 -95.5 -273.5t-232.5 -138.5q192 -205 411 -506h-256q-168 248 -395 487h-293zM694 1454h-162
l152 297h217z" />
    <glyph glyph-name="racute" unicode="&#x155;" horiz-adv-x="823" 
d="M338 0h-184v1051h135l33 -117q218 137 454 139v-184q-285 -2 -438 -123v-766zM551 1210h-162l152 297h217z" />
    <glyph glyph-name="Rcommaaccent" unicode="&#x156;" horiz-adv-x="1351" 
d="M578 -113h182l-131 -338h-142zM356 664h340q113 0 207 44q51 24 82 76t31 127q0 129 -89 186.5t-222 57.5h-349v-491zM356 487v-487h-192v1331h559q157 0 307 -77q82 -42 134.5 -129t52.5 -207q0 -170 -95.5 -273.5t-232.5 -138.5q193 -205 411 -506h-256
q-168 248 -395 487h-293z" />
    <glyph glyph-name="rcommaaccent" unicode="&#x157;" horiz-adv-x="823" 
d="M145 -113h183l-131 -338h-142zM338 0h-184v1051h135l33 -117q218 137 454 139v-184q-285 -2 -438 -123v-766z" />
    <glyph glyph-name="Rcaron" unicode="&#x158;" horiz-adv-x="1351" 
d="M356 664h340q113 0 207 44q51 24 82 76t31 127q0 129 -89 186.5t-222 57.5h-349v-491zM356 487v-487h-192v1331h559q157 0 307 -77q82 -42 134.5 -129t52.5 -207q0 -170 -95.5 -273.5t-232.5 -138.5q192 -205 411 -506h-256q-168 248 -395 487h-293zM508 1454l-207 297
h166l154 -176l153 176h166l-207 -297h-225z" />
    <glyph glyph-name="rcaron" unicode="&#x159;" horiz-adv-x="823" 
d="M338 0h-184v1051h135l33 -117q219 137 454 139v-184q-285 -2 -438 -123v-766zM358 1210l-206 297h165l154 -176l154 176h166l-207 -297h-226z" />
    <glyph glyph-name="Sacute" unicode="&#x15a;" horiz-adv-x="1239" 
d="M559.5 152q179.5 0 279 55t99.5 149q0 141 -199 195l-313 86q-315 84 -315 354q0 184 152 274.5t377.5 90.5t438.5 -70v-184q-258 80 -416 80t-258 -44t-100 -147q0 -131 195 -184l338 -96q299 -82 299 -349q0 -186 -147.5 -286.5t-402 -100.5t-495.5 91v194
q288 -108 467.5 -108zM690 1454h-162l152 297h217z" />
    <glyph glyph-name="sacute" unicode="&#x15b;" horiz-adv-x="1050" 
d="M537 1073q199 0 389 -55v-178q-190 63 -384 63q-194 1 -238 -57q-22 -28 -23 -72q0 -84 151 -119l234 -53q147 -35 225 -99.5t78 -209.5q0 -176 -128 -247t-340 -71t-419 58v178q215 -66 399 -66q301 0 301 150q0 53 -37.5 82t-107.5 47l-307 74q-113 27 -175.5 100.5
t-62.5 167.5q1 307 445 307zM606 1210h-162l152 297h217z" />
    <glyph glyph-name="Scircumflex" unicode="&#x15c;" horiz-adv-x="1239" 
d="M559.5 152q179.5 0 279 55t99.5 149q0 141 -199 195l-313 86q-315 84 -315 354q0 184 152 274.5t377.5 90.5t438.5 -70v-184q-258 80 -416 80t-258 -44t-100 -147q0 -131 195 -184l338 -96q299 -82 299 -349q0 -186 -147.5 -286.5t-402 -100.5t-495.5 91v194
q288 -108 467.5 -108zM936 1454h-166l-154 176l-153 -176h-166l207 297h225z" />
    <glyph glyph-name="scircumflex" unicode="&#x15d;" horiz-adv-x="1050" 
d="M537 1073q199 0 389 -55v-178q-190 63 -384 63q-194 1 -238 -57q-22 -28 -23 -72q0 -84 151 -119l234 -53q147 -35 225 -99.5t78 -209.5q0 -176 -128 -247t-340 -71t-419 58v178q215 -66 399 -66q301 0 301 150q0 53 -37.5 82t-107.5 47l-307 74q-113 27 -175.5 100.5
t-62.5 167.5q1 307 445 307zM526 1386l-153 -176h-166l207 297h225l207 -297h-166z" />
    <glyph glyph-name="Scedilla" unicode="&#x15e;" horiz-adv-x="1239" 
d="M559.5 152q179.5 0 279 55t99.5 149q0 141 -199 195l-313 86q-315 84 -315 354q0 184 152.5 274.5t377.5 90.5t438 -70v-184q-258 80 -416 80t-258 -44t-100 -147q0 -131 195 -184l338 -96q299 -83 299 -349q0 -160 -111 -258t-317 -120l-19 -64q156 -16 156 -153
q0 -190 -230 -191q-86 0 -180 27v137q106 -33 186 -33t80 62q0 51 -92 51q-45 0 -82 -6l54 161h-11q-238 0 -479 91v194q288 -108 467.5 -108z" />
    <glyph glyph-name="scedilla" unicode="&#x15f;" horiz-adv-x="1050" 
d="M969 288.5q0 -149.5 -99.5 -223t-281.5 -85.5l-19 -60q156 -16 156 -153q0 -190 -229 -191q-86 0 -181 27v137q106 -33 186.5 -33t80.5 62q0 51 -93 51q-45 0 -81 -6l53 161q-180 2 -379 58v178q215 -66 399 -66q301 0 301 150q0 53 -37.5 82t-107.5 47l-307 74
q-113 27 -175.5 100.5t-62.5 167.5q0 307 445 307q199 0 389 -55v-178q-190 63 -384 63q-192 1 -238 -57q-22 -28 -23 -72q0 -84 151 -119l234 -53q147 -35 225 -99.5t78 -214z" />
    <glyph glyph-name="Scaron" unicode="&#x160;" horiz-adv-x="1239" 
d="M559.5 152q179.5 0 279 55t99.5 149q0 141 -199 195l-313 86q-315 84 -315 354q0 184 152 274.5t377.5 90.5t438.5 -70v-184q-258 80 -416 80t-258 -44t-100 -147q0 -131 195 -184l338 -96q299 -82 299 -349q0 -186 -147.5 -286.5t-402 -100.5t-495.5 91v194
q288 -108 467.5 -108zM729 1454h-225l-207 297h166l153 -176l154 176h166z" />
    <glyph glyph-name="scaron" unicode="&#x161;" horiz-adv-x="1050" 
d="M537 1073q199 0 389 -55v-178q-190 63 -384 63q-194 1 -238 -57q-22 -28 -23 -72q0 -84 151 -119l234 -53q147 -35 225 -99.5t78 -209.5q0 -176 -128 -247t-340 -71t-419 58v178q215 -66 399 -66q301 0 301 150q0 53 -37.5 82t-107.5 47l-307 74q-113 27 -175.5 100.5
t-62.5 167.5q1 307 445 307zM639 1210h-225l-207 297h166l153 -176l154 176h166z" />
    <glyph glyph-name="Tcedilla" unicode="&#x162;" horiz-adv-x="1282" 
d="M588 -451h-142l91 338h182zM1241 1155h-504v-1155h-192v1155h-504v176h1200v-176z" />
    <glyph glyph-name="tcedilla" unicode="&#x163;" horiz-adv-x="817" 
d="M483 -451h-141l90 338h182zM725 1051v-158h-350v-598q0 -156 168 -156q100 0 213 37v-164q-125 -37 -205 -37q-166 0 -263.5 70t-97.5 248v600h-200v158h200l25 268h160v-268h350z" />
    <glyph glyph-name="Tcaron" unicode="&#x164;" horiz-adv-x="1282" 
d="M1241 1155h-504v-1155h-192v1155h-504v176h1200v-176zM754 1454h-226l-206 297h165l154 -176l154 176h166z" />
    <glyph glyph-name="tcaron" unicode="&#x165;" horiz-adv-x="817" 
d="M725 1051v-158h-350v-598q0 -156 168 -156q100 0 213 37v-164q-125 -37 -205 -37q-166 0 -263.5 70t-97.5 248v600h-200v158h200l25 268h160v-268h350zM776 1137h-151l90 340h192z" />
    <glyph glyph-name="Tbar" unicode="&#x166;" horiz-adv-x="1275" 
d="M737 1155v-379h291v-176h-291v-600h-192v600h-297v176h297v379h-504v176h1200v-176h-504z" />
    <glyph glyph-name="tbar" unicode="&#x167;" horiz-adv-x="817" 
d="M543 139q100 0 213 37v-164q-125 -37 -205 -37q-166 0 -263.5 70t-97.5 248v293h-200v157h200v150h-200v158h200l25 268h160v-268h350v-158h-350v-150h350v-157h-350v-291q0 -156 168 -156z" />
    <glyph glyph-name="Utilde" unicode="&#x168;" horiz-adv-x="1470" 
d="M1307 1331v-760q1 -250 -121 -415q-134 -181 -457 -181t-457 181q-118 160 -118 415v760h192v-762q0 -414 381 -413q387 0 387 413v762h193zM825 1509q-39 0 -120.5 28t-112.5 28q-55 0 -70 -62h-123q12 90 61.5 144.5t131.5 54.5q45 0 122 -27.5t111.5 -27.5t50 14
t19.5 47h123q-12 -90 -61.5 -144.5t-131.5 -54.5z" />
    <glyph glyph-name="utilde" unicode="&#x169;" horiz-adv-x="1308" 
d="M1155 1051v-1051h-135l-27 96q-205 -121 -450 -121q-170 0 -279.5 99.5t-109.5 306.5v670h184v-621q0 -162 68.5 -222.5t201.5 -60.5q207 0 363 105v799h184zM539 1319q-55 0 -70 -62h-123q12 90 61.5 144.5t131.5 54.5q45 0 121.5 -27.5t111.5 -27.5t50.5 14.5
t19.5 46.5h123q-12 -90 -61.5 -144t-131.5 -54q-39 0 -120.5 27.5t-112.5 27.5z" />
    <glyph glyph-name="Umacron" unicode="&#x16a;" horiz-adv-x="1470" 
d="M1307 1331v-760q1 -250 -121 -415q-134 -181 -457 -181t-457 181q-118 160 -118 415v760h192v-762q0 -414 381 -413q387 0 387 413v762h193zM995 1466h-561v158h561v-158z" />
    <glyph glyph-name="umacron" unicode="&#x16b;" horiz-adv-x="1308" 
d="M1155 1051v-1051h-135l-27 96q-205 -121 -450 -121q-170 0 -279.5 99.5t-109.5 306.5v670h184v-621q0 -162 68.5 -222.5t201.5 -60.5q207 0 363 105v799h184zM936 1260h-561v157h561v-157z" />
    <glyph glyph-name="Ubreve" unicode="&#x16c;" horiz-adv-x="1470" 
d="M1307 1331v-760q1 -250 -121 -415q-134 -181 -457 -181t-457 181q-118 160 -118 415v760h192v-762q0 -414 381 -413q387 0 387 413v762h193zM715 1450q-264 0 -291 244h158q14 -109 133 -109t133 109h158q-27 -244 -291 -244z" />
    <glyph glyph-name="ubreve" unicode="&#x16d;" horiz-adv-x="1308" 
d="M1155 1051v-1051h-135l-27 96q-205 -121 -450 -121q-170 0 -279.5 99.5t-109.5 306.5v670h184v-621q0 -162 68.5 -222.5t201.5 -60.5q207 0 363 105v799h184zM659.5 1214q-264.5 0 -290.5 244h157q14 -109 133 -108.5t134 108.5h157q-26 -244 -290.5 -244z" />
    <glyph glyph-name="Uring" unicode="&#x16e;" horiz-adv-x="1470" 
d="M1307 1331v-760q1 -250 -121 -415q-134 -181 -457 -181t-457 181q-118 160 -118 415v760h192v-762q0 -414 381 -413q387 0 387 413v762h193zM714.5 1714q-106.5 0 -106.5 -82t106.5 -82t106.5 82t-106.5 82zM714.5 1456q-98.5 0 -152.5 48t-54 128t54 128t152.5 48
t153 -48t54.5 -128t-54.5 -128t-153 -48z" />
    <glyph glyph-name="uring" unicode="&#x16f;" horiz-adv-x="1308" 
d="M1155 1051v-1051h-135l-27 96q-205 -121 -450 -121q-170 0 -279.5 99.5t-109.5 306.5v670h184v-621q0 -162 68.5 -222.5t201.5 -60.5q207 0 363 105v799h184zM649.5 1446q-106.5 0 -106.5 -82t106.5 -82t106.5 82t-106.5 82zM649.5 1188q-98.5 0 -153 48t-54.5 128
t54.5 128t153 48t152.5 -48t54 -128t-54 -128t-152.5 -48z" />
    <glyph glyph-name="Uhungarumlaut" unicode="&#x170;" horiz-adv-x="1470" 
d="M1307 1331v-760q1 -250 -121 -415q-134 -181 -457 -181t-457 181q-118 160 -118 415v760h192v-762q0 -414 381 -413q387 0 387 413v762h193zM973 1454h-160l152 297h219zM631 1454h-160l152 297h219z" />
    <glyph glyph-name="uhungarumlaut" unicode="&#x171;" horiz-adv-x="1308" 
d="M1155 1051v-1051h-135l-27 96q-205 -121 -450 -121q-170 0 -279.5 99.5t-109.5 306.5v670h184v-621q0 -162 68.5 -222.5t201.5 -60.5q207 0 363 105v799h184zM772 1210l152 297h219l-211 -297h-160zM590 1210h-160l152 297h219z" />
    <glyph glyph-name="Uogonek" unicode="&#x172;" horiz-adv-x="1470" 
d="M1307 1331v-760q0 -469 -367 -569q-209 -94 -209 -192q0 -49 64.5 -49.5t158.5 46.5l2 -139q-92 -41 -184 -41q-193 0 -192 150q0 111 137 198q-563 6 -563 596v760h192v-762q0 -414 381 -413q387 0 387 413v762h193z" />
    <glyph glyph-name="uogonek" unicode="&#x173;" horiz-adv-x="1308" 
d="M1010 -373q-193 0 -193 150q0 78 64.5 140.5t136.5 90.5l-25 88q-205 -121 -450 -121q-170 0 -279.5 99.5t-109.5 306.5v670h184v-621q0 -162 68.5 -222.5t201.5 -60.5q207 0 363 105v799h184v-1051q-186 -98 -186 -188q0 -51 64.5 -51.5t158.5 46.5l2 -139
q-92 -41 -184 -41z" />
    <glyph glyph-name="Wcircumflex" unicode="&#x174;" horiz-adv-x="1787" 
d="M1573 1331h199q-139 -668 -375 -1331h-203q-131 309 -305 782q-156 -455 -301 -782h-199q-76 207 -111.5 311.5t-118.5 405.5t-143 614h197q111 -535 283 -1075q139 313 321 854h148q37 -111 138 -389.5t185 -466.5q156 461 285 1077zM1210 1454h-166l-153 176l-154 -176
h-166l207 297h226z" />
    <glyph glyph-name="wcircumflex" unicode="&#x175;" horiz-adv-x="1757" 
d="M1577 1051h190q-164 -569 -407 -1051h-166q-76 160 -171 399.5t-138 380.5q-100 -309 -330 -780h-160q-254 518 -405 1051h200q154 -504 291 -818q94 188 196.5 453.5t127.5 364.5h188q29 -111 114 -356.5t177 -458.5q146 313 293 815zM899 1386l-154 -176h-165l206 297
h226l207 -297h-166z" />
    <glyph glyph-name="Ycircumflex" unicode="&#x176;" horiz-adv-x="1241" 
d="M717 0h-193v451q-78 102 -239.5 364t-294.5 516h225q170 -340 406 -704q209 317 399 704h231q-129 -248 -292.5 -512t-241.5 -368v-451zM934 1454h-166l-154 176l-153 -176h-166l207 297h225z" />
    <glyph glyph-name="ycircumflex" unicode="&#x177;" horiz-adv-x="1107" 
d="M213 -410l246 437q-291 524 -479 1024h204q150 -412 379 -828q188 373 350 828h215q-246 -674 -702 -1461h-213zM373 1210h-166l207 297h225l207 -297h-166l-154 176z" />
    <glyph glyph-name="Ydieresis" unicode="&#x178;" horiz-adv-x="1241" 
d="M717 0h-193v451q-78 102 -239.5 364t-294.5 516h225q170 -340 406 -704q209 317 399 704h231q-129 -248 -292.5 -512t-241.5 -368v-451zM920 1448h-205v201h205v-201zM514 1448h-205v201h205v-201z" />
    <glyph glyph-name="Zacute" unicode="&#x179;" horiz-adv-x="1226" 
d="M1141 176v-176h-1059v170l807 985h-807v176h1063v-170l-805 -985h801zM686 1454h-162l152 297h217z" />
    <glyph glyph-name="zacute" unicode="&#x17a;" horiz-adv-x="1091" 
d="M1010 158v-158h-928v164l686 729h-657v158h888v-164l-682 -729h693zM606 1210h-162l152 297h217z" />
    <glyph glyph-name="Zdotaccent" unicode="&#x17b;" horiz-adv-x="1226" 
d="M1141 176v-176h-1059v170l807 985h-807v176h1063v-170l-805 -985h801zM715 1448h-205v201h205v-201z" />
    <glyph glyph-name="zdotaccent" unicode="&#x17c;" horiz-adv-x="1091" 
d="M1010 158v-158h-928v164l686 729h-657v158h888v-164l-682 -729h693zM627 1204h-201v197h201v-197z" />
    <glyph glyph-name="Zcaron" unicode="&#x17d;" horiz-adv-x="1226" 
d="M1141 176v-176h-1059v170l807 985h-807v176h1063v-170l-805 -985h801zM725 1454h-225l-207 297h166l153 -176l154 176h166z" />
    <glyph glyph-name="zcaron" unicode="&#x17e;" horiz-adv-x="1091" 
d="M1010 158v-158h-928v164l686 729h-657v158h888v-164l-682 -729h693zM639 1210h-225l-207 297h166l153 -176l154 176h166z" />
    <glyph glyph-name="longs" unicode="&#x17f;" horiz-adv-x="692" 
d="M551 1481q57 0 174 -27v-162q-96 25 -182 25q-168 0 -168 -156v-1161h-185v893h-200v158h200v112q0 178 98 248t263 70z" />
    <glyph glyph-name="Schwa" unicode="&#x18f;" horiz-adv-x="1574" 
d="M807 152q213 0 331 118t134 324h-967q9 -206 149 -324t353 -118zM801 1356q313 0 492 -178t179 -494t-180 -512q-182 -197 -504 -197q-322 -1 -504 185q-181 186 -182 508v102h1168q-25 410 -469 410q-238 0 -527 -99v193q283 82 527 82z" />
    <glyph glyph-name="florin" unicode="&#x192;" horiz-adv-x="872" 
d="M658 1180q-72 0 -104 -37t-44 -125l-14 -92h309l-23 -158h-309l-96 -711q-25 -173 -106 -245t-230 -72q-84 0 -195 24l25 175q109 -23 179 -23t104 37q33 37 45 125l94 690h-225l22 158h225l17 112q25 172 105 245q81 73 231 73q84 0 194 -25l-24 -174q-109 23 -180 23z
" />
    <glyph glyph-name="Aringacute" unicode="&#x1fa;" horiz-adv-x="1357" 
d="M389 516h588q-162 403 -295 641q-133 -250 -293 -641zM1368 0h-201q-63 193 -123 344h-725q-82 -207 -122 -344h-207q133 403 309 794.5t266 536.5h228q122 -197 295.5 -603t279.5 -728zM679.5 1714q-106.5 0 -106.5 -82t106.5 -82t106.5 82t-106.5 82zM680 1456
q-98 0 -152.5 48t-54.5 128t54.5 128t152.5 48t152.5 -48t54.5 -128t-54.5 -128t-152.5 -48zM764 1882h-162l152 297h217z" />
    <glyph glyph-name="aringacute" unicode="&#x1fb;" horiz-adv-x="1234" 
d="M303 328q0 -98 73 -141.5t181 -43.5q172 0 340 107v190q-139 74 -324 74q-270 0 -270 -186zM610.5 1073q231.5 0 351 -103.5t119.5 -348.5v-621h-139l-24 96q-178 -121 -376 -121t-315.5 91.5t-117.5 263.5t126.5 255t320.5 83t341 -74v61q0 150 -94 198t-251 48
t-378 -72v183q205 61 436.5 61zM608.5 1446q-106.5 0 -106.5 -82t106.5 -82t106.5 82t-106.5 82zM608.5 1188q-98.5 0 -153 48t-54.5 128t54.5 128t153 48t152.5 -48t54 -128t-54 -128t-152.5 -48zM694 1616h-162l152 297h217z" />
    <glyph glyph-name="AEacute" unicode="&#x1fc;" horiz-adv-x="1955" 
d="M969 543v620q-240 -287 -453 -620h453zM1163 1155v-383h615v-174h-615v-422h670v-176h-862v367h-563q-86 -139 -213 -367h-226q244 428 486.5 775t427.5 556h950v-176h-670zM1430 1454h-162l151 297h217z" />
    <glyph glyph-name="aeacute" unicode="&#x1fd;" horiz-adv-x="2000" 
d="M573 514q-270 0 -270 -186q0 -98 73 -141.5t181 -43.5q199 0 383 133q-31 78 -39 162q-154 76 -328 76zM1435.5 901q-135.5 0 -234.5 -72.5t-111 -212.5h626q-4 127 -74.5 206t-206 79zM1440 1073q217 0 341 -135t124 -373v-108h-824q27 -309 387 -310q106 0 185.5 16.5
t230.5 61.5v-178q-203 -72 -424 -72q-293 0 -444 179q-152 -98 -260.5 -138.5t-231.5 -40.5q-180 0 -297.5 91.5t-117.5 263.5t126.5 255t320.5 83t341 -74v61q0 150 -94 198t-251 48t-378 -72v183q205 61 412 61q328 0 430 -176q152 176 424 176zM1110 1210h-162l152 297
h217z" />
    <glyph glyph-name="Oslashacute" unicode="&#x1fe;" horiz-adv-x="1622" 
d="M821 160q221 0 360.5 136t139.5 360.5t-104 353.5l-664 -791q114 -59 268 -59zM305 687.5q0 -228.5 117 -365.5l665 792q-113 61 -268 62q-233 0 -373.5 -130t-140.5 -358.5zM821 -25q-229 0 -395 95l-107 -127l-126 106l100 119q-190 186 -190.5 500.5t193 501
t523.5 186.5q229 0 393 -94l91 108l127 -106l-87 -103q176 -186 176.5 -497t-192 -500t-506.5 -189zM874 1454h-161l151 297h217z" />
    <glyph glyph-name="oslashacute" unicode="&#x1ff;" horiz-adv-x="1310" 
d="M657 150q178 0 273.5 107.5t95.5 254.5t-72 246l-479 -572q80 -36 182 -36zM285 538.5q0 -155.5 71 -251.5l480 573q-78 41 -181 41q-162 0 -266 -103.5t-104 -259zM653 -25q-166 0 -297 70l-82 -98l-122 96l79 96q-139 145 -139 394t163 394.5t400 145.5q166 0 299 -74
l82 99l123 -97l-80 -96q139 -150 139.5 -397.5t-162.5 -390t-403 -142.5zM735 1210h-162l152 297h217z" />
    <glyph glyph-name="Scommaaccent" unicode="&#x218;" horiz-adv-x="1239" 
d="M651 -451h-141l90 338h182zM559.5 152q179.5 0 279 55t99.5 149q0 141 -199 195l-313 86q-315 84 -315 354q0 184 152 274.5t377.5 90.5t438.5 -70v-184q-258 80 -416 80t-258 -44t-100 -147q0 -131 195 -184l338 -96q299 -82 299 -349q0 -186 -147.5 -286.5t-402 -100.5
t-495.5 91v194q288 -108 467.5 -108z" />
    <glyph glyph-name="scommaaccent" unicode="&#x219;" horiz-adv-x="1050" 
d="M530 -451h-141l90 338h183zM537 1073q199 0 389 -55v-178q-190 63 -384 63q-194 1 -238 -57q-22 -28 -23 -72q0 -84 151 -119l234 -53q147 -35 225 -99.5t78 -209.5q0 -176 -128 -247t-340 -71t-419 58v178q215 -66 399 -66q301 0 301 150q0 53 -37.5 82t-107.5 47
l-307 74q-113 27 -175.5 100.5t-62.5 167.5q1 307 445 307z" />
    <glyph glyph-name="uni021A" unicode="&#x21a;" horiz-adv-x="1282" 
d="M588 -451h-142l91 338h182zM1241 1155h-504v-1155h-192v1155h-504v176h1200v-176z" />
    <glyph glyph-name="uni021B" unicode="&#x21b;" horiz-adv-x="817" 
d="M483 -451h-141l90 338h182zM725 1051v-158h-350v-598q0 -156 168 -156q100 0 213 37v-164q-125 -37 -205 -37q-166 0 -263.5 70t-97.5 248v600h-200v158h200l25 268h160v-268h350z" />
    <glyph glyph-name="dotlessj" unicode="&#x237;" horiz-adv-x="466" 
d="M313 1051v-1168q0 -178 -96 -247.5t-260 -69.5q-57 0 -174 26v162q96 -24 180 -24t125 35.5t41 119.5v1166h184z" />
    <glyph glyph-name="schwa" unicode="&#x259;" horiz-adv-x="1187" 
d="M570 147q132 1 212 63t113 220h-621q18 -133 91 -208t205 -75zM570 1071q240 0 383 -136q143 -137 143 -411t-146 -411t-376 -137t-358 134t-128 371v107h815v12q-2 145 -95 222t-267 77t-445 -90v184q234 78 474 78z" />
    <glyph glyph-name="uni02BC" unicode="&#x2bc;" horiz-adv-x="395" 
d="M203 1075h-142l91 340h182z" />
    <glyph glyph-name="circumflex" unicode="&#x2c6;" horiz-adv-x="761" 
d="M381 1386l-154 -176h-166l207 297h226l206 -297h-165z" />
    <glyph glyph-name="caron" unicode="&#x2c7;" horiz-adv-x="761" 
d="M494 1210h-226l-207 297h166l154 -176l154 176h165z" />
    <glyph glyph-name="firsttonechinese" unicode="&#x2c9;" horiz-adv-x="684" 
d="M623 1260h-562v157h562v-157z" />
    <glyph glyph-name="breve" unicode="&#x2d8;" horiz-adv-x="704" 
d="M352 1214q-264 0 -291 244h158q14 -109 133 -109t133 109h158q-27 -244 -291 -244z" />
    <glyph glyph-name="dotaccent" unicode="&#x2d9;" horiz-adv-x="323" 
d="M262 1204h-201v197h201v-197z" />
    <glyph glyph-name="ring" unicode="&#x2da;" horiz-adv-x="536" 
d="M268.5 1446q-106.5 0 -106.5 -82t106.5 -82t106.5 82t-106.5 82zM268.5 1188q-98.5 0 -153 48t-54.5 128t54.5 128t153 48t152.5 -48t54 -128t-54 -128t-152.5 -48z" />
    <glyph glyph-name="ogonek" unicode="&#x2db;" horiz-adv-x="499" 
d="M213 -189q1 -51 65 -51t158 47l2 -139q-92 -41 -184 -41q-193 0 -193 150q1 78 65 140t136 91h176q-102 -43 -164 -95t-61 -102z" />
    <glyph glyph-name="tilde" unicode="&#x2dc;" horiz-adv-x="741" 
d="M487 1264q-39 0 -121 28t-113 27q-32 0 -46 -14t-23 -48h-123q11 91 61 145t132 54q45 0 122 -28t111 -27q62 0 70 61h123q-12 -90 -62 -144t-131 -54z" />
    <glyph glyph-name="hungarumlaut" unicode="&#x2dd;" horiz-adv-x="835" 
d="M563 1210h-160l152 297h219zM221 1210h-160l152 297h219z" />
    <glyph glyph-name="uni0312" unicode="&#x312;" horiz-adv-x="0" 
d="M193 1554h141l-90 -337h-183z" />
    <glyph glyph-name="uni0326" unicode="&#x326;" horiz-adv-x="0" 
d="M203 -451h-142l91 338h182z" />
    <glyph glyph-name="uni0374" unicode="&#x374;" horiz-adv-x="415" 
d="M61 1087l72 420h221l-161 -420h-132z" />
    <glyph glyph-name="uni0375" unicode="&#x375;" horiz-adv-x="415" 
d="M354 119l-71 -420h-222l162 420h131z" />
    <glyph glyph-name="uni037E" unicode="&#x37e;" horiz-adv-x="462" 
d="M61 -264l127 463h213l-168 -463h-172zM182 745v199h205v-199h-205z" />
    <glyph glyph-name="tonos" unicode="&#x384;" horiz-adv-x="436" 
d="M61 1210l91 308h221l-180 -308h-132z" />
    <glyph glyph-name="dieresistonos" unicode="&#x385;" horiz-adv-x="950" 
d="M688 1210v197h201v-197h-201zM61 1210v197h201v-197h-201zM369 1210l39 308h221l-129 -308h-131z" />
    <glyph glyph-name="Alphatonos" unicode="&#x386;" horiz-adv-x="1357" 
d="M389 516h588q-162 403 -295 641q-133 -250 -293 -641zM322 1331l-181 -307h-131l90 307h222zM1368 0h-201q-63 193 -123 344h-725q-82 -207 -122 -344h-207q133 403 309 794.5t266 536.5h228q122 -197 295.5 -603t279.5 -728z" />
    <glyph glyph-name="anoteleia" unicode="&#x387;" horiz-adv-x="389" 
d="M92 852v199h205v-199h-205z" />
    <glyph glyph-name="Epsilontonos" unicode="&#x388;" horiz-adv-x="1226" 
d="M1104 1331v-176h-748v-383h688v-174h-688v-422h748v-176h-940v1331h940zM-313 1024l90 307h221l-180 -307h-131z" />
    <glyph glyph-name="Etatonos" unicode="&#x389;" horiz-adv-x="1472" 
d="M1309 1331v-1331h-193v575h-760v-575h-192v1331h192v-579h760v579h193zM-313 1024l90 307h221l-180 -307h-131z" />
    <glyph glyph-name="Iotatonos" unicode="&#x38a;" horiz-adv-x="520" 
d="M356 1331v-1331h-192v1331h192zM-313 1024l90 307h221l-180 -307h-131z" />
    <glyph glyph-name="Omicrontonos" unicode="&#x38c;" horiz-adv-x="1622" 
d="M816 1176q-230 0 -370.5 -130.5t-140.5 -373t141.5 -377.5t368.5 -135t366.5 136t139.5 377t-137.5 372t-367.5 131zM-162 1024l90 307h222l-181 -307h-131zM820 1356q331 0 515.5 -187.5t184.5 -501.5t-192.5 -503t-514.5 -189t-516.5 188.5t-194.5 504t193.5 502
t524.5 186.5z" />
    <glyph glyph-name="Upsilontonos" unicode="&#x38e;" horiz-adv-x="1241" 
d="M717 0h-193v451q-78 102 -239.5 364t-294.5 516h225q170 -340 406 -704q209 317 399 704h231q-129 -248 -292.5 -512t-241.5 -368v-451zM-393 1024l90 307h221l-180 -307h-131z" />
    <glyph glyph-name="Omegatonos" unicode="&#x38f;" horiz-adv-x="1579" 
d="M-109 1024l91 307h221l-180 -307h-132zM1493 680q0 -168 -71 -301t-183 -209h268v-170h-544v178q326 166 325 500q0 238 -133 364t-362 127q-229 0 -365 -125t-137 -366q0 -332 325 -500v-178h-544v170h270q-104 68 -180 201t-76 307q0 311 188 494q188 184 518 184
t516 -186q185 -186 185 -490z" />
    <glyph glyph-name="iotadieresistonos" unicode="&#x390;" horiz-adv-x="780" 
d="M328 1051v-756q0 -156 168 -156q100 0 213 37v-164q-125 -37 -205 -37q-166 0 -263 70t-98 248v758h185zM494 1210v197h200v-197h-200zM-133 1210v197h201v-197h-201zM174 1210l39 308h221l-129 -308h-131z" />
    <glyph glyph-name="Alpha" unicode="&#x391;" horiz-adv-x="1357" 
d="M389 516h588q-162 403 -295 641q-133 -250 -293 -641zM1368 0h-201q-63 193 -123 344h-725q-82 -207 -122 -344h-207q133 402 309 794t266 537h228q123 -198 296 -604q173 -405 279 -727z" />
    <glyph glyph-name="Beta" unicode="&#x392;" horiz-adv-x="1380" 
d="M356 176h324q283 0 349 99q28 42 28 106q0 215 -369 215h-332v-420zM356 766h340q315 0 316 205q0 120 -107 156q-84 28 -209 28h-340v-389zM164 1331h575q129 -1 231 -29t172 -104q71 -76 70 -194q0 -221 -202 -308v-2q248 -82 247 -336q0 -204 -165 -285
q-146 -73 -402 -73h-526v1331z" />
    <glyph glyph-name="Gamma" unicode="&#x393;" horiz-adv-x="1153" 
d="M356 0h-192v1331h897v-176h-705v-1155z" />
    <glyph glyph-name="Delta" unicode="&#x394;" horiz-adv-x="1437" 
d="M299 180h848q-248 690 -424 977q-80 -131 -212 -437t-212 -540zM1366 0h-1292v127q102 301 263 670t269 534h228q105 -164 268 -537q164 -374 264 -667v-127z" />
    <glyph glyph-name="Epsilon" unicode="&#x395;" horiz-adv-x="1226" 
d="M356 1155v-383h688v-174h-688v-422h748v-176h-940v1331h940v-176h-748z" />
    <glyph glyph-name="Zeta" unicode="&#x396;" horiz-adv-x="1226" 
d="M1141 176v-176h-1059v170l807 985h-807v176h1063v-170l-805 -985h801z" />
    <glyph glyph-name="Eta" unicode="&#x397;" horiz-adv-x="1472" 
d="M1116 0v575h-760v-575h-192v1331h192v-579h760v579h193v-1331h-193z" />
    <glyph glyph-name="Theta" unicode="&#x398;" horiz-adv-x="1622" 
d="M487 750h648v-164h-648v164zM1321 673q1 241 -137 372t-368 131t-370 -130t-141 -373q0 -243 141 -378q140 -135 368 -135t368 136q139 136 139 377zM820 1356q331 0 515 -188q185 -188 185 -501q0 -315 -193 -503t-515 -188t-516 188t-194 504t194 502t524 186z" />
    <glyph glyph-name="Iota" unicode="&#x399;" horiz-adv-x="520" 
d="M164 0v1331h192v-1331h-192z" />
    <glyph glyph-name="Kappa" unicode="&#x39a;" horiz-adv-x="1349" 
d="M1044 1331h295q-457 -377 -708 -663q410 -354 708 -668h-270q-293 303 -696 651q311 367 671 680zM164 0v1331h192v-1331h-192z" />
    <glyph glyph-name="Lambda" unicode="&#x39b;" horiz-adv-x="1357" 
d="M682 1157q-112 -207 -264 -566t-221 -591h-207q133 402 309 794t266 537h228q123 -198 296 -604q172 -405 279 -727h-201q-217 655 -485 1157z" />
    <glyph glyph-name="Mu" unicode="&#x39c;" horiz-adv-x="1769" 
d="M1253 1331h195q39 -117 55 -191q16 -73 41 -169t40 -180t50 -270t74 -521h-195q-90 672 -190 1071q-219 -526 -371 -930h-135q-313 836 -366 920q-104 -428 -193 -1061h-197q106 779 243 1240q22 75 26 91h194q178 -395 361 -870q190 469 368 870z" />
    <glyph glyph-name="Nu" unicode="&#x39d;" horiz-adv-x="1486" 
d="M354 0h-190v1331h221l748 -995v995h190v-1331h-162l-807 1073v-1073z" />
    <glyph glyph-name="Xi" unicode="&#x39e;" horiz-adv-x="1353" 
d="M123 197h1108v-197h-1108v197zM190 780h973v-192h-973v192zM127 1331h1100v-196h-1100v196z" />
    <glyph glyph-name="Omicron" unicode="&#x39f;" horiz-adv-x="1622" 
d="M1321 673q1 241 -137 372t-368 131t-370 -130t-141 -373q0 -243 141 -378q140 -135 368 -135t368 136q139 136 139 377zM820 1356q331 0 515 -188q185 -188 185 -501q0 -315 -193 -503t-515 -188t-516 188t-194 504t194 502t524 186z" />
    <glyph glyph-name="Pi" unicode="&#x3a0;" horiz-adv-x="1452" 
d="M1096 0v1155h-740v-1155h-192v1331h1124v-1331h-192z" />
    <glyph glyph-name="Rho" unicode="&#x3a1;" horiz-adv-x="1296" 
d="M356 610h336q134 0 226 64t92 208t-90 209t-228 64h-336v-545zM164 1331h553q127 0 222 -39q93 -39 147 -86t92 -131q38 -85 36 -193q0 -108 -36 -191t-92 -130q-147 -127 -369 -127h-361v-434h-192v1331z" />
    <glyph glyph-name="Sigma" unicode="&#x3a3;" horiz-adv-x="1255" 
d="M1174 176v-176h-1092v145l481 517l-469 497v172h1067v-176h-794l436 -463v-20l-467 -496h838z" />
    <glyph glyph-name="Tau" unicode="&#x3a4;" horiz-adv-x="1282" 
d="M737 1155v-1155h-192v1155h-504v176h1200v-176h-504z" />
    <glyph glyph-name="Upsilon" unicode="&#x3a5;" horiz-adv-x="1241" 
d="M717 0h-193v451q-78 102 -239 364q-162 262 -295 516h225q170 -340 406 -704q209 317 399 704h231q-129 -248 -293 -512t-241 -368v-451z" />
    <glyph glyph-name="Phi" unicode="&#x3a6;" horiz-adv-x="1738" 
d="M965 1149v-969q245 0 369 125t124 364t-128 359t-365 121zM774 180v969q-236 0 -364 -121q-128 -122 -129 -362q1 -240 127 -363t366 -123zM774 -104v104q-346 8 -519 186t-173 486t184 476q184 169 508 179v105h191v-105q346 -10 519 -186t173 -479q0 -302 -177 -478
t-515 -184v-104h-191z" />
    <glyph glyph-name="Chi" unicode="&#x3a7;" horiz-adv-x="1294" 
d="M1305 0h-242l-420 543l-401 -543h-252l530 672l-526 659h248l399 -520l414 520h237l-514 -657z" />
    <glyph glyph-name="Psi" unicode="&#x3a8;" horiz-adv-x="1744" 
d="M776 0v268q-376 0 -507 151q-65 75 -90 162q-26 87 -25 210v540h192v-522q0 -211 97 -286t333 -74v882h193v-882q113 0 185 13t132 50q113 71 113 297v522h192v-547q0 -276 -145 -396t-477 -120v-268h-193z" />
    <glyph glyph-name="Omega" unicode="&#x3a9;" horiz-adv-x="1579" 
d="M1493 680q0 -168 -71 -301t-183 -209h268v-170h-544v178q326 166 325 500q0 238 -133 364t-362 127q-229 0 -365 -125t-137 -366q0 -332 325 -500v-178h-544v170h270q-104 68 -180 201t-76 307q0 311 188 494q188 184 518 184t516 -186q185 -186 185 -490z" />
    <glyph glyph-name="Iotadieresis" unicode="&#x3aa;" horiz-adv-x="520" 
d="M356 0h-192v1331h192v-1331zM565 1448h-205v201h205v-201zM160 1448h-205v201h205v-201z" />
    <glyph glyph-name="Upsilondieresis" unicode="&#x3ab;" horiz-adv-x="1241" 
d="M717 0h-193v451q-78 102 -239.5 364t-294.5 516h225q170 -340 406 -704q209 317 399 704h231q-129 -248 -292.5 -512t-241.5 -368v-451zM920 1448h-205v201h205v-201zM514 1448h-205v201h205v-201z" />
    <glyph glyph-name="alphatonos" unicode="&#x3ac;" horiz-adv-x="1314" 
d="M670 145q160 0 307 97v569q-131 94 -297 94t-280 -99q-114 -100 -114 -282t112 -280t272 -99zM1161 0h-133l-20 78q-158 -102 -376 -102t-380 142q-160 144 -160 400t163 406t387 150t364 -101l18 78h137v-1051zM590 1210l90 308h221l-180 -308h-131z" />
    <glyph glyph-name="epsilontonos" unicode="&#x3ad;" horiz-adv-x="1157" 
d="M113 297q0 96 54 163t159 83q-180 59 -181 229q0 127 120 214t363 87t396 -57v-182q-182 68 -393 67q-293 0 -293 -151q0 -131 240 -132h235v-167h-256q-143 0 -197 -38t-55 -106q0 -160 330 -160q233 0 389 70v-182q-170 -59 -391 -60q-520 0 -520 322zM573 1210l91 308
h221l-180 -308h-132z" />
    <glyph glyph-name="etatonos" unicode="&#x3ae;" horiz-adv-x="1310" 
d="M741 1073q211 0 313 -90t103 -319v-1074h-184v1041q0 147 -55 207t-218 59q-98 0 -198 -40t-164 -91v-766h-184v1051h135l30 -121q69 53 185 98t237 45zM569 1210l90 308h222l-181 -308h-131z" />
    <glyph glyph-name="iotatonos" unicode="&#x3af;" horiz-adv-x="780" 
d="M328 1051v-756q0 -156 168 -156q100 0 213 37v-164q-125 -37 -205 -37q-166 0 -263 70t-98 248v758h185zM172 1210l90 308h221l-180 -308h-131z" />
    <glyph glyph-name="upsilondieresistonos" unicode="&#x3b0;" horiz-adv-x="1282" 
d="M154 399v652h184v-615q0 -154 66 -222t237 -67q336 0 336 424q0 270 -127 480h211q109 -193 109 -475t-139 -441q-138 -160 -411 -160t-377 124q-50 60 -70 132q-19 72 -19 168zM842 1210v197h200v-197h-200zM215 1210v197h201v-197h-201zM522 1210l39 308h221l-129 -308
h-131z" />
    <glyph glyph-name="alpha" unicode="&#x3b1;" horiz-adv-x="1314" 
d="M670 145q160 0 307 97v569q-131 94 -297 94t-280 -99q-114 -100 -114 -282t112 -280t272 -99zM1161 0h-133l-20 78q-158 -102 -376 -102t-380 142q-160 144 -160 400t163 406t387 150t364 -101l18 78h137v-1051z" />
    <glyph glyph-name="beta" unicode="&#x3b2;" horiz-adv-x="1325" 
d="M655 1317q-145 0 -231 -77t-86 -228v-770q135 -94 362 -95q338 0 338 295q0 144 -85 192t-238 48h-207v170h151q147 0 214 58t67 180q0 227 -285 227zM154 -410v1422q0 225 124 347t371 122q471 0 471 -383q0 -90 -44 -177t-124 -128q281 -66 281 -361q0 -160 -90 -292
q-51 -75 -163 -120t-271 -45q-223 0 -371 86v-471h-184z" />
    <glyph glyph-name="gamma" unicode="&#x3b3;" horiz-adv-x="1218" 
d="M492 -410v297q0 135 -441 1164h207q195 -467 340 -904h4q129 164 216 413t95 491h203q-12 -543 -440 -1102v-359h-184z" />
    <glyph glyph-name="delta" unicode="&#x3b4;" horiz-adv-x="1290" 
d="M647 150q176 0 267 97q92 97 92 241t-94 238t-255 159q-172 -25 -277 -124q-106 -99 -106 -260t98 -256t275 -95zM637 -25q-254 -1 -405 135t-150 367q0 189 103 323t300 183q-90 47 -132 103t-42 139q-1 117 105 187t302 69q196 0 357 -62v-162q-164 59 -327 60
q-240 0 -240 -109q0 -47 42 -78q42 -32 150 -78t182 -88t154 -109q162 -135 162 -366t-154 -373t-407 -141z" />
    <glyph glyph-name="epsilon" unicode="&#x3b5;" horiz-adv-x="1157" 
d="M113 297q0 96 54 163t159 83q-180 59 -181 229q0 127 120 214t363 87t396 -57v-182q-182 68 -393 67q-293 0 -293 -151q0 -131 240 -132h235v-167h-256q-143 0 -197 -38t-55 -106q0 -160 330 -160q233 0 389 70v-182q-170 -59 -391 -60q-520 0 -520 322z" />
    <glyph glyph-name="zeta" unicode="&#x3b6;" horiz-adv-x="1087" 
d="M844 -169q0 89 -33 113t-151 40q-414 56 -523 305q-45 102 -45 241q0 250 160 432t403 275h-456v178h837v-162q-752 -211 -751 -704q0 -330 424 -375q175 -18 251 -80t76 -206q0 -146 -82 -298h-194q84 152 84 241z" />
    <glyph glyph-name="eta" unicode="&#x3b7;" horiz-adv-x="1310" 
d="M741 1073q211 0 313 -90t103 -319v-1074h-184v1041q0 147 -55 207t-218 59q-98 0 -198 -40t-164 -91v-766h-184v1051h135l30 -121q69 53 185 98t237 45z" />
    <glyph glyph-name="theta" unicode="&#x3b8;" horiz-adv-x="1310" 
d="M285 666q-1 -258 83 -387t282 -129t287 124t89 392h-741zM665 1309q-151 0 -264 -99q-112 -99 -116 -374h741q-4 256 -107 364t-254 109zM655 -25q-563 0 -563 766q0 306 117 511q61 108 175 168t269 61q273 -1 419 -187t147 -555q-1 -764 -564 -764z" />
    <glyph glyph-name="iota" unicode="&#x3b9;" horiz-adv-x="780" 
d="M328 1051v-756q0 -156 168 -156q100 0 213 37v-164q-125 -37 -205 -37q-166 0 -263 70t-98 248v758h185z" />
    <glyph glyph-name="kappa" unicode="&#x3ba;" horiz-adv-x="1155" 
d="M844 1051h268q-351 -277 -524 -484q137 -109 323 -300t244 -267h-260q-270 315 -530 545q211 273 479 506zM154 0v1051h184v-1051h-184z" />
    <glyph glyph-name="lambda" unicode="&#x3bb;" horiz-adv-x="1140" 
d="M224 1309q-85 0 -148 -25v170q74 27 172 27q145 0 230 -77t214 -337q219 -438 418 -1067h-201q-126 375 -192 544q-67 169 -133 300q-86 -119 -184 -359t-156 -485h-203q35 199 168 517t285 509q-88 172 -136 228t-134 55z" />
    <glyph glyph-name="mu" unicode="&#x3bc;" horiz-adv-x="1308" 
d="M1155 1051v-1051h-135l-27 96q-94 -55 -209 -88t-198 -33q-154 0 -250 74l-2 -459h-180v1461h184v-615q0 -137 58 -213t212 -76q207 0 363 105v799h184z" />
    <glyph glyph-name="nu" unicode="&#x3bd;" horiz-adv-x="1062" 
d="M879 1051h204q-244 -633 -481 -1051h-147q-236 418 -475 1051h210q201 -551 347 -813q136 244 238 528q34 92 104 285z" />
    <glyph glyph-name="xi" unicode="&#x3be;" horiz-adv-x="1157" 
d="M92 397q0 154 92 254t230 127q-258 68 -258 314q0 192 134 290t372 98t393 -65v-176q-173 70 -351 70q-178 -1 -269 -51t-91 -179q0 -178 253 -207q69 -8 163 -8h198v-178h-256q-205 0 -311 -56t-106 -188t99 -186q99 -56 306 -78t284 -84t77 -206q0 -146 -82 -298h-195
q84 152 84 241t-34 115t-144 38q-328 37 -458 131t-130 282z" />
    <glyph glyph-name="omicron" unicode="&#x3bf;" horiz-adv-x="1310" 
d="M655 901q-162 0 -266 -103q-104 -104 -104 -270t95 -272t275 -106t276 107q95 109 95 273t-104 268q-105 103 -267 103zM655 1073q238 0 401 -145q163 -144 163 -406t-163 -404t-402 -142q-238 0 -400 142t-162 403t162 407t401 145z" />
    <glyph glyph-name="pi" unicode="&#x3c0;" horiz-adv-x="1501" 
d="M313 0v872h-252v179h1348v-179h-276v-565q-1 -109 29 -139t94 -29q64 0 118 23v-164q-74 -23 -149 -23q-145 0 -211 71t-66 233v593h-450v-872h-185z" />
    <glyph glyph-name="rho" unicode="&#x3c1;" horiz-adv-x="1284" 
d="M618 147q178 0 279 109q100 108 100 272t-96 270t-272 107q-100 0 -169 -34t-100 -90q-53 -96 -53 -214v-325q133 -95 311 -95zM652 1073q244 0 391 -143q149 -143 149 -400q0 -258 -164 -406t-389 -149q-180 0 -332 86v-471h-184v965q0 250 142 384q143 134 387 134z
" />
    <glyph glyph-name="sigmafinal" unicode="&#x3c2;" horiz-adv-x="1132" 
d="M649 1073q125 0 201 -16t176 -56l-2 -180q-212 80 -368 80t-264 -95q-108 -96 -108 -262q1 -323 425 -370q175 -18 251 -80t76 -206q0 -146 -82 -298h-194q84 152 84 241t-32 113t-146 40q-573 49 -574 546q0 254 158 398t399 145z" />
    <glyph glyph-name="sigma" unicode="&#x3c3;" horiz-adv-x="1359" 
d="M646 150q159 0 259 93t101 275q0 227 -213 354h-146q-182 0 -272 -104t-90 -266t101 -257t260 -95zM92 511q0 247 155 393t406 147h635v-179h-252q162 -129 162 -356q0 -152 -55 -264t-143 -168q-167 -109 -343 -109q-257 1 -411 145t-154 391z" />
    <glyph glyph-name="tau" unicode="&#x3c4;" horiz-adv-x="1191" 
d="M1110 1051v-179h-461v-577q0 -88 37 -122t124 -34t187 33v-164q-111 -33 -211 -33q-150 0 -236 70t-85 248v579h-393v179h1038z" />
    <glyph glyph-name="upsilon" unicode="&#x3c5;" horiz-adv-x="1282" 
d="M154 399v652h184v-615q0 -154 66 -222t237 -67q336 0 336 424q0 270 -127 480h211q109 -193 109 -475t-139 -441q-138 -160 -411 -160t-377 124q-50 60 -70 132q-19 72 -19 168z" />
    <glyph glyph-name="phi" unicode="&#x3c6;" horiz-adv-x="1638" 
d="M911 922v-791q227 0 335 98t108 297q-1 396 -443 396zM727 131v791q-221 0 -332 -94t-111 -302q0 -207 112 -301q110 -94 331 -94zM727 -410v373q-340 0 -509 184q-126 137 -126 387t157 402t478 154v266h184v-266q299 0 467 -144t168 -422q0 -279 -168 -419t-467 -142
v-373h-184z" />
    <glyph glyph-name="chi" unicode="&#x3c7;" horiz-adv-x="1124" 
d="M561 465l334 586h192l-425 -727l432 -734h-207l-332 588l-338 -588h-192l430 729l-435 732h205z" />
    <glyph glyph-name="psi" unicode="&#x3c8;" horiz-adv-x="1595" 
d="M707 -410v385q-342 0 -456 146q-57 71 -77 149t-20 187v594h184v-592q0 -183 78 -245t291 -67v1209h184v-1209h45q354 0 354 437q0 104 -33 236t-94 231h211q109 -193 109 -473q1 -280 -141 -441q-142 -162 -414 -162h-39v-385h-182z" />
    <glyph glyph-name="omega" unicode="&#x3c9;" horiz-adv-x="1638" 
d="M483 -25q-180 0 -280 123t-101 355q0 334 193 598h205q-86 -113 -146 -276t-59 -331q0 -295 211 -294q98 0 160 65q61 66 61 178v410h184v-410q-1 -113 61 -179t161 -64q211 0 210 294q0 168 -59 331t-145 276h204q193 -264 193 -598q0 -225 -99 -351t-282 -127
q-242 0 -336 201q-90 -201 -336 -201z" />
    <glyph glyph-name="iotadieresis" unicode="&#x3ca;" horiz-adv-x="780" 
d="M328 1051v-756q0 -156 168 -156q100 0 213 37v-164q-125 -37 -205 -37q-166 0 -263 70t-98 248v758h185zM537 1401v-197h-201v197h201zM131 1401v-197h-201v197h201z" />
    <glyph glyph-name="upsilondieresis" unicode="&#x3cb;" horiz-adv-x="1282" 
d="M154 399v652h184v-615q0 -154 66 -222t237 -67q336 0 336 424q0 270 -127 480h211q109 -193 109 -475t-139 -441q-138 -160 -411 -160t-377 124q-50 60 -70 132q-19 72 -19 168zM918 1401v-197h-201v197h201zM512 1401v-197h-201v197h201z" />
    <glyph glyph-name="omicrontonos" unicode="&#x3cc;" horiz-adv-x="1310" 
d="M655 901q-162 0 -266 -103q-104 -104 -104 -270t95 -272t275 -106t276 107q95 109 95 273t-104 268q-105 103 -267 103zM655 1073q238 0 401 -145q163 -144 163 -406t-163 -404t-402 -142q-238 0 -400 142t-162 403t162 407t401 145zM590 1210l90 308h221l-180 -308h-131
z" />
    <glyph glyph-name="upsilontonos" unicode="&#x3cd;" horiz-adv-x="1282" 
d="M154 399v652h184v-615q0 -154 66 -222t237 -67q336 0 336 424q0 270 -127 480h211q109 -193 109 -475t-139 -441q-138 -160 -411 -160t-377 124q-50 60 -70 132q-19 72 -19 168zM557 1210l90 308h221l-180 -308h-131z" />
    <glyph glyph-name="omegatonos" unicode="&#x3ce;" horiz-adv-x="1638" 
d="M483 -25q-180 0 -280 123t-101 355q0 334 193 598h205q-86 -113 -146 -276t-59 -331q0 -295 211 -294q98 0 160 65q61 66 61 178v410h184v-410q-1 -113 61 -179t161 -64q211 0 210 294q0 168 -59 331t-145 276h204q193 -264 193 -598q0 -225 -99 -351t-282 -127
q-242 0 -336 201q-90 -201 -336 -201zM745 1210l91 308h221l-180 -308h-132z" />
    <glyph glyph-name="uni0400" unicode="&#x400;" horiz-adv-x="1226" 
d="M1104 1155h-748v-383h688v-174h-688v-422h748v-176h-940v1331h940v-176zM731 1454h-162l-207 297h218z" />
    <glyph glyph-name="uni0401" unicode="&#x401;" horiz-adv-x="1226" 
d="M1104 1155h-748v-383h688v-174h-688v-422h748v-176h-940v1331h940v-176zM940 1448h-205v201h205v-201zM535 1448h-205v201h205v-201z" />
    <glyph glyph-name="uni0402" unicode="&#x402;" horiz-adv-x="1650" 
d="M1130 924q206 0 302 -102t96 -363v-60q0 -205 -74 -313t-260 -109q-102 0 -244 43v179q172 -45 246 -45q139 0 139 233v66q0 172 -52 233t-183 62q-184 0 -363 -134v-614h-192v1155h-504v176h1200v-176h-504v-364q188 133 393 133z" />
    <glyph glyph-name="uni0403" unicode="&#x403;" horiz-adv-x="1036" 
d="M995 1155h-639v-1155h-192v1331h831v-176zM592 1454h-162l152 297h217z" />
    <glyph glyph-name="uni0404" unicode="&#x404;" horiz-adv-x="1341" 
d="M772 152q136 0 234 20t233 74v-189q-211 -82 -499 -82t-464 172q-174 171 -174 519t178 519t496 171q262 0 453 -90v-193q-209 106 -457 107q-202 0 -322 -102t-147 -300h709v-176h-715q14 -226 141 -338t334 -112z" />
    <glyph glyph-name="uni0405" unicode="&#x405;" horiz-adv-x="1239" 
d="M559.5 152q179.5 0 279 55t99.5 149q0 141 -199 195l-313 86q-315 84 -315 354q0 184 152 274.5t377.5 90.5t438.5 -70v-184q-258 80 -416 80t-258 -44t-100 -147q0 -131 195 -184l338 -96q299 -82 299 -349q0 -186 -147.5 -286.5t-402 -100.5t-495.5 91v194
q288 -108 467.5 -108z" />
    <glyph glyph-name="uni0406" unicode="&#x406;" horiz-adv-x="520" 
d="M356 0h-192v1331h192v-1331z" />
    <glyph glyph-name="uni0407" unicode="&#x407;" horiz-adv-x="520" 
d="M356 0h-192v1331h192v-1331zM565 1448h-205v201h205v-201zM160 1448h-205v201h205v-201z" />
    <glyph glyph-name="uni0408" unicode="&#x408;" horiz-adv-x="929" 
d="M776 1331v-954q0 -184 -116 -293q-114 -109 -288 -109t-352 54v192q174 -63 324 -63q240 0 240 264v909h192z" />
    <glyph glyph-name="uni0409" unicode="&#x409;" horiz-adv-x="1994" 
d="M1139 176h297q147 0 228 72t81 188t-85 179q-85 62 -235 63h-286v-502zM1139 854h291q238 0 376 -104t138 -297q0 -453 -508 -453h-490v1155h-424q-73 -849 -249 -1071q-85 -109 -253 -109q-29 0 -49 2l-2 168q14 -2 31 -2q94 0 146 91t98 288q57 270 96 809h799v-477z
" />
    <glyph glyph-name="uni040A" unicode="&#x40a;" horiz-adv-x="2136" 
d="M1280 176h305q301 0 301 236q0 203 -309 202h-297v-438zM1280 791h301q233 -1 369 -99t135 -284q0 -186 -126 -298q-126 -110 -374 -110h-491v614h-738v-614h-192v1331h192v-540h738v540h186v-540z" />
    <glyph glyph-name="uni040B" unicode="&#x40b;" horiz-adv-x="1648" 
d="M1127 924q204 0 301 -102t98 -363v-457h-193v451q0 172 -52 233t-183 62q-188 0 -361 -132v-616h-192v1155h-504v176h1200v-176h-504v-362q186 131 390 131z" />
    <glyph glyph-name="uni040C" unicode="&#x40c;" horiz-adv-x="1316" 
d="M356 561v-561h-192v1331h192v-594h113q264 317 561 594h270q-345 -294 -667 -659q141 -120 256 -236q220 -223 418 -436h-263q-350 375 -557 561h-131zM733 1454h-162l152 297h217z" />
    <glyph glyph-name="uni040D" unicode="&#x40d;" horiz-adv-x="1484" 
d="M354 1331v-1032l760 1032h207v-1331h-191v1077l-798 -1077h-168v1331h190zM834 1454h-162l-207 297h217z" />
    <glyph glyph-name="uni040E" unicode="&#x40e;" horiz-adv-x="1226" 
d="M1022 1331h225q-371 -707 -790 -1331h-242q180 244 309 449q-82 115 -240.5 376.5t-283.5 505.5h215q145 -287 422 -702q129 196 385 702zM624 1450q-264 0 -290 244h158q14 -109 133 -109t133 109h157q-27 -244 -291 -244z" />
    <glyph glyph-name="uni040F" unicode="&#x40f;" horiz-adv-x="1421" 
d="M1257 0h-454v-281h-185v281h-454v1331h192v-1155h709v1155h192v-1331z" />
    <glyph glyph-name="uni0410" unicode="&#x410;" horiz-adv-x="1357" 
d="M389 516h588q-162 403 -295 641q-133 -250 -293 -641zM1368 0h-201q-63 193 -123 344h-725q-82 -207 -122 -344h-207q133 403 309 794.5t266 536.5h228q122 -197 295.5 -603t279.5 -728z" />
    <glyph glyph-name="uni0411" unicode="&#x411;" horiz-adv-x="1249" 
d="M352 678v-502h318q147 0 228 72t81 188t-85 179q-85 62 -235 63h-307zM1012 1155h-656v-301h308q238 0 376 -104t138 -297q0 -453 -508 -453h-510v1331h852v-176z" />
    <glyph glyph-name="uni0412" unicode="&#x412;" horiz-adv-x="1380" 
d="M356 596v-420h324q283 0 349 99q28 42 28 106q0 215 -369 215h-332zM356 1155v-389h340q315 0 316 205q0 120 -107 156q-84 28 -209 28h-340zM164 1331h575q129 -1 231 -29t172 -104q71 -76 70 -194q0 -221 -202 -308v-2q248 -82 247 -336q0 -204 -165 -285
q-146 -73 -402 -73h-526v1331z" />
    <glyph glyph-name="uni0413" unicode="&#x413;" horiz-adv-x="1036" 
d="M995 1155h-639v-1155h-192v1331h831v-176z" />
    <glyph glyph-name="uni0414" unicode="&#x414;" horiz-adv-x="1388" 
d="M1012 176v979h-471q-35 -410 -107 -719q-41 -176 -98 -260h676zM121 176q167 117 244 1157l839 -2v-1155h174v-457h-186v281h-1018v-281h-184v457h131z" />
    <glyph glyph-name="uni0415" unicode="&#x415;" horiz-adv-x="1226" 
d="M1104 1155h-748v-383h688v-174h-688v-422h748v-176h-940v1331h940v-176z" />
    <glyph glyph-name="uni0416" unicode="&#x416;" horiz-adv-x="1859" 
d="M1022 561v-561h-184v561h-166q-113 -152 -402 -561h-250q319 459 490 672q-236 369 -483 659h254q221 -287 403 -594h154v594h184v-594h154q182 307 403 594h254q-248 -291 -483 -659q170 -213 489 -672h-250q-289 410 -401 561h-166z" />
    <glyph glyph-name="uni0417" unicode="&#x417;" horiz-adv-x="1286" 
d="M592 1356q526 0 526 -357q0 -102 -53 -181t-145 -118v-2q108 -36 176 -116t67 -191q0 -416 -559 -416q-260 0 -471 82v193q244 -98 452 -98t294 60t86 177q0 205 -336 205h-316v176h316q145 0 218 55t73 152q0 203 -324 203q-236 0 -453 -111v197q82 38 209 64t240 26z
" />
    <glyph glyph-name="uni0418" unicode="&#x418;" horiz-adv-x="1484" 
d="M354 1331v-1032l760 1032h207v-1331h-191v1077l-798 -1077h-168v1331h190z" />
    <glyph glyph-name="uni0419" unicode="&#x419;" horiz-adv-x="1484" 
d="M354 1331v-1032l760 1032h207v-1331h-191v1077l-798 -1077h-168v1331h190zM724 1427q-257 0 -275 246h172q18 -113 122 -112q127 0 166 112h121q-49 -246 -306 -246z" />
    <glyph glyph-name="uni041A" unicode="&#x41a;" horiz-adv-x="1316" 
d="M356 561v-561h-192v1331h192v-594h113q264 317 561 594h270q-345 -294 -667 -659q141 -120 256 -236q220 -223 418 -436h-263q-350 375 -557 561h-131z" />
    <glyph glyph-name="uni041B" unicode="&#x41b;" horiz-adv-x="1323" 
d="M1159 1331v-1331h-192v1155h-445q-73 -849 -249 -1071q-85 -109 -253 -109q-29 0 -49 2l-2 168q14 -2 31 -2q94 0 146 91t98 288q57 270 96 809h819z" />
    <glyph glyph-name="uni041C" unicode="&#x41c;" horiz-adv-x="1769" 
d="M1253 1331h195q39 -117 55 -191q16 -73 41 -169t40 -180t50 -270t74 -521h-195q-90 672 -190 1071q-219 -526 -371 -930h-135q-317 840 -366 920q-104 -428 -193 -1061h-197q106 779 243 1240q22 75 26 91h194q178 -395 361 -870q190 469 368 870z" />
    <glyph glyph-name="uni041D" unicode="&#x41d;" horiz-adv-x="1472" 
d="M1309 0h-193v575h-760v-575h-192v1331h192v-579h760v579h193v-1331z" />
    <glyph glyph-name="uni041E" unicode="&#x41e;" horiz-adv-x="1622" 
d="M816 1176q-230 0 -370.5 -130.5t-140.5 -373t141.5 -377.5t368.5 -135t366.5 136t139.5 377t-137.5 372t-367.5 131zM820 1356q331 0 515.5 -187.5t184.5 -501.5t-192.5 -503t-514.5 -189t-516.5 188.5t-194.5 504t193.5 502t524.5 186.5z" />
    <glyph glyph-name="uni041F" unicode="&#x41f;" horiz-adv-x="1452" 
d="M1288 0h-192v1155h-740v-1155h-192v1331h1124v-1331z" />
    <glyph glyph-name="uni0420" unicode="&#x420;" horiz-adv-x="1296" 
d="M356 1155v-545h336q134 0 226 64t92 208t-90 209t-228 64h-336zM164 1331h553q127 0 222 -39q93 -39 147 -86t92 -131q38 -85 36 -193q0 -108 -36 -191t-92 -130q-147 -127 -369 -127h-361v-434h-192v1331z" />
    <glyph glyph-name="uni0421" unicode="&#x421;" horiz-adv-x="1441" 
d="M893 1356q246 0 436 -86v-201q-207 106 -451.5 106.5t-408.5 -135t-164 -385.5q0 -131 53.5 -230t141.5 -157q172 -112 403 -112q125 0 213 18.5t223 71.5v-189q-197 -82 -446 -82q-249 -1 -441 97q-350 178 -350 598q0 158 64.5 295t175.5 221q225 170 551 170z" />
    <glyph glyph-name="uni0422" unicode="&#x422;" horiz-adv-x="1282" 
d="M1241 1155h-504v-1155h-192v1155h-504v176h1200v-176z" />
    <glyph glyph-name="uni0423" unicode="&#x423;" horiz-adv-x="1226" 
d="M1022 1331h225q-371 -707 -790 -1331h-242q180 244 309 449q-82 115 -240.5 376.5t-283.5 505.5h215q145 -287 422 -702q129 196 385 702z" />
    <glyph glyph-name="uni0424" unicode="&#x424;" horiz-adv-x="1695" 
d="M297 668q0 -224 118 -356t343 -156v1020q-461 -45 -461 -508zM1397 668q0 226 -117 358q-117 134 -346 152v-1026q236 18 350 154t113 362zM1593 669q0 -303 -165 -487t-490 -205v-83h-184v86q-326 26 -490 206t-164 480t165 479q165 180 489 207v86h184v-84
q322 -20 488 -202t167 -483z" />
    <glyph glyph-name="uni0425" unicode="&#x425;" horiz-adv-x="1294" 
d="M778 674l527 -674h-242l-420 543l-401 -543h-252l530 672l-526 659h248l399 -520l414 520h237z" />
    <glyph glyph-name="uni0426" unicode="&#x426;" horiz-adv-x="1441" 
d="M1432 176v-457h-185v281h-1083v1331h192v-1155h709v1155h192v-1155h175z" />
    <glyph glyph-name="uni0427" unicode="&#x427;" horiz-adv-x="1269" 
d="M1106 1331v-1329h-193v510q-188 -133 -393 -133t-301 101t-96 364v487h192v-481q1 -172 53 -234t183 -61q184 0 362 133v643h193z" />
    <glyph glyph-name="uni0428" unicode="&#x428;" horiz-adv-x="1933" 
d="M1769 1331v-1331h-1605v1331h192v-1155h518v1155h185v-1155h518v1155h192z" />
    <glyph glyph-name="uni0429" unicode="&#x429;" horiz-adv-x="1953" 
d="M1944 176v-457h-185v281h-1595v1331h192v-1155h518v1155h185v-1155h518v1155h192v-1155h175z" />
    <glyph glyph-name="uni042A" unicode="&#x42a;" horiz-adv-x="1488" 
d="M608 176h322q147 0 228 72t81 188t-85 179q-85 62 -234 63h-312v-502zM612 854h312q238 0 376 -104t138 -297q0 -453 -508 -453h-510v1159h-410v172h602v-477z" />
    <glyph glyph-name="uni042B" unicode="&#x42b;" horiz-adv-x="1751" 
d="M352 678v-502h322q147 0 228 72t81 188t-85 179q-85 62 -234 63h-312zM1587 0h-192v1331h192v-1331zM356 854h312q238 0 376 -104t138 -297q0 -453 -508 -453h-510v1331h192v-477z" />
    <glyph glyph-name="uni042C" unicode="&#x42c;" horiz-adv-x="1232" 
d="M352 176h322q147 0 228 72t81 188t-85 179q-85 62 -234 63h-312v-502zM356 854h312q238 0 376 -104t138 -297q0 -453 -508 -453h-510v1331h192v-477z" />
    <glyph glyph-name="uni042D" unicode="&#x42d;" horiz-adv-x="1341" 
d="M565 1356q317 0 495 -171t179 -515q0 -344 -188 -519t-464 -175t-485 81v189q136 -54 228 -74t225 -20q211 0 343 110t146 340h-714v176h708q-27 197 -147 299q-121 102 -322 103q-248 0 -456 -107v193q190 90 452 90z" />
    <glyph glyph-name="uni042E" unicode="&#x42e;" horiz-adv-x="2025" 
d="M774 673q0 -245 136 -383t354 -138q217 0 339 140q121 140 121 376t-126 374t-344 138t-348 -131q-132 -131 -132 -376zM1262 1356q303 0 482 -188t179 -502t-174 -502t-481 -188t-487 165q-179 166 -201 453h-224v-594h-192v1331h192v-561h226q29 274 202 430
q175 156 478 156z" />
    <glyph glyph-name="uni042F" unicode="&#x42f;" horiz-adv-x="1320" 
d="M965 1155h-308q-157 0 -239 -69q-82 -68 -82 -184t82 -178t231 -62h316v493zM1157 1331v-1331h-192v485h-277q-133 -137 -383 -485h-244q19 38 166 228t232 282q-322 68 -322 397q0 199 139 312t390 112h491z" />
    <glyph glyph-name="uni0430" unicode="&#x430;" horiz-adv-x="1234" 
d="M303 328q0 -98 73 -141.5t181 -43.5q172 0 340 107v190q-139 74 -324 74q-270 0 -270 -186zM610.5 1073q231.5 0 351 -103.5t119.5 -348.5v-621h-139l-24 96q-178 -121 -376 -121t-315.5 91.5t-117.5 263.5t126.5 255t320.5 83t341 -74v61q0 150 -94 198t-251 48
t-378 -72v183q205 61 436.5 61z" />
    <glyph glyph-name="uni0431" unicode="&#x431;" horiz-adv-x="1269" 
d="M638 147q169 1 258 95t89 253t-78 241t-225 83q-266 0 -389 -235q-6 -229 85 -333t260 -104zM686 991q234 0 364 -130t130 -359q0 -230 -144 -378t-401 -148q-258 0 -395 152q-137 153 -138 486v4q0 218 32 358q64 281 330 374q132 45 295 60q163 16 212 28t84 47
l47 -178q-51 -66 -317 -75q-267 -10 -373 -114t-115 -303q155 176 389 176z" />
    <glyph glyph-name="uni0432" unicode="&#x432;" horiz-adv-x="1200" 
d="M338 469v-311h309q258 0 258 156t-256 155h-311zM338 893v-281h311q111 0 160 36t49 112q0 133 -209 133h-311zM154 1051h497q193 0 296 -71t104 -192q0 -76 -46 -139t-124 -94v-2q217 -68 217 -244q0 -157 -110 -233t-357 -76h-477v1051z" />
    <glyph glyph-name="uni0433" unicode="&#x433;" horiz-adv-x="872" 
d="M821 893h-483v-893h-184v1051h667v-158z" />
    <glyph glyph-name="uni0434" unicode="&#x434;" horiz-adv-x="1210" 
d="M848 158v733h-367q-29 -305 -63 -474t-90 -259h520zM1200 158v-439h-172v281h-856v-281h-172v439h127q68 55 109 261t75 632l721 -2v-891h168z" />
    <glyph glyph-name="uni0435" unicode="&#x435;" horiz-adv-x="1196" 
d="M631 901q-135 0 -234.5 -73t-111.5 -214h626q-4 127 -74.5 207t-205.5 80zM1100 457h-824q27 -309 388 -310q106 0 185 16.5t230 61.5v-178q-203 -72 -433.5 -72t-392 135.5t-161.5 407.5q0 143 45 254q45 110 123 174q155 126 373.5 126.5t342.5 -134.5t124 -373v-108z
" />
    <glyph glyph-name="uni0436" unicode="&#x436;" horiz-adv-x="1576" 
d="M879 455v-455h-177v455h-135q-174 -213 -340 -455h-227q164 238 420 557q-166 233 -402 494h234q96 -117 338 -439h112v439h177v-439h108q242 322 338 439h234q-236 -260 -402 -494q256 -319 420 -557h-227q-166 242 -340 455h-131z" />
    <glyph glyph-name="uni0437" unicode="&#x437;" horiz-adv-x="1062" 
d="M522 1073q194 0 300 -77q105 -77 106 -191q0 -84 -48 -152t-126 -98v-2q207 -66 207 -254q0 -150 -112 -237t-339 -87t-404 62v182q215 -76 372 -76q290 0 290 170q0 156 -256 156h-295l2 143h293q223 0 223 146t-225 147q-164 0 -385 -71l-2 176q205 63 399 63z" />
    <glyph glyph-name="uni0438" unicode="&#x438;" horiz-adv-x="1243" 
d="M334 1051v-772l555 772h201v-1051h-181v817l-594 -817h-161v1051h180z" />
    <glyph glyph-name="uni0439" unicode="&#x439;" horiz-adv-x="1243" 
d="M334 1051v-772l555 772h201v-1051h-181v817l-594 -817h-161v1051h180zM601 1214q-257 0 -275 246h172q18 -113 123 -112q127 0 165 112h121q-49 -246 -306 -246z" />
    <glyph glyph-name="uni043A" unicode="&#x43a;" horiz-adv-x="1144" 
d="M338 455v-455h-184v1051h184v-439h86q229 248 440 439h260q-235 -187 -534 -490q287 -264 555 -561h-250q-336 358 -436 455h-121z" />
    <glyph glyph-name="uni043B" unicode="&#x43b;" horiz-adv-x="1120" 
d="M967 1051v-1051h-185v893h-350q-35 -365 -84 -563t-123 -276q-74 -79 -194 -79q-29 0 -49 2l-2 158q14 -2 30 -2q100 0 156 201q55 201 96 717h705z" />
    <glyph glyph-name="uni043C" unicode="&#x43c;" horiz-adv-x="1368" 
d="M971 1051h192q84 -397 174 -1051h-190q-78 649 -105 770q-78 -162 -284 -678h-148q-221 543 -280 668q-53 -233 -107 -760h-192q94 659 182 1051h186q63 -135 285 -686q18 41 123 302t164 384z" />
    <glyph glyph-name="uni043D" unicode="&#x43d;" horiz-adv-x="1243" 
d="M905 0v455h-567v-455h-184v1051h184v-439h567v439h185v-1051h-185z" />
    <glyph glyph-name="uni043E" unicode="&#x43e;" horiz-adv-x="1310" 
d="M655.5 901q-161.5 0 -266 -103.5t-104.5 -269.5t95 -272t275 -106q179 0 275 108t96 272t-104.5 267.5t-266 103.5zM655.5 1073q237.5 0 400.5 -145.5t163 -406.5t-163 -403.5t-402 -142.5t-400.5 142.5t-161.5 403.5t163 406.5t400.5 145.5z" />
    <glyph glyph-name="uni043F" unicode="&#x43f;" horiz-adv-x="1273" 
d="M1120 0h-184v893h-598v-893h-184v1051h966v-1051z" />
    <glyph glyph-name="uni0440" unicode="&#x440;" horiz-adv-x="1314" 
d="M649 147q178 0 279 109q100 108 100 272t-96 270t-276 107q-180 0 -318 -119v-544q133 -95 311 -95zM701 1073q225 0 373 -143t148 -400q0 -258 -163 -406q-164 -148 -389 -149q-182 0 -332 86v-471h-184v1461h135l26 -99q162 121 386 121z" />
    <glyph glyph-name="uni0441" unicode="&#x441;" horiz-adv-x="1132" 
d="M670 1073q117 0 185.5 -13t168.5 -50v-183q-197 74 -352.5 74t-271 -98t-115.5 -267.5t109.5 -279t295.5 -109.5q68 0 107 6.5t52 7.5t48 11t41 12t51 16.5t51 16.5v-182q-199 -59 -366 -60q-248 0 -415 147.5t-167 401.5t166 401.5t412 147.5z" />
    <glyph glyph-name="uni0442" unicode="&#x442;" horiz-adv-x="1093" 
d="M1042 893h-403v-893h-184v893h-404v158h991v-158z" />
    <glyph glyph-name="uni0443" unicode="&#x443;" horiz-adv-x="1107" 
d="M213 -410l246 437q-291 524 -479 1024h204q150 -412 379 -828q188 373 350 828h215q-246 -674 -702 -1461h-213z" />
    <glyph glyph-name="uni0444" unicode="&#x444;" horiz-adv-x="1650" 
d="M1014 143q154 -1 253 101t99 275t-94 279t-266 105q-39 0 -97 -4v-752q66 -4 105 -4zM645 903q-172 1 -266 -105t-94 -279t99 -274t253 -102q70 0 100 4v752q-53 4 -92 4zM1024 1071q227 0 381 -140q154 -141 154 -407t-158 -407t-387 -142q-51 0 -96 7v-392h-185v392
q-45 -6 -96 -7q-229 -1 -387 141t-158 408t154 406t381 141q45 0 106 -4v348h185l-5 -350q50 6 111 6z" />
    <glyph glyph-name="uni0445" unicode="&#x445;" horiz-adv-x="1071" 
d="M662 516l411 -516h-239l-289 385l-307 -385h-244l426 516l-430 535h231l320 -406l307 406h233z" />
    <glyph glyph-name="uni0446" unicode="&#x446;" horiz-adv-x="1277" 
d="M1268 158v-439h-172v281h-942v1051h184v-893h577v893h185v-893h168z" />
    <glyph glyph-name="uni0447" unicode="&#x447;" horiz-adv-x="1163" 
d="M1010 1051v-1051h-185v395q-179 -133 -361 -133t-272 100t-90 351v338h185v-338q0 -156 48 -217t163 -62q158 0 327 135v482h185z" />
    <glyph glyph-name="uni0448" unicode="&#x448;" horiz-adv-x="1744" 
d="M1591 1051v-1051h-1437v1051h184v-893h446v893h177v-893h446v893h184z" />
    <glyph glyph-name="uni0449" unicode="&#x449;" horiz-adv-x="1769" 
d="M1759 158v-439h-172v281h-1433v1051h184v-893h446v893h177v-893h446v893h184v-893h168z" />
    <glyph glyph-name="uni044A" unicode="&#x44a;" horiz-adv-x="1419" 
d="M886 141q290 0 290 215q0 195 -275 195q-166 0 -315 -78v-305q154 -27 300 -27zM920 723q216 0 332 -93t116 -279q0 -187 -122 -281t-384 -95q-197 0 -461 37v881h-360v158h545v-406q172 78 334 78z" />
    <glyph glyph-name="uni044B" unicode="&#x44b;" horiz-adv-x="1640" 
d="M907 356q1 195 -277 195q-142 0 -292 -78v-305q153 -27 272 -27q299 0 297 215zM1487 0h-184v1051h184v-1051zM666 723q206 0 320 -94t114 -267q0 -387 -492 -387q-190 0 -454 37v1039h184v-406q172 78 328 78z" />
    <glyph glyph-name="uni044C" unicode="&#x44c;" horiz-adv-x="1171" 
d="M638 141q290 0 290 215q0 195 -275 195q-166 0 -315 -78v-305q154 -27 300 -27zM672 723q215 0 332 -93q116 -93 116 -279q0 -187 -122 -281t-384 -95q-197 0 -460 37v1039h184v-406q172 78 334 78z" />
    <glyph glyph-name="uni044D" unicode="&#x44d;" horiz-adv-x="1081" 
d="M479 1071q238 0 374 -139t136 -399q0 -261 -139 -409q-138 -148 -362 -148t-404 57v186q221 -72 376 -72q156 0 236 85t97 223h-531v157h531q-35 287 -334 287q-137 0 -361 -70l-2 181q199 61 383 61z" />
    <glyph glyph-name="uni044E" unicode="&#x44e;" horiz-adv-x="1703" 
d="M719 530q0 -166 91 -274t260 -109q169 0 259 109q90 110 90 274t-100 268t-250 103q-150 0 -250 -103q-100 -102 -100 -268zM1079 1073q215 0 374 -145q159 -144 159 -406t-159 -404t-377 -142t-372 124q-154 125 -174 355h-192v-455h-184v1051h184v-439h194
q28 217 180 339t367 122z" />
    <glyph glyph-name="uni044F" unicode="&#x44f;" horiz-adv-x="1218" 
d="M584 494q174 0 297 18v379l-260 2q-168 2 -240 -49t-72 -158q1 -192 275 -192zM1065 1051v-1051h-184v352q-119 -20 -240 -22q-182 -158 -342 -328l-248 -2q143 156 355 344q-137 31 -213 117t-76 219q0 186 122 278t384 93h442z" />
    <glyph glyph-name="uni0450" unicode="&#x450;" horiz-adv-x="1196" 
d="M631 901q-135 0 -234.5 -73t-111.5 -214h626q-4 127 -74.5 207t-205.5 80zM1100 457h-824q27 -309 388 -310q106 0 185 16.5t230 61.5v-178q-203 -72 -433.5 -72t-392 135.5t-161.5 407.5q0 143 45 254q45 110 123 174q155 126 373.5 126.5t342.5 -134.5t124 -373v-108z
M547 1210l-207 297h217l152 -297h-162z" />
    <glyph glyph-name="uni0451" unicode="&#x451;" horiz-adv-x="1196" 
d="M631 901q-135 0 -234.5 -73t-111.5 -214h626q-4 127 -74.5 207t-205.5 80zM1100 457h-824q27 -309 388 -310q106 0 185 16.5t230 61.5v-178q-203 -72 -433.5 -72t-392 135.5t-161.5 407.5q0 143 45 254q45 110 123 174q155 126 373.5 126.5t342.5 -134.5t124 -373v-108z
M922 1204h-201v197h201v-197zM516 1204h-201v197h201v-197z" />
    <glyph glyph-name="uni0452" unicode="&#x452;" horiz-adv-x="1320" 
d="M752 1073q211 0 313 -90t102 -319v-781q0 -178 -96 -247.5t-260 -69.5q-57 0 -174 26v162q96 -24 180 -24t125 35.5t41 119.5v746q0 147 -55.5 206.5t-216.5 59.5q-98 0 -201.5 -40t-171.5 -91v-766h-184v1157h-226v158h226v100h184v-100h291v-158h-291v-213
q76 49 189.5 89t224.5 40z" />
    <glyph glyph-name="uni0453" unicode="&#x453;" horiz-adv-x="872" 
d="M821 893h-483v-893h-184v1051h667v-158zM616 1210h-161l151 297h217z" />
    <glyph glyph-name="uni0454" unicode="&#x454;" horiz-adv-x="1081" 
d="M623 147q154 0 374 72v-186q-179 -57 -411 -57t-363 144q-131 146 -131 410t136 402q136 139 374 139q186 0 383 -57l-2 -180q-221 66 -360 65q-299 0 -334 -287h530v-157h-530q35 -308 334 -308z" />
    <glyph glyph-name="uni0455" unicode="&#x455;" horiz-adv-x="1050" 
d="M537 1073q199 0 389 -55v-178q-190 63 -384 63q-194 1 -238 -57q-22 -28 -23 -72q0 -84 151 -119l234 -53q147 -35 225 -99.5t78 -209.5q0 -176 -128 -247t-340 -71t-419 58v178q215 -66 399 -66q301 0 301 150q0 53 -37.5 82t-107.5 47l-307 74q-113 27 -175.5 100.5
t-62.5 167.5q1 307 445 307z" />
    <glyph glyph-name="uni0456" unicode="&#x456;" horiz-adv-x="491" 
d="M338 0h-184v1051h184v-1051zM350 1204h-209v189h209v-189z" />
    <glyph glyph-name="uni0457" unicode="&#x457;" horiz-adv-x="491" 
d="M338 0h-184v1051h184v-1051zM549 1204h-201v197h201v-197zM143 1204h-200v197h200v-197z" />
    <glyph glyph-name="uni0458" unicode="&#x458;" horiz-adv-x="468" 
d="M313 1051v-1168q0 -178 -96 -248t-260 -69q-57 0 -174 26v162q225 -59 305 12q41 36 41 119v1166h184zM328 1204h-209v189h209v-189z" />
    <glyph glyph-name="uni0459" unicode="&#x459;" horiz-adv-x="1759" 
d="M1214 141q301 0 302 215q0 195 -261 195q-156 0 -305 -78v-305q153 -27 264 -27zM1274 723q206 0 320 -94t114 -267q0 -387 -496 -387q-182 0 -446 37v881h-338q-35 -367 -83 -563t-121 -276q-73 -79 -193 -79q-29 0 -49 2l-2 158q14 -2 30 -2q100 0 156 201
q55 201 96 717h688v-406q172 78 324 78z" />
    <glyph glyph-name="uni045A" unicode="&#x45a;" horiz-adv-x="1878" 
d="M1360 141q277 0 274 215q0 195 -260 195q-156 0 -305 -78v-305q153 -27 291 -27zM1393 723q205 0 319 -94t115 -279q0 -186 -119 -280t-373 -95q-182 0 -450 37v443h-547v-455h-184v1051h184v-439h547v439h184v-406q172 78 324 78z" />
    <glyph glyph-name="uni045B" unicode="&#x45b;" horiz-adv-x="1320" 
d="M752 1073q211 0 313 -90t102 -319v-664h-184v631q0 147 -55.5 206.5t-216.5 59.5q-98 0 -201.5 -40t-171.5 -91v-766h-184v1157h-226v158h226v100h184v-100h291v-158h-291v-213q76 49 189.5 89t224.5 40z" />
    <glyph glyph-name="uni045C" unicode="&#x45c;" horiz-adv-x="1144" 
d="M338 455v-455h-184v1051h184v-439h86q229 248 440 439h260q-235 -187 -534 -490q287 -264 555 -561h-250q-336 358 -436 455h-121zM653 1210h-161l151 297h217z" />
    <glyph glyph-name="uni045D" unicode="&#x45d;" horiz-adv-x="1243" 
d="M334 1051v-772l555 772h201v-1051h-181v817l-594 -817h-161v1051h180zM713 1210h-162l-207 297h217z" />
    <glyph glyph-name="uni045E" unicode="&#x45e;" horiz-adv-x="1107" 
d="M213 -410l246 437q-291 524 -479 1024h204q150 -412 379 -828q188 373 350 828h215q-246 -674 -702 -1461h-213zM530.5 1214q-264.5 0 -290.5 244h157q14 -109 133 -108.5t134 108.5h157q-26 -244 -290.5 -244z" />
    <glyph glyph-name="uni045F" unicode="&#x45f;" horiz-adv-x="1253" 
d="M1100 0h-387v-281h-172v281h-387v1051h184v-893h577v893h185v-1051z" />
    <glyph glyph-name="uni0490" unicode="&#x490;" horiz-adv-x="1036" 
d="M995 1612v-457h-639v-1155h-192v1331h647v281h184z" />
    <glyph glyph-name="uni0491" unicode="&#x491;" horiz-adv-x="872" 
d="M821 1331v-438h-483v-893h-184v1051h495v280h172z" />
    <glyph glyph-name="uni0492" unicode="&#x492;" horiz-adv-x="1036" 
d="M356 1155v-379h361v-176h-361v-600h-192v600h-164v176h164v555h831v-176h-639z" />
    <glyph glyph-name="uni0493" unicode="&#x493;" horiz-adv-x="892" 
d="M358 893v-293h291v-158h-291v-442h-184v442h-184v158h184v451h668v-158h-484z" />
    <glyph glyph-name="uni0496" unicode="&#x496;" horiz-adv-x="1869" 
d="M1901 176v-457h-185v281h-127q-289 410 -401 561h-166v-561h-184v561h-166q-113 -152 -402 -561h-250q319 459 490 672q-236 369 -483 659h254q221 -287 403 -594h154v594h184v-594h154q182 307 403 594h254q-248 -291 -483 -659q145 -180 366 -496h185z" />
    <glyph glyph-name="uni0497" unicode="&#x497;" horiz-adv-x="1601" 
d="M1642 158v-439h-172v281h-120q-166 242 -340 455h-131v-455h-177v455h-135q-174 -213 -340 -455h-227q164 238 420 557q-166 233 -402 494h234q96 -117 338 -439h112v439h177v-439h108q242 322 338 439h234q-236 -260 -402 -494q158 -197 305 -399h180z" />
    <glyph glyph-name="uni049A" unicode="&#x49a;" horiz-adv-x="1306" 
d="M1348 176v-457h-185v281h-119q-350 375 -557 561h-131v-561h-192v1331h192v-594h113q264 317 561 594h270q-346 -295 -667 -659q223 -193 508 -496h207z" />
    <glyph glyph-name="uni049B" unicode="&#x49b;" horiz-adv-x="1144" 
d="M1165 158v-439h-172v281h-98q-336 358 -436 455h-121v-455h-184v1051h184v-439h86q229 248 440 439h260q-236 -186 -534 -490q154 -141 407 -403h168z" />
    <glyph glyph-name="uni049C" unicode="&#x49c;" horiz-adv-x="1325" 
d="M604 561v-397h-160v397h-88v-561h-192v1331h192v-594h88v314h160v-314h37q182 307 403 594h254q-248 -291 -483 -659q171 -213 490 -672h-250q-289 410 -402 561h-49z" />
    <glyph glyph-name="uni049D" unicode="&#x49d;" horiz-adv-x="1142" 
d="M528 455v-353h-114v353h-76v-455h-184v1051h184v-439h76v254h114v-254h27q223 297 340 439h229q-236 -260 -401 -494q256 -319 420 -557l-234 2q-162 236 -336 453h-45z" />
    <glyph glyph-name="uni04A2" unicode="&#x4a2;" horiz-adv-x="1482" 
d="M1473 176v-457h-185v281h-172v575h-760v-575h-192v1331h192v-579h760v579h193v-1155h164z" />
    <glyph glyph-name="uni04A3" unicode="&#x4a3;" horiz-adv-x="1267" 
d="M1257 158v-439h-172v281h-180v455h-567v-455h-184v1051h184v-439h567v439h185v-893h167z" />
    <glyph glyph-name="uni04AE" unicode="&#x4ae;" horiz-adv-x="1241" 
d="M717 0h-193v451q-78 102 -239.5 364t-294.5 516h225q170 -340 406 -704q209 317 399 704h231q-129 -248 -292.5 -512t-241.5 -368v-451z" />
    <glyph glyph-name="uni04AF" unicode="&#x4af;" horiz-adv-x="1105" 
d="M641 -410h-184v447q-272 494 -477 1014h210q184 -506 361 -824q188 341 364 824h211q-209 -526 -485 -1022v-439z" />
    <glyph glyph-name="uni04B2" unicode="&#x4b2;" horiz-adv-x="1302" 
d="M1364 176v-457h-184v281h-117l-420 543l-401 -543h-252l530 672l-526 659h248l399 -520l414 520h237l-514 -657l389 -498h197z" />
    <glyph glyph-name="uni04B3" unicode="&#x4b3;" horiz-adv-x="1071" 
d="M1110 158v-439h-172v281h-104l-289 385l-307 -385h-244l426 516l-430 535h231l320 -406l307 406h233l-419 -535l286 -358h162z" />
    <glyph glyph-name="uni04B8" unicode="&#x4b8;" horiz-adv-x="1269" 
d="M1106 1331v-1329h-193v510q-106 -78 -229 -113v-235h-180v215q-201 6 -291 108t-90 357v487h192v-481q0 -156 43 -219t146 -74v494h180v-480q113 27 229 117v643h193z" />
    <glyph glyph-name="uni04B9" unicode="&#x4b9;" horiz-adv-x="1163" 
d="M1010 1051v-1051h-185v395q-98 -70 -184 -102v-191h-168v160q-195 2 -283 102t-88 349v338h185v-338q0 -147 43 -209t143 -70v432h168v-407q90 35 184 110v482h185z" />
    <glyph glyph-name="uni04BA" unicode="&#x4ba;" horiz-adv-x="1269" 
d="M749 924q205 0 301 -102t97 -363v-459h-193v453q0 172 -52 233t-183 62q-184 0 -363 -134v-614h-192v1331h192v-540q188 133 393 133z" />
    <glyph glyph-name="uni04BB" unicode="&#x4bb;" horiz-adv-x="1320" 
d="M752 1053q211 0 313 -90.5t102 -319.5v-643h-184v610q0 147 -55.5 207t-216.5 60q-98 0 -204 -40t-169 -92v-745h-184v1415h184v-491q76 49 188.5 89t225.5 40z" />
    <glyph glyph-name="uni04C0" unicode="&#x4c0;" horiz-adv-x="520" 
d="M356 0h-192v1331h192v-1331z" />
    <glyph glyph-name="uni04CF" unicode="&#x4cf;" horiz-adv-x="491" 
d="M338 0h-184v1415h184v-1415z" />
    <glyph glyph-name="uni04D8" unicode="&#x4d8;" horiz-adv-x="1574" 
d="M807 152q213 0 331 118t134 324h-967q9 -206 149 -324t353 -118zM801 1356q313 0 492 -178t179 -494t-180 -512q-182 -197 -504 -197q-322 -1 -504 185q-181 186 -182 508v102h1168q-25 410 -469 410q-238 0 -527 -99v193q283 82 527 82z" />
    <glyph glyph-name="uni04D9" unicode="&#x4d9;" horiz-adv-x="1187" 
d="M570 147q132 1 212 63t113 220h-621q18 -133 91 -208t205 -75zM570 1071q240 0 383 -136q143 -137 143 -411t-146 -411t-376 -137t-358 134t-128 371v107h815v12q-2 145 -95 222t-267 77t-445 -90v184q234 78 474 78z" />
    <glyph glyph-name="uni04E8" unicode="&#x4e8;" horiz-adv-x="1601" 
d="M816 160q210 0 346 116.5t157 323.5h-1010q20 -209 158.5 -324.5t348.5 -115.5zM817 1176q-203 0 -338 -101.5t-166 -298.5h1000q-29 195 -161 297.5t-335 102.5zM820 1356q331 0 515.5 -187.5t184.5 -501.5t-192.5 -503t-514.5 -189t-516.5 188.5t-194.5 504t193.5 502
t524.5 186.5z" />
    <glyph glyph-name="uni04E9" unicode="&#x4e9;" horiz-adv-x="1310" 
d="M655 150q160 0 252 84.5t113 220.5h-731q20 -135 113 -220t253 -85zM654 901q-138 0 -236.5 -78t-124.5 -211h725q-27 133 -126.5 211t-237.5 78zM655.5 1073q237.5 0 400.5 -145.5t163 -406.5t-163 -403.5t-402 -142.5t-400.5 142.5t-161.5 403.5t163 406.5t400.5 145.5
z" />
    <glyph glyph-name="Wgrave" unicode="&#x1e80;" horiz-adv-x="1787" 
d="M1573 1331h199q-139 -668 -375 -1331h-203q-131 309 -305 782q-156 -455 -301 -782h-199q-76 207 -111.5 311.5t-118.5 405.5t-143 614h197q111 -535 283 -1075q139 313 321 854h148q37 -111 138 -389.5t185 -466.5q156 461 285 1077zM987 1454h-162l-207 297h218z" />
    <glyph glyph-name="wgrave" unicode="&#x1e81;" horiz-adv-x="1757" 
d="M1577 1051h190q-164 -569 -407 -1051h-166q-76 160 -171 399.5t-138 380.5q-100 -309 -330 -780h-160q-254 518 -405 1051h200q154 -504 291 -818q94 188 196.5 453.5t127.5 364.5h188q29 -111 114 -356.5t177 -458.5q146 313 293 815zM989 1210h-162l-206 297h217z" />
    <glyph glyph-name="Wacute" unicode="&#x1e82;" horiz-adv-x="1787" 
d="M1573 1331h199q-139 -668 -375 -1331h-203q-131 309 -305 782q-156 -455 -301 -782h-199q-76 207 -111.5 311.5t-118.5 405.5t-143 614h197q111 -535 283 -1075q139 313 321 854h148q37 -111 138 -389.5t185 -466.5q156 461 285 1077zM965 1454h-162l151 297h217z" />
    <glyph glyph-name="wacute" unicode="&#x1e83;" horiz-adv-x="1757" 
d="M1577 1051h190q-164 -569 -407 -1051h-166q-76 160 -171 399.5t-138 380.5q-100 -309 -330 -780h-160q-254 518 -405 1051h200q154 -504 291 -818q94 188 196.5 453.5t127.5 364.5h188q29 -111 114 -356.5t177 -458.5q146 313 293 815zM979 1210h-162l152 297h217z" />
    <glyph glyph-name="Wdieresis" unicode="&#x1e84;" horiz-adv-x="1787" 
d="M1573 1331h199q-139 -668 -375 -1331h-203q-131 309 -305 782q-156 -455 -301 -782h-199q-76 207 -111.5 311.5t-118.5 405.5t-143 614h197q111 -535 283 -1075q139 313 321 854h148q37 -111 138 -389.5t185 -466.5q156 461 285 1077zM1196 1448h-205v201h205v-201z
M791 1448h-205v201h205v-201z" />
    <glyph glyph-name="wdieresis" unicode="&#x1e85;" horiz-adv-x="1757" 
d="M1577 1051h190q-164 -569 -407 -1051h-166q-76 160 -171 399.5t-138 380.5q-100 -309 -330 -780h-160q-254 518 -405 1051h200q154 -504 291 -818q94 188 196.5 453.5t127.5 364.5h188q29 -111 114 -356.5t177 -458.5q146 313 293 815zM1202 1204h-201v197h201v-197z
M797 1204h-201v197h201v-197z" />
    <glyph glyph-name="uni1E9E" unicode="&#x1e9e;" horiz-adv-x="1536" 
d="M1434 374q0 -166 -122 -283q-122 -116 -352 -116t-471 95v178q285 -102 474 -103q272 0 272 236q0 248 -436 278v138l256 272q-127 113 -319 113t-286 -104q-93 -104 -94 -349v-729h-192v729q0 627 571 627q177 0 325 -75t224 -198l-270 -276q204 -47 312 -157t108 -276z
" />
    <glyph glyph-name="Ygrave" unicode="&#x1ef2;" horiz-adv-x="1241" 
d="M717 0h-193v451q-78 102 -239.5 364t-294.5 516h225q170 -340 406 -704q209 317 399 704h231q-129 -248 -292.5 -512t-241.5 -368v-451zM711 1454h-162l-207 297h217z" />
    <glyph glyph-name="ygrave" unicode="&#x1ef3;" horiz-adv-x="1107" 
d="M213 -410l246 437q-291 524 -479 1024h204q150 -412 379 -828q188 373 350 828h215q-246 -674 -702 -1461h-213zM455 1210l-207 297h217l151 -297h-161z" />
    <glyph glyph-name="hyphentwo" unicode="&#x2010;" horiz-adv-x="839" 
d="M758 537h-676v174h676v-174z" />
    <glyph glyph-name="endash" unicode="&#x2013;" horiz-adv-x="1044" 
d="M963 713v-174h-881v174h881z" />
    <glyph glyph-name="emdash" unicode="&#x2014;" horiz-adv-x="1658" 
d="M1577 539h-1495v174h1495v-174z" />
    <glyph glyph-name="uni2015" unicode="&#x2015;" horiz-adv-x="1658" 
d="M1577 539h-1495v174h1495v-174z" />
    <glyph glyph-name="underscoredbl" unicode="&#x2017;" horiz-adv-x="1024" 
d="M1024 -614h-1024v174h1024v-174zM1024 -389h-1024v174h1024v-174z" />
    <glyph glyph-name="quoteleft" unicode="&#x2018;" horiz-adv-x="331" 
d="M190 1356h142l-105 -383h-176z" />
    <glyph glyph-name="quoteright" unicode="&#x2019;" horiz-adv-x="331" 
d="M141 973h-141l104 383h177z" />
    <glyph glyph-name="quotesinglbase" unicode="&#x201a;" horiz-adv-x="331" 
d="M141 -184h-141l104 383h177z" />
    <glyph glyph-name="quotereversed" unicode="&#x201b;" horiz-adv-x="331" 
d="M227 1356l105 -383h-142l-139 383h176z" />
    <glyph glyph-name="quotedblleft" unicode="&#x201c;" horiz-adv-x="618" 
d="M514 973h-176l139 383h141zM227 973h-176l139 383h142z" />
    <glyph glyph-name="quotedblright" unicode="&#x201d;" horiz-adv-x="618" 
d="M428 973h-141l104 383h176zM141 973h-141l104 383h177z" />
    <glyph glyph-name="quotedblbase" unicode="&#x201e;" horiz-adv-x="618" 
d="M428 -184h-141l104 383h176zM141 -184h-141l104 383h177z" />
    <glyph glyph-name="dagger" unicode="&#x2020;" horiz-adv-x="1042" 
d="M608 0h-174v846h-352v174h352v352h174v-352h353v-174h-353v-846z" />
    <glyph glyph-name="daggerdbl" unicode="&#x2021;" horiz-adv-x="1042" 
d="M608 846v-236h353v-174h-353v-436h-174v436h-352v174h352v236h-352v174h352v352h174v-352h353v-174h-353z" />
    <glyph glyph-name="bullet" unicode="&#x2022;" horiz-adv-x="573" 
d="M471 449h-369v358h369v-358z" />
    <glyph glyph-name="ellipsis" unicode="&#x2026;" horiz-adv-x="1228" 
d="M1126 0h-204v199h204v-199zM717 0h-205v199h205v-199zM307 0h-205v199h205v-199z" />
    <glyph glyph-name="perthousand" unicode="&#x2030;" horiz-adv-x="2625" 
d="M2222 608q-78 0 -119 -64t-41 -177q0 -250 156 -250q164 0 164 264q0 107 -41 167t-119 60zM1403 608q-78 0 -119 -64t-41 -177q0 -250 156 -250q164 0 164 264q0 107 -41 167t-119 60zM2221 754q171 0 257 -110t86 -285t-87 -280t-257 -105t-256 104t-86 280t86 286
t257 110zM1402 754q171 0 257 -110t86 -285t-87 -280t-257 -105t-256 104t-86 280t86 286t257 110zM408 1212q-162 0 -166 -264q-2 -106 40 -166t120 -61q78 1 122 65q43 64 41 175q-3 251 -157 251zM662 0h-203l690 1331h199zM61 970q-1 174 87 280t258 106t256 -104
t86 -281q0 -176 -86 -286t-258 -110t-257 110q-86 110 -86 285z" />
    <glyph glyph-name="minute" unicode="&#x2032;" horiz-adv-x="577" 
d="M356 1010h-135l-26 471h188z" />
    <glyph glyph-name="second" unicode="&#x2033;" horiz-adv-x="577" 
d="M383 1481l-27 -471h-135l-26 471h188z" />
    <glyph glyph-name="guilsinglleft" unicode="&#x2039;" horiz-adv-x="638" 
d="M305 545l201 -393h-154l-219 403l219 393h152z" />
    <glyph glyph-name="guilsinglright" unicode="&#x203a;" horiz-adv-x="638" 
d="M506 555l-219 -403h-154l201 393l-199 403h152z" />
    <glyph glyph-name="exclamdbl" unicode="&#x203c;" 
d="M717 0h-205v199h205v-199zM307 0h-205v199h205v-199zM717 1331l-25 -969h-151l-25 969h201zM307 1331l-24 -969h-152l-25 969h201z" />
    <glyph glyph-name="uni203D" unicode="&#x203d;" horiz-adv-x="1136" 
d="M555 199v-199h-205v199h205zM516 1356q553 0 553 -363q0 -109 -54 -181t-131 -106q-77 -36 -153 -70t-130 -95t-54 -156v-61h-178l-23 641h197l-8 -260q47 33 149 86t152 96q49 43 49 102q0 193 -373 193q-199 0 -442 -97v183q237 88 446 88z" />
    <glyph glyph-name="overline" unicode="&#x203e;" horiz-adv-x="1024" 
d="M1024 1362h-1024v174h1024v-174z" />
    <glyph glyph-name="fraction" unicode="&#x2044;" horiz-adv-x="356" 
d="M-63 0h-203l690 1331h199z" />
    <glyph glyph-name="zerosuperior" unicode="&#x2070;" 
d="M608 1153q0 125 -56 191t-142 67q-86 0 -143 -66q-56 -67 -56 -193t57 -188q58 -62 140 -62t141 62q59 64 59 189zM66 1152q0 174 92 282q92 110 252 110t252 -110t92 -281q0 -173 -94 -279t-250 -106t-250 105t-94 279z" />
    <glyph glyph-name="foursuperior" unicode="&#x2074;" 
d="M756 958h-121v-172h-133v172h-432v101q162 256 340 465h176q-199 -219 -344 -439h260v220h133v-220h121v-127z" />
    <glyph glyph-name="fivesuperior" unicode="&#x2075;" 
d="M649 1397h-340l-14 -140q49 15 157 15t182 -64q73 -64 73 -178t-83 -188q-84 -74 -222 -74t-273 37v135q150 -39 243 -39t141 35t48 92q0 111 -170 111q-102 0 -250 -43l45 428h463v-127z" />
    <glyph glyph-name="sixsuperior" unicode="&#x2076;" 
d="M256 1037q0 -61 41 -99t113 -37q72 0 112 40t39 99q-1 58 -41 96t-108 38t-112 -38t-44 -99zM463 1303q107 0 175 -68q68 -69 69 -185q0 -116 -80 -199t-221 -83t-219 81q-77 81 -76 230q0 186 130 310t388 155v-135q-240 -16 -332 -149q59 43 166 43z" />
    <glyph glyph-name="sevensuperior" unicode="&#x2077;" 
d="M721 1524v-88q-248 -362 -354 -650h-158q119 319 311 611h-395v127h596z" />
    <glyph glyph-name="eightsuperior" unicode="&#x2078;" 
d="M412 1116q-78 0 -120 -33t-42 -82t45 -77t116 -27q71 0 115 28q44 27 43 75q1 48 -39 82t-118 34zM410 1421q-131 0 -131 -98q1 -41 35 -68t94 -27t96 28q37 28 37 71t-36 69t-95 25zM411 1544q117 0 195 -54t78 -152t-104 -158q133 -59 133 -174q0 -114 -82 -176
t-220 -62t-222 61q-83 61 -83 175t134 176q-104 66 -104 160t78 148q79 56 197 56z" />
    <glyph glyph-name="ninesuperior" unicode="&#x2079;" 
d="M260 1270q0 -61 40 -99t109 -38q69 -1 113 39t43 102q0 62 -41 100q-40 38 -112 37q-72 0 -112 -40t-40 -101zM358 1012q-106 0 -175 68t-69 184t81 198q80 82 220 82t218 -81t78 -228q0 -190 -130 -313t-388 -154v141q238 12 331 148q-60 -45 -166 -45z" />
    <glyph glyph-name="plussuperior" unicode="&#x207a;" horiz-adv-x="602" 
d="M375 887h-148v196h-196v146h196v196h148v-196h196v-146h-196v-196z" />
    <glyph glyph-name="uni207B" unicode="&#x207b;" horiz-adv-x="604" 
d="M573 1083h-542v146h542v-146z" />
    <glyph glyph-name="equalsuperior" unicode="&#x207c;" horiz-adv-x="604" 
d="M573 973h-542v145h542v-145zM573 1198h-542v145h542v-145z" />
    <glyph glyph-name="parenleftsuperior" unicode="&#x207d;" horiz-adv-x="337" 
d="M61 1120q0 133 38 248t118 254h156q-63 -113 -92 -171q-80 -160 -78 -335q1 -102 27 -195t52 -141t97 -170h-158q-82 143 -121 260t-39 250z" />
    <glyph glyph-name="parenrightsuperior" unicode="&#x207e;" horiz-adv-x="337" 
d="M-35 1622h156q80 -139 118 -254q37 -115 37 -248t-38 -250t-121 -260h-158q72 121 97 169q26 47 53 141q54 186 2 383q-25 90 -54 148t-92 171z" />
    <glyph glyph-name="nsuperior" unicode="&#x207f;" horiz-adv-x="1320" 
d="M752 1073q211 0 313 -90t102 -319v-664h-184v631q0 147 -55.5 206.5t-216.5 59.5q-98 0 -204 -40t-169 -91v-766h-184v1051h135l30 -121q68 51 190 97t243 46z" />
    <glyph glyph-name="zeroinferior" unicode="&#x2080;" 
d="M608 162q0 126 -56 192t-142 66t-142 -67t-57 -193q0 -126 57 -188q58 -62 140 -62t141 63t59 189zM66 160q0 174 92 284t252 109q160 0 252 -110q92 -109 92 -281t-94 -278t-250 -107q-156 0 -250 105q-94 104 -94 278z" />
    <glyph glyph-name="oneinferior" unicode="&#x2081;" 
d="M418 -205v582l-213 -49v127l350 94v-754h-137z" />
    <glyph glyph-name="twoinferior" unicode="&#x2082;" 
d="M414 551q270 0 270 -232q0 -104 -82 -209t-221 -190h319v-127h-559v107q397 268 398 417q0 100 -140 101q-94 0 -235 -49v135q135 47 250 47z" />
    <glyph glyph-name="threeinferior" unicode="&#x2083;" 
d="M713 31q0 -127 -92 -191q-93 -64 -227 -63q-134 0 -267 35v135q135 -37 244 -37q197 0 196 117q0 59 -60 81t-179 21h-80v90l198 187h-315v126h539v-112l-209 -176q252 -20 252 -213z" />
    <glyph glyph-name="fourinferior" unicode="&#x2084;" 
d="M756 -33h-121v-172h-133v172h-432v101q162 256 340 464h176q-199 -219 -344 -438h260v219h133v-219h121v-127z" />
    <glyph glyph-name="fiveinferior" unicode="&#x2085;" 
d="M649 406h-340l-14 -140q49 14 157 14t182 -62q73 -64 73 -179t-83 -189q-84 -74 -222 -74t-273 38v135q150 -39 243 -39t141 35t48 92q0 111 -170 110q-102 0 -250 -43l45 428h463v-126z" />
    <glyph glyph-name="sixinferior" unicode="&#x2086;" 
d="M256 46q0 -60 41 -98t113 -38t112 40t39 99t-41 96t-108 37t-112 -38t-44 -98zM463 311q107 1 175 -67t69 -185q0 -117 -80 -199t-221 -83q-141 0 -219 81q-77 81 -76 230q0 186 130 310t388 155v-135q-240 -16 -332 -150q59 43 166 43z" />
    <glyph glyph-name="seveninferior" unicode="&#x2087;" 
d="M721 532v-88q-248 -362 -354 -649h-158q119 319 311 611h-395v126h596z" />
    <glyph glyph-name="eightinferior" unicode="&#x2088;" 
d="M412 125q-78 0 -120 -33t-42 -82t45 -77q45 -27 116 -27t115 28t43 75q1 48 -39 82t-118 34zM410 430q-131 0 -131 -98q1 -41 35 -68q34 -26 94 -26t96 28q37 28 37 70t-36 68t-95 26zM411 553q117 0 195 -54q78 -55 78 -153t-104 -158q133 -60 133 -174t-82 -176
t-220 -61q-138 0 -222 61q-83 61 -83 175t134 175q-104 66 -104 160t78 150q79 56 197 55z" />
    <glyph glyph-name="nineinferior" unicode="&#x2089;" 
d="M409 141q69 0 113 40t43 102q0 61 -41 99q-40 38 -112 38t-112 -40t-40 -102t40 -99q40 -38 109 -38zM415 553q140 0 218 -81t78 -228q0 -190 -130 -313t-388 -154v141q238 12 331 148q-60 -46 -166 -46t-175 68t-69 184t81 199q80 82 220 82z" />
    <glyph glyph-name="uni208A" unicode="&#x208a;" horiz-adv-x="602" 
d="M375 -117h-148v197h-196v145h196v197h148v-197h196v-145h-196v-197z" />
    <glyph glyph-name="uni208B" unicode="&#x208b;" horiz-adv-x="604" 
d="M573 80h-542v145h542v-145z" />
    <glyph glyph-name="uni208C" unicode="&#x208c;" horiz-adv-x="604" 
d="M573 -31h-542v146h542v-146zM573 195h-542v145h542v-145z" />
    <glyph glyph-name="uni208D" unicode="&#x208d;" horiz-adv-x="337" 
d="M61 117q0 133 38 247t118 254h156q-63 -113 -92 -171q-80 -160 -78 -334q1 -101 27 -195t52 -142t97 -169h-158q-82 143 -121 260t-39 250z" />
    <glyph glyph-name="uni208E" unicode="&#x208e;" horiz-adv-x="337" 
d="M-35 618h156q80 -140 118 -254q37 -114 37 -247t-38 -250t-121 -260h-158q72 121 97 169q26 48 53 141q54 186 2 382q-25 90 -54 148t-92 171z" />
    <glyph glyph-name="franc" unicode="&#x20a3;" horiz-adv-x="1169" 
d="M356 1155v-356h670v-176h-670v-193h402v-176h-402v-254h-192v254h-164v176h164v901h913v-176h-721z" />
    <glyph glyph-name="lira" unicode="&#x20a4;" horiz-adv-x="1134" 
d="M1114 0h-950v127q88 79 126 147t38 197v23h-185v157h185v99h-185v157h185v111q0 178 85 258t275 80q129 0 285 -45v-172q-165 41 -271 41t-144 -37t-38 -125v-111h338v-157h-338v-99h338v-157h-340v-43q0 -221 -121 -275h717v-176z" />
    <glyph glyph-name="peseta" unicode="&#x20a7;" horiz-adv-x="2252" 
d="M1921 633q113 0 244 -29v-164q-162 39 -257 39t-96 -39q0 -23 50 -30l137 -29q88 -19 140 -63t52 -148q-1 -104 -79 -150q-78 -45 -202 -45t-253 27v168q145 -45 258 -45t113 49q0 39 -58 49l-166 31q-158 29 -157 178q0 201 274 201zM1384 623h195v-146h-195v-293
q0 -57 54 -57q47 0 137 16v-155q-92 -12 -143 -13q-205 0 -205 189v313h-125v146h125v145h157v-145zM356 1159v-571h260q319 0 320 286q0 152 -95 219t-235 66h-250zM164 1331h485q119 0 211 -41q93 -41 147 -88t91 -130q37 -82 37 -202t-42 -216t-115 -145
q-139 -95 -321 -93h-301v-416h-192v1331z" />
    <glyph glyph-name="Euro" unicode="&#x20ac;" horiz-adv-x="1515" 
d="M956 152q144 0 232 19t225 75v-189q-211 -82 -457 -82t-420 114q-173 114 -227 353h-268l61 158h187l-2 53q0 37 2 56h-207l61 157h164q98 489 664 490q106 0 228 -26t204 -64v-193q-209 106 -436 107q-362 0 -455 -314h551l-62 -157h-514l-2 -54q0 -37 2 -55h535
l-61 -158h-443q51 -146 172 -218q122 -72 266 -72z" />
    <glyph glyph-name="uni20B9" unicode="&#x20b9;" horiz-adv-x="1153" 
d="M1065 1174h-250q90 -82 98 -193h189l-37 -158h-170q-39 -123 -145 -208t-265 -117l369 -498h-190l-385 506l63 137q270 0 350 180h-610l37 158h604q-3 86 -67 139t-197 54h-377l37 157h983z" />
    <glyph glyph-name="uni20BA" unicode="&#x20ba;" horiz-adv-x="1236" 
d="M975 707h190q0 -315 -209 -511t-503 -196q-94 0 -156 4v449l-205 -111v174l205 111v166l-205 -111v174l205 111v364h192v-260l351 191v-177l-351 -188v-166l351 191v-177l-351 -188v-381q211 10 349 152t137 379z" />
    <glyph glyph-name="uni20BC" unicode="&#x20bc;" horiz-adv-x="1284" 
d="M356 692h301q172 0 246 64t74 192q0 207 -309 207h-312v-463zM356 516v-149h402v-177h-402v-190h-192v190h-164v177h164v149h-164v176h164v639h526q164 0 309 -68q83 -38 133 -118t50 -199t-43 -209t-117 -136q-133 -83 -324 -85h-342z" />
    <glyph glyph-name="uni20BD" unicode="&#x20bd;" horiz-adv-x="1284" 
d="M356 692h301q172 0 246 64t74 192q0 207 -309 207h-312v-463zM356 516v-149h402v-177h-402v-190h-192v190h-164v177h164v149h-164v176h164v639h526q164 0 309 -68q83 -38 133 -118t50 -199t-43 -209t-117 -136q-133 -83 -324 -85h-342z" />
    <glyph glyph-name="uni2105" unicode="&#x2105;" horiz-adv-x="1875" 
d="M1454 483q-76 0 -125 -48t-49 -126t45 -128t129 -50t129 50t45 128t-49 126t-125 48zM1454 637q144 0 242 -87t98 -244t-98 -243t-242 -86t-241 85t-97 243t97 245q98 87 241 87zM670 0h-203l690 1331h199zM416 1354q104 0 229 -29v-162q-135 37 -217 37t-132 -45
t-50 -126t47 -131t134 -50t226 41v-158q-109 -37 -245 -37t-232 87q-94 87 -94 242t95 243q96 88 239 88z" />
    <glyph glyph-name="uni2113" unicode="&#x2113;" horiz-adv-x="878" 
d="M403 1075v-303q258 215 259 436q0 51 -32 88t-89 37q-138 0 -138 -258zM562 168q81 0 153 22l2 -172q-84 -27 -164 -26q-332 0 -332 305v172l-110 -68l-70 125q111 63 180 111v438q0 211 86 321q85 110 229 110t228 -79q84 -78 84 -219q0 -291 -445 -616v-242
q0 -100 39 -141t120 -41z" />
    <glyph glyph-name="uni2116" unicode="&#x2116;" horiz-adv-x="2611" 
d="M2456 0h-814v174h814v-174zM2049 1194q-128 0 -210 -82t-82 -212t76 -214t218 -84t217 84t75 214t-83 212t-211 82zM1323 0h-162l-807 1073v-1073h-190v1331h221l748 -995v995h190v-1331zM2049 1354q200 0 335 -121t135 -339t-135 -337t-335 -119t-335 119t-135 337
t135 339t335 121z" />
    <glyph glyph-name="uni2117" unicode="&#x2117;" horiz-adv-x="1744" 
d="M745 1014v-307h185q74 1 129 35t55 115t-55 119t-133 38h-181zM745 580v-271h-139v830h340q93 0 191 -47q53 -27 87 -86t33 -144q0 -283 -331 -282h-181zM1552 739q0 283 -198 482q-199 199 -483 199q-285 0 -481 -198t-196 -479t196 -479t480 -196q284 0 483 194
t199 477zM1642 743q0 -325 -221 -545t-551 -220t-548 218t-220 544q0 326 220 549q220 222 550 222t550 -222t220 -546z" />
    <glyph glyph-name="trademark" unicode="&#x2122;" horiz-adv-x="1597" 
d="M1309 1331h131q78 -303 137 -741h-143q-55 414 -80 516q-76 -192 -113 -296q-37 -103 -55 -151h-107q-77 219 -168 441q-31 -170 -80 -510h-143q68 477 139 741h131q76 -174 175 -432q123 307 176 432zM686 1198h-258v-608h-143v608h-265v133h666v-133z" />
    <glyph glyph-name="Ohm" unicode="&#x2126;" horiz-adv-x="1568" 
d="M102 666q0 318 182 504t500 186t500 -186t182 -504t-192 -490h186v-176h-549v156q139 0 248 146t109 374t-129 364t-355 136t-354 -136q-129 -136 -129 -363q0 -229 109 -375t247 -146v-156h-548v176h186q-193 172 -193 490z" />
    <glyph glyph-name="estimated" unicode="&#x212e;" horiz-adv-x="1695" 
d="M845 1305q-259 0 -444 -185q-29 -27 -28 -80v-329q0 -23 26 -23h895q27 0 27 23v329q0 51 -31 80q-186 185 -445 185zM848 1356q346 0 550 -206t204 -507h-1203q-27 0 -26 -22v-330q0 -59 28 -86q184 -180 447 -180q141 0 266 59t205 158h135q-78 -109 -232 -187
t-374 -78q-340 0 -548 193t-208 493q0 301 205 497t551 196z" />
    <glyph glyph-name="oneeighth" unicode="&#x215b;" horiz-adv-x="1869" 
d="M1462 330q-78 0 -120 -33t-42 -82t46 -77t116 -28t114 28t44 76t-40 82t-118 34zM1460 635q-131 0 -131 -98q0 -41 35 -68t94 -27t96 28t37 71t-36 69t-95 25zM1186 553q0 93 78 149t197 56q118 0 196 -54t78 -153q0 -98 -105 -158q133 -59 133 -173t-82 -176t-220 -62
t-221 61t-83 175t133 175q-104 66 -104 160zM653 0h-202l690 1331h198zM418 582v581l-213 -49v127l350 94v-753h-137z" />
    <glyph glyph-name="threeeighths" unicode="&#x215c;" horiz-adv-x="1873" 
d="M1466 330q-78 0 -120 -33t-41 -82q0 -49 45 -77q46 -28 116 -28t114 28t44 76t-40 82t-118 34zM1464 635q-131 0 -131 -98q0 -41 35 -68t94 -27t97 28q37 28 37 71t-37 69q-36 26 -95 25zM1190 553q0 93 78 149t197 56q118 0 196 -54t78 -153q0 -98 -105 -158
q133 -59 133 -173t-81 -177q-82 -61 -220 -61t-222 61q-83 61 -83 175t133 175q-104 66 -104 160zM457 0l690 1331h199l-687 -1331h-202zM719 829q0 -127 -92 -190q-93 -63 -227 -63t-267 34v135q135 -37 244 -36q197 0 196 116q0 59 -60 81t-179 22h-80v90l199 186h-316
v127h539v-112l-209 -177q252 -20 252 -213z" />
    <glyph glyph-name="fiveeighths" unicode="&#x215d;" horiz-adv-x="1873" 
d="M1466 330q-78 0 -120 -33t-41 -82q0 -49 45 -77q46 -28 116 -28t114 28t44 76t-40 82t-118 34zM1464 635q-131 0 -131 -98q0 -41 35 -68t94 -27t97 28q37 28 37 71t-37 69q-36 26 -95 25zM1190 553q0 93 78 149t197 56q118 0 196 -54t78 -153q0 -98 -105 -158
q133 -59 133 -173t-81 -177q-82 -61 -220 -61t-222 61q-83 61 -83 175t133 175q-104 66 -104 160zM459 0l690 1331h199l-686 -1331h-203zM649 1204h-340l-14 -139q49 14 157 14t182 -63q73 -63 73 -178t-83 -189q-84 -74 -222 -74t-273 37v136q150 -39 243 -39q93 1 141 35
t48 92q0 111 -170 110q-102 0 -250 -43l45 428h463v-127z" />
    <glyph glyph-name="seveneighths" unicode="&#x215e;" horiz-adv-x="1787" 
d="M1380 330q-78 0 -120 -33t-41 -82q0 -49 45 -77q46 -28 116 -28t114 28t44 76t-40 82t-118 34zM1378 635q-131 0 -131 -98q0 -41 35 -68t94 -27t97 28q37 28 37 71t-37 69q-36 26 -95 25zM1104 553q0 93 78 149t197 56q118 0 196 -54t78 -153q0 -98 -105 -158
q133 -59 133 -173t-82 -176t-220 -62t-221 61t-83 175t133 175q-104 66 -104 160zM373 0l690 1331h199l-687 -1331h-202zM721 1331v-88q-248 -362 -354 -649h-158q119 319 311 610h-395v127h596z" />
    <glyph glyph-name="Sevenroman" unicode="&#x2166;" horiz-adv-x="2398" 
d="M2234 0h-192v1331h192v-1331zM1714 0h-192v1331h192v-1331zM1167 1331h201q-106 -322 -278 -725t-297 -606h-228q-90 144 -266 536t-309 795h207q43 -141 199 -531t286 -626q94 168 192 393t148 363t145 401z" />
    <glyph glyph-name="partialdiff" unicode="&#x2202;" horiz-adv-x="1310" 
d="M660 150q181 0 274 119q92 120 92 335l-2 66q-104 84 -196 116t-222 33q-129 0 -225 -89q-96 -88 -96 -234t97 -246t278 -100zM1219 604q0 -317 -160 -473t-401 -156q-242 1 -404 137t-162 378t146 371q146 130 361 130q214 0 398 -121q-57 231 -217 331q-80 50 -158 77
t-190 47l49 156q131 -27 229 -62t197 -101q100 -66 165 -155q65 -90 106 -232t41 -327z" />
    <glyph glyph-name="increment" unicode="&#x2206;" horiz-adv-x="1306" 
d="M246 176h815q-262 731 -410 973q-77 -123 -197 -418t-208 -555zM1272 0h-1239v127q147 434 300 769q152 335 218 435h209q61 -96 214 -439t298 -765v-127z" />
    <glyph glyph-name="product" unicode="&#x220f;" horiz-adv-x="1452" 
d="M1288 -410h-192v1649h-740v-1649h-192v1825h1124v-1825z" />
    <glyph glyph-name="summation" unicode="&#x2211;" horiz-adv-x="1230" 
d="M1149 -233v-177h-1067v131l643 783l-643 780v131h1067v-176h-815l563 -690v-90l-563 -692h815z" />
    <glyph glyph-name="minus" unicode="&#x2212;" horiz-adv-x="1044" 
d="M963 580h-881v174h881v-174z" />
    <glyph glyph-name="divisionslash" unicode="&#x2215;" horiz-adv-x="1085" 
d="M324 0h-201l635 1331h205z" />
    <glyph glyph-name="bulletoperator" unicode="&#x2219;" horiz-adv-x="409" 
d="M471 449h-369v358h369v-358z" />
    <glyph glyph-name="radical" unicode="&#x221a;" horiz-adv-x="1085" 
d="M647 -408h-170l-327 674l-91 -43l-59 125l236 107l299 -637l354 1718h166z" />
    <glyph glyph-name="infinity" unicode="&#x221e;" horiz-adv-x="1355" 
d="M999 764q-88 0 -213 -150l27 -27q18 -19 32 -33l27 -27q49 -49 85 -53q9 -1 21 -3t23 -2q117 -1 117 147t-119 148zM356 764q-119 0 -118 -152q0 -63 30 -103t83 -40q54 0 93 29t125 116q-125 150 -213 150zM1004 928q136 0 208 -86t72 -222t-75 -225q-75 -88 -187 -88
t-177 42t-167 153q-100 -109 -166 -152t-178 -43t-187 88t-75 223t76 223q77 87 204 87q68 0 129 -33t99 -69t98 -107q61 71 98 107q36 36 98 69t130 33z" />
    <glyph glyph-name="integral" unicode="&#x222b;" horiz-adv-x="698" 
d="M569 1536q68 0 129 -14v-168q-61 10 -127 10q-133 0 -133 -166v-1286q0 -346 -309 -346q-68 0 -129 14v168q61 -10 127 -10q133 0 133 166v1286q0 346 309 346z" />
    <glyph glyph-name="approxequal" unicode="&#x2248;" horiz-adv-x="1046" 
d="M965 530q0 -104 -73 -171t-179 -66q-61 0 -176 38t-171 38q-56 1 -90 -19q-35 -20 -36 -57h-158q0 104 73 171t179 66q63 0 176 -38t169 -37q124 0 128 75h158zM965 858q0 -104 -73 -171t-179 -66q-61 -1 -176 37t-171 38t-90 -19q-35 -19 -36 -56h-158q0 104 73 171
t179 66q63 0 176 -38t169 -38t91 20t37 56h158z" />
    <glyph glyph-name="notequal" unicode="&#x2260;" horiz-adv-x="1044" 
d="M963 463v-174h-474l-100 -207h-201l99 207h-205v174h291l102 219h-393v174h473l96 205h205l-96 -205h203v-174h-291l-105 -219h396z" />
    <glyph glyph-name="lessequal" unicode="&#x2264;" horiz-adv-x="1206" 
d="M1124 174v-174h-1042v174h1042zM1124 997l-852 -290l852 -285v-176l-1042 368v189l1042 371v-177z" />
    <glyph glyph-name="greaterequal" unicode="&#x2265;" horiz-adv-x="1206" 
d="M1124 0h-1042v174h1042v-174zM1124 803v-189l-1042 -368v176l852 285l-852 290v177z" />
    <glyph glyph-name="lozenge" unicode="&#x25ca;" horiz-adv-x="1148" 
d="M264 668l309 -490l310 490l-310 487zM1118 668l-459 -693h-170l-458 693l458 688h170z" />
    <glyph glyph-name="uni5143" unicode="&#x5143;" horiz-adv-x="1701" 
d="M1534 739h-426v-475q0 -59 28 -83q28 -23 96 -23t106 45q37 45 81 164l166 -95q-23 -53 -35 -81q-12 -27 -44 -75t-64 -74q-79 -65 -226 -66q-147 0 -224 58t-77 191v514h-241v-104q0 -107 -26 -189q-45 -142 -242 -304q-80 -65 -228 -167l-119 162q39 29 106 76t93 67
t71 55q44 36 59 55t40 51q53 68 53 212v86h-418v176h1471v-176zM1462 1155h-1329v176h1329v-176z" />
    <glyph glyph-name="Kanji" unicode="&#x5186;" horiz-adv-x="1646" 
d="M913 1155v-434h377v434h-377zM356 1155v-434h377v434h-377zM1120 152q88 0 129 24t41 92v277h-934l-2 -545h-190v1331h1319v-1069q0 -170 -108 -233q-90 -52 -184 -53t-181 6v172l57 -2h53z" />
    <glyph glyph-name="uniF8FF" unicode="&#xf8ff;" horiz-adv-x="1007" 
d="M829 174v1188h-651v-1188h651zM1008 1536v-1536h-1008v1536h1008z" />
    <glyph glyph-name="fi" unicode="&#xfb01;" horiz-adv-x="1183" 
d="M1030 0h-184v1051h184v-1051zM1042 1204h-208v189h208v-189zM551 1481q57 0 174 -27v-162q-96 25 -182 25q-168 0 -168 -156v-110h350v-158h-350v-893h-185v893h-200v158h200v112q0 178 98 248t263 70z" />
    <glyph glyph-name="fl" unicode="&#xfb02;" horiz-adv-x="1183" 
d="M1030 0h-184v1415h184v-1415zM551 1481q57 0 174 -27v-162q-96 25 -182 25q-168 0 -168 -156v-110h350v-158h-350v-893h-185v893h-200v158h200v112q0 178 98 248t263 70z" />
    <glyph glyph-name="uniFEFF" unicode="&#xfeff;" horiz-adv-x="1228" 
 />
    <glyph glyph-name="NULL" horiz-adv-x="1228" 
 />
    <glyph glyph-name="zero.dnom" 
d="M410 625q-86 0 -142 -67t-57 -193q0 -126 57 -188q58 -62 140 -62t141 63t59 188t-56 192t-142 67zM410 758q160 0 252 -110t92 -282t-94 -278t-250 -106t-250 105t-94 278t92 283t252 110z" />
    <glyph glyph-name="one.dnom" 
d="M418 0v582l-213 -50v127l350 95v-754h-137z" />
    <glyph glyph-name="two.dnom" 
d="M414 756q270 0 270 -232q0 -104 -82 -210t-221 -189h319v-127h-559v106q397 268 398 418q0 100 -140 101q-94 0 -235 -50v136q135 47 250 47z" />
    <glyph glyph-name="three.dnom" 
d="M719 236q0 -126 -92 -190q-93 -64 -227 -64t-267 34v136q135 -37 244 -37q197 0 196 116q0 59 -60 81t-179 22h-80v90l199 186h-316v127h539v-112l-209 -176q252 -20 252 -213z" />
    <glyph glyph-name="four.dnom" 
d="M756 172h-121v-172h-133v172h-432v100q162 256 340 465h176q-199 -219 -344 -438h260v219h133v-219h121v-127z" />
    <glyph glyph-name="five.dnom" 
d="M649 610h-340l-14 -139q49 14 157 14t182 -63q73 -63 73 -178t-83 -189q-84 -73 -222 -73t-273 36v136q150 -39 243 -39t141 35t48 92q0 111 -170 110q-102 0 -250 -43l45 428h463v-127z" />
    <glyph glyph-name="six.dnom" 
d="M256 250q0 -60 41 -98t113 -37q72 0 112 40t39 99t-41 96t-108 37t-112 -38q-44 -39 -44 -99zM463 516q107 0 175 -68t69 -184q0 -118 -80 -200t-221 -82t-219 80q-77 81 -76 231q0 186 130 310t388 155v-135q-240 -16 -332 -150q59 43 166 43z" />
    <glyph glyph-name="seven.dnom" 
d="M721 737v-88q-248 -362 -354 -649h-158q119 319 311 610h-395v127h596z" />
    <glyph glyph-name="eight.dnom" 
d="M412 330q-78 0 -120 -33t-42 -82t45 -77t116 -28t115 28t43 76q1 48 -39 82t-118 34zM410 635q-131 0 -131 -98q1 -41 35 -68t94 -27t96 28q37 28 37 71t-36 69t-95 25zM411 758q117 0 195 -54t78 -153q0 -98 -104 -158q133 -59 133 -173t-82 -176t-220 -62t-222 61
q-83 61 -83 175t134 175q-104 66 -104 160q0 93 78 149q79 56 197 56z" />
    <glyph glyph-name="nine.dnom" 
d="M409 346q69 0 113 40t43 102q0 62 -41 99q-40 38 -112 38t-112 -40q-40 -39 -40 -101t40 -100t109 -38zM358 225q-106 0 -175 68q-69 69 -69 185t81 198q80 82 220 82t218 -81t78 -228q0 -190 -130 -313t-388 -154v141q238 12 331 147q-60 -45 -166 -45z" />
    <glyph glyph-name="zero.numr" 
d="M410 1219q-86 0 -142 -67t-57 -193q0 -126 57 -188q58 -62 140 -62t141 63t59 188t-56 192t-142 67zM410 1352q160 0 252 -110t92 -282t-94 -278t-250 -106t-250 104q-94 106 -94 279t92 283t252 110z" />
    <glyph glyph-name="one.numr" 
d="M418 594v582l-213 -50v127l350 95v-754h-137z" />
    <glyph glyph-name="two.numr" 
d="M414 1350q270 0 270 -232q0 -104 -82 -210t-221 -189h319v-127h-559v106q397 268 398 418q0 100 -140 101q-94 0 -235 -50v136q135 47 250 47z" />
    <glyph glyph-name="three.numr" 
d="M719 829q0 -127 -92 -190q-93 -63 -227 -63t-267 34v135q135 -37 244 -36q197 0 196 116q0 59 -60 81t-179 22h-80v90l199 186h-316v127h539v-112l-209 -177q252 -20 252 -213z" />
    <glyph glyph-name="four.numr" 
d="M756 766h-121v-172h-133v172h-432v100q162 256 340 465h176q-199 -219 -344 -438h260v219h133v-219h121v-127z" />
    <glyph glyph-name="five.numr" 
d="M649 1204h-340l-14 -139q49 14 157 14t182 -63q73 -63 73 -178t-83 -189q-84 -74 -222 -74t-273 37v136q150 -39 243 -39q93 1 141 35t48 92q0 111 -170 110q-102 0 -250 -43l45 428h463v-127z" />
    <glyph glyph-name="six.numr" 
d="M561 848q-1 59 -41 96t-108 37t-112 -38q-44 -39 -44 -99t41 -98t113 -38t112 41q40 40 39 99zM463 1110q107 0 175 -68t69 -184q0 -116 -80 -200q-80 -83 -221 -83t-219 81q-77 81 -76 231q0 186 130 310t388 155v-135q-240 -16 -332 -150q59 43 166 43z" />
    <glyph glyph-name="seven.numr" 
d="M721 1331v-88q-248 -362 -354 -649h-158q119 319 311 610h-395v127h596z" />
    <glyph glyph-name="eight.numr" 
d="M412 924q-78 0 -120 -33t-42 -82t45 -77t116 -28t115 28t43 76q1 48 -39 82t-118 34zM410 1229q-131 0 -131 -99q1 -42 35 -68t94 -26t96 28q37 28 37 70t-36 69q-36 26 -95 26zM411 1352q117 0 195 -54t78 -153q0 -98 -104 -158q133 -59 133 -173t-82 -176t-220 -62
q-137 0 -221 60q-84 62 -84 176t134 175q-104 66 -104 160q0 93 78 149q79 56 197 56z" />
    <glyph glyph-name="nine.numr" 
d="M409 940q69 0 113 40t43 102q0 62 -41 99q-40 38 -112 38t-112 -40q-40 -39 -40 -101t40 -100t109 -38zM358 819q-106 0 -175 68q-69 69 -69 185t81 198q80 82 220 82t218 -81t78 -229q0 -190 -130 -313t-388 -154v142q238 12 331 147q-60 -45 -166 -45z" />
    <glyph glyph-name="ampersand.001" horiz-adv-x="1431" 
d="M268 305q0 -70 50 -118t163 -48q154 0 336 148q-112 102 -305 313q-244 -158 -244 -295zM621 1192q-70 0 -124 -43q-55 -43 -55 -114t121 -216q80 39 152 101q71 62 71 128q0 68 -48 106t-117 38zM260 1028q0 128 96 226t265 98q170 0 261 -92t91 -214t-110 -211
q-84 -68 -201 -133q172 -195 290 -292q90 92 183 233l182 -4q-115 -225 -234 -344q166 -135 390 -295h-306q-131 96 -215 170q-242 -203 -473 -203q-186 0 -292 89q-105 89 -105 249q0 221 311 432q-133 162 -133 291z" />
    <glyph glyph-name="acute.case" horiz-adv-x="491" 
d="M223 1454h-162l152 297h217z" />
    <glyph glyph-name="breve.case" horiz-adv-x="704" 
d="M352 1450q-264 0 -291 244h158q14 -109 133 -109t133 109h158q-27 -244 -291 -244z" />
    <glyph glyph-name="caron.alt" horiz-adv-x="405" 
d="M213 1075h-152l91 340h192z" />
    <glyph glyph-name="caron.case" horiz-adv-x="761" 
d="M494 1454h-226l-207 297h166l154 -176l154 176h165z" />
    <glyph glyph-name="circumflex.case" horiz-adv-x="761" 
d="M700 1454h-165l-154 176l-154 -176h-166l207 297h226z" />
    <glyph glyph-name="dieresis.case" horiz-adv-x="733" 
d="M672 1448h-205v201h205v-201zM266 1448h-205v201h205v-201z" />
    <glyph glyph-name="dotaccent.case" horiz-adv-x="327" 
d="M266 1448h-205v201h205v-201z" />
    <glyph glyph-name="grave.case" horiz-adv-x="491" 
d="M430 1454h-162l-207 297h218z" />
    <glyph glyph-name="hungarumlaut.case" horiz-adv-x="835" 
d="M563 1454h-160l152 297h219zM221 1454h-160l152 297h219z" />
    <glyph glyph-name="macron.case" horiz-adv-x="684" 
d="M623 1466h-562v158h562v-158z" />
    <glyph glyph-name="ring.case" horiz-adv-x="536" 
d="M268.5 1714q-106.5 0 -106.5 -82t106.5 -82t106.5 82t-106.5 82zM268.5 1456q-98.5 0 -153 48t-54.5 128t54.5 128t153 48t152.5 -48t54 -128t-54 -128t-152.5 -48z" />
    <glyph glyph-name="tilde.case" horiz-adv-x="741" 
d="M253 1565q-32 -1 -46 -15t-23 -47h-123q11 91 61 145t132 54q45 0 122 -28t111 -27q62 0 70 61h123q-12 -90 -62 -144t-131 -55q-39 0 -121 28t-113 28z" />
    <glyph glyph-name="brevecy" horiz-adv-x="0" 
d="M337 1214q-257 0 -276 246h172q18 -113 123 -112q127 0 166 112h121q-49 -246 -306 -246z" />
    <glyph glyph-name="brevecy.case" horiz-adv-x="0" 
d="M337 1427q-257 0 -276 246h172q18 -113 123 -112q127 0 166 112h121q-49 -246 -306 -246z" />
    <glyph glyph-name="tonos.cap" horiz-adv-x="436" 
d="M61 1024l91 307h221l-180 -307h-132z" />
    </font>
</defs>
</svg>
