<?xml version="1.0" standalone="no"?>
<!DOCTYPE svg PUBLIC "-//W3C//DTD SVG 1.1//EN" "http://www.w3.org/Graphics/SVG/1.1/DTD/svg11.dtd" >
<svg xmlns="http://www.w3.org/2000/svg">
<metadata>
Created by FontPrep 20130207 at Mon Mar 28 10:29:42 2016
 By Mauricio Duran
Copyright 2015 Nissan Motors Co., Ltd. All rights reserved.
</metadata>
<defs>
<font id="282c87aeb62a30a52c4d5bac14ae09fc" horiz-adv-x='1024' >
  <font-face 
    font-family="NissanBrand-Light"
    font-weight="300"
    font-stretch="normal"
    units-per-em="2048"
    panose-1="2 11 3 4 2 2 4 3 2 4"
    ascent="1528"
    descent="-520"
    x-height="1051"
    cap-height="1331"
    bbox="-348 -614 2507 2163"
    underline-thickness="102"
    underline-position="-153"
    unicode-range="U+000D-FEFF"
  />
<missing-glyph horiz-adv-x="1003" 
d="M885 115v1306h-766v-1306h766zM1004 1536v-1536h-1004v1536h1004z" />
    <glyph glyph-name="f_i.liga" unicode="fi" horiz-adv-x="1095" 
d="M930 0h-123v1051h123v-1051zM944 1221h-151v135h151v-135zM522 1481q72 0 174 -25v-117q-100 27 -188 27t-134 -42t-46 -153v-120h364v-111h-364v-940h-123v940h-205v111h205v129q0 301 317 301z" />
    <glyph glyph-name="f_l.liga" unicode="fl" horiz-adv-x="1093" 
d="M930 0h-123v1415h123v-1415zM522 1481q72 0 174 -25v-117q-100 27 -188 27t-134 -42t-46 -153v-120h364v-111h-364v-940h-123v940h-205v111h205v129q0 301 317 301z" />
    <glyph glyph-name="f_f.liga" unicode="ff" horiz-adv-x="1275" 
d="M1141 1366q-88 0 -134 -42t-46 -153v-120h364v-111h-364v-940h-123v940h-510v-940h-123v940h-205v111h205v129q0 301 317 301q72 0 174 -25v-117q-100 27 -188 27t-134 -42t-46 -153v-120h510v129q0 301 317 301q72 0 174 -25v-117q-100 27 -188 27z" />
    <glyph glyph-name="f_f_i.liga" unicode="ffi" horiz-adv-x="1728" 
d="M1440 1051h123v-1051h-123v1051zM1577 1356v-135h-152v135h152zM838 1051v129q0 301 317 301q72 0 174 -25v-117q-100 27 -188 27t-134 -42t-46 -153v-120h364v-111h-364v-940h-123v940h-510v-940h-123v940h-205v111h205v129q0 301 317 301q72 0 174 -25v-117
q-100 27 -188 27t-134 -42t-46 -153v-120h510z" />
    <glyph glyph-name="f_f_l.liga" unicode="ffl" horiz-adv-x="1726" 
d="M1563 1415v-1415h-123v1415h123zM838 1051v129q0 301 317 301q72 0 174 -25v-117q-100 27 -188 27t-134 -42t-46 -153v-120h364v-111h-364v-940h-123v940h-510v-940h-123v940h-205v111h205v129q0 301 317 301q72 0 174 -25v-117q-100 27 -188 27t-134 -42t-46 -153v-120
h510z" />
    <glyph glyph-name=".notdef" horiz-adv-x="1003" 
d="M885 115v1306h-766v-1306h766zM1004 1536v-1536h-1004v1536h1004z" />
    <glyph glyph-name=".null" horiz-adv-x="0" 
 />
    <glyph glyph-name="nonmarkingreturn" horiz-adv-x="681" 
 />
    <glyph glyph-name="CR" unicode="&#xd;" horiz-adv-x="514" 
 />
    <glyph glyph-name="space" unicode=" " horiz-adv-x="514" 
 />
    <glyph glyph-name="exclam" unicode="!" horiz-adv-x="370" 
d="M258 0h-145v137h145v-137zM254 1331l-18 -969h-101l-18 969h137z" />
    <glyph glyph-name="quotedbl" unicode="&#x22;" horiz-adv-x="733" 
d="M573 1010h-102l-16 471h135zM262 1010h-100l-19 471h138z" />
    <glyph glyph-name="numbersign" unicode="#" horiz-adv-x="1228" 
d="M469 905l-61 -348h274l61 348h-274zM1110 1018v-113h-246l-61 -348h227v-111h-246l-79 -446h-121l78 446h-275l-80 -446h-121l80 446h-227v111h248l61 348h-227v113h246l84 463h120l-82 -463h275l82 463h121l-82 -463h225z" />
    <glyph glyph-name="dollar" unicode="$" horiz-adv-x="1234" 
d="M983 344q0 104 -63 158t-168 80l-90 24v-506q152 16 236 78t85 166zM248 1006q0 -162 192 -213l107 -29v467q-299 -31 -299 -225zM1116 348q0 -336 -454 -368v-185h-115v180q-213 2 -451 91v131q303 -101 451 -101v541l-158 43q-274 72 -274 326q1 156 119 242t313 104
v184h115v-180q168 -2 395 -66v-129q-250 72 -395 74v-500l124 -33q330 -88 330 -354z" />
    <glyph glyph-name="percent" unicode="%" horiz-adv-x="1732" 
d="M1323 666q-219 0 -223 -322q-2 -127 56 -202q58 -74 167 -74t167 74t56 202q-4 322 -223 322zM1323 -25q-162 1 -245 105t-83 282t86 286t246 108t242 -104t82 -282q0 -177 -83 -286t-245 -109zM408 1264q-219 0 -224 -322q-2 -127 56 -202q58 -74 168 -74q108 0 166 74
t57 202q-4 322 -223 322zM586 0h-127l690 1331h123zM408 573q-162 1 -245 105t-83 282t86 286t246 108t242 -104t81 -282q0 -177 -83 -286q-82 -109 -244 -109z" />
    <glyph glyph-name="ampersand" unicode="&#x26;" horiz-adv-x="1378" 
d="M485 84q199 0 381 166q-184 151 -391 399q-127 -80 -188 -173t-61 -182q0 -90 67 -150q68 -60 192 -60zM682 1358q190 0 322 -60v-131q-150 78 -298 78t-229 -54q-80 -54 -80 -149q0 -67 32 -125q31 -57 53 -91t63 -80t69 -78q79 -91 342 -334q143 143 234 280h156
q-141 -213 -295 -360q158 -133 317 -254h-192q-131 96 -215 170q-217 -203 -490 -203q-180 0 -280 94q-99 93 -99 217t80 242t234 213q-260 339 -24 533q110 92 300 92z" />
    <glyph glyph-name="quotesingle" unicode="'" horiz-adv-x="423" 
d="M262 1010h-100l-19 471h138z" />
    <glyph glyph-name="parenleft" unicode="(" horiz-adv-x="555" 
d="M246 614q0 -344 107 -598q56 -133 108 -222q51 -89 53 -93h-135q-131 229 -194 434q-62 205 -62 443q1 238 63 440t193 432h133q-63 -104 -115 -215q-53 -111 -71 -171t-49 -180t-31 -270z" />
    <glyph glyph-name="parenright" unicode=")" horiz-adv-x="555" 
d="M432 578q0 -238 -62 -443t-194 -434h-135q2 4 52 91t98 200q49 114 67 187q51 207 51 347q0 244 -42 406q-42 161 -99 283t-125 235h133q132 -229 194 -432q62 -202 62 -440z" />
    <glyph glyph-name="asterisk" unicode="*" horiz-adv-x="784" 
d="M580 1286l-140 -199l242 17v-92l-240 20l136 -205l-82 -41l-103 215l-106 -221l-80 47l137 203l-242 -18v92l244 -17l-141 197l82 47l106 -217l105 217z" />
    <glyph glyph-name="plus" unicode="+" horiz-adv-x="1028" 
d="M571 618v-366h-114v366h-365v115h365v363h114v-363h365v-115h-365z" />
    <glyph glyph-name="comma" unicode="," horiz-adv-x="321" 
d="M109 -283h-109l115 420h145z" />
    <glyph glyph-name="hyphen" unicode="-" horiz-adv-x="856" 
d="M764 578h-672v114h672v-114z" />
    <glyph glyph-name="period" unicode="." horiz-adv-x="370" 
d="M258 0h-145v137h145v-137z" />
    <glyph glyph-name="slash" unicode="/" horiz-adv-x="999" 
d="M190 -164h-129l748 1565h129z" />
    <glyph glyph-name="zero" unicode="0" horiz-adv-x="1224" 
d="M609 1233q-167 0 -275 -140t-109 -431q0 -292 109 -428q108 -136 272 -136t279 138t115 428q0 291 -112 430t-279 139zM610 1356q246 0 384 -188t138 -504t-140 -502q-142 -186 -382 -186t-379 186t-139 502t136 504t382 188z" />
    <glyph glyph-name="one" unicode="1" horiz-adv-x="808" 
d="M561 0h-129v1194l-364 -104v118l493 148v-1356z" />
    <glyph glyph-name="two" unicode="2" horiz-adv-x="1148" 
d="M562 1356q202 0 327 -104t125 -289q0 -93 -48 -195t-116 -183q-163 -194 -551 -462h729v-123h-911v127q39 33 208 155t339 281q100 93 158 195t59 194q0 281 -363 281q-150 0 -358 -86v129q200 80 402 80z" />
    <glyph glyph-name="three" unicode="3" horiz-adv-x="1112" 
d="M1008 395q0 -195 -146 -307t-391 -113q-170 0 -377 72v127q240 -76 377 -76q203 0 302 80t101 219q2 76 -27 131q-30 55 -72 84q-101 70 -353 70h-127v76l469 450h-676v123h848v-119l-440 -415q512 -14 512 -402z" />
    <glyph glyph-name="four" unicode="4" horiz-adv-x="1202" 
d="M848 451v340h127v-340h196v-125h-196v-326h-127v326h-803v106q141 224 340 464t410 435h161q-487 -471 -757 -880h649z" />
    <glyph glyph-name="five" unicode="5" horiz-adv-x="1177" 
d="M967 1208h-615l-47 -401q104 33 250 33q240 0 375 -125t135 -305t-136 -308t-382 -127q-184 0 -414 78v135q10 -2 51 -16l62 -21q155 -53 315 -53t262 85q103 85 103 223t-102 224t-267 87q-164 0 -389 -68l78 682h721v-123z" />
    <glyph glyph-name="six" unicode="6" horiz-adv-x="1206" 
d="M618 758q-158 0 -260 -89t-102 -231t92 -241t260 -99t261 92t93 248t-92 238q-94 82 -252 82zM614 881q230 0 359 -125q129 -124 129 -316t-131 -328t-359 -136t-361 138q-134 140 -134 398q0 358 230 580q231 221 614 260v-125q-246 -13 -451 -155t-258 -357
q132 166 362 166z" />
    <glyph glyph-name="seven" unicode="7" horiz-adv-x="1028" 
d="M977 1331v-69q-123 -188 -319 -557t-322 -705h-135q246 614 602 1208h-742v123h916z" />
    <glyph glyph-name="eight" unicode="8" horiz-adv-x="1251" 
d="M627 635q-177 0 -271 -79t-94 -179q0 -101 58 -163q107 -115 306 -114q198 0 306 111q59 61 59 163t-94 181q-94 80 -270 80zM625 1237q-143 0 -227 -61q-84 -62 -83 -168q0 -106 86 -178q85 -72 223 -72t226 72t88 176q0 106 -85 168t-228 63zM627 1356q190 0 319 -91
t129 -261q0 -102 -68 -182q-69 -79 -157 -115q104 -33 191 -121t87 -221q0 -181 -139 -285t-363 -104t-364 106t-139 287q0 131 89 219t194 119q-92 43 -161 119t-69 178q0 168 130 260q131 92 321 92z" />
    <glyph glyph-name="nine" unicode="9" horiz-adv-x="1202" 
d="M589 573q159 -1 261 89t102 232t-92 240t-260 99q-168 0 -261 -92t-93 -248t92 -238t251 -82zM106 892q0 192 132 328t358 136q227 0 361 -139t135 -398q0 -360 -230 -582t-614 -262v125q246 12 450 156t258 360q-131 -166 -362 -166t-360 125q-128 125 -128 317z" />
    <glyph glyph-name="colon" unicode=":" horiz-adv-x="370" 
d="M258 0h-145v137h145v-137zM258 770h-145v137h145v-137z" />
    <glyph glyph-name="semicolon" unicode=";" horiz-adv-x="446" 
d="M129 -283h-109l115 420h146zM293 770h-146v137h146v-137z" />
    <glyph glyph-name="less" unicode="&#x3c;" horiz-adv-x="1228" 
d="M1114 1024l-878 -348l878 -344v-123l-1022 407v121l1022 410v-123z" />
    <glyph glyph-name="equal" unicode="=" horiz-adv-x="1060" 
d="M969 553v-115h-877v115h877zM969 877v-115h-877v115h877z" />
    <glyph glyph-name="greater" unicode="&#x3e;" horiz-adv-x="1206" 
d="M1114 737v-121l-1022 -407v123l879 344l-879 348v123z" />
    <glyph glyph-name="question" unicode="?" horiz-adv-x="1036" 
d="M500 0h-146v137h146v-137zM505 1356q212 0 354 -86t142 -258q0 -96 -52 -164t-126 -107q-75 -39 -149 -75t-126 -98q-52 -60 -52 -146v-88h-131v90q0 104 52 179t126 117q73 42 147 79q178 89 178 206q0 116 -100 173t-263 57t-446 -92v127q234 86 446 86z" />
    <glyph glyph-name="at" unicode="@" horiz-adv-x="2031" 
d="M1017 836q-157 0 -245 -86t-88 -235t90 -237t249 -88t253 105v446q-102 95 -259 95zM563 514q0 198 123 314q124 116 304 116t298 -96l27 82h80v-621q0 -71 40 -115t105 -44q113 0 189 124q75 124 75 314t-66 330q-119 250 -421 342q-133 41 -281 40q-362 0 -582 -213
t-220 -567t235 -591q236 -237 618 -236q193 0 408 67v-120q-215 -61 -401 -62q-449 0 -717 271t-268 681q1 410 255 648t678 239q365 0 616 -194q124 -96 194 -255t71 -362q0 -264 -106 -417t-267 -153t-247 150q-135 -104 -311 -102t-303 117q-126 115 -126 313z" />
    <glyph glyph-name="A" unicode="A" horiz-adv-x="1318" 
d="M322 508h667q-227 551 -332 715q-138 -221 -335 -715zM1319 0h-137q-70 199 -146 389h-762q-113 -301 -143 -389h-131q156 479 332 851t254 480h151q121 -178 297 -587.5t285 -743.5z" />
    <glyph glyph-name="B" unicode="B" horiz-adv-x="1361" 
d="M303 627v-508h322q256 0 361 48t106 204q0 125 -106 191t-296 65h-387zM303 1212v-471h402q145 0 242 69t97 183t-71 167q-71 52 -373 52h-297zM174 1331h475q261 0 397 -73t136 -259q0 -111 -71 -191t-177 -114v-2q117 -24 206 -112t89 -213q0 -209 -140 -288t-415 -79
h-500v1331z" />
    <glyph glyph-name="C" unicode="C" horiz-adv-x="1433" 
d="M901.5 1356q229.5 0 407.5 -80v-131q-170 88 -439.5 88t-446.5 -148.5t-177 -429.5q0 -147 57 -257t153 -174q191 -126 445 -126q131 0 216 16.5t204 63.5v-129q-180 -74 -459.5 -74t-503.5 154q-114 78 -181.5 213t-67.5 311q0 231 109.5 394t281.5 236t401.5 73z" />
    <glyph glyph-name="D" unicode="D" horiz-adv-x="1458" 
d="M303 1212v-1093h248q324 0 487.5 143.5t163.5 403.5t-155.5 403t-477.5 143h-266zM174 1331h436q310 0 510 -147q104 -76 161.5 -208t57.5 -308t-61 -308q-62 -132 -168 -208q-212 -153 -516 -152h-420v1331z" />
    <glyph glyph-name="E" unicode="E" horiz-adv-x="1216" 
d="M1083 1212h-780v-467h719v-118h-719v-508h780v-119h-909v1331h909v-119z" />
    <glyph glyph-name="F" unicode="F" horiz-adv-x="1165" 
d="M1083 1212h-780v-505h719v-119h-719v-588h-129v1331h909v-119z" />
    <glyph glyph-name="G" unicode="G" horiz-adv-x="1464" 
d="M876 1356q215 0 431 -82v-131q-129 49 -222.5 69.5t-212.5 20.5q-274 0 -451 -146.5t-177 -427.5q0 -147 55 -259t149 -176q187 -126 439 -126q168 0 299 39v484h127v-572q-193 -74 -441 -74q-298 0 -518 154q-112 78 -178.5 213t-66.5 311q0 231 107.5 393t276 236
t383.5 74z" />
    <glyph glyph-name="H" unicode="H" horiz-adv-x="1474" 
d="M1300 0h-129v604h-868v-604h-129v1331h129v-608h868v608h129v-1331z" />
    <glyph glyph-name="I" unicode="I" horiz-adv-x="477" 
d="M303 0h-129v1331h129v-1331z" />
    <glyph glyph-name="J" unicode="J" horiz-adv-x="890" 
d="M727 1331v-969q0 -178 -110.5 -281.5t-288.5 -103.5t-318 43v132q137 -51 301 -52q287 0 287 312v919h129z" />
    <glyph glyph-name="K" unicode="K" horiz-adv-x="1249" 
d="M1030 1331h197q-395 -326 -692 -663q410 -352 714 -668h-190q-317 330 -697 653q316 373 668 678zM303 0h-129v1331h129v-1331z" />
    <glyph glyph-name="L" unicode="L" horiz-adv-x="1114" 
d="M303 119h801v-119h-930v1331h129v-1212z" />
    <glyph glyph-name="M" unicode="M" horiz-adv-x="1728" 
d="M1264 1331h157q45 -164 70 -269t76 -393t100 -669h-127q-125 924 -213 1182q-207 -498 -414 -1045h-98q-199 535 -418 1041q-90 -319 -211 -1178h-125q119 852 248 1331h158q207 -469 397 -975q218 565 400 975z" />
    <glyph glyph-name="N" unicode="N" horiz-adv-x="1488" 
d="M1315 0h-111l-905 1194v-1194h-125v1331h174l842 -1108v1108h125v-1331z" />
    <glyph glyph-name="O" unicode="O" horiz-adv-x="1630" 
d="M819 1233q-260 0 -416.5 -143.5t-156.5 -414.5t158.5 -421t414.5 -150t410.5 149.5t154.5 419t-152.5 415t-412.5 145.5zM822 1356q329 0 514.5 -187.5t185.5 -502.5t-192.5 -503t-513.5 -188t-514 188.5t-193 504t192 502t521 186.5z" />
    <glyph glyph-name="P" unicode="P" horiz-adv-x="1263" 
d="M303 1212v-637h375q158 0 263 73t105 244t-102 246q-104 75 -266 74h-375zM174 1331h531q124 0 213 -39q90 -39 142 -85t88 -127t36 -186t-36 -187t-88 -127t-142 -84t-213 -39h-402v-457h-129v1331z" />
    <glyph glyph-name="Q" unicode="Q" horiz-adv-x="1630" 
d="M819 1233q-260 0 -417 -143q-156 -142 -156 -414t158 -422t415 -150q256 0 411 150q154 150 154 419t-152 415t-413 145zM825 -25q-329 1 -523 189t-194 504t193 502q192 186 521 186t514 -188t186 -500q0 -356 -242 -549l195 -166l-84 -96l-232 188q-150 -70 -334 -70z
" />
    <glyph glyph-name="R" unicode="R" horiz-adv-x="1288" 
d="M303 631h367q138 0 242 51q60 29 95 91.5t35 150.5q0 152 -102 220t-262 68h-375v-581zM303 512v-512h-129v1331h524q156 1 300 -73q80 -40 131 -125.5t51 -202.5q0 -188 -111 -290.5t-264 -121.5q213 -219 422 -518h-176q-36 71 -168.5 236t-239.5 276h-340z" />
    <glyph glyph-name="S" unicode="S" horiz-adv-x="1234" 
d="M657 1356q166 0 406 -66v-129q-367 107 -601 59q-84 -18 -146 -72t-62 -142q0 -162 192 -213l347 -91q330 -88 329 -354q0 -186 -143 -279.5t-389 -93.5t-488 91v131q297 -100 479.5 -100.5t295 65t112.5 176t-63.5 164t-167.5 80.5l-363 98q-274 72 -274 326
q0 178 149 264t387 86z" />
    <glyph glyph-name="T" unicode="T" horiz-adv-x="1247" 
d="M1217 1212h-529v-1212h-129v1212h-528v119h1186v-119z" />
    <glyph glyph-name="U" unicode="U" horiz-adv-x="1443" 
d="M1280 1331v-753q0 -602 -559 -603q-557 0 -557 603v753h129v-756q0 -477 429 -477t429 477v756h129z" />
    <glyph glyph-name="V" unicode="V" horiz-adv-x="1318" 
d="M1182 1331h137q-109 -334 -286 -745t-296 -586h-151q-78 108 -254 480t-332 851h135q88 -277 260 -677t262 -541q222 335 525 1218z" />
    <glyph glyph-name="W" unicode="W" horiz-adv-x="1779" 
d="M1614 1331h131q-170 -821 -354 -1331h-154q-211 492 -348 887q-199 -537 -350 -887h-152q-201 557 -352 1331h131q156 -762 301 -1188q106 233 371 957h100q236 -670 373 -957q125 352 303 1188z" />
    <glyph glyph-name="X" unicode="X" horiz-adv-x="1208" 
d="M698 676l531 -676h-170l-459 592l-448 -592h-172l534 676l-530 655h166l446 -569l461 569h160z" />
    <glyph glyph-name="Y" unicode="Y" horiz-adv-x="1200" 
d="M666 0h-129v451q-63 82 -230.5 350t-306.5 530h154q176 -356 446 -770q240 354 447 770h153q-137 -258 -305 -530.5t-229 -349.5v-451z" />
    <glyph glyph-name="Z" unicode="Z" horiz-adv-x="1224" 
d="M1126 117v-117h-1034v92l869 1120h-869v119h1041v-92l-867 -1122h860z" />
    <glyph glyph-name="bracketleft" unicode="[" horiz-adv-x="552" 
d="M481 1450v-94h-184v-1561h184v-94h-307v1749h307z" />
    <glyph glyph-name="backslash" unicode="\" horiz-adv-x="999" 
d="M190 1401l748 -1565h-129l-748 1565h129z" />
    <glyph glyph-name="bracketright" unicode="]" horiz-adv-x="552" 
d="M379 -299h-307v94h184v1561h-184v94h307v-1749z" />
    <glyph glyph-name="asciicircum" unicode="^" horiz-adv-x="972" 
d="M850 584h-129l-238 604l-231 -604h-129l303 747h119z" />
    <glyph glyph-name="underscore" unicode="_" horiz-adv-x="983" 
d="M983 -614h-983v114h983v-114z" />
    <glyph glyph-name="grave" unicode="`" horiz-adv-x="434" 
d="M373 1210h-105l-207 297h160z" />
    <glyph glyph-name="a" unicode="a" horiz-adv-x="1247" 
d="M246 326q0 -138 96 -187t211 -49q195 0 410 148l-2 204q-172 102 -383 103q-139 0 -235.5 -54.5t-96.5 -164.5zM614 1073q244 0 356.5 -104.5t112.5 -358.5v-610h-100l-20 113q-188 -137 -399.5 -137.5t-328 88t-116.5 251t121.5 253.5t335 91t385.5 -96v80
q0 176 -88.5 245.5t-276 69.5t-412.5 -90v123q135 45 224 63.5t206 18.5z" />
    <glyph glyph-name="b" unicode="b" horiz-adv-x="1314" 
d="M652 90q198 0 315 121t117 323t-115 313t-319 111t-363 -133v-604q167 -131 365 -131zM684 1073q220 0 374 -139q154 -138 154 -406t-160 -410t-382 -142q-224 0 -387 114l-27 -90h-92v1415h123v-463q177 121 397 121z" />
    <glyph glyph-name="c" unicode="c" horiz-adv-x="1155" 
d="M670 1073q170 0 368 -67v-117q-458 159 -684 -43q-125 -112 -125 -317.5t122 -321t309.5 -115.5t392.5 72v-117q-190 -72 -375 -72q-248 0 -412 142.5t-164 409t162 406.5t406 140z" />
    <glyph glyph-name="d" unicode="d" horiz-adv-x="1312" 
d="M229 533q0 -203 119 -323t317 -120t361 135v611q-146 122 -350 122t-326 -111q-121 -112 -121 -314zM1149 1415v-1415h-92l-29 90q-164 -115 -385 -115q-221 1 -381 143t-160 408t161 406t384 141q223 0 379 -102v444h123z" />
    <glyph glyph-name="e" unicode="e" horiz-adv-x="1210" 
d="M648 956q-163 0 -283.5 -86t-137.5 -282h756q0 172 -86 270t-249 98zM225 481v-6q2 -111 48 -190.5t117 -119.5q133 -75 297.5 -75t402.5 90v-123q-213 -82 -446 -82t-387.5 134.5t-154.5 409.5t153 414.5t385 139.5t349 -132t117 -374v-86h-881z" />
    <glyph glyph-name="f" unicode="f" horiz-adv-x="643" 
d="M522 1481q72 0 174 -25v-117q-100 27 -188 27t-134 -42t-46 -153v-120h364v-111h-364v-940h-123v940h-205v111h205v129q0 301 317 301z" />
    <glyph glyph-name="g" unicode="g" horiz-adv-x="1308" 
d="M661 90q196 0 361 133v615q-147 123 -350 123t-324 -113t-121 -315t119 -322.5t315 -120.5zM1145 1051v-1014q0 -471 -539 -471q-209 0 -422 80v123q84 -31 130 -47q123 -42 244.5 -41.5t189 13.5t133 45t103.5 96.5t38 156.5v96q-156 -113 -378.5 -113t-382 142.5
t-159.5 408.5t160 406.5t377 140.5t385 -104l31 82h90z" />
    <glyph glyph-name="h" unicode="h" horiz-adv-x="1296" 
d="M716 1073q214 0 315.5 -88t101.5 -311v-674h-123v641q0 164 -60.5 240.5t-263.5 76.5t-399 -153v-805h-123v1415h123v-483q215 141 429 141z" />
    <glyph glyph-name="i" unicode="i" horiz-adv-x="452" 
d="M287 0h-123v1051h123v-1051zM301 1221h-151v135h151v-135z" />
    <glyph glyph-name="j" unicode="j" horiz-adv-x="454" 
d="M289 1051v-1071q0 -206 -66 -310t-243 -104q-117 0 -226 35v118q119 -39 228 -38q184 0 184 286v1084h123zM303 1221h-151v135h151v-135z" />
    <glyph glyph-name="k" unicode="k" horiz-adv-x="1120" 
d="M889 1051h194q-393 -295 -608 -500q125 -76 311 -231t344 -320h-190q-326 322 -633 539q201 221 582 512zM287 0h-123v1415h123v-1415z" />
    <glyph glyph-name="l" unicode="l" horiz-adv-x="450" 
d="M287 0h-123v1415h123v-1415z" />
    <glyph glyph-name="m" unicode="m" horiz-adv-x="2088" 
d="M1518 1073q203 0 305 -89t102 -310v-674h-123v641q0 162 -61 240q-61 77 -254 77t-389 -155q10 -61 10 -129v-674h-123v641q0 162 -58 240t-233 77q-211 0 -407 -153v-805h-123v1051h88l31 -123q215 145 438 145q258 0 340 -162q69 45 111 70t145 59t201 33z" />
    <glyph glyph-name="n" unicode="n" horiz-adv-x="1296" 
d="M714 1073q216 0 317.5 -88t101.5 -311v-674h-123v641q0 164 -60.5 240.5t-263.5 76.5t-399 -153v-805h-123v1051h88l31 -123q215 145 431 145z" />
    <glyph glyph-name="o" unicode="o" horiz-adv-x="1302" 
d="M660.5 958q-193.5 0 -312.5 -116.5t-119 -311t108.5 -317.5t321 -123t313.5 120t101 318.5t-109.5 314t-303 115.5zM656 1073q239 0 391.5 -142.5t152.5 -409.5t-148.5 -406.5t-392.5 -139.5t-400.5 141.5t-156.5 404.5t157.5 407.5t396.5 144.5z" />
    <glyph glyph-name="p" unicode="p" horiz-adv-x="1312" 
d="M649 90q199 0 316 121t117 323t-115 313t-317 111t-363 -131v-606q163 -131 362 -131zM682 1073q220 0 374 -139q154 -138 154 -406t-160 -410t-380 -142t-383 110v-496h-123v1461h90l31 -99q177 121 397 121z" />
    <glyph glyph-name="q" unicode="q" horiz-adv-x="1310" 
d="M229 533q0 -203 119 -323t315 -120t361 133v615q-144 120 -348 120t-326 -111q-121 -112 -121 -314zM1147 1051v-1461h-123v498q-164 -113 -362 -113q-240 1 -400 143t-160 408t161 406t384 141q223 0 379 -102l31 80h90z" />
    <glyph glyph-name="r" unicode="r" horiz-adv-x="796" 
d="M756 950q-137 0 -270.5 -46t-198.5 -97v-807h-123v1051h88l33 -125q82 59 213 102t258 45v-123z" />
    <glyph glyph-name="s" unicode="s" horiz-adv-x="1089" 
d="M240 797q0 -51 35.5 -87t75.5 -50.5t106 -28.5l211 -47q156 -35 237.5 -98.5t81.5 -204.5q0 -170 -128 -238t-363 -68q-143 0 -394 64v127q207 -78 396 -78q360 0 360 186q0 82 -46 124t-155 67l-303 72q-106 25 -173.5 86t-67.5 149t27.5 141.5t68.5 83t123 53
t248.5 23.5t365.5 -57v-123q-231 66 -393 65q-313 0 -313 -161z" />
    <glyph glyph-name="t" unicode="t" horiz-adv-x="768" 
d="M692 1051v-111h-364v-651q0 -111 46 -154t134 -43t188 27v-117q-102 -25 -174 -25q-317 0 -317 302v661h-205v111h205l20 268h103v-268h364z" />
    <glyph glyph-name="u" unicode="u" horiz-adv-x="1275" 
d="M1112 1051v-1051h-92l-27 121q-229 -145 -428 -145.5t-300 89t-101 312.5v674h123v-641q0 -80 10 -131.5t41 -98.5q59 -90 254.5 -90t396.5 156v805h123z" />
    <glyph glyph-name="v" unicode="v" horiz-adv-x="1056" 
d="M936 1051h131q-225 -543 -496 -1051h-114q-279 549 -467 1051h131q188 -494 395 -906q219 412 420 906z" />
    <glyph glyph-name="w" unicode="w" horiz-adv-x="1705" 
d="M1573 1051h133q-137 -522 -403 -1051h-115q-227 502 -332 879q-111 -375 -348 -879h-117q-119 244 -232 551t-159 500h131q141 -535 315 -906q74 152 182 430t167 474h131q32 -132 146 -441t183 -463q164 318 318 906z" />
    <glyph glyph-name="x" unicode="x" horiz-adv-x="1015" 
d="M594 516l428 -516h-166l-348 432l-344 -432h-170l424 516l-428 535h155l361 -455l354 455h166z" />
    <glyph glyph-name="y" unicode="y" horiz-adv-x="1054" 
d="M932 1051h133q-283 -610 -430.5 -899t-306.5 -562h-131q150 256 243 435q-250 504 -450 1026h131q238 -608 385 -904q160 312 426 904z" />
    <glyph glyph-name="z" unicode="z" horiz-adv-x="1034" 
d="M952 111v-111h-870v135l727 805h-703v111h836v-136l-727 -804h737z" />
    <glyph glyph-name="braceleft" unicode="{" horiz-adv-x="688" 
d="M10 627q129 0 206 57t77 258v74q0 221 83 322t302 112v-94q-158 -12 -210 -88t-52 -250v-74q0 -164 -37 -235q-55 -111 -223 -134q166 -23 221 -133q39 -76 39 -237v-78q0 -174 52 -249t210 -83v-94q-223 11 -304 113t-81 321v70q0 203 -78 260t-205 61v101z" />
    <glyph glyph-name="bar" unicode="|" horiz-adv-x="477" 
d="M303 -512h-129v2048h129v-2048z" />
    <glyph glyph-name="braceright" unicode="}" horiz-adv-x="688" 
d="M395 205v-70q0 -219 -81 -320t-304 -114v94q158 8 210 83t52 249v78q0 162 39 237q55 111 221 133q-168 23 -223 134q-37 72 -37 235v74q0 174 -52 250t-210 88v94q219 -10 302 -112t83 -322v-74q0 -201 77 -258t206 -57v-101q-127 -4 -205 -61t-78 -260z" />
    <glyph glyph-name="asciitilde" unicode="~" horiz-adv-x="1060" 
d="M868 776h101q-1 -94 -57 -146t-156 -52t-226 40t-232 39q-106 0 -105 -79h-101q0 92 55 145t157 53t228 -40t207 -40t105 18t24 62z" />
    <glyph glyph-name="uni00A0" unicode="&#xa0;" horiz-adv-x="514" 
 />
    <glyph glyph-name="exclamdown" unicode="&#xa1;" horiz-adv-x="370" 
d="M135 688h101l18 -969h-137zM113 913v138h145v-138h-145z" />
    <glyph glyph-name="cent" unicode="&#xa2;" horiz-adv-x="1155" 
d="M713 -61h-123v174q-217 27 -352 166q-136 139 -136 381t136 381q136 138 352 161v191h123v-187q141 -6 325 -67v-117q-201 70 -380 70t-304 -112t-125 -318t122 -322q121 -116 309 -115q188 0 393 72v-117q-184 -68 -340 -71v-170z" />
    <glyph glyph-name="sterling" unicode="&#xa3;" horiz-adv-x="1114" 
d="M1104 0h-930v92q100 84 136 188t36 289v166h-205v111h205v196q0 170 91 242t233 72t282 -45v-117q-142 47 -262 47t-168 -48t-47 -159v-188h365v-111h-365v-127q0 -204 -29 -320t-102 -169h760v-119z" />
    <glyph glyph-name="currency" unicode="&#xa4;" horiz-adv-x="1228" 
d="M573 999q-131 0 -223 -92t-92 -226t94 -225t225 -91t223 92q91 92 91 226t-93 225q-94 91 -225 91zM572 250q-142 0 -261 92l-131 -131l-76 76l129 131q-90 125 -90 268t90 262l-131 129l76 76l131 -129q127 90 263 90t268 -90l129 129l75 -76l-129 -131q91 -125 91 -263
t-93 -265l131 -131l-75 -76l-131 131q-124 -92 -266 -92z" />
    <glyph glyph-name="yen" unicode="&#xa5;" horiz-adv-x="1302" 
d="M1130 672v-111h-442v-168h442v-110h-442v-283h-127v283h-440v110h440v168h-440v111h358q-254 332 -463 659h160q256 -403 451 -665q208 288 446 665h152q-199 -317 -463 -659h368z" />
    <glyph glyph-name="brokenbar" unicode="&#xa6;" horiz-adv-x="477" 
d="M303 -512h-129v860h129v-860zM174 1536h129v-860h-129v860z" />
    <glyph glyph-name="section" unicode="&#xa7;" horiz-adv-x="991" 
d="M291 580q1 -39 27 -66t94 -59l90 -43q102 43 150 85t48 94t-31 79q-32 27 -89 53l-101 49q-96 -38 -142 -78t-46 -114zM480 -57q220 1 220 139q0 70 -48 110q-48 42 -154 91l-195 90q-139 66 -139 207q0 162 203 245l-21 11q-182 86 -182 262q0 118 88 188t222 70
t271 -33v-121q-135 39 -245 39q-209 0 -209 -139q0 -111 203 -207l192 -92q141 -70 141 -185q1 -86 -59 -154t-158 -106l35 -18q100 -49 141 -104t41 -140q0 -120 -85 -194t-227 -74t-310 41v121q161 -47 275 -47z" />
    <glyph glyph-name="dieresis" unicode="&#xa8;" horiz-adv-x="630" 
d="M569 1221h-151v135h151v-135zM213 1221h-152v135h152v-135z" />
    <glyph glyph-name="copyright" unicode="&#xa9;" horiz-adv-x="1757" 
d="M891 1169q143 0 283 -51v-90q-152 53 -292 53t-235 -86q-96 -85 -96 -243t94 -247q93 -89 241 -89t298 55v-90q-150 -55 -287 -55q-190 0 -316 110t-126 314q0 205 124 312t312 107zM180 743q0 -289 202 -493t494 -203t498 201t205 491q0 291 -205 496q-204 205 -496 205
t-495 -204t-203 -493zM879 1511q330 0 550 -222t220 -546q1 -325 -221 -545t-552 -220t-548 218q-219 218 -219 544t220 549q220 222 550 222z" />
    <glyph glyph-name="ordfeminine" unicode="&#xaa;" horiz-adv-x="1136" 
d="M164 115h809v-115h-809v115zM528 551q164 0 328 117l-2 161q-137 78 -305 78q-111 0 -188 -43t-77 -137t72 -135t172 -41zM600 1356q186 0 279 -87q94 -87 94 -300v-508h-101l-16 88q-154 -109 -325 -109t-269 74t-98 212t102 215t273 77t315 -74v51q0 139 -71 195
t-215 57q-144 0 -351 -78v119q197 68 383 68z" />
    <glyph glyph-name="guillemotleft" unicode="&#xab;" horiz-adv-x="968" 
d="M639 547l186 -393h-106l-209 403l209 393h104zM272 547l187 -393h-107l-209 403l209 393h105z" />
    <glyph glyph-name="logicalnot" unicode="&#xac;" horiz-adv-x="1060" 
d="M854 256v362h-762v115h877v-477h-115z" />
    <glyph glyph-name="softhyphen" unicode="&#xad;" horiz-adv-x="856" 
d="M764 578h-672v114h672v-114z" />
    <glyph glyph-name="registered" unicode="&#xae;" horiz-adv-x="1122" 
d="M467 920h111q35 0 54 3t39 21q19 18 19 55q0 76 -110 76h-113v-155zM764 1001q0 -125 -125 -149q121 -145 149 -190h-86q-59 78 -151 186h-84v-186h-74v485h193q70 0 124 -34t54 -112zM560 524q158 0 270 110t112 268t-111 270q-111 110 -271 110t-270 -111t-110 -267
t110 -268t270 -112zM561 1356q195 0 324 -131t129 -321t-130 -321q-130 -130 -324 -130t-322 128t-129 320q1 191 129 323t323 132z" />
    <glyph glyph-name="macron" unicode="&#xaf;" horiz-adv-x="624" 
d="M563 1286h-502v115h502v-115z" />
    <glyph glyph-name="degree" unicode="&#xb0;" horiz-adv-x="716" 
d="M276 1157q68 0 110 42t42 110q0 67 -42 109t-110 42t-110 -42t-41 -110q-1 -68 41 -109q42 -42 110 -42zM277 1053q-117 1 -187 71t-70 185t71 185t187 71q116 0 185 -71q69 -72 69 -186t-69 -185q-70 -70 -186 -70z" />
    <glyph glyph-name="plusminus" unicode="&#xb1;" horiz-adv-x="1130" 
d="M983 0h-836v115h836v-115zM618 256h-114v362h-357v115h357v318h114v-318h365v-115h-365v-362z" />
    <glyph glyph-name="twosuperior" unicode="&#xb2;" 
d="M404 1544q114 0 186 -62t72 -169q0 -199 -371 -432h373v-95h-533v88q4 4 132 92q296 205 296 343q0 61 -44 101t-134 40t-225 -45v96q134 43 248 43z" />
    <glyph glyph-name="threesuperior" unicode="&#xb3;" 
d="M684 1005q0 -115 -87 -176t-214 -61t-248 37v98q129 -41 230 -41q215 0 219 139q0 91 -77 113t-173 23h-88v57l237 236h-350v94h498v-82l-230 -221q133 -9 208 -55t75 -161z" />
    <glyph glyph-name="acute" unicode="&#xb4;" horiz-adv-x="434" 
d="M166 1210h-105l152 297h160z" />
    <glyph glyph-name="uni00B5" unicode="&#xb5;" horiz-adv-x="1255" 
d="M1092 0h-88l-31 121q-63 -43 -103 -66t-125 -51q-86 -28 -174 -29q-188 0 -284 82v-467h-123v1461h123v-643q0 -164 60 -241q61 -77 243 -77t379 154v807h123v-1051z" />
    <glyph glyph-name="paragraph" unicode="&#xb6;" horiz-adv-x="1183" 
d="M1010 -154h-123v1375h-250v-1375h-123v705q-412 25 -412 375q0 406 514 405h394v-1485z" />
    <glyph glyph-name="periodcentered" unicode="&#xb7;" horiz-adv-x="370" 
d="M258 565h-145v137h145v-137z" />
    <glyph glyph-name="cedilla" unicode="&#xb8;" horiz-adv-x="505" 
d="M444 -238q0 -174 -206 -174q-72 0 -177 25v100q100 -33 175 -32q104 -1 104 73t-113 74q-27 0 -63 -6l59 188h86l-30 -106q77 -2 121 -40t44 -102z" />
    <glyph glyph-name="onesuperior" unicode="&#xb9;" 
d="M434 786v627l-221 -57v92l319 92v-754h-98z" />
    <glyph glyph-name="ordmasculine" unicode="&#xba;" horiz-adv-x="1120" 
d="M967 0h-809v115h809v-115zM566 1247q-155 0 -250 -94t-95 -250t87 -254t257 -98t252 96t82 255t-89 252t-244 93zM564 1356q200 0 327 -118t127 -342t-124 -340t-327 -116t-334 118t-131 338t131 340t331 120z" />
    <glyph glyph-name="guillemotright" unicode="&#xbb;" horiz-adv-x="968" 
d="M825 557l-209 -403h-106l186 393l-184 403h104zM459 557l-209 -403h-107l187 393l-185 403h105z" />
    <glyph glyph-name="onequarter" unicode="&#xbc;" horiz-adv-x="1775" 
d="M1706 199h-119v-199h-98v199h-449v82q147 219 373 456h117q-209 -221 -371 -444h330v225h98v-225h119v-94zM618 0h-126l690 1331h123zM434 582v626l-221 -57v92l319 92v-753h-98z" />
    <glyph glyph-name="onehalf" unicode="&#xbd;" horiz-adv-x="1861" 
d="M1448 758q112 0 184 -62t72 -170q0 -199 -371 -432h373v-94h-532v88q4 4 132 92q296 204 296 342q0 62 -44 102t-134 40t-226 -46v97q138 43 250 43zM618 0h-126l690 1331h123zM434 582v626l-221 -57v92l319 92v-753h-98z" />
    <glyph glyph-name="threequarters" unicode="&#xbe;" horiz-adv-x="1773" 
d="M1704 199h-119v-199h-98v199h-449v82q147 219 373 456h117q-209 -221 -371 -444h330v225h98v-225h119v-94zM489 0l691 1331h123l-687 -1331h-127zM684 813q0 -115 -87 -176t-214 -61t-248 36v99q129 -41 230 -41q215 0 219 139q0 91 -82 115q-68 20 -168 20h-88v57
l237 236h-350v94h498v-82l-230 -221q133 -8 208 -54t75 -161z" />
    <glyph glyph-name="questiondown" unicode="&#xbf;" horiz-adv-x="1028" 
d="M532 -305q-212 0 -355 86q-142 86 -142 258q0 96 52 164q52 69 126 107q75 38 149 75t126 97t53 147v88h131v-90q0 -103 -52 -179t-126 -118t-148 -78q-178 -90 -178 -206t100 -173t264 -57t445 92v-127q-233 -86 -445 -86zM537 1051h145v-138h-145v138z" />
    <glyph glyph-name="Agrave" unicode="&#xc0;" horiz-adv-x="1318" 
d="M322 508h667q-227 551 -332 715q-138 -221 -335 -715zM1319 0h-137q-70 199 -146 389h-762q-113 -301 -143 -389h-131q156 479 332 851t254 480h151q121 -178 297 -587.5t285 -743.5zM610 1473l-207 296h160l152 -296h-105z" />
    <glyph glyph-name="Aacute" unicode="&#xc1;" horiz-adv-x="1318" 
d="M322 508h667q-227 551 -332 715q-138 -221 -335 -715zM1319 0h-137q-70 199 -146 389h-762q-113 -301 -143 -389h-131q156 479 332 851t254 480h151q121 -178 297 -587.5t285 -743.5zM705 1473h-105l152 296h159z" />
    <glyph glyph-name="Acircumflex" unicode="&#xc2;" horiz-adv-x="1318" 
d="M322 508h667q-227 551 -332 715q-138 -221 -335 -715zM1319 0h-137q-70 199 -146 389h-762q-113 -301 -143 -389h-131q156 479 332 851t254 480h151q121 -178 297 -587.5t285 -743.5zM487 1468h-106l205 297h151l205 -297h-106l-174 205z" />
    <glyph glyph-name="Atilde" unicode="&#xc3;" horiz-adv-x="1318" 
d="M322 508h667q-227 551 -332 715q-138 -221 -335 -715zM1319 0h-137q-70 199 -146 389h-762q-113 -301 -143 -389h-131q156 479 332 851t254 480h151q121 -178 297 -587.5t285 -743.5zM557 1575q-61 0 -74 -59h-104q35 166 182 165q29 0 103.5 -22.5t105.5 -22.5
q63 0 74 60h104q-35 -166 -178 -166q-33 0 -108.5 22.5t-104.5 22.5z" />
    <glyph glyph-name="Adieresis" unicode="&#xc4;" horiz-adv-x="1318" 
d="M322 508h667q-227 551 -332 715q-138 -221 -335 -715zM1319 0h-137q-70 199 -146 389h-762q-113 -301 -143 -389h-131q156 479 332 851t254 480h151q121 -178 297 -587.5t285 -743.5zM918 1464h-156v140h156v-140zM561 1464h-155v140h155v-140z" />
    <glyph glyph-name="Aring" unicode="&#xc5;" horiz-adv-x="1318" 
d="M322 508h667q-227 551 -332 715q-138 -221 -335 -715zM1319 0h-137q-70 199 -146 389h-762q-113 -301 -143 -389h-131q156 479 332 851t254 480h151q121 -178 297 -587.5t285 -743.5zM665.5 1712q-47.5 0 -81 -21.5t-33.5 -66.5t33.5 -66.5t81 -21.5t81 21.5t33.5 66.5
t-33.5 66.5t-81 21.5zM665.5 1456q-94.5 0 -146.5 46t-52 122t52 122t146.5 46t146.5 -46t52 -122t-52 -122t-146.5 -46z" />
    <glyph glyph-name="AE" unicode="&#xc6;" horiz-adv-x="1890" 
d="M930 508v706q-223 -299 -488 -706h488zM1059 1212v-467h637v-118h-637v-508h698v-119h-827v389h-563q-100 -158 -238 -389h-149q545 899 901 1331h876v-119h-698z" />
    <glyph glyph-name="Ccedilla" unicode="&#xc7;" horiz-adv-x="1433" 
d="M885 -25h-8l-21 -71q78 -2 122 -40t44 -102q0 -174 -207 -174q-72 0 -176 25v100q100 -33 174 -32q104 0 105 75q0 72 -113 72q-27 0 -64 -6l50 158q-273 20 -469 177q-98 79 -155.5 207t-57.5 289q-1 231 109 394q208 309 671 309q242 0 420 -80v-131q-170 88 -439.5 88
t-446.5 -148.5t-177 -429.5q0 -147 57 -257t153 -174q191 -126 445 -126q131 0 216 16.5t204 63.5v-129q-180 -74 -436 -74z" />
    <glyph glyph-name="Egrave" unicode="&#xc8;" horiz-adv-x="1216" 
d="M1083 1212h-780v-467h719v-118h-719v-508h780v-119h-909v1331h909v-119zM672 1473h-105l-207 296h160z" />
    <glyph glyph-name="Eacute" unicode="&#xc9;" horiz-adv-x="1216" 
d="M1083 1212h-780v-467h719v-118h-719v-508h780v-119h-909v1331h909v-119zM662 1473h-105l152 296h159z" />
    <glyph glyph-name="Ecircumflex" unicode="&#xca;" horiz-adv-x="1216" 
d="M1083 1212h-780v-467h719v-118h-719v-508h780v-119h-909v1331h909v-119zM899 1468h-106l-175 205l-174 -205h-106l205 297h151z" />
    <glyph glyph-name="Edieresis" unicode="&#xcb;" horiz-adv-x="1216" 
d="M1083 1212h-780v-467h719v-118h-719v-508h780v-119h-909v1331h909v-119zM874 1464h-155v140h155v-140zM518 1464h-156v140h156v-140z" />
    <glyph glyph-name="Igrave" unicode="&#xcc;" horiz-adv-x="477" 
d="M303 0h-129v1331h129v-1331zM293 1473h-105l-206 296h159z" />
    <glyph glyph-name="Iacute" unicode="&#xcd;" horiz-adv-x="477" 
d="M303 0h-129v1331h129v-1331zM283 1473h-105l152 296h159z" />
    <glyph glyph-name="Icircumflex" unicode="&#xce;" horiz-adv-x="477" 
d="M303 0h-129v1331h129v-1331zM520 1468h-106l-174 205l-174 -205h-107l205 297h151z" />
    <glyph glyph-name="Idieresis" unicode="&#xcf;" horiz-adv-x="477" 
d="M303 0h-129v1331h129v-1331zM496 1464h-156v140h156v-140zM139 1464h-155v140h155v-140z" />
    <glyph glyph-name="Eth" unicode="&#xd0;" horiz-adv-x="1458" 
d="M303 119h248q324 0 487.5 143.5t163.5 403.5t-155.5 403t-477.5 143h-266v-467h471v-118h-471v-508zM174 1331h436q310 0 510 -147q104 -76 161.5 -208t57.5 -308t-61 -308q-62 -132 -168 -208q-212 -153 -516 -152h-420v627h-174v118h174v586z" />
    <glyph glyph-name="Ntilde" unicode="&#xd1;" horiz-adv-x="1488" 
d="M1315 0h-111l-905 1194v-1194h-125v1331h174l842 -1108v1108h125v-1331zM872 1530q-33 0 -108.5 22.5t-104.5 22.5q-61 0 -73 -59h-105q35 166 183 165q29 0 103.5 -22.5t104.5 -22.5q64 1 74 60h105q-35 -166 -179 -166z" />
    <glyph glyph-name="Ograve" unicode="&#xd2;" horiz-adv-x="1630" 
d="M819 1233q-260 0 -416.5 -143.5t-156.5 -414.5t158.5 -421t414.5 -150t410.5 149.5t154.5 419t-152.5 415t-412.5 145.5zM822 1356q329 0 514.5 -187.5t185.5 -502.5t-192.5 -503t-513.5 -188t-514 188.5t-193 504t192 502t521 186.5zM870 1473h-104l-207 296h160z" />
    <glyph glyph-name="Oacute" unicode="&#xd3;" horiz-adv-x="1630" 
d="M819 1233q-260 0 -416.5 -143.5t-156.5 -414.5t158.5 -421t414.5 -150t410.5 149.5t154.5 419t-152.5 415t-412.5 145.5zM822 1356q329 0 514.5 -187.5t185.5 -502.5t-192.5 -503t-513.5 -188t-514 188.5t-193 504t192 502t521 186.5zM860 1473h-104l151 296h160z" />
    <glyph glyph-name="Ocircumflex" unicode="&#xd4;" horiz-adv-x="1630" 
d="M819 1233q-260 0 -416.5 -143.5t-156.5 -414.5t158.5 -421t414.5 -150t410.5 149.5t154.5 419t-152.5 415t-412.5 145.5zM822 1356q329 0 514.5 -187.5t185.5 -502.5t-192.5 -503t-513.5 -188t-514 188.5t-193 504t192 502t521 186.5zM1098 1468h-107l-174 205l-174 -205
h-106l204 297h152z" />
    <glyph glyph-name="Otilde" unicode="&#xd5;" horiz-adv-x="1630" 
d="M819 1233q-260 0 -416.5 -143.5t-156.5 -414.5t158.5 -421t414.5 -150t410.5 149.5t154.5 419t-152.5 415t-412.5 145.5zM822 1356q329 0 514.5 -187.5t185.5 -502.5t-192.5 -503t-513.5 -188t-514 188.5t-193 504t192 502t521 186.5zM926 1530q-33 0 -109 22.5
t-104 22.5q-61 0 -74 -59h-104q35 166 182 165q29 0 103.5 -22.5t105.5 -22.5q63 1 73 60h105q-35 -166 -178 -166z" />
    <glyph glyph-name="Odieresis" unicode="&#xd6;" horiz-adv-x="1630" 
d="M819 1233q-260 0 -416.5 -143.5t-156.5 -414.5t158.5 -421t414.5 -150t410.5 149.5t154.5 419t-152.5 415t-412.5 145.5zM822 1356q329 0 514.5 -187.5t185.5 -502.5t-192.5 -503t-513.5 -188t-514 188.5t-193 504t192 502t521 186.5zM1073 1464h-155v140h155v-140z
M717 1464h-156v140h156v-140z" />
    <glyph glyph-name="multiply" unicode="&#xd7;" horiz-adv-x="1028" 
d="M852 416l-80 -80l-260 258l-258 -258l-80 82l258 258l-256 256l80 80l256 -256l258 258l82 -80l-258 -258z" />
    <glyph glyph-name="Oslash" unicode="&#xd8;" horiz-adv-x="1630" 
d="M825 104q250 0 404.5 149.5t154.5 411t-135 406.5l-751 -887q134 -80 327 -80zM246 677.5q0 -269.5 151 -417.5l756 891q-133 82 -330 82q-264 0 -420.5 -143t-156.5 -412.5zM825 -25q-244 0 -415 107l-101 -119l-94 80l96 113q-203 186 -202.5 506.5t193 507
t521.5 186.5q240 0 412 -107l86 101l94 -80l-82 -99q188 -184 188.5 -502t-192 -506t-504.5 -188z" />
    <glyph glyph-name="Ugrave" unicode="&#xd9;" horiz-adv-x="1443" 
d="M1280 1331v-753q0 -602 -559 -603q-557 0 -557 603v753h129v-756q0 -477 429 -477t429 477v756h129zM776 1473h-104l-207 296h160z" />
    <glyph glyph-name="Uacute" unicode="&#xda;" horiz-adv-x="1443" 
d="M1280 1331v-753q0 -602 -559 -603q-557 0 -557 603v753h129v-756q0 -477 429 -477t429 477v756h129zM766 1473h-104l151 296h160z" />
    <glyph glyph-name="Ucircumflex" unicode="&#xdb;" horiz-adv-x="1443" 
d="M1280 1331v-753q0 -602 -559 -603q-557 0 -557 603v753h129v-756q0 -477 429 -477t429 477v756h129zM1004 1468h-107l-174 205l-174 -205h-107l205 297h152z" />
    <glyph glyph-name="Udieresis" unicode="&#xdc;" horiz-adv-x="1443" 
d="M1280 1331v-753q0 -602 -559 -603q-557 0 -557 603v753h129v-756q0 -477 429 -477t429 477v756h129zM979 1464h-156v140h156v-140zM623 1464h-156v140h156v-140z" />
    <glyph glyph-name="Yacute" unicode="&#xdd;" horiz-adv-x="1200" 
d="M666 0h-129v451q-63 82 -230.5 350t-306.5 530h154q176 -356 446 -770q240 354 447 770h153q-137 -258 -305 -530.5t-229 -349.5v-451zM643 1473h-104l151 296h160z" />
    <glyph glyph-name="Thorn" unicode="&#xde;" horiz-adv-x="1263" 
d="M303 985v-637h375q158 0 263 73t105 244t-102 245q-104 74 -266 75h-375zM303 1104h402q124 0 213 -39q90 -39 142 -85t88 -127t36 -186t-36 -187t-88 -128q-137 -119 -355 -123h-402v-229h-129v1331h129v-227z" />
    <glyph glyph-name="germandbls" unicode="&#xdf;" horiz-adv-x="1116" 
d="M164 1159q0 178 82 250t240 72q159 0 251 -81t92 -222q1 -80 -27 -136t-68 -86t-80 -52q-95 -53 -95 -124q0 -33 23 -51t98 -49l133 -53q131 -51 191 -128t61 -190q0 -164 -95 -249t-274 -85q-123 0 -284 58v139q53 -38 136 -60t150 -22q121 0 181 51q59 51 59 168
q0 145 -172 209l-178 66q-156 57 -156 196q0 115 95 171q40 25 80 49q97 59 95 178q0 188 -213 188q-106 0 -153 -42t-47 -153l-2 -1171h-123v1159z" />
    <glyph glyph-name="agrave" unicode="&#xe0;" horiz-adv-x="1247" 
d="M246 326q0 -138 96 -187t211 -49q195 0 410 148l-2 204q-172 102 -383 103q-139 0 -235.5 -54.5t-96.5 -164.5zM614 1073q244 0 356.5 -104.5t112.5 -358.5v-610h-100l-20 113q-188 -137 -399.5 -137.5t-328 88t-116.5 251t121.5 253.5t335 91t385.5 -96v80
q0 176 -88.5 245.5t-276 69.5t-412.5 -90v123q135 45 224 63.5t206 18.5zM575 1210l-206 297h159l152 -297h-105z" />
    <glyph glyph-name="aacute" unicode="&#xe1;" horiz-adv-x="1247" 
d="M246 326q0 -138 96 -187t211 -49q195 0 410 148l-2 204q-172 102 -383 103q-139 0 -235.5 -54.5t-96.5 -164.5zM614 1073q244 0 356.5 -104.5t112.5 -358.5v-610h-100l-20 113q-188 -137 -399.5 -137.5t-328 88t-116.5 251t121.5 253.5t335 91t385.5 -96v80
q0 176 -88.5 245.5t-276 69.5t-412.5 -90v123q135 45 224 63.5t206 18.5zM676 1210h-105l152 297h160z" />
    <glyph glyph-name="acircumflex" unicode="&#xe2;" horiz-adv-x="1247" 
d="M246 326q0 -138 96 -187t211 -49q195 0 410 148l-2 204q-172 102 -383 103q-139 0 -235.5 -54.5t-96.5 -164.5zM614 1073q244 0 356.5 -104.5t112.5 -358.5v-610h-100l-20 113q-188 -137 -399.5 -137.5t-328 88t-116.5 251t121.5 253.5t335 91t385.5 -96v80
q0 176 -88.5 245.5t-276 69.5t-412.5 -90v123q135 45 224 63.5t206 18.5zM453 1210h-107l205 297h151l205 -297h-106l-174 205z" />
    <glyph glyph-name="atilde" unicode="&#xe3;" horiz-adv-x="1247" 
d="M246 326q0 -138 96 -187t211 -49q195 0 410 148l-2 204q-172 102 -383 103q-139 0 -235.5 -54.5t-96.5 -164.5zM614 1073q244 0 356.5 -104.5t112.5 -358.5v-610h-100l-20 113q-188 -137 -399.5 -137.5t-328 88t-116.5 251t121.5 253.5t335 91t385.5 -96v80
q0 176 -88.5 245.5t-276 69.5t-412.5 -90v123q135 45 224 63.5t206 18.5zM518 1329q-61 0 -74 -59h-104q33 166 182 166q29 0 103.5 -22.5t105.5 -22.5q63 0 74 59h104q-33 -166 -178 -166q-33 0 -108.5 22.5t-104.5 22.5z" />
    <glyph glyph-name="adieresis" unicode="&#xe4;" horiz-adv-x="1247" 
d="M246 326q0 -138 96 -187t211 -49q195 0 410 148l-2 204q-172 102 -383 103q-139 0 -235.5 -54.5t-96.5 -164.5zM614 1073q244 0 356.5 -104.5t112.5 -358.5v-610h-100l-20 113q-188 -137 -399.5 -137.5t-328 88t-116.5 251t121.5 253.5t335 91t385.5 -96v80
q0 176 -88.5 245.5t-276 69.5t-412.5 -90v123q135 45 224 63.5t206 18.5zM879 1221h-152v135h152v-135zM522 1221h-151v135h151v-135z" />
    <glyph glyph-name="aring" unicode="&#xe5;" horiz-adv-x="1247" 
d="M246 326q0 -138 96 -187t211 -49q195 0 410 148l-2 204q-172 102 -383 103q-139 0 -235.5 -54.5t-96.5 -164.5zM614 1073q244 0 356.5 -104.5t112.5 -358.5v-610h-100l-20 113q-188 -137 -399.5 -137.5t-328 88t-116.5 251t121.5 253.5t335 91t385.5 -96v80
q0 176 -88.5 245.5t-276 69.5t-412.5 -90v123q135 45 224 63.5t206 18.5zM622.5 1415q-47.5 0 -81 -21.5t-33.5 -66.5t33.5 -66.5t81 -21.5t81 21.5t33.5 66.5t-33.5 66.5t-81 21.5zM622.5 1159q-94.5 0 -146.5 46t-52 122t52 122t146.5 46t146.5 -46t52 -122t-52 -122
t-146.5 -46z" />
    <glyph glyph-name="ae" unicode="&#xe6;" horiz-adv-x="2068" 
d="M578 557q-139 0 -235.5 -56.5t-96.5 -179t91 -177t217 -54.5t230.5 44t221.5 134q-35 80 -43 187q-172 102 -385 102zM1506 956q-163 0 -283.5 -86t-137.5 -282h756q0 172 -86 270t-249 98zM1501 1073q229 0 346 -132t117 -374v-86h-881q2 -89 34 -161
q57 -126 176.5 -178t234.5 -52q184 0 420 90v-123q-213 -82 -435 -82q-317 0 -462 207q-100 -96 -231.5 -151.5t-264.5 -55.5q-203 0 -319.5 89.5t-116.5 255.5t121.5 259t334 93t388.5 -97l-2 68q-2 176 -89.5 245.5t-275 69.5t-412.5 -90v123q135 45 224.5 63.5
t205.5 18.5q344 0 433 -229q72 111 191.5 170t262.5 59z" />
    <glyph glyph-name="ccedilla" unicode="&#xe7;" horiz-adv-x="1155" 
d="M842 -238q0 -174 -207 -174q-72 0 -176 25v100q100 -33 174 -32q104 0 104 73.5t-112 73.5q-27 0 -64 -6l49 155q-223 20 -365.5 161t-142.5 397.5t162 397t406 140.5q170 0 368 -67v-117q-458 159 -684 -43q-125 -112 -125 -317.5t122 -321t309.5 -115.5t392.5 72v-117
q-188 -70 -357 -72l-20 -71q78 -2 122 -40t44 -102z" />
    <glyph glyph-name="egrave" unicode="&#xe8;" horiz-adv-x="1210" 
d="M648 956q-163 0 -283.5 -86t-137.5 -282h756q0 172 -86 270t-249 98zM225 481v-6q2 -111 48 -190.5t117 -119.5q133 -75 297.5 -75t402.5 90v-123q-213 -82 -446 -82t-387.5 134.5t-154.5 409.5t153 414.5t385 139.5t349 -132t117 -374v-86h-881zM582 1210l-207 297h160
l151 -297h-104z" />
    <glyph glyph-name="eacute" unicode="&#xe9;" horiz-adv-x="1210" 
d="M648 956q-163 0 -283.5 -86t-137.5 -282h756q0 172 -86 270t-249 98zM225 481v-6q2 -111 48 -190.5t117 -119.5q133 -75 297.5 -75t402.5 90v-123q-213 -82 -446 -82t-387.5 134.5t-154.5 409.5t153 414.5t385 139.5t349 -132t117 -374v-86h-881zM682 1210h-104l151 297
h160z" />
    <glyph glyph-name="ecircumflex" unicode="&#xea;" horiz-adv-x="1210" 
d="M648 956q-163 0 -283.5 -86t-137.5 -282h756q0 172 -86 270t-249 98zM225 481v-6q2 -111 48 -190.5t117 -119.5q133 -75 297.5 -75t402.5 90v-123q-213 -82 -446 -82t-387.5 134.5t-154.5 409.5t153 414.5t385 139.5t349 -132t117 -374v-86h-881zM459 1210h-107l205 297
h152l204 -297h-106l-174 205z" />
    <glyph glyph-name="edieresis" unicode="&#xeb;" horiz-adv-x="1210" 
d="M648 956q-163 0 -283.5 -86t-137.5 -282h756q0 172 -86 270t-249 98zM225 481v-6q2 -111 48 -190.5t117 -119.5q133 -75 297.5 -75t402.5 90v-123q-213 -82 -446 -82t-387.5 134.5t-154.5 409.5t153 414.5t385 139.5t349 -132t117 -374v-86h-881zM885 1221h-152v135h152
v-135zM528 1221h-151v135h151v-135z" />
    <glyph glyph-name="igrave" unicode="&#xec;" horiz-adv-x="450" 
d="M287 0h-123v1051h123v-1051zM281 1210h-105l-207 297h160z" />
    <glyph glyph-name="iacute" unicode="&#xed;" horiz-adv-x="450" 
d="M287 0h-123v1051h123v-1051zM276 1210h-104l152 297h159z" />
    <glyph glyph-name="icircumflex" unicode="&#xee;" horiz-adv-x="450" 
d="M287 0h-123v1051h123v-1051zM227 1415l-174 -205h-106l205 297h151l205 -297h-107z" />
    <glyph glyph-name="idieresis" unicode="&#xef;" horiz-adv-x="450" 
d="M287 0h-123v1051h123v-1051zM479 1221h-151v135h151v-135zM123 1221h-152v135h152v-135z" />
    <glyph glyph-name="eth" unicode="&#xf0;" horiz-adv-x="1302" 
d="M662 90q412 0 411 514l-2 62q-131 122 -235 166t-249 44t-251 -102q-106 -104 -107 -313q0 -145 111 -258t322 -113zM1200 604q0 -324 -145 -476t-389 -153q-244 0 -404 131t-160 355q0 270 142 400t374 130q230 0 439 -170q-45 260 -213 398l-176 -123l-64 90l139 96
q-119 59 -282 88l37 111q205 -37 352 -125l178 125l64 -90l-148 -103q256 -217 256 -684z" />
    <glyph glyph-name="ntilde" unicode="&#xf1;" horiz-adv-x="1296" 
d="M714 1073q216 0 317.5 -88t101.5 -311v-674h-123v641q0 164 -60.5 240.5t-263.5 76.5t-399 -153v-805h-123v1051h88l31 -123q215 145 431 145zM543 1329q-61 0 -74 -59h-104q33 166 182 166q29 0 103.5 -22.5t105.5 -22.5q63 0 73 59h105q-33 -166 -178 -166
q-33 0 -108.5 22.5t-104.5 22.5z" />
    <glyph glyph-name="ograve" unicode="&#xf2;" horiz-adv-x="1302" 
d="M660.5 958q-193.5 0 -312.5 -116.5t-119 -311t108.5 -317.5t321 -123t313.5 120t101 318.5t-109.5 314t-303 115.5zM656 1073q239 0 391.5 -142.5t152.5 -409.5t-148.5 -406.5t-392.5 -139.5t-400.5 141.5t-156.5 404.5t157.5 407.5t396.5 144.5zM713 1210h-105l-207 297
h160z" />
    <glyph glyph-name="oacute" unicode="&#xf3;" horiz-adv-x="1302" 
d="M660.5 958q-193.5 0 -312.5 -116.5t-119 -311t108.5 -317.5t321 -123t313.5 120t101 318.5t-109.5 314t-303 115.5zM656 1073q239 0 391.5 -142.5t152.5 -409.5t-148.5 -406.5t-392.5 -139.5t-400.5 141.5t-156.5 404.5t157.5 407.5t396.5 144.5zM709 1210h-105l152 297
h159z" />
    <glyph glyph-name="ocircumflex" unicode="&#xf4;" horiz-adv-x="1302" 
d="M660.5 958q-193.5 0 -312.5 -116.5t-119 -311t108.5 -317.5t321 -123t313.5 120t101 318.5t-109.5 314t-303 115.5zM656 1073q239 0 391.5 -142.5t152.5 -409.5t-148.5 -406.5t-392.5 -139.5t-400.5 141.5t-156.5 404.5t157.5 407.5t396.5 144.5zM659 1415l-174 -205
h-106l205 297h151l205 -297h-106z" />
    <glyph glyph-name="otilde" unicode="&#xf5;" horiz-adv-x="1302" 
d="M660.5 958q-193.5 0 -312.5 -116.5t-119 -311t108.5 -317.5t321 -123t313.5 120t101 318.5t-109.5 314t-303 115.5zM656 1073q239 0 391.5 -142.5t152.5 -409.5t-148.5 -406.5t-392.5 -139.5t-400.5 141.5t-156.5 404.5t157.5 407.5t396.5 144.5zM764 1284
q-33 0 -108.5 22.5t-104.5 22.5q-61 0 -74 -59h-104q33 166 182 166q29 0 103.5 -22.5t105.5 -22.5q64 0 74 59h104q-33 -166 -178 -166z" />
    <glyph glyph-name="odieresis" unicode="&#xf6;" horiz-adv-x="1302" 
d="M660.5 958q-193.5 0 -312.5 -116.5t-119 -311t108.5 -317.5t321 -123t313.5 120t101 318.5t-109.5 314t-303 115.5zM656 1073q239 0 391.5 -142.5t152.5 -409.5t-148.5 -406.5t-392.5 -139.5t-400.5 141.5t-156.5 404.5t157.5 407.5t396.5 144.5zM911 1221h-151v135h151
v-135zM555 1221h-152v135h152v-135z" />
    <glyph glyph-name="divide" unicode="&#xf7;" horiz-adv-x="1060" 
d="M604 301h-147v137h147v-137zM92 733h877v-115h-877v115zM604 913h-147v138h147v-138z" />
    <glyph glyph-name="oslash" unicode="&#xf8;" horiz-adv-x="1302" 
d="M662 90q209 0 310 120t101 311t-94 304l-565 -673q101 -62 248 -62zM229 532.5q0 -192.5 99 -309.5l567 676q-100 59 -242 59q-186 0 -305 -116.5t-119 -309zM1200 514.5q0 -260.5 -148.5 -400t-394.5 -139.5q-184 0 -321 84l-78 -92l-86 72l76 90q-145 145 -145.5 400
t157.5 399.5t397 144.5q182 0 314 -82l73 86l86 -71l-71 -86q141 -145 141 -405.5z" />
    <glyph glyph-name="ugrave" unicode="&#xf9;" horiz-adv-x="1275" 
d="M1112 1051v-1051h-92l-27 121q-229 -145 -428 -145.5t-300 89t-101 312.5v674h123v-641q0 -80 10 -131.5t41 -98.5q59 -90 254.5 -90t396.5 156v805h123zM590 1210l-207 297h160l151 -297h-104z" />
    <glyph glyph-name="uacute" unicode="&#xfa;" horiz-adv-x="1275" 
d="M1112 1051v-1051h-92l-27 121q-229 -145 -428 -145.5t-300 89t-101 312.5v674h123v-641q0 -80 10 -131.5t41 -98.5q59 -90 254.5 -90t396.5 156v805h123zM690 1210h-104l151 297h160z" />
    <glyph glyph-name="ucircumflex" unicode="&#xfb;" horiz-adv-x="1275" 
d="M1112 1051v-1051h-92l-27 121q-229 -145 -428 -145.5t-300 89t-101 312.5v674h123v-641q0 -80 10 -131.5t41 -98.5q59 -90 254.5 -90t396.5 156v805h123zM467 1210h-107l205 297h152l205 -297h-107l-174 205z" />
    <glyph glyph-name="udieresis" unicode="&#xfc;" horiz-adv-x="1275" 
d="M1112 1051v-1051h-92l-27 121q-229 -145 -428 -145.5t-300 89t-101 312.5v674h123v-641q0 -80 10 -131.5t41 -98.5q59 -90 254.5 -90t396.5 156v805h123zM893 1221h-152v135h152v-135zM537 1221h-152v135h152v-135z" />
    <glyph glyph-name="yacute" unicode="&#xfd;" horiz-adv-x="1054" 
d="M932 1051h133q-283 -610 -430.5 -899t-306.5 -562h-131q150 256 243 435q-250 504 -450 1026h131q238 -608 385 -904q160 312 426 904zM580 1210h-105l152 297h159z" />
    <glyph glyph-name="thorn" unicode="&#xfe;" horiz-adv-x="1312" 
d="M649 90q199 0 316 121t117 323t-115 313t-317 111t-363 -131v-606q163 -131 362 -131zM682 1073q220 0 374 -139q154 -138 154 -406t-160 -410t-380 -142t-383 110v-496h-123v1825h123v-461q175 119 395 119z" />
    <glyph glyph-name="ydieresis" unicode="&#xff;" horiz-adv-x="1054" 
d="M932 1051h133q-283 -610 -430.5 -899t-306.5 -562h-131q150 256 243 435q-250 504 -450 1026h131q238 -608 385 -904q160 312 426 904zM782 1221h-151v135h151v-135zM426 1221h-152v135h152v-135z" />
    <glyph glyph-name="Amacron" unicode="&#x100;" horiz-adv-x="1318" 
d="M322 508h667q-227 551 -332 715q-138 -221 -335 -715zM1319 0h-137q-70 199 -146 389h-762q-113 -301 -143 -389h-131q156 479 332 851t254 480h151q121 -178 297 -587.5t285 -743.5zM911 1487h-501v115h501v-115z" />
    <glyph glyph-name="amacron" unicode="&#x101;" horiz-adv-x="1247" 
d="M246 326q0 -138 96 -187t211 -49q195 0 410 148l-2 204q-172 102 -383 103q-139 0 -235.5 -54.5t-96.5 -164.5zM614 1073q244 0 356.5 -104.5t112.5 -358.5v-610h-100l-20 113q-188 -137 -399.5 -137.5t-328 88t-116.5 251t121.5 253.5t335 91t385.5 -96v80
q0 176 -88.5 245.5t-276 69.5t-412.5 -90v123q135 45 224 63.5t206 18.5zM874 1286h-501v115h501v-115z" />
    <glyph glyph-name="Abreve" unicode="&#x102;" horiz-adv-x="1318" 
d="M322 508h667q-227 551 -332 715q-138 -221 -335 -715zM1319 0h-137q-70 199 -146 389h-762q-113 -301 -143 -389h-131q156 479 332 851t254 480h151q121 -178 297 -587.5t285 -743.5zM659.5 1501q-223.5 0 -260.5 217h111q10 -63 45 -93t104.5 -30t104.5 30t45 93h111
q-37 -217 -260.5 -217z" />
    <glyph glyph-name="abreve" unicode="&#x103;" horiz-adv-x="1247" 
d="M246 326q0 -138 96 -187t211 -49q195 0 410 148l-2 204q-172 102 -383 103q-139 0 -235.5 -54.5t-96.5 -164.5zM614 1073q244 0 356.5 -104.5t112.5 -358.5v-610h-100l-20 113q-188 -137 -399.5 -137.5t-328 88t-116.5 251t121.5 253.5t335 91t385.5 -96v80
q0 176 -88.5 245.5t-276 69.5t-412.5 -90v123q135 45 224 63.5t206 18.5zM624.5 1217q-223.5 0 -259.5 217h110q10 -63 45 -93t104.5 -30t104.5 29.5t45 93.5h111q-37 -217 -260.5 -217z" />
    <glyph glyph-name="Aogonek" unicode="&#x104;" horiz-adv-x="1318" 
d="M322 508h667q-227 551 -332 715q-138 -221 -335 -715zM1168 -266q81 0 147 45l2 -115q-76 -37 -161 -37t-134 43t-49 118t68.5 136.5t138.5 79.5q-51 143 -144 385h-762q-113 -301 -143 -389h-131q156 479 332 851t254 480h151q121 -178 297 -587.5t285 -743.5h-12
q-219 -96 -220 -203q0 -63 81 -63z" />
    <glyph glyph-name="aogonek" unicode="&#x105;" horiz-adv-x="1247" 
d="M246 326q0 -138 96 -187t211 -49q195 0 410 148l-2 204q-172 102 -383 103q-139 0 -235.5 -54.5t-96.5 -164.5zM959 -373q-85 0 -134 43t-49 118t68.5 136.5t138.5 79.5l-20 109q-188 -137 -399.5 -137.5t-328 88t-116.5 251t121.5 253.5t335 91t385.5 -96v80
q0 176 -88.5 245.5t-276 69.5t-412.5 -90v123q135 45 224.5 63.5t205.5 18.5q244 0 356.5 -104.5t112.5 -358.5v-610q-193 -98 -192 -203q0 -63 80.5 -63t146.5 45l2 -115q-76 -37 -161 -37z" />
    <glyph glyph-name="Cacute" unicode="&#x106;" horiz-adv-x="1433" 
d="M901.5 1356q229.5 0 407.5 -80v-131q-170 88 -439.5 88t-446.5 -148.5t-177 -429.5q0 -147 57 -257t153 -174q191 -126 445 -126q131 0 216 16.5t204 63.5v-129q-180 -74 -459.5 -74t-503.5 154q-114 78 -181.5 213t-67.5 311q0 231 109.5 394t281.5 236t401.5 73z
M868 1473h-104l151 296h160z" />
    <glyph glyph-name="cacute" unicode="&#x107;" horiz-adv-x="1155" 
d="M670 1073q170 0 368 -67v-117q-458 159 -684 -43q-125 -112 -125 -317.5t122 -321t309.5 -115.5t392.5 72v-117q-190 -72 -375 -72q-248 0 -412 142.5t-164 409t162 406.5t406 140zM707 1210h-105l152 297h159z" />
    <glyph glyph-name="Ccircumflex" unicode="&#x108;" horiz-adv-x="1433" 
d="M901.5 1356q229.5 0 407.5 -80v-131q-170 88 -439.5 88t-446.5 -148.5t-177 -429.5q0 -147 57 -257t153 -174q191 -126 445 -126q131 0 216 16.5t204 63.5v-129q-180 -74 -459.5 -74t-503.5 154q-114 78 -181.5 213t-67.5 311q0 231 109.5 394t281.5 236t401.5 73z
M1106 1468h-107l-174 205l-174 -205h-106l205 297h151z" />
    <glyph glyph-name="ccircumflex" unicode="&#x109;" horiz-adv-x="1155" 
d="M670 1073q170 0 368 -67v-117q-458 159 -684 -43q-125 -112 -125 -317.5t122 -321t309.5 -115.5t392.5 72v-117q-190 -72 -375 -72q-248 0 -412 142.5t-164 409t162 406.5t406 140zM657 1415l-174 -205h-106l205 297h151l205 -297h-107z" />
    <glyph glyph-name="Cdotaccent" unicode="&#x10a;" horiz-adv-x="1433" 
d="M901.5 1356q229.5 0 407.5 -80v-131q-170 88 -439.5 88t-446.5 -148.5t-177 -429.5q0 -147 57 -257t153 -174q191 -126 445 -126q131 0 216 16.5t204 63.5v-129q-180 -74 -459.5 -74t-503.5 154q-114 78 -181.5 213t-67.5 311q0 231 109.5 394t281.5 236t401.5 73z
M903 1464h-155v140h155v-140z" />
    <glyph glyph-name="cdotaccent" unicode="&#x10b;" horiz-adv-x="1155" 
d="M670 1073q170 0 368 -67v-117q-458 159 -684 -43q-125 -112 -125 -317.5t122 -321t309.5 -115.5t392.5 72v-117q-190 -72 -375 -72q-248 0 -412 142.5t-164 409t162 406.5t406 140zM731 1221h-151v135h151v-135z" />
    <glyph glyph-name="Ccaron" unicode="&#x10c;" horiz-adv-x="1433" 
d="M901.5 1356q229.5 0 407.5 -80v-131q-170 88 -439.5 88t-446.5 -148.5t-177 -429.5q0 -147 57 -257t153 -174q191 -126 445 -126q131 0 216 16.5t204 63.5v-129q-180 -74 -459.5 -74t-503.5 154q-114 78 -181.5 213t-67.5 311q0 231 109.5 394t281.5 236t401.5 73z
M901 1468h-151l-205 297h106l174 -204l174 204h107z" />
    <glyph glyph-name="ccaron" unicode="&#x10d;" horiz-adv-x="1155" 
d="M670 1073q170 0 368 -67v-117q-458 159 -684 -43q-125 -112 -125 -317.5t122 -321t309.5 -115.5t392.5 72v-117q-190 -72 -375 -72q-248 0 -412 142.5t-164 409t162 406.5t406 140zM731 1210h-151l-205 297h106l174 -204l174 204h107z" />
    <glyph glyph-name="Dcaron" unicode="&#x10e;" horiz-adv-x="1458" 
d="M303 1212v-1093h248q324 0 487.5 143.5t163.5 403.5t-155.5 403t-477.5 143h-266zM174 1331h436q310 0 510 -147q104 -76 161.5 -208t57.5 -308t-61 -308q-62 -132 -168 -208q-212 -153 -516 -152h-420v1331zM743 1468h-151l-205 297h107l174 -204l174 204h106z" />
    <glyph glyph-name="dcaron" unicode="&#x10f;" horiz-adv-x="1480" 
d="M229 533q0 -203 119 -323t317 -120t361 135v611q-146 122 -350 122t-326 -111q-121 -112 -121 -314zM1485 1415l-119 -297h-98l82 297h135zM1026 1415h123v-1415h-92l-29 90q-164 -115 -385 -115q-221 1 -381 143t-160 408t161 406t384 141q223 0 379 -102v444z" />
    <glyph glyph-name="Dcroat" unicode="&#x110;" horiz-adv-x="1458" 
d="M303 119h248q324 0 487.5 143.5t163.5 403.5t-155.5 403t-477.5 143h-266v-467h471v-118h-471v-508zM174 1331h436q310 0 510 -147q104 -76 161.5 -208t57.5 -308t-61 -308q-62 -132 -168 -208q-212 -153 -516 -152h-420v627h-174v118h174v586z" />
    <glyph glyph-name="dcroat" unicode="&#x111;" horiz-adv-x="1312" 
d="M229 533q0 -203 119 -323t317 -120t361 135v611q-146 122 -350 122t-326 -111q-121 -112 -121 -314zM1354 1296v-110h-205v-1186h-92l-29 90q-164 -115 -385 -115q-221 1 -381 143t-160 408t161 406t384 141q223 0 379 -102v215h-303v110h303v119h123v-119h205z" />
    <glyph glyph-name="Emacron" unicode="&#x112;" horiz-adv-x="1216" 
d="M1083 1212h-780v-467h719v-118h-719v-508h780v-119h-909v1331h909v-119zM868 1487h-501v115h501v-115z" />
    <glyph glyph-name="emacron" unicode="&#x113;" horiz-adv-x="1210" 
d="M648 956q-163 0 -283.5 -86t-137.5 -282h756q0 172 -86 270t-249 98zM225 481v-6q2 -111 48 -190.5t117 -119.5q133 -75 297.5 -75t402.5 90v-123q-213 -82 -446 -82t-387.5 134.5t-154.5 409.5t153 414.5t385 139.5t349 -132t117 -374v-86h-881zM881 1286h-502v115h502
v-115z" />
    <glyph glyph-name="Ebreve" unicode="&#x114;" horiz-adv-x="1216" 
d="M1083 1212h-780v-467h719v-118h-719v-508h780v-119h-909v1331h909v-119zM616.5 1501q-223.5 0 -260.5 217h111q10 -63 45 -93t104.5 -30t104.5 30t45 93h111q-37 -217 -260.5 -217z" />
    <glyph glyph-name="ebreve" unicode="&#x115;" horiz-adv-x="1210" 
d="M648 956q-163 0 -283.5 -86t-137.5 -282h756q0 172 -86 270t-249 98zM225 481v-6q2 -111 48 -190.5t117 -119.5q133 -75 297.5 -75t402.5 90v-123q-213 -82 -446 -82t-387.5 134.5t-154.5 409.5t153 414.5t385 139.5t349 -132t117 -374v-86h-881zM631 1217
q-223 0 -260 217h110q10 -63 45 -93t104.5 -30t104.5 29.5t45 93.5h111q-37 -217 -260 -217z" />
    <glyph glyph-name="Edotaccent" unicode="&#x116;" horiz-adv-x="1216" 
d="M1083 1212h-780v-467h719v-118h-719v-508h780v-119h-909v1331h909v-119zM696 1464h-155v140h155v-140z" />
    <glyph glyph-name="edotaccent" unicode="&#x117;" horiz-adv-x="1210" 
d="M648 956q-163 0 -283.5 -86t-137.5 -282h756q0 172 -86 270t-249 98zM225 481v-6q2 -111 48 -190.5t117 -119.5q133 -75 297.5 -75t402.5 90v-123q-213 -82 -446 -82t-387.5 134.5t-154.5 409.5t153 414.5t385 139.5t349 -132t117 -374v-86h-881zM707 1221h-152v135h152
v-135z" />
    <glyph glyph-name="Eogonek" unicode="&#x118;" horiz-adv-x="1216" 
d="M303 1212v-467h719v-118h-719v-508h780v-119h-161q-221 -96 -222 -203q0 -63 81 -63t147 45l2 -115q-78 -37 -162 -37t-133 43t-49 116t61.5 131t130.5 83h-604v1331h909v-119h-780z" />
    <glyph glyph-name="eogonek" unicode="&#x119;" horiz-adv-x="1210" 
d="M648 956q-163 0 -283.5 -86t-137.5 -282h756q0 172 -86 270t-249 98zM225 481v-6q2 -111 48 -190.5t117 -119.5q133 -75 297.5 -75t402.5 90v-123q-90 -37 -164 -53q-229 -96 -230 -207q0 -63 81 -63t147 45l2 -115q-78 -37 -162 -37t-133 43t-49 115q0 111 141 192
l-68 -2q-244 0 -398.5 134.5t-154.5 409.5t153 414.5t385 139.5t349 -132t117 -374v-86h-881z" />
    <glyph glyph-name="Ecaron" unicode="&#x11a;" horiz-adv-x="1216" 
d="M1083 1212h-780v-467h719v-118h-719v-508h780v-119h-909v1331h909v-119zM694 1468h-151l-205 297h106l174 -204l175 204h106z" />
    <glyph glyph-name="ecaron" unicode="&#x11b;" horiz-adv-x="1210" 
d="M648 956q-163 0 -283.5 -86t-137.5 -282h756q0 172 -86 270t-249 98zM225 481v-6q2 -111 48 -190.5t117 -119.5q133 -75 297.5 -75t402.5 90v-123q-213 -82 -446 -82t-387.5 134.5t-154.5 409.5t153 414.5t385 139.5t349 -132t117 -374v-86h-881zM555 1210l-205 297h107
l174 -204l174 204h106l-204 -297h-152z" />
    <glyph glyph-name="Gcircumflex" unicode="&#x11c;" horiz-adv-x="1464" 
d="M876 1356q215 0 431 -82v-131q-129 49 -222.5 69.5t-212.5 20.5q-274 0 -451 -146.5t-177 -427.5q0 -147 55 -259t149 -176q187 -126 439 -126q168 0 299 39v484h127v-572q-193 -74 -441 -74q-298 0 -518 154q-112 78 -178.5 213t-66.5 311q0 231 107.5 393t276 236
t383.5 74zM1106 1468h-107l-174 205l-174 -205h-106l205 297h151z" />
    <glyph glyph-name="gcircumflex" unicode="&#x11d;" horiz-adv-x="1308" 
d="M661 90q196 0 361 133v615q-147 123 -350 123t-324 -113t-121 -315t119 -322.5t315 -120.5zM1145 1051v-1014q0 -471 -539 -471q-209 0 -422 80v123q84 -31 130 -47q123 -42 244.5 -41.5t189 13.5t133 45t103.5 96.5t38 156.5v96q-156 -113 -378.5 -113t-382 142.5
t-159.5 408.5t160 406.5t377 140.5t385 -104l31 82h90zM492 1210h-107l205 297h151l205 -297h-106l-174 205z" />
    <glyph glyph-name="Gbreve" unicode="&#x11e;" horiz-adv-x="1464" 
d="M876 1356q215 0 431 -82v-131q-129 49 -222.5 69.5t-212.5 20.5q-274 0 -451 -146.5t-177 -427.5q0 -147 55 -259t149 -176q187 -126 439 -126q168 0 299 39v484h127v-572q-193 -74 -441 -74q-298 0 -518 154q-112 78 -178.5 213t-66.5 311q0 231 107.5 393t276 236
t383.5 74zM823 1501q-223 0 -260 217h111q10 -63 45 -93t104.5 -30t104.5 30t45 93h110q-37 -217 -260 -217z" />
    <glyph glyph-name="gbreve" unicode="&#x11f;" horiz-adv-x="1308" 
d="M661 90q196 0 361 133v615q-147 123 -350 123t-324 -113t-121 -315t119 -322.5t315 -120.5zM1145 1051v-1014q0 -471 -539 -471q-209 0 -422 80v123q84 -31 130 -47q123 -42 244.5 -41.5t189 13.5t133 45t103.5 96.5t38 156.5v96q-156 -113 -378.5 -113t-382 142.5
t-159.5 408.5t160 406.5t377 140.5t385 -104l31 82h90zM663.5 1217q-223.5 0 -260.5 217h111q10 -63 45 -93t104.5 -30t104.5 29.5t45 93.5h111q-37 -217 -260.5 -217z" />
    <glyph glyph-name="Gdotaccent" unicode="&#x120;" horiz-adv-x="1464" 
d="M876 1356q215 0 431 -82v-131q-129 49 -222.5 69.5t-212.5 20.5q-274 0 -451 -146.5t-177 -427.5q0 -147 55 -259t149 -176q187 -126 439 -126q168 0 299 39v484h127v-572q-193 -74 -441 -74q-298 0 -518 154q-112 78 -178.5 213t-66.5 311q0 231 107.5 393t276 236
t383.5 74zM903 1464h-155v140h155v-140z" />
    <glyph glyph-name="gdotaccent" unicode="&#x121;" horiz-adv-x="1308" 
d="M661 90q196 0 361 133v615q-147 123 -350 123t-324 -113t-121 -315t119 -322.5t315 -120.5zM1145 1051v-1014q0 -471 -539 -471q-209 0 -422 80v123q84 -31 130 -47q123 -42 244.5 -41.5t189 13.5t133 45t103.5 96.5t38 156.5v96q-156 -113 -378.5 -113t-382 142.5
t-159.5 408.5t160 406.5t377 140.5t385 -104l31 82h90zM739 1221h-151v135h151v-135z" />
    <glyph glyph-name="Gcommaaccent" unicode="&#x122;" horiz-adv-x="1464" 
d="M784 -410h-94l82 297h131zM876 1356q215 0 431 -82v-131q-129 49 -222.5 69.5t-212.5 20.5q-274 0 -451 -146.5t-177 -427.5q0 -147 55 -259t149 -176q187 -126 439 -126q168 0 299 39v484h127v-572q-193 -74 -441 -74q-298 0 -518 154q-112 78 -178.5 213t-66.5 311
q0 231 107.5 393t276 236t383.5 74z" />
    <glyph glyph-name="gcommaaccent" unicode="&#x123;" horiz-adv-x="1308" 
d="M661 90q196 0 361 133v615q-147 123 -350 123t-324 -113t-121 -315t119 -322.5t315 -120.5zM1145 1051v-1014q0 -471 -539 -471q-209 0 -422 80v123q84 -31 130 -47q123 -42 244.5 -41.5t189 13.5t133 45t103.5 96.5t38 156.5v96q-156 -113 -378.5 -113t-382 142.5
t-159.5 408.5t160 406.5t377 140.5t385 -104l31 82h90zM688 1217h-131l119 296h94z" />
    <glyph glyph-name="Hcircumflex" unicode="&#x124;" horiz-adv-x="1474" 
d="M1300 0h-129v604h-868v-604h-129v1331h129v-608h868v608h129v-1331zM1018 1468h-107l-174 205l-174 -205h-106l205 297h151z" />
    <glyph glyph-name="hcircumflex" unicode="&#x125;" horiz-adv-x="1296" 
d="M716 1073q214 0 315.5 -88t101.5 -311v-674h-123v641q0 164 -60.5 240.5t-263.5 76.5t-399 -153v-805h-123v1415h123v-483q215 141 429 141zM272 1497h-106l205 297h151l205 -297h-106l-175 205z" />
    <glyph glyph-name="Hbar" unicode="&#x126;" horiz-adv-x="1474" 
d="M1171 1032h-868v-309h868v309zM1475 1032h-175v-1032h-129v604h-868v-604h-129v1032h-174v111h174v188h129v-188h868v188h129v-188h175v-111z" />
    <glyph glyph-name="hbar" unicode="&#x127;" horiz-adv-x="1296" 
d="M716 1073q214 0 315.5 -88t101.5 -311v-674h-123v641q0 164 -60.5 240.5t-263.5 76.5t-399 -153v-805h-123v1186h-205v110h205v119h123v-119h303v-110h-303v-254q215 141 429 141z" />
    <glyph glyph-name="Itilde" unicode="&#x128;" horiz-adv-x="477" 
d="M303 0h-129v1331h129v-1331zM348 1530q-33 0 -108.5 22.5t-104.5 22.5q-61 0 -74 -59h-104q33 166 182 165q29 0 103.5 -22.5t105.5 -22.5q64 1 74 60h104q-35 -166 -178 -166z" />
    <glyph glyph-name="itilde" unicode="&#x129;" horiz-adv-x="450" 
d="M287 0h-123v1051h123v-1051zM332 1284q-33 0 -109 22.5t-104 22.5q-61 0 -74 -59h-104q33 166 182 166q29 0 103.5 -22.5t105.5 -22.5q64 0 74 59h104q-35 -166 -178 -166z" />
    <glyph glyph-name="Imacron" unicode="&#x12a;" horiz-adv-x="477" 
d="M303 0h-129v1331h129v-1331zM489 1487h-501v115h501v-115z" />
    <glyph glyph-name="imacron" unicode="&#x12b;" horiz-adv-x="450" 
d="M287 0h-123v1051h123v-1051zM475 1286h-502v115h502v-115z" />
    <glyph glyph-name="Ibreve" unicode="&#x12c;" horiz-adv-x="477" 
d="M303 0h-129v1331h129v-1331zM237.5 1501q-223.5 0 -260.5 217h111q10 -63 45 -93t104.5 -30t104.5 30t45 93h111q-37 -217 -260.5 -217z" />
    <glyph glyph-name="ibreve" unicode="&#x12d;" horiz-adv-x="450" 
d="M287 0h-123v1051h123v-1051zM225 1217q-223 0 -260 217h111q10 -63 45 -93t104.5 -30t104.5 30t45 93h110q-37 -217 -260 -217z" />
    <glyph glyph-name="Iogonek" unicode="&#x12e;" horiz-adv-x="477" 
d="M149 -373q-84 0 -133 43t-49 118t68.5 136.5t138.5 79.5v1327h129v-1331q-221 -98 -221 -203q0 -63 80.5 -63t146.5 45l2 -115q-78 -37 -162 -37z" />
    <glyph glyph-name="iogonek" unicode="&#x12f;" horiz-adv-x="450" 
d="M152 -266q81 0 147 45l2 -115q-76 -37 -161 -37t-134 43t-49 118t68.5 136.5t138.5 79.5v1047h123v-1051q-215 -98 -215 -203q-1 -63 80 -63zM301 1356v-135h-151v135h151z" />
    <glyph glyph-name="Idotaccent" unicode="&#x130;" horiz-adv-x="477" 
d="M303 0h-129v1331h129v-1331zM317 1464h-155v140h155v-140z" />
    <glyph glyph-name="dotlessi" unicode="&#x131;" horiz-adv-x="450" 
d="M287 0h-123v1051h123v-1051z" />
    <glyph glyph-name="IJ" unicode="&#x132;" horiz-adv-x="1368" 
d="M1204 1331v-969q0 -178 -110.5 -281.5t-287.5 -103.5t-319 43v132q137 -51 301 -52q287 0 287 312v919h129zM303 0h-129v1331h129v-1331z" />
    <glyph glyph-name="ij" unicode="&#x133;" horiz-adv-x="907" 
d="M741 1051v-1071q0 -205 -65 -310q-66 -104 -244 -104q-117 0 -225 35v118q119 -39 227 -38q184 0 184 286v1084h123zM287 0h-123v1051h123v-1051zM756 1221h-152v135h152v-135zM301 1221h-151v135h151v-135z" />
    <glyph glyph-name="Jcircumflex" unicode="&#x134;" horiz-adv-x="890" 
d="M727 1331v-969q0 -178 -110.5 -281.5t-288.5 -103.5t-318 43v132q137 -51 301 -52q287 0 287 312v919h129zM723 1468h-107l-174 205l-174 -205h-106l205 297h151z" />
    <glyph glyph-name="jcircumflex" unicode="&#x135;" horiz-adv-x="452" 
d="M289 1051v-1071q0 -205 -65.5 -309.5t-243.5 -104.5q-117 0 -226 35v118q119 -39 228 -38q184 0 184 286v1084h123zM229 1415l-174 -205h-106l205 297h151l205 -297h-107z" />
    <glyph glyph-name="Kcommaaccent" unicode="&#x136;" horiz-adv-x="1249" 
d="M594 -410h-94l82 297h131zM1030 1331h197q-395 -326 -692 -663q410 -352 714 -668h-190q-317 330 -697 653q316 373 668 678zM303 0h-129v1331h129v-1331z" />
    <glyph glyph-name="kcommaaccent" unicode="&#x137;" horiz-adv-x="1120" 
d="M551 -410h-94l82 297h131zM889 1051h194q-393 -295 -608 -500q125 -76 311 -231t344 -320h-190q-326 322 -633 539q201 221 582 512zM287 0h-123v1415h123v-1415z" />
    <glyph glyph-name="kgreenlandic" unicode="&#x138;" horiz-adv-x="1120" 
d="M889 1051h194q-393 -295 -608 -500q125 -76 311 -231t344 -320h-190q-326 322 -633 539q201 221 582 512zM287 0h-123v1051h123v-1051z" />
    <glyph glyph-name="Lacute" unicode="&#x139;" horiz-adv-x="1114" 
d="M303 119h801v-119h-930v1331h129v-1212zM295 1473h-105l152 296h160z" />
    <glyph glyph-name="lacute" unicode="&#x13a;" horiz-adv-x="450" 
d="M287 0h-123v1415h123v-1415zM274 1497h-104l152 297h159z" />
    <glyph glyph-name="Lcommaaccent" unicode="&#x13b;" horiz-adv-x="1114" 
d="M547 -410h-94l82 297h131zM303 119h801v-119h-930v1331h129v-1212z" />
    <glyph glyph-name="lcommaaccent" unicode="&#x13c;" horiz-adv-x="450" 
d="M172 -410h-94l82 297h131zM287 0h-123v1415h123v-1415z" />
    <glyph glyph-name="Lcaron" unicode="&#x13d;" horiz-adv-x="1114" 
d="M602 1034h-98l82 297h135zM303 119h801v-119h-930v1331h129v-1212z" />
    <glyph glyph-name="lcaron" unicode="&#x13e;" horiz-adv-x="618" 
d="M504 1118h-98l81 297h136zM287 0h-123v1415h123v-1415z" />
    <glyph glyph-name="Ldot" unicode="&#x13f;" horiz-adv-x="1114" 
d="M811 733h-145v137h145v-137zM303 119h801v-119h-930v1331h129v-1212z" />
    <glyph glyph-name="ldot" unicode="&#x140;" horiz-adv-x="507" 
d="M547 924h-146v137h146v-137zM287 0h-123v1415h123v-1415z" />
    <glyph glyph-name="Lslash" unicode="&#x141;" horiz-adv-x="1114" 
d="M1104 119v-119h-930v672l-174 -45v118l174 46v540h129v-506l471 125v-119l-471 -124v-588h801z" />
    <glyph glyph-name="lslash" unicode="&#x142;" horiz-adv-x="491" 
d="M307 0h-123v684l-204 -57v118l204 58v612h123v-579l205 57v-119l-205 -57v-717z" />
    <glyph glyph-name="Nacute" unicode="&#x143;" horiz-adv-x="1488" 
d="M1315 0h-111l-905 1194v-1194h-125v1331h174l842 -1108v1108h125v-1331zM807 1473h-105l152 296h160z" />
    <glyph glyph-name="nacute" unicode="&#x144;" horiz-adv-x="1296" 
d="M714 1073q216 0 317.5 -88t101.5 -311v-674h-123v641q0 164 -60.5 240.5t-263.5 76.5t-399 -153v-805h-123v1051h88l31 -123q215 145 431 145zM700 1210h-104l152 297h159z" />
    <glyph glyph-name="Ncommaaccent" unicode="&#x145;" horiz-adv-x="1488" 
d="M735 -410h-94l82 297h131zM1315 0h-111l-905 1194v-1194h-125v1331h174l842 -1108v1108h125v-1331z" />
    <glyph glyph-name="ncommaaccent" unicode="&#x146;" horiz-adv-x="1296" 
d="M602 -113h131l-119 -297h-94zM714 1073q216 0 317.5 -88t101.5 -311v-674h-123v641q0 164 -60.5 240.5t-263.5 76.5t-399 -153v-805h-123v1051h88l31 -123q215 145 431 145z" />
    <glyph glyph-name="Ncaron" unicode="&#x147;" horiz-adv-x="1488" 
d="M1315 0h-111l-905 1194v-1194h-125v1331h174l842 -1108v1108h125v-1331zM840 1468h-152l-205 297h107l174 -204l174 204h106z" />
    <glyph glyph-name="ncaron" unicode="&#x148;" horiz-adv-x="1296" 
d="M714 1073q216 0 317.5 -88t101.5 -311v-674h-123v641q0 164 -60.5 240.5t-263.5 76.5t-399 -153v-805h-123v1051h88l31 -123q215 145 431 145zM573 1210l-204 297h106l174 -204l174 204h107l-205 -297h-152z" />
    <glyph glyph-name="napostrophe" unicode="&#x149;" horiz-adv-x="1316" 
d="M734 1073q216 0 317.5 -88t101.5 -311v-674h-123v641q0 164 -60.5 240.5t-263 76.5t-399.5 -153v-805h-123v1051h88l31 -123q215 145 431 145zM213 1415l-119 -297h-94l82 297h131z" />
    <glyph glyph-name="Eng" unicode="&#x14a;" horiz-adv-x="1488" 
d="M1315 1331v-1458q0 -177 -111 -281t-288 -104t-318 43v131q138 -51 286 -51q308 0 308 311v96l-893 1176v-1194h-125v1331h174l842 -1108v1108h125z" />
    <glyph glyph-name="eng" unicode="&#x14b;" horiz-adv-x="1296" 
d="M714 1073q216 0 317 -88t102 -311v-694q0 -206 -66 -310t-244 -104q-117 0 -225 35v118q119 -39 227 -38q184 0 185 286v674q0 164 -60 241q-60 76 -264 76q-203 0 -399 -153v-805h-123v1051h88l31 -123q215 145 431 145z" />
    <glyph glyph-name="Omacron" unicode="&#x14c;" horiz-adv-x="1630" 
d="M819 1233q-260 0 -416.5 -143.5t-156.5 -414.5t158.5 -421t414.5 -150t410.5 149.5t154.5 419t-152.5 415t-412.5 145.5zM822 1356q329 0 514.5 -187.5t185.5 -502.5t-192.5 -503t-513.5 -188t-514 188.5t-193 504t192 502t521 186.5zM1067 1487h-502v115h502v-115z" />
    <glyph glyph-name="omacron" unicode="&#x14d;" horiz-adv-x="1302" 
d="M660.5 958q-193.5 0 -312.5 -116.5t-119 -311t108.5 -317.5t321 -123t313.5 120t101 318.5t-109.5 314t-303 115.5zM656 1073q239 0 391.5 -142.5t152.5 -409.5t-148.5 -406.5t-392.5 -139.5t-400.5 141.5t-156.5 404.5t157.5 407.5t396.5 144.5zM907 1286h-501v115h501
v-115z" />
    <glyph glyph-name="Obreve" unicode="&#x14e;" horiz-adv-x="1630" 
d="M819 1233q-260 0 -416.5 -143.5t-156.5 -414.5t158.5 -421t414.5 -150t410.5 149.5t154.5 419t-152.5 415t-412.5 145.5zM822 1356q329 0 514.5 -187.5t185.5 -502.5t-192.5 -503t-513.5 -188t-514 188.5t-193 504t192 502t521 186.5zM815 1501q-223 0 -260 217h111
q10 -63 44.5 -93t104.5 -30t105 30t45 93h110q-37 -217 -260 -217z" />
    <glyph glyph-name="obreve" unicode="&#x14f;" horiz-adv-x="1302" 
d="M660.5 958q-193.5 0 -312.5 -116.5t-119 -311t108.5 -317.5t321 -123t313.5 120t101 318.5t-109.5 314t-303 115.5zM656 1073q239 0 391.5 -142.5t152.5 -409.5t-148.5 -406.5t-392.5 -139.5t-400.5 141.5t-156.5 404.5t157.5 407.5t396.5 144.5zM657.5 1217
q-223.5 0 -260.5 217h111q10 -63 45 -93t104.5 -30t104.5 30t45 93h111q-37 -217 -260.5 -217z" />
    <glyph glyph-name="Ohungarumlaut" unicode="&#x150;" horiz-adv-x="1630" 
d="M819 1233q-260 0 -416.5 -143.5t-156.5 -414.5t158.5 -421t414.5 -150t410.5 149.5t154.5 419t-152.5 415t-412.5 145.5zM822 1356q329 0 514.5 -187.5t185.5 -502.5t-192.5 -503t-513.5 -188t-514 188.5t-193 504t192 502t521 186.5zM1038 1464h-104l151 297h160z
M737 1464h-104l151 297h160z" />
    <glyph glyph-name="ohungarumlaut" unicode="&#x151;" horiz-adv-x="1302" 
d="M660.5 958q-193.5 0 -312.5 -116.5t-119 -311t108.5 -317.5t321 -123t313.5 120t101 318.5t-109.5 314t-303 115.5zM656 1073q239 0 391.5 -142.5t152.5 -409.5t-148.5 -406.5t-392.5 -139.5t-400.5 141.5t-156.5 404.5t157.5 407.5t396.5 144.5zM883 1210h-105l152 297
h160zM582 1210h-105l152 297h159z" />
    <glyph glyph-name="OE" unicode="&#x152;" horiz-adv-x="2054" 
d="M246 674q0 -270 156 -420t409 -150q115 0 201 25v1079q-86 25 -203 25q-254 0 -409 -144q-154 -145 -154 -415zM1141 1212v-467h719v-118h-719v-508h780v-119h-893q-96 -25 -217 -25q-319 -1 -511 189t-191 504q0 314 190 501q190 186 510 187q121 0 225 -25h887v-119
h-780z" />
    <glyph glyph-name="oe" unicode="&#x153;" horiz-adv-x="2181" 
d="M1619 956q-163 0 -284 -86t-137 -282h756q0 172 -86 270t-249 98zM659 90q212 0 313 120t101 318t-109 315q-110 115 -304 115t-312 -116q-119 -116 -119 -312q0 -194 109 -317t321 -123zM1196 481v-6q2 -111 48 -191q76 -132 257 -176q70 -17 139 -18q182 0 420 90v-123
q-70 -27 -116 -41q-127 -39 -318 -41q-360 0 -491 256q-63 -127 -187 -191t-291 -65q-243 -1 -399 141t-156 405t158 407t397 145q162 -1 287 -67t191 -197q68 133 193 199q126 66 286 65q229 0 346 -132t117 -374v-86h-881z" />
    <glyph glyph-name="Racute" unicode="&#x154;" horiz-adv-x="1288" 
d="M303 631h367q138 0 242 51q60 29 95 91.5t35 150.5q0 152 -102 220t-262 68h-375v-581zM303 512v-512h-129v1331h524q156 1 300 -73q80 -40 131 -125.5t51 -202.5q0 -188 -111 -290.5t-264 -121.5q213 -219 422 -518h-176q-36 71 -168.5 236t-239.5 276h-340zM672 1473
h-105l152 296h160z" />
    <glyph glyph-name="racute" unicode="&#x155;" horiz-adv-x="796" 
d="M756 950q-137 0 -270.5 -46t-198.5 -97v-807h-123v1051h88l33 -125q82 59 213 102t258 45v-123zM524 1210h-104l151 297h160z" />
    <glyph glyph-name="Rcommaaccent" unicode="&#x156;" horiz-adv-x="1288" 
d="M582 -113h131l-119 -297h-94zM303 631h367q138 0 242 51q60 29 95 91.5t35 150.5q0 152 -102 220t-262 68h-375v-581zM303 512v-512h-129v1331h524q156 1 300 -73q80 -40 131 -125.5t51 -202.5q0 -188 -110.5 -291t-264.5 -121q213 -219 422 -518h-176q-36 71 -168.5 236
t-239.5 276h-340z" />
    <glyph glyph-name="rcommaaccent" unicode="&#x157;" horiz-adv-x="796" 
d="M152 -113h131l-119 -297h-94zM756 950q-137 0 -270.5 -46t-198.5 -97v-807h-123v1051h88l33 -125q82 59 213 102t258 45v-123z" />
    <glyph glyph-name="Rcaron" unicode="&#x158;" horiz-adv-x="1288" 
d="M303 631h367q138 0 242 51q60 29 95 91.5t35 150.5q0 152 -102 220t-262 68h-375v-581zM303 512v-512h-129v1331h524q156 1 300 -73q80 -40 131 -125.5t51 -202.5q0 -188 -111 -290.5t-264 -121.5q213 -219 422 -518h-176q-36 71 -168.5 236t-239.5 276h-340zM553 1468
l-205 297h107l174 -204l174 204h106l-204 -297h-152z" />
    <glyph glyph-name="rcaron" unicode="&#x159;" horiz-adv-x="796" 
d="M756 950q-137 0 -270.5 -46t-198.5 -97v-807h-123v1051h88l33 -125q82 59 213 102t258 45v-123zM397 1210l-204 297h106l174 -204l174 204h107l-205 -297h-152z" />
    <glyph glyph-name="Sacute" unicode="&#x15a;" horiz-adv-x="1234" 
d="M657 1356q166 0 406 -66v-129q-367 107 -601 59q-84 -18 -146 -72t-62 -142q0 -162 192 -213l347 -91q330 -88 329 -354q0 -186 -143 -279.5t-389 -93.5t-488 91v131q297 -100 479.5 -100.5t295 65t112.5 176t-63.5 164t-167.5 80.5l-363 98q-274 72 -274 326
q0 178 149 264t387 86zM662 1473h-105l152 296h159z" />
    <glyph glyph-name="sacute" unicode="&#x15b;" horiz-adv-x="1089" 
d="M240 797q0 -51 35.5 -87t75.5 -50.5t106 -28.5l211 -47q156 -35 237.5 -98.5t81.5 -204.5q0 -170 -128 -238t-363 -68q-143 0 -394 64v127q207 -78 396 -78q360 0 360 186q0 82 -46 124t-155 67l-303 72q-106 25 -173.5 86t-67.5 149t27.5 141.5t68.5 83t123 53
t248.5 23.5t365.5 -57v-123q-231 66 -393 65q-313 0 -313 -161zM584 1210h-105l152 297h160z" />
    <glyph glyph-name="Scircumflex" unicode="&#x15c;" horiz-adv-x="1234" 
d="M657 1356q166 0 406 -66v-129q-367 107 -601 59q-84 -18 -146 -72t-62 -142q0 -162 192 -213l347 -91q330 -88 329 -354q0 -186 -143 -279.5t-389 -93.5t-488 91v131q297 -100 479.5 -100.5t295 65t112.5 176t-63.5 164t-167.5 80.5l-363 98q-274 72 -274 326
q0 178 149 264t387 86zM899 1468h-106l-175 205l-174 -205h-106l205 297h151z" />
    <glyph glyph-name="scircumflex" unicode="&#x15d;" horiz-adv-x="1089" 
d="M240 797q0 -51 35.5 -87t75.5 -50.5t106 -28.5l211 -47q156 -35 237.5 -98.5t81.5 -204.5q0 -170 -128 -238t-363 -68q-143 0 -394 64v127q207 -78 396 -78q360 0 360 186q0 82 -46 124t-155 67l-303 72q-106 25 -173.5 86t-67.5 149t27.5 141.5t68.5 83t123 53
t248.5 23.5t365.5 -57v-123q-231 66 -393 65q-313 0 -313 -161zM535 1415l-175 -205h-106l205 297h151l205 -297h-106z" />
    <glyph glyph-name="Scedilla" unicode="&#x15e;" horiz-adv-x="1234" 
d="M1122 348q0 -342 -471 -371l-20 -73q78 -2 122 -40t44 -102q0 -174 -207 -174q-72 0 -176 25v100q100 -33 174 -32q104 0 104 73.5t-112 73.5q-27 0 -64 -6l49 153q-221 0 -463 91v131q297 -100 479.5 -100.5t295 65t112.5 176t-63.5 164t-167.5 80.5l-363 98
q-274 72 -274 326q0 178 149.5 264t386.5 86q166 0 406 -66v-129q-367 107 -601 59q-84 -18 -146 -72t-62 -142q0 -162 192 -213l347 -91q329 -88 329 -354z" />
    <glyph glyph-name="scedilla" unicode="&#x15f;" horiz-adv-x="1089" 
d="M987 273.5q0 -148.5 -106.5 -217t-305.5 -79.5l-20 -73q78 -2 122 -40t44 -102q0 -174 -207 -174q-72 0 -176 25v100q100 -33 174 -32q104 0 104 73.5t-112 73.5q-27 0 -64 -6l49 153q-152 2 -387 64v127q207 -78 396 -78q360 0 360 186q0 82 -46 124t-155 67l-303 72
q-106 25 -173.5 86t-67.5 149t27.5 141.5t68.5 83t123 53t248.5 23.5t365.5 -57v-123q-231 66 -393 65q-313 0 -313 -161q0 -51 35.5 -87t75.5 -50.5t106 -28.5l211 -47q156 -35 237.5 -98.5t81.5 -212z" />
    <glyph glyph-name="Scaron" unicode="&#x160;" horiz-adv-x="1234" 
d="M657 1356q166 0 406 -66v-129q-367 107 -601 59q-84 -18 -146 -72t-62 -142q0 -162 192 -213l347 -91q330 -88 329 -354q0 -186 -143 -279.5t-389 -93.5t-488 91v131q297 -100 479.5 -100.5t295 65t112.5 176t-63.5 164t-167.5 80.5l-363 98q-274 72 -274 326
q0 178 149 264t387 86zM694 1468h-151l-205 297h106l174 -204l175 204h106z" />
    <glyph glyph-name="scaron" unicode="&#x161;" horiz-adv-x="1089" 
d="M240 797q0 -51 35.5 -87t75.5 -50.5t106 -28.5l211 -47q156 -35 237.5 -98.5t81.5 -204.5q0 -170 -128 -238t-363 -68q-143 0 -394 64v127q207 -78 396 -78q360 0 360 186q0 82 -46 124t-155 67l-303 72q-106 25 -173.5 86t-67.5 149t27.5 141.5t68.5 83t123 53
t248.5 23.5t365.5 -57v-123q-231 66 -393 65q-313 0 -313 -161zM608 1210h-151l-205 297h106l174 -204l175 204h106z" />
    <glyph glyph-name="Tcedilla" unicode="&#x162;" horiz-adv-x="1247" 
d="M563 -410h-94l82 297h131zM1217 1212h-529v-1212h-129v1212h-528v119h1186v-119z" />
    <glyph glyph-name="tcedilla" unicode="&#x163;" horiz-adv-x="768" 
d="M436 -410h-94l82 297h131zM692 1051v-111h-364v-651q0 -111 46 -154t134 -43t188 27v-117q-102 -25 -174 -25q-317 0 -317 302v661h-205v111h205l20 268h103v-268h364z" />
    <glyph glyph-name="Tcaron" unicode="&#x164;" horiz-adv-x="1247" 
d="M1217 1212h-529v-1212h-129v1212h-528v119h1186v-119zM700 1468h-151l-205 297h107l174 -204l174 204h106z" />
    <glyph glyph-name="tcaron" unicode="&#x165;" horiz-adv-x="768" 
d="M692 1051v-111h-364v-651q0 -111 46 -154t134 -43t188 27v-117q-102 -25 -174 -25q-317 0 -317 302v661h-205v111h205l20 268h103v-268h364zM715 1159h-99l82 297h136z" />
    <glyph glyph-name="Tbar" unicode="&#x166;" horiz-adv-x="1247" 
d="M688 1212v-467h303v-118h-303v-627h-129v627h-303v118h303v467h-528v119h1186v-119h-529z" />
    <glyph glyph-name="tbar" unicode="&#x167;" horiz-adv-x="768" 
d="M508 92q88 0 188 27v-117q-102 -25 -174 -25q-317 0 -317 302v354h-205v110h205v197h-205v111h205l20 268h103v-268h364v-111h-364v-197h364v-110h-364v-344q0 -111 46 -154t134 -43z" />
    <glyph glyph-name="Utilde" unicode="&#x168;" horiz-adv-x="1443" 
d="M1280 1331v-753q0 -602 -559 -603q-557 0 -557 603v753h129v-756q0 -477 429 -477t429 477v756h129zM831 1530q-33 0 -108.5 22.5t-104.5 22.5q-61 0 -73 -59h-105q35 166 183 165q29 0 103.5 -22.5t104.5 -22.5q64 1 74 60h105q-35 -166 -179 -166z" />
    <glyph glyph-name="utilde" unicode="&#x169;" horiz-adv-x="1275" 
d="M1112 1051v-1051h-92l-27 121q-229 -145 -428 -145.5t-300 89t-101 312.5v674h123v-641q0 -80 10 -131.5t41 -98.5q59 -90 254.5 -90t396.5 156v805h123zM532 1329q-61 0 -73 -59h-105q35 166 183 166q29 0 103.5 -22.5t104.5 -22.5q63 0 74 59h105q-35 -166 -179 -166
q-33 0 -108.5 22.5t-104.5 22.5z" />
    <glyph glyph-name="Umacron" unicode="&#x16a;" horiz-adv-x="1443" 
d="M1280 1331v-753q0 -602 -559 -603q-557 0 -557 603v753h129v-756q0 -477 429 -477t429 477v756h129zM973 1487h-502v115h502v-115z" />
    <glyph glyph-name="umacron" unicode="&#x16b;" horiz-adv-x="1275" 
d="M1112 1051v-1051h-92l-27 121q-229 -145 -428 -145.5t-300 89t-101 312.5v674h123v-641q0 -80 10 -131.5t41 -98.5q59 -90 254.5 -90t396.5 156v805h123zM889 1286h-502v115h502v-115z" />
    <glyph glyph-name="Ubreve" unicode="&#x16c;" horiz-adv-x="1443" 
d="M1280 1331v-753q0 -602 -559 -603q-557 0 -557 603v753h129v-756q0 -477 429 -477t429 477v756h129zM721 1501q-223 0 -260 217h110q10 -63 45 -93t105 -30t104.5 30t44.5 93h111q-37 -217 -260 -217z" />
    <glyph glyph-name="ubreve" unicode="&#x16d;" horiz-adv-x="1275" 
d="M1112 1051v-1051h-92l-27 121q-229 -145 -428 -145.5t-300 89t-101 312.5v674h123v-641q0 -80 10 -131.5t41 -98.5q59 -90 254.5 -90t396.5 156v805h123zM639 1217q-223 0 -260 217h110q10 -63 45 -93t105 -30t104.5 29.5t44.5 93.5h111q-37 -217 -260 -217z" />
    <glyph glyph-name="Uring" unicode="&#x16e;" horiz-adv-x="1443" 
d="M1280 1331v-753q0 -602 -559 -603q-557 0 -557 603v753h129v-756q0 -477 429 -477t429 477v756h129zM727 1712q-47 0 -81 -21.5t-34 -66.5t34 -66.5t81 -21.5t81 21.5t34 66.5t-34 66.5t-81 21.5zM727 1456q-94 0 -146.5 46t-52.5 122t52.5 122t146.5 46t146.5 -46
t52.5 -122t-52.5 -122t-146.5 -46z" />
    <glyph glyph-name="uring" unicode="&#x16f;" horiz-adv-x="1275" 
d="M1112 1051v-1051h-92l-27 121q-229 -145 -428 -145.5t-300 89t-101 312.5v674h123v-641q0 -80 10 -131.5t41 -98.5q59 -90 254.5 -90t396.5 156v805h123zM637 1415q-47 0 -81 -21.5t-34 -66.5t34 -66.5t81 -21.5t81 21.5t34 66.5t-34 66.5t-81 21.5zM637 1159
q-94 0 -146.5 46t-52.5 122t52.5 122t146.5 46t146.5 -46t52.5 -122t-52.5 -122t-146.5 -46z" />
    <glyph glyph-name="Uhungarumlaut" unicode="&#x170;" horiz-adv-x="1443" 
d="M1280 1331v-753q0 -602 -559 -603q-557 0 -557 603v753h129v-756q0 -477 429 -477t429 477v756h129zM944 1464h-104l151 297h160zM643 1464h-104l151 297h160z" />
    <glyph glyph-name="uhungarumlaut" unicode="&#x171;" horiz-adv-x="1275" 
d="M1112 1051v-1051h-92l-27 121q-229 -145 -428 -145.5t-300 89t-101 312.5v674h123v-641q0 -80 10 -131.5t41 -98.5q59 -90 254.5 -90t396.5 156v805h123zM760 1210l151 297h160l-207 -297h-104zM563 1210h-104l151 297h160z" />
    <glyph glyph-name="Uogonek" unicode="&#x172;" horiz-adv-x="1443" 
d="M1280 1331v-753q0 -471 -344 -574q-231 -96 -231 -207q1 -63 81 -63t146 45l2 -115q-78 -37 -162 -37t-133 43t-49 115q0 111 139 190h-8q-557 0 -557 603v753h129v-756q0 -477 429 -477t429 477v756h129z" />
    <glyph glyph-name="uogonek" unicode="&#x173;" horiz-adv-x="1275" 
d="M996 -373q-85 0 -134 43t-49 118t68.5 136.5t138.5 79.5l-27 117q-229 -145 -428 -145.5t-300 89t-101 312.5v674h123v-641q0 -80 10 -131.5t41 -98.5q59 -90 254.5 -90t396.5 156v805h123v-1051q-100 -55 -142 -102.5t-42 -100.5q0 -63 80.5 -63t146.5 45l2 -115
q-76 -37 -161 -37z" />
    <glyph glyph-name="Wcircumflex" unicode="&#x174;" horiz-adv-x="1779" 
d="M1614 1331h131q-170 -821 -354 -1331h-154q-211 492 -348 887q-199 -537 -350 -887h-152q-201 557 -352 1331h131q156 -762 301 -1188q106 233 371 957h100q236 -670 373 -957q125 352 303 1188zM1169 1468h-106l-174 205l-174 -205h-107l205 297h152z" />
    <glyph glyph-name="wcircumflex" unicode="&#x175;" horiz-adv-x="1705" 
d="M1573 1051h133q-137 -522 -403 -1051h-115q-227 502 -332 879q-111 -375 -348 -879h-117q-119 244 -232 551t-159 500h131q141 -535 315 -906q74 152 182 430t167 474h131q32 -132 146 -441t183 -463q164 318 318 906zM862 1415l-174 -205h-106l204 297h152l205 -297
h-107z" />
    <glyph glyph-name="Ycircumflex" unicode="&#x176;" horiz-adv-x="1200" 
d="M666 0h-129v451q-63 82 -230.5 350t-306.5 530h154q176 -356 446 -770q240 354 447 770h153q-137 -258 -305 -530.5t-229 -349.5v-451zM881 1468h-107l-174 205l-174 -205h-107l205 297h152z" />
    <glyph glyph-name="ycircumflex" unicode="&#x177;" horiz-adv-x="1054" 
d="M932 1051h133q-283 -610 -430.5 -899t-306.5 -562h-131q150 256 243 435q-250 504 -450 1026h131q238 -608 385 -904q160 312 426 904zM356 1210h-106l205 297h151l205 -297h-106l-175 205z" />
    <glyph glyph-name="Ydieresis" unicode="&#x178;" horiz-adv-x="1200" 
d="M666 0h-129v451q-63 82 -230.5 350t-306.5 530h154q176 -356 446 -770q240 354 447 770h153q-137 -258 -305 -530.5t-229 -349.5v-451zM856 1464h-156v140h156v-140zM500 1464h-156v140h156v-140z" />
    <glyph glyph-name="Zacute" unicode="&#x179;" horiz-adv-x="1224" 
d="M1126 117v-117h-1034v92l869 1120h-869v119h1041v-92l-867 -1122h860zM655 1473h-104l151 296h160z" />
    <glyph glyph-name="zacute" unicode="&#x17a;" horiz-adv-x="1034" 
d="M952 111v-111h-870v135l727 805h-703v111h836v-136l-727 -804h737zM590 1210h-105l152 297h160z" />
    <glyph glyph-name="Zdotaccent" unicode="&#x17b;" horiz-adv-x="1224" 
d="M1126 117v-117h-1034v92l869 1120h-869v119h1041v-92l-867 -1122h860zM690 1464h-155v140h155v-140z" />
    <glyph glyph-name="zdotaccent" unicode="&#x17c;" horiz-adv-x="1034" 
d="M952 111v-111h-870v135l727 805h-703v111h836v-136l-727 -804h737zM614 1221h-151v135h151v-135z" />
    <glyph glyph-name="Zcaron" unicode="&#x17d;" horiz-adv-x="1224" 
d="M1126 117v-117h-1034v92l869 1120h-869v119h1041v-92l-867 -1122h860zM688 1468h-151l-205 297h106l174 -204l174 204h107z" />
    <glyph glyph-name="zcaron" unicode="&#x17e;" horiz-adv-x="1034" 
d="M952 111v-111h-870v135l727 805h-703v111h836v-136l-727 -804h737zM614 1210h-151l-205 297h107l174 -204l174 204h106z" />
    <glyph glyph-name="longs" unicode="&#x17f;" horiz-adv-x="643" 
d="M522 1481q72 0 174 -25v-117q-100 27 -188 27t-134 -42t-46 -153v-1171h-123v940h-205v111h205v129q0 301 317 301z" />
    <glyph glyph-name="Schwa" unicode="&#x18f;" horiz-adv-x="1589" 
d="M792 104q244 0 388 132t161 368h-1093q4 -258 152 -379t392 -121zM782 1356q328 0 513 -188t185 -503q0 -317 -182 -503q-184 -186 -510 -186t-503 174q-176 174 -176 518v55h1232q-16 250 -165 380q-150 130 -402 130t-498 -88v133q268 78 506 78z" />
    <glyph glyph-name="florin" unicode="&#x192;" horiz-adv-x="974" 
d="M729 1241q-92 0 -140 -42t-63 -152l-18 -121h364l-14 -111h-364l-107 -780q-25 -172 -114 -237t-230 -64q-88 0 -186 24l16 117q96 -27 188 -27t141 42q48 42 62 153l107 772h-205l14 111h205l18 129q25 173 115 237t230 64q88 0 186 -25l-16 -117q-97 27 -189 27z" />
    <glyph glyph-name="Aringacute" unicode="&#x1fa;" horiz-adv-x="1318" 
d="M322 508h667q-227 551 -332 715q-138 -221 -335 -715zM1319 0h-137q-70 199 -146 389h-762q-113 -301 -143 -389h-131q156 479 332 851t254 480h151q121 -178 297 -587.5t285 -743.5zM665.5 1712q-47.5 0 -81 -21.5t-33.5 -66.5t33.5 -66.5t81 -21.5t81 21.5t33.5 66.5
t-33.5 66.5t-81 21.5zM665.5 1456q-94.5 0 -146.5 46t-52 122t52 122t146.5 46t146.5 -46t52 -122t-52 -122t-146.5 -46zM717 1866h-105l152 297h160z" />
    <glyph glyph-name="aringacute" unicode="&#x1fb;" horiz-adv-x="1247" 
d="M246 326q0 -138 96 -187t211 -49q195 0 410 148l-2 204q-172 102 -383 103q-139 0 -235.5 -54.5t-96.5 -164.5zM614 1073q244 0 356.5 -104.5t112.5 -358.5v-610h-100l-20 113q-188 -137 -399.5 -137.5t-328 88t-116.5 251t121.5 253.5t335 91t385.5 -96v80
q0 176 -88.5 245.5t-276 69.5t-412.5 -90v123q135 45 224 63.5t206 18.5zM622.5 1415q-47.5 0 -81 -21.5t-33.5 -66.5t33.5 -66.5t81 -21.5t81 21.5t33.5 66.5t-33.5 66.5t-81 21.5zM622.5 1159q-94.5 0 -146.5 46t-52 122t52 122t146.5 46t146.5 -46t52 -122t-52 -122
t-146.5 -46zM680 1569h-105l152 297h160z" />
    <glyph glyph-name="AEacute" unicode="&#x1fc;" horiz-adv-x="1890" 
d="M930 508v706q-223 -299 -488 -706h488zM1059 1212v-467h637v-118h-637v-508h698v-119h-827v389h-563q-100 -158 -238 -389h-149q545 899 901 1331h876v-119h-698zM1399 1473h-105l152 296h160z" />
    <glyph glyph-name="aeacute" unicode="&#x1fd;" horiz-adv-x="2068" 
d="M578 557q-139 0 -235.5 -56.5t-96.5 -179t91 -177t217 -54.5t230.5 44t221.5 134q-35 80 -43 187q-172 102 -385 102zM1506 956q-163 0 -283.5 -86t-137.5 -282h756q0 172 -86 270t-249 98zM1501 1073q229 0 346 -132t117 -374v-86h-881q2 -89 34 -161
q57 -126 176.5 -178t234.5 -52q184 0 420 90v-123q-213 -82 -435 -82q-317 0 -462 207q-100 -96 -231.5 -151.5t-264.5 -55.5q-203 0 -319.5 89.5t-116.5 255.5t121.5 259t334 93t388.5 -97l-2 68q-2 176 -89.5 245.5t-275 69.5t-412.5 -90v123q135 45 224.5 63.5
t205.5 18.5q344 0 433 -229q72 111 191.5 170t262.5 59zM1171 1210h-104l152 297h159z" />
    <glyph glyph-name="Oslashacute" unicode="&#x1fe;" horiz-adv-x="1630" 
d="M825 104q250 0 404.5 149.5t154.5 411t-135 406.5l-751 -887q134 -80 327 -80zM246 677.5q0 -269.5 151 -417.5l756 891q-133 82 -330 82q-264 0 -420.5 -143t-156.5 -412.5zM825 -25q-244 0 -415 107l-101 -119l-94 80l96 113q-203 186 -202.5 506.5t193 507
t521.5 186.5q240 0 412 -107l86 101l94 -80l-82 -99q188 -184 188.5 -502t-192 -506t-504.5 -188zM860 1473h-104l151 296h160z" />
    <glyph glyph-name="oslashacute" unicode="&#x1ff;" horiz-adv-x="1302" 
d="M662 90q209 0 310 120t101 311t-94 304l-565 -673q101 -62 248 -62zM229 532.5q0 -192.5 99 -309.5l567 676q-100 59 -242 59q-186 0 -305 -116.5t-119 -309zM1200 514.5q0 -260.5 -148.5 -400t-394.5 -139.5q-184 0 -321 84l-78 -92l-86 72l76 90q-145 145 -145.5 400
t157.5 399.5t397 144.5q182 0 314 -82l73 86l86 -71l-71 -86q141 -145 141 -405.5zM709 1210h-105l152 297h159z" />
    <glyph glyph-name="Scommaaccent" unicode="&#x218;" horiz-adv-x="1234" 
d="M608 -410h-94l82 297h131zM657 1356q166 0 406 -66v-129q-367 107 -601 59q-84 -18 -146 -72t-62 -142q0 -162 192 -213l347 -91q330 -88 329 -354q0 -186 -143 -279.5t-389 -93.5t-488 91v131q297 -100 479.5 -100.5t295 65t112.5 176t-63.5 164t-167.5 80.5l-363 98
q-274 72 -274 326q0 178 149 264t387 86z" />
    <glyph glyph-name="scommaaccent" unicode="&#x219;" horiz-adv-x="1089" 
d="M532 -410h-94l82 297h131zM240 797q0 -51 35.5 -87t75.5 -50.5t106 -28.5l211 -47q156 -35 237.5 -98.5t81.5 -204.5q0 -170 -128 -238t-363 -68q-143 0 -394 64v127q207 -78 396 -78q360 0 360 186q0 82 -46 124t-155 67l-303 72q-106 25 -173.5 86t-67.5 149
t27.5 141.5t68.5 83t123 53t248.5 23.5t365.5 -57v-123q-231 66 -393 65q-313 0 -313 -161z" />
    <glyph glyph-name="uni021A" unicode="&#x21a;" horiz-adv-x="1247" 
d="M563 -410h-94l82 297h131zM1217 1212h-529v-1212h-129v1212h-528v119h1186v-119z" />
    <glyph glyph-name="uni021B" unicode="&#x21b;" horiz-adv-x="768" 
d="M436 -410h-94l82 297h131zM692 1051v-111h-364v-651q0 -111 46 -154t134 -43t188 27v-117q-102 -25 -174 -25q-317 0 -317 302v661h-205v111h205l20 268h103v-268h364z" />
    <glyph glyph-name="dotlessj" unicode="&#x237;" horiz-adv-x="452" 
d="M289 1051v-1071q0 -205 -65.5 -309.5t-243.5 -104.5q-117 0 -226 35v118q119 -39 228 -38q184 0 184 286v1084h123z" />
    <glyph glyph-name="schwa" unicode="&#x259;" horiz-adv-x="1208" 
d="M578 92q141 0 261 81q62 42 101 123t43 193h-758q1 -397 353 -397zM588 1073q248 0 383 -136t135 -404q0 -269 -152 -413t-376 -145q-475 0 -476 535v86h881q-5 174 -109 268t-310 94t-445 -90v123q221 82 469 82z" />
    <glyph glyph-name="uni02BC" unicode="&#x2bc;" horiz-adv-x="335" 
d="M156 1118h-95l82 297h131z" />
    <glyph glyph-name="circumflex" unicode="&#x2c6;" horiz-adv-x="684" 
d="M342 1415l-174 -205h-107l205 297h152l205 -297h-107z" />
    <glyph glyph-name="caron" unicode="&#x2c7;" horiz-adv-x="684" 
d="M418 1210h-152l-205 297h107l174 -204l174 204h107z" />
    <glyph glyph-name="firsttonechinese" unicode="&#x2c9;" horiz-adv-x="624" 
d="M563 1286h-502v115h502v-115z" />
    <glyph glyph-name="breve" unicode="&#x2d8;" horiz-adv-x="643" 
d="M322 1217q-223 0 -261 217h111q10 -64 45 -94t105 -30t104 31q34 30 45 93h111q-37 -217 -260 -217z" />
    <glyph glyph-name="dotaccent" unicode="&#x2d9;" horiz-adv-x="274" 
d="M213 1221h-152v135h152v-135z" />
    <glyph glyph-name="ring" unicode="&#x2da;" horiz-adv-x="520" 
d="M260 1415q-47 0 -81 -21.5t-34 -66.5t34 -66.5t81 -21.5t81 21.5t34 66.5t-34 66.5t-81 21.5zM260 1159q-94 0 -146.5 46t-52.5 122t52.5 122t146.5 46t146.5 -46t52.5 -122t-52.5 -122t-146.5 -46z" />
    <glyph glyph-name="ogonek" unicode="&#x2db;" horiz-adv-x="468" 
d="M257 -266q81 0 146 45l3 -115q-78 -37 -162 -37t-133 43t-49 118q0 74 68 136t138 80h140q-231 -96 -232 -207q0 -63 81 -63z" />
    <glyph glyph-name="tilde" unicode="&#x2dc;" horiz-adv-x="692" 
d="M453 1284q-33 0 -109 23t-104 22q-61 0 -74 -59h-105q33 166 183 166q30 0 104 -23t105 -22q63 0 73 59h105q-33 -166 -178 -166z" />
    <glyph glyph-name="hungarumlaut" unicode="&#x2dd;" horiz-adv-x="735" 
d="M467 1210h-105l152 297h160zM166 1210h-105l152 297h160z" />
    <glyph glyph-name="uni0312" unicode="&#x312;" horiz-adv-x="0" 
d="M180 1513h94l-81 -296h-132z" />
    <glyph glyph-name="uni0326" unicode="&#x326;" horiz-adv-x="0" 
d="M156 -410h-95l82 297h131z" />
    <glyph glyph-name="uni0374" unicode="&#x374;" horiz-adv-x="348" 
d="M61 1110l62 397h164l-135 -397h-91z" />
    <glyph glyph-name="uni0375" unicode="&#x375;" horiz-adv-x="348" 
d="M287 102l-62 -397h-164l136 397h90z" />
    <glyph glyph-name="uni037E" unicode="&#x37e;" horiz-adv-x="446" 
d="M12 -283l115 420h145l-151 -420h-109zM147 770v137h146v-137h-146z" />
    <glyph glyph-name="tonos" unicode="&#x384;" horiz-adv-x="389" 
d="M61 1212l103 295h164l-176 -295h-91z" />
    <glyph glyph-name="dieresistonos" unicode="&#x385;" horiz-adv-x="835" 
d="M623 1221v135h151v-135h-151zM61 1221v135h152v-135h-152zM342 1212l41 295h164l-115 -295h-90z" />
    <glyph glyph-name="Alphatonos" unicode="&#x386;" horiz-adv-x="1318" 
d="M322 508h667q-227 551 -332 715q-138 -221 -335 -715zM61 1036l103 295h164l-176 -295h-91zM1319 0h-137q-70 199 -146 389h-762q-113 -301 -143 -389h-131q156 479 332 851t254 480h151q120 -176 296 -586q177 -411 286 -745z" />
    <glyph glyph-name="anoteleia" unicode="&#x387;" horiz-adv-x="370" 
d="M113 913v138h145v-138h-145z" />
    <glyph glyph-name="Epsilontonos" unicode="&#x388;" horiz-adv-x="1216" 
d="M303 1212v-467h719v-118h-719v-508h780v-119h-909v1331h909v-119h-780zM-266 1036l102 295h164l-176 -295h-90z" />
    <glyph glyph-name="Etatonos" unicode="&#x389;" horiz-adv-x="1474" 
d="M1171 0v604h-868v-604h-129v1331h129v-608h868v608h129v-1331h-129zM-266 1036l102 295h164l-176 -295h-90z" />
    <glyph glyph-name="Iotatonos" unicode="&#x38a;" horiz-adv-x="477" 
d="M174 0v1331h129v-1331h-129zM-266 1036l102 295h164l-176 -295h-90z" />
    <glyph glyph-name="Omicrontonos" unicode="&#x38c;" horiz-adv-x="1630" 
d="M819 1233q-260 0 -417 -143q-156 -142 -156 -414t158 -422t415 -150q256 0 411 150q154 150 154 419t-152 415t-413 145zM-133 1036l102 295h164l-176 -295h-90zM822 1356q329 0 514 -188q186 -188 186 -502t-193 -502t-513 -188t-514 188t-194 504t193 502
q192 186 521 186z" />
    <glyph glyph-name="Upsilontonos" unicode="&#x38e;" horiz-adv-x="1200" 
d="M666 0h-129v451q-63 82 -231 350q-167 268 -306 530h154q176 -356 446 -770q240 354 447 770h153q-137 -258 -305 -530t-229 -350v-451zM-348 1036l102 295h164l-176 -295h-90z" />
    <glyph glyph-name="Omegatonos" unicode="&#x38f;" horiz-adv-x="1566" 
d="M-172 1036l102 295h164l-176 -295h-90zM1481 674q0 -186 -83 -334t-206 -221h303v-119h-506v125q126 65 229 173q127 138 126 392t-152 399q-152 144 -408 144t-408 -144t-153 -396q0 -252 121 -389q97 -110 234 -179v-125h-506v119h303q-115 68 -202 212t-87 343
q0 309 185 495q185 187 513 187t512 -186t185 -496z" />
    <glyph glyph-name="iotadieresistonos" unicode="&#x390;" horiz-adv-x="706" 
d="M287 1051v-762q0 -111 46 -154t134 -43t188 27v-117q-102 -25 -174 -25q-317 0 -317 302v772h123zM473 1221v135h152v-135h-152zM-88 1221v135h151v-135h-151zM193 1212l40 295h164l-114 -295h-90z" />
    <glyph glyph-name="Alpha" unicode="&#x391;" horiz-adv-x="1318" 
d="M322 508h667q-227 551 -332 715q-138 -221 -335 -715zM1319 0h-137q-70 199 -146 389h-762q-113 -301 -143 -389h-131q156 479 332 851t254 480h151q120 -176 296 -586q177 -411 286 -745z" />
    <glyph glyph-name="Beta" unicode="&#x392;" horiz-adv-x="1361" 
d="M303 119h322q256 0 361 48t106 204q0 125 -106 191t-296 65h-387v-508zM303 741h402q145 0 242 69t97 183t-71 167q-71 52 -373 52h-297v-471zM174 1331h475q261 0 397 -73t136 -259q0 -111 -71 -191t-177 -114v-2q117 -24 206 -112t89 -213q0 -209 -140 -288t-415 -79
h-500v1331z" />
    <glyph glyph-name="Gamma" unicode="&#x393;" horiz-adv-x="1165" 
d="M303 0h-129v1331h868v-119h-739v-1212z" />
    <glyph glyph-name="Delta" unicode="&#x394;" horiz-adv-x="1318" 
d="M174 119h965q-131 360 -276 686q-144 326 -206 418q-192 -305 -483 -1104zM1288 0h-1257v92q152 451 316 795q165 344 239 444h151q72 -104 236 -450t315 -787v-94z" />
    <glyph glyph-name="Epsilon" unicode="&#x395;" horiz-adv-x="1216" 
d="M303 1212v-467h719v-118h-719v-508h780v-119h-909v1331h909v-119h-780z" />
    <glyph glyph-name="Zeta" unicode="&#x396;" horiz-adv-x="1224" 
d="M1126 117v-117h-1034v92l869 1120h-869v119h1041v-92l-867 -1122h860z" />
    <glyph glyph-name="Eta" unicode="&#x397;" horiz-adv-x="1474" 
d="M1171 0v604h-868v-604h-129v1331h129v-608h868v608h129v-1331h-129z" />
    <glyph glyph-name="Theta" unicode="&#x398;" horiz-adv-x="1630" 
d="M451 731h729v-119h-729v119zM819 1233q-260 0 -417 -143q-156 -142 -156 -414t158 -422t415 -150q256 0 411 150q154 150 154 419t-152 415t-413 145zM822 1356q329 0 514 -188q186 -188 186 -502t-193 -502t-513 -188t-514 188t-194 504t193 502q192 186 521 186z" />
    <glyph glyph-name="Iota" unicode="&#x399;" horiz-adv-x="477" 
d="M174 0v1331h129v-1331h-129z" />
    <glyph glyph-name="Kappa" unicode="&#x39a;" horiz-adv-x="1249" 
d="M1030 1331h197q-395 -326 -692 -663q410 -352 714 -668h-190q-317 330 -697 653q316 373 668 678zM174 0v1331h129v-1331h-129z" />
    <glyph glyph-name="Lambda" unicode="&#x39b;" horiz-adv-x="1318" 
d="M657 1223q-193 -307 -505 -1223h-132q158 483 327 859t239 472h151q70 -102 237 -476t324 -855h-137q-106 303 -272 716t-232 507z" />
    <glyph glyph-name="Mu" unicode="&#x39c;" horiz-adv-x="1728" 
d="M1264 1331h157q45 -164 70 -269t76 -393t100 -669h-127q-125 924 -213 1182q-207 -498 -414 -1045h-98q-199 535 -418 1041q-90 -319 -211 -1178h-125q119 852 248 1331h158q207 -469 397 -975q218 565 400 975z" />
    <glyph glyph-name="Nu" unicode="&#x39d;" horiz-adv-x="1488" 
d="M299 0h-125v1331h174l842 -1108v1108h125v-1331h-111l-905 1194v-1194z" />
    <glyph glyph-name="Xi" unicode="&#x39e;" horiz-adv-x="1351" 
d="M133 127h1086v-127h-1086v127zM195 750h962v-127h-962v127zM133 1331h1086v-127h-1086v127z" />
    <glyph glyph-name="Omicron" unicode="&#x39f;" horiz-adv-x="1630" 
d="M819 1233q-260 0 -417 -143q-156 -142 -156 -414t158 -422t415 -150q256 0 411 150q154 150 154 419t-152 415t-413 145zM822 1356q329 0 514 -188q186 -188 186 -502t-193 -502t-513 -188t-514 188t-194 504t193 502q192 186 521 186z" />
    <glyph glyph-name="Pi" unicode="&#x3a0;" horiz-adv-x="1433" 
d="M1130 0v1212h-827v-1212h-129v1331h1086v-1331h-130z" />
    <glyph glyph-name="Rho" unicode="&#x3a1;" horiz-adv-x="1263" 
d="M303 575h375q158 0 263 73t105 244t-102 246q-104 75 -266 74h-375v-637zM174 1331h531q124 0 213 -39q90 -39 142 -85t88 -127t36 -186t-36 -187t-88 -127t-142 -84t-213 -39h-402v-457h-129v1331z" />
    <glyph glyph-name="Sigma" unicode="&#x3a3;" horiz-adv-x="1218" 
d="M1137 117v-117h-1065v92l557 600v2l-537 545v92h1024v-119h-831l487 -493v-23l-536 -579h901z" />
    <glyph glyph-name="Tau" unicode="&#x3a4;" horiz-adv-x="1247" 
d="M688 1212v-1212h-129v1212h-528v119h1186v-119h-529z" />
    <glyph glyph-name="Upsilon" unicode="&#x3a5;" horiz-adv-x="1200" 
d="M666 0h-129v451q-63 82 -231 350q-167 268 -306 530h154q176 -356 446 -770q240 354 447 770h153q-137 -258 -305 -530t-229 -350v-451z" />
    <glyph glyph-name="Phi" unicode="&#x3a6;" horiz-adv-x="1730" 
d="M930 1210v-1089q295 0 435 146q140 147 140 403t-143 398t-432 142zM801 121v1089q-281 0 -428 -138t-147 -399t140 -407q142 -146 435 -145zM801 -106v104q-356 4 -535 188q-178 184 -178 498t197 480t516 169v103h129v-103q358 -6 535 -187t177 -480q0 -298 -181 -482
t-531 -186v-104h-129z" />
    <glyph glyph-name="Chi" unicode="&#x3a7;" horiz-adv-x="1208" 
d="M1229 0h-170l-459 592l-448 -592h-172l534 676l-530 655h166l446 -569l461 569h160l-519 -655z" />
    <glyph glyph-name="Psi" unicode="&#x3a8;" horiz-adv-x="1689" 
d="M780 297h-39q-315 0 -446 126t-131 374v534h129v-536q-1 -219 107 -297t341 -78h39v911h129v-911h47q225 0 333 80t108 295v536h129v-534q0 -246 -132 -373t-440 -127h-45v-297h-129v297z" />
    <glyph glyph-name="Omega" unicode="&#x3a9;" horiz-adv-x="1566" 
d="M1481 674q0 -186 -83 -334t-206 -221h303v-119h-506v125q126 65 229 173q127 138 126 392t-152 399q-152 144 -408 144t-408 -144t-153 -396q0 -252 121 -389q97 -110 234 -179v-125h-506v119h303q-115 68 -202 212t-87 343q0 309 185 495q185 187 513 187t512 -186
t185 -496z" />
    <glyph glyph-name="Iotadieresis" unicode="&#x3aa;" horiz-adv-x="477" 
d="M303 0h-129v1331h129v-1331zM496 1464h-156v140h156v-140zM139 1464h-155v140h155v-140z" />
    <glyph glyph-name="Upsilondieresis" unicode="&#x3ab;" horiz-adv-x="1200" 
d="M666 0h-129v451q-63 82 -230.5 350t-306.5 530h154q176 -356 446 -770q240 354 447 770h153q-137 -258 -305 -530.5t-229 -349.5v-451zM856 1464h-156v140h156v-140zM500 1464h-156v140h156v-140z" />
    <glyph glyph-name="alphatonos" unicode="&#x3ac;" horiz-adv-x="1310" 
d="M229 533q0 -203 119 -323t315 -120t361 133v615q-144 120 -348 120t-326 -111q-121 -112 -121 -314zM1147 0h-123v88q-164 -113 -362 -113q-240 1 -400 143t-160 408t161 406t384 141q223 0 379 -102l31 80h90v-1051zM625 1212l102 295h164l-176 -295h-90z" />
    <glyph glyph-name="epsilontonos" unicode="&#x3ad;" horiz-adv-x="1091" 
d="M584 -25q-481 0 -482 318q0 100 58 167t168 81v4q-193 49 -193 219q0 141 124 225q123 84 347 84t373 -55v-117q-63 19 -95 29q-93 28 -272 28q-180 0 -265 -46t-85 -148q0 -162 299 -162h221v-110h-235q-178 0 -248 -50t-70 -149t82 -151q83 -52 283 -52t395 72v-117
q-168 -70 -405 -70zM537 1212l102 295h164l-176 -295h-90z" />
    <glyph glyph-name="etatonos" unicode="&#x3ae;" horiz-adv-x="1275" 
d="M705 1073q205 0 306 -88t101 -311v-1084h-123v1051q0 164 -60 241q-60 76 -253 76t-389 -153v-805h-123v1051h88l31 -123q61 40 102 64t133 52t187 29zM575 1212l103 295h164l-176 -295h-91z" />
    <glyph glyph-name="iotatonos" unicode="&#x3af;" horiz-adv-x="706" 
d="M287 1051v-762q0 -111 46 -154t134 -43t188 27v-117q-102 -25 -174 -25q-317 0 -317 302v772h123zM188 1212l103 295h164l-176 -295h-91z" />
    <glyph glyph-name="upsilondieresistonos" unicode="&#x3b0;" horiz-adv-x="1269" 
d="M630 -25q-255 0 -361 110q-105 110 -105 314v652h123v-633q0 -172 78 -250t282 -78q115 0 198 47t123 124q72 139 72 310q0 285 -127 480h144q111 -190 111 -474t-142 -443q-141 -159 -396 -159zM840 1221v135h151v-135h-151zM279 1221v135h151v-135h-151zM559 1212
l41 295h164l-115 -295h-90z" />
    <glyph glyph-name="alpha" unicode="&#x3b1;" horiz-adv-x="1310" 
d="M229 533q0 -203 119 -323t315 -120t361 133v615q-144 120 -348 120t-326 -111q-121 -112 -121 -314zM1147 0h-123v88q-164 -113 -362 -113q-240 1 -400 143t-160 408t161 406t384 141q223 0 379 -102l31 80h90v-1051z" />
    <glyph glyph-name="beta" unicode="&#x3b2;" horiz-adv-x="1292" 
d="M618 1366q-166 0 -248 -94t-83 -299v-752q160 -131 397 -131q377 0 377 338q0 293 -371 293h-215v115h213q131 0 194 78q62 79 62 196q0 256 -326 256zM164 -410v1422q0 242 121 356t339 113t334 -95t115 -268q0 -236 -166 -321q283 -76 283 -369q0 -238 -137 -346
t-361 -107q-224 0 -405 111v-496h-123z" />
    <glyph glyph-name="gamma" unicode="&#x3b3;" horiz-adv-x="1087" 
d="M442 -410v297q0 99 -128 439t-304 725h144q70 -156 190 -463t174 -496h4q143 180 247 436q103 256 112 523h125q-12 -539 -441 -1094v-367h-123z" />
    <glyph glyph-name="delta" unicode="&#x3b4;" horiz-adv-x="1302" 
d="M229 502q1 -184 111 -298q110 -116 313 -116t312 121t108 285q0 293 -401 444q-190 -25 -317 -138q-126 -114 -126 -298zM1200 500q0 -231 -156 -378t-400 -147q-245 -1 -393 137q-149 138 -149 356t113 352t322 177q-111 49 -158 105t-47 148q0 91 94 161t294 70
t355 -66v-117q-178 68 -366 68q-250 0 -250 -129q0 -49 53 -89q52 -40 162 -88t172 -81q169 -89 262 -201q92 -111 92 -278z" />
    <glyph glyph-name="epsilon" unicode="&#x3b5;" horiz-adv-x="1091" 
d="M584 -25q-481 0 -482 318q0 100 58 167t168 81v4q-193 49 -193 219q0 141 124 225q123 84 347 84t373 -55v-117q-63 19 -95 29q-93 28 -272 28q-180 0 -265 -46t-85 -148q0 -162 299 -162h221v-110h-235q-178 0 -248 -50t-70 -149t82 -151q83 -52 283 -52t395 72v-117
q-168 -70 -405 -70z" />
    <glyph glyph-name="zeta" unicode="&#x3b6;" horiz-adv-x="1097" 
d="M903 -145q0 51 -31 81q-30 30 -66 36q-36 7 -99 12q-604 41 -605 559q0 287 188 481t455 274v2h-518v115h809v-94q-383 -106 -595 -303t-212 -463q0 -406 490 -444q167 -15 239 -65t72 -190t-86 -266h-129q88 158 88 265z" />
    <glyph glyph-name="eta" unicode="&#x3b7;" horiz-adv-x="1275" 
d="M705 1073q205 0 306 -88t101 -311v-1084h-123v1051q0 164 -60 241q-60 76 -253 76t-389 -153v-805h-123v1051h88l31 -123q61 40 102 64t133 52t187 29z" />
    <glyph glyph-name="theta" unicode="&#x3b8;" horiz-adv-x="1302" 
d="M229 692q1 -294 97 -448t320 -154t326 148t101 454h-844zM229 811h844q0 339 -134 456q-117 99 -288 99q-85 0 -151 -20t-132 -74q-140 -116 -139 -461zM651 -25q-301 0 -425 194t-124 595t166 576q132 141 383 141q322 0 442 -218q109 -197 107 -513q0 -446 -156 -623
q-60 -68 -160 -110t-233 -42z" />
    <glyph glyph-name="iota" unicode="&#x3b9;" horiz-adv-x="706" 
d="M287 1051v-762q0 -111 46 -154t134 -43t188 27v-117q-102 -25 -174 -25q-317 0 -317 302v772h123z" />
    <glyph glyph-name="kappa" unicode="&#x3ba;" horiz-adv-x="1120" 
d="M868 1051h195q-297 -223 -588 -500q260 -156 635 -551h-190q-280 279 -392 371t-221 168q250 272 561 512zM164 0v1051h123v-1051h-123z" />
    <glyph glyph-name="lambda" unicode="&#x3bb;" horiz-adv-x="1101" 
d="M229 1366q-82 0 -153 -27v117q82 25 155 25q152 0 231 -83q153 -161 409 -840q114 -300 190 -558h-131q-125 465 -320 887l-22 45q-113 -129 -234 -413t-172 -519h-131q51 236 188 551q136 315 300 489q-96 198 -162 262t-148 64z" />
    <glyph glyph-name="mu" unicode="&#x3bc;" horiz-adv-x="1275" 
d="M1112 1051v-1051h-88l-31 123q-215 -145 -413 -145t-293 81v-469h-123v1461h123v-641q0 -164 60 -241t253 -77t389 154v805h123z" />
    <glyph glyph-name="nu" unicode="&#x3bd;" horiz-adv-x="1036" 
d="M915 1051h132q-299 -719 -476 -1051h-114q-279 549 -467 1051h131q188 -494 395 -906q111 205 184 379q175 422 215 527z" />
    <glyph glyph-name="xi" unicode="&#x3be;" horiz-adv-x="1157" 
d="M1051 -143q0 -139 -86 -267h-129q88 158 88 251t-62 117q-42 16 -135 26q-352 27 -488 130q-137 103 -137 277q0 175 98 271t228 118v2q-262 59 -262 310q0 190 134 289t356 99t399 -67v-117q-188 70 -369 70q-395 0 -395 -270q0 -144 122 -196t355 -52h190v-115h-241
q-487 0 -488 -309q0 -144 118 -216t394 -97q164 -15 237 -65t73 -189z" />
    <glyph glyph-name="omicron" unicode="&#x3bf;" horiz-adv-x="1302" 
d="M660 958q-194 0 -312 -116q-119 -116 -119 -312q0 -194 109 -317t321 -123t313 120t101 318t-109 315q-110 115 -304 115zM102 521q0 263 158 407t396 145q239 0 392 -142q152 -141 152 -409t-148 -407t-392 -139t-402 140q-156 142 -156 405z" />
    <glyph glyph-name="pi" unicode="&#x3c0;" horiz-adv-x="1478" 
d="M340 0v936h-258v115h1345v-115h-282v-680q0 -81 16 -113q16 -31 45 -42t79 -11t95 14v-116q-33 -12 -139 -12q-107 0 -163 54t-56 206v700h-559v-936h-123z" />
    <glyph glyph-name="rho" unicode="&#x3c1;" horiz-adv-x="1282" 
d="M619 90q199 0 315 121t117 323q0 202 -115 313q-114 111 -306 111t-283 -108t-91 -328v-301q164 -131 363 -131zM634 1073q238 0 392 -139q154 -138 154 -406t-160 -410t-380 -142t-384 110v-496h-123v930q0 285 132 419t369 134z" />
    <glyph glyph-name="sigmafinal" unicode="&#x3c2;" horiz-adv-x="1140" 
d="M670 1073q170 0 368 -67v-117q-201 70 -364 69q-225 0 -335 -124t-110 -302t123 -290t367 -131q167 -15 239 -65t72 -189t-86 -267h-129q88 158 88 265q0 51 -31 81q-30 30 -66 36q-36 8 -99 12q-604 41 -605 559q0 254 163 392t405 138z" />
    <glyph glyph-name="sigma" unicode="&#x3c3;" horiz-adv-x="1323" 
d="M653 88q195 0 298 113t104 319q0 268 -238 416h-168q-207 0 -313 -125t-106 -315t114 -298q114 -110 309 -110zM656 -25q-259 -1 -406 145q-148 146 -148 380t142 393q142 158 413 158h594v-115h-274v-4q92 -61 147 -171t56 -241q0 -252 -132 -398t-392 -147z" />
    <glyph glyph-name="tau" unicode="&#x3c4;" horiz-adv-x="1091" 
d="M1020 1051v-115h-488v-649q0 -111 46 -154t135 -43q88 0 188 27v-117q-102 -25 -174 -25q-317 0 -317 301v660h-410v115h1020z" />
    <glyph glyph-name="upsilon" unicode="&#x3c5;" horiz-adv-x="1269" 
d="M630 -25q-255 0 -361 110q-105 110 -105 314v652h123v-633q0 -172 78 -250t282 -78q115 0 198 47t123 124q72 139 72 310q0 285 -127 480h144q111 -190 111 -474t-142 -443q-141 -159 -396 -159z" />
    <glyph glyph-name="phi" unicode="&#x3c6;" horiz-adv-x="1617" 
d="M870 979v-909q240 0 379 118t140 342q1 223 -137 336t-382 113zM748 70v909q-246 0 -382 -113t-136 -335q0 -221 136 -341q138 -120 382 -120zM748 -410v365q-299 0 -473 147q-173 147 -173 426q0 224 139 392t507 174v241h122v-241q328 0 487 -155t159 -417t-166 -414
t-480 -153v-365h-122z" />
    <glyph glyph-name="chi" unicode="&#x3c7;" horiz-adv-x="1009" 
d="M506 434l356 617h158l-440 -721l438 -740h-156l-358 627l-357 -627h-157l440 732l-434 729h156z" />
    <glyph glyph-name="psi" unicode="&#x3c8;" horiz-adv-x="1513" 
d="M707 -410v385q-303 0 -423 115t-120 348v613h123v-602q0 -193 89 -272t331 -87v1245h122v-1245q248 0 353 129q104 129 104 380t-129 452h143q111 -193 111 -457q0 -614 -582 -619v-385h-122z" />
    <glyph glyph-name="omega" unicode="&#x3c9;" horiz-adv-x="1642" 
d="M444 1051q-204 -258 -204 -621q0 -186 76 -263t194 -77t184 71t66 206v460h123v-460q-1 -135 65 -206t182 -71t195 76q78 76 78 270q-1 194 -61 352t-144 263h139q193 -264 193 -592q0 -483 -400 -484q-227 0 -307 207h-4q-41 -96 -111 -152t-196 -55q-399 0 -399 484
q0 330 192 592h139z" />
    <glyph glyph-name="iotadieresis" unicode="&#x3ca;" horiz-adv-x="706" 
d="M287 1051v-762q0 -111 46 -154t134 -43t188 27v-117q-102 -25 -174 -25q-317 0 -317 302v772h123zM489 1356v-135h-151v135h151zM133 1356v-135h-151v135h151z" />
    <glyph glyph-name="upsilondieresis" unicode="&#x3cb;" horiz-adv-x="1269" 
d="M630 -25q-255 0 -361 110q-105 110 -105 314v652h123v-633q0 -172 78 -250t282 -78q115 0 198 47t123 124q72 139 72 310q0 285 -127 480h144q111 -190 111 -474t-142 -443q-141 -159 -396 -159zM868 1356v-135h-151v135h151zM512 1356v-135h-152v135h152z" />
    <glyph glyph-name="omicrontonos" unicode="&#x3cc;" horiz-adv-x="1302" 
d="M660 958q-194 0 -312 -116q-119 -116 -119 -312q0 -194 109 -317t321 -123t313 120t101 318t-109 315q-110 115 -304 115zM102 521q0 263 158 407t396 145q239 0 392 -142q152 -141 152 -409t-148 -407t-392 -139t-402 140q-156 142 -156 405zM608 1212l103 295h163
l-176 -295h-90z" />
    <glyph glyph-name="upsilontonos" unicode="&#x3cd;" horiz-adv-x="1269" 
d="M630 -25q-255 0 -361 110q-105 110 -105 314v652h123v-633q0 -172 78 -250t282 -78q115 0 198 47t123 124q72 139 72 310q0 285 -127 480h144q111 -190 111 -474t-142 -443q-141 -159 -396 -159zM563 1212l103 295h163l-176 -295h-90z" />
    <glyph glyph-name="omegatonos" unicode="&#x3ce;" horiz-adv-x="1642" 
d="M444 1051q-204 -258 -204 -621q0 -186 76 -263t194 -77t184 71t66 206v460h123v-460q-1 -135 65 -206t182 -71t195 76q78 76 78 270q-1 194 -61 352t-144 263h139q193 -264 193 -592q0 -483 -400 -484q-227 0 -307 207h-4q-41 -96 -111 -152t-196 -55q-399 0 -399 484
q0 330 192 592h139zM780 1212l103 295h164l-177 -295h-90z" />
    <glyph glyph-name="uni0400" unicode="&#x400;" horiz-adv-x="1216" 
d="M1083 1212h-780v-467h719v-118h-719v-508h780v-119h-909v1331h909v-119zM672 1473h-105l-207 296h160z" />
    <glyph glyph-name="uni0401" unicode="&#x401;" horiz-adv-x="1216" 
d="M1083 1212h-780v-467h719v-118h-719v-508h780v-119h-909v1331h909v-119zM874 1464h-155v140h155v-140zM518 1464h-156v140h156v-140z" />
    <glyph glyph-name="uni0402" unicode="&#x402;" horiz-adv-x="1667" 
d="M1120 911q218 0 316 -105t98 -362v-55q0 -205 -69 -309t-246 -105q-80 0 -226 35v127q129 -39 228 -39q184 0 184 279v67q1 201 -63 273t-230 71q-217 0 -424 -153v-635h-129v1212h-528v119h1186v-119h-529v-456q62 46 108 72t137 54t187 29z" />
    <glyph glyph-name="uni0403" unicode="&#x403;" horiz-adv-x="1011" 
d="M981 1212h-678v-1212h-129v1331h807v-119zM549 1473h-105l152 296h160z" />
    <glyph glyph-name="uni0404" unicode="&#x404;" horiz-adv-x="1363" 
d="M784 98q146 0 244 18t223 62v-129q-180 -74 -470 -74q-290 -1 -481 175t-191 519t186 515t491 172q246 0 453 -82v-131q-195 90 -443 90t-388 -123q-141 -123 -166 -362h792v-121h-796q8 -262 163 -396q156 -133 383 -133z" />
    <glyph glyph-name="uni0405" unicode="&#x405;" horiz-adv-x="1234" 
d="M657 1356q166 0 406 -66v-129q-367 107 -601 59q-84 -18 -146 -72t-62 -142q0 -162 192 -213l347 -91q330 -88 329 -354q0 -186 -143 -279.5t-389 -93.5t-488 91v131q297 -100 479.5 -100.5t295 65t112.5 176t-63.5 164t-167.5 80.5l-363 98q-274 72 -274 326
q0 178 149 264t387 86z" />
    <glyph glyph-name="uni0406" unicode="&#x406;" horiz-adv-x="477" 
d="M303 0h-129v1331h129v-1331z" />
    <glyph glyph-name="uni0407" unicode="&#x407;" horiz-adv-x="477" 
d="M303 0h-129v1331h129v-1331zM496 1464h-156v140h156v-140zM139 1464h-155v140h155v-140z" />
    <glyph glyph-name="uni0408" unicode="&#x408;" horiz-adv-x="890" 
d="M727 1331v-969q0 -178 -110.5 -281.5t-288.5 -103.5t-318 43v132q137 -51 301 -52q287 0 287 312v919h129z" />
    <glyph glyph-name="uni0409" unicode="&#x409;" horiz-adv-x="2074" 
d="M1153 119h354q369 0 369 315q0 141 -99 212t-284 71h-340v-598zM1153 836h346q238 0 376 -104t138 -308t-131 -314t-375 -110h-483v1212h-565q-45 -530 -103 -778t-132 -353q-75 -105 -204 -106q-29 0 -49 2l-2 113q14 -2 31 -2q96 0 146 90q132 237 198 1153h809v-495z
" />
    <glyph glyph-name="uni040A" unicode="&#x40a;" horiz-adv-x="2201" 
d="M1280 119h365q186 1 272 65t86 207t-92 201t-281 59h-350v-532zM1636 770q504 0 504 -367q0 -213 -124 -308t-371 -95h-494v651h-848v-651h-129v1331h129v-561h848v561h129v-561h356z" />
    <glyph glyph-name="uni040B" unicode="&#x40b;" horiz-adv-x="1667" 
d="M1120 911q218 0 316 -106t98 -361v-444h-129v444q1 201 -63 273t-230 71q-217 0 -424 -153v-635h-129v1212h-528v119h1186v-119h-529v-456q62 46 108 72t137 54t187 29z" />
    <glyph glyph-name="uni040C" unicode="&#x40c;" horiz-adv-x="1249" 
d="M303 586v-586h-129v1331h129v-626h111q303 348 626 626h187q-381 -315 -692 -667q432 -371 714 -664h-184q-233 240 -633 586h-129zM668 1473h-105l152 296h159z" />
    <glyph glyph-name="uni040D" unicode="&#x40d;" horiz-adv-x="1488" 
d="M299 1331v-1149l866 1149h150v-1331h-125v1182l-887 -1182h-129v1331h125zM793 1473h-105l-207 296h160z" />
    <glyph glyph-name="uni040E" unicode="&#x40e;" horiz-adv-x="1189" 
d="M1057 1331h153q-18 -33 -105 -199q-87 -168 -113 -214q-155 -283 -277.5 -475t-300.5 -443h-174q154 209 313 451q-68 86 -237 354t-306 526h154q180 -336 465 -772q164 242 428 772zM608 1501q-223 0 -260 217h111q10 -63 45 -93t104.5 -30t104.5 30t45 93h110
q-37 -217 -260 -217z" />
    <glyph glyph-name="uni040F" unicode="&#x40f;" horiz-adv-x="1425" 
d="M1251 0h-477v-348h-123v348h-477v1331h129v-1212h819v1212h129v-1331z" />
    <glyph glyph-name="uni0410" unicode="&#x410;" horiz-adv-x="1318" 
d="M322 508h667q-227 551 -332 715q-138 -221 -335 -715zM1319 0h-137q-70 199 -146 389h-762q-113 -301 -143 -389h-131q156 479 332 851t254 480h151q121 -178 297 -587.5t285 -743.5z" />
    <glyph glyph-name="uni0411" unicode="&#x411;" horiz-adv-x="1265" 
d="M303 717v-598h375q369 0 369 315q1 141 -99 212t-284 71h-361zM1001 1212h-698v-376h367q238 0 376 -104t138 -308t-131 -314t-375 -110h-504v1331h827v-119z" />
    <glyph glyph-name="uni0412" unicode="&#x412;" horiz-adv-x="1361" 
d="M303 627v-508h322q256 0 361 48t106 204q0 125 -106 191t-296 65h-387zM303 1212v-471h402q145 0 242 69t97 183t-71 167q-71 52 -373 52h-297zM174 1331h475q261 0 397 -73t136 -259q0 -111 -71 -191t-177 -114v-2q117 -24 206 -112t89 -213q0 -209 -140 -288t-415 -79
h-500v1331z" />
    <glyph glyph-name="uni0413" unicode="&#x413;" horiz-adv-x="1011" 
d="M981 1212h-678v-1212h-129v1331h807v-119z" />
    <glyph glyph-name="uni0414" unicode="&#x414;" horiz-adv-x="1378" 
d="M1075 123v1089h-606q-49 -569 -93 -774t-110 -315h809zM1368 123v-471h-123v348h-1132v-348h-123v471h133q88 72 147 389q41 219 84 821l850 -2v-1208h164z" />
    <glyph glyph-name="uni0415" unicode="&#x415;" horiz-adv-x="1216" 
d="M1083 1212h-780v-467h719v-118h-719v-508h780v-119h-909v1331h909v-119z" />
    <glyph glyph-name="uni0416" unicode="&#x416;" horiz-adv-x="1771" 
d="M948 586v-586h-125v586h-194q-254 -305 -449 -586h-170q59 74 238 305q178 231 282 359q-324 461 -497 667h157q227 -289 449 -626h184v626h125v-626h185q221 338 448 626h158q-174 -207 -498 -667q105 -126 283 -358t237 -306h-170q-195 281 -448 586h-195z" />
    <glyph glyph-name="uni0417" unicode="&#x417;" horiz-adv-x="1290" 
d="M620 1356q238 0 364 -86t126 -244q0 -125 -71 -211t-177 -121v-2q125 -22 210 -108t85 -213q0 -183 -134 -289t-411 -107q-123 0 -263 24t-206 50v127q213 -82 451 -82t332 68t94 198t-101 198t-301 69h-292v118h307q162 0 251 76t89 189q0 227 -369 227q-233 0 -448 -90
v129q226 80 464 80z" />
    <glyph glyph-name="uni0418" unicode="&#x418;" horiz-adv-x="1488" 
d="M299 1331v-1149l866 1149h150v-1331h-125v1182l-887 -1182h-129v1331h125z" />
    <glyph glyph-name="uni0419" unicode="&#x419;" horiz-adv-x="1488" 
d="M299 1331v-1149l866 1149h150v-1331h-125v1182l-887 -1182h-129v1331h125zM727 1438q-238 0 -244 221h121q4 -57 38 -92t94 -35t97 27.5t62 99.5h100q-51 -221 -268 -221z" />
    <glyph glyph-name="uni041A" unicode="&#x41a;" horiz-adv-x="1249" 
d="M303 586v-586h-129v1331h129v-626h111q303 348 626 626h187q-381 -315 -692 -667q432 -371 714 -664h-184q-233 240 -633 586h-129z" />
    <glyph glyph-name="uni041B" unicode="&#x41b;" horiz-adv-x="1347" 
d="M1174 1331v-1331h-130v1212h-585q-45 -530 -103 -778t-132 -353q-75 -105 -204 -106q-29 0 -49 2l-2 113q14 -2 31 -2q96 0 146 90q132 237 198 1153h830z" />
    <glyph glyph-name="uni041C" unicode="&#x41c;" horiz-adv-x="1728" 
d="M1264 1331h157q45 -164 70 -269t76 -393t100 -669h-127q-125 924 -213 1182q-207 -498 -414 -1045h-98q-199 535 -418 1041q-90 -319 -211 -1178h-125q119 852 248 1331h158q207 -469 397 -975q218 565 400 975z" />
    <glyph glyph-name="uni041D" unicode="&#x41d;" horiz-adv-x="1474" 
d="M1300 0h-129v604h-868v-604h-129v1331h129v-608h868v608h129v-1331z" />
    <glyph glyph-name="uni041E" unicode="&#x41e;" horiz-adv-x="1630" 
d="M819 1233q-260 0 -416.5 -143.5t-156.5 -414.5t158.5 -421t414.5 -150t410.5 149.5t154.5 419t-152.5 415t-412.5 145.5zM822 1356q329 0 514.5 -187.5t185.5 -502.5t-192.5 -503t-513.5 -188t-514 188.5t-193 504t192 502t521 186.5z" />
    <glyph glyph-name="uni041F" unicode="&#x41f;" horiz-adv-x="1456" 
d="M1282 0h-129v1212h-850v-1212h-129v1331h1108v-1331z" />
    <glyph glyph-name="uni0420" unicode="&#x420;" horiz-adv-x="1263" 
d="M303 1212v-637h375q158 0 263 73t105 244t-102 246q-104 75 -266 74h-375zM174 1331h531q124 0 213 -39q90 -39 142 -85t88 -127t36 -186t-36 -187t-88 -127t-142 -84t-213 -39h-402v-457h-129v1331z" />
    <glyph glyph-name="uni0421" unicode="&#x421;" horiz-adv-x="1433" 
d="M901.5 1356q229.5 0 407.5 -80v-131q-170 88 -439.5 88t-446.5 -148.5t-177 -429.5q0 -147 57 -257t153 -174q191 -126 445 -126q131 0 216 16.5t204 63.5v-129q-180 -74 -459.5 -74t-503.5 154q-114 78 -181.5 213t-67.5 311q0 231 109.5 394t281.5 236t401.5 73z" />
    <glyph glyph-name="uni0422" unicode="&#x422;" horiz-adv-x="1247" 
d="M1217 1212h-529v-1212h-129v1212h-528v119h1186v-119z" />
    <glyph glyph-name="uni0423" unicode="&#x423;" horiz-adv-x="1189" 
d="M1057 1331h153q-18 -33 -105 -199q-87 -168 -113 -214q-155 -283 -277.5 -475t-300.5 -443h-174q154 209 313 451q-68 86 -237 354t-306 526h154q180 -336 465 -772q164 242 428 772z" />
    <glyph glyph-name="uni0424" unicode="&#x424;" horiz-adv-x="1716" 
d="M238 675q0 -263 145 -409t414 -166v1137q-271 -15 -415 -157t-144 -405zM920 1237v-1137q268 12 413 160t145 412q0 266 -142 410q-144 144 -416 155zM1608 667q0 -307 -180 -491t-506 -199v-83h-127v83q-332 19 -509 203t-177 488t176 486q176 181 510 200v84h127v-84
q340 -14 513 -196t173 -491z" />
    <glyph glyph-name="uni0425" unicode="&#x425;" horiz-adv-x="1208" 
d="M698 676l531 -676h-170l-459 592l-448 -592h-172l534 676l-530 655h166l446 -569l461 569h160z" />
    <glyph glyph-name="uni0426" unicode="&#x426;" horiz-adv-x="1425" 
d="M1415 119v-467h-123v348h-1118v1331h129v-1212h819v1212h129v-1212h164z" />
    <glyph glyph-name="uni0427" unicode="&#x427;" horiz-adv-x="1282" 
d="M1108 1331v-1331h-129v528q-63 -46 -109 -72t-136 -55q-91 -29 -187 -28q-219 0 -317 106q-97 106 -97 361v491h129v-491q0 -201 64 -273t229 -71q217 0 424 153v682h129z" />
    <glyph glyph-name="uni0428" unicode="&#x428;" horiz-adv-x="1935" 
d="M1761 1331v-1331h-1587v1331h129v-1212h602v1212h125v-1212h602v1212h129z" />
    <glyph glyph-name="uni0429" unicode="&#x429;" horiz-adv-x="1935" 
d="M1925 119v-467h-123v348h-1628v1331h129v-1212h602v1212h125v-1212h602v1212h129v-1212h164z" />
    <glyph glyph-name="uni042A" unicode="&#x42a;" horiz-adv-x="1533" 
d="M592 119h375q369 0 368 315q0 141 -99 212t-284 71h-360v-598zM592 836h366q238 0 376 -104t138 -308t-130 -314q-132 -110 -375 -110h-504v1212h-453v119h582v-495z" />
    <glyph glyph-name="uni042B" unicode="&#x42b;" horiz-adv-x="1720" 
d="M303 717v-598h375q369 0 369 315q1 141 -99 212t-284 71h-361zM1546 0h-129v1331h129v-1331zM303 836h367q238 0 376 -104t138 -308t-131 -314t-375 -110h-504v1331h129v-495z" />
    <glyph glyph-name="uni042C" unicode="&#x42c;" horiz-adv-x="1245" 
d="M303 119h375q369 0 369 315q1 141 -99 212t-284 71h-361v-598zM303 836h367q238 0 376 -104t138 -308t-131 -314t-375 -110h-504v1331h129v-495z" />
    <glyph glyph-name="uni042D" unicode="&#x42d;" horiz-adv-x="1363" 
d="M594 1356q290 0 475 -172q186 -172 186 -518q0 -174 -56 -310q-101 -247 -369 -340q-118 -41 -248 -41q-289 0 -469 74v129q121 -47 210 -63q89 -17 243 -17t275 50q119 50 199 172t86 307h-796v121h792q-25 240 -166 362t-374 123q-287 0 -457 -88v131q179 80 469 80z
" />
    <glyph glyph-name="uni042E" unicode="&#x42e;" horiz-adv-x="1986" 
d="M1208 98q238 0 385 152t147 424t-144 416q-144 143 -388 143t-392 -142q-148 -141 -148 -415t151 -426t389 -152zM1219 1356q303 0 481 -188t178 -501q0 -315 -185 -503t-479 -188t-477 170q-182 171 -202 458h-232v-604h-129v1331h129v-608h232q16 291 198 462t486 171z
" />
    <glyph glyph-name="uni042F" unicode="&#x42f;" horiz-adv-x="1298" 
d="M995 1214h-368q-371 0 -371 -303q0 -281 373 -280h366v583zM1124 1331v-1331h-129v512h-340q-188 -192 -354 -428q-47 -68 -53 -84h-176q4 8 63 89t168 213t201 226q-180 10 -282 110t-101 286q0 186 130 297t378 110h495z" />
    <glyph glyph-name="uni0430" unicode="&#x430;" horiz-adv-x="1247" 
d="M246 326q0 -138 96 -187t211 -49q195 0 410 148l-2 204q-172 102 -383 103q-139 0 -235.5 -54.5t-96.5 -164.5zM614 1073q244 0 356.5 -104.5t112.5 -358.5v-610h-100l-20 113q-188 -137 -399.5 -137.5t-328 88t-116.5 251t121.5 253.5t335 91t385.5 -96v80
q0 176 -88.5 245.5t-276 69.5t-412.5 -90v123q135 45 224 63.5t206 18.5z" />
    <glyph glyph-name="uni0431" unicode="&#x431;" horiz-adv-x="1290" 
d="M648 90q204 0 308 111t105 286q0 389 -385 390q-141 0 -269 -86t-169 -189q0 -274 103 -393t307 -119zM696 991q220 0 356 -133q136 -132 136 -370t-155 -375t-401 -137t-382 152q-137 153 -137 488v7q0 215 28 349q60 279 324 375q135 48 303 64q168 17 215 29t82 45
l31 -117q-32 -37 -96 -53q-64 -15 -210 -21q-306 -11 -428 -151q-61 -72 -89 -159t-33 -208q66 90 200 152t256 63z" />
    <glyph glyph-name="uni0432" unicode="&#x432;" horiz-adv-x="1175" 
d="M287 492v-383h338q195 0 263 43t68 139q-1 199 -319 201h-350zM287 940v-344h364q127 0 193 51t66 135t-64 121q-63 37 -223 37h-336zM164 1051h459q414 0 413 -256q0 -197 -237 -242v-2q121 -8 203 -75t81 -179q0 -153 -103 -225t-359 -72h-457v1051z" />
    <glyph glyph-name="uni0433" unicode="&#x433;" horiz-adv-x="870" 
d="M819 940h-532v-940h-123v1051h655v-111z" />
    <glyph glyph-name="uni0434" unicode="&#x434;" horiz-adv-x="1187" 
d="M891 111v829h-471q-35 -385 -66 -566t-82 -263h619zM1178 111v-459h-119v348h-940v-348h-119v459h145q49 55 84 261t74 681l711 -2v-940h164z" />
    <glyph glyph-name="uni0435" unicode="&#x435;" horiz-adv-x="1210" 
d="M648 956q-163 0 -283.5 -86t-137.5 -282h756q0 172 -86 270t-249 98zM225 481v-6q2 -111 48 -190.5t117 -119.5q133 -75 297.5 -75t402.5 90v-123q-213 -82 -446 -82t-387.5 134.5t-154.5 409.5t153 414.5t385 139.5t349 -132t117 -374v-86h-881z" />
    <glyph glyph-name="uni0436" unicode="&#x436;" horiz-adv-x="1495" 
d="M809 471v-471h-123v471h-160q-193 -215 -379 -471h-157q307 391 444 551q-201 279 -397 500h162q131 -160 358 -469h129v469h123v-469h129q227 309 358 469h162q-197 -221 -397 -500q137 -160 444 -551h-159q-213 289 -377 471h-160z" />
    <glyph glyph-name="uni0437" unicode="&#x437;" horiz-adv-x="1024" 
d="M504 1073q199 0 295 -73t96 -187q1 -115 -63 -177t-168 -83v-2q120 -12 194 -82t74 -184q0 -309 -451 -310q-186 0 -389 54v116q215 -57 394 -57t249 49t70 145t-80 151q-80 56 -240 56h-282v109h297q128 0 198 54t70 145q0 162 -268 161q-197 0 -394 -65v117
q199 63 398 63z" />
    <glyph glyph-name="uni0438" unicode="&#x438;" horiz-adv-x="1222" 
d="M287 1051v-879l624 879h148v-1051h-123v907l-645 -907h-127v1051h123z" />
    <glyph glyph-name="uni0439" unicode="&#x439;" horiz-adv-x="1222" 
d="M287 1051v-879l624 879h148v-1051h-123v907l-645 -907h-127v1051h123zM578 1217q-238 0 -244 221h121q4 -57 37.5 -92t94 -35t97.5 27.5t61 99.5h101q-51 -221 -268 -221z" />
    <glyph glyph-name="uni043A" unicode="&#x43a;" horiz-adv-x="1110" 
d="M287 471v-471h-123v1051h123v-469h123q233 246 477 469h186q-286 -246 -536 -500q127 -109 330.5 -304.5t252.5 -246.5h-190q-346 350 -484 471h-159z" />
    <glyph glyph-name="uni043B" unicode="&#x43b;" horiz-adv-x="1110" 
d="M946 1051v-1051h-123v940h-461q-45 -488 -80 -643q-34 -156 -70 -213t-79 -83t-90 -26t-68 2l-2 101q14 -2 31 -2q66 0 102 57q77 124 140 918h700z" />
    <glyph glyph-name="uni043C" unicode="&#x43c;" horiz-adv-x="1388" 
d="M1018 1051h149q94 -356 191 -1051h-123q-115 766 -158 901q-47 -111 -141 -331t-191 -474h-98q-73 199 -130 329t-111 254t-95 218q-53 -197 -159 -897h-121q106 709 196 1051h150q188 -424 319 -750q97 250 322 750z" />
    <glyph glyph-name="uni043D" unicode="&#x43d;" horiz-adv-x="1216" 
d="M930 0v471h-643v-471h-123v1051h123v-469h643v469h123v-1051h-123z" />
    <glyph glyph-name="uni043E" unicode="&#x43e;" horiz-adv-x="1302" 
d="M660.5 958q-193.5 0 -312.5 -116.5t-119 -311t108.5 -317.5t321 -123t313.5 120t101 318.5t-109.5 314t-303 115.5zM656 1073q239 0 391.5 -142.5t152.5 -409.5t-148.5 -406.5t-392.5 -139.5t-400.5 141.5t-156.5 404.5t157.5 407.5t396.5 144.5z" />
    <glyph glyph-name="uni043F" unicode="&#x43f;" horiz-adv-x="1249" 
d="M1085 0h-122v940h-676v-940h-123v1051h921v-1051z" />
    <glyph glyph-name="uni0440" unicode="&#x440;" horiz-adv-x="1312" 
d="M649 90q199 0 316 121t117 323t-115 313t-317 111t-363 -131v-606q163 -131 362 -131zM682 1073q220 0 374 -139q154 -138 154 -406t-160 -410t-380 -142t-383 110v-496h-123v1461h90l31 -99q177 121 397 121z" />
    <glyph glyph-name="uni0441" unicode="&#x441;" horiz-adv-x="1155" 
d="M670 1073q170 0 368 -67v-117q-458 159 -684 -43q-125 -112 -125 -317.5t122 -321t309.5 -115.5t392.5 72v-117q-190 -72 -375 -72q-248 0 -412 142.5t-164 409t162 406.5t406 140z" />
    <glyph glyph-name="uni0442" unicode="&#x442;" horiz-adv-x="1085" 
d="M1034 940h-430v-940h-123v940h-430v111h983v-111z" />
    <glyph glyph-name="uni0443" unicode="&#x443;" horiz-adv-x="1054" 
d="M932 1051h133q-283 -610 -430.5 -899t-306.5 -562h-131q150 256 243 435q-250 504 -450 1026h131q238 -608 385 -904q160 312 426 904z" />
    <glyph glyph-name="uni0444" unicode="&#x444;" horiz-adv-x="1642" 
d="M981 90q197 0 313 121t117 323q0 202 -115 313q-115 112 -303 111q-57 0 -114 -10v-850q41 -8 102 -8zM649 958q-188 0 -303 -112t-115 -313q0 -203 117 -323t314 -120q61 0 102 8v850q-57 10 -115 10zM1008 1073q229 0 381 -139q151 -138 151 -406t-160 -410t-397 -143
q-45 0 -100 11v-396h-123v396q-55 -10 -101 -11q-237 1 -397 143t-160 409t152 407t381 139q53 0 125 -14v356h123v-356q72 14 125 14z" />
    <glyph glyph-name="uni0445" unicode="&#x445;" horiz-adv-x="1015" 
d="M594 516l428 -516h-166l-348 432l-344 -432h-170l424 516l-428 535h155l361 -455l354 455h166z" />
    <glyph glyph-name="uni0446" unicode="&#x446;" horiz-adv-x="1239" 
d="M1229 111v-459h-119v348h-946v1051h123v-940h655v940h123v-940h164z" />
    <glyph glyph-name="uni0447" unicode="&#x447;" horiz-adv-x="1150" 
d="M987 1051v-1051h-123v420q-195 -146 -381 -146t-278 98t-92 320v359h127v-355q0 -168 57 -236t199 -69q193 0 368 158v502h123z" />
    <glyph glyph-name="uni0448" unicode="&#x448;" horiz-adv-x="1703" 
d="M1540 1051v-1051h-1376v1051h123v-940h508v940h116v-940h506v940h123z" />
    <glyph glyph-name="uni0449" unicode="&#x449;" horiz-adv-x="1714" 
d="M1704 111v-459h-119v348h-1421v1051h123v-940h508v940h116v-940h506v940h123v-940h164z" />
    <glyph glyph-name="uni044A" unicode="&#x44a;" horiz-adv-x="1427" 
d="M874 90q192 0 278 62q87 62 87 184q0 123 -84 186t-242 64q-219 0 -391 -103v-366q160 -27 352 -27zM930 700q216 0 326 -95t110 -270t-118 -267t-392 -93q-195 0 -455 37v928h-360v111h483v-451q191 100 406 100z" />
    <glyph glyph-name="uni044B" unicode="&#x44b;" horiz-adv-x="1605" 
d="M624 90q356 0 357 247q0 122 -83 185q-82 64 -204 64q-234 1 -409 -103v-366q159 -27 339 -27zM1442 0h-123v1051h123v-1051zM682 700q206 0 316 -96t110 -269q0 -358 -500 -360q-184 0 -444 37v1039h123v-451q189 100 395 100z" />
    <glyph glyph-name="uni044C" unicode="&#x44c;" horiz-adv-x="1189" 
d="M636 90q192 0 278 62t87 184q0 248 -325 250q-219 0 -391 -103v-366q159 -27 351 -27zM693 700q215 0 325 -95t110 -270t-118 -267t-392 -93q-195 0 -454 37v1039h123v-451q191 100 406 100z" />
    <glyph glyph-name="uni044D" unicode="&#x44d;" horiz-adv-x="1103" 
d="M485 1073q231 0 373 -138q142 -139 143 -409q0 -270 -144 -410t-384 -141q-184 0 -381 64v117q213 -64 387 -64t277 99q102 99 116 280h-596v111h596q-14 186 -117 281t-275 95t-374 -67v117q205 65 379 65z" />
    <glyph glyph-name="uni044E" unicode="&#x44e;" horiz-adv-x="1671" 
d="M1442 528q0 196 -106 313q-106 115 -288 115q-180 0 -294 -116t-115 -310t105 -317t305 -123t296 121t97 317zM1053 1071q217 0 367 -142q150 -141 149 -407q1 -266 -145 -406t-368 -140t-374 127q-152 128 -168 368h-227v-471h-123v1051h123v-469h227q18 233 170 361
t369 128z" />
    <glyph glyph-name="uni044F" unicode="&#x44f;" horiz-adv-x="1206" 
d="M565 465q201 0 357 27v448l-291 2q-213 2 -302 -60t-89 -192q-1 -225 325 -225zM1042 1051v-1051h-122v379q-170 -25 -314 -29q-145 -117 -383 -350h-172q137 147 385 356q-152 23 -238 109t-85 223q0 178 120 270q121 92 400 93h409z" />
    <glyph glyph-name="uni0450" unicode="&#x450;" horiz-adv-x="1210" 
d="M648 956q-163 0 -283.5 -86t-137.5 -282h756q0 172 -86 270t-249 98zM225 481v-6q2 -111 48 -190.5t117 -119.5q133 -75 297.5 -75t402.5 90v-123q-213 -82 -446 -82t-387.5 134.5t-154.5 409.5t153 414.5t385 139.5t349 -132t117 -374v-86h-881zM582 1210l-207 297h160
l151 -297h-104z" />
    <glyph glyph-name="uni0451" unicode="&#x451;" horiz-adv-x="1210" 
d="M648 956q-163 0 -283.5 -86t-137.5 -282h756q0 172 -86 270t-249 98zM225 481v-6q2 -111 48 -190.5t117 -119.5q133 -75 297.5 -75t402.5 90v-123q-213 -82 -446 -82t-387.5 134.5t-154.5 409.5t153 414.5t385 139.5t349 -132t117 -374v-86h-881zM885 1221h-152v135h152
v-135zM528 1221h-151v135h151v-135z" />
    <glyph glyph-name="uni0452" unicode="&#x452;" horiz-adv-x="1296" 
d="M716 1073q214 0 315.5 -88t101.5 -311v-707q0 -197 -67 -299t-243 -102q-117 0 -225 35v118q119 -39 227 -38q184 0 185 286v674q0 164 -60.5 240.5t-263.5 76.5t-399 -153v-805h-123v1186h-205v110h205v119h123v-119h303v-110h-303v-254q215 141 429 141z" />
    <glyph glyph-name="uni0453" unicode="&#x453;" horiz-adv-x="870" 
d="M819 940h-532v-940h-123v1051h655v-111zM588 1210h-105l152 297h160z" />
    <glyph glyph-name="uni0454" unicode="&#x454;" horiz-adv-x="1103" 
d="M631 92q168 0 381 64v-117q-197 -63 -381 -64q-248 -1 -388 139q-141 140 -141 411t142 409t374 139q188 0 379 -57v-117q-186 59 -365 59q-178 0 -282 -95t-119 -281h596v-111h-596q27 -379 400 -379z" />
    <glyph glyph-name="uni0455" unicode="&#x455;" horiz-adv-x="1089" 
d="M240 797q0 -51 35.5 -87t75.5 -50.5t106 -28.5l211 -47q156 -35 237.5 -98.5t81.5 -204.5q0 -170 -128 -238t-363 -68q-143 0 -394 64v127q207 -78 396 -78q360 0 360 186q0 82 -46 124t-155 67l-303 72q-106 25 -173.5 86t-67.5 149t27.5 141.5t68.5 83t123 53
t248.5 23.5t365.5 -57v-123q-231 66 -393 65q-313 0 -313 -161z" />
    <glyph glyph-name="uni0456" unicode="&#x456;" horiz-adv-x="452" 
d="M287 0h-123v1051h123v-1051zM301 1221h-151v135h151v-135z" />
    <glyph glyph-name="uni0457" unicode="&#x457;" horiz-adv-x="450" 
d="M287 0h-123v1051h123v-1051zM479 1221h-151v135h151v-135zM123 1221h-152v135h152v-135z" />
    <glyph glyph-name="uni0458" unicode="&#x458;" horiz-adv-x="454" 
d="M289 1051v-1071q0 -206 -66 -310t-243 -104q-117 0 -226 35v118q119 -39 228 -38q184 0 184 286v1084h123zM303 1221h-151v135h151v-135z" />
    <glyph glyph-name="uni0459" unicode="&#x459;" horiz-adv-x="1806" 
d="M1268 90q182 0 266 62t84 184q0 123 -80 186t-229 64q-209 0 -381 -103v-366q158 -27 340 -27zM1322 700q206 0 314 -96q109 -96 109 -270t-116 -266t-382 -93q-184 0 -444 37v928h-441q-45 -488 -80 -643q-34 -156 -70 -213t-79 -83t-90 -26t-68 2l-2 101q14 -2 31 -2
q66 0 102 58q77 126 140 919l680 -2v-451q190 100 396 100z" />
    <glyph glyph-name="uni045A" unicode="&#x45a;" horiz-adv-x="1912" 
d="M1376 90q182 0 264 62q84 62 84 184q0 248 -309 250q-209 0 -381 -103v-366q160 -27 342 -27zM1428 700q206 0 315 -96t109 -270t-116 -266t-382 -93q-184 0 -445 37v459h-622v-471h-123v1051h123v-469h622v469h123v-451q190 100 396 100z" />
    <glyph glyph-name="uni045B" unicode="&#x45b;" horiz-adv-x="1296" 
d="M716 1073q214 0 315.5 -88t101.5 -311v-674h-123v641q0 164 -60.5 240.5t-263.5 76.5t-399 -153v-805h-123v1186h-205v110h205v119h123v-119h303v-110h-303v-254q215 141 429 141z" />
    <glyph glyph-name="uni045C" unicode="&#x45c;" horiz-adv-x="1110" 
d="M287 471v-471h-123v1051h123v-469h123q233 246 477 469h186q-286 -246 -536 -500q127 -109 330.5 -304.5t252.5 -246.5h-190q-346 350 -484 471h-159zM606 1210h-104l151 297h160z" />
    <glyph glyph-name="uni045D" unicode="&#x45d;" horiz-adv-x="1222" 
d="M287 1051v-879l624 879h148v-1051h-123v907l-645 -907h-127v1051h123zM651 1210h-104l-207 297h160z" />
    <glyph glyph-name="uni045E" unicode="&#x45e;" horiz-adv-x="1054" 
d="M932 1051h133q-283 -610 -430.5 -899t-306.5 -562h-131q150 256 243 435q-250 504 -450 1026h131q238 -608 385 -904q160 312 426 904zM528.5 1217q-223.5 0 -260.5 217h111q10 -63 45 -93t104.5 -30t104.5 29.5t45 93.5h110q-36 -217 -259.5 -217z" />
    <glyph glyph-name="uni045F" unicode="&#x45f;" horiz-adv-x="1228" 
d="M1065 0h-391v-348h-119v348h-391v1051h123v-940h655v940h123v-1051z" />
    <glyph glyph-name="uni0490" unicode="&#x490;" horiz-adv-x="1011" 
d="M981 1679v-467h-678v-1212h-129v1331h684v348h123z" />
    <glyph glyph-name="uni0491" unicode="&#x491;" horiz-adv-x="870" 
d="M819 1399v-459h-532v-940h-123v1051h536v348h119z" />
    <glyph glyph-name="uni0492" unicode="&#x492;" horiz-adv-x="1011" 
d="M303 1212v-467h410v-118h-410v-627h-129v627h-174v118h174v586h807v-119h-678z" />
    <glyph glyph-name="uni0493" unicode="&#x493;" horiz-adv-x="890" 
d="M307 940v-340h324v-111h-324v-489h-123v489h-184v111h184v451h656v-111h-533z" />
    <glyph glyph-name="uni0496" unicode="&#x496;" horiz-adv-x="1781" 
d="M1823 119v-467h-123v348h-109q-195 281 -448 586h-195v-586h-125v586h-194q-254 -305 -449 -586h-170q59 74 238 305q178 231 282 359q-324 461 -497 667h157q227 -289 449 -626h184v626h125v-626h185q221 338 448 626h158q-174 -207 -498 -667q84 -102 428 -545h154z
" />
    <glyph glyph-name="uni0497" unicode="&#x497;" horiz-adv-x="1495" 
d="M1546 111v-459h-119v348h-81q-213 289 -377 471h-160v-471h-123v471h-160q-193 -215 -379 -471h-157q307 391 444 551q-201 279 -397 500h162q131 -160 358 -469h129v469h123v-469h129q227 309 358 469h162q-197 -221 -397 -500q72 -84 358 -440h127z" />
    <glyph glyph-name="uni049A" unicode="&#x49a;" horiz-adv-x="1239" 
d="M1290 119v-467h-123v348h-102q-233 240 -633 586h-129v-586h-129v1331h129v-626h111q303 348 626 626h187q-381 -315 -692 -667q350 -299 598 -545h157z" />
    <glyph glyph-name="uni049B" unicode="&#x49b;" horiz-adv-x="1110" 
d="M1141 111v-459h-119v348h-92q-346 350 -484 471h-159v-471h-123v1051h123v-469h123q233 246 477 469h186q-287 -246 -536 -500q147 -125 473 -440h131z" />
    <glyph glyph-name="uni049C" unicode="&#x49c;" horiz-adv-x="1247" 
d="M545 586v-422h-123v422h-119v-586h-129v1331h129v-626h119v346h123v-346h63q221 338 449 626h157q-174 -207 -497 -667q105 -126 283 -358t237 -306h-170q-195 281 -449 586h-73z" />
    <glyph glyph-name="uni049D" unicode="&#x49d;" horiz-adv-x="1105" 
d="M508 471v-369h-115v369h-106v-471h-123v1051h123v-469h106v284h115v-284h41q227 309 358 469h162q-197 -221 -397 -500q137 -160 444 -551h-160q-213 289 -376 471h-72z" />
    <glyph glyph-name="uni04A2" unicode="&#x4a2;" horiz-adv-x="1474" 
d="M1464 119v-467h-123v348h-170v604h-868v-604h-129v1331h129v-608h868v608h129v-1212h164z" />
    <glyph glyph-name="uni04A3" unicode="&#x4a3;" horiz-adv-x="1226" 
d="M1217 111v-459h-119v348h-168v471h-643v-471h-123v1051h123v-469h643v469h123v-940h164z" />
    <glyph glyph-name="uni04AE" unicode="&#x4ae;" horiz-adv-x="1200" 
d="M666 0h-129v451q-63 82 -230.5 350t-306.5 530h154q176 -356 446 -770q240 354 447 770h153q-137 -258 -305 -530.5t-229 -349.5v-451z" />
    <glyph glyph-name="uni04AF" unicode="&#x4af;" horiz-adv-x="1056" 
d="M575 -410h-122v418q-274 545 -463 1043h131q188 -494 395 -906q219 412 420 906h131q-211 -514 -492 -1043v-418z" />
    <glyph glyph-name="uni04B2" unicode="&#x4b2;" horiz-adv-x="1218" 
d="M1290 119v-467h-123v348h-108l-459 592l-448 -592h-172l534 676l-530 655h166l446 -569l461 569h160l-519 -655l437 -557h155z" />
    <glyph glyph-name="uni04B3" unicode="&#x4b3;" horiz-adv-x="1015" 
d="M1063 111v-459h-119v348h-88l-348 432l-344 -432h-170l424 516l-428 535h155l361 -455l354 455h166l-432 -535l336 -405h133z" />
    <glyph glyph-name="uni04B8" unicode="&#x4b8;" horiz-adv-x="1282" 
d="M1108 1331v-1331h-129v528q-162 -115 -303 -143v-221h-123v209h-6q-219 0 -317 106q-97 106 -97 361v491h129v-491q0 -199 64 -272t227 -72v555h123v-543q160 31 303 141v682h129z" />
    <glyph glyph-name="uni04B9" unicode="&#x4b9;" horiz-adv-x="1150" 
d="M987 1051v-1051h-123v420q-133 -100 -254 -131v-187h-114v172h-9q-190 0 -282 98t-92 320v359h127v-355q0 -168 57 -236t199 -69v475h114v-460q129 33 254 143v502h123z" />
    <glyph glyph-name="uni04BA" unicode="&#x4ba;" horiz-adv-x="1282" 
d="M735 911q219 0 317 -106t97 -361v-444h-129v444q0 201 -64 273t-229 71q-217 0 -424 -153v-635h-129v1331h129v-575q63 46 109 72t136 54q91 28 187 29z" />
    <glyph glyph-name="uni04BB" unicode="&#x4bb;" horiz-adv-x="1296" 
d="M716 1053q214 0 315.5 -88t101.5 -312v-653h-123v621q0 164 -60.5 240.5t-263.5 76.5t-399 -154v-784h-123v1415h123v-504q215 142 429 142z" />
    <glyph glyph-name="uni04C0" unicode="&#x4c0;" horiz-adv-x="477" 
d="M303 0h-129v1331h129v-1331z" />
    <glyph glyph-name="uni04CF" unicode="&#x4cf;" horiz-adv-x="450" 
d="M287 0h-123v1415h123v-1415z" />
    <glyph glyph-name="uni04D8" unicode="&#x4d8;" horiz-adv-x="1589" 
d="M792 104q244 0 388 132t161 368h-1093q4 -258 152 -379t392 -121zM782 1356q328 0 513 -188t185 -503q0 -317 -182 -503q-184 -186 -510 -186t-503 174q-176 174 -176 518v55h1232q-16 250 -165 380q-150 130 -402 130t-498 -88v133q268 78 506 78z" />
    <glyph glyph-name="uni04D9" unicode="&#x4d9;" horiz-adv-x="1208" 
d="M578 92q141 0 261 81q62 42 101 123t43 193h-758q1 -397 353 -397zM588 1073q248 0 383 -136t135 -404q0 -269 -152 -413t-376 -145q-475 0 -476 535v86h881q-5 174 -109 268t-310 94t-445 -90v123q221 82 469 82z" />
    <glyph glyph-name="uni04E8" unicode="&#x4e8;" horiz-adv-x="1630" 
d="M819 104q246 0 399.5 138.5t165.5 384.5h-1136q12 -246 168.5 -384.5t402.5 -138.5zM820 1233q-241 0 -394.5 -124t-175.5 -364h1132q-23 238 -172 363t-390 125zM822 1356q329 0 514.5 -187.5t185.5 -502.5t-192.5 -503t-513.5 -188t-514 188.5t-193 504t192 502
t521 186.5z" />
    <glyph glyph-name="uni04E9" unicode="&#x4e9;" horiz-adv-x="1302" 
d="M660 90q197 0 298 104.5t113 276.5h-840q14 -168 123 -274.5t306 -106.5zM658 958q-179 0 -293.5 -100t-133.5 -276h838q-16 178 -124 277t-287 99zM656 1073q239 0 391.5 -142.5t152.5 -409.5t-148.5 -406.5t-392.5 -139.5t-400.5 141.5t-156.5 404.5t157.5 407.5
t396.5 144.5z" />
    <glyph glyph-name="Wgrave" unicode="&#x1e80;" horiz-adv-x="1779" 
d="M1614 1331h131q-170 -821 -354 -1331h-154q-211 492 -348 887q-199 -537 -350 -887h-152q-201 557 -352 1331h131q156 -762 301 -1188q106 233 371 957h100q236 -670 373 -957q125 352 303 1188zM942 1473h-104l-207 296h160z" />
    <glyph glyph-name="wgrave" unicode="&#x1e81;" horiz-adv-x="1705" 
d="M1573 1051h133q-137 -522 -403 -1051h-115q-227 502 -332 879q-111 -375 -348 -879h-117q-119 244 -232 551t-159 500h131q141 -535 315 -906q74 152 182 430t167 474h131q32 -132 146 -441t183 -463q164 318 318 906zM915 1210h-104l-207 297h160z" />
    <glyph glyph-name="Wacute" unicode="&#x1e82;" horiz-adv-x="1779" 
d="M1614 1331h131q-170 -821 -354 -1331h-154q-211 492 -348 887q-199 -537 -350 -887h-152q-201 557 -352 1331h131q156 -762 301 -1188q106 233 371 957h100q236 -670 373 -957q125 352 303 1188zM932 1473h-105l152 296h160z" />
    <glyph glyph-name="wacute" unicode="&#x1e83;" horiz-adv-x="1705" 
d="M1573 1051h133q-137 -522 -403 -1051h-115q-227 502 -332 879q-111 -375 -348 -879h-117q-119 244 -232 551t-159 500h131q141 -535 315 -906q74 152 182 430t167 474h131q32 -132 146 -441t183 -463q164 318 318 906zM911 1210h-104l151 297h160z" />
    <glyph glyph-name="Wdieresis" unicode="&#x1e84;" horiz-adv-x="1779" 
d="M1614 1331h131q-170 -821 -354 -1331h-154q-211 492 -348 887q-199 -537 -350 -887h-152q-201 557 -352 1331h131q156 -762 301 -1188q106 233 371 957h100q236 -670 373 -957q125 352 303 1188zM1145 1464h-156v140h156v-140zM788 1464h-155v140h155v-140z" />
    <glyph glyph-name="wdieresis" unicode="&#x1e85;" horiz-adv-x="1705" 
d="M1573 1051h133q-137 -522 -403 -1051h-115q-227 502 -332 879q-111 -375 -348 -879h-117q-119 244 -232 551t-159 500h131q141 -535 315 -906q74 152 182 430t167 474h131q32 -132 146 -441t183 -463q164 318 318 906zM1114 1221h-151v135h151v-135zM758 1221h-152v135
h152v-135z" />
    <glyph glyph-name="uni1E9E" unicode="&#x1e9e;" horiz-adv-x="1495" 
d="M1393 372q0 -172 -118 -284q-118 -113 -340 -113t-464 91v131q297 -101 463 -101t244 74t77 203q0 319 -477 352v86l322 266q-142 156 -364 156t-327 -108t-106 -349v-776h-129v776q0 291 142 435t411 145q172 0 313 -78t217 -203l-313 -258q215 -45 332 -159t117 -286z
" />
    <glyph glyph-name="Ygrave" unicode="&#x1ef2;" horiz-adv-x="1200" 
d="M666 0h-129v451q-63 82 -230.5 350t-306.5 530h154q176 -356 446 -770q240 354 447 770h153q-137 -258 -305 -530.5t-229 -349.5v-451zM653 1473h-104l-207 296h160z" />
    <glyph glyph-name="ygrave" unicode="&#x1ef3;" horiz-adv-x="1054" 
d="M932 1051h133q-283 -610 -430.5 -899t-306.5 -562h-131q150 256 243 435q-250 504 -450 1026h131q238 -608 385 -904q160 312 426 904zM479 1210l-207 297h160l152 -297h-105z" />
    <glyph glyph-name="hyphentwo" unicode="&#x2010;" horiz-adv-x="856" 
d="M764 578h-672v114h672v-114z" />
    <glyph glyph-name="endash" unicode="&#x2013;" horiz-adv-x="1060" 
d="M969 578h-877v114h877v-114z" />
    <glyph glyph-name="emdash" unicode="&#x2014;" horiz-adv-x="1675" 
d="M1583 578h-1491v114h1491v-114z" />
    <glyph glyph-name="uni2015" unicode="&#x2015;" horiz-adv-x="1675" 
d="M1583 578h-1491v114h1491v-114z" />
    <glyph glyph-name="underscoredbl" unicode="&#x2017;" horiz-adv-x="983" 
d="M983 -614h-983v114h983v-114zM983 -389h-983v115h983v-115z" />
    <glyph glyph-name="quoteleft" unicode="&#x2018;" horiz-adv-x="276" 
d="M186 1356h90l-94 -346h-121z" />
    <glyph glyph-name="quoteright" unicode="&#x2019;" horiz-adv-x="276" 
d="M90 1010h-90l94 346h121z" />
    <glyph glyph-name="quotesinglbase" unicode="&#x201a;" horiz-adv-x="276" 
d="M90 -209h-90l94 346h121z" />
    <glyph glyph-name="quotereversed" unicode="&#x201b;" horiz-adv-x="276" 
d="M182 1356l94 -346h-90l-125 346h121z" />
    <glyph glyph-name="quotedblleft" unicode="&#x201c;" horiz-adv-x="501" 
d="M408 1010h-121l125 346h90zM182 1010h-121l125 346h90z" />
    <glyph glyph-name="quotedblright" unicode="&#x201d;" horiz-adv-x="501" 
d="M315 1010h-90l94 346h121zM90 1010h-90l94 346h121z" />
    <glyph glyph-name="quotedblbase" unicode="&#x201e;" horiz-adv-x="501" 
d="M315 -209h-90l94 346h121zM90 -209h-90l94 346h121z" />
    <glyph glyph-name="dagger" unicode="&#x2020;" horiz-adv-x="1028" 
d="M571 0h-114v895h-365v115h365v362h114v-362h365v-115h-365v-895z" />
    <glyph glyph-name="daggerdbl" unicode="&#x2021;" horiz-adv-x="1028" 
d="M571 895v-295h365v-115h-365v-485h-114v485h-365v115h365v295h-365v115h365v362h114v-362h365v-115h-365z" />
    <glyph glyph-name="bullet" unicode="&#x2022;" horiz-adv-x="542" 
d="M430 483h-317v301h317v-301z" />
    <glyph glyph-name="ellipsis" unicode="&#x2026;" horiz-adv-x="1112" 
d="M999 0h-145v137h145v-137zM629 0h-146v137h146v-137zM258 0h-145v137h145v-137z" />
    <glyph glyph-name="perthousand" unicode="&#x2030;" horiz-adv-x="2551" 
d="M2142 666q-219 0 -223 -322q-2 -127 56 -202q58 -74 167 -74t167 74t56 202q-4 322 -223 322zM1323 666q-219 0 -223 -322q-2 -127 56 -202q58 -74 167 -74t167 74t56 202q-4 322 -223 322zM2142 -25q-162 1 -245 105t-83 282t86 286t246 108t242 -104t82 -282
q0 -177 -83 -286t-245 -109zM1323 -25q-162 1 -245 105t-83 282t86 286t246 108t242 -104t82 -282q0 -177 -83 -286t-245 -109zM408 1264q-219 0 -224 -322q-2 -127 56 -202q58 -74 168 -74q108 0 166 74t57 202q-4 322 -223 322zM586 0h-127l690 1331h123zM408 573
q-162 1 -245 105t-83 282t86 286t246 108t242 -104t81 -282q0 -177 -83 -286q-82 -109 -244 -109z" />
    <glyph glyph-name="minute" unicode="&#x2032;" horiz-adv-x="423" 
d="M262 1010h-100l-19 471h138z" />
    <glyph glyph-name="second" unicode="&#x2033;" horiz-adv-x="423" 
d="M281 1481l-19 -471h-100l-19 471h138z" />
    <glyph glyph-name="guilsinglleft" unicode="&#x2039;" horiz-adv-x="602" 
d="M272 547l187 -393h-107l-209 403l209 393h105z" />
    <glyph glyph-name="guilsinglright" unicode="&#x203a;" horiz-adv-x="602" 
d="M459 557l-209 -403h-107l187 393l-185 403h105z" />
    <glyph glyph-name="exclamdbl" unicode="&#x203c;" horiz-adv-x="741" 
d="M629 0h-146v137h146v-137zM258 0h-145v137h145v-137zM625 1331l-19 -969h-100l-19 969h138zM254 1331l-18 -969h-101l-18 969h137z" />
    <glyph glyph-name="uni203D" unicode="&#x203d;" horiz-adv-x="1036" 
d="M500 137v-137h-146v137h146zM505 1356q212 0 354 -86t142 -258q0 -96 -52 -164t-126 -107q-75 -39 -149 -75t-126 -98q-52 -60 -52 -146v-88h-131l-19 633h137l-8 -301q53 47 162 102q109 54 170 108t61 134q0 111 -100 168t-263 57t-446 -92v127q234 86 446 86z" />
    <glyph glyph-name="overline" unicode="&#x203e;" horiz-adv-x="983" 
d="M983 1421h-983v115h983v-115z" />
    <glyph glyph-name="fraction" unicode="&#x2044;" horiz-adv-x="280" 
d="M-139 0h-127l690 1331h123z" />
    <glyph glyph-name="zerosuperior" unicode="&#x2070;" 
d="M407 1450q-98 0 -160 -77q-63 -77 -63 -221t62 -217t160 -73t164 73t65 218q0 145 -65 221t-163 76zM82 1154q0 166 87 278t240 112t241 -112t87 -280q0 -168 -90 -276t-238 -108t-238 110q-89 110 -89 276z" />
    <glyph glyph-name="foursuperior" unicode="&#x2074;" 
d="M750 985h-119v-199h-99v199h-448v82q147 219 373 457h116q-209 -221 -370 -445h329v226h99v-226h119v-94z" />
    <glyph glyph-name="fivesuperior" unicode="&#x2075;" 
d="M635 1430h-350l-23 -177q63 18 139 19q147 0 221 -71t72 -181q0 -110 -78 -180q-78 -72 -223 -72t-256 45v96q125 -47 235 -47t166 42q54 42 54 118q0 162 -211 162q-86 0 -223 -47l49 387h428v-94z" />
    <glyph glyph-name="sixsuperior" unicode="&#x2076;" 
d="M425 1196q-89 0 -144 -46t-55 -119t48 -121t138 -48t144 46t54 123t-48 121t-137 44zM713 1036q0 -110 -82 -189t-213 -79t-213 81t-82 224q0 205 134 327t355 144v-90q-128 -8 -236 -76t-147 -174q33 39 95 63t122 23q125 0 196 -72t71 -182z" />
    <glyph glyph-name="sevensuperior" unicode="&#x2077;" 
d="M690 1524v-60q-254 -385 -362 -678h-105q127 317 336 644h-401v94h532z" />
    <glyph glyph-name="eightsuperior" unicode="&#x2078;" 
d="M410 1124q-92 0 -144 -39t-51 -103q0 -64 57 -94q58 -30 136 -30t137 30t59 93t-51 103t-143 40zM410 1454q-166 0 -166 -113q0 -55 46 -91t119 -36t119 36t45 91q1 55 -43 84t-120 29zM410 1544q110 0 186 -51t76 -153t-119 -164q152 -59 152 -187q0 -105 -82 -163
t-213 -58t-213 59t-82 172t149 179q-119 66 -119 164t77 150t188 52z" />
    <glyph glyph-name="ninesuperior" unicode="&#x2079;" 
d="M399 1110q90 0 146 47q55 47 55 122t-49 123t-138 48t-143 -46t-55 -126q0 -80 47 -124t137 -44zM379 1022q-125 0 -196 73t-71 182t83 188q82 79 213 79t213 -81t81 -224q0 -205 -134 -327t-355 -144v98q129 8 236 73q106 65 145 169q-33 -38 -93 -62t-122 -24z" />
    <glyph glyph-name="plussuperior" unicode="&#x207a;" horiz-adv-x="591" 
d="M348 1106v-205h-104v205h-203v104h203v201h104v-201h203v-104h-203z" />
    <glyph glyph-name="uni207B" unicode="&#x207b;" horiz-adv-x="608" 
d="M567 1106h-526v104h526v-104z" />
    <glyph glyph-name="equalsuperior" unicode="&#x207c;" horiz-adv-x="608" 
d="M567 1126v-102h-526v102h526zM567 1307v-105h-526v105h526z" />
    <glyph glyph-name="parenleftsuperior" unicode="&#x207d;" horiz-adv-x="333" 
d="M188 1118q0 -106 28 -206t52 -150q24 -49 80 -152h-117q-150 270 -150 506t150 506h123q-57 -96 -84 -147q-26 -51 -54 -151t-28 -206z" />
    <glyph glyph-name="parenrightsuperior" unicode="&#x207e;" horiz-adv-x="333" 
d="M252 1116q0 -236 -150 -506h-116q57 102 81 152t51 149q57 202 0 412q-28 99 -54 151t-84 148h122q150 -270 150 -506z" />
    <glyph glyph-name="nsuperior" unicode="&#x207f;" horiz-adv-x="1296" 
d="M714 1073q216 0 317.5 -88t101.5 -311v-674h-123v641q0 164 -60.5 240.5t-263.5 76.5t-399 -153v-805h-123v1051h88l31 -123q215 145 431 145z" />
    <glyph glyph-name="zeroinferior" unicode="&#x2080;" 
d="M407 459q-98 0 -160 -77q-63 -77 -63 -221t62 -217t160 -73t164 73t65 218q0 145 -65 221t-163 76zM82 162q0 166 87 278t240 113q153 0 241 -113q88 -114 87 -280q0 -166 -90 -275t-238 -109t-238 110q-89 110 -89 276z" />
    <glyph glyph-name="oneinferior" unicode="&#x2081;" 
d="M434 -205v627l-221 -57v92l319 92v-754h-98z" />
    <glyph glyph-name="twoinferior" unicode="&#x2082;" 
d="M404 553q114 -1 186 -63t72 -168q0 -199 -371 -433h373v-94h-533v88q4 4 132 92q296 204 296 342q0 61 -44 101t-134 41q-90 0 -225 -45v96q134 43 248 43z" />
    <glyph glyph-name="threeinferior" unicode="&#x2083;" 
d="M684 14q0 -115 -87 -176t-214 -61t-248 37v98q129 -41 230 -41q215 0 219 139q0 91 -82 115q-68 20 -168 20h-88v58l237 235h-350v94h498v-81l-230 -222q133 -8 208 -54t75 -161z" />
    <glyph glyph-name="fourinferior" unicode="&#x2084;" 
d="M750 -6h-119v-199h-99v199h-448v82q147 219 373 456h116q-209 -221 -370 -444h329v225h99v-225h119v-94z" />
    <glyph glyph-name="fiveinferior" unicode="&#x2085;" 
d="M635 438h-350l-23 -176q63 18 139 19q147 0 221 -71q74 -70 72 -180q0 -110 -78 -182t-223 -72t-256 46v96q125 -47 235 -47t166 42q54 42 54 118q0 162 -211 162q-86 0 -223 -48l49 387h428v-94z" />
    <glyph glyph-name="sixinferior" unicode="&#x2086;" 
d="M425 205q-89 0 -144 -46t-55 -119t48 -121t138 -48t144 46t54 123t-48 121t-137 44zM446 299q125 0 196 -73t71 -182t-82 -188t-213 -79t-213 81t-82 224q0 204 134 326t355 145v-90q-128 -8 -236 -76t-147 -174q33 39 95 63t122 23z" />
    <glyph glyph-name="seveninferior" unicode="&#x2087;" 
d="M690 532v-59q-254 -385 -362 -678h-105q127 317 336 643h-401v94h532z" />
    <glyph glyph-name="eightinferior" unicode="&#x2088;" 
d="M410 133q-92 0 -144 -39q-52 -38 -51 -102q0 -64 57 -94q58 -30 136 -31q78 0 137 30t59 93t-51 103t-143 40zM410 463q-166 0 -166 -113q0 -55 46 -91t119 -36t119 36t45 91q1 55 -43 84t-120 29zM410 553q110 0 186 -51q76 -52 76 -154t-119 -164q152 -59 152 -186
q0 -106 -82 -164t-213 -57q-131 0 -213 59t-82 172t149 178q-119 66 -119 164t77 150t188 53z" />
    <glyph glyph-name="nineinferior" unicode="&#x2089;" 
d="M399 119q90 0 146 47q55 47 55 122t-49 123t-138 48t-143 -46t-55 -126q0 -80 47 -124t137 -44zM408 553q131 0 213 -81t81 -224q0 -204 -134 -326t-355 -145v98q129 8 236 73q106 65 145 169q-33 -39 -93 -63t-122 -23q-125 1 -196 73t-71 182t83 188q82 79 213 79z" />
    <glyph glyph-name="uni208A" unicode="&#x208a;" horiz-adv-x="591" 
d="M348 102v-204h-104v204h-203v105h203v201h104v-201h203v-105h-203z" />
    <glyph glyph-name="uni208B" unicode="&#x208b;" horiz-adv-x="608" 
d="M567 102h-526v105h526v-105z" />
    <glyph glyph-name="uni208C" unicode="&#x208c;" horiz-adv-x="608" 
d="M567 123v-103h-526v103h526zM567 303v-104h-526v104h526z" />
    <glyph glyph-name="uni208D" unicode="&#x208d;" horiz-adv-x="333" 
d="M188 114q0 -106 28 -206t52 -150t80 -151h-117q-150 269 -150 505t150 506h123q-57 -96 -84 -147q-26 -51 -54 -151t-28 -206z" />
    <glyph glyph-name="uni208E" unicode="&#x208e;" horiz-adv-x="333" 
d="M252 112q0 -236 -150 -505h-116q57 102 81 151q23 50 51 150q56 204 0 411q-28 99 -54 151t-84 148h122q150 -270 150 -506z" />
    <glyph glyph-name="franc" unicode="&#x20a3;" horiz-adv-x="1144" 
d="M303 1212v-464h698v-119h-698v-232h451v-118h-451v-279h-129v279h-174v118h174v934h889v-119h-760z" />
    <glyph glyph-name="lira" unicode="&#x20a4;" horiz-adv-x="1114" 
d="M1104 0h-930v92q172 141 172 375v55h-205v111h205v123h-205v110h205v176q0 170 91 242t233 72t282 -45v-117q-142 47 -262 47t-168 -48t-47 -159v-168h365v-110h-365v-123h365v-111h-363v-16q0 -289 -133 -387h760v-119z" />
    <glyph glyph-name="peseta" unicode="&#x20a7;" horiz-adv-x="2236" 
d="M1718 451q0 -49 105 -72l116 -25q145 -34 179 -108q16 -35 16 -82q0 -104 -76 -146t-200 -43q-124 0 -254 33v113q135 -43 239 -43q178 0 178 84q0 66 -96 84l-166 41q-152 35 -151 162q0 55 23 92q55 84 289 84q82 0 191 -29v-102q-123 29 -221 28q-172 0 -172 -71z
M1303 610h202v-100h-202v-342q0 -51 21 -70q22 -18 65 -18t118 16v-104q-59 -16 -114 -17q-199 0 -199 187v348h-113v100h113v135h109v-135zM303 1212v-637h313q158 0 264 73q105 73 105 244t-103 246t-266 74h-313zM174 1331h469q125 0 214 -39t141 -85t88 -127t36 -186
t-36 -187t-88 -127t-141 -84t-214 -39h-340v-457h-129v1331z" />
    <glyph glyph-name="Euro" unicode="&#x20ac;" horiz-adv-x="1538" 
d="M1006 98q131 0 216 16t203 64v-129q-180 -74 -433 -74t-436 117t-241 361h-264l41 110h207q-4 57 -4 90t4 90h-188l41 111h161q51 250 231 376t436 126q255 0 433 -80v-131q-170 88 -424 88q-444 0 -536 -379h618l-41 -111h-594q-4 -57 -4 -90t4 -90h576l-41 -110h-512
q53 -182 199 -269q147 -86 348 -86z" />
    <glyph glyph-name="uni20B9" unicode="&#x20b9;" horiz-adv-x="1132" 
d="M463 1221h-361l27 110h942l-27 -110h-292q111 -88 122 -240h197l-27 -111h-178q-28 -137 -146 -226t-286 -120l400 -524h-140l-403 530l41 97q162 0 270 62t135 181h-635l27 111h619q-16 240 -285 240z" />
    <glyph glyph-name="uni20BA" unicode="&#x20ba;" horiz-adv-x="1236" 
d="M1026 676h129q0 -300 -207 -488t-502 -188q-94 0 -127 2v494l-217 -119v119l217 118v230l-217 -119v119l217 119v368h130v-299l370 201v-119l-370 -201v-229l370 201v-119l-370 -201v-448q245 1 411 153t166 406z" />
    <glyph glyph-name="uni20BC" unicode="&#x20bc;" horiz-adv-x="1243" 
d="M303 657h354q268 0 339 141q30 60 30 148q0 142 -103 204t-266 62h-354v-555zM303 539v-142h451v-118h-451v-279h-129v279h-174v118h174v142h-174v118h174v674h485q141 0 237 -33q96 -32 146 -72t86 -112q35 -72 35 -171t-37 -178t-89 -121t-147 -74t-233 -31h-354z" />
    <glyph glyph-name="uni20BD" unicode="&#x20bd;" horiz-adv-x="1243" 
d="M303 657h354q268 0 339 141q30 60 30 148q0 142 -103 204t-266 62h-354v-555zM303 539v-142h451v-118h-451v-279h-129v279h-174v118h174v142h-174v118h174v674h485q141 0 237 -33q96 -32 146 -72t86 -112q35 -72 35 -171t-37 -178t-89 -121t-147 -74t-233 -31h-354z" />
    <glyph glyph-name="uni2105" unicode="&#x2105;" horiz-adv-x="1875" 
d="M1464 526q-98 0 -158 -59t-60 -159t54 -162t162 -62t161 60q52 60 52 162t-56 161q-57 59 -155 59zM1462 629q142 0 232 -84t90 -243t-87 -241q-87 -81 -231 -81t-238 84q-93 84 -93 239q0 156 93 241t234 85zM643 0h-127l690 1331h123zM426 1356q88 0 225 -39v-103
q-125 39 -223 39t-162 -56q-64 -55 -63 -161q0 -106 62 -166q61 -60 163 -59q102 0 231 45v-104q-125 -45 -249 -45t-221 85q-97 86 -97 242t96 239q97 83 238 83z" />
    <glyph glyph-name="uni2113" unicode="&#x2113;" horiz-adv-x="833" 
d="M328 1075v-395q299 254 299 528q0 182 -150 182q-77 0 -113 -72q-36 -73 -36 -243zM496 106q66 0 122 19l3 -111q-72 -23 -144 -22q-113 0 -191 68t-79 196v213q-51 -35 -111 -68l-45 86q100 59 156 101v487q0 430 278 430q113 0 190 -79t77 -218q0 -336 -424 -653v-266
q0 -183 168 -183z" />
    <glyph glyph-name="uni2116" unicode="&#x2116;" horiz-adv-x="2609" 
d="M2456 0h-809v115h809v-115zM2055 1247q-155 0 -250 -94t-95 -250t87 -254t257 -98t252 96t82 255t-89 252t-244 93zM1315 0h-111l-905 1194v-1194h-125v1331h174l842 -1108v1108h125v-1331zM2053 1356q200 0 327 -118t127 -342t-124 -340t-327 -116t-334 118t-131 338
t131 340t331 120z" />
    <glyph glyph-name="uni2117" unicode="&#x2117;" horiz-adv-x="1757" 
d="M719 1065v-371h225q55 0 100 12t85 57q40 44 40 128t-62 129t-159 45h-229zM719 612v-303h-88v838h330q97 0 190 -51q49 -27 81 -81t32 -130q0 -143 -80 -203t-236 -70h-229zM180 743q0 -289 202 -493t494 -203t498 201t205 491q0 291 -205 496q-204 205 -496 205
t-495 -204t-203 -493zM879 1511q330 0 550 -222t220 -546q1 -325 -221 -545t-552 -220t-548 218q-219 218 -219 544t220 549q220 222 550 222z" />
    <glyph glyph-name="trademark" unicode="&#x2122;" horiz-adv-x="1607" 
d="M1331 1331h111q74 -264 135 -741h-107q-59 438 -98 584q-53 -129 -198 -510h-78q-111 295 -201 505q-37 -145 -100 -579h-107q61 457 137 741h111q96 -223 197 -479q114 286 198 479zM694 1227h-278v-637h-107v637h-278v104h663v-104z" />
    <glyph glyph-name="Ohm" unicode="&#x2126;" horiz-adv-x="1613" 
d="M1505 674q1 -188 -67 -330t-181 -227h242v-117h-547v104q152 0 284 157t132 420t-153 407t-409 145q-256 0 -408 -144q-152 -143 -152 -407t132 -421t284 -157v-104h-547v117h241q-113 84 -180 226q-68 142 -67 331q0 309 185 495q185 187 513 187t513 -186t185 -496z
" />
    <glyph glyph-name="estimated" unicode="&#x212e;" horiz-adv-x="1695" 
d="M845 1305q-259 0 -444 -185q-29 -27 -28 -80v-329q0 -23 26 -23h895q27 0 27 23v329q0 51 -31 80q-186 185 -445 185zM848 1356q346 0 550 -206t204 -507h-1203q-27 0 -26 -22v-330q0 -59 28 -86q184 -180 447 -180q141 0 266 59t205 158h135q-78 -109 -232 -187
t-374 -78q-340 0 -548 193t-208 493q0 301 205 497t551 196z" />
    <glyph glyph-name="oneeighth" unicode="&#x215b;" horiz-adv-x="1869" 
d="M1460 338q-92 0 -143 -39t-51 -103t57 -94t135 -30t137 30t59 92q0 64 -50 104q-52 40 -144 40zM1460 668q-166 0 -166 -113q0 -55 46 -91t119 -36t119 36t46 91t-44 84t-120 29zM1460 758q111 0 187 -51q75 -51 75 -153t-118 -165q152 -59 151 -186q0 -105 -82 -163
t-213 -58t-213 59t-82 172t150 178q-119 66 -119 164q0 99 76 151t188 52zM618 0h-126l690 1331h123zM434 582v626l-221 -57v92l319 92v-753h-98z" />
    <glyph glyph-name="threeeighths" unicode="&#x215c;" horiz-adv-x="1869" 
d="M1460 338q-92 0 -143 -39t-51 -103t57 -94t135 -30t137 30t59 92q0 64 -50 104q-52 40 -144 40zM1460 668q-166 0 -166 -113q0 -55 46 -91t119 -36t119 36t46 91t-44 84t-120 29zM1460 758q111 0 187 -51q75 -51 75 -153t-118 -165q152 -59 151 -186q0 -105 -82 -163
t-213 -58t-213 59t-82 172t150 178q-119 66 -119 164q0 99 76 151t188 52zM489 0l691 1331h123l-687 -1331h-127zM684 813q0 -115 -87 -176t-214 -61t-248 36v99q129 -41 230 -41q215 0 219 139q0 91 -82 115q-68 20 -168 20h-88v57l237 236h-350v94h498v-82l-230 -221
q133 -8 208 -54t75 -161z" />
    <glyph glyph-name="fiveeighths" unicode="&#x215d;" horiz-adv-x="1871" 
d="M1462 338q-92 0 -143 -39t-51 -103t57 -94t135 -30t137 30t59 92q0 64 -50 104q-52 40 -144 40zM1462 668q-166 0 -166 -113q0 -55 46 -91t119 -36t119 36t46 91t-44 84t-120 29zM1462 758q111 0 187 -51q75 -51 75 -153t-118 -165q152 -59 151 -186q0 -105 -82 -163
t-213 -58t-213 59t-82 172t150 178q-119 66 -119 164q0 99 76 151t188 52zM496 0l690 1331h123l-686 -1331h-127zM635 1237h-350l-23 -176q63 18 139 18q147 0 221 -70q72 -71 72 -181t-78 -181q-78 -72 -223 -72t-256 46v96q125 -47 235 -47t166 42q54 42 54 117
q0 162 -211 162q-86 0 -223 -47l49 387h428v-94z" />
    <glyph glyph-name="seveneighths" unicode="&#x215e;" horiz-adv-x="1777" 
d="M1368 338q-92 0 -143 -39t-51 -103t57 -94t135 -30t137 30t59 92q0 64 -50 104q-52 40 -144 40zM1368 668q-166 0 -166 -113q0 -55 46 -91t119 -36t119 36t46 91t-44 84t-120 29zM1368 758q110 0 186 -51t76 -153t-119 -165q152 -59 152 -186q0 -105 -82 -163t-213 -58
t-213 59t-82 172t150 178q-119 66 -119 164q0 99 76 151t188 52zM397 0l690 1331h123l-686 -1331h-127zM690 1331v-59q-254 -385 -362 -678h-105q127 317 336 643h-401v94h532z" />
    <glyph glyph-name="Sevenroman" unicode="&#x2166;" horiz-adv-x="2273" 
d="M2099 0h-129v1331h129v-1331zM1622 0h-129v1331h129v-1331zM1182 1331h137q-109 -334 -286 -745t-296 -586h-151q-78 108 -254 480t-332 851h135q88 -277 260 -677t262 -541q222 335 525 1218z" />
    <glyph glyph-name="partialdiff" unicode="&#x2202;" horiz-adv-x="1302" 
d="M662 90q412 0 411 514l-2 62q-131 122 -235 166t-249 44t-251 -102q-106 -104 -107 -313q0 -145 111 -258t322 -113zM1200 604q0 -324 -145 -476t-389 -153q-244 0 -404 131t-160 355q0 270 142 400t374 130q230 0 439 -170q-41 248 -189 376t-407 173l37 111
q342 -63 522 -269t180 -608z" />
    <glyph glyph-name="increment" unicode="&#x2206;" horiz-adv-x="1318" 
d="M174 119h965q-141 377 -283 696q-141 319 -199 408q-192 -305 -483 -1104zM1288 0h-1259v92q152 451 317 794q166 343 240 445h151q72 -104 236 -450t315 -787v-94z" />
    <glyph glyph-name="product" unicode="&#x220f;" horiz-adv-x="1456" 
d="M1282 -410h-129v1706h-850v-1706h-129v1825h1108v-1825z" />
    <glyph glyph-name="summation" unicode="&#x2211;" horiz-adv-x="1218" 
d="M1126 -293v-117h-1034v93l635 819l-635 821v92h1034v-117h-860l578 -749v-92l-578 -750h860z" />
    <glyph glyph-name="minus" unicode="&#x2212;" horiz-adv-x="1060" 
d="M969 618h-877v115h877v-115z" />
    <glyph glyph-name="divisionslash" unicode="&#x2215;" horiz-adv-x="1048" 
d="M272 0h-129l633 1331h129z" />
    <glyph glyph-name="bulletoperator" unicode="&#x2219;" horiz-adv-x="370" 
d="M430 483h-317v301h317v-301z" />
    <glyph glyph-name="radical" unicode="&#x221a;" horiz-adv-x="1114" 
d="M623 -410h-146l-340 701l-92 -45l-45 92l205 94l327 -694l373 1798h127z" />
    <glyph glyph-name="infinity" unicode="&#x221e;" horiz-adv-x="1368" 
d="M1174 653q0 83 -39 135t-101 52q-100 0 -187 -88q-30 -31 -91 -103l34 -34q26 -26 42 -45t53 -46q37 -28 47 -32t31 -12t59 -9q76 0 114 49t38 133zM334 840q-62 0 -101 -52t-39 -135q0 -84 38 -133t109 -49t123 38q16 13 34 26t36 34t45 47l33 33q-61 72 -91 103
q-30 32 -78 60q-47 28 -109 28zM1024 948q125 0 194 -81q68 -81 68 -210t-71 -212t-183 -83q-70 0 -130 30t-97 65t-121 123q-84 -88 -121 -123t-97 -65t-130 -30q-114 0 -184 83t-70 211t72 210t190 82q70 0 149 -43q26 -13 127 -114q9 -10 64 -74q120 135 186 183t154 48z
" />
    <glyph glyph-name="integral" unicode="&#x222b;" horiz-adv-x="655" 
d="M535 1536q59 0 120 -14v-111q-61 10 -128 10t-103 -39t-35 -135v-1380q0 -301 -270 -301q-66 0 -119 12v113q61 -10 128 -10q66 -1 102 37t36 135v1380q1 303 269 303z" />
    <glyph glyph-name="approxequal" unicode="&#x2248;" horiz-adv-x="1060" 
d="M868 604h101q-1 -94 -57 -146t-156 -52t-226 40t-232 39q-106 0 -105 -79h-101q0 92 55 145t157 53t228 -40t207 -40t105 18t24 62zM868 911h101q-1 -94 -57 -146t-156 -52t-226 40t-232 40t-105 -80h-101q0 92 55 145t157 53t228 -40t207 -40q81 1 105 19t24 61z" />
    <glyph glyph-name="notequal" unicode="&#x2260;" horiz-adv-x="1060" 
d="M969 762h-328l-98 -209h426v-115h-477l-97 -205h-129l96 205h-270v115h328l100 209h-428v115h477l97 204h129l-97 -204h271v-115z" />
    <glyph glyph-name="lessequal" unicode="&#x2264;" horiz-adv-x="1228" 
d="M1114 115v-115h-1022v115h1022zM1114 1024l-878 -328l878 -323v-123l-1022 387v121l1022 389v-123z" />
    <glyph glyph-name="greaterequal" unicode="&#x2265;" horiz-adv-x="1206" 
d="M1114 0h-1022v115h1022v-115zM1114 758v-121l-1022 -387v123l879 323l-879 328v123z" />
    <glyph glyph-name="lozenge" unicode="&#x25ca;" horiz-adv-x="1134" 
d="M184 676l383 -578l381 578l-381 561zM1094 676l-473 -701h-107l-473 701l473 680h107z" />
    <glyph glyph-name="uni5143" unicode="&#x5143;" horiz-adv-x="1634" 
d="M1417 780h-409v-579q0 -67 36 -89t118 -22q83 0 134 53t99 166l108 -61q-59 -133 -110 -185q-88 -88 -233 -88q-146 -1 -214 47t-67 171v587h-256v-170q0 -225 -166 -383q-121 -115 -279 -213q-57 -36 -65 -41l-68 107q18 12 88 58t137 96q66 52 85 74t55 64q35 42 47 79
q36 110 37 188v141h-408v119h1331v-119zM1341 1212h-1179v119h1179v-119z" />
    <glyph glyph-name="Kanji" unicode="&#x5186;" horiz-adv-x="1517" 
d="M1214 1212h-397v-505h397v505zM700 1212h-397v-505h397v505zM1214 242v346h-911v-588h-129v1331h1169v-1083q0 -272 -303 -273q-16 0 -127 7v116l88 -4q109 0 161 31t52 117z" />
    <glyph glyph-name="uniF8FF" unicode="&#xf8ff;" horiz-adv-x="1003" 
d="M885 115v1306h-766v-1306h766zM1004 1536v-1536h-1004v1536h1004z" />
    <glyph glyph-name="fi" unicode="&#xfb01;" horiz-adv-x="1095" 
d="M930 0h-123v1051h123v-1051zM944 1221h-151v135h151v-135zM522 1481q72 0 174 -25v-117q-100 27 -188 27t-134 -42t-46 -153v-120h364v-111h-364v-940h-123v940h-205v111h205v129q0 301 317 301z" />
    <glyph glyph-name="fl" unicode="&#xfb02;" horiz-adv-x="1093" 
d="M930 0h-123v1415h123v-1415zM522 1481q72 0 174 -25v-117q-100 27 -188 27t-134 -42t-46 -153v-120h364v-111h-364v-940h-123v940h-205v111h205v129q0 301 317 301z" />
    <glyph glyph-name="uniFEFF" unicode="&#xfeff;" horiz-adv-x="1228" 
 />
    <glyph glyph-name="NULL" horiz-adv-x="1228" 
 />
    <glyph glyph-name="zero.dnom" 
d="M407 664q-98 0 -160 -77q-63 -77 -63 -221t62 -218t160 -72q98 0 164 72t65 218q0 146 -65 222t-163 76zM82 367q0 167 87 279t240 112t241 -113t87 -279q0 -166 -90 -276q-90 -108 -238 -108t-238 109q-89 110 -89 276z" />
    <glyph glyph-name="one.dnom" 
d="M434 0v627l-221 -58v93l319 92v-754h-98z" />
    <glyph glyph-name="two.dnom" 
d="M404 758q114 0 186 -62t72 -170q0 -199 -371 -432h373v-94h-533v88q4 4 132 92q296 204 296 342q0 62 -44 102t-134 40t-225 -46v97q134 43 248 43z" />
    <glyph glyph-name="three.dnom" 
d="M684 219q0 -115 -87 -176t-214 -61t-248 36v99q129 -41 230 -41q215 0 219 139q0 91 -82 115q-68 20 -168 20h-88v58l237 235h-350v94h498v-82l-230 -221q133 -8 208 -54t75 -161z" />
    <glyph glyph-name="four.dnom" 
d="M750 199h-119v-199h-99v199h-448v82q147 219 373 456h116q-209 -221 -370 -444h329v225h99v-225h119v-94z" />
    <glyph glyph-name="five.dnom" 
d="M635 643h-350l-23 -176q63 18 139 18q147 0 221 -70q72 -71 72 -181t-78 -181t-223 -71t-256 45v96q125 -47 235 -47t166 42q54 42 54 118q0 162 -211 161q-86 0 -223 -47l49 387h428v-94z" />
    <glyph glyph-name="six.dnom" 
d="M425 410q-89 0 -144 -46t-55 -119t48 -121t138 -48t144 46t54 123t-48 121t-137 44zM446 504q125 0 196 -73t71 -182t-82 -189t-213 -78q-131 0 -213 80t-82 225q0 205 134 327t355 144v-90q-128 -8 -236 -76t-147 -174q33 38 95 62t122 24z" />
    <glyph glyph-name="seven.dnom" 
d="M690 737v-59q-254 -385 -362 -678h-105q127 317 336 643h-401v94h532z" />
    <glyph glyph-name="eight.dnom" 
d="M410 338q-92 0 -144 -39t-51 -103q0 -64 57 -94q58 -30 136 -30t137 30t59 92q0 64 -51 104t-143 40zM410 668q-166 0 -166 -113q0 -55 46 -91t119 -36t119 36t45 91q1 55 -43 84t-120 29zM410 758q110 0 186 -51t76 -153t-119 -165q152 -59 152 -186q0 -105 -82 -163
t-213 -58t-213 59t-82 172t149 178q-119 66 -119 164q0 99 77 151t188 52z" />
    <glyph glyph-name="nine.dnom" 
d="M399 324q90 0 146 47q55 47 55 122t-49 123t-138 48t-143 -46t-55 -126q0 -80 47 -124t137 -44zM408 758q131 0 213 -81t81 -224q0 -205 -134 -327t-355 -144v98q129 8 236 73q106 65 145 169q-33 -39 -93 -63t-122 -23q-125 0 -196 72t-71 182t83 189q82 79 213 79z" />
    <glyph glyph-name="zero.numr" 
d="M407 1257q-98 -1 -160 -77q-63 -76 -63 -220t62 -218t160 -72q98 0 164 72t65 218q0 146 -65 222t-163 75zM82 961q0 167 87 279t240 112t241 -113t87 -279q0 -166 -90 -276q-90 -109 -238 -109t-238 110q-89 110 -89 276z" />
    <glyph glyph-name="one.numr" 
d="M434 594v627l-221 -58v92l319 93v-754h-98z" />
    <glyph glyph-name="two.numr" 
d="M404 1352q114 0 186 -62t72 -170q0 -199 -371 -432h373v-94h-533v88q4 4 132 92q296 204 296 342q0 62 -44 102q-91 84 -359 -6v97q134 43 248 43z" />
    <glyph glyph-name="three.numr" 
d="M684 813q0 -115 -87 -176t-214 -61t-248 36v99q129 -41 230 -41q215 0 219 139q0 91 -82 115q-68 20 -168 20h-88v57l237 236h-350v94h498v-82l-230 -221q133 -8 208 -54t75 -161z" />
    <glyph glyph-name="four.numr" 
d="M750 793h-119v-199h-99v199h-448v81q147 219 373 457h116q-209 -221 -370 -444h329v225h99v-225h119v-94z" />
    <glyph glyph-name="five.numr" 
d="M635 1237h-350l-23 -176q63 18 139 18q147 0 221 -70q72 -71 72 -181t-78 -181q-78 -72 -223 -72t-256 46v96q125 -47 235 -47t166 42q54 42 54 117q0 162 -211 162q-86 0 -223 -47l49 387h428v-94z" />
    <glyph glyph-name="six.numr" 
d="M610 839q0 77 -48 121t-137 44t-144 -46t-55 -120q0 -72 48 -120t138 -48t144 46t54 123zM446 1098q125 0 196 -73t71 -182t-82 -189t-213 -79q-131 0 -213 81t-82 225q0 205 134 327t355 144v-90q-128 -8 -236 -76t-147 -174q33 38 95 62t122 24z" />
    <glyph glyph-name="seven.numr" 
d="M690 1331v-59q-254 -385 -362 -678h-105q127 317 336 643h-401v94h532z" />
    <glyph glyph-name="eight.numr" 
d="M410 932q-92 0 -144 -39t-51 -103q0 -64 57 -94q58 -30 136 -30t137 30t59 92q0 64 -51 104t-143 40zM410 1262q-166 0 -166 -113q0 -55 46 -91t119 -36t119 36t45 91q1 55 -43 84t-120 29zM410 1352q110 0 186 -52t76 -153q0 -102 -119 -164q152 -59 152 -186
q0 -105 -82 -163t-213 -58t-213 58q-82 60 -82 173t149 178q-119 66 -119 164q0 99 77 151t188 52z" />
    <glyph glyph-name="nine.numr" 
d="M399 918q90 0 146 47q55 47 55 121t-49 123q-49 48 -138 48t-143 -46q-54 -45 -55 -125q0 -80 47 -124t137 -44zM379 829q-125 0 -196 73t-71 182q0 108 83 188q82 80 213 80t213 -81t81 -224q0 -205 -134 -327t-355 -145v99q129 8 236 72q106 65 145 169
q-33 -39 -93 -63t-122 -23z" />
    <glyph glyph-name="ampersand.001" horiz-adv-x="1394" 
d="M483 88q197 0 406 186q-86 76 -375 377q-156 -94 -219 -180t-63 -175q0 -88 65 -148q66 -60 186 -60zM630 1247q-88 0 -146 -52t-58 -127t26 -128t97 -141q12 8 44 25q32 18 46 26l42 24t62 43q33 27 54 57q32 44 32 87q0 86 -56 136t-143 50zM628 1358q162 0 246 -86
t84 -206t-122 -212q-58 -44 -129 -86q-72 -41 -89 -51q180 -211 357 -355q111 100 215 254h158q-152 -213 -281 -333q150 -125 358 -283h-204q-160 121 -242 195q-254 -231 -502 -232q-169 0 -277 89t-108 241q0 250 346 450q-143 173 -143 303t85 221t248 91z" />
    <glyph glyph-name="acute.case" horiz-adv-x="434" 
d="M166 1473h-105l152 296h160z" />
    <glyph glyph-name="breve.case" horiz-adv-x="643" 
d="M322 1501q-223 0 -261 217h111q10 -63 45 -93t105 -30t104 30t45 93h111q-37 -217 -260 -217z" />
    <glyph glyph-name="caron.alt" horiz-adv-x="339" 
d="M160 1118h-99l82 297h136z" />
    <glyph glyph-name="caron.case" horiz-adv-x="684" 
d="M418 1468h-152l-205 297h107l174 -204l174 204h107z" />
    <glyph glyph-name="circumflex.case" horiz-adv-x="684" 
d="M623 1468h-107l-174 205l-174 -205h-107l205 297h152z" />
    <glyph glyph-name="dieresis.case" horiz-adv-x="634" 
d="M573 1464h-155v140h155v-140zM217 1464h-156v140h156v-140z" />
    <glyph glyph-name="dotaccent.case" horiz-adv-x="278" 
d="M217 1464h-156v140h156v-140z" />
    <glyph glyph-name="grave.case" horiz-adv-x="434" 
d="M373 1473h-105l-207 296h160z" />
    <glyph glyph-name="hungarumlaut.case" horiz-adv-x="735" 
d="M467 1464h-105l152 297h160zM166 1464h-105l152 297h160z" />
    <glyph glyph-name="macron.case" horiz-adv-x="624" 
d="M563 1487h-502v115h502v-115z" />
    <glyph glyph-name="ring.case" horiz-adv-x="520" 
d="M260 1712q-47 0 -81 -21.5t-34 -66.5t34 -66.5t81 -21.5t81 21.5t34 66.5t-34 66.5t-81 21.5zM260 1456q-94 0 -146.5 46t-52.5 122t52.5 122t146.5 46t146.5 -46t52.5 -122t-52.5 -122t-146.5 -46z" />
    <glyph glyph-name="tilde.case" horiz-adv-x="692" 
d="M453 1530q-33 0 -109 22t-104 23q-61 0 -74 -59h-105q33 166 183 165q30 -1 104 -23t105 -22q63 1 73 60h105q-33 -166 -178 -166z" />
    <glyph glyph-name="brevecy" horiz-adv-x="0" 
d="M305 1217q-238 0 -244 221h121q4 -57 38 -92t94 -35t97.5 27.5t61.5 99.5h100q-51 -221 -268 -221z" />
    <glyph glyph-name="brevecy.case" horiz-adv-x="0" 
d="M305 1438q-238 0 -244 221h121q4 -57 38 -92t94 -35t97.5 27.5t61.5 99.5h100q-51 -221 -268 -221z" />
    <glyph glyph-name="tonos.cap" horiz-adv-x="389" 
d="M61 1036l103 295h164l-176 -295h-91z" />
    </font>
</defs>
</svg>
