<?xml version="1.0" standalone="no"?>
<!DOCTYPE svg PUBLIC "-//W3C//DTD SVG 1.1//EN" "http://www.w3.org/Graphics/SVG/1.1/DTD/svg11.dtd" >
<svg xmlns="http://www.w3.org/2000/svg">
<metadata>
Created by FontPrep 20130207 at Mon Mar 28 10:29:40 2016
 By Mauricio Duran
Copyright 2015 Nissan Motors Co., Ltd. All rights reserved.
</metadata>
<defs>
<font id="1992d6eca120e3e920a92dff3dfbc9e8" horiz-adv-x='1024' >
  <font-face 
    font-family="NissanBrand-Italic"
    font-weight="400"
    font-style="italic"
    font-stretch="normal"
    units-per-em="2048"
    panose-1="2 11 5 4 2 2 4 10 2 4"
    ascent="1528"
    descent="-520"
    x-height="1051"
    cap-height="1331"
    bbox="-395 -614 2654.01 2179"
    underline-thickness="102"
    underline-position="-153"
    slope="-12"
    unicode-range="U+000D-FEFF"
  />
<missing-glyph horiz-adv-x="1046" 
d="M868 174v1188h-690v-1188h690zM1047 1536v-1536h-1047v1536h1047z" />
    <glyph glyph-name="f_i.liga" unicode="fi" horiz-adv-x="1183" 
d="M750 0l219 1051h182l-217 -1051h-184zM997 1231l39 184h201l-39 -184h-201zM737 1456q90 0 176 -29l-34 -157q-74 24 -159 24t-127 -32t-61 -121l-18 -90h330l-31 -156h-330l-202 -981q-39 -186 -124 -267t-239 -81q-78 0 -160 22l35 154q98 -16 133 -16q82 0 118 53
t58 160l197 956h-190l30 156h193l22 102q37 175 131 239t252 64z" />
    <glyph glyph-name="f_l.liga" unicode="fl" horiz-adv-x="1181" 
d="M750 0l292 1415h185l-293 -1415h-184zM737 1456q90 0 176 -29l-34 -157q-74 24 -159 24t-127 -32t-61 -121l-18 -90h330l-31 -156h-330l-202 -981q-39 -186 -124 -267t-239 -81q-78 0 -160 22l35 154q98 -16 133 -16q82 0 118 53t58 160l197 956h-190l30 156h193l22 102
q37 175 131 239t252 64z" />
    <glyph glyph-name="f_f.liga" unicode="ff" horiz-adv-x="1363" 
d="M1402 1294q-85 0 -127 -32t-61 -121l-18 -90h330l-31 -156h-330l-202 -981q-39 -186 -124 -267t-239 -81q-78 0 -160 22l35 154q98 -16 133 -16q82 0 118 53t58 160l197 956h-498l-202 -981q-39 -186 -124 -267t-239 -81q-78 0 -160 22l35 154q98 -16 133 -16
q82 0 118 53t58 160l197 956h-190l30 156h193l22 102q37 174 131 239t252 64q90 0 176 -29l-34 -157q-74 24 -159 24t-127 -32t-61 -121l-18 -90h500l22 102q37 174 131 239t252 64q90 0 176 -29l-34 -157q-74 24 -159 24z" />
    <glyph glyph-name="f_f_i.liga" unicode="ffi" horiz-adv-x="1865" 
d="M1432 0l219 1051h182l-217 -1051h-184zM1718 1415h201l-39 -184h-201zM600 -434q-78 0 -160 22l35 154q98 -16 133 -16q82 0 118 53t58 160l197 956h-498l-202 -981q-39 -186 -124 -267t-239 -81q-78 0 -160 22l35 154q98 -16 133 -16q82 0 118 53t58 160l197 956h-190
l30 156h193l22 102q37 174 131 239t252 64q90 0 176 -29l-34 -157q-74 24 -159 24t-127 -32t-61 -121l-18 -90h500l22 102q37 174 131 239t252 64q90 0 176 -29l-34 -157q-74 24 -159 24t-127 -32t-61 -121l-18 -90h330l-31 -156h-330l-202 -981q-39 -186 -124 -267
t-239 -81z" />
    <glyph glyph-name="f_f_l.liga" unicode="ffl" horiz-adv-x="1863" 
d="M1724 1415h185l-293 -1415h-184zM600 -434q-78 0 -160 22l35 154q98 -16 133 -16q82 0 118 53t58 160l197 956h-498l-202 -981q-39 -186 -124 -267t-239 -81q-78 0 -160 22l35 154q98 -16 133 -16q82 0 118 53t58 160l197 956h-190l30 156h193l22 102q37 174 131 239
t252 64q90 0 176 -29l-34 -157q-74 24 -159 24t-127 -32t-61 -121l-18 -90h500l22 102q37 174 131 239t252 64q90 0 176 -29l-34 -157q-74 24 -159 24t-127 -32t-61 -121l-18 -90h330l-31 -156h-330l-202 -981q-39 -186 -124 -267t-239 -81z" />
    <glyph glyph-name=".notdef" horiz-adv-x="1046" 
d="M868 174v1188h-690v-1188h690zM1047 1536v-1536h-1047v1536h1047z" />
    <glyph glyph-name=".null" horiz-adv-x="0" 
 />
    <glyph glyph-name="nonmarkingreturn" horiz-adv-x="681" 
 />
    <glyph glyph-name="CR" unicode="&#xd;" horiz-adv-x="514" 
 />
    <glyph glyph-name="space" unicode=" " horiz-adv-x="514" 
 />
    <glyph glyph-name="exclam" unicode="!" horiz-adv-x="409" 
d="M205 0h-205l41 199h205zM481 1331l-225 -969h-152l177 969h200z" />
    <glyph glyph-name="quotedbl" unicode="&#x22;" horiz-adv-x="696" 
d="M666 1010h-138l74 471h186zM336 1010h-135l71 471h189z" />
    <glyph glyph-name="numbersign" unicode="#" horiz-adv-x="1228" 
d="M623 893l-125 -322h254l122 322h-251zM1087 1036h213l-30 -143h-238l-123 -322h215l-30 -145h-240l-164 -426h-158l162 426h-252l-163 -426h-158l164 426h-215l30 145h242l123 322h-215l31 143h239l172 445h158l-172 -445h252l172 445h158z" />
    <glyph glyph-name="dollar" unicode="$" horiz-adv-x="1120" 
d="M846 380q0 77 -47 117t-137 72l-84 -401q124 20 196 78t72 134zM352 987q0 -76 51 -117t148 -71l78 372q-119 -14 -198 -61t-79 -123zM1182 1290l-39 -186q-158 61 -357 72l-88 -420q204 -60 277 -141q74 -81 76 -205q-1 -178 -139 -293t-373 -137l-39 -185h-156l37 182
q-106 4 -215 26t-162 42l-55 18l41 187q207 -84 430 -92l94 454q-82 25 -134 45q-52 19 -112 59q-118 79 -116 240q0 186 143 284t373 114l37 182h155l-37 -182q188 -12 314 -51z" />
    <glyph glyph-name="percent" unicode="%" horiz-adv-x="1806" 
d="M1436 612q-115 0 -173 -112q-59 -112 -59 -246q0 -133 125 -133q111 1 166 111t55 231q1 149 -114 149zM1464 756q125 0 200 -75t75 -196q0 -174 -95 -332q-48 -79 -134 -128t-212 -49t-200 76q-74 77 -74 202q0 174 94 331q47 77 134 124t212 47zM678 1063
q0 149 -115 149t-173 -112t-58 -246q0 -133 125 -133q111 1 166 111t55 231zM565 0h-203l965 1331h199zM592 1356q125 0 200 -74t74 -197q0 -178 -95 -332q-48 -79 -134 -128t-212 -49t-200 76q-74 77 -73 202q0 177 94 331q47 77 134 124t212 47z" />
    <glyph glyph-name="ampersand" unicode="&#x26;" horiz-adv-x="1441" 
d="M434 145q176 0 379 140q-160 172 -264 323q-289 -139 -289 -311q0 -66 43 -109t131 -43zM383 -25q-156 0 -242 80t-86 202t88 239t328 231q-86 152 -86 237q0 152 99 269q50 57 144 92t213 35q118 0 219 -20t150 -48l-36 -184q-168 86 -310 86t-213 -55q-72 -55 -69 -154
q2 -174 383 -582q137 125 245 271h220q-193 -231 -361 -381q86 -86 303 -293h-278q-106 102 -174 172q-279 -197 -537 -197z" />
    <glyph glyph-name="quotesingle" unicode="'" horiz-adv-x="368" 
d="M336 1010h-135l71 471h189z" />
    <glyph glyph-name="parenleft" unicode="(" horiz-adv-x="602" 
d="M346 341q0 -99 8 -187t23 -142q14 -55 21 -82q6 -28 24 -72t37 -96t28 -61h-188q-121 331 -121 609t114 552t365 588h191q-113 -147 -166 -221t-132 -202t-114 -224q-34 -95 -62 -229t-28 -233z" />
    <glyph glyph-name="parenright" unicode=")" horiz-adv-x="602" 
d="M477 842q1 -278 -113 -552t-366 -589h-191q113 147 166 221t132 202t114 224q92 252 90 508q0 168 -29 279q-29 110 -47 156t-37 98t-28 61h188q121 -330 121 -608z" />
    <glyph glyph-name="asterisk" unicode="*" horiz-adv-x="774" 
d="M737 1253l-157 -174l235 -2l-12 -116l-228 51l115 -213l-108 -39l-72 219l-121 -203l-92 66l158 180h-238l12 117l234 -47l-121 204l107 43l77 -219l117 199z" />
    <glyph glyph-name="plus" unicode="+" horiz-adv-x="1103" 
d="M649 172h-174v352h-352v174h352v353h174v-353h352v-174h-352v-352z" />
    <glyph glyph-name="comma" unicode="," horiz-adv-x="391" 
d="M16 -264h-176l223 463h218z" />
    <glyph glyph-name="hyphen" unicode="-" horiz-adv-x="903" 
d="M803 537h-676l37 174h676z" />
    <glyph glyph-name="period" unicode="." horiz-adv-x="385" 
d="M205 0h-205l41 199h205z" />
    <glyph glyph-name="slash" unicode="/" horiz-adv-x="1032" 
d="M123 -164h-209l1069 1565h213z" />
    <glyph glyph-name="zero" unicode="0" horiz-adv-x="1363" 
d="M817 1180q-186 0 -339 -161q-75 -79 -121 -214t-46 -297t84 -257t213 -95q178 0 337 163q77 79 126 215t49 298t-88 255t-215 93zM860 1356q209 0 330 -144t121 -372q0 -371 -212 -618t-515 -247q-213 -1 -339 145t-126 378q-1 370 207 614t534 244z" />
    <glyph glyph-name="one" unicode="1" horiz-adv-x="763" 
d="M477 1130l-354 -90l37 168l549 148l-283 -1356h-186z" />
    <glyph glyph-name="two" unicode="2" horiz-adv-x="1163" 
d="M733 1356q197 0 305 -86t107 -238q0 -100 -52 -202t-129 -187q-187 -204 -638 -467h669l-37 -176h-954l31 166q31 20 113 72t130 85q48 32 131 87t135 96t121 96t147 142q126 141 126 243q0 101 -60 147t-219 46t-391 -101l39 191q229 86 426 86z" />
    <glyph glyph-name="three" unicode="3" horiz-adv-x="1161" 
d="M1059 465q0 -229 -180 -359t-471 -131q-182 0 -394 74l39 184q199 -77 391 -77t308 76q115 76 114 214q0 102 -83 150q-83 47 -324 47h-72l41 152l449 360h-629l37 176h905l-31 -139l-500 -393q151 -8 266 -75q62 -36 98 -102t36 -157z" />
    <glyph glyph-name="four" unicode="4" horiz-adv-x="1257" 
d="M35 303v127q190 217 449 466t493 435h248q-233 -188 -489 -430t-419 -432h482l67 322h191l-68 -322h197l-35 -166h-197l-61 -303h-193l64 303h-729z" />
    <glyph glyph-name="five" unicode="5" horiz-adv-x="1167" 
d="M627 856q205 0 329 -105t125 -293q0 -188 -173 -335t-474 -148q-233 0 -424 76l39 187q193 -82 401 -82t324 86t117 227q0 98 -78 163q-77 64 -261 64t-390 -82l209 717h807l-39 -176h-637l-96 -326q92 27 221 27z" />
    <glyph glyph-name="six" unicode="6" horiz-adv-x="1228" 
d="M562 143q146 -1 258 99q114 100 114 250q0 116 -82 182t-205 65q-159 0 -267 -94t-108 -239q0 -113 72 -188t218 -75zM541 -25q-215 0 -339 115q-124 116 -124 312t82 363q155 316 551 479q184 77 395 108l-27 -178q-205 -28 -413 -134t-306 -260q51 45 149 83
q97 38 185 38q205 0 319 -114q113 -114 113 -307t-160 -349t-425 -156z" />
    <glyph glyph-name="seven" unicode="7" horiz-adv-x="1095" 
d="M1208 1331v-119q-635 -731 -915 -1212h-221q299 508 856 1155h-760l35 176h1005z" />
    <glyph glyph-name="eight" unicode="8" horiz-adv-x="1253" 
d="M254 342q0 -204 310 -203q144 0 262 69q120 69 120 204q0 88 -74 148t-217 61q-193 0 -297 -86q-104 -87 -104 -193zM758 1194q-134 0 -226 -67t-92 -173q0 -76 65 -132t195 -56t231 76t101 167q0 185 -274 185zM246 948q0 186 160 296t370 110q211 0 334 -74t123 -218
t-90 -236t-207 -124q82 -26 144 -100t63 -180q0 -205 -169 -326t-423 -121q-494 0 -494 357q0 135 109 239t242 131q-70 33 -116 99t-46 147z" />
    <glyph glyph-name="nine" unicode="9" horiz-adv-x="1228" 
d="M1008 926q0 114 -72 188t-218 74t-256 -99t-110 -249q0 -117 80 -183t201 -65q159 0 267 94t108 240zM739 1356q215 0 339 -115t124 -311t-82 -364q-154 -314 -551 -479q-184 -77 -395 -107l27 182q207 27 405 125t295 250q-37 -37 -131 -72t-182 -35q-207 0 -320 114
q-112 114 -112 308t160 348q160 156 423 156z" />
    <glyph glyph-name="colon" unicode=":" horiz-adv-x="464" 
d="M205 0h-205l41 199h205zM362 745h-204l41 199h204z" />
    <glyph glyph-name="semicolon" unicode=";" horiz-adv-x="471" 
d="M16 -264h-176l223 463h218zM369 745h-205l41 199h205z" />
    <glyph glyph-name="less" unicode="&#x3c;" horiz-adv-x="1206" 
d="M1159 997l-852 -331l852 -326v-176l-1042 409v189l1042 412v-177z" />
    <glyph glyph-name="equal" unicode="=" horiz-adv-x="1099" 
d="M1024 317h-881v175h881v-175zM1024 711h-881v174h881v-174z" />
    <glyph glyph-name="greater" unicode="&#x3e;" horiz-adv-x="1206" 
d="M1153 762v-189l-1042 -409v176l852 326l-852 331v177z" />
    <glyph glyph-name="question" unicode="?" horiz-adv-x="1114" 
d="M444 0h-204l41 199h204zM652 1356q222 0 348 -74q124 -74 124 -221q0 -117 -56 -199t-139 -127t-168 -85q-210 -99 -237 -232l-16 -84h-191l19 96q20 110 89 188t152 121t163 81q185 88 186 214q0 147 -281 148q-213 0 -461 -99l37 183q209 90 431 90z" />
    <glyph glyph-name="at" unicode="@" horiz-adv-x="1998" 
d="M729 457q0 -221 240 -221q115 0 219 71l84 404q-82 69 -228 69t-230 -106q-85 -106 -85 -217zM1208 1423q326 0 538 -166t212 -462q0 -249 -139 -493q-65 -114 -173 -186t-246 -71q-138 0 -198 117q-112 -86 -280 -86t-271 95q-102 95 -102 270t122 332q59 77 165 125
t245 48t248 -74l29 62h135l-127 -617q-20 -104 82 -104t180 100q78 101 112 225t34 232q0 240 -162 360t-422 121q-180 0 -332 -56t-254 -147t-175 -207q-138 -219 -138 -470q0 -250 174 -414t471 -164q145 0 315 41l-37 -176q-156 -33 -307 -33q-375 0 -589 206t-214 523
t166 583q88 140 213 248t313 173t412 65z" />
    <glyph glyph-name="A" unicode="A" horiz-adv-x="1359" 
d="M825 1139q-156 -197 -379 -590h525q-68 320 -146 590zM346 371q-96 -177 -196 -371h-216q399 799 822 1331h207q205 -680 303 -1331h-195q-25 160 -65 371h-660z" />
    <glyph glyph-name="B" unicode="B" horiz-adv-x="1339" 
d="M629 180q389 0 389 226q0 188 -273 188h-362l-86 -414h332zM788 772q131 0 221 67q89 67 89 153t-48 117q-48 30 -105 36t-130 6h-315l-80 -379h368zM858 1331q217 -1 331 -69t114 -232q1 -119 -87 -220t-186 -128q76 -18 133 -95t58 -181q0 -202 -167 -304t-444 -102
h-542l276 1331h514z" />
    <glyph glyph-name="C" unicode="C" horiz-adv-x="1431" 
d="M1059 1356q205 0 414 -86l-41 -189q-221 90 -424 90q-283 0 -483.5 -164.5t-200.5 -453.5q0 -139 75.5 -231.5t183 -127t238.5 -34.5q219 0 447 90l-41 -193q-209 -82 -457 -82q-248 -1 -438 127q-205 138 -205 462q0 174 77 333.5t206 257.5t286.5 149.5t362.5 51.5z
" />
    <glyph glyph-name="D" unicode="D" horiz-adv-x="1456" 
d="M498 180q336 0 520 164t184 434q0 180 -115.5 276.5t-336.5 96.5h-250l-203 -971h201zM776 1331q176 0 311.5 -50t221.5 -170t86 -293q1 -173 -51 -312q-96 -258 -338 -388q-217 -118 -504 -118h-434l276 1331h432z" />
    <glyph glyph-name="E" unicode="E" horiz-adv-x="1208" 
d="M500 1155l-80 -383h680l-37 -174h-680l-86 -422h737l-37 -176h-929l276 1331h930l-35 -176h-739z" />
    <glyph glyph-name="F" unicode="F" horiz-adv-x="1165" 
d="M500 1155l-86 -418h678l-37 -180h-678l-117 -557h-192l276 1331h930l-35 -176h-739z" />
    <glyph glyph-name="G" unicode="G" horiz-adv-x="1462" 
d="M998 1356q245 0 417 -66l55 -22l-38 -183q-197 86 -424 86q-283 0 -483.5 -161.5t-200.5 -454.5q0 -201 133 -299t338 -98q126 0 233 26l35 9l94 460h193l-125 -606q-193 -72 -457 -72q-264 -1 -446 131q-194 140 -195 458q0 172 76 330.5t204 257.5t287.5 151.5
t303.5 52.5z" />
    <glyph glyph-name="H" unicode="H" horiz-adv-x="1472" 
d="M1010 0l123 594h-750l-123 -594h-192l276 1331h193l-115 -555h749l115 555h193l-277 -1331h-192z" />
    <glyph glyph-name="I" unicode="I" horiz-adv-x="530" 
d="M68 0l276 1331h193l-277 -1331h-192z" />
    <glyph glyph-name="J" unicode="J" horiz-adv-x="915" 
d="M260 162q104 0 181 64.5t104 193.5l190 911h193l-199 -956q-84 -399 -500 -400q-158 0 -319 58l39 180q135 -51 311 -51z" />
    <glyph glyph-name="K" unicode="K" horiz-adv-x="1249" 
d="M432 666q356 371 725 665h285q-446 -348 -774 -669q231 -248 530 -662h-252q-303 451 -514 666zM68 0l276 1331h193l-277 -1331h-192z" />
    <glyph glyph-name="L" unicode="L" horiz-adv-x="1103" 
d="M537 1331l-240 -1155h737l-37 -176h-929l276 1331h193z" />
    <glyph glyph-name="M" unicode="M" horiz-adv-x="1740" 
d="M1618 1331q0 -508 -39 -1331h-199q47 651 47 1073q-211 -317 -561 -942h-147q-78 629 -154 942q-231 -528 -405 -1073h-195q113 354 260 725t260 606h213q96 -471 158 -891q267 481 535 891h227z" />
    <glyph glyph-name="N" unicode="N" horiz-adv-x="1486" 
d="M1061 0l-578 1073l-223 -1073h-192l276 1331h211l537 -1007l208 1007h193l-276 -1331h-156z" />
    <glyph glyph-name="O" unicode="O" horiz-adv-x="1617" 
d="M924 1176q-262 0 -431 -162t-169 -443q0 -199 123.5 -305t334.5 -106q248 0 416 164.5t168 435.5q0 205 -118.5 310.5t-323.5 105.5zM950 1356q293 0 453 -158t160 -426q0 -356 -227.5 -576.5t-577.5 -220.5q-295 0 -463 161t-168 431q0 352 227 570.5t596 218.5z" />
    <glyph glyph-name="P" unicode="P" horiz-adv-x="1314" 
d="M709 612q164 0 270 80t106 250q0 111 -74 160q-75 49 -190 49h-321l-111 -539h320zM856 1331q193 0 325 -112q107 -95 107 -289q0 -106 -43 -201q-43 -94 -106 -148q-63 -53 -173 -101t-270 -48h-346l-90 -432h-192l276 1331h512z" />
    <glyph glyph-name="Q" unicode="Q" horiz-adv-x="1617" 
d="M924 1176q-262 0 -431 -162t-169 -443q0 -199 124 -305t334 -106q248 0 416 165t168 435q0 204 -118 310t-324 106zM950 1356q293 0 453 -158t160 -442t-164 -489q-164 -206 -432 -267l188 -133l-131 -129l-332 239q-266 19 -416 177t-149 413q0 353 227 571t596 218z
" />
    <glyph glyph-name="R" unicode="R" horiz-adv-x="1298" 
d="M715 666q133 0 243 53q134 64 134 239q0 92 -74 142.5t-176 50.5h-342l-101 -485h316zM864 1331q156 0 280 -78q66 -41 105 -118.5t39 -184.5q0 -182 -124 -296.5t-292 -151.5q162 -234 312 -502h-230q-139 256 -299 485h-293l-102 -485h-192l276 1331h520z" />
    <glyph glyph-name="S" unicode="S" horiz-adv-x="1234" 
d="M800 1356q249 0 445 -66l-39 -186q-197 74 -412 74q-214 0 -318 -82q-60 -47 -60 -120t71.5 -119t175 -73.5t206 -62.5t174 -113t71.5 -198q0 -197 -166 -316t-436 -119t-500 88l41 187q233 -92 434 -92t311.5 62.5t110.5 166.5q-1 139 -245 201q-102 26 -204 60
t-173.5 111t-71.5 197q0 203 168 301.5t417 98.5z" />
    <glyph glyph-name="T" unicode="T" horiz-adv-x="1224" 
d="M842 1155l-240 -1155h-192l239 1155h-499l36 176h1192l-37 -176h-499z" />
    <glyph glyph-name="U" unicode="U" horiz-adv-x="1445" 
d="M160 395q0 84 22 187l156 749h192l-159 -764q-20 -96 -21 -145q0 -270 295 -270q172 0 295 108.5t166 308.5l160 762h192l-153 -749q-125 -606 -682 -607q-250 0 -356.5 117t-106.5 303z" />
    <glyph glyph-name="V" unicode="V" horiz-adv-x="1296" 
d="M1257 1331h218q-438 -838 -816 -1331h-192q-217 664 -303 1331h203q78 -561 235 -1116q315 457 655 1116z" />
    <glyph glyph-name="W" unicode="W" horiz-adv-x="1763" 
d="M1702 1331h199q-293 -721 -627 -1331h-203q-78 350 -141 772q-49 -104 -192.5 -349t-256.5 -423h-188q-72 571 -86 1331h188q10 -537 49 -1071q205 326 474 850h157q43 -434 129 -866q279 546 498 1087z" />
    <glyph glyph-name="X" unicode="X" horiz-adv-x="1372" 
d="M1237 0h-240l-299 528l-493 -528h-252l631 676l-381 655h235l303 -543l492 543h248l-631 -682z" />
    <glyph glyph-name="Y" unicode="Y" horiz-adv-x="1107" 
d="M1071 1331h232q-383 -565 -656 -899l-84 -432h-194l92 453q-174 391 -342 878h203q123 -387 264 -710q249 331 485 710z" />
    <glyph glyph-name="Z" unicode="Z" horiz-adv-x="1224" 
d="M303 176h768l-37 -176h-1059l37 133l985 1022h-772l35 176h1067l-37 -133z" />
    <glyph glyph-name="bracketleft" unicode="[" horiz-adv-x="606" 
d="M760 1450l-29 -135h-203l-305 -1477h203l-29 -137h-377l363 1749h377z" />
    <glyph glyph-name="backslash" unicode="\" horiz-adv-x="1032" 
d="M127 1401l1069 -1565h-209l-1073 1565h213z" />
    <glyph glyph-name="bracketright" unicode="]" horiz-adv-x="651" 
d="M268 -299h-377l29 137h203l305 1477h-203l29 135h377z" />
    <glyph glyph-name="asciicircum" unicode="^" horiz-adv-x="974" 
d="M909 575h-168l-219 566l-215 -566h-168l310 756h149z" />
    <glyph glyph-name="underscore" unicode="_" horiz-adv-x="1019" 
d="M887 -614h-1024l37 174h1024z" />
    <glyph glyph-name="grave" unicode="`" horiz-adv-x="491" 
d="M160 1507l213 -297h-170l-269 297h226z" />
    <glyph glyph-name="a" unicode="a" horiz-adv-x="1296" 
d="M285 410q0 -139 86 -208t215 -69q195 0 329 119l117 567q-35 33 -112.5 58.5t-174.5 25.5q-186 0 -323 -131t-137 -362zM98 410q0 158 60 288t154 209q196 166 431 166q106 0 198.5 -29.5t139.5 -66.5l56 74h127l-217 -1051h-125l-15 82q-139 -106 -338 -106.5
t-335 108.5t-136 326z" />
    <glyph glyph-name="b" unicode="b" horiz-adv-x="1290" 
d="M602 145q186 1 314 135q130 134 131 338q0 135 -79 210t-212 75q-186 0 -340 -115l-113 -544q113 -99 299 -99zM795 1073q197 0 319 -118t123 -334q0 -156 -57 -282q-56 -126 -152 -204q-196 -160 -448 -160q-170 0 -332 105l-53 -80h-127l292 1415h185l-92 -444
q145 102 342 102z" />
    <glyph glyph-name="c" unicode="c" horiz-adv-x="1105" 
d="M808.5 1073q197.5 0 340.5 -69l-35 -166q-158 70 -352.5 69.5t-334.5 -129.5t-140 -340q0 -139 91 -215t272.5 -76t363.5 82l-37 -180q-168 -74 -382 -74t-355.5 121t-141.5 330t101.5 358.5t256.5 219t352.5 69.5z" />
    <glyph glyph-name="d" unicode="d" horiz-adv-x="1296" 
d="M285 410q0 -139 86 -208t215 -69q195 0 329 119l117 567q-34 33 -112 59t-175 25q-186 0 -323 -131t-137 -362zM98 410q0 158 60 288t153 209q94 80 207 123t225 43q197 0 322 -86l92 428h184l-294 -1415h-125l-15 82q-139 -106 -338 -106t-335 108q-136 109 -136 326z
" />
    <glyph glyph-name="e" unicode="e" horiz-adv-x="1196" 
d="M958 684q0 221 -227 221q-137 0 -251.5 -72t-157.5 -215h630q6 43 6 66zM604 -25q-227 0 -366.5 107.5t-139.5 316.5q0 171 58 305q60 134 156 212q196 158 440 157q193 0 293 -95t100 -271q0 -68 -35 -248h-825l-4 -58q1 -78 35 -132q34 -55 94 -79q106 -44 219 -43
q211 0 409 78l-39 -178q-168 -72 -395 -72z" />
    <glyph glyph-name="f" unicode="f" horiz-adv-x="681" 
d="M737 1456q90 0 176 -29l-34 -157q-74 24 -159 24t-127 -32t-61 -121l-18 -90h330l-31 -156h-330l-202 -981q-39 -186 -124 -267t-239 -81q-78 0 -160 22l35 154q98 -16 133 -16q82 0 118 53t58 160l197 956h-190l30 156h193l22 102q37 175 131 239t252 64z" />
    <glyph glyph-name="g" unicode="g" horiz-adv-x="1290" 
d="M285 410q0 -139 86 -208t215 -69q195 0 329 119l117 567q-35 33 -112.5 58.5t-174.5 25.5q-186 0 -323 -131t-137 -362zM426.5 -434q-241.5 0 -420.5 96l37 180q76 -41 188.5 -74.5t195.5 -33.5t145.5 14t125 46t108.5 90.5t64 135.5l9 41q-133 -86 -321 -86t-324 109
t-136 326q0 158 60 288t154 209q196 166 431 166q106 0 198.5 -29.5t139.5 -66.5l56 74h127l-222 -1067q-45 -213 -209.5 -315.5t-406 -102.5z" />
    <glyph glyph-name="h" unicode="h" horiz-adv-x="1290" 
d="M852 1073q342 0 342 -272q0 -47 -16 -133l-138 -668h-184l133 645q16 70 17 109q0 154 -199 153q-106 0 -216 -41t-179 -92l-160 -774h-184l292 1415h185l-94 -457q72 43 182 79t219 36z" />
    <glyph glyph-name="i" unicode="i" horiz-adv-x="501" 
d="M68 0l219 1051h182l-217 -1051h-184zM315 1231l39 184h201l-39 -184h-201z" />
    <glyph glyph-name="j" unicode="j" horiz-adv-x="501" 
d="M-162 -434q-137 0 -233 41l41 162q84 -33 172 -33t126 19q82 40 113 194l232 1102h182l-227 -1100q-43 -205 -130 -295t-276 -90zM315 1225l39 184h201l-39 -184h-201z" />
    <glyph glyph-name="k" unicode="k" horiz-adv-x="1105" 
d="M944 1051h262q-283 -215 -575 -494q184 -215 409 -557h-229q-70 117 -182.5 274.5t-227.5 282.5q346 353 543 494zM68 0l292 1415h185l-293 -1415h-184z" />
    <glyph glyph-name="l" unicode="l" horiz-adv-x="499" 
d="M68 0l292 1415h185l-293 -1415h-184z" />
    <glyph glyph-name="m" unicode="m" horiz-adv-x="2025" 
d="M985 754q0 154 -194 153q-109 0 -213 -41t-166 -92l-160 -774h-184l219 1051h123l20 -105q68 49 182 88t234 39q231 0 303 -135q74 51 198 93t268 42t229 -62t85 -210q0 -47 -16 -133l-137 -668h-185l133 645q16 70 17 109q0 154 -199 153q-106 0 -208 -39t-158 -88
q-4 -55 -17 -110l-137 -670h-184l133 645q14 72 14 109z" />
    <glyph glyph-name="n" unicode="n" horiz-adv-x="1253" 
d="M840 1073q342 0 342 -272q0 -47 -17 -133l-137 -668h-184l133 645q16 70 16 109q0 154 -198 153q-109 0 -217.5 -41t-176.5 -92l-161 -774h-185l217 1051h125l21 -105q72 49 189.5 88t232.5 39z" />
    <glyph glyph-name="o" unicode="o" horiz-adv-x="1296" 
d="M609 145q169 0 304.5 131.5t135.5 344.5q0 121 -78 201.5t-248 80.5t-304 -131t-134 -344q0 -121 77.5 -202t246.5 -81zM778 1073h2q199 0 327 -116.5t128 -319.5t-97.5 -355.5t-250 -226t-334.5 -80.5q-199 0 -327 117t-128 318q0 309 198.5 486t481.5 177z" />
    <glyph glyph-name="p" unicode="p" horiz-adv-x="1290" 
d="M598 145q190 -1 318 135t128 332q0 135 -81 213t-195 78t-208 -37t-148 -82l-111 -534q33 -41 112 -73t185 -32zM788 1073q197 0 323 -119t126 -330q0 -210 -96 -360q-97 -150 -243 -220t-316 -69q-88 0 -176 29t-142 64l-98 -478h-184l307 1461h123l14 -86q55 41 154 75
t208 33z" />
    <glyph glyph-name="q" unicode="q" horiz-adv-x="1296" 
d="M285 410q0 -139 86 -208t215 -69q195 0 329 119l117 567q-34 33 -112 59t-175 25q-186 0 -323 -131t-137 -362zM554 -25q-184 0 -320 109t-136 326q0 158 60 288t153 209q94 80 207 123t222 43q110 0 202 -30t139 -66l56 74h127l-301 -1461h-185l94 467
q-134 -82 -318 -82z" />
    <glyph glyph-name="r" unicode="r" horiz-adv-x="835" 
d="M913 1073l-39 -186q-139 0 -269 -34t-193 -77l-160 -776h-184l219 1051h123l20 -105q86 55 219 91t264 36z" />
    <glyph glyph-name="s" unicode="s" horiz-adv-x="1069" 
d="M360 767q0 -56 63.5 -88t154 -48.5t179.5 -40t152.5 -88t63.5 -170.5q0 -176 -149.5 -266.5t-380 -90.5t-423.5 82l35 164q203 -80 396 -80q127 0 229 41t102 129q0 66 -63.5 100.5t-153.5 51t-181 39t-154.5 84t-63.5 160t47 164.5t127 100q149 62 353 62.5t343 -50.5
l-32 -162q-150 51 -327 51t-265 -55q-52 -33 -52 -89z" />
    <glyph glyph-name="t" unicode="t" horiz-adv-x="774" 
d="M474 139q95 0 188 27l-31 -168q-98 -23 -206 -23t-186.5 54.5t-78.5 177.5q0 33 8 76l131 612h-213l33 156h217l80 229h145l-47 -229h338l-33 -156h-340l-127 -604q-16 -78 5.5 -115t116.5 -37z" />
    <glyph glyph-name="u" unicode="u" horiz-adv-x="1271" 
d="M303 303q0 -162 217 -162q109 0 212.5 41t162.5 92l160 777h184l-219 -1051h-121l-18 104q-57 -49 -167 -89t-253.5 -40t-242.5 74t-99 215q0 55 12 119l135 668h185l-134 -648q-14 -61 -14 -100z" />
    <glyph glyph-name="v" unicode="v" horiz-adv-x="1077" 
d="M963 1051h202q-303 -578 -628 -1051h-189q-94 268 -161 562t-87 489h181q72 -532 184 -856q256 375 498 856z" />
    <glyph glyph-name="w" unicode="w" horiz-adv-x="1742" 
d="M1053 1051q0 -101 44 -406t72 -444q246 389 453 850h182q-86 -211 -239.5 -506t-327.5 -545h-195q-96 424 -133 752q-240 -465 -428 -752h-176q-135 526 -160 1051h172q33 -451 111 -822q94 141 248 419t205 403h172z" />
    <glyph glyph-name="x" unicode="x" horiz-adv-x="1064" 
d="M1001 0h-227l-231 383l-379 -383h-248l528 518l-319 533h221l238 -404l397 404h240l-543 -533z" />
    <glyph glyph-name="y" unicode="y" horiz-adv-x="1089" 
d="M-23 -434q-90 0 -149 18l43 180q61 -20 123 -20q109 0 193.5 72.5t177.5 214.5q-88 258 -153 542.5t-89 477.5h184q76 -518 187 -846q253 373 501 846h203q-303 -565 -637 -1051q-154 -223 -291 -328.5t-293 -105.5z" />
    <glyph glyph-name="z" unicode="z" horiz-adv-x="1036" 
d="M270 166h639l-32 -166h-881l37 172l774 713h-604l35 166h852l-37 -172z" />
    <glyph glyph-name="braceleft" unicode="{" horiz-adv-x="753" 
d="M33 647q137 0 221 54t121 241l22 102q43 201 158 298t363 108l-29 -135q-164 -13 -226 -71t-98 -226l-14 -74q-35 -164 -86 -235q-80 -111 -252 -134q160 -23 195 -133q25 -74 -11 -237l-16 -78q-35 -168 3 -225t200 -66l-29 -135q-250 11 -321 113t-25 321l14 70
q39 188 -26 248q-59 49 -195 53z" />
    <glyph glyph-name="bar" unicode="|" horiz-adv-x="520" 
d="M393 -512h-192v2048h192v-2048z" />
    <glyph glyph-name="braceright" unicode="}" horiz-adv-x="784" 
d="M766 506q-137 -4 -221 -58t-123 -243l-16 -80q-43 -213 -157 -312t-368 -112l29 135q164 8 225 66t96 225l17 78q33 162 88 237q76 111 248 133q-164 23 -195 134q-23 70 12 235l15 74q35 168 -2 226t-199 71l29 135q246 -10 320 -112t26 -322l-17 -74q-37 -186 23 -240
t201 -55z" />
    <glyph glyph-name="asciitilde" unicode="~" horiz-adv-x="991" 
d="M942 731q0 -104 -73 -171t-179 -66q-63 0 -177 38t-169 37q-55 0 -90 -19t-37 -56h-158q0 104 73 171t179 66q61 0 176 -38t171 -38q56 -1 90 19t36 57h158z" />
    <glyph glyph-name="nbspace" unicode="&#xa0;" horiz-adv-x="514" 
 />
    <glyph glyph-name="exclamdown" unicode="&#xa1;" horiz-adv-x="364" 
d="M154 688h151l-176 -969h-201zM160 852l41 199h205l-41 -199h-205z" />
    <glyph glyph-name="cent" unicode="&#xa2;" horiz-adv-x="1132" 
d="M786 1038q-194 0 -334 -129t-141 -340q0 -139 91 -215t247 -75q91 0 189 20t149 41l51 20l-37 -180q-145 -66 -344 -74l-34 -167h-181l39 182q-162 37 -260 151t-98 291q0 270 166 435t413 198l41 199h181l-39 -193q166 -13 254 -53l35 -14l-35 -166q-159 69 -353 69z
" />
    <glyph glyph-name="sterling" unicode="&#xa3;" horiz-adv-x="1040" 
d="M806 1182q-108 0 -154 -39t-66 -135l-33 -162h338l-33 -158h-338l-49 -237q-47 -223 -174 -275h711l-37 -176h-951l29 135q104 78 156 146q51 68 80 198l43 209h-185l33 158h184l33 160q39 190 130 270t265 80t314 -49l-37 -172q-151 47 -259 47z" />
    <glyph glyph-name="currency" unicode="&#xa4;" horiz-adv-x="1228" 
d="M690 969q-142 -1 -248 -103t-106 -241q0 -100 68 -169t190 -69q122 1 230 105t108 243q0 100 -69 167t-173 67zM1081 758q0 -180 -147 -336l104 -131l-116 -96l-105 127q-129 -82 -269 -82t-243 84l-160 -129l-75 96l155 133q-39 78 -39 176q0 190 144 336l-103 129
l117 96l107 -129q127 82 266 82t248 -82l157 129l76 -96l-158 -133q41 -84 41 -174z" />
    <glyph glyph-name="yen" unicode="&#xa5;" horiz-adv-x="1239" 
d="M1157 1331h246q-485 -528 -551 -596h354l-32 -157h-447l-31 -154h447l-33 -158h-446l-56 -266h-192l55 266h-444l32 158h445l31 154h-445l33 157h348q-111 197 -299 596h199q156 -371 276 -598q191 203 510 598z" />
    <glyph glyph-name="brokenbar" unicode="&#xa6;" horiz-adv-x="520" 
d="M393 -512h-192v860h192v-860zM201 1503h192v-827h-192v827z" />
    <glyph glyph-name="section" unicode="&#xa7;" horiz-adv-x="991" 
d="M696 624q0 58 -57 89l-78 41q-104 -48 -150 -94t-46 -99t57 -84l78 -43q108 44 152 88t44 102zM274 1048q0 144 112 227t304 83q129 0 262 -37l-37 -178q-145 47 -243 47q-197 0 -197 -117q0 -31 27 -57t100 -68l158 -92q137 -78 137 -186q0 -201 -274 -303l10 -7
q155 -88 155 -225t-112 -221t-318 -84q-133 0 -288 45l36 174q154 -51 271 -51q215 0 215 108q0 35 -28 65t-103 71l-166 92q-131 74 -131 184q0 203 274 303q-164 83 -164 227z" />
    <glyph glyph-name="dieresis" unicode="&#xa8;" horiz-adv-x="729" 
d="M606 1204h-200l40 197h201zM201 1204h-201l41 197h201z" />
    <glyph glyph-name="copyright" unicode="&#xa9;" horiz-adv-x="1744" 
d="M1058 1165q134 0 269 -49l-31 -137q-150 55 -264 55t-202 -60q-156 -108 -156 -298q0 -96 61 -158t181 -63q120 0 298 61l-28 -143q-147 -49 -307 -49t-259 91q-100 91 -100 261t128 322q62 75 169 121t241 46zM1649 872q-1 244 -155 396t-384 151q-230 1 -422 -113
q-194 -114 -310 -301t-116 -410t157 -375t404 -150q322 0 574 244t252 558zM815 -23q-291 1 -468 173t-177 454q0 358 281 632t647 275q291 0 467 -172t176 -458q0 -233 -129 -443t-343 -335q-214 -126 -454 -126z" />
    <glyph glyph-name="ordfeminine" unicode="&#xaa;" horiz-adv-x="1120" 
d="M129 174h813l-37 -174h-813zM422 709q0 -57 50 -82t118 -25q145 0 287 78l30 139q-115 57 -239 58q-213 0 -244 -144q-2 -8 -2 -24zM799 1356q168 0 247 -52t78 -184q0 -70 -16 -143l-107 -516h-127l-10 65q-172 -86 -314 -86t-226 58t-84 168q0 37 8 71q29 145 150 221
q122 76 272 76t270 -57l6 29q6 31 6 55q0 79 -55 107t-181 28t-333 -57l35 166q213 51 381 51z" />
    <glyph glyph-name="guillemetleft" unicode="&#xab;" horiz-adv-x="1030" 
d="M717 545l119 -393h-148l-141 403l293 393h159zM313 545l119 -393h-147l-142 403l295 393h158z" />
    <glyph glyph-name="logicalnot" unicode="&#xac;" horiz-adv-x="1071" 
d="M834 223v357h-707v174h881v-531h-174z" />
    <glyph glyph-name="softhyphen" unicode="&#xad;" horiz-adv-x="903" 
d="M803 537h-676l37 174h676z" />
    <glyph glyph-name="registered" unicode="&#xae;" horiz-adv-x="1110" 
d="M643 918q117 0 117 88q0 55 -82 55h-94l-31 -143h90zM860 1016q0 -60 -39 -108t-104 -64q76 -125 102 -182h-108q-53 113 -93 167h-83l-35 -167h-94l100 485h194q70 0 115 -35t45 -96zM565 537q176 0 314 135q137 135 137 307q0 129 -83 210t-216 81q-175 0 -315 -135
t-140 -306q0 -129 85 -211t218 -81zM735 1354q162 0 264 -100t103 -263q0 -215 -165 -378t-382 -162q-168 0 -273 102t-106 262q0 213 165 376t394 163z" />
    <glyph glyph-name="macron" unicode="&#xaf;" horiz-adv-x="684" 
d="M561 1260h-561l33 157h561z" />
    <glyph glyph-name="degree" unicode="&#xb0;" horiz-adv-x="716" 
d="M352 1171q58 1 109 51t51 105t-32 87t-90 32t-110 -50q-50 -50 -50 -106t31 -87q33 -32 91 -32zM340 1053q-110 0 -171 59q-60 59 -60 167t91 197q90 89 200 89q110 1 171 -59t61 -168t-90 -196q-92 -89 -202 -89z" />
    <glyph glyph-name="plusminus" unicode="&#xb1;" horiz-adv-x="1062" 
d="M961 0h-838v174h838v-174zM629 291h-174v254h-332v174h332v307h174v-307h332v-174h-332v-254z" />
    <glyph glyph-name="twosuperior" unicode="&#xb2;" 
d="M612 1544q227 0 228 -182q0 -117 -104 -234t-290 -210h324l-29 -132h-559l25 111q349 211 442 334q41 53 41 98q0 84 -125 84q-94 0 -241 -49l28 133q145 47 260 47z" />
    <glyph glyph-name="threesuperior" unicode="&#xb3;" 
d="M778 1040q0 -124 -95 -198t-288 -74q-133 0 -254 37l29 133q125 -39 236 -39q223 0 223 129q0 54 -46 74t-151 20h-106l20 88l234 183h-314l27 131h538l-22 -103l-246 -192q99 -7 157 -59t58 -130z" />
    <glyph glyph-name="acute" unicode="&#xb4;" horiz-adv-x="491" 
d="M166 1210h-170l213 297h225z" />
    <glyph glyph-name="micro" unicode="&#xb5;" horiz-adv-x="1294" 
d="M487 -25q-139 0 -227 76l-94 -461h-184l307 1461h184l-133 -648q-14 -68 -14 -98q0 -164 217 -164q109 0 212 41t163 92l159 777h185l-220 -1051h-120l-19 104q-57 -49 -167 -89t-249 -40z" />
    <glyph glyph-name="paragraph" unicode="&#xb6;" horiz-adv-x="1191" 
d="M774 1331h418l-307 -1485h-180l274 1328h-186l-275 -1328h-180l139 676q-162 14 -245 92t-82 211q0 215 151 361q152 145 473 145z" />
    <glyph glyph-name="periodcentered" unicode="&#xb7;" horiz-adv-x="409" 
d="M315 526h-204l41 199h204z" />
    <glyph glyph-name="cedilla" unicode="&#xb8;" horiz-adv-x="532" 
d="M453 -219q-1 -93 -63 -149t-168 -56t-214 29l27 125q98 -27 174 -27q100 0 100 68q0 49 -88 49q-43 0 -80 -6l92 196h129l-32 -94q123 -20 123 -135z" />
    <glyph glyph-name="onesuperior" unicode="&#xb9;" 
d="M418 786l121 586l-226 -51l29 125l369 94l-156 -754h-137z" />
    <glyph glyph-name="ordmasculine" unicode="&#xba;" horiz-adv-x="1124" 
d="M907 0h-813l37 174h813zM738 1194q-118 0 -216 -82q-100 -82 -129 -217q-8 -49 -8 -72q0 -98 61 -159q60 -62 192 -62t224 84q125 114 125 285q0 102 -65 163q-66 60 -184 60zM766 1354q186 0 294 -90t107 -256q0 -51 -12 -113q-45 -219 -205 -338t-345 -119t-294 89
t-108 257q0 51 12 111q45 217 205 338t346 121z" />
    <glyph glyph-name="guillemetright" unicode="&#xbb;" horiz-adv-x="1030" 
d="M717 555l-119 393h147l142 -403l-295 -393h-158zM313 555l-118 393h147l141 -403l-293 -393h-159z" />
    <glyph glyph-name="onequarter" unicode="&#xbc;" horiz-adv-x="1660" 
d="M979 172v96q201 244 446 469h181q-172 -151 -257 -233t-188 -201h256l43 215h133l-43 -215h121l-29 -131h-120l-35 -172h-133l35 172h-410zM586 0h-203l967 1331h198zM430 582l121 585l-225 -51l28 125l369 94l-156 -753h-137z" />
    <glyph glyph-name="onehalf" unicode="&#xbd;" horiz-adv-x="1859" 
d="M1509 758q227 0 228 -183q-1 -117 -105 -233t-289 -211h324l-29 -131h-559l25 111q347 210 442 333q41 53 41 99q0 84 -125 84q-94 0 -241 -49l28 133q145 47 260 47zM586 0h-203l967 1331h198zM430 582l121 585l-225 -51l28 125l369 94l-156 -753h-137z" />
    <glyph glyph-name="threequarters" unicode="&#xbe;" horiz-adv-x="1685" 
d="M1004 172v96q201 244 446 469h180q-172 -151 -257 -233t-187 -201h256l43 215h133l-43 -215h121l-29 -131h-121l-35 -172h-133l35 172h-409zM414 0l966 1331h199l-963 -1331h-202zM774 848q0 -123 -95 -198t-288 -75q-135 0 -254 37l29 133q125 -39 235 -38
q223 0 224 129q0 53 -46 73t-151 21h-106l20 88l233 182h-313l27 131h538l-22 -102l-246 -193q99 -8 157 -59t58 -129z" />
    <glyph glyph-name="questiondown" unicode="&#xbf;" horiz-adv-x="1062" 
d="M178 16q0 -147 281 -147q213 0 461 98l-37 -182q-209 -90 -431 -90t-348 74q-125 74 -124 221q0 116 56 198t139 127t168 85q209 99 237 233l16 84h190l-18 -96q-20 -109 -89 -188t-152 -122t-163 -81q-186 -89 -186 -214zM659 1051h205l-41 -199h-205z" />
    <glyph glyph-name="Agrave" unicode="&#xc0;" horiz-adv-x="1359" 
d="M825 1139q-156 -197 -379 -590h525q-68 320 -146 590zM346 371q-96 -177 -196 -371h-216q399 799 822 1331h207q205 -680 303 -1331h-195q-25 160 -65 371h-660zM502 1751h229l213 -297h-174z" />
    <glyph glyph-name="Aacute" unicode="&#xc1;" horiz-adv-x="1359" 
d="M825 1139q-156 -197 -379 -590h525q-68 320 -146 590zM346 371q-96 -177 -196 -371h-216q399 799 822 1331h207q205 -680 303 -1331h-195q-25 160 -65 371h-660zM1225 1751l-269 -297h-174l213 297h230z" />
    <glyph glyph-name="Acircumflex" unicode="&#xc2;" horiz-adv-x="1359" 
d="M825 1139q-156 -197 -379 -590h525q-68 320 -146 590zM346 371q-96 -177 -196 -371h-216q399 799 822 1331h207q205 -680 303 -1331h-195q-25 160 -65 371h-660zM1051 1751l145 -297h-156l-116 176l-191 -176h-176l268 297h226z" />
    <glyph glyph-name="Atilde" unicode="&#xc3;" horiz-adv-x="1359" 
d="M825 1139q-156 -197 -379 -590h525q-68 320 -146 590zM346 371q-96 -177 -196 -371h-216q399 799 822 1331h207q205 -680 303 -1331h-195q-25 160 -65 371h-660zM999 1509q-39 0 -115.5 28t-107.5 28q-55 0 -82 -62h-123q72 199 234 199q45 0 115.5 -27.5t105.5 -27.5
q64 0 84 61h123q-72 -199 -234 -199z" />
    <glyph glyph-name="Adieresis" unicode="&#xc4;" horiz-adv-x="1359" 
d="M825 1139q-156 -197 -379 -590h525q-68 320 -146 590zM346 371q-96 -177 -196 -371h-216q399 799 822 1331h207q205 -680 303 -1331h-195q-25 160 -65 371h-660zM1223 1649l-41 -201h-205l41 201h205zM817 1649l-41 -201h-205l41 201h205z" />
    <glyph glyph-name="Aring" unicode="&#xc5;" horiz-adv-x="1359" 
d="M825 1139q-156 -197 -379 -590h525q-68 320 -146 590zM346 371q-96 -177 -196 -371h-216q399 799 822 1331h207q205 -680 303 -1331h-195q-25 160 -65 371h-660zM932 1714q-59 0 -92 -27.5t-33 -66.5q0 -70 94 -70q57 0 90 27t33 70q0 67 -92 67zM908 1456
q-202 0 -203 165q0 79 63 133t161.5 54t147.5 -42t49 -115.5t-58 -134t-160 -60.5z" />
    <glyph glyph-name="AE" unicode="&#xc6;" horiz-adv-x="1972" 
d="M1022 543l127 620q-293 -293 -571 -620h444zM1341 1155l-79 -383h604l-37 -174h-604l-86 -422h659l-37 -176h-852l76 367h-553q-111 -135 -291 -367h-233q686 889 1171 1331h959l-37 -176h-660z" />
    <glyph glyph-name="Ccedilla" unicode="&#xc7;" horiz-adv-x="1431" 
d="M1008 1171q-283 0 -483.5 -164.5t-200.5 -453.5q0 -139 75.5 -231.5t183 -127t238.5 -34.5q219 0 447 90l-41 -193q-209 -82 -457 -82h-12l-21 -59q123 -20 123 -135q0 -94 -62.5 -149.5t-168 -55.5t-213.5 29l26 125q98 -27 174 -27q100 0 101 68q0 49 -88 49
q-43 0 -80 -6l80 172q-219 35 -360.5 172t-141.5 381q0 199 77 358.5t206 257.5q265 201 614 201q240 0 449 -86l-41 -189q-221 90 -424 90z" />
    <glyph glyph-name="Egrave" unicode="&#xc8;" horiz-adv-x="1208" 
d="M500 1155l-80 -383h680l-37 -174h-680l-86 -422h737l-37 -176h-929l276 1331h930l-35 -176h-739zM444 1751h230l213 -297h-174z" />
    <glyph glyph-name="Eacute" unicode="&#xc9;" horiz-adv-x="1208" 
d="M500 1155l-80 -383h680l-37 -174h-680l-86 -422h737l-37 -176h-929l276 1331h930l-35 -176h-739zM1167 1751l-268 -297h-174l213 297h229z" />
    <glyph glyph-name="Ecircumflex" unicode="&#xca;" horiz-adv-x="1208" 
d="M500 1155l-80 -383h680l-37 -174h-680l-86 -422h737l-37 -176h-929l276 1331h930l-35 -176h-739zM993 1751l146 -297h-156l-117 176l-190 -176h-176l268 297h225z" />
    <glyph glyph-name="Edieresis" unicode="&#xcb;" horiz-adv-x="1208" 
d="M500 1155l-80 -383h680l-37 -174h-680l-86 -422h737l-37 -176h-929l276 1331h930l-35 -176h-739zM1165 1649l-41 -201h-204l41 201h204zM760 1649l-41 -201h-205l41 201h205z" />
    <glyph glyph-name="Igrave" unicode="&#xcc;" horiz-adv-x="530" 
d="M68 0l276 1331h193l-277 -1331h-192zM90 1751h229l213 -297h-174z" />
    <glyph glyph-name="Iacute" unicode="&#xcd;" horiz-adv-x="530" 
d="M68 0l276 1331h193l-277 -1331h-192zM813 1751l-268 -297h-174l213 297h229z" />
    <glyph glyph-name="Icircumflex" unicode="&#xce;" horiz-adv-x="530" 
d="M68 0l276 1331h193l-277 -1331h-192zM639 1751l145 -297h-155l-117 176l-190 -176h-177l269 297h225z" />
    <glyph glyph-name="Idieresis" unicode="&#xcf;" horiz-adv-x="530" 
d="M68 0l276 1331h193l-277 -1331h-192zM811 1649l-41 -201h-205l41 201h205zM406 1649l-41 -201h-205l41 201h205z" />
    <glyph glyph-name="Eth" unicode="&#xd0;" horiz-adv-x="1456" 
d="M498 180q336 0 520 164t184 434q0 180 -115.5 276.5t-336.5 96.5h-250l-78 -375h420l-35 -176h-422l-88 -420h201zM776 1331q176 0 311.5 -50t221.5 -170t86 -293q1 -173 -51 -312q-96 -258 -338 -388q-217 -118 -504 -118h-434l125 600h-164l34 176h166l115 555h432z
" />
    <glyph glyph-name="Ntilde" unicode="&#xd1;" horiz-adv-x="1486" 
d="M1061 0l-578 1073l-223 -1073h-192l276 1331h211l537 -1007l208 1007h193l-276 -1331h-156zM1071 1509q-39 0 -115.5 28t-108.5 28t-49.5 -14.5t-31.5 -47.5h-123q72 199 234 199q45 0 115.5 -27.5t105.5 -27.5q61 0 84 61h123q-72 -199 -234 -199z" />
    <glyph glyph-name="Ograve" unicode="&#xd2;" horiz-adv-x="1617" 
d="M924 1176q-262 0 -431 -162t-169 -443q0 -199 123.5 -305t334.5 -106q248 0 416 164.5t168 435.5q0 205 -118.5 310.5t-323.5 105.5zM950 1356q293 0 453 -158t160 -426q0 -356 -227.5 -576.5t-577.5 -220.5q-295 0 -463 161t-168 431q0 352 227 570.5t596 218.5z
M586 1751h229l213 -297h-174z" />
    <glyph glyph-name="Oacute" unicode="&#xd3;" horiz-adv-x="1617" 
d="M924 1176q-262 0 -431 -162t-169 -443q0 -199 123.5 -305t334.5 -106q248 0 416 164.5t168 435.5q0 205 -118.5 310.5t-323.5 105.5zM950 1356q293 0 453 -158t160 -426q0 -356 -227.5 -576.5t-577.5 -220.5q-295 0 -463 161t-168 431q0 352 227 570.5t596 218.5z
M1309 1751l-269 -297h-174l213 297h230z" />
    <glyph glyph-name="Ocircumflex" unicode="&#xd4;" horiz-adv-x="1617" 
d="M924 1176q-262 0 -431 -162t-169 -443q0 -199 123.5 -305t334.5 -106q248 0 416 164.5t168 435.5q0 205 -118.5 310.5t-323.5 105.5zM950 1356q293 0 453 -158t160 -426q0 -356 -227.5 -576.5t-577.5 -220.5q-295 0 -463 161t-168 431q0 352 227 570.5t596 218.5z
M1135 1751l145 -297h-156l-116 176l-191 -176h-176l268 297h226z" />
    <glyph glyph-name="Otilde" unicode="&#xd5;" horiz-adv-x="1617" 
d="M924 1176q-262 0 -431 -162t-169 -443q0 -199 123.5 -305t334.5 -106q248 0 416 164.5t168 435.5q0 205 -118.5 310.5t-323.5 105.5zM950 1356q293 0 453 -158t160 -426q0 -356 -227.5 -576.5t-577.5 -220.5q-295 0 -463 161t-168 431q0 352 227 570.5t596 218.5z
M1083 1509q-39 0 -115.5 28t-108.5 28t-49 -14.5t-32 -47.5h-123q72 199 234 199q45 0 115.5 -27.5t105.5 -27.5q61 0 84 61h123q-72 -199 -234 -199z" />
    <glyph glyph-name="Odieresis" unicode="&#xd6;" horiz-adv-x="1617" 
d="M924 1176q-262 0 -431 -162t-169 -443q0 -199 123.5 -305t334.5 -106q248 0 416 164.5t168 435.5q0 205 -118.5 310.5t-323.5 105.5zM950 1356q293 0 453 -158t160 -426q0 -356 -227.5 -576.5t-577.5 -220.5q-295 0 -463 161t-168 431q0 352 227 570.5t596 218.5z
M1307 1649l-41 -201h-205l41 201h205zM901 1649l-41 -201h-205l41 201h205z" />
    <glyph glyph-name="multiply" unicode="&#xd7;" horiz-adv-x="1042" 
d="M930 362l-123 -122l-248 247l-250 -247l-123 122l248 250l-248 248l123 123l250 -248l248 248l123 -123l-248 -248z" />
    <glyph glyph-name="Oslash" unicode="&#xd8;" horiz-adv-x="1617" 
d="M1366 760q0 133 -55 231l-803 -768q109 -63 274 -63q248 0 416 165t168 435zM324 571q0 -145 65 -241l811 776q-109 70 -276 70q-262 0 -431 -162t-169 -443zM758 -25q-233 0 -396 107l-147 -139l-113 112l142 138q-117 152 -117 374q0 352 227.5 570.5t595.5 218.5
q240 0 396 -109l129 123l114 -113l-131 -124q104 -145 105 -361q0 -356 -227.5 -576.5t-577.5 -220.5z" />
    <glyph glyph-name="Ugrave" unicode="&#xd9;" horiz-adv-x="1445" 
d="M160 395q0 84 22 187l156 749h192l-159 -764q-20 -96 -21 -145q0 -270 295 -270q172 0 295 108.5t166 308.5l160 762h192l-153 -749q-125 -606 -682 -607q-250 0 -356.5 117t-106.5 303zM537 1751h229l213 -297h-174z" />
    <glyph glyph-name="Uacute" unicode="&#xda;" horiz-adv-x="1445" 
d="M160 395q0 84 22 187l156 749h192l-159 -764q-20 -96 -21 -145q0 -270 295 -270q172 0 295 108.5t166 308.5l160 762h192l-153 -749q-125 -606 -682 -607q-250 0 -356.5 117t-106.5 303zM1260 1751l-269 -297h-174l213 297h230z" />
    <glyph glyph-name="Ucircumflex" unicode="&#xdb;" horiz-adv-x="1445" 
d="M160 395q0 84 22 187l156 749h192l-159 -764q-20 -96 -21 -145q0 -270 295 -270q172 0 295 108.5t166 308.5l160 762h192l-153 -749q-125 -606 -682 -607q-250 0 -356.5 117t-106.5 303zM1085 1751l146 -297h-156l-117 176l-190 -176h-176l268 297h225z" />
    <glyph glyph-name="Udieresis" unicode="&#xdc;" horiz-adv-x="1445" 
d="M160 395q0 84 22 187l156 749h192l-159 -764q-20 -96 -21 -145q0 -270 295 -270q172 0 295 108.5t166 308.5l160 762h192l-153 -749q-125 -606 -682 -607q-250 0 -356.5 117t-106.5 303zM1257 1649l-40 -201h-205l41 201h204zM852 1649l-41 -201h-205l41 201h205z" />
    <glyph glyph-name="Yacute" unicode="&#xdd;" horiz-adv-x="1107" 
d="M1071 1331h232q-383 -565 -656 -899l-84 -432h-194l92 453q-174 391 -342 878h203q123 -387 264 -710q249 331 485 710zM1069 1751l-268 -297h-174l213 297h229z" />
    <glyph glyph-name="Thorn" unicode="&#xde;" horiz-adv-x="1269" 
d="M664 397q164 0 270 80t106 250q0 111 -74 160q-75 49 -190 49h-321l-111 -539h320zM811 1116q193 0 325 -112q107 -96 107 -290q0 -106 -43 -200t-106 -148t-173 -102t-270 -47h-346l-45 -217h-192l276 1331h193l-45 -215h319z" />
    <glyph glyph-name="germandbls" unicode="&#xdf;" horiz-adv-x="1175" 
d="M696 1458q166 0 262 -74t96 -189t-62 -203q-38 -54 -82 -81t-85 -46q-100 -46 -106 -101q-4 -29 14 -47t86 -49l119 -56q176 -82 176 -256q0 -381 -446 -381q-119 0 -306 52l37 170q152 -55 283 -55t185 56q54 58 55 140q0 82 -113 133l-152 68q-170 76 -131 237
q23 94 74 148t101 66q51 13 105 54t54 127q0 115 -172 115q-94 0 -146 -45t-75 -154l-225 -1087h-185l232 1104q41 194 141 274t266 80z" />
    <glyph glyph-name="agrave" unicode="&#xe0;" horiz-adv-x="1296" 
d="M285 410q0 -139 86 -208t215 -69q195 0 329 119l117 567q-35 33 -112.5 58.5t-174.5 25.5q-186 0 -323 -131t-137 -362zM98 410q0 158 60 288t154 209q196 166 431 166q106 0 198.5 -29.5t139.5 -66.5l56 74h127l-217 -1051h-125l-15 82q-139 -106 -338 -106.5
t-335 108.5t-136 326zM422 1507h225l213 -297h-170z" />
    <glyph glyph-name="aacute" unicode="&#xe1;" horiz-adv-x="1296" 
d="M285 410q0 -139 86 -208t215 -69q195 0 329 119l117 567q-35 33 -112.5 58.5t-174.5 25.5q-186 0 -323 -131t-137 -362zM98 410q0 158 60 288t154 209q196 166 431 166q106 0 198.5 -29.5t139.5 -66.5l56 74h127l-217 -1051h-125l-15 82q-139 -106 -338 -106.5
t-335 108.5t-136 326zM1133 1507l-269 -297h-170l213 297h226z" />
    <glyph glyph-name="acircumflex" unicode="&#xe2;" horiz-adv-x="1296" 
d="M285 410q0 -139 86 -208t215 -69q195 0 329 119l117 567q-35 33 -112.5 58.5t-174.5 25.5q-186 0 -323 -131t-137 -362zM98 410q0 158 60 288t154 209q196 166 431 166q106 0 198.5 -29.5t139.5 -66.5l56 74h127l-217 -1051h-125l-15 82q-139 -106 -338 -106.5
t-335 108.5t-136 326zM944 1210l-117 176l-190 -176h-176l268 297h225l146 -297h-156z" />
    <glyph glyph-name="atilde" unicode="&#xe3;" horiz-adv-x="1296" 
d="M285 410q0 -139 86 -208t215 -69q195 0 329 119l117 567q-35 33 -112.5 58.5t-174.5 25.5q-186 0 -323 -131t-137 -362zM98 410q0 158 60 288t154 209q196 166 431 166q106 0 198.5 -29.5t139.5 -66.5l56 74h127l-217 -1051h-125l-15 82q-139 -106 -338 -106.5
t-335 108.5t-136 326zM686 1319q-55 0 -82 -62h-123q72 199 234 199q45 0 115.5 -27.5t105.5 -27.5q64 0 84 61h123q-72 -199 -234 -198q-39 0 -115.5 27.5t-107.5 27.5z" />
    <glyph glyph-name="adieresis" unicode="&#xe4;" horiz-adv-x="1296" 
d="M285 410q0 -139 86 -208t215 -69q195 0 329 119l117 567q-35 33 -112.5 58.5t-174.5 25.5q-186 0 -323 -131t-137 -362zM98 410q0 158 60 288t154 209q196 166 431 166q106 0 198.5 -29.5t139.5 -66.5l56 74h127l-217 -1051h-125l-15 82q-139 -106 -338 -106.5
t-335 108.5t-136 326zM1124 1401l-41 -197h-200l41 197h200zM719 1401l-41 -197h-201l41 197h201z" />
    <glyph glyph-name="aring" unicode="&#xe5;" horiz-adv-x="1296" 
d="M285 410q0 -139 86 -208t215 -69q195 0 329 119l117 567q-35 33 -112.5 58.5t-174.5 25.5q-186 0 -323 -131t-137 -362zM98 410q0 158 60 288t154 209q196 166 431 166q106 0 198.5 -29.5t139.5 -66.5l56 74h127l-217 -1051h-125l-15 82q-139 -106 -338 -106.5
t-335 108.5t-136 326zM823 1446q-59 0 -92 -27.5t-33 -66.5q0 -70 95 -70q57 0 89.5 26.5t32.5 69.5q0 68 -92 68zM798 1188q-202 0 -202 164q0 78 63.5 133t162 55t147.5 -42t49 -115.5t-59 -134t-161 -60.5z" />
    <glyph glyph-name="ae" unicode="&#xe6;" horiz-adv-x="2000" 
d="M311 285q0 -142 210 -142t419 133q-8 57 -8 87.5t4 74.5q-139 76 -306 76t-243 -64.5t-76 -164.5zM1571 905q-137 0 -252 -71.5t-158 -215.5h631q6 43 6 66q0 221 -227 221zM1487.5 147q76.5 0 179 19.5t156.5 38.5l55 20l-39 -178q-168 -72 -416 -72q-293 0 -411 181
q-276 -180 -547 -181q-166 0 -260 79t-94 216q0 176 135 287t385 111q184 0 332 -84l14 65q8 33 8 74q0 102 -77 140t-230.5 38t-388.5 -72l39 183q217 61 424 61q328 0 393 -176q176 176 446 176q193 0 293.5 -95t100.5 -271q0 -68 -35 -248h-826l-4 -58q0 -78 35 -132
t94.5 -78.5t110.5 -34t127.5 -9.5z" />
    <glyph glyph-name="ccedilla" unicode="&#xe7;" horiz-adv-x="1105" 
d="M761.5 907q-194.5 0 -334.5 -129t-140 -340q0 -139 91 -215t272.5 -76t363.5 82l-37 -180q-150 -66 -350 -74l-21 -59q123 -20 123 -135q0 -94 -62.5 -149.5t-168 -55.5t-213.5 29l26 125q98 -27 174 -27q100 0 101 68q0 49 -88 49q-43 0 -80 -6l80 170
q-180 27 -290 143.5t-110 312t101.5 345t256 219t352.5 69.5t341 -69l-35 -166q-158 69 -352.5 69z" />
    <glyph glyph-name="egrave" unicode="&#xe8;" horiz-adv-x="1196" 
d="M958 684q0 221 -227 221q-137 0 -251.5 -72t-157.5 -215h630q6 43 6 66zM604 -25q-227 0 -366.5 107.5t-139.5 316.5q0 171 58 305q60 134 156 212q196 158 440 157q193 0 293 -95t100 -271q0 -68 -35 -248h-825l-4 -58q1 -78 35 -132q34 -55 94 -79q106 -44 219 -43
q211 0 409 78l-39 -178q-168 -72 -395 -72zM379 1507h225l213 -297h-170z" />
    <glyph glyph-name="eacute" unicode="&#xe9;" horiz-adv-x="1196" 
d="M958 684q0 221 -227 221q-137 0 -251.5 -72t-157.5 -215h630q6 43 6 66zM604 -25q-227 0 -366.5 107.5t-139.5 316.5q0 171 58 305q60 134 156 212q196 158 440 157q193 0 293 -95t100 -271q0 -68 -35 -248h-825l-4 -58q1 -78 35 -132q34 -55 94 -79q106 -44 219 -43
q211 0 409 78l-39 -178q-168 -72 -395 -72zM1090 1507l-269 -297h-170l213 297h226z" />
    <glyph glyph-name="ecircumflex" unicode="&#xea;" horiz-adv-x="1196" 
d="M958 684q0 221 -227 221q-137 0 -251.5 -72t-157.5 -215h630q6 43 6 66zM604 -25q-227 0 -366.5 107.5t-139.5 316.5q0 171 58 305q60 134 156 212q196 158 440 157q193 0 293 -95t100 -271q0 -68 -35 -248h-825l-4 -58q1 -78 35 -132q34 -55 94 -79q106 -44 219 -43
q211 0 409 78l-39 -178q-168 -72 -395 -72zM901 1210l-117 176l-190 -176h-176l268 297h225l146 -297h-156z" />
    <glyph glyph-name="edieresis" unicode="&#xeb;" horiz-adv-x="1196" 
d="M958 684q0 221 -227 221q-137 0 -251.5 -72t-157.5 -215h630q6 43 6 66zM604 -25q-227 0 -366.5 107.5t-139.5 316.5q0 171 58 305q60 134 156 212q196 158 440 157q193 0 293 -95t100 -271q0 -68 -35 -248h-825l-4 -58q1 -78 35 -132q34 -55 94 -79q106 -44 219 -43
q211 0 409 78l-39 -178q-168 -72 -395 -72zM1081 1401l-41 -197h-200l41 197h200zM676 1401l-41 -197h-201l41 197h201z" />
    <glyph glyph-name="igrave" unicode="&#xec;" horiz-adv-x="501" 
d="M252 0h-184l217 1051h184zM276 1507l213 -297h-170l-268 297h225z" />
    <glyph glyph-name="iacute" unicode="&#xed;" horiz-adv-x="501" 
d="M252 0h-184l217 1051h184zM494 1210h-170l213 297h225z" />
    <glyph glyph-name="icircumflex" unicode="&#xee;" horiz-adv-x="501" 
d="M252 0h-184l217 1051h184zM457 1386l-191 -176h-176l268 297h226l145 -297h-156z" />
    <glyph glyph-name="idieresis" unicode="&#xef;" horiz-adv-x="501" 
d="M252 0h-184l217 1051h184zM713 1204h-201l41 197h201zM307 1204h-201l41 197h201z" />
    <glyph glyph-name="eth" unicode="&#xf0;" horiz-adv-x="1363" 
d="M604 150q209 0 330 148t158 366q-166 156 -400 155q-184 0 -290 -117t-105 -288q1 -112 77 -188t230 -76zM586 -25q-217 0 -353 115q-135 115 -135 330t164 393t436 178q227 0 408 -135q-6 205 -123 320l-172 -101l-57 121l104 61q-88 39 -233 68l82 156
q193 -45 321 -125l215 125l60 -123l-164 -94q154 -160 153 -422q0 -352 -175 -601q-85 -122 -222 -194t-309 -72z" />
    <glyph glyph-name="ntilde" unicode="&#xf1;" horiz-adv-x="1253" 
d="M840 1073q342 0 342 -272q0 -47 -17 -133l-137 -668h-184l133 645q16 70 16 109q0 154 -198 153q-109 0 -217.5 -41t-176.5 -92l-161 -774h-185l217 1051h125l21 -105q72 49 189.5 88t232.5 39zM687 1319q-32 0 -49 -14.5t-32 -47.5h-123q72 199 234 199
q45 0 115.5 -27.5t105.5 -27.5q61 0 84 61h123q-72 -199 -234 -198q-39 0 -115.5 27.5t-108.5 27.5z" />
    <glyph glyph-name="ograve" unicode="&#xf2;" horiz-adv-x="1296" 
d="M609 145q169 0 304.5 131.5t135.5 344.5q0 121 -78 201.5t-248 80.5t-304 -131t-134 -344q0 -121 77.5 -202t246.5 -81zM778 1073h2q199 0 327 -116.5t128 -319.5t-97.5 -355.5t-250 -226t-334.5 -80.5q-199 0 -327 117t-128 318q0 309 198.5 486t481.5 177zM420 1507
h225l213 -297h-170z" />
    <glyph glyph-name="oacute" unicode="&#xf3;" horiz-adv-x="1296" 
d="M609 145q169 0 304.5 131.5t135.5 344.5q0 121 -78 201.5t-248 80.5t-304 -131t-134 -344q0 -121 77.5 -202t246.5 -81zM778 1073h2q199 0 327 -116.5t128 -319.5t-97.5 -355.5t-250 -226t-334.5 -80.5q-199 0 -327 117t-128 318q0 309 198.5 486t481.5 177zM1130 1507
l-268 -297h-170l213 297h225z" />
    <glyph glyph-name="ocircumflex" unicode="&#xf4;" horiz-adv-x="1296" 
d="M609 145q169 0 304.5 131.5t135.5 344.5q0 121 -78 201.5t-248 80.5t-304 -131t-134 -344q0 -121 77.5 -202t246.5 -81zM778 1073h2q199 0 327 -116.5t128 -319.5t-97.5 -355.5t-250 -226t-334.5 -80.5q-199 0 -327 117t-128 318q0 309 198.5 486t481.5 177zM942 1210
l-117 176l-190 -176h-176l268 297h225l146 -297h-156z" />
    <glyph glyph-name="otilde" unicode="&#xf5;" horiz-adv-x="1296" 
d="M609 145q169 0 304.5 131.5t135.5 344.5q0 121 -78 201.5t-248 80.5t-304 -131t-134 -344q0 -121 77.5 -202t246.5 -81zM778 1073h2q199 0 327 -116.5t128 -319.5t-97.5 -355.5t-250 -226t-334.5 -80.5q-199 0 -327 117t-128 318q0 309 198.5 486t481.5 177zM683 1319
q-32 0 -49.5 -14.5t-31.5 -47.5h-123q72 199 234 199q45 0 115.5 -27.5t105.5 -27.5q61 0 84 61h123q-72 -199 -234 -198q-39 0 -115.5 27.5t-108.5 27.5z" />
    <glyph glyph-name="odieresis" unicode="&#xf6;" horiz-adv-x="1296" 
d="M609 145q169 0 304.5 131.5t135.5 344.5q0 121 -78 201.5t-248 80.5t-304 -131t-134 -344q0 -121 77.5 -202t246.5 -81zM778 1073h2q199 0 327 -116.5t128 -319.5t-97.5 -355.5t-250 -226t-334.5 -80.5q-199 0 -327 117t-128 318q0 309 198.5 486t481.5 177zM1122 1401
l-41 -197h-200l41 197h200zM717 1401l-41 -197h-201l41 197h201z" />
    <glyph glyph-name="divide" unicode="&#xf7;" horiz-adv-x="1091" 
d="M678 172h-205v199h205v-199zM137 698h881v-174h-881v174zM678 852h-205v199h205v-199z" />
    <glyph glyph-name="oslash" unicode="&#xf8;" horiz-adv-x="1310" 
d="M1049 621q0 76 -31 139l-600 -576q72 -39 174 -39q186 0 321.5 131.5t135.5 344.5zM285 428q0 -68 24 -125l592 567q-70 33 -162 33q-186 0 -320 -131t-134 -344zM1235 639q0 -205 -97.5 -357.5t-250 -226t-334.5 -80.5q-158 0 -274 76l-111 -104l-115 110l113 109
q-68 102 -68 244q0 309 199 486t481 177h2q145 0 262 -67l97 92l116 -111l-96 -92q76 -104 76 -256z" />
    <glyph glyph-name="ugrave" unicode="&#xf9;" horiz-adv-x="1271" 
d="M303 303q0 -162 217 -162q109 0 212.5 41t162.5 92l160 777h184l-219 -1051h-121l-18 104q-57 -49 -167 -89t-253.5 -40t-242.5 74t-99 215q0 55 12 119l135 668h185l-134 -648q-14 -61 -14 -100zM406 1507h225l213 -297h-170z" />
    <glyph glyph-name="uacute" unicode="&#xfa;" horiz-adv-x="1271" 
d="M303 303q0 -162 217 -162q109 0 212.5 41t162.5 92l160 777h184l-219 -1051h-121l-18 104q-57 -49 -167 -89t-253.5 -40t-242.5 74t-99 215q0 55 12 119l135 668h185l-134 -648q-14 -61 -14 -100zM1116 1507l-268 -297h-170l213 297h225z" />
    <glyph glyph-name="ucircumflex" unicode="&#xfb;" horiz-adv-x="1271" 
d="M303 303q0 -162 217 -162q109 0 212.5 41t162.5 92l160 777h184l-219 -1051h-121l-18 104q-57 -49 -167 -89t-253.5 -40t-242.5 74t-99 215q0 55 12 119l135 668h185l-134 -648q-14 -61 -14 -100zM928 1210l-117 176l-190 -176h-177l269 297h225l145 -297h-155z" />
    <glyph glyph-name="udieresis" unicode="&#xfc;" horiz-adv-x="1271" 
d="M303 303q0 -162 217 -162q109 0 212.5 41t162.5 92l160 777h184l-219 -1051h-121l-18 104q-57 -49 -167 -89t-253.5 -40t-242.5 74t-99 215q0 55 12 119l135 668h185l-134 -648q-14 -61 -14 -100zM1108 1401l-41 -197h-201l41 197h201zM702 1401l-40 -197h-201l41 197
h200z" />
    <glyph glyph-name="yacute" unicode="&#xfd;" horiz-adv-x="1089" 
d="M-23 -434q-90 0 -149 18l43 180q61 -20 123 -20q109 0 193.5 72.5t177.5 214.5q-88 258 -153 542.5t-89 477.5h184q76 -518 187 -846q253 373 501 846h203q-303 -565 -637 -1051q-154 -223 -291 -328.5t-293 -105.5zM1030 1507l-268 -297h-170l213 297h225z" />
    <glyph glyph-name="thorn" unicode="&#xfe;" horiz-adv-x="1290" 
d="M598 145q190 -1 318 135t128 332q0 135 -81 213q-83 78 -195 78t-206 -36t-148 -81l-111 -538q33 -39 112 -71t183 -32zM792 1073q194 0 319 -119q126 -119 126 -330q0 -210 -96 -360q-97 -150 -243 -220t-317 -69q-171 0 -317 93l-98 -478h-184l378 1825h185l-90 -432
q143 90 337 90z" />
    <glyph glyph-name="ydieresis" unicode="&#xff;" horiz-adv-x="1089" 
d="M-23 -434q-90 0 -149 18l43 180q61 -20 123 -20q109 0 193.5 72.5t177.5 214.5q-88 258 -153 542.5t-89 477.5h184q76 -518 187 -846q253 373 501 846h203q-303 -565 -637 -1051q-154 -223 -291 -328.5t-293 -105.5zM1022 1401l-41 -197h-201l41 197h201zM616 1401
l-41 -197h-200l41 197h200z" />
    <glyph glyph-name="Amacron" unicode="&#x100;" horiz-adv-x="1359" 
d="M825 1139q-156 -197 -379 -590h525q-68 320 -146 590zM346 371q-96 -177 -196 -371h-216q399 799 822 1331h207q205 -680 303 -1331h-195q-25 160 -65 371h-660zM1194 1624l-33 -158h-561l33 158h561z" />
    <glyph glyph-name="amacron" unicode="&#x101;" horiz-adv-x="1296" 
d="M285 410q0 -139 86 -208t215 -69q195 0 329 119l117 567q-35 33 -112.5 58.5t-174.5 25.5q-186 0 -323 -131t-137 -362zM98 410q0 158 60 288t154 209q196 166 431 166q106 0 198.5 -29.5t139.5 -66.5l56 74h127l-217 -1051h-125l-15 82q-139 -106 -338 -106.5
t-335 108.5t-136 326zM1085 1417l-32 -157h-561l32 157h561z" />
    <glyph glyph-name="Abreve" unicode="&#x102;" horiz-adv-x="1359" 
d="M825 1139q-156 -197 -379 -590h525q-68 320 -146 590zM346 371q-96 -177 -196 -371h-216q399 799 822 1331h207q205 -680 303 -1331h-195q-25 160 -65 371h-660zM893 1450q-135 0 -200.5 64.5t-55.5 179.5h158q-4 -51 22.5 -80t87.5 -29q117 0 156 109h158
q-76 -244 -326 -244z" />
    <glyph glyph-name="abreve" unicode="&#x103;" horiz-adv-x="1296" 
d="M285 410q0 -139 86 -208t215 -69q195 0 329 119l117 567q-35 33 -112.5 58.5t-174.5 25.5q-186 0 -323 -131t-137 -362zM98 410q0 158 60 288t154 209q196 166 431 166q106 0 198.5 -29.5t139.5 -66.5l56 74h127l-217 -1051h-125l-15 82q-139 -106 -338 -106.5
t-335 108.5t-136 326zM803 1214q-135 0 -200.5 64.5t-55.5 179.5h158q-8 -108 109.5 -108.5t156.5 108.5h157q-76 -244 -325 -244z" />
    <glyph glyph-name="Aogonek" unicode="&#x104;" horiz-adv-x="1359" 
d="M446 549h525q-68 319 -146 590q-156 -197 -379 -590zM975 -203q0 -37 61.5 -37t165.5 41l-26 -141q-98 -33 -184.5 -33t-130.5 35t-44 94q0 94 75 157.5t177 94.5q-18 119 -63 363h-660q-96 -177 -196 -371h-216q399 799 822 1331h207q205 -680 303 -1331h-45
q-121 -49 -183.5 -102.5t-62.5 -100.5z" />
    <glyph glyph-name="aogonek" unicode="&#x105;" horiz-adv-x="1296" 
d="M586 133q195 0 329 119l117 567q-35 33 -112.5 58.5t-174.5 25.5q-186 0 -323 -131t-137 -362q0 -139 86 -208t215 -69zM825 -203q0 -37 62 -37t166 41l-27 -141q-98 -33 -184 -33t-130 35t-44 94q0 94 73.5 157.5t178.5 94.5l-13 74q-139 -106 -338 -106.5t-335 108.5
t-136 326q0 158 60 288t154 209q196 166 431 166q106 0 198.5 -29.5t139.5 -66.5l56 74h127l-217 -1051q-222 -107 -222 -203z" />
    <glyph glyph-name="Cacute" unicode="&#x106;" horiz-adv-x="1431" 
d="M1059 1356q205 0 414 -86l-41 -189q-221 90 -424 90q-283 0 -483.5 -164.5t-200.5 -453.5q0 -139 75.5 -231.5t183 -127t238.5 -34.5q219 0 447 90l-41 -193q-209 -82 -457 -82q-248 -1 -438 127q-205 138 -205 462q0 174 77 333.5t206 257.5t286.5 149.5t362.5 51.5z
M1343 1751l-268 -297h-174l213 297h229z" />
    <glyph glyph-name="cacute" unicode="&#x107;" horiz-adv-x="1105" 
d="M808.5 1073q197.5 0 340.5 -69l-35 -166q-158 70 -352.5 69.5t-334.5 -129.5t-140 -340q0 -139 91 -215t272.5 -76t363.5 82l-37 -180q-168 -74 -382 -74t-355.5 121t-141.5 330t101.5 358.5t256.5 219t352.5 69.5zM1143 1507l-269 -297h-169l213 297h225z" />
    <glyph glyph-name="Ccircumflex" unicode="&#x108;" horiz-adv-x="1431" 
d="M1059 1356q205 0 414 -86l-41 -189q-221 90 -424 90q-283 0 -483.5 -164.5t-200.5 -453.5q0 -139 75.5 -231.5t183 -127t238.5 -34.5q219 0 447 90l-41 -193q-209 -82 -457 -82q-248 -1 -438 127q-205 138 -205 462q0 174 77 333.5t206 257.5t286.5 149.5t362.5 51.5z
M1169 1751l146 -297h-156l-117 176l-190 -176h-176l268 297h225z" />
    <glyph glyph-name="ccircumflex" unicode="&#x109;" horiz-adv-x="1105" 
d="M808.5 1073q197.5 0 340.5 -69l-35 -166q-158 70 -352.5 69.5t-334.5 -129.5t-140 -340q0 -139 91 -215t272.5 -76t363.5 82l-37 -180q-168 -74 -382 -74t-355.5 121t-141.5 330t101.5 358.5t256.5 219t352.5 69.5zM954 1210l-116 176l-191 -176h-176l268 297h226
l145 -297h-156z" />
    <glyph glyph-name="Cdotaccent" unicode="&#x10a;" horiz-adv-x="1431" 
d="M1059 1356q205 0 414 -86l-41 -189q-221 90 -424 90q-283 0 -483.5 -164.5t-200.5 -453.5q0 -139 75.5 -231.5t183 -127t238.5 -34.5q219 0 447 90l-41 -193q-209 -82 -457 -82q-248 -1 -438 127q-205 138 -205 462q0 174 77 333.5t206 257.5t286.5 149.5t362.5 51.5z
M1139 1649l-41 -201h-205l41 201h205z" />
    <glyph glyph-name="cdotaccent" unicode="&#x10b;" horiz-adv-x="1105" 
d="M808.5 1073q197.5 0 340.5 -69l-35 -166q-158 70 -352.5 69.5t-334.5 -129.5t-140 -340q0 -139 91 -215t272.5 -76t363.5 82l-37 -180q-168 -74 -382 -74t-355.5 121t-141.5 330t101.5 358.5t256.5 219t352.5 69.5zM932 1401l-41 -197h-201l41 197h201z" />
    <glyph glyph-name="Ccaron" unicode="&#x10c;" horiz-adv-x="1431" 
d="M1059 1356q205 0 414 -86l-41 -189q-221 90 -424 90q-283 0 -483.5 -164.5t-200.5 -453.5q0 -139 75.5 -231.5t183 -127t238.5 -34.5q219 0 447 90l-41 -193q-209 -82 -457 -82q-248 -1 -438 127q-205 138 -205 462q0 174 77 333.5t206 257.5t286.5 149.5t362.5 51.5z
M1376 1751l-268 -297h-225l-146 297h156l117 -176l190 176h176z" />
    <glyph glyph-name="ccaron" unicode="&#x10d;" horiz-adv-x="1105" 
d="M808.5 1073q197.5 0 340.5 -69l-35 -166q-158 70 -352.5 69.5t-334.5 -129.5t-140 -340q0 -139 91 -215t272.5 -76t363.5 82l-37 -180q-168 -74 -382 -74t-355.5 121t-141.5 330t101.5 358.5t256.5 219t352.5 69.5zM1171 1507l-268 -297h-225l-146 297h156l117 -176
l190 176h176z" />
    <glyph glyph-name="Dcaron" unicode="&#x10e;" horiz-adv-x="1456" 
d="M498 180q336 0 520 164t184 434q0 180 -115.5 276.5t-336.5 96.5h-250l-203 -971h201zM776 1331q176 0 311.5 -50t221.5 -170t86 -293q1 -173 -51 -312q-96 -258 -338 -388q-217 -118 -504 -118h-434l276 1331h432zM1200 1751l-268 -297h-225l-146 297h156l117 -176
l190 176h176z" />
    <glyph glyph-name="dcaron" unicode="&#x10f;" horiz-adv-x="1591" 
d="M285 410q0 -139 86 -208t215 -69q195 0 329 119l117 567q-34 33 -112 59t-175 25q-186 0 -323 -131t-137 -362zM1753 1415l-201 -340h-155l159 340h197zM98 410q0 158 60 288t153 209q94 80 207 123t225 43q197 0 322 -86l92 428h184l-294 -1415h-125l-15 82
q-139 -106 -338 -106t-335 108q-136 109 -136 326z" />
    <glyph glyph-name="Dcroat" unicode="&#x110;" horiz-adv-x="1456" 
d="M498 180q336 0 520 164t184 434q0 180 -115.5 276.5t-336.5 96.5h-250l-78 -375h420l-35 -176h-422l-88 -420h201zM776 1331q176 0 311.5 -50t221.5 -170t86 -293q1 -173 -51 -312q-96 -258 -338 -388q-217 -118 -504 -118h-434l125 600h-164l34 176h166l115 555h432z
" />
    <glyph glyph-name="dcroat" unicode="&#x111;" horiz-adv-x="1314" 
d="M285 410q0 -139 86 -208t215 -69q194 0 329 119l117 567q-34 33 -112 59t-175 25q-186 0 -323 -131t-137 -362zM98 410q0 158 60 288t153 209q94 80 207 123t225 43q197 0 322 -86l37 170h-291l33 158h291l22 100h184l-20 -100h223l-33 -158h-223l-241 -1157h-125l-15 82
q-139 -106 -338 -106t-335 108q-136 109 -136 326z" />
    <glyph glyph-name="Emacron" unicode="&#x112;" horiz-adv-x="1208" 
d="M500 1155l-80 -383h680l-37 -174h-680l-86 -422h737l-37 -176h-929l276 1331h930l-35 -176h-739zM1137 1624l-33 -158h-561l32 158h562z" />
    <glyph glyph-name="emacron" unicode="&#x113;" horiz-adv-x="1196" 
d="M958 684q0 221 -227 221q-137 0 -251.5 -72t-157.5 -215h630q6 43 6 66zM604 -25q-227 0 -366.5 107.5t-139.5 316.5q0 171 58 305q60 134 156 212q196 158 440 157q193 0 293 -95t100 -271q0 -68 -35 -248h-825l-4 -58q1 -78 35 -132q34 -55 94 -79q106 -44 219 -43
q211 0 409 78l-39 -178q-168 -72 -395 -72zM1042 1417l-32 -157h-561l32 157h561z" />
    <glyph glyph-name="Ebreve" unicode="&#x114;" horiz-adv-x="1208" 
d="M500 1155l-80 -383h680l-37 -174h-680l-86 -422h737l-37 -176h-929l276 1331h930l-35 -176h-739zM836 1450q-135 0 -201 64.5t-55 179.5h157q-4 -51 22.5 -80t88.5 -29q117 0 156 109h157q-76 -244 -325 -244z" />
    <glyph glyph-name="ebreve" unicode="&#x115;" horiz-adv-x="1196" 
d="M958 684q0 221 -227 221q-137 0 -251.5 -72t-157.5 -215h630q6 43 6 66zM604 -25q-227 0 -366.5 107.5t-139.5 316.5q0 171 58 305q60 134 156 212q196 158 440 157q193 0 293 -95t100 -271q0 -68 -35 -248h-825l-4 -58q1 -78 35 -132q34 -55 94 -79q106 -44 219 -43
q211 0 409 78l-39 -178q-168 -72 -395 -72zM760 1214q-135 0 -200.5 64.5t-55.5 179.5h158q-8 -108 109.5 -108.5t156.5 108.5h157q-76 -244 -325 -244z" />
    <glyph glyph-name="Edotaccent" unicode="&#x116;" horiz-adv-x="1208" 
d="M500 1155l-80 -383h680l-37 -174h-680l-86 -422h737l-37 -176h-929l276 1331h930l-35 -176h-739zM963 1649l-41 -201h-205l41 201h205z" />
    <glyph glyph-name="edotaccent" unicode="&#x117;" horiz-adv-x="1196" 
d="M958 684q0 221 -227 221q-137 0 -251.5 -72t-157.5 -215h630q6 43 6 66zM604 -25q-227 0 -366.5 107.5t-139.5 316.5q0 171 58 305q60 134 156 212q196 158 440 157q193 0 293 -95t100 -271q0 -68 -35 -248h-825l-4 -58q1 -78 35 -132q34 -55 94 -79q106 -44 219 -43
q211 0 409 78l-39 -178q-168 -72 -395 -72zM879 1401l-41 -197h-201l41 197h201z" />
    <glyph glyph-name="Eogonek" unicode="&#x118;" horiz-adv-x="1208" 
d="M559 -373q-174 1 -174 143q0 72 66.5 133.5t162.5 96.5h-546l276 1331h930l-35 -176h-739l-80 -383h680l-37 -174h-680l-86 -422h737l-37 -176h-209q-121 -49 -183 -102.5t-62 -100.5q0 -37 61.5 -37t165.5 41l-27 -141q-98 -33 -184 -33z" />
    <glyph glyph-name="eogonek" unicode="&#x119;" horiz-adv-x="1196" 
d="M731 905q-137 0 -251.5 -71.5t-157.5 -215.5h630q6 43 6 66q0 221 -227 221zM606 -203q0 -37 62 -37t166 41l-27 -141q-98 -33 -184 -33t-130 35t-44 94q0 137 172 219h-37q-207 0 -346.5 107.5t-139.5 316.5q0 171 58 305q60 134 156 212q196 158 440 157q193 0 293 -95
t100 -271q0 -68 -35 -248h-825l-4 -58q1 -78 35 -132q34 -55 94 -79q106 -44 219 -43q211 0 409 78l-39 -178q-51 -23 -125 -39q-133 -51 -200.5 -106.5t-67.5 -104.5z" />
    <glyph glyph-name="Ecaron" unicode="&#x11a;" horiz-adv-x="1208" 
d="M500 1155l-80 -383h680l-37 -174h-680l-86 -422h737l-37 -176h-929l276 1331h930l-35 -176h-739zM1200 1751l-268 -297h-225l-146 297h156l117 -176l190 176h176z" />
    <glyph glyph-name="ecaron" unicode="&#x11b;" horiz-adv-x="1196" 
d="M958 684q0 221 -227 221q-137 0 -251.5 -72t-157.5 -215h630q6 43 6 66zM604 -25q-227 0 -366.5 107.5t-139.5 316.5q0 171 58 305q60 134 156 212q196 158 440 157q193 0 293 -95t100 -271q0 -68 -35 -248h-825l-4 -58q1 -78 35 -132q34 -55 94 -79q106 -44 219 -43
q211 0 409 78l-39 -178q-168 -72 -395 -72zM1118 1507l-268 -297h-225l-146 297h156l117 -176l190 176h176z" />
    <glyph glyph-name="Gcircumflex" unicode="&#x11c;" horiz-adv-x="1462" 
d="M998 1356q245 0 417 -66l55 -22l-38 -183q-197 86 -424 86q-283 0 -483.5 -161.5t-200.5 -454.5q0 -201 133 -299t338 -98q126 0 233 26l35 9l94 460h193l-125 -606q-193 -72 -457 -72q-264 -1 -446 131q-194 140 -195 458q0 172 76 330.5t204 257.5t287.5 151.5
t303.5 52.5zM1145 1751l145 -297h-155l-117 176l-191 -176h-176l269 297h225z" />
    <glyph glyph-name="gcircumflex" unicode="&#x11d;" horiz-adv-x="1290" 
d="M285 410q0 -139 86 -208t215 -69q195 0 329 119l117 567q-35 33 -112.5 58.5t-174.5 25.5q-186 0 -323 -131t-137 -362zM426.5 -434q-241.5 0 -420.5 96l37 180q76 -41 188.5 -74.5t195.5 -33.5t145.5 14t125 46t108.5 90.5t64 135.5l9 41q-133 -86 -321 -86t-324 109
t-136 326q0 158 60 288t154 209q196 166 431 166q106 0 198.5 -29.5t139.5 -66.5l56 74h127l-222 -1067q-45 -213 -209.5 -315.5t-406 -102.5zM961 1210l-117 176l-191 -176h-176l268 297h226l145 -297h-155z" />
    <glyph glyph-name="Gbreve" unicode="&#x11e;" horiz-adv-x="1462" 
d="M998 1356q245 0 417 -66l55 -22l-38 -183q-197 86 -424 86q-283 0 -483.5 -161.5t-200.5 -454.5q0 -201 133 -299t338 -98q126 0 233 26l35 9l94 460h193l-125 -606q-193 -72 -457 -72q-264 -1 -446 131q-194 140 -195 458q0 172 76 330.5t204 257.5t287.5 151.5
t303.5 52.5zM987 1450q-135 0 -200.5 64.5t-55.5 179.5h158q-4 -51 22.5 -80t87.5 -29q117 0 156 109h158q-76 -244 -326 -244z" />
    <glyph glyph-name="gbreve" unicode="&#x11f;" horiz-adv-x="1290" 
d="M285 410q0 -139 86 -208t215 -69q195 0 329 119l117 567q-35 33 -112.5 58.5t-174.5 25.5q-186 0 -323 -131t-137 -362zM426.5 -434q-241.5 0 -420.5 96l37 180q76 -41 188.5 -74.5t195.5 -33.5t145.5 14t125 46t108.5 90.5t64 135.5l9 41q-133 -86 -321 -86t-324 109
t-136 326q0 158 60 288t154 209q196 166 431 166q106 0 198.5 -29.5t139.5 -66.5l56 74h127l-222 -1067q-45 -213 -209.5 -315.5t-406 -102.5zM819 1214q-135 0 -200.5 64.5t-55.5 179.5h158q-8 -108 109.5 -108.5t156.5 108.5h158q-76 -244 -326 -244z" />
    <glyph glyph-name="Gdotaccent" unicode="&#x120;" horiz-adv-x="1462" 
d="M998 1356q245 0 417 -66l55 -22l-38 -183q-197 86 -424 86q-283 0 -483.5 -161.5t-200.5 -454.5q0 -201 133 -299t338 -98q126 0 233 26l35 9l94 460h193l-125 -606q-193 -72 -457 -72q-264 -1 -446 131q-194 140 -195 458q0 172 76 330.5t204 257.5t287.5 151.5
t303.5 52.5zM1114 1649l-41 -201h-205l41 201h205z" />
    <glyph glyph-name="gdotaccent" unicode="&#x121;" horiz-adv-x="1290" 
d="M285 410q0 -139 86 -208t215 -69q195 0 329 119l117 567q-35 33 -112.5 58.5t-174.5 25.5q-186 0 -323 -131t-137 -362zM426.5 -434q-241.5 0 -420.5 96l37 180q76 -41 188.5 -74.5t195.5 -33.5t145.5 14t125 46t108.5 90.5t64 135.5l9 41q-133 -86 -321 -86t-324 109
t-136 326q0 158 60 288t154 209q196 166 431 166q106 0 198.5 -29.5t139.5 -66.5l56 74h127l-222 -1067q-45 -213 -209.5 -315.5t-406 -102.5zM938 1401l-41 -197h-201l41 197h201z" />
    <glyph glyph-name="Gcommaaccent" unicode="&#x122;" horiz-adv-x="1462" 
d="M829 -113l-200 -338h-146l160 338h186zM998 1356q245 0 417 -66l55 -22l-38 -183q-197 86 -424 86q-283 0 -483.5 -161.5t-200.5 -454.5q0 -201 133 -299t338 -98q126 0 233 26l35 9l94 460h193l-125 -606q-193 -72 -457 -72q-264 -1 -446 131q-194 140 -195 458
q0 172 76 330.5t204 257.5t287.5 151.5t303.5 52.5z" />
    <glyph glyph-name="gcommaaccent" unicode="&#x123;" horiz-adv-x="1290" 
d="M285 410q0 -139 86 -208t215 -69q195 0 329 119l117 567q-35 33 -112.5 58.5t-174.5 25.5q-186 0 -323 -131t-137 -362zM426.5 -434q-241.5 0 -420.5 96l37 180q76 -41 188.5 -74.5t195.5 -33.5t145.5 14t125 46t108.5 90.5t64 135.5l9 41q-133 -86 -321 -86t-324 109
t-136 326q0 158 60 288t154 209q196 166 431 166q106 0 198.5 -29.5t139.5 -66.5l56 74h127l-222 -1067q-45 -213 -209.5 -315.5t-406 -102.5zM686 1217l201 337h145l-160 -337h-186z" />
    <glyph glyph-name="Hcircumflex" unicode="&#x124;" horiz-adv-x="1472" 
d="M1010 0l123 594h-750l-123 -594h-192l276 1331h193l-115 -555h749l115 555h193l-277 -1331h-192zM1110 1751l145 -297h-155l-117 176l-190 -176h-177l269 297h225z" />
    <glyph glyph-name="hcircumflex" unicode="&#x125;" horiz-adv-x="1290" 
d="M852 1073q342 0 342 -272q0 -47 -16 -133l-138 -668h-184l133 645q16 70 17 109q0 154 -199 153q-106 0 -216 -41t-179 -92l-160 -774h-184l292 1415h185l-94 -457q72 43 182 79t219 36zM866 1497l-116 176l-191 -176h-176l268 297h226l145 -297h-156z" />
    <glyph glyph-name="Hbar" unicode="&#x126;" horiz-adv-x="1464" 
d="M1171 776l48 230h-750l-47 -230h749zM1597 1161l-30 -155h-156l-209 -1006h-192l123 594h-750l-123 -594h-192l208 1006h-163l30 155h166l35 170h193l-35 -170h749l35 170h193l-35 -170h153z" />
    <glyph glyph-name="hbar" unicode="&#x127;" horiz-adv-x="1320" 
d="M852 1073q342 0 342 -272q0 -47 -16 -133l-138 -668h-184l133 645q16 70 17 109q0 154 -199 153q-106 0 -216 -41t-179 -92l-160 -774h-184l239 1157h-225l33 158h225l20 100h185l-21 -100h291l-33 -158h-290l-41 -199q72 43 182 79t219 36z" />
    <glyph glyph-name="Itilde" unicode="&#x128;" horiz-adv-x="530" 
d="M68 0l276 1331h193l-277 -1331h-192zM588 1509q-39 0 -116 28t-108.5 28t-49 -14.5t-31.5 -47.5h-123q72 199 233 199q45 0 116 -27.5t105 -27.5q61 0 84 61h123q-72 -199 -233 -199z" />
    <glyph glyph-name="itilde" unicode="&#x129;" horiz-adv-x="501" 
d="M252 0h-184l217 1051h184zM314 1319q-32 0 -49 -14.5t-32 -47.5h-122q72 199 233 199q45 0 115.5 -27.5t105.5 -27.5q61 0 84 61h123q-72 -199 -233 -198q-39 0 -116 27.5t-109 27.5z" />
    <glyph glyph-name="Imacron" unicode="&#x12a;" horiz-adv-x="530" 
d="M68 0l276 1331h193l-277 -1331h-192zM782 1624l-32 -158h-562l33 158h561z" />
    <glyph glyph-name="imacron" unicode="&#x12b;" horiz-adv-x="501" 
d="M252 0h-184l217 1051h184zM682 1260h-561l33 157h561z" />
    <glyph glyph-name="Ibreve" unicode="&#x12c;" horiz-adv-x="530" 
d="M68 0l276 1331h193l-277 -1331h-192zM481 1450q-135 0 -200.5 64.5t-55.5 179.5h158q-4 -51 22.5 -80t88.5 -29q116 0 155 109h158q-76 -244 -326 -244z" />
    <glyph glyph-name="ibreve" unicode="&#x12d;" horiz-adv-x="501" 
d="M252 0h-184l217 1051h184zM432 1214q-135 0 -200.5 64.5t-55.5 179.5h158q-8 -108 109.5 -108.5t156.5 108.5h158q-76 -244 -326 -244z" />
    <glyph glyph-name="Iogonek" unicode="&#x12e;" horiz-adv-x="530" 
d="M-27 -203q0 -37 62 -37t166 41l-27 -141q-98 -33 -184 -33t-130 35t-44 94q0 94 75.5 156.5t178.5 95.5l274 1323h193l-277 -1331h-41q-121 -49 -183.5 -102.5t-62.5 -100.5z" />
    <glyph glyph-name="iogonek" unicode="&#x12f;" horiz-adv-x="501" 
d="M35 -240q62 0 166 41l-27 -141q-98 -33 -184 -33t-130 35t-44 94q0 94 75 157q77 62 179 95l217 1043h182l-217 -1051h-33q-121 -49 -183 -102t-63 -101q0 -37 62 -37zM354 1415h201l-39 -184h-201z" />
    <glyph glyph-name="Idotaccent" unicode="&#x130;" horiz-adv-x="530" 
d="M68 0l276 1331h193l-277 -1331h-192zM608 1649l-41 -201h-205l41 201h205z" />
    <glyph glyph-name="dotlessi" unicode="&#x131;" horiz-adv-x="501" 
d="M252 0h-184l217 1051h184z" />
    <glyph glyph-name="IJ" unicode="&#x132;" horiz-adv-x="1445" 
d="M791 162q104 0 181 64.5t103 193.5l191 911h192l-198 -956q-84 -399 -500 -400q-158 0 -320 58l39 180q135 -51 312 -51zM68 0l276 1331h193l-277 -1331h-192z" />
    <glyph glyph-name="ij" unicode="&#x133;" horiz-adv-x="1003" 
d="M340 -434q-137 0 -234 41l41 162q84 -33 172 -33t127 19q83 40 113 194l232 1102h182l-228 -1100q-43 -205 -130 -295t-275 -90zM68 0l219 1051h182l-217 -1051h-184zM817 1225l39 184h201l-39 -184h-201zM315 1231l39 184h201l-39 -184h-201z" />
    <glyph glyph-name="Jcircumflex" unicode="&#x134;" horiz-adv-x="915" 
d="M260 162q104 0 181 64.5t104 193.5l190 911h193l-199 -956q-84 -399 -500 -400q-158 0 -319 58l39 180q135 -51 311 -51zM780 1751l146 -297h-156l-117 176l-190 -176h-176l268 297h225z" />
    <glyph glyph-name="jcircumflex" unicode="&#x135;" horiz-adv-x="503" 
d="M-162 -434q-137 0 -233 41l41 162q84 -33 172 -33q86 0 126 20q83 41 113 193l232 1102h182l-227 -1100q-43 -205 -130 -295t-276 -90zM461 1386l-191 -176h-176l268 297h226l145 -297h-155z" />
    <glyph glyph-name="Kcommaaccent" unicode="&#x136;" horiz-adv-x="1249" 
d="M651 -113l-200 -338h-146l160 338h186zM432 666q356 371 725 665h285q-446 -348 -774 -669q231 -248 530 -662h-252q-303 451 -514 666zM68 0l276 1331h193l-277 -1331h-192z" />
    <glyph glyph-name="kcommaaccent" unicode="&#x137;" horiz-adv-x="1105" 
d="M614 -113l-200 -338h-146l160 338h186zM944 1051h262q-283 -215 -575 -494q184 -215 409 -557h-229q-70 117 -182.5 274.5t-227.5 282.5q346 353 543 494zM68 0l292 1415h185l-293 -1415h-184z" />
    <glyph glyph-name="kgreenlandic" unicode="&#x138;" horiz-adv-x="1105" 
d="M944 1051h262q-283 -215 -575 -494q184 -215 409 -557h-229q-70 117 -182.5 274.5t-227.5 282.5q346 353 543 494zM283 1051h184l-215 -1051h-184z" />
    <glyph glyph-name="Lacute" unicode="&#x139;" horiz-adv-x="1103" 
d="M537 1331l-240 -1155h737l-37 -176h-929l276 1331h193zM823 1751l-268 -297h-174l213 297h229z" />
    <glyph glyph-name="lacute" unicode="&#x13a;" horiz-adv-x="499" 
d="M68 0l292 1415h185l-293 -1415h-184zM819 1794l-268 -297h-170l213 297h225z" />
    <glyph glyph-name="Lcommaaccent" unicode="&#x13b;" horiz-adv-x="1103" 
d="M647 -113l-201 -338h-145l160 338h186zM537 1331l-240 -1155h737l-37 -176h-929l276 1331h193z" />
    <glyph glyph-name="lcommaaccent" unicode="&#x13c;" horiz-adv-x="499" 
d="M227 -113l-200 -338h-146l160 338h186zM68 0l292 1415h185l-293 -1415h-184z" />
    <glyph glyph-name="Lcaron" unicode="&#x13d;" horiz-adv-x="1103" 
d="M1032 1331l-201 -340h-155l160 340h196zM537 1331l-240 -1155h737l-37 -176h-929l276 1331h193z" />
    <glyph glyph-name="lcaron" unicode="&#x13e;" horiz-adv-x="735" 
d="M897 1415l-201 -340h-155l159 340h197zM6 0l293 1415h184l-293 -1415h-184z" />
    <glyph glyph-name="Ldot" unicode="&#x13f;" horiz-adv-x="1140" 
d="M952 905l-43 -198h-204l43 198h204zM475 1331l-239 -1155h737l-37 -176h-930l277 1331h192z" />
    <glyph glyph-name="ldot" unicode="&#x140;" horiz-adv-x="686" 
d="M793 1083l-41 -198h-205l41 198h205zM6 0l293 1415h184l-293 -1415h-184z" />
    <glyph glyph-name="Lslash" unicode="&#x141;" horiz-adv-x="1103" 
d="M297 176h737l-37 -176h-929l133 645l-172 -43l34 172l175 43l106 514h193l-97 -463l445 111l-35 -172l-444 -111z" />
    <glyph glyph-name="lslash" unicode="&#x142;" horiz-adv-x="528" 
d="M657 936l-36 -172l-224 -57l-145 -707h-184l135 655l-228 -59l37 172l228 59l120 588h185l-111 -536z" />
    <glyph glyph-name="Nacute" unicode="&#x143;" horiz-adv-x="1486" 
d="M1061 0l-578 1073l-223 -1073h-192l276 1331h211l537 -1007l208 1007h193l-276 -1331h-156zM1296 1751l-268 -297h-174l213 297h229z" />
    <glyph glyph-name="nacute" unicode="&#x144;" horiz-adv-x="1253" 
d="M840 1073q342 0 342 -272q0 -47 -17 -133l-137 -668h-184l133 645q16 70 16 109q0 154 -198 153q-109 0 -217.5 -41t-176.5 -92l-161 -774h-185l217 1051h125l21 -105q72 49 189.5 88t232.5 39zM1135 1507l-269 -297h-170l213 297h226z" />
    <glyph glyph-name="Ncommaaccent" unicode="&#x145;" horiz-adv-x="1486" 
d="M764 -113l-201 -338h-145l160 338h186zM1061 0l-578 1073l-223 -1073h-192l276 1331h211l537 -1007l208 1007h193l-276 -1331h-156z" />
    <glyph glyph-name="ncommaaccent" unicode="&#x146;" horiz-adv-x="1253" 
d="M299 -451l160 338h186l-201 -338h-145zM840 1073q342 0 342 -272q0 -47 -17 -133l-137 -668h-184l133 645q16 70 16 109q0 154 -198 153q-109 0 -217.5 -41t-176.5 -92l-161 -774h-185l217 1051h125l21 -105q72 49 189.5 88t232.5 39z" />
    <glyph glyph-name="Ncaron" unicode="&#x147;" horiz-adv-x="1486" 
d="M1061 0l-578 1073l-223 -1073h-192l276 1331h211l537 -1007l208 1007h193l-276 -1331h-156zM1329 1751l-268 -297h-225l-146 297h156l117 -176l190 176h176z" />
    <glyph glyph-name="ncaron" unicode="&#x148;" horiz-adv-x="1253" 
d="M840 1073q342 0 342 -272q0 -47 -17 -133l-137 -668h-184l133 645q16 70 16 109q0 154 -198 153q-109 0 -217.5 -41t-176.5 -92l-161 -774h-185l217 1051h125l21 -105q72 49 189.5 88t232.5 39zM895 1210h-225l-146 297h156l117 -176l190 176h176z" />
    <glyph glyph-name="napostrophe" unicode="&#x149;" horiz-adv-x="1382" 
d="M840 1073q342 0 342 -272q0 -47 -17 -133l-137 -668h-184l133 645q16 70 16 109q0 154 -198 153q-109 0 -217.5 -41t-176.5 -92l-161 -774h-185l217 1051h125l21 -105q72 49 189.5 88t232.5 39zM346 1415l-201 -340h-145l160 340h186z" />
    <glyph glyph-name="Eng" unicode="&#x14a;" horiz-adv-x="1486" 
d="M729 -305q104 1 181 65t104 193l20 96l-551 1024l-223 -1073h-192l276 1331h211l537 -1007l208 1007h193l-295 -1423q-82 -399 -500 -400q-138 0 -276 43l-43 15l39 180q137 -51 311 -51z" />
    <glyph glyph-name="eng" unicode="&#x14b;" horiz-adv-x="1290" 
d="M1194 801q0 -47 -16 -133l-146 -717q-41 -205 -129 -295t-276 -90q-123 0 -205 31l-29 10l41 162q88 -33 205 -33q166 0 207 213l143 696q16 70 17 109q0 154 -199 153q-97 0 -195 -34t-149 -66l-49 -33l-162 -774h-184l217 1051h125l20 -105q22 14 60 36t149 56t213 35
q342 0 342 -272z" />
    <glyph glyph-name="Omacron" unicode="&#x14c;" horiz-adv-x="1617" 
d="M924 1176q-262 0 -431 -162t-169 -443q0 -199 123.5 -305t334.5 -106q248 0 416 164.5t168 435.5q0 205 -118.5 310.5t-323.5 105.5zM950 1356q293 0 453 -158t160 -426q0 -356 -227.5 -576.5t-577.5 -220.5q-295 0 -463 161t-168 431q0 352 227 570.5t596 218.5z
M1278 1624l-33 -158h-561l33 158h561z" />
    <glyph glyph-name="omacron" unicode="&#x14d;" horiz-adv-x="1296" 
d="M609 145q169 0 304.5 131.5t135.5 344.5q0 121 -78 201.5t-248 80.5t-304 -131t-134 -344q0 -121 77.5 -202t246.5 -81zM778 1073h2q199 0 327 -116.5t128 -319.5t-97.5 -355.5t-250 -226t-334.5 -80.5q-199 0 -327 117t-128 318q0 309 198.5 486t481.5 177zM1083 1417
l-32 -157h-562l33 157h561z" />
    <glyph glyph-name="Obreve" unicode="&#x14e;" horiz-adv-x="1617" 
d="M924 1176q-262 0 -431 -162t-169 -443q0 -199 123.5 -305t334.5 -106q248 0 416 164.5t168 435.5q0 205 -118.5 310.5t-323.5 105.5zM950 1356q293 0 453 -158t160 -426q0 -356 -227.5 -576.5t-577.5 -220.5q-295 0 -463 161t-168 431q0 352 227 570.5t596 218.5z
M977 1450q-135 0 -200.5 64.5t-55.5 179.5h158q-4 -51 22.5 -80t87.5 -29q117 0 156 109h158q-76 -244 -326 -244z" />
    <glyph glyph-name="obreve" unicode="&#x14f;" horiz-adv-x="1296" 
d="M609 145q169 0 304.5 131.5t135.5 344.5q0 121 -78 201.5t-248 80.5t-304 -131t-134 -344q0 -121 77.5 -202t246.5 -81zM778 1073h2q199 0 327 -116.5t128 -319.5t-97.5 -355.5t-250 -226t-334.5 -80.5q-199 0 -327 117t-128 318q0 309 198.5 486t481.5 177zM801 1214
q-135 0 -200.5 64.5t-55.5 179.5h157q-4 -51 23 -79.5t88 -28.5q117 -1 156 108h157q-76 -244 -325 -244z" />
    <glyph glyph-name="Ohungarumlaut" unicode="&#x150;" horiz-adv-x="1617" 
d="M924 1176q-262 0 -431 -162t-169 -443q0 -199 123.5 -305t334.5 -106q248 0 416 164.5t168 435.5q0 205 -118.5 310.5t-323.5 105.5zM950 1356q293 0 453 -158t160 -426q0 -356 -227.5 -576.5t-577.5 -220.5q-295 0 -463 161t-168 431q0 352 227 570.5t596 218.5z
M1495 1751l-272 -297h-168l213 297h227zM1153 1751l-272 -297h-168l213 297h227z" />
    <glyph glyph-name="ohungarumlaut" unicode="&#x151;" horiz-adv-x="1296" 
d="M609 145q169 0 304.5 131.5t135.5 344.5q0 121 -78 201.5t-248 80.5t-304 -131t-134 -344q0 -121 77.5 -202t246.5 -81zM778 1073h2q199 0 327 -116.5t128 -319.5t-97.5 -355.5t-250 -226t-334.5 -80.5q-199 0 -327 117t-128 318q0 309 198.5 486t481.5 177zM1331 1507
l-272 -297h-168l213 297h227zM989 1507l-272 -297h-168l213 297h227z" />
    <glyph glyph-name="OE" unicode="&#x152;" horiz-adv-x="2050" 
d="M924 1178q-254 0 -427 -164t-173 -443q0 -199 120 -307t316 -108q106 0 186 20l201 969q-84 33 -223 33zM737 -25q-274 0 -442 163t-168 429q0 349 230 569t593 220q141 0 242 -25h924l-35 -176h-740l-79 -383h680l-37 -174h-680l-86 -422h737l-37 -176h-913
q-104 -25 -189 -25z" />
    <glyph glyph-name="oe" unicode="&#x153;" horiz-adv-x="2123" 
d="M592 145h2q186 0 320 131t135 345q0 121 -78 201t-248 81q-170 0 -304 -131t-134 -344q-1 -121 77 -202t230 -81zM1659 905q-139 1 -253 -71t-157 -216h631q6 43 6 66q0 221 -227 221zM1511 -25q-340 0 -434 238q-96 -113 -234 -175t-290 -63q-199 0 -327 117t-128 318
q0 309 199 486t481 177h2q135 0 244 -61t164 -168q88 113 219 171t272 58q189 0 291 -97t103 -269q0 -68 -35 -248h-826l-4 -58q0 -248 348 -254q96 -1 198 19t159 39l53 20l-39 -178q-168 -72 -416 -72z" />
    <glyph glyph-name="Racute" unicode="&#x154;" horiz-adv-x="1298" 
d="M715 666q133 0 243 53q134 64 134 239q0 92 -74 142.5t-176 50.5h-342l-101 -485h316zM864 1331q156 0 280 -78q66 -41 105 -118.5t39 -184.5q0 -182 -124 -296.5t-292 -151.5q162 -234 312 -502h-230q-139 256 -299 485h-293l-102 -485h-192l276 1331h520zM1133 1751
l-269 -297h-174l213 297h230z" />
    <glyph glyph-name="racute" unicode="&#x155;" horiz-adv-x="835" 
d="M913 1073l-39 -186q-139 0 -269 -34t-193 -77l-160 -776h-184l219 1051h123l20 -105q86 55 219 91t264 36zM987 1507l-268 -297h-170l213 297h225z" />
    <glyph glyph-name="Rcommaaccent" unicode="&#x156;" horiz-adv-x="1298" 
d="M680 -113l-201 -338h-145l160 338h186zM715 666q133 0 243 53q134 64 134 239q0 92 -74 142.5t-176 50.5h-342l-101 -485h316zM864 1331q156 0 280 -78q66 -41 105 -118.5t39 -184.5q0 -182 -124 -296.5t-292 -151.5q162 -234 312 -502h-230q-139 256 -299 485h-293
l-102 -485h-192l276 1331h520z" />
    <glyph glyph-name="rcommaaccent" unicode="&#x157;" horiz-adv-x="835" 
d="M227 -113l-200 -338h-146l160 338h186zM913 1073l-39 -186q-139 0 -269 -34t-193 -77l-160 -776h-184l219 1051h123l20 -105q86 55 219 91t264 36z" />
    <glyph glyph-name="Rcaron" unicode="&#x158;" horiz-adv-x="1298" 
d="M715 666q133 0 243 53q134 64 134 239q0 92 -74 142.5t-176 50.5h-342l-101 -485h316zM864 1331q156 0 280 -78q66 -41 105 -118.5t39 -184.5q0 -182 -124 -296.5t-292 -151.5q162 -234 312 -502h-230q-139 256 -299 485h-293l-102 -485h-192l276 1331h520zM1165 1751
l-268 -297h-225l-146 297h156l117 -176l190 176h176z" />
    <glyph glyph-name="rcaron" unicode="&#x159;" horiz-adv-x="835" 
d="M913 1073l-39 -186q-139 0 -269 -34t-193 -77l-160 -776h-184l219 1051h123l20 -105q86 55 219 91t264 36zM1016 1507l-268 -297h-226l-145 297h155l117 -176l191 176h176z" />
    <glyph glyph-name="Sacute" unicode="&#x15a;" horiz-adv-x="1234" 
d="M800 1356q249 0 445 -66l-39 -186q-197 74 -412 74q-214 0 -318 -82q-60 -47 -60 -120t71.5 -119t175 -73.5t206 -62.5t174 -113t71.5 -198q0 -197 -166 -316t-436 -119t-500 88l41 187q233 -92 434 -92t311.5 62.5t110.5 166.5q-1 139 -245 201q-102 26 -204 60
t-173.5 111t-71.5 197q0 203 168 301.5t417 98.5zM1155 1751l-268 -297h-174l213 297h229z" />
    <glyph glyph-name="sacute" unicode="&#x15b;" horiz-adv-x="1069" 
d="M360 767q0 -56 63.5 -88t154 -48.5t179.5 -40t152.5 -88t63.5 -170.5q0 -176 -149.5 -266.5t-380 -90.5t-423.5 82l35 164q203 -80 396 -80q127 0 229 41t102 129q0 66 -63.5 100.5t-153.5 51t-181 39t-154.5 84t-63.5 160t47 164.5t127 100q149 62 353 62.5t343 -50.5
l-32 -162q-150 51 -327 51t-265 -55q-52 -33 -52 -89zM1030 1507l-268 -297h-170l213 297h225z" />
    <glyph glyph-name="Scircumflex" unicode="&#x15c;" horiz-adv-x="1234" 
d="M800 1356q249 0 445 -66l-39 -186q-197 74 -412 74q-214 0 -318 -82q-60 -47 -60 -120t71.5 -119t175 -73.5t206 -62.5t174 -113t71.5 -198q0 -197 -166 -316t-436 -119t-500 88l41 187q233 -92 434 -92t311.5 62.5t110.5 166.5q-1 139 -245 201q-102 26 -204 60
t-173.5 111t-71.5 197q0 203 168 301.5t417 98.5zM981 1751l145 -297h-155l-117 176l-190 -176h-177l269 297h225z" />
    <glyph glyph-name="scircumflex" unicode="&#x15d;" horiz-adv-x="1069" 
d="M360 767q0 -56 63.5 -88t154 -48.5t179.5 -40t152.5 -88t63.5 -170.5q0 -176 -149.5 -266.5t-380 -90.5t-423.5 82l35 164q203 -80 396 -80q127 0 229 41t102 129q0 66 -63.5 100.5t-153.5 51t-181 39t-154.5 84t-63.5 160t47 164.5t127 100q149 62 353 62.5t343 -50.5
l-32 -162q-150 51 -327 51t-265 -55q-52 -33 -52 -89zM842 1210l-117 176l-190 -176h-177l269 297h225l145 -297h-155z" />
    <glyph glyph-name="Scedilla" unicode="&#x15e;" horiz-adv-x="1234" 
d="M416 976q0 -73 71.5 -119t175 -73.5t206 -62.5t174 -113t71.5 -198q0 -186 -148.5 -303t-402.5 -130l-20 -61q123 -20 123 -135q0 -94 -62.5 -149.5t-168 -55.5t-214.5 29l27 125q98 -27 174 -27q100 0 100 68q0 49 -88 49q-43 0 -80 -6l78 163q-236 14 -420 86l41 187
q233 -92 434 -92t311.5 62.5t110.5 166.5q-1 139 -245 201q-102 26 -204 60t-173.5 111t-71.5 197q0 203 168 301.5t417 98.5t445 -66l-39 -186q-197 74 -412 74q-214 0 -318 -82q-60 -47 -60 -120z" />
    <glyph glyph-name="scedilla" unicode="&#x15f;" horiz-adv-x="1069" 
d="M360 767q0 -56 63.5 -88t154 -48.5t179.5 -40t152.5 -88t63.5 -170.5q0 -154 -118 -243t-308 -107l-23 -66q123 -20 123 -135q0 -94 -62.5 -149.5t-168 -55.5t-213.5 29l26 125q98 -27 174 -27q100 0 101 68q0 49 -88 49q-43 0 -80 -6l76 161q-217 8 -392 82l35 164
q203 -80 396 -80q127 0 229 41t102 129q0 66 -63.5 100.5t-153.5 51t-181 39t-154.5 84t-63.5 160t47 164.5t127 100q149 62 353 62.5t343 -50.5l-32 -162q-150 51 -327 51t-265 -55q-52 -33 -52 -89z" />
    <glyph glyph-name="Scaron" unicode="&#x160;" horiz-adv-x="1234" 
d="M800 1356q249 0 445 -66l-39 -186q-197 74 -412 74q-214 0 -318 -82q-60 -47 -60 -120t71.5 -119t175 -73.5t206 -62.5t174 -113t71.5 -198q0 -197 -166 -316t-436 -119t-500 88l41 187q233 -92 434 -92t311.5 62.5t110.5 166.5q-1 139 -245 201q-102 26 -204 60
t-173.5 111t-71.5 197q0 203 168 301.5t417 98.5zM1188 1751l-268 -297h-226l-145 297h156l116 -176l191 176h176z" />
    <glyph glyph-name="scaron" unicode="&#x161;" horiz-adv-x="1069" 
d="M360 767q0 -56 63.5 -88t154 -48.5t179.5 -40t152.5 -88t63.5 -170.5q0 -176 -149.5 -266.5t-380 -90.5t-423.5 82l35 164q203 -80 396 -80q127 0 229 41t102 129q0 66 -63.5 100.5t-153.5 51t-181 39t-154.5 84t-63.5 160t47 164.5t127 100q149 62 353 62.5t343 -50.5
l-32 -162q-150 51 -327 51t-265 -55q-52 -33 -52 -89zM1059 1507l-268 -297h-226l-145 297h155l117 -176l191 176h176z" />
    <glyph glyph-name="Tcedilla" unicode="&#x162;" horiz-adv-x="1224" 
d="M575 -113l-200 -338h-146l160 338h186zM842 1155l-240 -1155h-192l239 1155h-499l36 176h1192l-37 -176h-499z" />
    <glyph glyph-name="tcedilla" unicode="&#x163;" horiz-adv-x="774" 
d="M487 -113l-200 -338h-146l160 338h186zM474 139q95 0 188 27l-31 -168q-98 -23 -206 -23t-186.5 54.5t-78.5 177.5q0 33 8 76l131 612h-213l33 156h217l80 229h145l-47 -229h338l-33 -156h-340l-127 -604q-16 -78 5.5 -115t116.5 -37z" />
    <glyph glyph-name="Tcaron" unicode="&#x164;" horiz-adv-x="1224" 
d="M842 1155l-240 -1155h-192l239 1155h-499l36 176h1192l-37 -176h-499zM1161 1751l-268 -297h-225l-146 297h156l117 -176l190 176h176z" />
    <glyph glyph-name="tcaron" unicode="&#x165;" horiz-adv-x="774" 
d="M474 139q95 0 188 27l-31 -168q-98 -23 -206 -23t-186.5 54.5t-78.5 177.5q0 33 8 76l131 612h-213l33 156h217l80 229h145l-47 -229h338l-33 -156h-340l-127 -604q-16 -78 5.5 -115t116.5 -37zM1077 1477l-200 -340h-156l160 340h196z" />
    <glyph glyph-name="Tbar" unicode="&#x166;" horiz-adv-x="1224" 
d="M1341 1155h-499l-78 -379h285l-35 -176h-287l-125 -600h-192l125 600h-293l34 176h295l78 379h-499l36 176h1192z" />
    <glyph glyph-name="tbar" unicode="&#x167;" horiz-adv-x="817" 
d="M474 139q95 0 188 27l-31 -168q-98 -23 -206 -23t-186.5 54.5t-78.5 177.5q0 33 8 76l65 303h-198l33 157h198l33 152h-213l33 156h217l80 229h145l-47 -229h338l-33 -156h-340l-33 -152h357l-33 -157h-356l-62 -295q-16 -78 5.5 -115t116.5 -37z" />
    <glyph glyph-name="Utilde" unicode="&#x168;" horiz-adv-x="1445" 
d="M160 395q0 84 22 187l156 749h192l-159 -764q-20 -96 -21 -145q0 -270 295 -270q172 0 295 108.5t166 308.5l160 762h192l-153 -749q-125 -606 -682 -607q-250 0 -356.5 117t-106.5 303zM1034 1509q-39 0 -115.5 28t-108.5 28t-49.5 -14.5t-31.5 -47.5h-123
q72 199 234 199q45 0 115.5 -27.5t105.5 -27.5q61 0 84 61h123q-72 -199 -234 -199z" />
    <glyph glyph-name="utilde" unicode="&#x169;" horiz-adv-x="1271" 
d="M303 303q0 -162 217 -162q109 0 212.5 41t162.5 92l160 777h184l-219 -1051h-121l-18 104q-57 -49 -167 -89t-253.5 -40t-242.5 74t-99 215q0 55 12 119l135 668h185l-134 -648q-14 -61 -14 -100zM670 1319q-55 0 -82 -62h-123q72 199 233 199q45 0 116 -27.5t106 -27.5
q64 0 84 61h122q-72 -199 -233 -198q-39 0 -116 27.5t-107 27.5z" />
    <glyph glyph-name="Umacron" unicode="&#x16a;" horiz-adv-x="1445" 
d="M160 395q0 84 22 187l156 749h192l-159 -764q-20 -96 -21 -145q0 -270 295 -270q172 0 295 108.5t166 308.5l160 762h192l-153 -749q-125 -606 -682 -607q-250 0 -356.5 117t-106.5 303zM1229 1624l-33 -158h-561l33 158h561z" />
    <glyph glyph-name="umacron" unicode="&#x16b;" horiz-adv-x="1271" 
d="M303 303q0 -162 217 -162q109 0 212.5 41t162.5 92l160 777h184l-219 -1051h-121l-18 104q-57 -49 -167 -89t-253.5 -40t-242.5 74t-99 215q0 55 12 119l135 668h185l-134 -648q-14 -61 -14 -100zM1069 1417l-33 -157h-561l33 157h561z" />
    <glyph glyph-name="Ubreve" unicode="&#x16c;" horiz-adv-x="1445" 
d="M160 395q0 84 22 187l156 749h192l-159 -764q-20 -96 -21 -145q0 -270 295 -270q172 0 295 108.5t166 308.5l160 762h192l-153 -749q-125 -606 -682 -607q-250 0 -356.5 117t-106.5 303zM928 1450q-135 0 -200.5 64.5t-55.5 179.5h157q-4 -51 23 -80t88 -29
q117 0 156 109h157q-76 -244 -325 -244z" />
    <glyph glyph-name="ubreve" unicode="&#x16d;" horiz-adv-x="1271" 
d="M303 303q0 -162 217 -162q109 0 212.5 41t162.5 92l160 777h184l-219 -1051h-121l-18 104q-57 -49 -167 -89t-253.5 -40t-242.5 74t-99 215q0 55 12 119l135 668h185l-134 -648q-14 -61 -14 -100zM786 1214q-135 0 -200.5 64.5t-55.5 179.5h158q-8 -108 109.5 -108.5
t156.5 108.5h158q-76 -244 -326 -244z" />
    <glyph glyph-name="Uring" unicode="&#x16e;" horiz-adv-x="1445" 
d="M160 395q0 84 22 187l156 749h192l-159 -764q-20 -96 -21 -145q0 -270 295 -270q172 0 295 108.5t166 308.5l160 762h192l-153 -749q-125 -606 -682 -607q-250 0 -356.5 117t-106.5 303zM967 1714q-59 0 -92 -27.5t-33 -66.5q0 -70 94 -70q57 0 90 27t33 70q0 67 -92 67z
M942.5 1456q-102.5 0 -153 43t-50.5 122t63.5 133t162 54t147.5 -42t49 -115.5t-58 -134t-160.5 -60.5z" />
    <glyph glyph-name="uring" unicode="&#x16f;" horiz-adv-x="1271" 
d="M303 303q0 -162 217 -162q109 0 212.5 41t162.5 92l160 777h184l-219 -1051h-121l-18 104q-57 -49 -167 -89t-253.5 -40t-242.5 74t-99 215q0 55 12 119l135 668h185l-134 -648q-14 -61 -14 -100zM807 1446q-59 0 -92 -27.5t-33 -66.5q0 -70 94 -70q57 0 90 26.5t33 69.5
q0 68 -92 68zM782 1188q-202 0 -202 164q0 78 63.5 133t161.5 55t147 -42t49 -115.5t-58.5 -134t-160.5 -60.5z" />
    <glyph glyph-name="Uhungarumlaut" unicode="&#x170;" horiz-adv-x="1445" 
d="M160 395q0 84 22 187l156 749h192l-159 -764q-20 -96 -21 -145q0 -270 295 -270q172 0 295 108.5t166 308.5l160 762h192l-153 -749q-125 -606 -682 -607q-250 0 -356.5 117t-106.5 303zM1446 1751l-272 -297h-168l213 297h227zM1104 1751l-273 -297h-167l213 297h227z
" />
    <glyph glyph-name="uhungarumlaut" unicode="&#x171;" horiz-adv-x="1271" 
d="M303 303q0 -162 217 -162q109 0 212.5 41t162.5 92l160 777h184l-219 -1051h-121l-18 104q-57 -49 -167 -89t-253.5 -40t-242.5 74t-99 215q0 55 12 119l135 668h185l-134 -648q-14 -61 -14 -100zM1317 1507l-273 -297h-167l213 297h227zM975 1507l-273 -297h-167
l213 297h227z" />
    <glyph glyph-name="Uogonek" unicode="&#x172;" horiz-adv-x="1445" 
d="M594 -203q0 -37 61.5 -37t165.5 41l-26 -141q-98 -33 -184.5 -33t-130.5 35t-44 94q0 137 172 219q-250 4 -349 126t-99 294q0 84 22 187l156 749h192l-159 -764q-20 -96 -21 -145q0 -270 295 -270q172 0 295 108.5t166 308.5l160 762h192l-153 -749q-96 -469 -445 -574
q-131 -51 -198.5 -106.5t-67.5 -104.5z" />
    <glyph glyph-name="uogonek" unicode="&#x173;" horiz-adv-x="1271" 
d="M803 -203q-1 -37 61 -37t166 41l-26 -141q-98 -33 -184 -33t-130.5 35t-44.5 94q0 94 75 157.5t177 94.5l-16 96q-57 -49 -167 -89t-254 -40t-242.5 74t-98.5 215q0 55 12 119l135 668h185l-134 -648q-14 -61 -14 -100q0 -162 217 -162q109 0 212.5 41t162.5 92l160 777
h184l-219 -1051q-121 -57 -169 -104.5t-48 -98.5z" />
    <glyph glyph-name="Wcircumflex" unicode="&#x174;" horiz-adv-x="1763" 
d="M1702 1331h199q-293 -721 -627 -1331h-203q-78 350 -141 772q-49 -104 -192.5 -349t-256.5 -423h-188q-72 571 -86 1331h188q10 -537 49 -1071q205 326 474 850h157q43 -434 129 -866q279 546 498 1087zM1227 1751l145 -297h-155l-117 176l-191 -176h-176l268 297h226z
" />
    <glyph glyph-name="wcircumflex" unicode="&#x175;" horiz-adv-x="1742" 
d="M1053 1051q0 -101 44 -406t72 -444q246 389 453 850h182q-86 -211 -239.5 -506t-327.5 -545h-195q-96 424 -133 752q-240 -465 -428 -752h-176q-135 526 -160 1051h172q33 -451 111 -822q94 141 248 419t205 403h172zM1155 1210l-117 176l-190 -176h-176l268 297h225
l146 -297h-156z" />
    <glyph glyph-name="Ycircumflex" unicode="&#x176;" horiz-adv-x="1107" 
d="M1071 1331h232q-383 -565 -656 -899l-84 -432h-194l92 453q-174 391 -342 878h203q123 -387 264 -710q249 331 485 710zM895 1751l145 -297h-155l-117 176l-190 -176h-177l269 297h225z" />
    <glyph glyph-name="ycircumflex" unicode="&#x177;" horiz-adv-x="1089" 
d="M-23 -434q-90 0 -149 18l43 180q61 -20 123 -20q109 0 193.5 72.5t177.5 214.5q-88 258 -153 542.5t-89 477.5h184q76 -518 187 -846q253 373 501 846h203q-303 -565 -637 -1051q-154 -223 -291 -328.5t-293 -105.5zM842 1210l-117 176l-190 -176h-177l269 297h225
l145 -297h-155z" />
    <glyph glyph-name="Ydieresis" unicode="&#x178;" horiz-adv-x="1107" 
d="M1071 1331h232q-383 -565 -656 -899l-84 -432h-194l92 453q-174 391 -342 878h203q123 -387 264 -710q249 331 485 710zM1067 1649l-41 -201h-205l41 201h205zM662 1649l-41 -201h-205l41 201h205z" />
    <glyph glyph-name="Zacute" unicode="&#x179;" horiz-adv-x="1224" 
d="M303 176h768l-37 -176h-1059l37 133l985 1022h-772l35 176h1067l-37 -133zM1137 1751l-269 -297h-174l213 297h230z" />
    <glyph glyph-name="zacute" unicode="&#x17a;" horiz-adv-x="1036" 
d="M270 166h639l-32 -166h-881l37 172l774 713h-604l35 166h852l-37 -172zM1014 1507l-269 -297h-170l213 297h226z" />
    <glyph glyph-name="Zdotaccent" unicode="&#x17b;" horiz-adv-x="1224" 
d="M303 176h768l-37 -176h-1059l37 133l985 1022h-772l35 176h1067l-37 -133zM932 1649l-41 -201h-205l41 201h205z" />
    <glyph glyph-name="zdotaccent" unicode="&#x17c;" horiz-adv-x="1036" 
d="M270 166h639l-32 -166h-881l37 172l774 713h-604l35 166h852l-37 -172zM803 1401l-41 -197h-201l41 197h201z" />
    <glyph glyph-name="Zcaron" unicode="&#x17d;" horiz-adv-x="1224" 
d="M303 176h768l-37 -176h-1059l37 133l985 1022h-772l35 176h1067l-37 -133zM1169 1751l-268 -297h-225l-146 297h156l117 -176l190 176h176z" />
    <glyph glyph-name="zcaron" unicode="&#x17e;" horiz-adv-x="1036" 
d="M270 166h639l-32 -166h-881l37 172l774 713h-604l35 166h852l-37 -172zM1042 1507l-268 -297h-225l-146 297h156l117 -176l190 176h176z" />
    <glyph glyph-name="longs" unicode="&#x17f;" horiz-adv-x="681" 
d="M737 1456q90 0 176 -29l-34 -157q-74 24 -159 24t-127 -32t-61 -121l-233 -1141h-182l182 895h-190l30 156h193l22 102q37 175 131 239t252 64z" />
    <glyph glyph-name="Schwa" unicode="&#x18f;" horiz-adv-x="1591" 
d="M751 160q207 0 355 111q147 112 199 323h-975q-6 -43 -6 -84q0 -170 110 -260t317 -90zM942 1356q278 0 436 -146t158 -391q0 -318 -185 -567q-93 -125 -254 -201t-368 -76q-276 -1 -439 139t-163 363q0 78 20 209l15 84h1173q2 16 2 47q0 162 -113 259q-227 193 -825 7
l39 199q283 74 504 74z" />
    <glyph glyph-name="florin" unicode="&#x192;" horiz-adv-x="841" 
d="M737 1356q83 0 152 -21l24 -8l-34 -158q-72 25 -158 25t-128 -33t-61 -121l-18 -90h330l-31 -155h-330l-145 -707q-39 -190 -124 -269t-239 -79q-74 0 -135 16l-24 6l34 154q84 -16 134 -16q82 0 118 53t58 160l139 682h-190l30 155h193l22 103q37 175 131 239t252 64z
" />
    <glyph glyph-name="Aringacute" unicode="&#x1fa;" horiz-adv-x="1359" 
d="M825 1139q-156 -197 -379 -590h525q-68 320 -146 590zM346 371q-96 -177 -196 -371h-216q399 799 822 1331h207q205 -680 303 -1331h-195q-25 160 -65 371h-660zM932 1714q-59 0 -92 -27.5t-33 -66.5q0 -70 94 -70q57 0 90 27t33 70q0 67 -92 67zM908 1456
q-202 0 -203 165q0 79 63 133t161.5 54t147.5 -42t49 -115.5t-58 -134t-160 -60.5zM1325 2179l-268 -297h-174l213 297h229z" />
    <glyph glyph-name="aringacute" unicode="&#x1fb;" horiz-adv-x="1296" 
d="M285 410q0 -139 86 -208t215 -69q195 0 329 119l117 567q-35 33 -112.5 58.5t-174.5 25.5q-186 0 -323 -131t-137 -362zM98 410q0 158 60 288t154 209q196 166 431 166q106 0 198.5 -29.5t139.5 -66.5l56 74h127l-217 -1051h-125l-15 82q-139 -106 -338 -106.5
t-335 108.5t-136 326zM823 1446q-59 0 -92 -27.5t-33 -66.5q0 -70 95 -70q57 0 89.5 26.5t32.5 69.5q0 68 -92 68zM798 1188q-202 0 -202 164q0 78 63.5 133t162 55t147.5 -42t49 -115.5t-59 -134t-161 -60.5zM1217 1913l-269 -297h-170l213 297h226z" />
    <glyph glyph-name="AEacute" unicode="&#x1fc;" horiz-adv-x="1972" 
d="M1022 543l127 620q-293 -293 -571 -620h444zM1341 1155l-79 -383h604l-37 -174h-604l-86 -422h659l-37 -176h-852l76 367h-553q-111 -135 -291 -367h-233q686 889 1171 1331h959l-37 -176h-660zM1593 1454h-174l213 297h230z" />
    <glyph glyph-name="aeacute" unicode="&#x1fd;" horiz-adv-x="2000" 
d="M311 285q0 -142 210 -142t419 133q-8 57 -8 87.5t4 74.5q-139 76 -306 76t-243 -64.5t-76 -164.5zM1571 905q-137 0 -252 -71.5t-158 -215.5h631q6 43 6 66q0 221 -227 221zM1487.5 147q76.5 0 179 19.5t156.5 38.5l55 20l-39 -178q-168 -72 -416 -72q-293 0 -411 181
q-276 -180 -547 -181q-166 0 -260 79t-94 216q0 176 135 287t385 111q184 0 332 -84l14 65q8 33 8 74q0 102 -77 140t-230.5 38t-388.5 -72l39 183q217 61 424 61q328 0 393 -176q176 176 446 176q193 0 293.5 -95t100.5 -271q0 -68 -35 -248h-826l-4 -58q0 -78 35 -132
t94.5 -78.5t110.5 -34t127.5 -9.5zM1286 1210h-170l213 297h225z" />
    <glyph glyph-name="Oslashacute" unicode="&#x1fe;" horiz-adv-x="1617" 
d="M1366 760q0 133 -55 231l-803 -768q109 -63 274 -63q248 0 416 165t168 435zM324 571q0 -145 65 -241l811 776q-109 70 -276 70q-262 0 -431 -162t-169 -443zM758 -25q-233 0 -396 107l-147 -139l-113 112l142 138q-117 152 -117 374q0 352 227.5 570.5t595.5 218.5
q240 0 396 -109l129 123l114 -113l-131 -124q104 -145 105 -361q0 -356 -227.5 -576.5t-577.5 -220.5zM1309 1751l-269 -297h-174l213 297h230z" />
    <glyph glyph-name="oslashacute" unicode="&#x1ff;" horiz-adv-x="1310" 
d="M1049 621q0 76 -31 139l-600 -576q72 -39 174 -39q186 0 321.5 131.5t135.5 344.5zM285 428q0 -68 24 -125l592 567q-70 33 -162 33q-186 0 -320 -131t-134 -344zM1235 639q0 -205 -97.5 -357.5t-250 -226t-334.5 -80.5q-158 0 -274 76l-111 -104l-115 110l113 109
q-68 102 -68 244q0 309 199 486t481 177h2q145 0 262 -67l97 92l116 -111l-96 -92q76 -104 76 -256zM1126 1507l-268 -297h-170l213 297h225z" />
    <glyph glyph-name="Scommaaccent" unicode="&#x218;" horiz-adv-x="1234" 
d="M625 -113l-201 -338h-145l159 338h187zM800 1356q249 0 445 -66l-39 -186q-197 74 -412 74q-214 0 -318 -82q-60 -47 -60 -120t71.5 -119t175 -73.5t206 -62.5t174 -113t71.5 -198q0 -197 -166 -316t-436 -119t-500 88l41 187q233 -92 434 -92t311.5 62.5t110.5 166.5
q-1 139 -245 201q-102 26 -204 60t-173.5 111t-71.5 197q0 203 168 301.5t417 98.5z" />
    <glyph glyph-name="scommaaccent" unicode="&#x219;" horiz-adv-x="1069" 
d="M606 -113l-200 -338h-146l160 338h186zM360 767q0 -56 63.5 -88t154 -48.5t179.5 -40t152.5 -88t63.5 -170.5q0 -176 -149.5 -266.5t-380 -90.5t-423.5 82l35 164q203 -80 396 -80q127 0 229 41t102 129q0 66 -63.5 100.5t-153.5 51t-181 39t-154.5 84t-63.5 160
t47 164.5t127 100q149 62 353 62.5t343 -50.5l-32 -162q-150 51 -327 51t-265 -55q-52 -33 -52 -89z" />
    <glyph glyph-name="Tcommaaccent" unicode="&#x21a;" horiz-adv-x="1224" 
d="M575 -113l-200 -338h-146l160 338h186zM842 1155l-240 -1155h-192l239 1155h-499l36 176h1192l-37 -176h-499z" />
    <glyph glyph-name="tcommaaccent" unicode="&#x21b;" horiz-adv-x="774" 
d="M487 -113l-200 -338h-146l160 338h186zM474 139q95 0 188 27l-31 -168q-98 -23 -206 -23t-186.5 54.5t-78.5 177.5q0 33 8 76l131 612h-213l33 156h217l80 229h145l-47 -229h338l-33 -156h-340l-127 -604q-16 -78 5.5 -115t116.5 -37z" />
    <glyph glyph-name="dotlessj" unicode="&#x237;" horiz-adv-x="503" 
d="M-162 -434q-137 0 -233 41l41 162q84 -33 172 -33q86 0 126 20q83 41 113 193l232 1102h182l-227 -1100q-43 -205 -130 -295t-276 -90z" />
    <glyph glyph-name="schwa" unicode="&#x259;" horiz-adv-x="1187" 
d="M541 147q135 1 229 63t160 220h-623l-2 -37q0 -246 236 -246zM977 670q-1 229 -319 229q-162 0 -451 -90l39 184q248 78 470 78t337 -97t114 -286q0 -78 -16 -151q-59 -287 -233 -424t-410 -138q-188 -1 -290 95t-103 270q0 59 16 141l23 107h815q8 48 8 82z" />
    <glyph glyph-name="apostrophemod" unicode="&#x2bc;" horiz-adv-x="395" 
d="M145 1075h-145l160 340h186z" />
    <glyph glyph-name="circumflex" unicode="&#x2c6;" horiz-adv-x="761" 
d="M367 1386l-191 -176h-176l268 297h226l145 -297h-156z" />
    <glyph glyph-name="caron" unicode="&#x2c7;" horiz-adv-x="761" 
d="M432 1210h-225l-146 297h156l117 -176l190 176h176z" />
    <glyph glyph-name="firsttonechinese" unicode="&#x2c9;" horiz-adv-x="684" 
d="M500 1260h-561l32 157h561z" />
    <glyph glyph-name="breve" unicode="&#x2d8;" horiz-adv-x="704" 
d="M307 1214q-135 0 -201 65t-55 179h158q-3 -51 23 -80t87 -28q117 -1 156 108h158q-76 -244 -326 -244z" />
    <glyph glyph-name="dotaccent" unicode="&#x2d9;" horiz-adv-x="323" 
d="M201 1204h-201l41 197h201z" />
    <glyph glyph-name="ring" unicode="&#x2da;" horiz-adv-x="536" 
d="M260 1446q-59 0 -92 -27.5t-33 -66.5q0 -70 94 -70q57 0 90 26.5t33 69.5q0 68 -92 68zM236 1188q-202 0 -203 164q0 78 63.5 133t161.5 55t147.5 -42t49.5 -115.5t-58.5 -134t-160.5 -60.5z" />
    <glyph glyph-name="ogonek" unicode="&#x2db;" horiz-adv-x="499" 
d="M184 -203q0 -37 62 -37t166 41l-27 -141q-98 -33 -184 -33t-130 35t-44 94q0 94 75 157q77 62 179 95l176 2q-133 -51 -203 -107t-70 -106z" />
    <glyph glyph-name="tilde" unicode="&#x2dc;" horiz-adv-x="741" 
d="M204 1319q-32 0 -49 -14t-32 -48h-123q72 199 233 199q45 0 116 -28t106 -27q61 0 84 61h123q-72 -199 -234 -198q-39 0 -116 28q-76 28 -108 27z" />
    <glyph glyph-name="hungarumlaut" unicode="&#x2dd;" horiz-adv-x="835" 
d="M506 1210h-168l213 297h227zM164 1210h-168l213 297h227z" />
    <glyph glyph-name="commaturnedabovecomb" unicode="&#x312;" horiz-adv-x="0" 
d="M262 1554h146l-160 -337h-187z" />
    <glyph glyph-name="commaaccent" unicode="&#x326;" horiz-adv-x="0" 
d="M207 -451h-146l160 338h187z" />
    <glyph glyph-name="uni037E" unicode="&#x37e;" horiz-adv-x="471" 
d="M-160 -264l223 463h218l-265 -463h-176zM164 745l41 199h205l-41 -199h-205z" />
    <glyph glyph-name="tonos" unicode="&#x384;" horiz-adv-x="428" 
d="M-4 1210l154 308h221l-244 -308h-131z" />
    <glyph glyph-name="dieresistonos" unicode="&#x385;" horiz-adv-x="950" 
d="M627 1210l41 197h200l-41 -197h-200zM0 1210l41 197h201l-41 -197h-201zM307 1210l103 308h221l-193 -308h-131z" />
    <glyph glyph-name="Alphatonos" unicode="&#x386;" horiz-adv-x="1359" 
d="M825 1139q-156 -197 -379 -590h525q-68 320 -146 590zM152 1024l153 307h221l-243 -307h-131zM346 371q-96 -177 -196 -371h-216q399 799 822 1331h207q205 -680 303 -1331h-195q-25 160 -65 371h-660z" />
    <glyph glyph-name="anoteleia" unicode="&#x387;" horiz-adv-x="409" 
d="M111 852l41 199h204l-41 -199h-204z" />
    <glyph glyph-name="Epsilontonos" unicode="&#x388;" horiz-adv-x="1208" 
d="M420 772h680l-37 -174h-680l-86 -422h737l-37 -176h-929l276 1331h930l-35 -176h-739zM-188 1024l153 307h221l-243 -307h-131z" />
    <glyph glyph-name="Etatonos" unicode="&#x389;" horiz-adv-x="1472" 
d="M1133 594h-750l-123 -594h-192l276 1331h193l-115 -555h749l115 555h193l-277 -1331h-192zM-188 1024l153 307h221l-243 -307h-131z" />
    <glyph glyph-name="Iotatonos" unicode="&#x38a;" horiz-adv-x="530" 
d="M344 1331h193l-277 -1331h-192zM-186 1024l153 307h221l-243 -307h-131z" />
    <glyph glyph-name="Omicrontonos" unicode="&#x38c;" horiz-adv-x="1617" 
d="M924 1176q-262 0 -431 -162t-169 -443q0 -199 124 -305t334 -106q248 0 416 165t168 435q0 204 -118 310t-324 106zM-86 1024l154 307h221l-244 -307h-131zM950 1356q293 0 453 -158t160 -426q1 -356 -227 -576t-578 -221q-295 0 -463 161t-168 431q0 353 227 571
t596 218z" />
    <glyph glyph-name="Upsilontonos" unicode="&#x38e;" horiz-adv-x="1107" 
d="M1071 1331h232q-383 -565 -656 -899l-84 -432h-194l92 453q-174 391 -342 878h203q123 -387 264 -710q249 331 485 710zM-375 1024l154 307h221l-244 -307h-131z" />
    <glyph glyph-name="Omegatonos" unicode="&#x38f;" horiz-adv-x="1634" 
d="M-66 1024l154 307h221l-243 -307h-132zM176 606q0 332 204 541t576 209q301 0 462 -142t161 -407q0 -193 -90 -363t-246 -268h264l-37 -176h-532l37 178q186 76 301 240t115 366t-119 301q-119 100 -334 101q-268 0 -420 -152t-151 -418q0 -297 276 -436l-37 -180h-538
l36 176h275q-203 164 -203 430z" />
    <glyph glyph-name="iotadieresistonos" unicode="&#x390;" horiz-adv-x="735" 
d="M434 139q94 0 189 27l-31 -168q-98 -23 -206 -23q-108 1 -186 55t-79 177q0 33 8 76l164 768h180l-160 -760q-17 -78 5 -115t116 -37zM680 1210l41 197h201l-41 -197h-201zM53 1210l41 197h201l-41 -197h-201zM360 1210l103 308h221l-192 -308h-132z" />
    <glyph glyph-name="Alpha" unicode="&#x391;" horiz-adv-x="1359" 
d="M825 1139q-156 -197 -379 -590h525q-68 320 -146 590zM346 371q-96 -177 -196 -371h-216q399 799 822 1331h207q205 -680 303 -1331h-195q-25 160 -65 371h-660z" />
    <glyph glyph-name="Beta" unicode="&#x392;" horiz-adv-x="1339" 
d="M629 180q389 0 389 226q0 188 -273 188h-362l-86 -414h332zM788 772q131 0 221 67q89 67 89 153t-48 117q-48 30 -105 36t-130 6h-315l-80 -379h368zM858 1331q217 -1 331 -69t114 -232q1 -119 -87 -220t-186 -128q76 -18 133 -95t58 -181q0 -202 -167 -304t-444 -102
h-542l276 1331h514z" />
    <glyph glyph-name="Gamma" unicode="&#x393;" horiz-adv-x="1165" 
d="M260 0h-192l276 1331h930l-35 -176h-739z" />
    <glyph glyph-name="Delta" unicode="&#x394;" horiz-adv-x="1359" 
d="M242 178h798q-72 469 -215 961q-100 -125 -273 -412t-310 -549zM756 1331h207q172 -575 282 -1204l-26 -127h-1246l27 127q145 291 354 628q208 338 402 576z" />
    <glyph glyph-name="Epsilon" unicode="&#x395;" horiz-adv-x="1208" 
d="M420 772h680l-37 -174h-680l-86 -422h737l-37 -176h-929l276 1331h930l-35 -176h-739z" />
    <glyph glyph-name="Zeta" unicode="&#x396;" horiz-adv-x="1224" 
d="M1071 176l-37 -176h-1059l37 133l985 1022h-772l35 176h1067l-37 -133l-987 -1022h768z" />
    <glyph glyph-name="Eta" unicode="&#x397;" horiz-adv-x="1472" 
d="M1133 594h-750l-123 -594h-192l276 1331h193l-115 -555h749l115 555h193l-277 -1331h-192z" />
    <glyph glyph-name="Theta" unicode="&#x398;" horiz-adv-x="1617" 
d="M535 750h647l-35 -164h-647zM924 1176q-262 0 -431 -162t-169 -443q0 -199 124 -305t334 -106q248 0 416 165t168 435q0 204 -118 310t-324 106zM950 1356q293 0 453 -158t160 -426q1 -356 -227 -576t-578 -221q-295 0 -463 161t-168 431q0 353 227 571t596 218z" />
    <glyph glyph-name="Iota" unicode="&#x399;" horiz-adv-x="530" 
d="M344 1331h193l-277 -1331h-192z" />
    <glyph glyph-name="Kappa" unicode="&#x39a;" horiz-adv-x="1249" 
d="M432 666q356 371 725 665h285q-446 -348 -774 -669q231 -248 530 -662h-252q-303 451 -514 666zM344 1331h193l-277 -1331h-192z" />
    <glyph glyph-name="Lambda" unicode="&#x39b;" horiz-adv-x="1359" 
d="M825 1139q-129 -156 -329 -501t-346 -638h-216q399 799 822 1331h207q205 -680 303 -1331h-195q-90 586 -246 1139z" />
    <glyph glyph-name="Mu" unicode="&#x39c;" horiz-adv-x="1740" 
d="M1618 1331q0 -508 -39 -1331h-199q47 651 47 1073q-211 -317 -561 -942h-147q-78 629 -154 942q-231 -528 -405 -1073h-195q113 354 260 725t260 606h213q96 -471 158 -891q267 481 535 891h227z" />
    <glyph glyph-name="Nu" unicode="&#x39d;" horiz-adv-x="1486" 
d="M483 1073l-223 -1073h-192l276 1331h211l537 -1007l208 1007h193l-276 -1331h-156z" />
    <glyph glyph-name="Xi" unicode="&#x39e;" horiz-adv-x="1286" 
d="M1075 0h-1079l39 197h1081zM217 780h963l-41 -192h-963zM272 1331h1080l-39 -196h-1082z" />
    <glyph glyph-name="Omicron" unicode="&#x39f;" horiz-adv-x="1617" 
d="M924 1176q-262 0 -431 -162t-169 -443q0 -199 124 -305t334 -106q248 0 416 165t168 435q0 204 -118 310t-324 106zM950 1356q293 0 453 -158t160 -426q1 -356 -227 -576t-578 -221q-295 0 -463 161t-168 431q0 353 227 571t596 218z" />
    <glyph glyph-name="Pi" unicode="&#x3a0;" horiz-adv-x="1472" 
d="M1249 1149h-749l-240 -1149h-192l276 1331h1135l-277 -1331h-192z" />
    <glyph glyph-name="Rho" unicode="&#x3a1;" horiz-adv-x="1314" 
d="M709 612q164 0 270 80t106 250q0 111 -74 160q-75 49 -190 49h-321l-111 -539h320zM856 1331q193 0 325 -112q107 -95 107 -289q0 -106 -43 -201q-43 -94 -106 -148q-63 -53 -173 -101t-270 -48h-346l-90 -432h-192l276 1331h512z" />
    <glyph glyph-name="Sigma" unicode="&#x3a3;" horiz-adv-x="1224" 
d="M737 670v-35l-434 -459h768l-37 -176h-1059l37 133l500 526l-276 551l24 121h1067l-49 -176h-782z" />
    <glyph glyph-name="Tau" unicode="&#x3a4;" horiz-adv-x="1224" 
d="M602 0h-192l239 1155h-499l36 176h1192l-37 -176h-499z" />
    <glyph glyph-name="Upsilon" unicode="&#x3a5;" horiz-adv-x="1107" 
d="M1071 1331h232q-383 -565 -656 -899l-84 -432h-194l92 453q-174 391 -342 878h203q123 -387 264 -710q249 331 485 710z" />
    <glyph glyph-name="Phi" unicode="&#x3a6;" horiz-adv-x="1755" 
d="M1520 766q0 193 -110 291t-296 110l-207 -1001q297 0 455 157t158 443zM313 563q0 -185 107 -285t297 -110l207 999q-299 1 -455 -155t-156 -449zM127 545q0 354 216 569t613 213l23 105h190l-22 -103q271 -19 413 -161t142 -382q0 -358 -216 -570t-612 -212l-22 -108
h-193l23 110q-276 20 -416 158t-139 381z" />
    <glyph glyph-name="Chi" unicode="&#x3a7;" horiz-adv-x="1372" 
d="M997 0l-299 528l-493 -528h-252l631 676l-381 655h235l303 -543l492 543h248l-631 -682l387 -649h-240z" />
    <glyph glyph-name="Psi" unicode="&#x3a8;" horiz-adv-x="1722" 
d="M711 268q-170 0 -282 43t-159 93t-58 146t-4 143q6 48 20 109t16 72l94 457h192l-98 -471q-10 -49 -15 -73q-22 -108 -5 -190q6 -34 22 -52q53 -59 108 -74q96 -25 212 -27l184 887h192l-184 -887q242 2 344 86t146 297l106 504h193l-113 -545q-55 -262 -216 -389
t-497 -129l-55 -268h-192l55 268h-6z" />
    <glyph glyph-name="Omega" unicode="&#x3a9;" horiz-adv-x="1583" 
d="M1528 823q0 -174 -81 -354t-228 -293h180l-37 -176h-549l29 131l4 25q131 0 244 105t173 255t60 306t-108 255q-108 98 -295 99q-124 0 -226 -40q-183 -71 -281 -253q-87 -159 -87 -332q0 -174 78 -285t188 -110l-25 -111l-8 -45h-549l37 176h207q-129 135 -129 363
q0 287 192 538q94 123 255 201t364 78q284 0 438 -142t154 -391z" />
    <glyph glyph-name="Iotadieresis" unicode="&#x3aa;" horiz-adv-x="530" 
d="M68 0l276 1331h193l-277 -1331h-192zM811 1649l-41 -201h-205l41 201h205zM406 1649l-41 -201h-205l41 201h205z" />
    <glyph glyph-name="Upsilondieresis" unicode="&#x3ab;" horiz-adv-x="1107" 
d="M1071 1331h232q-383 -565 -656 -899l-84 -432h-194l92 453q-174 391 -342 878h203q123 -387 264 -710q249 331 485 710zM1067 1649l-41 -201h-205l41 201h205zM662 1649l-41 -201h-205l41 201h205z" />
    <glyph glyph-name="alphatonos" unicode="&#x3ac;" horiz-adv-x="1296" 
d="M285 410q0 -139 86 -208t215 -69q195 0 329 119l117 567q-34 33 -112 59t-175 25q-186 0 -323 -131t-137 -362zM98 410q0 158 60 288t153 209q94 80 207 123t222 43q110 0 202 -30t139 -66l56 74h127l-217 -1051h-125l-15 82q-139 -106 -338 -106t-335 108
q-136 109 -136 326zM717 1210l153 308h222l-244 -308h-131z" />
    <glyph glyph-name="epsilontonos" unicode="&#x3ad;" horiz-adv-x="1069" 
d="M549 -25q-467 0 -467 273q0 110 60 188t180 109q-140 45 -140 186t126 241t379 101q253 0 413 -69l-35 -166q-176 70 -354 70q-346 -1 -346 -173q0 -61 53 -89t170 -28h221l-37 -167h-229q-272 0 -273 -164q0 -139 303 -140q202 0 392 82l-37 -180q-174 -74 -379 -74z
M647 1210l154 308h221l-244 -308h-131z" />
    <glyph glyph-name="etatonos" unicode="&#x3ae;" horiz-adv-x="1243" 
d="M829 1073q342 0 342 -272q0 -47 -16 -133l-219 -1078h-184l215 1055q16 70 16 109q0 154 -199 153q-106 0 -210 -41t-173 -92l-161 -774h-185l217 1051h125l21 -105q74 49 185 88t226 39zM639 1210l154 308h221l-244 -308h-131z" />
    <glyph glyph-name="iotatonos" unicode="&#x3af;" horiz-adv-x="735" 
d="M434 139q94 0 189 27l-31 -168q-98 -23 -206 -23q-108 1 -186 55t-79 177q0 33 8 76l164 768h180l-160 -760q-17 -78 5 -115t116 -37zM344 1210l154 308h221l-244 -308h-131z" />
    <glyph glyph-name="upsilondieresistonos" unicode="&#x3b0;" horiz-adv-x="1249" 
d="M510 -25q-457 0 -377 410l135 666h185l-129 -623q-16 -88 -16 -153q2 -136 241 -136q210 0 305 137q80 117 111 287q47 279 -45 488h196q82 -211 34 -493t-211 -432q-163 -151 -429 -151zM934 1210l41 197h201l-41 -197h-201zM307 1210l41 197h201l-41 -197h-201z
M614 1210l103 308h221l-193 -308h-131z" />
    <glyph glyph-name="alpha" unicode="&#x3b1;" horiz-adv-x="1296" 
d="M285 410q0 -139 86 -208t215 -69q195 0 329 119l117 567q-34 33 -112 59t-175 25q-186 0 -323 -131t-137 -362zM98 410q0 158 60 288t153 209q94 80 207 123t222 43q110 0 202 -30t139 -66l56 74h127l-217 -1051h-125l-15 82q-139 -106 -338 -106t-335 108
q-136 109 -136 326z" />
    <glyph glyph-name="beta" unicode="&#x3b2;" horiz-adv-x="1290" 
d="M781 1294q-136 0 -214 -70t-110 -227l-156 -747q43 -45 133 -75t202 -30t197 31t125 83q76 97 76 214t-73 157q-74 40 -222 40h-180l33 170h115q319 0 319 270q0 90 -54 137q-55 47 -191 47zM-18 -410l297 1407q49 236 164 349q116 113 358 112q410 0 409 -309
q0 -152 -70 -246t-143 -127q231 -53 232 -287q0 -182 -126 -336q-145 -177 -497 -177q-190 0 -340 98l-100 -484h-184z" />
    <glyph glyph-name="gamma" unicode="&#x3b3;" horiz-adv-x="1177" 
d="M270 -410l66 310q18 86 -43 454t-133 697h178q80 -334 154 -901h4q174 152 310 406t155 495h176q-21 -301 -193 -591t-420 -526l-69 -344h-185z" />
    <glyph glyph-name="delta" unicode="&#x3b4;" horiz-adv-x="1267" 
d="M622 145q180 0 285 115t105 256t-65 214t-216 142q-197 -24 -327 -138t-130 -308q0 -127 84 -204t264 -77zM602 -25q-244 0 -379 113t-135 318q0 204 123 354t346 203q-147 90 -147 202q0 133 106 213t318 80t352 -59l-35 -166q-131 70 -344 70t-213 -125q0 -35 33 -67
t71 -52t131 -64q179 -84 271 -185t92 -259q0 -258 -173 -417t-417 -159z" />
    <glyph glyph-name="epsilon" unicode="&#x3b5;" horiz-adv-x="1069" 
d="M549 -25q-467 0 -467 273q0 110 60 188t180 109q-140 45 -140 186t126 241t379 101q253 0 413 -69l-35 -166q-176 70 -354 70q-346 -1 -346 -173q0 -61 53 -89t170 -28h221l-37 -167h-229q-272 0 -273 -164q0 -139 303 -140q202 0 392 82l-37 -180q-174 -74 -379 -74z
" />
    <glyph glyph-name="zeta" unicode="&#x3b6;" horiz-adv-x="1081" 
d="M82 424q0 276 182 494t441 321h-416l37 176h837l-33 -160q-359 -103 -600 -293q-122 -96 -192 -226t-70 -277q0 -82 18 -134q32 -90 175 -136q55 -17 143 -35q225 -46 268 -95q56 -65 58 -157q0 -156 -109 -312h-172q100 154 101 260q0 57 -34 84q-34 28 -132 46t-162 34
t-134 50q-71 34 -112 78q-94 100 -94 282z" />
    <glyph glyph-name="eta" unicode="&#x3b7;" horiz-adv-x="1243" 
d="M829 1073q342 0 342 -272q0 -47 -16 -133l-219 -1078h-184l215 1055q16 70 16 109q0 154 -199 153q-106 0 -210 -41t-173 -92l-161 -774h-185l217 1051h125l21 -105q74 49 185 88t226 39z" />
    <glyph glyph-name="theta" unicode="&#x3b8;" horiz-adv-x="1300" 
d="M588 145q205 0 320 166q101 146 147 342h-725q-12 -98 -13 -182q1 -326 271 -326zM796 1288q-158 0 -270 -131q-111 -131 -164 -336h719q8 72 9 135q0 170 -68 251t-226 81zM834 1458q218 0 332 -124t114 -395t-111 -535q-111 -263 -332 -370q-120 -58 -264 -59
q-231 0 -339 131q-108 130 -108 340q1 414 174 703q85 141 223 225q139 84 311 84z" />
    <glyph glyph-name="iota" unicode="&#x3b9;" horiz-adv-x="735" 
d="M434 139q94 0 189 27l-31 -168q-98 -23 -206 -23q-108 1 -186 55t-79 177q0 33 8 76l164 768h180l-160 -760q-17 -78 5 -115t116 -37z" />
    <glyph glyph-name="kappa" unicode="&#x3ba;" horiz-adv-x="1105" 
d="M944 1051h262q-283 -215 -575 -494q184 -215 409 -557h-229q-71 116 -183 274t-227 283q346 353 543 494zM285 1051h184l-217 -1051h-184z" />
    <glyph glyph-name="lambda" unicode="&#x3bb;" horiz-adv-x="1144" 
d="M339 1284q-93 0 -153 -20l35 168q80 27 154 26q152 0 253 -93t182 -330t137 -541t75 -494h-178q-18 229 -67 480q-48 251 -89 358q-311 -307 -500 -838h-184q51 203 237 515q185 312 394 501q-57 144 -130 206t-166 62z" />
    <glyph glyph-name="mu" unicode="&#x3bc;" horiz-adv-x="1198" 
d="M483 -25q-137 0 -225 76l-96 -461h-180l301 1461h184l-133 -648q-14 -61 -15 -100q0 -162 218 -162q109 0 212 41t162 92l160 777h184l-219 -1051h-121l-18 104q-57 -49 -167 -89t-247 -40z" />
    <glyph glyph-name="nu" unicode="&#x3bd;" horiz-adv-x="1077" 
d="M963 1051h202q-303 -578 -628 -1051h-189q-94 268 -161 562t-87 489h181q72 -532 184 -856q256 375 498 856z" />
    <glyph glyph-name="xi" unicode="&#x3be;" horiz-adv-x="1130" 
d="M82 362q0 160 96 266t242 144q-92 29 -137 88t-45 166q0 209 150 321q151 111 404 111t400 -69l-35 -166q-164 70 -369 69q-371 0 -370 -250q0 -117 97 -155q97 -37 265 -37h181l-35 -176h-228q-428 0 -428 -287q0 -102 75 -146q75 -45 221 -75t180 -38q114 -30 159 -80
q45 -49 45 -150q0 -154 -108 -308h-172q100 152 100 265q0 77 -74 101q-30 10 -96 24q-294 57 -406 139q-112 83 -112 243z" />
    <glyph glyph-name="omicron" unicode="&#x3bf;" horiz-adv-x="1296" 
d="M285 428q-1 -121 77 -202t247 -81t304 131t136 345q0 121 -78 201t-248 81q-170 0 -304 -131t-134 -344zM778 1073h2q199 0 327 -117q128 -118 128 -320t-97 -354t-250 -227q-153 -74 -335 -80q-199 0 -327 117t-128 318q0 309 198 486t482 177z" />
    <glyph glyph-name="pi" unicode="&#x3c0;" horiz-adv-x="1413" 
d="M1128 139q51 0 117 27l-31 -168q-78 -23 -135 -23q-158 0 -211 77t-20 231l127 594h-436l-183 -877h-184l186 877h-252l37 174h1327l-36 -174h-279l-119 -568q-22 -70 -6 -120t98 -50z" />
    <glyph glyph-name="rho" unicode="&#x3c1;" horiz-adv-x="1259" 
d="M567 145q184 0 316 131q131 131 131 334q0 131 -79 212t-224 81q-191 0 -275 -120q-59 -85 -90 -216l-65 -319q102 -103 286 -103zM750 1073q208 0 332 -120t124 -345q0 -154 -59 -278t-153 -200q-195 -155 -429 -155q-180 0 -321 93l-99 -478h-184l205 971
q53 256 193 384q141 128 391 128z" />
    <glyph glyph-name="sigma1" unicode="&#x3c2;" horiz-adv-x="1105" 
d="M287 451q0 -147 77 -205q78 -58 232 -86q154 -30 212 -52t99 -72t41 -132q0 -158 -108 -314h-172q100 162 100 265q0 57 -39 83t-149 46q-219 39 -341 120q-141 95 -141 326q0 299 195 471t498 172q215 0 358 -69l-35 -166q-158 70 -340 69q-231 1 -359 -131t-128 -325z
" />
    <glyph glyph-name="sigma" unicode="&#x3c3;" horiz-adv-x="1333" 
d="M623 145q188 0 297 120t108 294q0 236 -135 318h-182q-197 0 -312 -115t-114 -287q0 -330 338 -330zM612 -25q-258 0 -386 124t-128 339q0 270 168 442t475 171h650l-37 -174h-252q104 -109 104 -313t-144 -389q-71 -89 -188 -145t-262 -55z" />
    <glyph glyph-name="tau" unicode="&#x3c4;" horiz-adv-x="1042" 
d="M642 139q95 0 187 27l-30 -168q-98 -23 -206 -23q-109 1 -187 55t-78 177q0 33 8 76l127 594h-377l37 174h997l-37 -174h-440l-123 -586q-16 -78 6 -115t116 -37z" />
    <glyph glyph-name="upsilon" unicode="&#x3c5;" horiz-adv-x="1249" 
d="M510 -25q-457 0 -377 410l135 666h185l-129 -623q-16 -88 -16 -153q2 -136 241 -136q210 0 305 137q80 117 111 287q47 279 -45 488h196q82 -211 34 -493t-211 -432q-163 -151 -429 -151z" />
    <glyph glyph-name="phi" unicode="&#x3c6;" horiz-adv-x="1611" 
d="M977 922l-164 -791q260 -4 395 120t135 370q1 285 -366 301zM264 438q0 -158 94 -228t271 -79l164 791q-253 0 -391 -119t-138 -365zM78 422q0 301 185 484t564 184l56 266h184l-55 -266q244 -8 381 -122t137 -331q0 -305 -188 -491t-564 -183l-78 -373h-184l78 373
q-219 4 -368 113q-148 109 -148 346z" />
    <glyph glyph-name="chi" unicode="&#x3c7;" horiz-adv-x="1069" 
d="M823 -410h-200l-201 562l-424 -562h-211l571 729l-278 732h196l218 -602l450 602h213l-600 -766z" />
    <glyph glyph-name="psi" unicode="&#x3c8;" horiz-adv-x="1570" 
d="M805 -25h-39l-80 -385h-184l80 385h-52q-479 0 -399 410l135 666h185l-129 -623q-14 -74 -16 -119q-4 -117 101 -150q60 -19 162 -20h45l252 1217h185l-252 -1217h45q229 0 330 137q80 112 112 287q47 279 -45 488h197q82 -211 34 -493t-215 -432q-166 -151 -452 -151z
" />
    <glyph glyph-name="omega" unicode="&#x3c9;" horiz-adv-x="1611" 
d="M78 333q0 173 75 363t216 355h198q-123 -125 -213 -315t-90 -378q0 -213 185 -213q95 0 159 66t86 182l84 410h185l-66 -318q-23 -111 -23 -180q0 -160 201 -160q131 0 202 124t71 329q0 260 -131 453h196q117 -199 117 -460t-123 -438t-334 -178q-125 1 -211 53
t-110 148q-70 -102 -152 -151t-218 -49t-220 92t-84 265z" />
    <glyph glyph-name="iotadieresis" unicode="&#x3ca;" horiz-adv-x="735" 
d="M434 139q94 0 189 27l-31 -168q-98 -23 -206 -23q-108 1 -186 55t-79 177q0 33 8 76l164 768h180l-160 -760q-17 -78 5 -115t116 -37zM768 1401l-41 -197h-201l41 197h201zM362 1401l-40 -197h-201l41 197h200z" />
    <glyph glyph-name="upsilondieresis" unicode="&#x3cb;" horiz-adv-x="1249" 
d="M510 -25q-457 0 -377 410l135 666h185l-129 -623q-16 -88 -16 -153q2 -136 241 -136q210 0 305 137q80 117 111 287q47 279 -45 488h196q82 -211 34 -493t-211 -432q-163 -151 -429 -151zM1057 1401l-41 -197h-201l41 197h201zM651 1401l-41 -197h-200l41 197h200z" />
    <glyph glyph-name="omicrontonos" unicode="&#x3cc;" horiz-adv-x="1296" 
d="M285 428q-1 -121 77 -202t247 -81t304 131t136 345q0 121 -78 201t-248 81q-170 0 -304 -131t-134 -344zM778 1073h2q199 0 327 -117q128 -118 128 -320t-97 -354t-250 -227q-153 -74 -335 -80q-199 0 -327 117t-128 318q0 309 198 486t482 177zM733 1210l154 308h221
l-244 -308h-131z" />
    <glyph glyph-name="upsilontonos" unicode="&#x3cd;" horiz-adv-x="1249" 
d="M510 -25q-457 0 -377 410l135 666h185l-129 -623q-16 -88 -16 -153q2 -136 241 -136q210 0 305 137q80 117 111 287q47 279 -45 488h196q82 -211 34 -493t-211 -432q-163 -151 -429 -151zM643 1210l154 308h221l-244 -308h-131z" />
    <glyph glyph-name="omegatonos" unicode="&#x3ce;" horiz-adv-x="1611" 
d="M78 333q0 173 75 363t216 355h198q-123 -125 -213 -315t-90 -378q0 -213 185 -213q95 0 159 66t86 182l84 410h185l-66 -318q-23 -111 -23 -180q0 -160 201 -160q131 0 202 124t71 329q0 260 -131 453h196q117 -199 117 -460t-123 -438t-334 -178q-125 1 -211 53
t-110 148q-70 -102 -152 -151t-218 -49t-220 92t-84 265zM877 1210l153 308h221l-243 -308h-131z" />
    <glyph glyph-name="Iegravecy" unicode="&#x400;" horiz-adv-x="1208" 
d="M500 1155l-80 -383h680l-37 -174h-680l-86 -422h737l-37 -176h-929l276 1331h930l-35 -176h-739zM444 1751h230l213 -297h-174z" />
    <glyph glyph-name="Iocy" unicode="&#x401;" horiz-adv-x="1208" 
d="M500 1155l-80 -383h680l-37 -174h-680l-86 -422h737l-37 -176h-929l276 1331h930l-35 -176h-739zM1165 1649l-41 -201h-204l41 201h204zM760 1649l-41 -201h-205l41 201h205z" />
    <glyph glyph-name="Djecy" unicode="&#x402;" horiz-adv-x="1619" 
d="M1538 649q0 -47 -16 -133l-33 -156q-43 -204 -133 -294t-279 -91q-133 0 -233 41l41 162q94 -33 176 -33q82 -1 122 19q82 40 113 194l27 127q16 70 16 109q0 154 -200 154q-117 0 -231 -43t-179 -95l-127 -610h-192l239 1155h-499l36 176h1192l-37 -176h-499l-74 -350
q193 117 418 117q172 0 262 -63t90 -210z" />
    <glyph glyph-name="Gjecy" unicode="&#x403;" horiz-adv-x="1021" 
d="M1139 1155h-639l-240 -1155h-192l276 1331h832zM803 1454h-174l213 297h229z" />
    <glyph glyph-name="Ecy" unicode="&#x404;" horiz-adv-x="1349" 
d="M929 1171q-204 0 -360 -102t-217 -291h723l-37 -176h-716l-3 -49q0 -207 119 -300q120 -93 322 -93t430 90l-41 -193q-209 -82 -447 -82t-403 127q-176 135 -176 463q1 173 69 333q125 292 447 407q145 51 307 51q236 0 449 -86l-41 -189q-221 90 -425 90z" />
    <glyph glyph-name="Dzecy" unicode="&#x405;" horiz-adv-x="1234" 
d="M800 1356q249 0 445 -66l-39 -186q-197 74 -412 74q-214 0 -318 -82q-60 -47 -60 -120t71.5 -119t175 -73.5t206 -62.5t174 -113t71.5 -198q0 -197 -166 -316t-436 -119t-500 88l41 187q233 -92 434 -92t311.5 62.5t110.5 166.5q-1 139 -245 201q-102 26 -204 60
t-173.5 111t-71.5 197q0 203 168 301.5t417 98.5z" />
    <glyph glyph-name="Icy" unicode="&#x406;" horiz-adv-x="530" 
d="M68 0l276 1331h193l-277 -1331h-192z" />
    <glyph glyph-name="Yicy" unicode="&#x407;" horiz-adv-x="530" 
d="M68 0l276 1331h193l-277 -1331h-192zM811 1649l-41 -201h-205l41 201h205zM406 1649l-41 -201h-205l41 201h205z" />
    <glyph glyph-name="Jecy" unicode="&#x408;" horiz-adv-x="915" 
d="M260 162q104 0 181 64.5t104 193.5l190 911h193l-199 -956q-84 -399 -500 -400q-158 0 -319 58l39 180q135 -51 311 -51z" />
    <glyph glyph-name="Ljecy" unicode="&#x409;" horiz-adv-x="1992" 
d="M1389 176q184 0 276 89t92 206q0 207 -270 207h-303l-105 -502h310zM1520 854q210 0 326 -98t116 -268t-120 -318q-62 -76 -185 -123t-287 -47h-516l240 1155h-445q-141 -485 -243 -723t-212 -347q-110 -110 -270 -110q-20 0 -65 7l32 163q23 -2 39 -2q90 1 159 93
t167 327t246 768h821l-100 -477h297z" />
    <glyph glyph-name="Njecy" unicode="&#x40a;" horiz-adv-x="2086" 
d="M1493 176q180 0 269 79t89 183t-72 144q-73 39 -216 39h-281l-88 -445h299zM1595 797q461 0 461 -348q0 -158 -117 -290q-61 -71 -182 -115t-282 -44h-506l127 621h-711l-125 -621h-192l276 1331h193l-113 -534h709l112 534h193l-117 -534h274z" />
    <glyph glyph-name="Tshecy" unicode="&#x40b;" horiz-adv-x="1619" 
d="M1186 922q172 0 262 -62t90 -211q0 -47 -16 -133l-109 -516h-192l102 485q16 70 16 109q0 154 -200 154q-117 0 -231 -43t-179 -95l-127 -610h-192l239 1155h-499l36 176h1192l-37 -176h-499l-74 -350q193 117 418 117z" />
    <glyph glyph-name="Kjecy" unicode="&#x40c;" horiz-adv-x="1247" 
d="M1159 1331h281q-403 -317 -766 -686q219 -262 495 -645h-243q-188 285 -412 561h-137l-117 -561h-192l276 1331h193l-123 -594h116q301 315 629 594zM944 1454h-174l213 297h229z" />
    <glyph glyph-name="Iigravecy" unicode="&#x40d;" horiz-adv-x="1495" 
d="M535 1331l-213 -1020l966 1020h213l-276 -1331h-191l221 1067l-1007 -1067h-180l276 1331h191zM797 1751l213 -297h-174l-269 297h230z" />
    <glyph glyph-name="Ushortcy" unicode="&#x40e;" horiz-adv-x="1200" 
d="M1174 1331h231q-197 -293 -499 -686t-521 -645h-242q219 252 377 449q-55 111 -161.5 373.5t-186.5 508.5h205q47 -156 132 -381t138 -340q318 406 527 721zM838 1450q-135 0 -201 64.5t-55 179.5h157q-4 -51 22.5 -80t88.5 -29q117 0 156 109h157q-75 -244 -325 -244z
" />
    <glyph glyph-name="Dzhecy" unicode="&#x40f;" horiz-adv-x="1431" 
d="M1161 0h-454l-58 -281h-184l57 281h-454l276 1331h193l-240 -1155h709l239 1155h193z" />
    <glyph glyph-name="Acy" unicode="&#x410;" horiz-adv-x="1359" 
d="M825 1139q-156 -197 -379 -590h525q-68 320 -146 590zM346 371q-96 -177 -196 -371h-216q399 799 822 1331h207q205 -680 303 -1331h-195q-25 160 -65 371h-660z" />
    <glyph glyph-name="Becy" unicode="&#x411;" horiz-adv-x="1247" 
d="M602 176q184 0 277 89q92 89 92 206q0 207 -271 207h-303l-104 -502h309zM733 854q209 0 326 -98t117 -268t-120 -318q-62 -76 -186 -123t-286 -47h-516l276 1331h852l-37 -176h-659l-64 -301h297z" />
    <glyph glyph-name="Vecy" unicode="&#x412;" horiz-adv-x="1339" 
d="M629 180q389 0 389 226q0 188 -273 188h-362l-86 -414h332zM788 772q131 0 221 67q89 67 89 153t-48 117q-48 30 -105 36t-130 6h-315l-80 -379h368zM858 1331q217 -1 331 -69t114 -232q1 -119 -87 -220t-186 -128q76 -18 133 -95t58 -181q0 -202 -167 -304t-444 -102
h-542l276 1331h514z" />
    <glyph glyph-name="Gecy" unicode="&#x413;" horiz-adv-x="1021" 
d="M1139 1155h-639l-240 -1155h-192l276 1331h832z" />
    <glyph glyph-name="Decy" unicode="&#x414;" horiz-adv-x="1398" 
d="M956 176l203 979h-469q-209 -758 -409 -979h675zM1149 176h174l-94 -457h-187l58 281h-1012l-57 -281h-185l95 457h125q57 35 106 117q50 83 138 287t239 753l840 -2z" />
    <glyph glyph-name="Iecy" unicode="&#x415;" horiz-adv-x="1208" 
d="M500 1155l-80 -383h680l-37 -174h-680l-86 -422h737l-37 -176h-929l276 1331h930l-35 -176h-739z" />
    <glyph glyph-name="Zhecy" unicode="&#x416;" horiz-adv-x="1830" 
d="M1751 1331h252q-360 -342 -641 -678q172 -274 371 -653h-228q-152 317 -299 561h-174l-117 -561h-184l117 561h-166q-254 -266 -498 -561h-250q268 317 617 676q-94 205 -346 655h219q141 -262 293 -594h168l123 594h184l-123 -594h152q237 291 530 594z" />
    <glyph glyph-name="Zecy" unicode="&#x417;" horiz-adv-x="1251" 
d="M754 1356q461 0 460 -297q0 -102 -72 -207q-73 -104 -200 -154v-2q190 -70 191 -276q0 -163 -133 -294q-68 -69 -196 -110t-278 -41t-288 29q-139 29 -211 59l41 187q244 -94 460 -94t309 78q93 79 93 180q0 180 -297 180h-316l35 176h316q180 0 259 76t79 176
q0 154 -285 154q-193 0 -475 -95l39 201q272 74 469 74z" />
    <glyph glyph-name="Iicy" unicode="&#x418;" horiz-adv-x="1495" 
d="M535 1331l-213 -1020l966 1020h213l-276 -1331h-191l221 1067l-1007 -1067h-180l276 1331h191z" />
    <glyph glyph-name="Iishortcy" unicode="&#x419;" horiz-adv-x="1495" 
d="M535 1331l-213 -1020l966 1020h213l-276 -1331h-191l221 1067l-1007 -1067h-180l276 1331h191zM928 1427q-260 0 -228 246h156q-6 -113 98 -112q129 0 191 112h137q-100 -246 -354 -246z" />
    <glyph glyph-name="Kacy" unicode="&#x41a;" horiz-adv-x="1247" 
d="M1159 1331h281q-403 -317 -766 -686q219 -262 495 -645h-243q-188 285 -412 561h-137l-117 -561h-192l276 1331h193l-123 -594h116q301 315 629 594z" />
    <glyph glyph-name="Elcy" unicode="&#x41b;" horiz-adv-x="1263" 
d="M-78 -25q-20 0 -65 7l32 163q23 -2 39 -2q90 1 159 93t167 327t246 768h819l-277 -1331h-192l240 1155h-443q-141 -485 -243 -723t-213 -347q-110 -110 -269 -110z" />
    <glyph glyph-name="Emcy" unicode="&#x41c;" horiz-adv-x="1740" 
d="M1618 1331q0 -508 -39 -1331h-199q47 651 47 1073q-211 -317 -561 -942h-147q-78 629 -154 942q-231 -528 -405 -1073h-195q113 354 260 725t260 606h213q96 -471 158 -891q267 481 535 891h227z" />
    <glyph glyph-name="Ency" unicode="&#x41d;" horiz-adv-x="1472" 
d="M1010 0l123 594h-750l-123 -594h-192l276 1331h193l-115 -555h749l115 555h193l-277 -1331h-192z" />
    <glyph glyph-name="Ocy" unicode="&#x41e;" horiz-adv-x="1617" 
d="M924 1176q-262 0 -431 -162t-169 -443q0 -199 123.5 -305t334.5 -106q248 0 416 164.5t168 435.5q0 205 -118.5 310.5t-323.5 105.5zM950 1356q293 0 453 -158t160 -426q0 -356 -227.5 -576.5t-577.5 -220.5q-295 0 -463 161t-168 431q0 352 227 570.5t596 218.5z" />
    <glyph glyph-name="Pecy" unicode="&#x41f;" horiz-adv-x="1462" 
d="M1192 0h-193l240 1155h-739l-240 -1155h-192l276 1331h1124z" />
    <glyph glyph-name="Ercy" unicode="&#x420;" horiz-adv-x="1314" 
d="M709 612q164 0 270 80t106 250q0 111 -74 160q-75 49 -190 49h-321l-111 -539h320zM856 1331q193 0 325 -112q107 -95 107 -289q0 -106 -43 -201q-43 -94 -106 -148q-63 -53 -173 -101t-270 -48h-346l-90 -432h-192l276 1331h512z" />
    <glyph glyph-name="Escy" unicode="&#x421;" horiz-adv-x="1431" 
d="M1059 1356q205 0 414 -86l-41 -189q-221 90 -424 90q-283 0 -483.5 -164.5t-200.5 -453.5q0 -139 75.5 -231.5t183 -127t238.5 -34.5q219 0 447 90l-41 -193q-209 -82 -457 -82q-248 -1 -438 127q-205 138 -205 462q0 174 77 333.5t206 257.5t286.5 149.5t362.5 51.5z
" />
    <glyph glyph-name="Tecy" unicode="&#x422;" horiz-adv-x="1224" 
d="M842 1155l-240 -1155h-192l239 1155h-499l36 176h1192l-37 -176h-499z" />
    <glyph glyph-name="Ucy" unicode="&#x423;" horiz-adv-x="1200" 
d="M1174 1331h231q-197 -293 -499 -686t-521 -645h-242q219 252 377 449q-55 111 -161.5 373.5t-186.5 508.5h205q47 -156 132 -381t138 -340q318 406 527 721z" />
    <glyph glyph-name="Efcy" unicode="&#x424;" horiz-adv-x="1716" 
d="M1085 1176l-211 -1024q162 10 282 76t183 163q123 191 121 402q0 167 -94 265t-281 118zM330 545q0 -166 93 -265t275 -122l211 1018q-163 -12 -281 -76t-179 -156q-119 -182 -119 -399zM262 160q-135 145 -135 377t111 427q61 108 152 188q92 80 234 136q142 55 320 66
l17 84h184l-17 -86q256 -27 395 -174q138 -148 138 -377t-113 -431q-61 -110 -151 -193q-91 -83 -233 -139t-318 -63l-10 -81h-195l18 90q-262 31 -397 176z" />
    <glyph glyph-name="Hacy" unicode="&#x425;" horiz-adv-x="1372" 
d="M1237 0h-240l-299 528l-493 -528h-252l631 676l-381 655h235l303 -543l492 543h248l-631 -682z" />
    <glyph glyph-name="Tsecy" unicode="&#x426;" horiz-adv-x="1447" 
d="M1198 176h174l-94 -457h-184l57 281h-1083l276 1331h193l-240 -1155h709l239 1155h193z" />
    <glyph glyph-name="Checy" unicode="&#x427;" horiz-adv-x="1284" 
d="M528 379q-180 -1 -262 65t-82 220q0 74 23 186l98 481h193l-101 -489q-16 -86 -16 -152q0 -134 178 -135q205 0 404 133l133 643h192l-274 -1329h-193l105 502q-218 -125 -398 -125z" />
    <glyph glyph-name="Shacy" unicode="&#x428;" horiz-adv-x="1943" 
d="M1950 1331l-277 -1331h-1605l276 1331h193l-240 -1155h518l240 1155h184l-240 -1155h519l239 1155h193z" />
    <glyph glyph-name="Shchacy" unicode="&#x429;" horiz-adv-x="1959" 
d="M1710 176h174l-94 -457h-184l57 281h-1595l276 1331h193l-240 -1155h518l240 1155h184l-240 -1155h519l239 1155h193z" />
    <glyph glyph-name="Hardsigncy" unicode="&#x42a;" horiz-adv-x="1454" 
d="M858 176q184 0 277 89q92 89 92 206q0 207 -271 207h-303l-104 -502h309zM989 854q209 0 326 -98t117 -268t-120 -318q-62 -76 -186 -123t-286 -47h-516l241 1159h-411l36 172h603l-101 -477h297z" />
    <glyph glyph-name="Yerucy" unicode="&#x42b;" horiz-adv-x="1759" 
d="M602 176q184 0 277 89q92 89 92 206q0 207 -271 207h-303l-104 -502h309zM1489 0h-193l277 1331h192zM733 854q209 0 326 -98t117 -268t-120 -318q-62 -76 -186 -123t-286 -47h-516l276 1331h193l-101 -477h297z" />
    <glyph glyph-name="Softsigncy" unicode="&#x42c;" horiz-adv-x="1206" 
d="M602 176q184 0 277 89q92 89 92 206q0 207 -271 207h-303l-104 -502h309zM733 854q209 0 326 -98t117 -268t-120 -318q-62 -76 -186 -123t-286 -47h-516l276 1331h193l-101 -477h297z" />
    <glyph glyph-name="Ereversedcy" unicode="&#x42d;" horiz-adv-x="1300" 
d="M695 1356q245 0 398 -135t152 -381q0 -339 -192 -589q-96 -126 -258 -201t-371 -75q-109 0 -253 29t-212 57l41 185q266 -92 444 -92q240 0 382 125t194 323h-721l37 176h711v43q0 357 -406 357q-209 0 -461 -105l39 197q231 86 476 86z" />
    <glyph glyph-name="Iucy" unicode="&#x42e;" horiz-adv-x="2041" 
d="M1229 160q241 0 401 169t160 439q0 201 -114 304q-114 104 -324 104t-376 -165q-167 -165 -167 -440q0 -195 124 -303t296 -108zM1397 1356q281 0 435 -156t155 -420q-1 -356 -217 -580t-560 -225q-258 0 -428 167t-170 436v16h-227l-125 -594h-192l276 1331h193
l-117 -561h215q61 264 271 425t491 161z" />
    <glyph glyph-name="Iacy" unicode="&#x42f;" horiz-adv-x="1314" 
d="M752 1155q-158 0 -252 -77t-94 -197q0 -219 268 -219h315l103 493h-340zM766 1331h555l-277 -1331h-192l100 485h-270q-266 -238 -481 -485h-252q240 272 510 516q-113 27 -186 116t-72 226q0 205 152 339q153 134 413 134z" />
    <glyph glyph-name="acy" unicode="&#x430;" horiz-adv-x="1296" 
d="M285 410q0 -139 86 -208t215 -69q195 0 329 119l117 567q-35 33 -112.5 58.5t-174.5 25.5q-186 0 -323 -131t-137 -362zM98 410q0 158 60 288t154 209q196 166 431 166q106 0 198.5 -29.5t139.5 -66.5l56 74h127l-217 -1051h-125l-15 82q-139 -106 -338 -106.5
t-335 108.5t-136 326z" />
    <glyph glyph-name="becy" unicode="&#x431;" horiz-adv-x="1269" 
d="M633 147q104 0 187 44t129 113q95 143 93 294q0 221 -247 221q-266 0 -441 -237q-20 -94 -20 -158q0 -277 299 -277zM848 991q182 0 288 -102t105 -278q0 -176 -96 -336q-112 -186 -303 -259q-109 -41 -236 -41q-215 0 -337 109t-122 326q0 92 35 264t94 311
q118 279 410 367q140 43 308 58q168 16 218 28t95 47l10 -178q-68 -66 -340 -76t-402 -124q-65 -58 -103 -127t-64 -167q190 178 440 178z" />
    <glyph glyph-name="vecy" unicode="&#x432;" horiz-adv-x="1175" 
d="M592 141q154 -1 228 55t73 140q0 137 -242 137h-366q-6 -39 -6 -74q0 -258 313 -258zM926 784q0 55 -55 91t-187 36q-132 1 -240 -71q-109 -72 -135 -228h363q254 0 254 172zM1077 339q0 -155 -133 -259q-132 -104 -356 -105t-357 105t-133 323q0 39 6 84q35 297 200 441
t423 145q183 0 285 -72t102 -173t-56 -175t-165 -96l-2 -4q186 -59 186 -214z" />
    <glyph glyph-name="gecy" unicode="&#x433;" horiz-adv-x="1036" 
d="M236 266q0 -119 251 -119q193 0 396 78l-39 -178q-195 -72 -386 -72t-303 68t-112 204t75 216t236 121l285 71q94 25 134 59t40 89q0 100 -225 100q-176 0 -387 -65l37 178q209 57 373 57q393 0 393 -252t-308 -327l-286 -70q-98 -25 -136 -62.5t-38 -95.5z" />
    <glyph glyph-name="decy" unicode="&#x434;" horiz-adv-x="1306" 
d="M596 147q152 0 266 110t154 323q-41 112 -140 176t-219 64t-207 -70q-153 -122 -153 -344q0 -121 74 -190q73 -69 225 -69zM578 -25q-236 0 -357 117t-121 317t132 384q65 88 177 143q113 55 243 55t236 -55t165 -143q2 18 2 53q0 166 -125 284t-422 183l76 160
q350 -98 498 -253t149 -391q0 -121 -31 -262q-61 -285 -224 -439q-162 -154 -398 -153z" />
    <glyph glyph-name="iecy" unicode="&#x435;" horiz-adv-x="1196" 
d="M958 684q0 221 -227 221q-137 0 -251.5 -72t-157.5 -215h630q6 43 6 66zM604 -25q-227 0 -366.5 107.5t-139.5 316.5q0 171 58 305q60 134 156 212q196 158 440 157q193 0 293 -95t100 -271q0 -68 -35 -248h-825l-4 -58q1 -78 35 -132q34 -55 94 -79q106 -44 219 -43
q211 0 409 78l-39 -178q-168 -72 -395 -72z" />
    <glyph glyph-name="zhecy" unicode="&#x436;" horiz-adv-x="1611" 
d="M1460 1051h234q-299 -268 -498 -506q168 -272 299 -545h-203q-100 229 -243 455h-138l-94 -455h-176l94 455h-137q-135 -133 -412 -455h-227q74 98 228 268q155 170 286 293q-94 209 -278 490h208q121 -209 234 -439h131l90 439h176l-90 -439h98q180 212 418 439z" />
    <glyph glyph-name="zecy" unicode="&#x437;" horiz-adv-x="1062" 
d="M676 1073q186 1 275 -67t89 -166t-59 -178t-170 -117l-2 -2q164 -57 164 -207t-121 -255q-120 -105 -358 -105t-435 73l37 168q207 -76 375 -76q168 1 241 57t72 136q0 135 -219 135h-307l31 143h293q142 0 206 54t64 118t-56 96q-136 78 -554 -38l34 168q214 63 400 63z
" />
    <glyph glyph-name="iicy" unicode="&#x438;" horiz-adv-x="1271" 
d="M303 303q0 -162 217 -162q109 0 212.5 41t162.5 92l160 777h184l-219 -1051h-121l-18 104q-57 -49 -167 -89t-253.5 -40t-242.5 74t-99 215q0 55 12 119l135 668h185l-134 -648q-14 -61 -14 -100z" />
    <glyph glyph-name="iishortcy" unicode="&#x439;" horiz-adv-x="1271" 
d="M303 303q0 -162 217 -162q109 0 212.5 41t162.5 92l160 777h184l-219 -1051h-121l-18 104q-57 -49 -167 -89t-253.5 -40t-242.5 74t-99 215q0 55 12 119l135 668h185l-134 -648q-14 -61 -14 -100zM756 1214q-260 0 -228 246h156q-6 -113 98 -112q129 0 191 112h137
q-100 -246 -354 -246z" />
    <glyph glyph-name="kacy" unicode="&#x43a;" horiz-adv-x="1097" 
d="M936 1051h262q-283 -215 -575 -494q184 -215 409 -557h-229q-145 242 -322 455h-135l-94 -455h-184l217 1051h184l-90 -439h78q329 330 479 439z" />
    <glyph glyph-name="elcy" unicode="&#x43b;" horiz-adv-x="1120" 
d="M8 -25q-27 0 -69 7l30 155q20 -4 37 -4q96 0 182 195t236 723h704l-219 -1051h-184l186 893h-348q-102 -373 -181 -565t-165 -273q-86 -80 -209 -80z" />
    <glyph glyph-name="emcy" unicode="&#x43c;" horiz-adv-x="1372" 
d="M1296 1051q0 -391 -41 -1051h-182q43 506 51 805q-115 -174 -422 -713h-143q-88 465 -141 684q-145 -387 -252 -776h-197q223 696 377 1051h184q88 -387 146 -703q186 334 430 703h190z" />
    <glyph glyph-name="ency" unicode="&#x43d;" horiz-adv-x="1222" 
d="M788 0l95 455h-537l-94 -455h-184l217 1051h184l-90 -439h536l91 439h184l-217 -1051h-185z" />
    <glyph glyph-name="ocy" unicode="&#x43e;" horiz-adv-x="1296" 
d="M609 145q169 0 304.5 131.5t135.5 344.5q0 121 -78 201.5t-248 80.5t-304 -131t-134 -344q0 -121 77.5 -202t246.5 -81zM778 1073h2q199 0 327 -116.5t128 -319.5t-97.5 -355.5t-250 -226t-334.5 -80.5q-199 0 -327 117t-128 318q0 309 198.5 486t481.5 177z" />
    <glyph glyph-name="pecy" unicode="&#x43f;" horiz-adv-x="1253" 
d="M840 1073q342 0 342 -272q0 -47 -17 -133l-137 -668h-184l133 645q16 70 16 109q0 154 -198 153q-109 0 -217.5 -41t-176.5 -92l-161 -774h-185l217 1051h125l21 -105q72 49 189.5 88t232.5 39z" />
    <glyph glyph-name="ercy" unicode="&#x440;" horiz-adv-x="1290" 
d="M598 145q190 -1 318 135t128 332q0 135 -81 213t-195 78t-208 -37t-148 -82l-111 -534q33 -41 112 -73t185 -32zM788 1073q197 0 323 -119t126 -330q0 -210 -96 -360q-97 -150 -243 -220t-316 -69q-88 0 -176 29t-142 64l-98 -478h-184l307 1461h123l14 -86q55 41 154 75
t208 33z" />
    <glyph glyph-name="escy" unicode="&#x441;" horiz-adv-x="1105" 
d="M808.5 1073q197.5 0 340.5 -69l-35 -166q-158 70 -352.5 69.5t-334.5 -129.5t-140 -340q0 -139 91 -215t272.5 -76t363.5 82l-37 -180q-168 -74 -382 -74t-355.5 121t-141.5 330t101.5 358.5t256.5 219t352.5 69.5z" />
    <glyph glyph-name="tecy" unicode="&#x442;" horiz-adv-x="2025" 
d="M985 754q0 154 -194 153q-109 0 -213 -41t-166 -92l-160 -774h-184l219 1051h123l20 -105q68 49 182 88t234 39q231 0 303 -135q74 51 198 93t268 42t229 -62t85 -210q0 -47 -16 -133l-137 -668h-185l133 645q16 70 17 109q0 154 -199 153q-106 0 -208 -39t-158 -88
q-4 -55 -17 -110l-137 -670h-184l133 645q14 72 14 109z" />
    <glyph glyph-name="ucy" unicode="&#x443;" horiz-adv-x="1089" 
d="M-23 -434q-90 0 -149 18l43 180q61 -20 123 -20q109 0 193.5 72.5t177.5 214.5q-88 258 -153 542.5t-89 477.5h184q76 -518 187 -846q253 373 501 846h203q-303 -565 -637 -1051q-154 -223 -291 -328.5t-293 -105.5z" />
    <glyph glyph-name="efcy" unicode="&#x444;" horiz-adv-x="1609" 
d="M932 141q196 0 308 154t112 332q0 127 -70 201t-201 75q-53 0 -96 -6l-156 -750q48 -6 103 -6zM291 424q0 -133 73 -208t191 -75q53 0 102 6l154 750q-41 6 -90 6q-111 0 -198 -49q-145 -82 -208 -277q-24 -79 -24 -153zM1141 1071q178 0 293 -116t114 -312
q0 -248 -162 -449q-78 -98 -204 -158t-285 -61q-37 0 -94 9l-82 -394h-184l81 392q-49 -6 -98 -7q-178 0 -300 116t-122 321q0 162 69 309t218 249q150 101 352 101q63 0 105 -8l73 352h185l-78 -354q58 10 119 10z" />
    <glyph glyph-name="hacy" unicode="&#x445;" horiz-adv-x="1064" 
d="M1001 0h-227l-231 383l-379 -383h-248l528 518l-319 533h221l238 -404l397 404h240l-543 -533z" />
    <glyph glyph-name="tsecy" unicode="&#x446;" horiz-adv-x="1286" 
d="M1024 -6q-51 0 -89 34t-40 93q-51 -59 -168 -103t-263 -43q-146 0 -246 74q-99 74 -99 215q0 55 12 119l135 668h185l-134 -648q-14 -61 -14 -100q0 -162 217 -162q109 0 212 41t163 92l160 777h184l-160 -770q-19 -86 3 -114t102 -28h53l-86 -420h-170l53 275h-10z" />
    <glyph glyph-name="checy" unicode="&#x447;" horiz-adv-x="1187" 
d="M467 262q-158 0 -236 62t-77 202q0 68 18 156l76 369h184l-78 -379q-12 -63 -12 -121q0 -117 165 -117t363 135l101 482h184l-217 -1051h-184l82 393q-211 -131 -369 -131z" />
    <glyph glyph-name="shacy" unicode="&#x448;" horiz-adv-x="2013" 
d="M1063 297q0 -154 194 -154q109 0 213 41t166 92l160 775h184l-219 -1051h-123l-20 104q-68 -49 -182 -88t-234 -39q-231 0 -303 136q-74 -51 -198 -93t-268 -43q-144 1 -229 63t-85 210q0 47 16 133l137 668h185l-133 -645q-16 -70 -17 -109q0 -154 199 -154
q106 0 208 39t158 88q4 55 17 111l137 670h184l-133 -645q-14 -72 -14 -109z" />
    <glyph glyph-name="shchacy" unicode="&#x449;" horiz-adv-x="2027" 
d="M1202 -23q-231 0 -303 136q-74 -51 -198 -93t-268 -43q-144 1 -229 63t-85 210q0 47 16 133l137 668h185l-133 -645q-16 -70 -17 -109q0 -154 199 -154q106 0 208 39t158 88q4 55 17 111l137 670h184l-133 -645q-14 -72 -14 -109q0 -154 194 -154q109 0 213 41t166 92
l160 775h184l-165 -793q-19 -86 3 -114t101 -27h53l-86 -420h-170l53 274h-10q-51 0 -90 37t-39 105q-66 -51 -186 -93t-242 -43z" />
    <glyph glyph-name="hardsigncy" unicode="&#x44a;" horiz-adv-x="1351" 
d="M756 141q180 0 260 77t80 183q0 152 -217 152q-139 0 -314 -82l-63 -303q135 -27 254 -27zM937 723q163 0 256 -78t93 -234t-106 -284q-57 -70 -172 -111t-283 -41t-436 48l180 870h-356l32 158h541l-86 -410q174 82 337 82z" />
    <glyph glyph-name="yerucy" unicode="&#x44b;" horiz-adv-x="1622" 
d="M539 141q180 0 260 77t80 183q0 152 -217 152q-139 0 -314 -82l-63 -303q135 -27 254 -27zM1370 0h-184l219 1051h184zM720 723q163 0 256 -78t93 -233t-106 -285q-57 -70 -172 -111t-283 -41t-436 48l213 1028h184l-86 -410q174 82 337 82z" />
    <glyph glyph-name="softsigncy" unicode="&#x44c;" horiz-adv-x="1130" 
d="M539 141q180 0 260 77t80 183q0 152 -217 152q-139 0 -314 -82l-63 -303q135 -27 254 -27zM720 723q163 0 256 -78t93 -233t-106 -285q-57 -70 -172 -111t-283 -41t-436 48l213 1028h184l-86 -410q174 82 337 82z" />
    <glyph glyph-name="ereversedcy" unicode="&#x44d;" horiz-adv-x="1114" 
d="M618 1071q209 0 322 -118t113 -339q-1 -303 -187 -472t-460 -169q-215 0 -359 70l35 166q158 -70 329 -70t283 84t152 232h-549l33 157h534q0 145 -63 216t-209 71q-195 0 -381 -72l37 181q161 63 370 63z" />
    <glyph glyph-name="iucy" unicode="&#x44e;" horiz-adv-x="1685" 
d="M715 428q1 -123 71 -203t236 -80q166 1 291 133t125 347q0 125 -73 201t-218 77q-145 0 -258 -89t-156 -239l-12 -61q-6 -43 -6 -86zM1168 1073q208 0 332 -114t124 -316q0 -303 -186 -485t-461 -183q-199 0 -324 119t-125 322v39h-194l-94 -455h-185l219 1051h185
l-92 -439h186q59 215 233 338q175 123 382 123z" />
    <glyph glyph-name="iacy" unicode="&#x44f;" horiz-adv-x="1202" 
d="M348 651q0 -156 225 -155q158 0 299 20l78 375l-256 2q-184 2 -265 -68t-81 -174zM160 618q0 173 113 294q128 139 454 139h442l-217 -1051h-184l74 360q-125 -20 -234 -28q-203 -150 -391 -330l-258 -2q94 94 414 350q-100 31 -157 104q-56 73 -56 164z" />
    <glyph glyph-name="iegravecy" unicode="&#x450;" horiz-adv-x="1196" 
d="M958 684q0 221 -227 221q-137 0 -251.5 -72t-157.5 -215h630q6 43 6 66zM604 -25q-227 0 -366.5 107.5t-139.5 316.5q0 171 58 305q60 134 156 212q196 158 440 157q193 0 293 -95t100 -271q0 -68 -35 -248h-825l-4 -58q1 -78 35 -132q34 -55 94 -79q106 -44 219 -43
q211 0 409 78l-39 -178q-168 -72 -395 -72zM379 1507h225l213 -297h-170z" />
    <glyph glyph-name="iocy" unicode="&#x451;" horiz-adv-x="1196" 
d="M958 684q0 221 -227 221q-137 0 -251.5 -72t-157.5 -215h630q6 43 6 66zM604 -25q-227 0 -366.5 107.5t-139.5 316.5q0 171 58 305q60 134 156 212q196 158 440 157q193 0 293 -95t100 -271q0 -68 -35 -248h-825l-4 -58q1 -78 35 -132q34 -55 94 -79q106 -44 219 -43
q211 0 409 78l-39 -178q-168 -72 -395 -72zM1081 1401l-41 -197h-200l41 197h200zM676 1401l-41 -197h-201l41 197h201z" />
    <glyph glyph-name="djecy" unicode="&#x452;" horiz-adv-x="1265" 
d="M852 1073q342 0 342 -272q0 -47 -16 -133l-148 -717q-43 -207 -128 -296t-273 -89q-123 0 -205 31l-29 10l41 162q88 -33 181.5 -33t139.5 39t61.5 77.5t27.5 96.5l143 696q16 70 17 109q0 154 -199 153q-106 0 -216 -41t-179 -92l-160 -774h-184l239 1157h-225l33 158
h225l20 100h185l-21 -100h291l-33 -158h-290l-41 -199q72 43 182 79t219 36z" />
    <glyph glyph-name="gjecy" unicode="&#x453;" horiz-adv-x="1036" 
d="M236 266q0 -119 251 -119q193 0 396 78l-39 -178q-195 -72 -386 -72t-303 68t-112 204t75 216t236 121l285 71q94 25 134 59t40 89q0 100 -225 100q-176 0 -387 -65l37 178q209 57 373 57q393 0 393 -252t-308 -327l-286 -70q-98 -25 -136 -62.5t-38 -95.5zM707 1210
h-170l213 297h225z" />
    <glyph glyph-name="ecy" unicode="&#x454;" horiz-adv-x="1067" 
d="M743 907q-167 0 -277 -78t-155 -217h545l-33 -157h-536v-17q0 -291 293 -291q207 0 389 82l-37 -180q-168 -74 -379 -74t-333 119t-122 338q0 303 186 472t461 169q215 0 359 -69l-35 -166q-158 69 -326 69z" />
    <glyph glyph-name="dzecy" unicode="&#x455;" horiz-adv-x="1069" 
d="M360 767q0 -56 63.5 -88t154 -48.5t179.5 -40t152.5 -88t63.5 -170.5q0 -176 -149.5 -266.5t-380 -90.5t-423.5 82l35 164q203 -80 396 -80q127 0 229 41t102 129q0 66 -63.5 100.5t-153.5 51t-181 39t-154.5 84t-63.5 160t47 164.5t127 100q149 62 353 62.5t343 -50.5
l-32 -162q-150 51 -327 51t-265 -55q-52 -33 -52 -89z" />
    <glyph glyph-name="icy" unicode="&#x456;" horiz-adv-x="501" 
d="M68 0l219 1051h182l-217 -1051h-184zM315 1231l39 184h201l-39 -184h-201z" />
    <glyph glyph-name="yicy" unicode="&#x457;" horiz-adv-x="501" 
d="M252 0h-184l217 1051h184zM713 1204h-201l41 197h201zM307 1204h-201l41 197h201z" />
    <glyph glyph-name="jecy" unicode="&#x458;" horiz-adv-x="501" 
d="M-162 -434q-137 0 -233 41l41 162q84 -33 172 -33t126 19q82 40 113 194l232 1102h182l-227 -1100q-43 -205 -130 -295t-276 -90zM315 1225l39 184h201l-39 -184h-201z" />
    <glyph glyph-name="ljecy" unicode="&#x459;" horiz-adv-x="1789" 
d="M1198 141q180 0 260 77t80 183q0 152 -217 152q-139 0 -313 -82l-64 -303q135 -27 254 -27zM1379 723q163 0 256 -78t93 -233t-106 -285q-124 -152 -456 -152q-170 0 -435 50l180 868h-348q-102 -373 -181 -565t-165 -273q-86 -80 -209 -80q-27 0 -69 7l30 155
q23 -4 37 -4q96 0 182 195t236 723h704l-86 -410q174 82 337 82z" />
    <glyph glyph-name="njecy" unicode="&#x45a;" horiz-adv-x="1839" 
d="M1247 141q180 0 260 77t80 183q0 152 -217 152q-137 0 -311 -82l-64 -303q133 -27 252 -27zM1429 723q162 0 255 -78q94 -78 94 -233t-107 -285q-125 -152 -457 -152q-170 0 -434 50l90 430h-536l-94 -455h-185l217 1051h185l-90 -439h536l90 439h185l-84 -410
q173 82 335 82z" />
    <glyph glyph-name="tshecy" unicode="&#x45b;" horiz-adv-x="1320" 
d="M852 1073q342 0 342 -272q0 -47 -16 -133l-138 -668h-184l133 645q16 70 17 109q0 154 -199 153q-106 0 -216 -41t-179 -92l-160 -774h-184l239 1157h-225l33 158h225l20 100h185l-21 -100h291l-33 -158h-290l-41 -199q72 43 182 79t219 36z" />
    <glyph glyph-name="kjecy" unicode="&#x45c;" horiz-adv-x="1097" 
d="M936 1051h262q-283 -215 -575 -494q184 -215 409 -557h-229q-145 242 -322 455h-135l-94 -455h-184l217 1051h184l-90 -439h78q329 330 479 439zM760 1210h-170l213 297h225z" />
    <glyph glyph-name="iigravecy" unicode="&#x45d;" horiz-adv-x="1271" 
d="M303 303q0 -162 217 -162q109 0 212.5 41t162.5 92l160 777h184l-219 -1051h-121l-18 104q-57 -49 -167 -89t-253.5 -40t-242.5 74t-99 215q0 55 12 119l135 668h185l-134 -648q-14 -61 -14 -100zM414 1507h225l213 -297h-170z" />
    <glyph glyph-name="ushortcy" unicode="&#x45e;" horiz-adv-x="1089" 
d="M-23 -434q-90 0 -149 18l43 180q61 -20 123 -20q109 0 193.5 72.5t177.5 214.5q-88 258 -153 542.5t-89 477.5h184q76 -518 187 -846q253 373 501 846h203q-303 -565 -637 -1051q-154 -223 -291 -328.5t-293 -105.5zM700 1214q-135 0 -200.5 64.5t-55.5 179.5h158
q-8 -108 109.5 -108.5t156.5 108.5h158q-76 -244 -326 -244z" />
    <glyph glyph-name="dzhecy" unicode="&#x45f;" horiz-adv-x="1265" 
d="M1014 0h-387l-58 -281h-172l58 281h-387l219 1051h184l-186 -893h577l187 893h184z" />
    <glyph glyph-name="Gheupturncy" unicode="&#x490;" horiz-adv-x="1036" 
d="M1174 1612l-95 -457h-641l-239 -1155h-193l277 1331h649l57 281h185z" />
    <glyph glyph-name="gheupturncy" unicode="&#x491;" horiz-adv-x="872" 
d="M547 1073q395 0 395 -251.5t-307 -327.5l-287 -70q-98 -25 -136 -62.5t-38 -95.5q0 -119 252 -119q193 0 395 78l-39 -178q-195 -72 -386 -72t-302.5 68t-111.5 204t74.5 216t236.5 121l285 71q94 25 134 59t40 89q0 100 -226 100q-176 0 -387 -65l37 178l90 315h160
l-88 -278q119 20 209 20z" />
    <glyph glyph-name="Ghestrokecy" unicode="&#x492;" horiz-adv-x="1036" 
d="M500 1155l-78 -379h358l-35 -176h-360l-125 -600h-192l125 600h-164l34 176h166l115 555h832l-37 -176h-639z" />
    <glyph glyph-name="ghestrokecy" unicode="&#x493;" horiz-adv-x="901" 
d="M1004 823q0 -227 -240 -309l145 -53l-53 -111l-301 109l-145 -35q-98 -25 -136 -62.5t-38 -95.5q0 -119 251 -119q193 0 396 78l-39 -178q-195 -72 -386 -72t-303 68t-112 196t56.5 203.5t176.5 118.5l-163 60l53 110l317 -115l156 39q94 25 134 59t40 89q0 100 -225 100
q-176 0 -387 -65l37 178q209 57 373 57q393 0 393 -250z" />
    <glyph glyph-name="Zhedescendercy" unicode="&#x496;" horiz-adv-x="1851" 
d="M1362 653q141 -229 276 -477h195l-94 -457h-185l58 281h-107q-152 317 -299 561h-174l-117 -561h-184l117 561h-166q-254 -266 -498 -561h-250q268 317 617 676q-94 205 -346 655h219q141 -262 293 -594h168l123 594h184l-123 -594h152q238 291 530 594h252
q-360 -342 -641 -678z" />
    <glyph glyph-name="zhedescendercy" unicode="&#x497;" horiz-adv-x="1642" 
d="M1196 545q123 -205 219 -387h199l-90 -439h-172l57 281h-117q-100 229 -243 455h-138l-94 -455h-176l94 455h-137q-135 -133 -412 -455h-227q74 98 228 268q155 170 286 293q-94 209 -278 490h208q121 -209 234 -439h131l90 439h176l-90 -439h98q180 211 418 439h234
q-299 -268 -498 -506z" />
    <glyph glyph-name="Kadescendercy" unicode="&#x49a;" horiz-adv-x="1267" 
d="M674 645q186 -219 366 -469h209l-94 -457h-184l57 281h-102q-188 285 -412 561h-137l-117 -561h-192l276 1331h193l-123 -594h116q301 315 629 594h281q-404 -317 -766 -686z" />
    <glyph glyph-name="kadescendercy" unicode="&#x49b;" horiz-adv-x="1105" 
d="M610 557q143 -168 301 -399h162l-90 -439h-172l57 281h-77q-145 242 -322 455h-135l-94 -455h-185l217 1051h185l-90 -439h77q330 330 480 439h262q-283 -215 -576 -494z" />
    <glyph glyph-name="Kaverticalstrokecy" unicode="&#x49c;" horiz-adv-x="1296" 
d="M1214 1331h254q-362 -348 -637 -686q31 -53 147 -247t222 -398h-219q-86 170 -305 561h-51l-82 -397h-160l82 397h-88l-117 -561h-192l276 1331h193l-123 -594h88l63 314h160l-63 -314h30q227 287 522 594z" />
    <glyph glyph-name="kaverticalstrokecy" unicode="&#x49d;" horiz-adv-x="1153" 
d="M1001 1051h234q-299 -268 -498 -506q168 -272 299 -545h-202q-100 229 -244 455h-66l-73 -353h-115l74 353h-76l-94 -455h-185l217 1051h185l-90 -439h75l54 254h114l-53 -254h27q179 212 417 439z" />
    <glyph glyph-name="Endescendercy" unicode="&#x4a2;" horiz-adv-x="1488" 
d="M1479 1331l-240 -1155h164l-94 -457h-185l58 281h-172l123 594h-750l-123 -594h-192l276 1331h193l-115 -555h749l115 555h193z" />
    <glyph glyph-name="endescendercy" unicode="&#x4a3;" horiz-adv-x="1224" 
d="M993 158h166l-90 -439h-172l57 281h-178l94 455h-536l-94 -455h-185l217 1051h185l-90 -439h536l90 439h185z" />
    <glyph glyph-name="Ustraitcy" unicode="&#x4ae;" horiz-adv-x="1107" 
d="M1071 1331h232q-383 -565 -656 -899l-84 -432h-194l92 453q-174 391 -342 878h203q123 -387 264 -710q249 331 485 710z" />
    <glyph glyph-name="ustraitcy" unicode="&#x4af;" horiz-adv-x="1077" 
d="M963 1051h202q-281 -530 -633 -1047l-86 -414h-184l86 412q-94 268 -161 561t-87 488h181q72 -532 184 -856q256 375 498 856z" />
    <glyph glyph-name="Hadescendercy" unicode="&#x4b2;" horiz-adv-x="1372" 
d="M850 649l283 -473h200l-94 -457h-184l57 281h-115l-299 528l-493 -528h-252l631 676l-381 655h235l303 -543l492 543h248z" />
    <glyph glyph-name="hadescendercy" unicode="&#x4b3;" horiz-adv-x="1064" 
d="M678 518l225 -360h168l-90 -439h-172l57 281h-92l-231 383l-379 -383h-248l528 518l-319 533h221l238 -404l397 404h240z" />
    <glyph glyph-name="Cheverticalstrokecy" unicode="&#x4b8;" horiz-adv-x="1312" 
d="M516 379q-168 -1 -250 65t-82 220q0 74 23 186l98 481h193l-101 -489q-16 -86 -16 -152q0 -134 176 -135l102 496h181l-99 -469q106 29 222 106l133 643h192l-274 -1329h-193l105 502q-115 -66 -219 -96l-52 -244h-180l45 215h-4z" />
    <glyph glyph-name="cheverticalstrokecy" unicode="&#x4b9;" horiz-adv-x="1198" 
d="M342 551q0 -117 160 -117l90 432h168l-84 -399q88 31 194 102l101 482h184l-217 -1051h-184l82 393q-109 -66 -195 -96l-41 -195h-168l33 160q-158 0 -235 62t-76 202q0 68 18 156l76 369h184l-78 -379q-12 -63 -12 -121z" />
    <glyph glyph-name="Shhacy" unicode="&#x4ba;" horiz-adv-x="1310" 
d="M877 922q172 0 262 -62t90 -211q0 -47 -17 -133l-108 -516h-193l103 485q16 70 16 109q0 154 -201 154q-117 0 -229 -42t-180 -96l-125 -608h-193l275 1329h192l-108 -526q193 117 416 117z" />
    <glyph glyph-name="shhacy" unicode="&#x4bb;" horiz-adv-x="1320" 
d="M872 1051q342 0 342 -273q0 -47 -16 -133l-133 -645h-184l129 623q16 70 16 108q0 154 -199 154q-109 0 -219 -42t-176 -93l-156 -750h-184l293 1415h184l-98 -479q74 45 183 80t218 35z" />
    <glyph glyph-name="Palochkacy" unicode="&#x4c0;" horiz-adv-x="530" 
d="M68 0l276 1331h193l-277 -1331h-192z" />
    <glyph glyph-name="palochkacy" unicode="&#x4cf;" horiz-adv-x="499" 
d="M68 0l292 1415h185l-293 -1415h-184z" />
    <glyph glyph-name="Schwacy" unicode="&#x4d8;" horiz-adv-x="1591" 
d="M751 160q207 0 355 111q147 112 199 323h-975q-6 -43 -6 -84q0 -170 110 -260t317 -90zM942 1356q278 0 436 -146t158 -391q0 -318 -185 -567q-93 -125 -254 -201t-368 -76q-276 -1 -439 139t-163 363q0 78 20 209l15 84h1173q2 16 2 47q0 162 -113 259q-227 193 -825 7
l39 199q283 74 504 74z" />
    <glyph glyph-name="schwacy" unicode="&#x4d9;" horiz-adv-x="1187" 
d="M541 147q135 1 229 63t160 220h-623l-2 -37q0 -246 236 -246zM977 670q-1 229 -319 229q-162 0 -451 -90l39 184q248 78 470 78t337 -97t114 -286q0 -78 -16 -151q-59 -287 -233 -424t-410 -138q-188 -1 -290 95t-103 270q0 59 16 141l23 107h815q8 48 8 82z" />
    <glyph glyph-name="Obarredcy" unicode="&#x4e8;" horiz-adv-x="1617" 
d="M780 160q209 0 364.5 118.5t203.5 321.5h-1024v-29q0 -199 123.5 -305t332.5 -106zM921 1176q-204 0 -358.5 -105.5t-210.5 -294.5h1014q-4 197 -122.5 298.5t-322.5 101.5zM950 1356q293 0 453 -158t160 -426q0 -356 -227.5 -576.5t-577.5 -220.5q-295 0 -463 161
t-168 431q0 352 227 570.5t596 218.5z" />
    <glyph glyph-name="obarredcy" unicode="&#x4e9;" horiz-adv-x="1310" 
d="M526.5 145q148.5 0 267.5 83t167 227h-738v-27q0 -121 77.5 -202t226 -81zM684.5 903q-147.5 0 -263.5 -77.5t-165 -213.5h731v9q0 121 -77.5 201.5t-225 80.5zM717 1073h2q199 0 327 -116.5t128 -319.5t-97.5 -355.5t-250 -226t-334.5 -80.5q-199 0 -327 117t-128 318
q0 309 198.5 486t481.5 177z" />
    <glyph glyph-name="Wgrave" unicode="&#x1e80;" horiz-adv-x="1763" 
d="M1702 1331h199q-293 -721 -627 -1331h-203q-78 350 -141 772q-49 -104 -192.5 -349t-256.5 -423h-188q-72 571 -86 1331h188q10 -537 49 -1071q205 326 474 850h157q43 -434 129 -866q279 546 498 1087zM678 1751h229l213 -297h-174z" />
    <glyph glyph-name="wgrave" unicode="&#x1e81;" horiz-adv-x="1742" 
d="M1053 1051q0 -101 44 -406t72 -444q246 389 453 850h182q-86 -211 -239.5 -506t-327.5 -545h-195q-96 424 -133 752q-240 -465 -428 -752h-176q-135 526 -160 1051h172q33 -451 111 -822q94 141 248 419t205 403h172zM633 1507h225l213 -297h-170z" />
    <glyph glyph-name="Wacute" unicode="&#x1e82;" horiz-adv-x="1763" 
d="M1702 1331h199q-293 -721 -627 -1331h-203q-78 350 -141 772q-49 -104 -192.5 -349t-256.5 -423h-188q-72 571 -86 1331h188q10 -537 49 -1071q205 326 474 850h157q43 -434 129 -866q279 546 498 1087zM1401 1751l-268 -297h-175l213 297h230z" />
    <glyph glyph-name="wacute" unicode="&#x1e83;" horiz-adv-x="1742" 
d="M1053 1051q0 -101 44 -406t72 -444q246 389 453 850h182q-86 -211 -239.5 -506t-327.5 -545h-195q-96 424 -133 752q-240 -465 -428 -752h-176q-135 526 -160 1051h172q33 -451 111 -822q94 141 248 419t205 403h172zM1343 1507l-268 -297h-170l213 297h225z" />
    <glyph glyph-name="Wdieresis" unicode="&#x1e84;" horiz-adv-x="1763" 
d="M1702 1331h199q-293 -721 -627 -1331h-203q-78 350 -141 772q-49 -104 -192.5 -349t-256.5 -423h-188q-72 571 -86 1331h188q10 -537 49 -1071q205 326 474 850h157q43 -434 129 -866q279 546 498 1087zM1399 1649l-41 -201h-205l41 201h205zM993 1649l-41 -201h-204
l40 201h205z" />
    <glyph glyph-name="wdieresis" unicode="&#x1e85;" horiz-adv-x="1742" 
d="M1053 1051q0 -101 44 -406t72 -444q246 389 453 850h182q-86 -211 -239.5 -506t-327.5 -545h-195q-96 424 -133 752q-240 -465 -428 -752h-176q-135 526 -160 1051h172q33 -451 111 -822q94 141 248 419t205 403h172zM1335 1401l-41 -197h-200l41 197h200zM930 1401
l-41 -197h-201l41 197h201z" />
    <glyph glyph-name="Germandbls" unicode="&#x1e9e;" horiz-adv-x="1499" 
d="M856 -25q-223 0 -446 88l36 179q231 -90 424 -90t274 84t81 190q0 205 -385 233l28 142l308 276q-118 105 -304 105t-298 -102t-162 -351l-152 -729h-192l153 743q68 330 226 471q159 141 438 142q172 0 316 -75t216 -198l-340 -288q172 -41 262 -133t91 -220
q0 -182 -130 -316q-66 -69 -180 -110t-264 -41z" />
    <glyph glyph-name="Ygrave" unicode="&#x1ef2;" horiz-adv-x="1107" 
d="M1071 1331h232q-383 -565 -656 -899l-84 -432h-194l92 453q-174 391 -342 878h203q123 -387 264 -710q249 331 485 710zM346 1751h229l213 -297h-174z" />
    <glyph glyph-name="ygrave" unicode="&#x1ef3;" horiz-adv-x="1089" 
d="M-23 -434q-90 0 -149 18l43 180q61 -20 123 -20q109 0 193.5 72.5t177.5 214.5q-88 258 -153 542.5t-89 477.5h184q76 -518 187 -846q253 373 501 846h203q-303 -565 -637 -1051q-154 -223 -291 -328.5t-293 -105.5zM319 1507h226l213 -297h-170z" />
    <glyph glyph-name="hyphentwo" unicode="&#x2010;" horiz-adv-x="903" 
d="M803 537h-676l37 174h676z" />
    <glyph glyph-name="endash" unicode="&#x2013;" horiz-adv-x="1107" 
d="M1044 713l-36 -174h-881l37 174h880z" />
    <glyph glyph-name="emdash" unicode="&#x2014;" horiz-adv-x="1722" 
d="M1622 539h-1495l37 174h1495z" />
    <glyph glyph-name="horizontalbar" unicode="&#x2015;" horiz-adv-x="1722" 
d="M1622 539h-1495l37 174h1495z" />
    <glyph glyph-name="underscoredbl" unicode="&#x2017;" horiz-adv-x="1019" 
d="M848 -614h-1024l37 174h1024zM895 -389h-1024l35 174h1024z" />
    <glyph glyph-name="quoteleft" unicode="&#x2018;" horiz-adv-x="311" 
d="M326 1356h145l-184 -383h-181z" />
    <glyph glyph-name="quoteright" unicode="&#x2019;" horiz-adv-x="311" 
d="M225 973h-145l184 383h180z" />
    <glyph glyph-name="quotesinglbase" unicode="&#x201a;" horiz-adv-x="311" 
d="M-14 -184h-146l185 383h180z" />
    <glyph glyph-name="quotereversed" unicode="&#x201b;" horiz-adv-x="331" 
d="M287 1356l184 -383h-145l-220 383h181z" />
    <glyph glyph-name="quotedblleft" unicode="&#x201c;" horiz-adv-x="602" 
d="M616 1356h146l-184 -383h-181zM330 1356h145l-184 -383h-180z" />
    <glyph glyph-name="quotedblright" unicode="&#x201d;" horiz-adv-x="598" 
d="M512 973h-145l184 383h180zM225 973h-145l184 383h180z" />
    <glyph glyph-name="quotedblbase" unicode="&#x201e;" horiz-adv-x="598" 
d="M272 -184h-145l184 383h181zM-14 -184h-146l185 383h180z" />
    <glyph glyph-name="dagger" unicode="&#x2020;" horiz-adv-x="1042" 
d="M494 0h-175l177 846h-353l35 174h352l74 352h174l-73 -352h352l-35 -174h-352z" />
    <glyph glyph-name="daggerdbl" unicode="&#x2021;" horiz-adv-x="1087" 
d="M715 846l-49 -236h352l-37 -174h-352l-90 -436h-174l90 436h-353l37 174h353l49 236h-353l35 174h352l74 352h174l-73 -352h352l-35 -174h-352z" />
    <glyph glyph-name="bullet" unicode="&#x2022;" horiz-adv-x="573" 
d="M467 449h-369l74 358h369z" />
    <glyph glyph-name="ellipsis" unicode="&#x2026;" horiz-adv-x="1204" 
d="M1024 0h-205l41 199h205zM614 0h-204l41 199h204zM205 0h-205l41 199h205z" />
    <glyph glyph-name="perthousand" unicode="&#x2030;" horiz-adv-x="2625" 
d="M2253 612q-115 0 -173 -112t-58 -246q0 -133 124 -133q111 1 166 111t55 231q1 149 -114 149zM1436 612q-115 0 -173 -112q-59 -112 -59 -246q0 -133 125 -133q111 1 166 111t55 231q1 149 -114 149zM2282 756q126 0 200 -75t74 -177q0 -193 -95 -351q-48 -79 -134 -128
t-212 -49t-200 76q-74 77 -74 202q0 174 94 331q47 77 134 124t213 47zM1464 756q125 0 200 -75t75 -196q0 -174 -95 -332q-48 -79 -134 -128t-212 -49t-200 76q-74 77 -74 202q0 174 94 331q47 77 134 124t212 47zM678 1063q0 149 -115 149t-173 -112t-58 -246
q0 -133 125 -133q111 1 166 111t55 231zM565 0h-203l965 1331h199zM592 1356q125 0 200 -74t74 -197q0 -178 -95 -332q-48 -79 -134 -128t-212 -49t-200 76q-74 77 -73 202q0 177 94 331q47 77 134 124t212 47z" />
    <glyph glyph-name="minute" unicode="&#x2032;" horiz-adv-x="577" 
d="M430 1010h-135l72 471h188z" />
    <glyph glyph-name="second" unicode="&#x2033;" horiz-adv-x="577" 
d="M494 1481l-125 -471h-136l72 471h189z" />
    <glyph glyph-name="guilsinglleft" unicode="&#x2039;" horiz-adv-x="626" 
d="M313 545l119 -393h-147l-142 403l295 393h158z" />
    <glyph glyph-name="guilsinglright" unicode="&#x203a;" horiz-adv-x="626" 
d="M313 555l-118 393h147l141 -403l-293 -393h-159z" />
    <glyph glyph-name="exclamdouble" unicode="&#x203c;" horiz-adv-x="778" 
d="M573 0h-204l41 199h204zM164 0h-205l41 199h205zM850 1331l-225 -969h-152l176 969h201zM440 1331l-225 -969h-152l177 969h200z" />
    <glyph glyph-name="interrobang" unicode="&#x203d;" horiz-adv-x="1114" 
d="M475 199l-41 -199h-205l41 199h205zM652 1356q222 0 348 -74q124 -74 124 -221q0 -117 -57 -200t-142 -130t-172 -89t-157 -100t-86 -139l-16 -79h-179l111 641h197l-64 -260q43 29 125 75t125 72q43 27 80 76t37 106q0 147 -281 148q-213 0 -461 -99l37 183
q209 90 431 90z" />
    <glyph glyph-name="overline" unicode="&#x203e;" horiz-adv-x="1019" 
d="M1188 1362h-1024l37 174h1024z" />
    <glyph glyph-name="fraction" unicode="&#x2044;" horiz-adv-x="356" 
d="M-125 0h-203l967 1331h199z" />
    <glyph glyph-name="zerosuperior" unicode="&#x2070;" 
d="M594 1413q-122 1 -188 -107t-66 -214t45 -149q45 -44 117 -44q108 0 180 103t72 211q0 200 -160 200zM630 1544q120 0 197 -81q76 -81 76 -237q1 -156 -111 -306q-112 -152 -309 -152q-135 0 -214 80t-79 226t101 299q49 75 134 123t205 48z" />
    <glyph glyph-name="foursuperior" unicode="&#x2074;" 
d="M188 958v97q201 244 447 469h180q-172 -152 -257 -234t-187 -200h256l43 215h133l-43 -215h121l-29 -132h-121l-35 -172h-133l35 172h-410z" />
    <glyph glyph-name="fivesuperior" unicode="&#x2075;" 
d="M459 768q-127 0 -260 39l28 133q150 -41 250 -41t152 40q51 40 51 108q0 90 -148 90q-109 0 -262 -43l133 430h463l-26 -131h-340l-45 -144q53 15 149 15t162 -54q64 -54 63 -143q0 -133 -98 -216t-272 -83z" />
    <glyph glyph-name="sixsuperior" unicode="&#x2076;" 
d="M377 1024q-1 -126 139 -125q72 0 124 48t52 118q0 117 -127 117q-94 0 -141 -49t-47 -109zM622 1298q100 0 160 -59t60 -168t-89 -206t-261 -97q-119 0 -192 70t-73 176q0 182 155 338t472 192l-29 -133q-117 -8 -220 -53t-163 -111q80 51 180 51z" />
    <glyph glyph-name="sevensuperior" unicode="&#x2077;" 
d="M936 1524l-21 -90q-319 -356 -487 -648h-160q186 319 437 607h-394l29 131h596z" />
    <glyph glyph-name="eightsuperior" unicode="&#x2078;" 
d="M684 1011q0 99 -152 99q-75 0 -123 -33t-49 -88q0 -92 144 -92q88 0 134 33t46 81zM721 1334q1 88 -125 87q-62 1 -102 -29t-39 -73t31 -67t90 -24t102 32q43 32 43 74zM311 1322q0 94 85 158t208 64t194 -49q70 -49 70 -121q-1 -150 -147 -200q106 -49 106 -159
q0 -109 -90 -177t-231 -68t-218 52t-77 145q0 133 172 211q-72 51 -72 144z" />
    <glyph glyph-name="ninesuperior" unicode="&#x2079;" 
d="M733 1288q1 125 -139 125q-72 0 -124 -48t-52 -118q0 -117 127 -117q94 0 141 50t47 108zM488 1014q-100 0 -160 59t-60 168t89 206t261 97q119 0 192 -70t73 -176q0 -182 -155 -338t-472 -192l29 133q117 8 220 53t163 111q-80 -51 -180 -51z" />
    <glyph glyph-name="plussuperior" unicode="&#x207a;" horiz-adv-x="602" 
d="M389 887h-147v196h-197v146h197v196h147v-196h197v-146h-197v-196z" />
    <glyph glyph-name="minussuperior" unicode="&#x207b;" horiz-adv-x="604" 
d="M590 1083h-543v146h543v-146z" />
    <glyph glyph-name="equalsuperior" unicode="&#x207c;" horiz-adv-x="604" 
d="M594 973h-543v145h543v-145zM594 1198h-543v145h543v-145z" />
    <glyph glyph-name="parenleftsuperior" unicode="&#x207d;" horiz-adv-x="0" 
d="M59 970q0 162 62 315t205 337h163q-159 -203 -225 -344q-66 -142 -66 -296t89 -372h-150q-78 198 -78 360z" />
    <glyph glyph-name="parenrightsuperior" unicode="&#x207e;" horiz-adv-x="337" 
d="M156 1250q0 155 -88 372h149q78 -198 78 -360q1 -162 -61 -315t-205 -337h-164q160 203 225 344q66 141 66 296z" />
    <glyph glyph-name="nmod" unicode="&#x207f;" horiz-adv-x="1253" 
d="M840 1073q342 0 342 -272q0 -47 -17 -133l-137 -668h-184l133 645q16 70 16 109q0 154 -198 153q-109 0 -217.5 -41t-176.5 -92l-161 -774h-185l217 1051h125l21 -105q72 49 189.5 88t232.5 39z" />
    <glyph glyph-name="zeroinferior" unicode="&#x2080;" 
d="M393 422q-121 0 -187 -108t-67 -213q0 -105 45 -149t117 -44q109 0 181 103t71 211q0 200 -160 200zM430 553q120 0 197 -81q76 -81 75 -218q0 -174 -112 -326t-307 -151q-135 0 -214 80t-79 213q0 76 25 156q63 197 209 279q86 48 206 48z" />
    <glyph glyph-name="oneinferior" unicode="&#x2081;" 
d="M254 -205l121 586l-225 -51l28 125l369 94l-156 -754h-137z" />
    <glyph glyph-name="twoinferior" unicode="&#x2082;" 
d="M426 553q227 0 227 -182q0 -117 -104 -234t-289 -211h324l-29 -131h-559l24 111q350 212 443 334q41 54 41 98q0 84 -125 84q-94 0 -242 -49l29 133q145 47 260 47z" />
    <glyph glyph-name="threeinferior" unicode="&#x2083;" horiz-adv-x="759" 
d="M197 -223q-135 0 -254 37l28 133q125 -39 236 -39q223 0 223 129q0 53 -46 73t-151 21h-106l20 88l234 182h-313l26 131h539l-23 -102l-245 -192q100 -8 157 -60t58 -129q0 -123 -96 -197t-287 -75z" />
    <glyph glyph-name="fourinferior" unicode="&#x2084;" 
d="M-16 -33v96q201 244 446 469h180q-172 -152 -257 -234t-187 -200h256l43 215h133l-43 -215h121l-29 -131h-121l-34 -172h-134l35 172h-409z" />
    <glyph glyph-name="fiveinferior" unicode="&#x2085;" 
d="M410 272q96 0 160 -54t65 -142q0 -133 -98 -216t-273 -83q-127 0 -260 39l29 133q150 -41 250 -41t151 40t51 107q0 90 -147 90q-109 0 -262 -43l133 430h463l-27 -131h-340l-45 -143q54 14 150 14z" />
    <glyph glyph-name="sixinferior" unicode="&#x2086;" 
d="M182 33q0 -125 140 -125q72 0 123 48q52 48 53 118q0 116 -127 116q-93 0 -141 -49t-48 -108zM428 307q100 0 160 -59t59 -168q0 -109 -89 -206t-261 -97q-119 -1 -192 69t-72 177q1 181 155 337t471 193l-28 -133q-117 -8 -220 -53t-163 -111q80 51 180 51z" />
    <glyph glyph-name="seveninferior" unicode="&#x2087;" 
d="M741 532l-20 -90q-319 -356 -488 -647h-159q186 319 436 606h-393l28 131h596z" />
    <glyph glyph-name="eightinferior" unicode="&#x2088;" 
d="M339 119q-75 0 -123 -33t-48 -88q0 -92 143 -92q88 0 134 33q47 33 47 81t-39 74t-114 25zM528 346q0 84 -124 84q-62 0 -102 -30t-40 -72t31 -67q31 -23 91 -23t102 30t42 78zM412 553q124 0 194 -49q70 -50 70 -122q0 -149 -148 -200q106 -48 106 -158t-89 -178
t-231 -68t-219 53q-77 52 -77 144q0 133 172 211q-72 50 -72 144t86 158q85 64 208 65z" />
    <glyph glyph-name="nineinferior" unicode="&#x2089;" 
d="M520 296q0 126 -140 126q-72 0 -123 -48q-52 -48 -52 -118q0 -117 127 -117q94 0 141 49q47 48 47 108zM274 23q-100 0 -159 59t-59 168t88 206q89 97 262 97q120 0 192 -70t72 -176q0 -181 -155 -337t-472 -193l29 133q117 8 220 53t163 111q-81 -51 -181 -51z" />
    <glyph glyph-name="plusinferior" unicode="&#x208a;" horiz-adv-x="602" 
d="M389 -117h-147v197h-197v145h197v197h147v-197h197v-145h-197v-197z" />
    <glyph glyph-name="minusinferior" unicode="&#x208b;" horiz-adv-x="604" 
d="M590 80h-543v145h543v-145z" />
    <glyph glyph-name="parenleftinferior" unicode="&#x208d;" horiz-adv-x="337" 
d="M59 -32q0 162 62 314t205 336h163q-159 -203 -225 -344q-66 -142 -66 -296t89 -371h-150q-78 199 -78 361z" />
    <glyph glyph-name="parenrightinferior" unicode="&#x208e;" horiz-adv-x="337" 
d="M156 246q0 154 -88 372h149q78 -198 78 -360q1 -162 -61 -314t-205 -337h-164q160 203 225 344q66 141 66 295z" />
    <glyph glyph-name="franc" unicode="&#x20a3;" horiz-adv-x="1148" 
d="M535 1155l-74 -356h649l-37 -176h-649l-39 -193h379l-35 -176h-381l-53 -254h-193l54 254h-164l35 176h166l186 901h893l-37 -176h-700z" />
    <glyph glyph-name="lira" unicode="&#x20a4;" horiz-adv-x="1040" 
d="M806 1182q-108 0 -154 -39t-66 -135l-21 -101h336l-33 -157h-336l-20 -101h336l-33 -157h-336l-8 -41q-47 -223 -174 -275h711l-37 -176h-951l29 135q104 78 161 154t77 203h-187l33 157h186l21 101h-186l32 157h187l20 99q39 190 130 270t265 80t314 -49l-37 -172
q-151 47 -259 47z" />
    <glyph glyph-name="peseta" unicode="&#x20a7;" horiz-adv-x="2177" 
d="M1618 420q0 92 76 152t208 61q134 0 265 -37l-33 -145q-138 33 -240 33t-102 -46q0 -23 43 -35l133 -32q156 -37 156 -164q0 -231 -330 -232q-121 0 -248 41l35 150q129 -43 251 -43t122 61q0 39 -60 52l-116 22q-160 31 -160 162zM1378 127q47 0 117 16l-33 -151
q-84 -16 -133 -17q-219 0 -168 248l56 254h-125l28 146h125l45 145h144l-31 -145h194l-28 -146h-195l-59 -272q-10 -45 3 -61t60 -17zM586 588q195 0 299 103t104 255q0 213 -295 213h-229l-119 -571h240zM745 1331q165 0 296 -83q69 -42 111 -118t42 -176q0 -221 -158 -380
t-444 -158h-281l-88 -416h-192l276 1331h438z" />
    <glyph glyph-name="euro" unicode="&#x20ac;" horiz-adv-x="1441" 
d="M1036 1171q-180 -1 -307 -79t-194 -226h569l-53 -157h-566q-10 -57 -10 -109h537l-54 -158h-475q27 -147 123 -215t234 -67q219 0 446 90l-41 -193q-209 -82 -429 -82t-364 114t-171 353h-263l54 158h207q2 41 10 109h-178l53 157h164q82 238 273 364t431 126t451 -84
l-41 -189q-226 88 -406 88z" />
    <glyph glyph-name="rupeeIndian" unicode="&#x20b9;" horiz-adv-x="1142" 
d="M1001 981h185l-70 -158h-153q-55 -117 -181 -206t-313 -121l270 -496h-196l-279 506l92 137q285 0 402 180h-625l70 158h608v20q0 82 -58 127t-173 46h-373l69 157h984l-70 -157h-256q68 -74 67 -189v-4z" />
    <glyph glyph-name="liraTurkish" unicode="&#x20ba;" horiz-adv-x="1183" 
d="M319 0q-94 0 -155 4l92 445l-225 -111l35 184l229 113l33 153l-228 -110l37 184l230 111l73 358h193l-53 -252l389 189l-37 -187l-389 -188l-33 -154l387 189l-37 -187l-389 -188l-78 -377q227 10 386 150t208 381h197q-66 -324 -302 -516q-237 -191 -563 -191z" />
    <glyph glyph-name="uni20BC" unicode="&#x20bc;" horiz-adv-x="1339" 
d="M788 692q176 0 268 76q91 76 91 190t-65 155q-65 42 -195 42h-303l-97 -463h301zM926 1331q161 0 286 -71q66 -37 105 -108t39 -162q0 -183 -136 -323q-67 -69 -179 -110t-253 -41h-337l-31 -149h381l-37 -177h-381l-39 -190h-192l38 190h-163l36 177h164l31 149h-164
l37 176h164l133 639h498z" />
    <glyph glyph-name="Ruble" unicode="&#x20bd;" horiz-adv-x="1349" 
d="M788 692q176 0 268 76q91 76 91 190t-65 155q-65 42 -195 42h-303l-97 -463h301zM926 1331q161 0 286 -71q66 -37 105 -108t39 -162q0 -183 -136 -323q-67 -69 -179 -110t-253 -41h-337l-31 -149h381l-37 -177h-381l-39 -190h-192l38 190h-163l36 177h164l31 149h-164
l37 176h164l133 639h498z" />
    <glyph glyph-name="careof" unicode="&#x2105;" horiz-adv-x="1875" 
d="M1245 274q0 -142 161 -143q85 0 141 67q57 67 57 141t-41 109t-107 35q-102 0 -157 -70q-54 -71 -54 -139zM1481 637q123 0 207 -69t84 -187q0 -162 -106 -283t-298 -121q-123 0 -207 68t-84 186q0 158 107 282t297 124zM575 0h-202l966 1331h199zM590 1354
q117 0 233 -35l-30 -156q-127 37 -225 37t-152 -62q-56 -62 -56 -138q-1 -152 158 -152q78 0 225 41l-32 -158q-117 -37 -240 -37t-202 73t-79 211t106 258q106 118 294 118z" />
    <glyph glyph-name="literSign" unicode="&#x2113;" horiz-adv-x="878" 
d="M449 1075v-303q258 215 258 436q0 51 -32 88t-89 37q-137 0 -137 -258zM449 350q1 -100 39 -141t119 -41t153 22l2 -172q-84 -27 -164 -26q-332 0 -332 305v172l-110 -68l-70 125q111 63 180 111v438q0 211 86 321t230 110t227 -79q84 -78 84 -219q0 -291 -444 -616v-242
z" />
    <glyph glyph-name="numero" unicode="&#x2116;" horiz-adv-x="2611" 
d="M2431 174l-37 -174h-813l37 174h813zM2474 971q0 103 -66 163t-184 60t-216 -82q-99 -82 -128 -217q-8 -49 -8 -72q0 -98 61 -159q61 -62 193 -62t223 84q125 114 125 285zM1061 0l-578 1073l-223 -1073h-192l276 1331h211l537 -1007l208 1007h193l-276 -1331h-156z
M2254 1354q186 0 293 -90q108 -90 107 -256q0 -51 -12 -113q-45 -219 -205 -338t-345 -119t-294 89t-108 257q0 51 12 111q46 217 206 338t346 121z" />
    <glyph glyph-name="published" unicode="&#x2117;" horiz-adv-x="1744" 
d="M1001 707q106 0 163 53q56 53 57 135q0 119 -172 119h-168l-64 -307h184zM1071 1139q127 1 212 -57t85 -187t-97 -222t-304 -93h-176l-56 -271h-139l170 830h305zM1649 872q-1 244 -155 396t-384 151q-230 1 -422 -113q-194 -114 -310 -301t-116 -410t157 -375t404 -150
q322 0 574 244t252 558zM815 -23q-291 1 -468 173t-177 454q0 358 281 632t647 275q291 0 467 -172t176 -458q0 -233 -129 -443t-343 -335q-214 -126 -454 -126z" />
    <glyph glyph-name="trademark" unicode="&#x2122;" horiz-adv-x="1597" 
d="M1593 1331q1 -17 5 -75t4 -197t-25 -469h-139q31 399 26 516q-37 -63 -260 -447h-106q-14 81 -38 221t-38 220q-66 -160 -180 -510h-148q162 479 287 741h127q45 -190 80 -446q100 174 270 446h135zM813 1198h-258l-127 -608h-143l127 608h-265l27 133h666z" />
    <glyph glyph-name="Ohm" unicode="&#x2126;" horiz-adv-x="1634" 
d="M176 606q0 332 204 541t576 209q301 0 462 -142t161 -407q0 -193 -90 -363t-246 -268h264l-37 -176h-532l37 178q186 76 301 240t115 366t-119 301q-119 100 -334 101q-268 0 -420 -152t-151 -418q0 -297 276 -436l-37 -180h-538l36 176h275q-203 164 -203 430z" />
    <glyph glyph-name="estimated" unicode="&#x212e;" horiz-adv-x="1693" 
d="M845 1303q-259 0 -444 -185q-31 -29 -30 -80v-327q0 -25 26 -25h895q27 0 27 25v327q0 51 -31 80q-184 185 -443 185zM848 1354q346 0 549 -206t202 -505h-1202q-27 0 -26 -25v-327q0 -57 30 -86q184 -180 447 -180q141 0 265 59t204 156h135q-78 -109 -232 -186
t-372 -77q-340 -1 -548 191t-208 492t205 498q205 196 551 196z" />
    <glyph glyph-name="oneeighth" unicode="&#x215b;" horiz-adv-x="1884" 
d="M1585 224q0 100 -152 100q-75 0 -123 -33t-48 -88q0 -92 143 -92q88 1 134 33t46 80zM1356 532q0 -90 120 -90q60 0 103 31t43 74q0 88 -126 88q-62 0 -100 -30q-40 -30 -40 -73zM1505 758q123 0 194 -49t71 -122q-1 -149 -148 -200q106 -49 106 -159t-90 -178t-231 -66
q-141 0 -218 52t-77 144q0 133 172 211q-72 51 -72 144t85 158t208 65zM590 0h-203l965 1331h198zM430 582l121 585l-225 -51l28 125l369 94l-156 -753h-137z" />
    <glyph glyph-name="threeeighths" unicode="&#x215c;" horiz-adv-x="1908" 
d="M1610 224q0 100 -153 100q-75 0 -123 -33t-48 -88q0 -92 144 -92q88 1 134 33t46 80zM1380 532q0 -90 122 -90q60 0 102 31q43 31 43 74q1 88 -125 88q-62 0 -102 -30t-40 -73zM1530 758q124 0 194 -49t70 -122q0 -148 -147 -200q106 -49 106 -159t-90 -178
q-89 -68 -231 -66q-142 0 -219 52t-76 144q0 133 172 211q-72 51 -72 144t85 158t208 65zM418 0l964 1331h199l-960 -1331h-203zM774 848q0 -123 -95 -198t-288 -75q-135 0 -254 37l29 133q125 -39 235 -38q223 0 224 129q0 53 -46 73t-151 21h-106l20 88l233 182h-313
l27 131h538l-22 -102l-246 -193q99 -8 157 -59t58 -129z" />
    <glyph glyph-name="fiveeighths" unicode="&#x215d;" horiz-adv-x="1916" 
d="M1618 224q0 100 -152 100q-76 0 -124 -33t-48 -88q0 -92 144 -92q88 1 134 33t46 80zM1655 547q1 88 -125 88q-62 0 -102 -30t-40 -73q0 -42 32 -66q30 -24 90 -24t102 31q43 31 43 74zM1538 758q123 0 194 -49q70 -49 70 -122q-1 -148 -147 -200q106 -49 106 -159
t-90 -178t-231 -66q-141 0 -218 52t-77 144q0 133 172 211q-72 51 -72 144t85 158t208 65zM428 0l965 1331h198l-960 -1331h-203zM558 1071q96 0 160 -54t64 -143q0 -133 -98 -216t-272 -83q-127 0 -260 39l28 134q150 -41 250 -41t152 39q51 40 51 108q0 90 -148 90
q-109 0 -262 -43l133 430h463l-26 -131h-340l-45 -143q54 14 150 14z" />
    <glyph glyph-name="seveneighths" unicode="&#x215e;" horiz-adv-x="1828" 
d="M1530 224q0 100 -153 100q-75 0 -123 -33t-48 -88q0 -92 144 -92q88 1 134 33t46 80zM1300 532q0 -90 122 -90q60 0 102 31q43 31 43 74q1 88 -125 88q-62 0 -102 -30t-40 -73zM1450 758q123 0 194 -49q70 -49 70 -122q-1 -148 -147 -200q106 -49 106 -159t-90 -178
q-89 -68 -231 -66q-142 0 -218 52t-77 144q0 133 172 211q-72 51 -72 144t85 158t208 65zM336 0l964 1331h199l-960 -1331h-203zM915 1331l-20 -90q-319 -356 -487 -647h-160q186 319 436 606h-393l28 131h596z" />
    <glyph glyph-name="Sevenroman" unicode="&#x2166;" horiz-adv-x="2357" 
d="M1894 0l277 1331h192l-276 -1331h-193zM1364 0l276 1331h193l-277 -1331h-192zM1257 1331h218q-438 -838 -816 -1331h-192q-217 664 -303 1331h203q78 -561 235 -1116q315 457 655 1116z" />
    <glyph glyph-name="partialdiff" unicode="&#x2202;" horiz-adv-x="1353" 
d="M604 150q209 0 330 148t158 366q-166 156 -400 155q-184 0 -290 -117t-105 -288q1 -112 77 -188t230 -76zM586 -25q-217 0 -353 115q-135 115 -135 330t164 393t436 178q227 0 408 -135q-6 224 -127 324t-354 145l82 156q586 -131 585 -639q0 -352 -175 -601
q-85 -122 -222 -194t-309 -72z" />
    <glyph glyph-name="increment" unicode="&#x2206;" horiz-adv-x="1296" 
d="M219 176h817q-111 717 -211 973q-101 -123 -283 -419t-323 -554zM754 1331h209q41 -100 121 -441t141 -763l-27 -127h-1239l27 127q238 434 460 771q224 337 308 433z" />
    <glyph glyph-name="product" unicode="&#x220f;" horiz-adv-x="1452" 
d="M1319 -410h-193v1649h-739v-1649h-192v1825h1124v-1825z" />
    <glyph glyph-name="summation" unicode="&#x2211;" horiz-adv-x="1230" 
d="M1231 -233v-177h-1067v131l643 783l-643 780v131h1067v-176h-815l563 -690v-90l-563 -692h815z" />
    <glyph glyph-name="minus" unicode="&#x2212;" horiz-adv-x="1091" 
d="M1018 580h-881v174h881v-174z" />
    <glyph glyph-name="divisionslash" unicode="&#x2215;" horiz-adv-x="1085" 
d="M229 0h-209l912 1331h213z" />
    <glyph glyph-name="bulletoperator" unicode="&#x2219;" horiz-adv-x="573" 
d="M467 449h-369l74 358h369z" />
    <glyph glyph-name="radical" unicode="&#x221a;" horiz-adv-x="1085" 
d="M709 -408h-170l-328 674l-90 -43l-60 125l236 107l299 -637l354 1718h166z" />
    <glyph glyph-name="infinity" unicode="&#x221e;" horiz-adv-x="1355" 
d="M1026 764q-88 0 -213 -150l27 -27q18 -19 24 -25l22 -22q16 -15 27 -28q12 -13 37 -25t34 -13q8 -1 20 -3t24 -2q117 -1 117 147t-119 148zM383 764q-119 0 -119 -152q0 -63 30 -103t84 -40t93 29t125 116q-125 150 -213 150zM1030 928q135 0 208 -86t73 -222t-75 -225
q-76 -88 -188 -88t-177 42t-166 153q-100 -109 -166 -152q-65 -43 -177 -43t-188 88t-76 223q0 134 77 222t204 88q68 0 129 -33t98 -69t99 -107q61 71 98 107t98 69t129 33z" />
    <glyph glyph-name="integral" unicode="&#x222b;" horiz-adv-x="698" 
d="M569 1536q68 0 129 -14v-168q-61 10 -127 10q-133 0 -133 -166v-1286q0 -346 -309 -346q-68 0 -129 14v168q61 -10 127 -10q133 0 133 166v1286q0 346 309 346z" />
    <glyph glyph-name="approxequal" unicode="&#x2248;" horiz-adv-x="1058" 
d="M1008 571q0 -104 -73 -171t-179 -66q-63 0 -176 38q-114 38 -170 38t-91 -20t-36 -56h-158q0 104 73 171t179 66q61 1 176 -37t170 -38t90 19t37 56h158zM1008 899q0 -104 -73 -171t-179 -66q-63 0 -176 38q-114 38 -170 37q-125 0 -127 -75h-158q0 104 73 171t179 66
q61 0 176 -38t170 -38q55 -1 90 19t37 57h158z" />
    <glyph glyph-name="notequal" unicode="&#x2260;" horiz-adv-x="1099" 
d="M1024 463v-174h-473l-100 -207h-201l98 207h-205v174h291l103 219h-394v174h473l97 205h205l-97 -205h203v-174h-291l-104 -219h395z" />
    <glyph glyph-name="lessequal" unicode="&#x2264;" horiz-adv-x="1267" 
d="M1159 174v-174h-1042v174h1042zM1159 997l-852 -290l852 -285v-176l-1042 368v189l1042 371v-177z" />
    <glyph glyph-name="greaterequal" unicode="&#x2265;" horiz-adv-x="1206" 
d="M1153 0h-1042v174h1042v-174zM1153 803v-189l-1042 -368v176l852 285l-852 290v177z" />
    <glyph glyph-name="lozenge" unicode="&#x25ca;" horiz-adv-x="1148" 
d="M291 668l209 -490l409 490l-209 487zM1145 668l-602 -693h-170l-316 693l602 688h170z" />
    <glyph glyph-name="uni5143" unicode="&#x5143;" horiz-adv-x="1701" 
d="M1169 -25q-170 0 -227 74t-16 275l86 415h-242l-20 -104q-42 -211 -176 -347t-457 -313l-86 162q311 174 404 258t126 258l17 86h-418l37 176h1470l-37 -176h-426l-92 -446q-14 -76 4 -106q18 -29 86 -29t119 48t119 161l145 -95q-125 -210 -273 -270q-67 -27 -143 -27z
M1645 1155h-1330l37 176h1329z" />
    <glyph glyph-name="Kanji" unicode="&#x5186;" horiz-adv-x="1656" 
d="M1057 1155l-90 -434h376l91 434h-377zM500 1155l-90 -434h376l91 434h-377zM1094 152q74 0 108 26q35 26 53 115l54 252h-934l-117 -545h-190l276 1331h1319l-215 -1044q-41 -200 -153 -259q-156 -86 -384 -32l35 172q74 -16 148 -16z" />
    <glyph glyph-name="apple" unicode="&#xf8ff;" horiz-adv-x="1046" 
d="M868 174v1188h-690v-1188h690zM1047 1536v-1536h-1047v1536h1047z" />
    <glyph glyph-name="fi" unicode="&#xfb01;" horiz-adv-x="1183" 
d="M750 0l219 1051h182l-217 -1051h-184zM997 1231l39 184h201l-39 -184h-201zM737 1456q90 0 176 -29l-34 -157q-74 24 -159 24t-127 -32t-61 -121l-18 -90h330l-31 -156h-330l-202 -981q-39 -186 -124 -267t-239 -81q-78 0 -160 22l35 154q98 -16 133 -16q82 0 118 53
t58 160l197 956h-190l30 156h193l22 102q37 175 131 239t252 64z" />
    <glyph glyph-name="fl" unicode="&#xfb02;" horiz-adv-x="1181" 
d="M750 0l292 1415h185l-293 -1415h-184zM737 1456q90 0 176 -29l-34 -157q-74 24 -159 24t-127 -32t-61 -121l-18 -90h330l-31 -156h-330l-202 -981q-39 -186 -124 -267t-239 -81q-78 0 -160 22l35 154q98 -16 133 -16q82 0 118 53t58 160l197 956h-190l30 156h193l22 102
q37 175 131 239t252 64z" />
    <glyph glyph-name="uniFEFF" unicode="&#xfeff;" horiz-adv-x="1228" 
 />
    <glyph glyph-name="NULL" horiz-adv-x="1228" 
 />
    <glyph glyph-name="zero.dnom" 
d="M434 627q-122 0 -188 -108t-66 -213t45 -149t117 -44q108 0 180 103q72 102 72 210q0 200 -160 201zM472 758q120 0 196 -81t75 -218q1 -174 -111 -326t-308 -151q-135 0 -214 80t-79 212q0 76 25 157q64 197 210 279q86 48 206 48z" />
    <glyph glyph-name="one.dnom" 
d="M315 0l121 586l-225 -51l29 124l368 95l-155 -754h-138z" />
    <glyph glyph-name="two.dnom" 
d="M469 758q227 0 227 -183q0 -117 -104 -233t-289 -211h324l-29 -131h-559l24 111q349 211 443 333q41 53 41 99q0 84 -125 84q-94 0 -242 -49l29 133q145 47 260 47z" />
    <glyph glyph-name="three.dnom" 
d="M303 113q223 0 223 129q0 53 -46 73t-150 21h-107l21 88l233 182h-313l26 131h539l-22 -102l-246 -193q100 -8 157 -59t58 -129q0 -123 -95 -198t-288 -74q-133 0 -254 36l29 134q125 -39 235 -39z" />
    <glyph glyph-name="four.dnom" 
d="M25 172v96q201 244 446 469h180q-172 -151 -257 -233t-187 -201h256l43 215h133l-43 -215h121l-29 -131h-121l-35 -172h-133l35 172h-409z" />
    <glyph glyph-name="five.dnom" 
d="M440 477q96 0 162 -54q64 -54 64 -142q0 -133 -98 -216t-273 -83q-127 0 -260 38l28 134q150 -41 250 -41t152 40q51 40 51 107q0 90 -147 90q-109 0 -263 -43l134 430h462l-26 -131h-340l-45 -143q53 14 149 14z" />
    <glyph glyph-name="six.dnom" 
d="M209 238q-1 -126 139 -126q72 0 124 49q52 48 52 118q0 116 -127 116q-94 0 -141 -49q-47 -48 -47 -108zM454 512q100 0 160 -59t60 -168t-89 -206t-261 -97q-119 0 -192 70t-73 175q0 182 155 338t472 193l-29 -133q-117 -7 -220 -53t-163 -111q80 51 180 51z" />
    <glyph glyph-name="seven.dnom" 
d="M772 737l-20 -90q-319 -356 -488 -647h-160q186 319 437 606h-394l29 131h596z" />
    <glyph glyph-name="eight.dnom" 
d="M520 224q0 100 -152 100q-75 0 -123 -33t-48 -88q0 -92 143 -92q88 1 134 33t46 80zM557 547q1 88 -125 88q-62 0 -102 -30t-39 -73q-1 -90 121 -90q60 0 102 31t43 74zM441 758q123 0 193 -49t71 -122q0 -149 -148 -200q107 -49 107 -159t-90 -178t-232 -66
q-141 0 -218 52t-77 144q0 133 172 211q-72 51 -72 144t85 158q86 65 209 65z" />
    <glyph glyph-name="nine.dnom" 
d="M569 502q0 126 -139 125q-72 0 -124 -48t-52 -118q0 -117 127 -117q94 0 141 49t47 109zM719 512q0 -182 -155 -338t-472 -192l29 133q117 8 220 53t163 111q-80 -51 -180 -51t-160 58q-60 60 -60 168t90 206q90 97 261 98q119 0 191 -70t73 -176z" />
    <glyph glyph-name="zero.numr" 
d="M557 1221q-121 0 -187 -108t-67 -213q0 -105 45 -149t117 -44q109 0 181 103q72 102 71 210q0 200 -160 201zM594 1352q120 0 197 -81q76 -81 75 -218q0 -174 -112 -326t-308 -152q-135 0 -214 80t-78 213q0 76 25 157q63 197 209 279q86 48 206 48z" />
    <glyph glyph-name="one.numr" 
d="M389 594l121 586l-225 -52l28 125l369 95l-156 -754h-137z" />
    <glyph glyph-name="two.numr" 
d="M582 1352q227 0 227 -183q0 -117 -104 -233t-289 -211h323l-28 -131h-559l24 111q351 213 442 333q41 53 41 99q0 84 -124 84q-94 0 -242 -50l29 134q145 47 260 47z" />
    <glyph glyph-name="three.numr" 
d="M774 848q0 -123 -95 -198t-288 -75q-135 0 -254 37l29 133q125 -39 235 -38q223 0 224 129q0 53 -46 73t-151 21h-106l20 88l233 182h-313l27 131h538l-22 -102l-246 -193q99 -8 157 -59t58 -129z" />
    <glyph glyph-name="four.numr" 
d="M137 766v96q201 244 447 469h180q-172 -151 -257 -233t-188 -201h256l43 215h134l-43 -215h120l-28 -131h-121l-35 -172h-133l35 172h-410z" />
    <glyph glyph-name="five.numr" 
d="M558 1071q96 0 160 -54t64 -143q0 -133 -98 -216t-272 -83q-127 0 -260 39l28 134q150 -41 250 -41t152 39q51 40 51 108q0 90 -148 90q-109 0 -262 -43l133 430h463l-26 -131h-340l-45 -143q54 14 150 14z" />
    <glyph glyph-name="six.numr" 
d="M305 832q-1 -126 139 -126q72 0 124 49q52 48 53 117q0 117 -127 117q-94 0 -142 -49q-48 -48 -47 -108zM551 1106q99 0 159 -59t60 -168t-89 -206t-261 -98q-119 0 -192 70t-72 176q0 182 154 338q155 156 472 193l-28 -133q-117 -7 -220 -53t-163 -111q80 51 180 51z
" />
    <glyph glyph-name="seven.numr" 
d="M874 1331l-20 -90q-319 -356 -487 -647h-160q186 319 436 606h-393l29 131h595z" />
    <glyph glyph-name="eight.numr" 
d="M639 818q0 100 -152 100q-75 0 -123 -33t-49 -88q0 -92 144 -92q88 1 134 33t46 80zM410 1126q0 -90 120 -90q60 0 103 31t43 74q0 88 -126 88q-62 0 -100 -30q-40 -30 -40 -73zM559 1352q123 0 194 -49t71 -122q-1 -148 -148 -200q106 -49 106 -159t-90 -178t-231 -66
q-141 0 -218 52t-77 144q0 133 172 211q-72 51 -72 144t85 158t208 65z" />
    <glyph glyph-name="nine.numr" 
d="M672 1096q0 126 -140 125q-72 -1 -123 -49q-52 -48 -53 -117q0 -117 127 -117q94 0 142 49q47 49 47 109zM426 821q-100 -1 -160 59t-59 168q0 108 89 206q89 97 261 98q119 0 192 -70t72 -176q-1 -182 -155 -338t-471 -193l28 134q117 8 220 53t163 110
q-80 -51 -180 -51z" />
    <glyph glyph-name="equalinferior" horiz-adv-x="604" 
d="M594 -31h-543v146h543v-146zM594 195h-543v145h543v-145z" />
    <glyph glyph-name="ampersand.001" horiz-adv-x="1431" 
d="M252 266q0 -127 175 -127t388 150q-145 158 -254 315q-169 -88 -239 -167t-70 -171zM764 1192q-80 0 -132 -51t-52 -129t67 -197q125 51 205 121t80 133q0 123 -168 123zM406 -33q-168 0 -256 75t-88 213t92 257t323 229q-86 160 -86 281t99 225t305 105q153 0 239 -78
t86 -192t-97 -206q-97 -91 -294 -188q92 -125 234 -285q131 117 229 240l182 -4q-137 -192 -307 -346q145 -152 307 -293h-262q-80 68 -188 174q-281 -207 -518 -207z" />
    <glyph glyph-name="acute.case" horiz-adv-x="491" 
d="M168 1454h-174l213 297h229z" />
    <glyph glyph-name="breve.case" horiz-adv-x="704" 
d="M307 1450q-135 0 -201 64t-55 180h158q-9 -109 109 -109t157 109h158q-76 -244 -326 -244z" />
    <glyph glyph-name="caron.alt" horiz-adv-x="405" 
d="M156 1075h-156l160 340h196z" />
    <glyph glyph-name="caron.case" horiz-adv-x="761" 
d="M432 1454h-225l-146 297h156l117 -176l190 176h176z" />
    <glyph glyph-name="circumflex.case" horiz-adv-x="761" 
d="M639 1454h-156l-116 176l-191 -176h-176l268 297h226z" />
    <glyph glyph-name="dieresis.case" horiz-adv-x="733" 
d="M610 1448h-204l40 201h205zM205 1448h-205l41 201h205z" />
    <glyph glyph-name="dotaccent.case" horiz-adv-x="327" 
d="M205 1448h-205l41 201h205z" />
    <glyph glyph-name="grave.case" horiz-adv-x="491" 
d="M168 1751l213 -297h-174l-268 297h229z" />
    <glyph glyph-name="hungarumlaut.case" horiz-adv-x="835" 
d="M506 1454h-168l213 297h227zM164 1454h-168l213 297h227z" />
    <glyph glyph-name="macron.case" horiz-adv-x="684" 
d="M561 1466h-561l33 158h561z" />
    <glyph glyph-name="ring.case" horiz-adv-x="536" 
d="M260 1714q-59 0 -92 -27.5t-33 -66.5q0 -70 94 -70q57 0 90 27t33 70q0 67 -92 67zM236 1456q-202 0 -203 165q0 79 63.5 133t161.5 54t147.5 -42t49.5 -115.5t-58.5 -134t-160.5 -60.5z" />
    <glyph glyph-name="tilde.case" horiz-adv-x="741" 
d="M428 1509q-39 0 -116 28q-76 28 -108 28q-32 -1 -49 -15t-32 -47h-123q72 199 233 199q45 0 116 -28t106 -27q61 0 84 61h123q-72 -199 -234 -199z" />
    <glyph glyph-name="brevecy" horiz-adv-x="0" 
d="M293 1214q-260 0 -227 246h155q-6 -113 98 -112q129 0 191 112h137q-100 -246 -354 -246z" />
    <glyph glyph-name="brevecy.case" horiz-adv-x="0" 
d="M293 1427q-260 0 -227 246h155q-6 -113 98 -112q129 0 191 112h137q-100 -246 -354 -246z" />
    <glyph glyph-name="gheupturncy.001" horiz-adv-x="956" 
d="M-82 -434q-47 0 -135 16l-25 6l35 154q84 -16 133 -16q82 0 118 53t58 160l230 1112h512l59 280h172l-92 -438h-500l-202 -979q-39 -186 -124 -267t-239 -81z" />
    <glyph glyph-name="tonos.cap" horiz-adv-x="428" 
d="M-4 1024l154 307h221l-244 -307h-131z" />
    </font>
</defs>
</svg>
