<?xml version="1.0" standalone="no"?>
<!DOCTYPE svg PUBLIC "-//W3C//DTD SVG 1.1//EN" "http://www.w3.org/Graphics/SVG/1.1/DTD/svg11.dtd" >
<svg xmlns="http://www.w3.org/2000/svg">
<metadata>
Created by FontPrep 20130207 at Mon Mar 28 10:29:38 2016
 By Mauricio Duran
Copyright 2015 Nissan Motors Co., Ltd. All rights reserved.
</metadata>
<defs>
<font id="fdad19333294cca71cd5d041a8f5e717" horiz-adv-x='1024' >
  <font-face 
    font-family="NissanBrand-Bold"
    font-weight="700"
    font-stretch="normal"
    units-per-em="2048"
    panose-1="2 11 8 4 2 2 4 3 2 4"
    ascent="1528"
    descent="-520"
    x-height="1051"
    cap-height="1331"
    bbox="-477 -614 2611.01 2167"
    underline-thickness="102"
    underline-position="-153"
    unicode-range="U+000D-FEFF"
  />
<missing-glyph horiz-adv-x="1110" 
d="M807 297v942h-504v-942h504zM1110 1536v-1536h-1110v1536h1110z" />
    <glyph glyph-name="f_i.liga" unicode="fi" horiz-adv-x="1374" 
d="M1241 0h-309v1051h309v-1051zM1260 1200h-347v264h347v-264zM602 1481q127 0 223 -35v-250q-75 31 -165 31t-122 -28t-32 -101v-47h325v-246h-325v-805h-309v805h-217v246h217v65q0 186 113 276q114 89 292 89z" />
    <glyph glyph-name="f_l.liga" unicode="fl" horiz-adv-x="1374" 
d="M1241 0h-309v1415h309v-1415zM602 1481q127 0 223 -35v-250q-75 31 -165 31t-122 -28t-32 -101v-47h325v-246h-325v-805h-309v805h-217v246h217v65q0 186 113 276q114 89 292 89z" />
    <glyph glyph-name="f_f.liga" unicode="ff" horiz-adv-x="1556" 
d="M1589 1051v-246h-325v-805h-310v805h-448v-805h-309v805h-217v246h217v65q0 186 113 276q114 89 292 89q127 0 223 -35v-250q-75 31 -165 31t-122 -28t-32 -101v-47h448v65q0 186 114 276t292 89q127 0 223 -35v-250q-76 31 -166 31t-122 -28t-31 -101v-47h325z" />
    <glyph glyph-name="f_f_i.liga" unicode="ffi" horiz-adv-x="2131" 
d="M1690 1051h309v-1051h-309v1051zM2017 1464v-264h-346v264h346zM1264 1051h325v-246h-325v-805h-310v805h-448v-805h-309v805h-217v246h217v65q0 186 113 276q114 89 292 89q127 0 223 -35v-250q-75 31 -165 31t-122 -28t-32 -101v-47h448v65q0 186 114 276t292 89
q127 0 223 -35v-250q-76 31 -166 31t-122 -28t-31 -101v-47z" />
    <glyph glyph-name="f_f_l.liga" unicode="ffl" horiz-adv-x="2131" 
d="M1999 1415v-1415h-309v1415h309zM1264 1051h325v-246h-325v-805h-310v805h-448v-805h-309v805h-217v246h217v65q0 186 113 276q114 89 292 89q127 0 223 -35v-250q-75 31 -165 31t-122 -28t-32 -101v-47h448v65q0 186 114 276t292 89q127 0 223 -35v-250q-76 31 -166 31
t-122 -28t-31 -101v-47z" />
    <glyph glyph-name=".notdef" horiz-adv-x="1110" 
d="M807 297v942h-504v-942h504zM1110 1536v-1536h-1110v1536h1110z" />
    <glyph glyph-name=".null" horiz-adv-x="0" 
 />
    <glyph glyph-name="nonmarkingreturn" horiz-adv-x="681" 
 />
    <glyph glyph-name="CR" unicode="&#xd;" horiz-adv-x="493" 
 />
    <glyph glyph-name="space" unicode=" " horiz-adv-x="493" 
 />
    <glyph glyph-name="exclam" unicode="!" horiz-adv-x="530" 
d="M432 317v-317h-332v317h332zM92 1331h346l-24 -852h-297z" />
    <glyph glyph-name="quotedbl" unicode="&#x22;" horiz-adv-x="1058" 
d="M840 979h-207l-45 502h297zM428 979h-207l-47 502h299z" />
    <glyph glyph-name="numbersign" unicode="#" horiz-adv-x="1228" 
d="M561 874l-51 -284h215l51 284h-215zM1227 1079v-205h-221l-52 -284h187v-205h-223l-70 -385h-227l67 385h-215l-67 -385h-230l70 385h-187v205h224l49 284h-187v205h224l71 402h230l-72 -402h215l70 402h229l-72 -402h187z" />
    <glyph glyph-name="dollar" unicode="$" horiz-adv-x="1316" 
d="M903 368q0 90 -170 136v-244q170 18 170 108zM578 840v233q-174 -16 -175 -112q0 -74 138 -111zM1231 397q0 -184 -126 -292t-372 -125v-185h-155v182q-221 6 -480 74v289q299 -78 480 -86v289l-193 49q-147 39 -227 134t-80 230q0 362 500 394v186h155v-186
q170 -6 406 -66v-278q-262 61 -406 67v-274l158 -41q340 -89 340 -361z" />
    <glyph glyph-name="percent" unicode="%" horiz-adv-x="1771" 
d="M1409 580q-121 0 -121 -217t117 -218q125 0 125 232q0 203 -121 203zM1408 754q171 0 257 -110t86 -285t-87 -280t-257 -105t-256 104t-86 280t86 286t257 110zM367 1186q-125 0 -125 -232q0 -203 120 -202q122 0 122 217t-117 217zM668 0h-250l690 1331h246zM20 972
q0 174 88 280t257 106q170 0 256 -104t86 -281q0 -176 -86 -286q-85 -109 -257 -109t-258 110t-86 284z" />
    <glyph glyph-name="ampersand" unicode="&#x26;" horiz-adv-x="1492" 
d="M354 348q0 -52 41 -87q41 -36 105 -36t124 24q62 24 101 60q-183 173 -236 230q-61 -35 -98 -87t-37 -104zM726 1360q216 0 349 -51v-283q-156 70 -301 70q-197 0 -196 -131q0 -70 76 -164t292 -305q88 92 170 225h336q-119 -201 -285 -399q240 -225 357 -322h-424
q-78 57 -150 119q-211 -156 -437 -156q-226 -1 -339 101t-113 253q0 260 304 435q-95 116 -95 264t120 246t336 98z" />
    <glyph glyph-name="quotesingle" unicode="'" horiz-adv-x="647" 
d="M428 979h-207l-47 502h299z" />
    <glyph glyph-name="parenleft" unicode="(" horiz-adv-x="661" 
d="M92 574q0 234 56 439q57 204 182 437h321q-129 -248 -190 -450t-61 -426t60 -426q62 -202 191 -449h-321q-125 233 -182 437q-56 204 -56 438z" />
    <glyph glyph-name="parenright" unicode=")" horiz-adv-x="661" 
d="M569 574q0 -234 -56 -438t-181 -437h-322q128 247 190 449t62 426t-61 426q-62 202 -191 450h322q125 -233 181 -437q56 -205 56 -439z" />
    <glyph glyph-name="asterisk" unicode="*" horiz-adv-x="747" 
d="M596 1247l-145 -176l225 37v-162l-223 35l147 -182l-147 -78l-80 213l-82 -215l-139 80l145 182l-225 -35v162l227 -37l-147 178l141 82l82 -215l80 215z" />
    <glyph glyph-name="plus" unicode="+" horiz-adv-x="1120" 
d="M709 438v-340h-297v340h-340v297h340v340h297v-340h340v-297h-340z" />
    <glyph glyph-name="comma" unicode="," horiz-adv-x="477" 
d="M260 -268h-270l114 585h332z" />
    <glyph glyph-name="hyphen" unicode="-" horiz-adv-x="942" 
d="M870 457h-798v297h798v-297z" />
    <glyph glyph-name="period" unicode="." horiz-adv-x="516" 
d="M424 0h-332v317h332v-317z" />
    <glyph glyph-name="slash" unicode="/" horiz-adv-x="1081" 
d="M358 -164h-317l674 1565h325z" />
    <glyph glyph-name="zero" unicode="0" horiz-adv-x="1413" 
d="M698 1094q-133 0 -210 -113q-76 -113 -76 -325t80 -313t208 -101t215 102q86 102 86 311t-85 324t-218 115zM1323 668q0 -324 -165 -508t-459 -184q-293 0 -451 182t-158 508t154 508t457 182q304 0 463 -182t159 -506z" />
    <glyph glyph-name="one" unicode="1" horiz-adv-x="921" 
d="M727 0h-307v1024l-365 -53v250l672 135v-1356z" />
    <glyph glyph-name="two" unicode="2" horiz-adv-x="1249" 
d="M666 1352q207 0 351 -113t144 -338q-1 -178 -151 -329t-437 -306h566v-266h-1035v274q369 204 552 352t184 265q0 195 -277 194q-182 0 -405 -61v260q223 68 508 68z" />
    <glyph glyph-name="three" unicode="3" horiz-adv-x="1288" 
d="M584 -25q-201 0 -457 64v268q478 -121 656 -14q85 51 85 155t-99 145q-99 40 -335 42h-18v123l334 307h-613v266h1026v-215l-315 -305q131 -25 236 -128t106 -245q0 -463 -606 -463z" />
    <glyph glyph-name="four" unicode="4" horiz-adv-x="1376" 
d="M819 500v291h309v-291h197v-267h-197v-233h-309v233h-739v248q233 369 706 850h385q-526 -514 -737 -831h385z" />
    <glyph glyph-name="five" unicode="5" horiz-adv-x="1241" 
d="M1057 1065h-615l-14 -234q115 20 203 21q244 0 382 -116t138 -314t-153 -322q-153 -123 -439 -123q-221 0 -461 64v270q274 -68 430 -67q301 0 301 192q0 160 -272 160q-209 0 -436 -47l59 782h877v-266z" />
    <glyph glyph-name="six" unicode="6" horiz-adv-x="1331" 
d="M674 705q-123 1 -192 -61q-68 -62 -68 -174t64 -172t191 -60q126 0 189 68q64 68 64 166q0 97 -62 165t-186 68zM725 956q244 0 381 -135t137 -355q1 -220 -151 -355t-415 -135t-424 142q-161 144 -161 439q0 341 230 565q118 114 324 176t482 54v-283q-124 6 -234 7
t-226 -44t-201 -139q84 63 258 63z" />
    <glyph glyph-name="seven" unicode="7" horiz-adv-x="1181" 
d="M1128 1331v-211q-188 -272 -365 -593t-255 -527h-344q137 317 323 640t271 425h-684v266h1054z" />
    <glyph glyph-name="eight" unicode="8" horiz-adv-x="1331" 
d="M666 580q-122 0 -178 -52t-56 -126t66 -122t167 -48t167 48t65 122q0 74 -54 126t-177 52zM864 957q0 63 -52 109t-147 46t-147 -46t-53 -108q0 -62 53 -112q54 -49 146 -49t146 49t54 111zM665 -25q-554 0 -554 424q0 99 63 183t154 110q-184 106 -184 286t143 278
q145 98 379 99t376 -97t144 -279q0 -182 -185 -287q90 -27 154 -109q63 -83 64 -184q0 -424 -554 -424z" />
    <glyph glyph-name="nine" unicode="9" horiz-adv-x="1331" 
d="M659 1094q-125 0 -189 -69t-64 -166t62 -165t185 -68t192 62q69 61 69 173q0 113 -65 173q-64 60 -190 60zM84 865q0 219 152 355t414 136q263 0 424 -144t161 -428q0 -285 -145 -482q-256 -344 -891 -327v283q123 -6 233 -6t226 46t202 140q-84 -63 -258 -63
q-244 0 -381 135t-137 355z" />
    <glyph glyph-name="colon" unicode=":" horiz-adv-x="516" 
d="M424 0h-332v317h332v-317zM424 666h-332v317h332v-317z" />
    <glyph glyph-name="semicolon" unicode=";" horiz-adv-x="585" 
d="M313 -268h-270l115 585h331zM494 666h-332v317h332v-317z" />
    <glyph glyph-name="less" unicode="&#x3c;" horiz-adv-x="1216" 
d="M1145 922l-801 -277l801 -274v-287l-1073 401v322l1073 401v-286z" />
    <glyph glyph-name="equal" unicode="=" horiz-adv-x="1146" 
d="M1075 528v-297h-1003v297h1003zM1075 1040v-297h-1003v297h1003z" />
    <glyph glyph-name="greater" unicode="&#x3e;" horiz-adv-x="1216" 
d="M1145 807v-322l-1073 -401v287l800 274l-800 277v286z" />
    <glyph glyph-name="question" unicode="?" horiz-adv-x="1095" 
d="M610 0h-331v317h331v-317zM494 1352q272 0 422 -92t149 -267q0 -113 -57 -195t-128 -121q-71 -38 -154 -80q-82 -43 -106 -67t-26 -59h-311q-9 39 -9 95t45 110q45 55 111 87q66 33 130 59q154 63 155 141q1 61 -55 85t-206 24t-431 -68v284q268 64 471 64z" />
    <glyph glyph-name="at" unicode="@" horiz-adv-x="1959" 
d="M976 760q-100 0 -156 -53t-56 -151t60 -156t162 -58t157 43v334q-68 41 -167 41zM1004 1434q520 0 752 -355q122 -184 122 -444t-117 -417t-291 -157q-80 0 -148 44t-93 94q-139 -90 -271 -88q-186 1 -316 119t-130 318t122 324t285 125q163 0 269 -77l22 65h185v-612
q-1 -70 65 -70t114 93q48 92 48 236t-48 254q-89 204 -329 272q-109 32 -239 32q-300 0 -482 -171t-182 -460t199 -478t526 -190q121 0 240 17v-232q-143 -20 -232 -20q-446 0 -720 252q-273 252 -273 650t255 637t667 239z" />
    <glyph glyph-name="A" unicode="A" horiz-adv-x="1398" 
d="M461 510h450q-113 322 -227 586q-110 -254 -223 -586zM373 242q-65 -211 -74 -242h-330q229 748 504 1331h442q297 -627 515 -1331h-351l-78 242h-628z" />
    <glyph glyph-name="B" unicode="B" horiz-adv-x="1437" 
d="M461 563v-307h305q127 0 187 34q61 34 61 121t-69 119t-202 33h-282zM461 1075v-284h241q117 1 184 31q66 30 66 115t-65 112q-66 27 -176 26h-250zM143 1331h547q596 0 596 -340q0 -94 -59 -176t-176 -123v-6q119 -18 207 -97t88 -200q0 -389 -578 -389h-625v1331z" />
    <glyph glyph-name="C" unicode="C" horiz-adv-x="1345" 
d="M891.5 1356q183.5 0 370.5 -58v-282q-188 61 -396 61t-330 -106.5t-122 -307t131 -306t315.5 -103.5t403.5 65v-299q-213 -45 -406 -45q-344 0 -560 171t-216 520q0 172 65.5 308t176 217t247.5 123t320.5 42z" />
    <glyph glyph-name="D" unicode="D" horiz-adv-x="1488" 
d="M461 1063v-795h190q414 0 414 404q0 188 -106.5 289.5t-294.5 101.5h-203zM143 1331h531q300 0 498 -132q106 -71 165.5 -203t59.5 -316q-1 -184 -61 -320t-166 -212q-205 -149 -515 -148h-512v1331z" />
    <glyph glyph-name="E" unicode="E" horiz-adv-x="1284" 
d="M1178 1063h-717v-254h649v-258h-649v-283h731v-268h-1049v1331h1035v-268z" />
    <glyph glyph-name="F" unicode="F" horiz-adv-x="1259" 
d="M1178 1063h-717v-330h649v-268h-649v-465h-318v1331h1035v-268z" />
    <glyph glyph-name="G" unicode="G" horiz-adv-x="1447" 
d="M893.5 1356q189.5 0 368.5 -58v-282q-211 61 -373 61q-229 0 -352 -106.5t-123 -311t122.5 -304t303.5 -99.5q96 0 180 27v422h305v-658q-270 -68 -516 -67q-299 0 -503 160q-104 81 -164 217.5t-60 312.5t64.5 311t175 215t246.5 120t325.5 40z" />
    <glyph glyph-name="H" unicode="H" horiz-adv-x="1509" 
d="M1366 0h-317v516h-588v-516h-318v1331h318v-547h588v547h317v-1331z" />
    <glyph glyph-name="I" unicode="I" horiz-adv-x="604" 
d="M461 0h-318v1331h318v-1331z" />
    <glyph glyph-name="J" unicode="J" horiz-adv-x="1015" 
d="M883 1331v-891q0 -219 -130 -339.5t-376 -120.5q-182 0 -367 45v278q164 -47 312 -47t195.5 58.5t47.5 187.5v829h318z" />
    <glyph glyph-name="K" unicode="K" horiz-adv-x="1423" 
d="M971 1331h426q-383 -438 -537 -667q172 -163 360 -397q68 -85 137.5 -173t76.5 -94h-420q-233 317 -525 641q163 291 482 690zM461 0h-318v1331h318v-1331z" />
    <glyph glyph-name="L" unicode="L" horiz-adv-x="1097" 
d="M461 268h626v-268h-944v1331h318v-1063z" />
    <glyph glyph-name="M" unicode="M" horiz-adv-x="1863" 
d="M1155 1331h459q102 -530 178 -1331h-309q-51 580 -123 1016q-164 -475 -279 -891h-299q-115 416 -278 891q-72 -436 -123 -1016h-309q76 801 178 1331h459q195 -618 223 -747q33 145 223 747z" />
    <glyph glyph-name="N" unicode="N" horiz-adv-x="1533" 
d="M1391 0h-316l-620 897v-897h-312v1329h367l569 -833v833h312v-1329z" />
    <glyph glyph-name="O" unicode="O" horiz-adv-x="1599" 
d="M799 1073q-166 0 -275.5 -105.5t-109.5 -305.5t114.5 -304t272 -104t271.5 104t114 304t-110.5 305.5t-276.5 105.5zM801 1356q133 0 257 -42t228.5 -122t168 -213t63.5 -309t-59.5 -315.5t-163 -219.5t-228.5 -120t-268.5 -40t-268 40t-227 120t-162 219.5t-59.5 315.5
t63.5 310t168 214t229.5 121t258 41z" />
    <glyph glyph-name="P" unicode="P" horiz-adv-x="1411" 
d="M461 1063v-428h274q135 0 207 46t72 170t-74 168t-211 44h-268zM143 1331h619q584 0 584 -481q0 -134 -54 -232t-141 -150q-174 -103 -387 -101h-303v-367h-318v1331z" />
    <glyph glyph-name="Q" unicode="Q" horiz-adv-x="1599" 
d="M799 1073q-166 0 -276 -105q-109 -105 -109 -305t114 -307q115 -106 273 -106q157 0 271 106t114 306t-110 306t-277 105zM801 1356q133 0 257 -42q281 -95 396 -335q63 -133 64 -301q0 -342 -205 -531l174 -198l-236 -195l-227 244q-104 -27 -236 -27t-258 40
q-280 89 -389 343q-59 140 -59 316t63 310q114 243 398 335q125 41 258 41z" />
    <glyph glyph-name="R" unicode="R" horiz-adv-x="1417" 
d="M467 692h248q139 0 208.5 46t69.5 149q0 176 -284 176h-242v-371zM461 424v-424h-318v1331h627q294 0 435 -130q52 -48 86 -129t34 -185q0 -147 -91 -257t-233 -143q199 -208 381 -487h-397q-168 276 -311 424h-213z" />
    <glyph glyph-name="S" unicode="S" horiz-adv-x="1316" 
d="M680 1356q182 0 463 -68v-278q-188 46 -290.5 57.5t-195.5 11.5q-250 0 -249 -118q0 -74 137 -111l350 -92q340 -88 340 -361q0 -203 -149.5 -312.5t-428 -109.5t-555.5 74v289q330 -86 497 -86t237.5 26.5t70.5 88.5q0 94 -180 139l-338 86q-147 39 -227 134t-80 230
q0 400 598 400z" />
    <glyph glyph-name="T" unicode="T" horiz-adv-x="1275" 
d="M1235 1063h-438v-1063h-318v1063h-438v268h1194v-268z" />
    <glyph glyph-name="U" unicode="U" horiz-adv-x="1511" 
d="M1378 1331v-721q0 -635 -626 -635q-618 0 -619 635v721h318v-723q0 -174 80.5 -262t224 -88t224.5 88t81 262v723h317z" />
    <glyph glyph-name="V" unicode="V" horiz-adv-x="1378" 
d="M1061 1331h348q-227 -766 -498 -1331h-460q-295 631 -482 1331h342q209 -719 373 -1081q176 395 377 1081z" />
    <glyph glyph-name="W" unicode="W" horiz-adv-x="1921" 
d="M1595 1331h316q-121 -659 -289 -1331h-440q-160 494 -221 760q-55 -221 -230 -760h-430q-162 653 -291 1331h318q78 -537 202 -1007q182 512 258 825h349q74 -299 256 -825q124 470 202 1007z" />
    <glyph glyph-name="X" unicode="X" horiz-adv-x="1335" 
d="M868 670l508 -670h-395l-315 436l-324 -436h-383l506 670l-504 661h406l295 -442l292 442h398z" />
    <glyph glyph-name="Y" unicode="Y" horiz-adv-x="1294" 
d="M801 0h-316v444q-129 176 -203.5 301t-114.5 195q-61 108 -127.5 243.5t-70.5 147.5h361q20 -63 128.5 -278t184.5 -314q109 141 318 592h364q-53 -115 -208.5 -388t-315.5 -505v-438z" />
    <glyph glyph-name="Z" unicode="Z" horiz-adv-x="1280" 
d="M1202 268v-268h-1141v180l711 883h-680v268h1127v-180l-711 -883h694z" />
    <glyph glyph-name="bracketleft" unicode="[" horiz-adv-x="700" 
d="M700 1450v-248h-247v-1251h247v-250h-557v1749h557z" />
    <glyph glyph-name="backslash" unicode="\" horiz-adv-x="1081" 
d="M367 1401l673 -1565h-317l-682 1565h326z" />
    <glyph glyph-name="bracketright" unicode="]" horiz-adv-x="700" 
d="M557 -299h-557v250h248v1251h-248v248h557v-1749z" />
    <glyph glyph-name="asciicircum" unicode="^" horiz-adv-x="1021" 
d="M940 555h-246l-184 498l-180 -498h-248l324 776h210z" />
    <glyph glyph-name="underscore" unicode="_" horiz-adv-x="1064" 
d="M1065 -614h-1065v278h1065v-278z" />
    <glyph glyph-name="grave" unicode="`" horiz-adv-x="567" 
d="M506 1210h-238l-207 297h293z" />
    <glyph glyph-name="a" unicode="a" horiz-adv-x="1288" 
d="M401 319q0 -53 50.5 -84.5t148.5 -31.5t246 71v127q-94 45 -254 45q-191 0 -191 -127zM610 1073q545 0 545 -434v-639h-244l-28 92q-174 -117 -375 -117t-313.5 99.5t-112.5 251.5q0 117 70.5 193.5t165 104t235.5 27.5t293 -55v41q0 195 -328 194q-129 0 -350 -61v252
q172 51 442 51z" />
    <glyph glyph-name="b" unicode="b" horiz-adv-x="1374" 
d="M684 229q133 0 215 78t82 221t-77 217t-211 74t-251 -65v-455q109 -70 242 -70zM735 1073q244 0 406 -137q162 -136 162 -398t-164 -412t-374 -151q-210 0 -382 99l-23 -74h-227v1415h309v-411q148 69 293 69z" />
    <glyph glyph-name="c" unicode="c" horiz-adv-x="1132" 
d="M644.5 1073q230.5 0 406.5 -59v-264q-156 68 -314.5 67.5t-251 -73t-92.5 -218t99.5 -220.5t226.5 -75q182 0 332 48v-261q-201 -43 -344 -43q-283 0 -459 136.5t-176 404.5t171 412.5t401.5 144.5z" />
    <glyph glyph-name="d" unicode="d" horiz-adv-x="1374" 
d="M393 526q0 -144 82 -218t210 -75q128 0 247 80v430q-123 76 -254 76t-208 -74q-77 -75 -77 -219zM1241 1415v-1415h-229l-29 90q-166 -111 -356 -110q-236 0 -396 150q-159 150 -159 408q0 260 160 398q161 137 407 137q145 0 293 -74v416h309z" />
    <glyph glyph-name="e" unicode="e" horiz-adv-x="1253" 
d="M657 831q-241 0 -266 -227h473q-2 106 -55 166.5t-152 60.5zM1182 412h-793q10 -74 65.5 -119t116 -58.5t129.5 -13.5q195 0 426 72v-242q-240 -76 -434 -76q-293 0 -456.5 138.5t-163.5 409.5t170 410.5t420.5 139.5t385 -133t134.5 -385v-143z" />
    <glyph glyph-name="f" unicode="f" horiz-adv-x="798" 
d="M602 1481q127 0 223 -35v-250q-75 31 -165 31t-122 -28t-32 -101v-47h325v-246h-325v-805h-309v805h-217v246h217v65q0 186 113 276q114 89 292 89z" />
    <glyph glyph-name="g" unicode="g" horiz-adv-x="1374" 
d="M685 233q128 0 247 80v428q-123 76 -254 76t-208 -72.5t-77 -217.5t82 -219.5t210 -74.5zM1241 1051v-961q0 -141 -49 -246.5t-136 -163.5q-169 -114 -424 -114t-454 67v261q234 -74 400 -74q354 0 354 217v24q-150 -82 -305 -81q-236 0 -395.5 148t-159.5 408
t160.5 397.5t406.5 137.5q186 0 346 -102l27 82h229z" />
    <glyph glyph-name="h" unicode="h" horiz-adv-x="1368" 
d="M1235 653v-653h-309v614q0 102 -42 152.5t-141 50.5q-166 0 -299 -98l-2 -719h-309v1415h311v-457q199 119 393.5 115t296 -98t101.5 -322z" />
    <glyph glyph-name="i" unicode="i" horiz-adv-x="575" 
d="M442 0h-309v1051h309v-1051zM461 1200h-346v264h346v-264z" />
    <glyph glyph-name="j" unicode="j" horiz-adv-x="583" 
d="M451 1051v-1121q0 -186 -120 -275q-119 -89 -283 -89t-273 39v254q80 -39 185 -39t143 36t38 109v1086h310zM469 1200h-346v264h346v-264z" />
    <glyph glyph-name="k" unicode="k" horiz-adv-x="1257" 
d="M846 1051h373q-262 -303 -412 -506q174 -160 471 -545h-377q-170 250 -438 526q197 312 383 525zM442 0h-309v1415h309v-1415z" />
    <glyph glyph-name="l" unicode="l" horiz-adv-x="575" 
d="M442 0h-309v1415h309v-1415z" />
    <glyph glyph-name="m" unicode="m" horiz-adv-x="2099" 
d="M895 614q0 203 -173 203q-89 0 -164 -33t-116 -65v-719h-309v1051h250l33 -111q172 133 406 133t325 -160q197 160 428 160q187 0 289 -96t102 -324v-653h-309v614q0 102 -42 152t-132 51q-90 0 -165 -33t-116 -67q2 -20 2 -64v-653h-309v614z" />
    <glyph glyph-name="n" unicode="n" horiz-adv-x="1368" 
d="M824.5 1073q205.5 0 308 -96t102.5 -324v-653h-309v614q0 102 -42 152.5t-141 50.5q-164 0 -301 -98v-719h-309v1051h250l33 -111q203 133 408.5 133z" />
    <glyph glyph-name="o" unicode="o" horiz-adv-x="1347" 
d="M671 817q-126 0 -202 -79t-76 -211t79 -214t205 -82t201.5 83t75.5 216t-78.5 210t-204.5 77zM675 1073q273 0 437 -143.5t164 -405.5t-164 -405.5t-437 -143.5t-438 142.5t-165 405.5t165 406.5t438 143.5z" />
    <glyph glyph-name="p" unicode="p" horiz-adv-x="1374" 
d="M683 229q134 0 216 78t82 221t-77 217t-209 74t-253 -67v-457q107 -66 241 -66zM735 1073q242 0 405 -137q163 -136 163 -398t-164 -412t-391 -151q-164 0 -306 64v-449h-309v1461h229l23 -76q184 98 350 98z" />
    <glyph glyph-name="q" unicode="q" horiz-adv-x="1374" 
d="M393 528q0 -144 82 -218t210 -74t247 79v428q-123 76 -254 76t-208 -74t-77 -217zM1241 1051v-1461h-309v471q-150 -82 -305 -81q-236 0 -396 150q-159 150 -159 408q0 260 160 398q161 137 407 137q184 0 348 -102l25 80h229z" />
    <glyph glyph-name="r" unicode="r" horiz-adv-x="872" 
d="M442 0h-309v1051h250l35 -115q193 133 418 137v-295q-209 2 -394 -104v-674z" />
    <glyph glyph-name="s" unicode="s" horiz-adv-x="1120" 
d="M584.5 1073q234.5 0 396.5 -67v-246q-203 70 -371 69q-240 0 -239 -75q0 -31 25.5 -44t129.5 -34l213 -47q162 -37 236 -112t74 -195q0 -160 -129 -253.5t-408 -93.5q-96 0 -222 21.5t-198 46.5v254q215 -72 382 -72t217 20.5t50 58.5t-30.5 58.5t-128.5 40.5l-230 48
q-160 33 -220 109.5t-60 193.5q0 164 139 241.5t373.5 77.5z" />
    <glyph glyph-name="t" unicode="t" horiz-adv-x="845" 
d="M795 1051v-246h-328v-410q0 -82 34 -123t121 -41t173 29v-246q-109 -39 -236 -39q-182 0 -291.5 85t-109.5 280v465h-178v246h190l35 268h262v-268h328z" />
    <glyph glyph-name="u" unicode="u" horiz-adv-x="1347" 
d="M1214 1051v-1051h-249l-33 111q-206 -135 -400 -135t-296.5 96t-102.5 325v654h309v-615q0 -102 42 -153.5t141 -51.5q141 0 280 101v719h309z" />
    <glyph glyph-name="v" unicode="v" horiz-adv-x="1167" 
d="M858 1051h330q-89 -281 -215 -577t-230 -474h-319q-104 178 -235 486t-209 565h329q31 -109 119 -375t156 -414q68 148 156 414t118 375z" />
    <glyph glyph-name="w" unicode="w" horiz-adv-x="1802" 
d="M745 1051h312q0 -4 70 -294t147 -478q57 147 121.5 395t91.5 377h325q-54 -239 -167 -556t-203 -495h-336q-145 369 -205 594q-66 -248 -205 -594h-338q-90 178 -196 477t-172 574h325q27 -129 91.5 -377t121.5 -395q81 198 149 483t68 289z" />
    <glyph glyph-name="x" unicode="x" horiz-adv-x="1193" 
d="M786 518l428 -518h-374l-254 326l-232 -326h-372l405 518l-407 533h385l225 -351l235 351h369z" />
    <glyph glyph-name="y" unicode="y" horiz-adv-x="1208" 
d="M893 1051h336q-72 -203 -301.5 -709t-403.5 -752h-321q147 238 241 408q-143 268 -287.5 609t-176.5 444h335q35 -123 283 -758q156 326 295 758z" />
    <glyph glyph-name="z" unicode="z" horiz-adv-x="1169" 
d="M1087 246v-246h-1005v201l598 604h-582v246h985v-201l-598 -604h602z" />
    <glyph glyph-name="braceleft" unicode="{" horiz-adv-x="804" 
d="M10 709q59 0 90 8t76 41q78 59 78 205v73q0 393 571 414v-248q-166 -10 -214 -54t-48 -130v-74q0 -164 -37 -235q-55 -111 -223 -134q166 -23 221 -133q39 -76 39 -237v-78q0 -86 48 -128t214 -50v-248q-303 11 -437 113t-134 301v69q0 146 -74 202t-170 58v265z" />
    <glyph glyph-name="bar" unicode="|" horiz-adv-x="595" 
d="M453 -512h-310v2048h310v-2048z" />
    <glyph glyph-name="braceright" unicode="}" horiz-adv-x="804" 
d="M551 184v-69q0 -199 -134 -300t-437 -114v248q166 8 214 50t48 128v78q0 162 39 237q55 111 221 133q-168 23 -223 134q-37 72 -37 235v74q0 86 -48 130t-214 54v248q571 -20 571 -414v-73q0 -145 78 -205q45 -33 76 -41t90 -8v-265q-96 -2 -170 -57t-74 -203z" />
    <glyph glyph-name="asciitilde" unicode="~" horiz-adv-x="1144" 
d="M1073 829q0 -139 -83 -233t-216 -94q-84 0 -199 44t-167 44q-98 0 -129 -96h-207q0 139 88 233t223 94q86 0 201 -47t170 -47q82 0 100 102h219z" />
    <glyph glyph-name="uni00A0" unicode="&#xa0;" horiz-adv-x="493" 
 />
    <glyph glyph-name="exclamdown" unicode="&#xa1;" horiz-adv-x="518" 
d="M111 571h297l24 -852h-346zM94 733v318h332v-318h-332z" />
    <glyph glyph-name="cent" unicode="&#xa2;" horiz-adv-x="1132" 
d="M736 950q-158 0 -251 -72q-92 -73 -92 -216q-1 -142 99 -218t227 -75q182 0 332 47v-260q-135 -29 -242 -37v-178h-309v192q-199 43 -314 174q-114 131 -114 347t118 354q119 137 310 180v207h309v-195q115 -10 242 -53v-264q-157 67 -315 67z" />
    <glyph glyph-name="sterling" unicode="&#xa3;" horiz-adv-x="1138" 
d="M1128 0h-985v180q154 123 154 348v70h-182v246h182v119q0 393 414 393q154 0 274 -35v-250q-103 31 -205 31t-134 -32t-32 -105v-121h254v-246h-254v-33q0 -135 -20 -190t-80 -107h614v-268z" />
    <glyph glyph-name="currency" unicode="&#xa4;" horiz-adv-x="1228" 
d="M640 926q-99 0 -169 -72t-70 -173t71 -171t172 -70t171 69t70 170t-73 174t-172 73zM1092 680q0 -123 -70 -238l135 -133l-139 -141l-135 135q-115 -70 -239 -70t-238 70l-138 -135l-139 139l135 135q-70 113 -70 238t70 244l-135 133l139 139l135 -135q125 72 240 72
t242 -72l133 133l137 -137l-133 -135q70 -119 70 -242z" />
    <glyph glyph-name="yen" unicode="&#xa5;" horiz-adv-x="1439" 
d="M1339 866v-245h-456v-138h456v-237h-456v-246h-312v246h-452v237h452v138h-452v245h262q-215 301 -293 465h356q52 -109 136 -253t147 -228q125 168 277 481h368q-76 -143 -301 -465h268z" />
    <glyph glyph-name="brokenbar" unicode="&#xa6;" horiz-adv-x="595" 
d="M453 -512h-310v860h310v-860zM143 1538h310v-862h-310v862z" />
    <glyph glyph-name="section" unicode="&#xa7;" horiz-adv-x="1073" 
d="M438 588q0 -39 22 -64t75 -47l22 -10q78 53 78 129q-1 37 -21 59t-75 47l-27 13q-74 -51 -74 -127zM950 127q0 -147 -100 -223t-338 -76q-172 0 -348 45v260q166 -51 306 -51t158 17q7 7 7 22q0 33 -84 72l-207 94q-221 100 -221 272q0 80 44 137t146 103
q-190 92 -190 276q0 281 424 281q164 0 321 -37v-260q-152 43 -268 43t-138 -9t-22 -29t16 -32q16 -14 79 -45l194 -96q123 -61 172 -121t49 -143q0 -81 -46 -141t-154 -105q104 -51 152 -111t48 -143z" />
    <glyph glyph-name="dieresis" unicode="&#xa8;" horiz-adv-x="899" 
d="M838 1200h-306v264h306v-264zM367 1200h-306v264h306v-264z" />
    <glyph glyph-name="copyright" unicode="&#xa9;" horiz-adv-x="1703" 
d="M410 737q0 205 130 315t308 111q178 0 315 -45v-203q-125 51 -245 51t-190 -56q-71 -56 -71 -167t76 -167t174 -56q145 0 256 35v-199q-156 -33 -264 -32q-219 0 -354 104t-135 309zM1511 739q0 274 -192 467q-193 193 -468 193q-275 -1 -465 -191t-191 -464
q0 -274 189 -464q190 -192 466 -192t469 188q192 189 192 463zM1622 743q0 -325 -221 -545t-551 -220t-549 218t-219 544t220 549q220 222 550 222t550 -222t220 -546z" />
    <glyph glyph-name="ordfeminine" unicode="&#xaa;" horiz-adv-x="1167" 
d="M133 301h901v-297h-901v297zM444 735q0 -59 125 -59q66 0 164 45v59q-69 27 -179 27t-110 -72zM578 1358q457 0 456 -373v-528h-243l-19 57q-134 -74 -290 -74t-253 84q-96 84 -96 220t112 203q113 67 241 67t247 -31q0 135 -227 135q-96 0 -303 -59v252q152 47 375 47z
" />
    <glyph glyph-name="guillemotleft" unicode="&#xab;" horiz-adv-x="1193" 
d="M856 543l225 -398h-243l-240 402l240 397h241zM371 543l223 -398h-242l-239 402l237 397h244z" />
    <glyph glyph-name="logicalnot" unicode="&#xac;" horiz-adv-x="1146" 
d="M778 158v344h-706v297h1003v-641h-297z" />
    <glyph glyph-name="softhyphen" unicode="&#xad;" horiz-adv-x="942" 
d="M870 457h-798v297h798v-297z" />
    <glyph glyph-name="registered" unicode="&#xae;" horiz-adv-x="1069" 
d="M459 930h76q49 0 67 12t19 47q0 49 -89 49h-73v-108zM756 989q0 -51 -32 -90t-79 -53q72 -86 131 -184h-151q-43 80 -111 157h-57v-157h-129v485h227q201 0 201 -158zM534 547q150 0 254 102q104 101 104 251t-104 254t-254 106q-150 0 -253 -104q-105 -104 -105 -252
t104 -252t254 -105zM535 1356q195 0 323 -131t129 -321q0 -190 -130 -321q-129 -130 -323 -130t-323 128t-129 320q0 191 129 323t324 132z" />
    <glyph glyph-name="macron" unicode="&#xaf;" horiz-adv-x="782" 
d="M721 1212h-660v218h660v-218z" />
    <glyph glyph-name="degree" unicode="&#xb0;" horiz-adv-x="716" 
d="M276 1184q51 0 89 37q37 37 36 88q0 51 -36 88q-37 37 -89 37t-88 -37t-36 -88t36 -88t88 -37zM276 1053q-106 1 -181 75t-75 180t75 182q75 75 181 75t182 -75t74 -181q0 -106 -74 -182q-76 -74 -182 -74z" />
    <glyph glyph-name="plusminus" unicode="&#xb1;" horiz-adv-x="1165" 
d="M1061 0h-957v297h957v-297zM721 360h-297v181h-320v297h320v295h297v-295h340v-297h-340v-181z" />
    <glyph glyph-name="twosuperior" unicode="&#xb2;" 
d="M411 1544q128 0 211 -64t83 -178q0 -112 -79 -191t-233 -163h299v-162h-588v164q207 117 305 191q97 74 97 133q0 106 -141 106q-68 0 -232 -45v164q150 45 278 45z" />
    <glyph glyph-name="threesuperior" unicode="&#xb3;" 
d="M356 768q-121 0 -260 37v164q142 -37 232 -37q180 0 180 86q0 53 -55 76t-181 22h-18v80l170 168h-322v160h582v-125l-168 -170q92 -15 141 -73t50 -140q0 -248 -351 -248z" />
    <glyph glyph-name="acute" unicode="&#xb4;" horiz-adv-x="567" 
d="M299 1210h-238l152 297h293z" />
    <glyph glyph-name="uni00B5" unicode="&#xb5;" horiz-adv-x="1347" 
d="M1214 0h-249l-33 111q-199 -131 -408 -131q-39 0 -82 14v-404h-309v1461h309v-615q0 -102 42 -152t141 -51q143 0 280 99v719h309v-1051z" />
    <glyph glyph-name="paragraph" unicode="&#xb6;" horiz-adv-x="1374" 
d="M1231 -154h-309v1239h-142v-1239h-309v637q-195 16 -303 126t-107 284q-1 219 145 329t392 109h633v-1485z" />
    <glyph glyph-name="periodcentered" unicode="&#xb7;" horiz-adv-x="516" 
d="M424 444h-332v318h332v-318z" />
    <glyph glyph-name="cedilla" unicode="&#xb8;" horiz-adv-x="548" 
d="M253 -281q79 -1 79 51t-88 52q-49 0 -86 -6l63 194h139l-26 -76q154 -27 153 -167q0 -190 -235 -191q-88 0 -191 29v149q113 -35 192 -35z" />
    <glyph glyph-name="onesuperior" unicode="&#xb9;" 
d="M397 786v535l-243 -35v168l438 86v-754h-195z" />
    <glyph glyph-name="ordmasculine" unicode="&#xba;" horiz-adv-x="1148" 
d="M1026 0h-901v297h901v-297zM573 1112q-92 0 -147 -58t-55 -154t57 -154q58 -60 150 -60t147 60t55 156t-57 154q-58 56 -150 56zM576 1358q227 0 364 -121t137 -339t-136 -338t-364 -120t-367 119q-138 119 -138 339t138 340q139 120 366 120z" />
    <glyph glyph-name="guillemotright" unicode="&#xbb;" horiz-adv-x="1193" 
d="M1081 547l-239 -402h-242l223 398l-223 401h244zM596 547l-240 -402h-243l225 398l-223 401h241z" />
    <glyph glyph-name="onequarter" unicode="&#xbc;" horiz-adv-x="1865" 
d="M1833 141h-121v-141h-194v141h-424v144q152 238 325 452h238q-203 -231 -330 -434h191v176h194v-176h121v-162zM702 0h-249l690 1331h246zM397 582v534l-243 -35v168l438 86v-753h-195z" />
    <glyph glyph-name="onehalf" unicode="&#xbd;" horiz-adv-x="1914" 
d="M1507 758q129 0 211 -65t82 -177t-79 -191t-232 -163h299v-162h-588v164q207 116 304 190t98 133q0 106 -142 107q-68 0 -231 -45v164q150 45 278 45zM702 0h-249l690 1331h246zM397 582v534l-243 -35v168l438 86v-753h-195z" />
    <glyph glyph-name="threequarters" unicode="&#xbe;" horiz-adv-x="1884" 
d="M1851 141h-120v-141h-195v141h-424v144q152 238 326 452h237q-203 -231 -329 -434h190v176h195v-176h120v-162zM469 0l690 1331h246l-686 -1331h-250zM356 575q-121 0 -260 37v164q142 -37 232 -37q180 0 180 86q0 53 -55 76t-181 23h-18v80l170 167h-322v160h582v-125
l-168 -170q92 -16 141 -73t50 -140q0 -248 -351 -248z" />
    <glyph glyph-name="questiondown" unicode="&#xbf;" horiz-adv-x="1136" 
d="M643 -301q-272 0 -422 92t-149 266q0 113 57 196t128 121t154 80t106 66t26 60h311q8 -39 8 -74q0 -76 -45 -131t-109 -87t-130 -59q-156 -64 -156 -141q0 -61 55 -85q55 -23 205 -23t432 67v-285q-268 -63 -471 -63zM526 1051h332v-318h-332v318z" />
    <glyph glyph-name="Agrave" unicode="&#xc0;" horiz-adv-x="1398" 
d="M461 510h450q-113 322 -227 586q-110 -254 -223 -586zM373 242q-65 -211 -74 -242h-330q229 748 504 1331h442q297 -627 515 -1331h-351l-78 242h-628zM604 1454l-207 297h293l152 -297h-238z" />
    <glyph glyph-name="Aacute" unicode="&#xc1;" horiz-adv-x="1398" 
d="M461 510h450q-113 322 -227 586q-110 -254 -223 -586zM373 242q-65 -211 -74 -242h-330q229 748 504 1331h442q297 -627 515 -1331h-351l-78 242h-628zM791 1454h-238l152 297h292z" />
    <glyph glyph-name="Acircumflex" unicode="&#xc2;" horiz-adv-x="1398" 
d="M461 510h450q-113 322 -227 586q-110 -254 -223 -586zM373 242q-65 -211 -74 -242h-330q229 748 504 1331h442q297 -627 515 -1331h-351l-78 242h-628zM559 1454h-237l219 297h317l219 -297h-237l-140 150z" />
    <glyph glyph-name="Atilde" unicode="&#xc3;" horiz-adv-x="1398" 
d="M461 510h450q-113 322 -227 586q-110 -254 -223 -586zM373 242q-65 -211 -74 -242h-330q229 748 504 1331h442q297 -627 515 -1331h-351l-78 242h-628zM571 1548q-31 0 -45 -16t-26 -57h-181q12 115 72 186.5t168 71.5q61 0 136 -39t106 -39t45 16.5t26 57.5h181
q-12 -115 -71.5 -187t-168.5 -72q-61 0 -136 39t-106 39z" />
    <glyph glyph-name="Adieresis" unicode="&#xc4;" horiz-adv-x="1398" 
d="M461 510h450q-113 322 -227 586q-110 -254 -223 -586zM373 242q-65 -211 -74 -242h-330q229 748 504 1331h442q297 -627 515 -1331h-351l-78 242h-628zM1087 1446h-305v264h305v-264zM616 1446h-305v264h305v-264z" />
    <glyph glyph-name="Aring" unicode="&#xc5;" horiz-adv-x="1398" 
d="M461 510h450q-113 322 -227 586q-110 -254 -223 -586zM373 242q-65 -211 -74 -242h-330q229 748 504 1331h442q297 -627 515 -1331h-351l-78 242h-628zM700.5 1681q-100.5 0 -100.5 -73.5t100.5 -73.5t100.5 73.5t-100.5 73.5zM700.5 1419q-106.5 0 -165 51.5
t-58.5 137.5t58.5 137t165 51t165 -51t58.5 -137t-58.5 -137.5t-165 -51.5z" />
    <glyph glyph-name="AE" unicode="&#xc6;" horiz-adv-x="2091" 
d="M1032 510l2 565q-203 -270 -395 -565h393zM1999 268v-268h-967v242h-563q-51 -82 -145 -242h-365q520 864 922 1331h1104v-268h-635v-254h567v-258h-567v-283h649z" />
    <glyph glyph-name="Ccedilla" unicode="&#xc7;" horiz-adv-x="1345" 
d="M1006 -233q0 -190 -236 -191q-88 0 -190 29v149q113 -35 191.5 -35t78.5 51.5t-88 51.5q-49 0 -86 -6l53 166q-293 29 -470 198.5t-177 485.5q0 172 66 308t176 217q225 165 538 165q213 0 400 -58v-282q-188 61 -396 61t-330 -106.5t-122 -307t131 -306t315.5 -103.5
t403.5 65v-299q-207 -45 -398 -45l-14 -41q154 -27 154 -167z" />
    <glyph glyph-name="Egrave" unicode="&#xc8;" horiz-adv-x="1284" 
d="M1178 1063h-717v-254h649v-258h-649v-283h731v-268h-1049v1331h1035v-268zM807 1454h-238l-207 297h293z" />
    <glyph glyph-name="Eacute" unicode="&#xc9;" horiz-adv-x="1284" 
d="M1178 1063h-717v-254h649v-258h-649v-283h731v-268h-1049v1331h1035v-268zM756 1454h-238l152 297h293z" />
    <glyph glyph-name="Ecircumflex" unicode="&#xca;" horiz-adv-x="1284" 
d="M1178 1063h-717v-254h649v-258h-649v-283h731v-268h-1049v1331h1035v-268zM1042 1454h-237l-139 150l-142 -150h-237l219 297h317z" />
    <glyph glyph-name="Edieresis" unicode="&#xcb;" horiz-adv-x="1284" 
d="M1178 1063h-717v-254h649v-258h-649v-283h731v-268h-1049v1331h1035v-268zM1053 1446h-305v264h305v-264zM582 1446h-306v264h306v-264z" />
    <glyph glyph-name="Igrave" unicode="&#xcc;" horiz-adv-x="604" 
d="M461 0h-318v1331h318v-1331zM444 1454h-237l-207 297h293z" />
    <glyph glyph-name="Iacute" unicode="&#xcd;" horiz-adv-x="604" 
d="M461 0h-318v1331h318v-1331zM393 1454h-237l151 297h293z" />
    <glyph glyph-name="Icircumflex" unicode="&#xce;" horiz-adv-x="604" 
d="M461 0h-318v1331h318v-1331zM680 1454h-238l-139 150l-141 -150h-238l219 297h318z" />
    <glyph glyph-name="Idieresis" unicode="&#xcf;" horiz-adv-x="604" 
d="M461 0h-318v1331h318v-1331zM690 1446h-305v264h305v-264zM219 1446h-305v264h305v-264z" />
    <glyph glyph-name="Eth" unicode="&#xd0;" horiz-adv-x="1488" 
d="M461 268h190q414 0 414 404q0 188 -106.5 289.5t-294.5 101.5h-203v-266h235v-269h-235v-260zM143 1331h531q300 0 498 -132q106 -71 165.5 -203t59.5 -316q-1 -184 -61 -320t-166 -212q-205 -149 -515 -148h-512v528h-143v269h143v534z" />
    <glyph glyph-name="Ntilde" unicode="&#xd1;" horiz-adv-x="1533" 
d="M1391 0h-316l-620 897v-897h-312v1329h367l569 -833v833h312v-1329zM911 1470q-61 0 -136 39t-105.5 39t-45 -16t-26.5 -57h-180q12 115 71.5 186.5t167.5 71.5q61 0 136 -39t106 -39t45.5 16.5t26.5 57.5h180q-12 -115 -71.5 -187t-168.5 -72z" />
    <glyph glyph-name="Ograve" unicode="&#xd2;" horiz-adv-x="1599" 
d="M799 1073q-166 0 -275.5 -105.5t-109.5 -305.5t114.5 -304t272 -104t271.5 104t114 304t-110.5 305.5t-276.5 105.5zM801 1356q133 0 257 -42t228.5 -122t168 -213t63.5 -309t-59.5 -315.5t-163 -219.5t-228.5 -120t-268.5 -40t-268 40t-227 120t-162 219.5t-59.5 315.5
t63.5 310t168 214t229.5 121t258 41zM942 1454h-237l-207 297h293z" />
    <glyph glyph-name="Oacute" unicode="&#xd3;" horiz-adv-x="1599" 
d="M799 1073q-166 0 -275.5 -105.5t-109.5 -305.5t114.5 -304t272 -104t271.5 104t114 304t-110.5 305.5t-276.5 105.5zM801 1356q133 0 257 -42t228.5 -122t168 -213t63.5 -309t-59.5 -315.5t-163 -219.5t-228.5 -120t-268.5 -40t-268 40t-227 120t-162 219.5t-59.5 315.5
t63.5 310t168 214t229.5 121t258 41zM891 1454h-238l152 297h293z" />
    <glyph glyph-name="Ocircumflex" unicode="&#xd4;" horiz-adv-x="1599" 
d="M799 1073q-166 0 -275.5 -105.5t-109.5 -305.5t114.5 -304t272 -104t271.5 104t114 304t-110.5 305.5t-276.5 105.5zM801 1356q133 0 257 -42t228.5 -122t168 -213t63.5 -309t-59.5 -315.5t-163 -219.5t-228.5 -120t-268.5 -40t-268 40t-227 120t-162 219.5t-59.5 315.5
t63.5 310t168 214t229.5 121t258 41zM1178 1454h-238l-139 150l-142 -150h-237l219 297h317z" />
    <glyph glyph-name="Otilde" unicode="&#xd5;" horiz-adv-x="1599" 
d="M799 1073q-166 0 -275.5 -105.5t-109.5 -305t114.5 -304t272 -104.5t271.5 104.5t114 304t-110.5 305t-276.5 105.5zM801 1356q133 0 257 -42t228.5 -122t168 -213t63.5 -309t-59.5 -315.5t-163 -219.5t-228.5 -120t-268.5 -40t-268 40t-227 120t-162 219.5t-59.5 315.5
t63.5 310t168 214t229.5 121t258 41zM913 1470q-61 0 -136 39t-105.5 39t-45 -16t-26.5 -57h-180q12 115 71.5 186.5t167.5 71.5q61 0 136 -39t106 -39t45.5 16.5t26.5 57.5h180q-12 -115 -71.5 -187t-168.5 -72z" />
    <glyph glyph-name="Odieresis" unicode="&#xd6;" horiz-adv-x="1599" 
d="M799 1073q-166 0 -275.5 -105.5t-109.5 -305.5t114.5 -304t272 -104t271.5 104t114 304t-110.5 305.5t-276.5 105.5zM801 1356q133 0 257 -42t228.5 -122t168 -213t63.5 -309t-59.5 -315.5t-163 -219.5t-228.5 -120t-268.5 -40t-268 40t-227 120t-162 219.5t-59.5 315.5
t63.5 310t168 214t229.5 121t258 41zM1188 1446h-305v264h305v-264zM717 1446h-305v264h305v-264z" />
    <glyph glyph-name="multiply" unicode="&#xd7;" horiz-adv-x="1120" 
d="M1010 346l-209 -209l-240 240l-242 -240l-208 209l239 242l-239 239l208 209l242 -239l240 239l209 -209l-240 -239z" />
    <glyph glyph-name="Oslash" unicode="&#xd8;" horiz-adv-x="1599" 
d="M801 254q158 0 271.5 104.5t113.5 317.5q0 109 -41 194l-496 -589q72 -27 152 -27zM414 676q0 -127 47 -225l500 591q-74 31 -162 31q-166 0 -275.5 -105.5t-109.5 -291.5zM1518 678q0 -184 -60 -324q-58 -140 -162 -219q-207 -160 -497 -160q-193 0 -350 70l-103 -123
l-194 162l92 109q-162 182 -162 485q0 168 64 302t168 214q212 162 487 162q188 0 354 -80l98 115l195 -162l-90 -107q160 -176 160 -444z" />
    <glyph glyph-name="Ugrave" unicode="&#xd9;" horiz-adv-x="1511" 
d="M1378 1331v-721q0 -635 -626 -635q-618 0 -619 635v721h318v-723q0 -174 80.5 -262t224 -88t224.5 88t81 262v723h317zM897 1454h-238l-206 297h292z" />
    <glyph glyph-name="Uacute" unicode="&#xda;" horiz-adv-x="1511" 
d="M1378 1331v-721q0 -635 -626 -635q-618 0 -619 635v721h318v-723q0 -174 80.5 -262t224 -88t224.5 88t81 262v723h317zM846 1454h-238l152 297h293z" />
    <glyph glyph-name="Ucircumflex" unicode="&#xdb;" horiz-adv-x="1511" 
d="M1378 1331v-721q0 -635 -626 -635q-618 0 -619 635v721h318v-723q0 -174 80.5 -262t224 -88t224.5 88t81 262v723h317zM1133 1454h-238l-139 150l-142 -150h-237l219 297h317z" />
    <glyph glyph-name="Udieresis" unicode="&#xdc;" horiz-adv-x="1511" 
d="M1378 1331v-721q0 -635 -626 -635q-618 0 -619 635v721h318v-723q0 -174 80.5 -262t224 -88t224.5 88t81 262v723h317zM1143 1446h-305v264h305v-264zM672 1446h-305v264h305v-264z" />
    <glyph glyph-name="Yacute" unicode="&#xdd;" horiz-adv-x="1294" 
d="M801 0h-316v444q-129 176 -203.5 301t-114.5 195q-61 108 -127.5 243.5t-70.5 147.5h361q20 -63 128.5 -278t184.5 -314q109 141 318 592h364q-53 -115 -208.5 -388t-315.5 -505v-438zM737 1454h-237l151 297h293z" />
    <glyph glyph-name="Thorn" unicode="&#xde;" horiz-adv-x="1411" 
d="M461 881v-428h274q135 0 207 46t72 170t-74 168t-211 44h-268zM461 1149h301q584 0 584 -481q0 -134 -54 -232t-141 -150q-173 -102 -387 -102h-303v-184h-318v1331h318v-182z" />
    <glyph glyph-name="germandbls" unicode="&#xdf;" horiz-adv-x="1341" 
d="M133 1044q1 229 119 333t346 104t370 -84q144 -84 144 -230q0 -90 -28 -149t-66 -86t-76 -44t-66 -40t-28 -58t22 -53t99 -51l125 -51q100 -41 155 -118t56 -175q0 -367 -482 -367q-147 0 -309 58v278q60 -37 150 -59t161 -23q158 0 158 99q0 38 -27 64t-96 50l-170 62
q-164 61 -164 248q0 135 96 197q40 26 78 46q96 50 93 115q-2 117 -175 117q-106 0 -141 -39t-35 -131v-1057h-309v1044z" />
    <glyph glyph-name="agrave" unicode="&#xe0;" horiz-adv-x="1288" 
d="M401 319q0 -53 50.5 -84.5t148.5 -31.5t246 71v127q-94 45 -254 45q-191 0 -191 -127zM610 1073q545 0 545 -434v-639h-244l-28 92q-174 -117 -375 -117t-313.5 99.5t-112.5 251.5q0 117 70.5 193.5t165 104t235.5 27.5t293 -55v41q0 195 -328 194q-129 0 -350 -61v252
q172 51 442 51zM551 1210l-207 297h293l151 -297h-237z" />
    <glyph glyph-name="aacute" unicode="&#xe1;" horiz-adv-x="1288" 
d="M401 319q0 -53 50.5 -84.5t148.5 -31.5t246 71v127q-94 45 -254 45q-191 0 -191 -127zM610 1073q545 0 545 -434v-639h-244l-28 92q-174 -117 -375 -117t-313.5 99.5t-112.5 251.5q0 117 70.5 193.5t165 104t235.5 27.5t293 -55v41q0 195 -328 194q-129 0 -350 -61v252
q172 51 442 51zM739 1210h-237l151 297h293z" />
    <glyph glyph-name="acircumflex" unicode="&#xe2;" horiz-adv-x="1288" 
d="M401 319q0 -53 50.5 -84.5t148.5 -31.5t246 71v127q-94 45 -254 45q-191 0 -191 -127zM610 1073q545 0 545 -434v-639h-244l-28 92q-174 -117 -375 -117t-313.5 99.5t-112.5 251.5q0 117 70.5 193.5t165 104t235.5 27.5t293 -55v41q0 195 -328 194q-129 0 -350 -61v252
q172 51 442 51zM504 1210h-238l219 297h318l219 -297h-238l-139 150z" />
    <glyph glyph-name="atilde" unicode="&#xe3;" horiz-adv-x="1288" 
d="M401 319q0 -53 50.5 -84.5t148.5 -31.5t246 71v127q-94 45 -254 45q-191 0 -191 -127zM610 1073q545 0 545 -434v-639h-244l-28 92q-174 -117 -375 -117t-313.5 99.5t-112.5 251.5q0 117 70.5 193.5t165 104t235.5 27.5t293 -55v41q0 195 -328 194q-129 0 -350 -61v252
q172 51 442 51zM531 1303q-31 0 -45.5 -16.5t-26.5 -57.5h-180q12 115 71.5 186.5t167.5 71.5q61 0 136 -39t106 -39t45 16.5t26 57.5h181q-12 -115 -71.5 -186.5t-168.5 -71.5q-61 0 -135.5 39t-105.5 39z" />
    <glyph glyph-name="adieresis" unicode="&#xe4;" horiz-adv-x="1288" 
d="M401 319q0 -53 50.5 -84.5t148.5 -31.5t246 71v127q-94 45 -254 45q-191 0 -191 -127zM610 1073q545 0 545 -434v-639h-244l-28 92q-174 -117 -375 -117t-313.5 99.5t-112.5 251.5q0 117 70.5 193.5t165 104t235.5 27.5t293 -55v41q0 195 -328 194q-129 0 -350 -61v252
q172 51 442 51zM1032 1200h-305v264h305v-264zM561 1200h-305v264h305v-264z" />
    <glyph glyph-name="aring" unicode="&#xe5;" horiz-adv-x="1288" 
d="M401 319q0 -53 50.5 -84.5t148.5 -31.5t246 71v127q-94 45 -254 45q-191 0 -191 -127zM610 1073q545 0 545 -434v-639h-244l-28 92q-174 -117 -375 -117t-313.5 99.5t-112.5 251.5q0 117 70.5 193.5t165 104t235.5 27.5t293 -55v41q0 195 -328 194q-129 0 -350 -61v252
q172 51 442 51zM645 1438q-100 0 -100 -74t100 -74t100 74t-100 74zM645.5 1176q-106.5 0 -165 51t-58.5 137t58.5 137t165 51t164.5 -51t58 -137t-58 -137t-164.5 -51z" />
    <glyph glyph-name="ae" unicode="&#xe6;" horiz-adv-x="2029" 
d="M583 446q-181 0 -182 -127q0 -53 50.5 -84.5t158 -31.5t277.5 94q-16 41 -27 98q-96 51 -277 51zM1434 831q-240 0 -267 -227h473q-2 106 -55 166.5t-151 60.5zM1438.5 1073q248.5 0 384 -133t135.5 -385v-143h-793q14 -104 106.5 -147.5t205.5 -43.5q195 0 426 72v-242
q-240 -76 -435 -76q-309 0 -475 158q-223 -158 -491 -158q-195 0 -307.5 99.5t-112.5 251.5q0 117 70.5 193.5t165 104t235.5 27.5t293 -55v41q0 195 -328 194q-129 0 -350 -61v252q172 51 454.5 51t413.5 -145q154 145 402.5 145z" />
    <glyph glyph-name="ccedilla" unicode="&#xe7;" horiz-adv-x="1132" 
d="M736.5 817q-158.5 0 -251 -72.5t-92.5 -218t99.5 -220.5t226.5 -75q182 0 332 48v-261q-197 -43 -340 -43l-15 -41q154 -27 154 -167q0 -190 -236 -191q-88 0 -190 29v149q113 -35 191.5 -35t78.5 51.5t-88 51.5q-49 0 -86 -6l55 168q-229 29 -366 164t-137 385.5
t171 395t401.5 144.5t406.5 -59v-264q-156 67 -314.5 67z" />
    <glyph glyph-name="egrave" unicode="&#xe8;" horiz-adv-x="1253" 
d="M657 831q-241 0 -266 -227h473q-2 106 -55 166.5t-152 60.5zM1182 412h-793q10 -74 65.5 -119t116 -58.5t129.5 -13.5q195 0 426 72v-242q-240 -76 -434 -76q-293 0 -456.5 138.5t-163.5 409.5t170 410.5t420.5 139.5t385 -133t134.5 -385v-143zM555 1210l-207 297h293
l152 -297h-238z" />
    <glyph glyph-name="eacute" unicode="&#xe9;" horiz-adv-x="1253" 
d="M657 831q-241 0 -266 -227h473q-2 106 -55 166.5t-152 60.5zM1182 412h-793q10 -74 65.5 -119t116 -58.5t129.5 -13.5q195 0 426 72v-242q-240 -76 -434 -76q-293 0 -456.5 138.5t-163.5 409.5t170 410.5t420.5 139.5t385 -133t134.5 -385v-143zM743 1210h-237l151 297
h293z" />
    <glyph glyph-name="ecircumflex" unicode="&#xea;" horiz-adv-x="1253" 
d="M657 831q-241 0 -266 -227h473q-2 106 -55 166.5t-152 60.5zM1182 412h-793q10 -74 65.5 -119t116 -58.5t129.5 -13.5q195 0 426 72v-242q-240 -76 -434 -76q-293 0 -456.5 138.5t-163.5 409.5t170 410.5t420.5 139.5t385 -133t134.5 -385v-143zM508 1210h-238l219 297
h318l219 -297h-238l-139 150z" />
    <glyph glyph-name="edieresis" unicode="&#xeb;" horiz-adv-x="1253" 
d="M657 831q-241 0 -266 -227h473q-2 106 -55 166.5t-152 60.5zM1182 412h-793q10 -74 65.5 -119t116 -58.5t129.5 -13.5q195 0 426 72v-242q-240 -76 -434 -76q-293 0 -456.5 138.5t-163.5 409.5t170 410.5t420.5 139.5t385 -133t134.5 -385v-143zM1036 1200h-305v264h305
v-264zM565 1200h-305v264h305v-264z" />
    <glyph glyph-name="igrave" unicode="&#xec;" horiz-adv-x="575" 
d="M442 0h-309v1051h309v-1051zM432 1210h-237l-207 297h293z" />
    <glyph glyph-name="iacute" unicode="&#xed;" horiz-adv-x="575" 
d="M442 0h-309v1051h309v-1051zM383 1210h-238l152 297h293z" />
    <glyph glyph-name="icircumflex" unicode="&#xee;" horiz-adv-x="575" 
d="M442 0h-309v1051h309v-1051zM289 1360l-142 -150h-237l219 297h317l220 -297h-238z" />
    <glyph glyph-name="idieresis" unicode="&#xef;" horiz-adv-x="575" 
d="M442 0h-309v1051h309v-1051zM676 1200h-305v264h305v-264zM205 1200h-305v264h305v-264z" />
    <glyph glyph-name="eth" unicode="&#xf0;" horiz-adv-x="1347" 
d="M679 231q124 1 197 95t78 274q-135 135 -301 135q-260 0 -260 -252q0 -98 81 -175t205 -77zM1276 627q0 -319 -163 -485t-435 -167t-439 137t-167 380t146 371q146 128 351 128t340 -96q-59 156 -217 242l-188 -105l-90 135l75 41q-63 16 -149 27l84 246
q217 -29 377 -101l182 101l90 -135l-106 -60q309 -221 309 -659z" />
    <glyph glyph-name="ntilde" unicode="&#xf1;" horiz-adv-x="1368" 
d="M824.5 1073q205.5 0 308 -96t102.5 -324v-653h-309v614q0 102 -42 152.5t-141 50.5q-164 0 -301 -98v-719h-309v1051h250l33 -111q203 133 408.5 133zM569 1303q-31 0 -45 -16.5t-26 -57.5h-181q12 115 72 186.5t168 71.5q61 0 136 -39t106 -39t45 16.5t26 57.5h181
q-12 -115 -71.5 -186.5t-168.5 -71.5q-61 0 -136 39t-106 39z" />
    <glyph glyph-name="ograve" unicode="&#xf2;" horiz-adv-x="1347" 
d="M671 817q-126 0 -202 -79t-76 -211t79 -214t205 -82t201.5 83t75.5 216t-78.5 210t-204.5 77zM675 1073q273 0 437 -143.5t164 -405.5t-164 -405.5t-437 -143.5t-438 142.5t-165 405.5t165 406.5t438 143.5zM819 1210h-237l-207 297h293z" />
    <glyph glyph-name="oacute" unicode="&#xf3;" horiz-adv-x="1347" 
d="M671 817q-126 0 -202 -79t-76 -211t79 -214t205 -82t201.5 83t75.5 216t-78.5 210t-204.5 77zM675 1073q273 0 437 -143.5t164 -405.5t-164 -405.5t-437 -143.5t-438 142.5t-165 405.5t165 406.5t438 143.5zM770 1210h-238l152 297h293z" />
    <glyph glyph-name="ocircumflex" unicode="&#xf4;" horiz-adv-x="1347" 
d="M671 817q-126 0 -202 -79t-76 -211t79 -214t205 -82t201.5 83t75.5 216t-78.5 210t-204.5 77zM675 1073q273 0 437 -143.5t164 -405.5t-164 -405.5t-437 -143.5t-438 142.5t-165 405.5t165 406.5t438 143.5zM676 1360l-141 -150h-238l219 297h318l219 -297h-238z" />
    <glyph glyph-name="otilde" unicode="&#xf5;" horiz-adv-x="1347" 
d="M671 817q-126 0 -202 -79t-76 -211t79 -214t205 -82t201.5 83t75.5 216t-78.5 210t-204.5 77zM675 1073q273 0 437 -143.5t164 -405.5t-164 -405.5t-437 -143.5t-438 142.5t-165 405.5t165 406.5t438 143.5zM803 1225q-61 0 -136 39t-106 39t-45 -16.5t-27 -57.5h-180
q12 115 71.5 186.5t168.5 71.5q61 0 136 -39t105.5 -39t45 16.5t26.5 57.5h180q-12 -115 -71.5 -186.5t-167.5 -71.5z" />
    <glyph glyph-name="odieresis" unicode="&#xf6;" horiz-adv-x="1347" 
d="M671 817q-126 0 -202 -79t-76 -211t79 -214t205 -82t201.5 83t75.5 216t-78.5 210t-204.5 77zM675 1073q273 0 437 -143.5t164 -405.5t-164 -405.5t-437 -143.5t-438 142.5t-165 405.5t165 406.5t438 143.5zM1063 1200h-305v264h305v-264zM592 1200h-305v264h305v-264z
" />
    <glyph glyph-name="divide" unicode="&#xf7;" horiz-adv-x="1146" 
d="M739 59h-331v277h331v-277zM72 735h1003v-297h-1003v297zM739 838h-331v276h331v-276z" />
    <glyph glyph-name="oslash" unicode="&#xf8;" horiz-adv-x="1347" 
d="M680 231q123 0 198.5 83t75.5 210q0 76 -26 140l-353 -416q50 -17 105 -17zM393 524q0 -78 31 -139l352 416q-53 16 -108 16q-123 0 -199 -79t-76 -214zM1276 513q0 -251 -164 -394.5t-436 -143.5q-166 0 -289 52l-92 -111l-162 125l82 96q-143 147 -143 398t164.5 394.5
t439.5 143.5q156 0 287 -51l90 106l161 -124l-79 -95q141 -145 141 -396z" />
    <glyph glyph-name="ugrave" unicode="&#xf9;" horiz-adv-x="1347" 
d="M1214 1051v-1051h-249l-33 111q-206 -135 -400 -135t-296.5 96t-102.5 325v654h309v-615q0 -102 42 -153.5t141 -51.5q141 0 280 101v719h309zM580 1210l-207 297h293l151 -297h-237z" />
    <glyph glyph-name="uacute" unicode="&#xfa;" horiz-adv-x="1347" 
d="M1214 1051v-1051h-249l-33 111q-206 -135 -400 -135t-296.5 96t-102.5 325v654h309v-615q0 -102 42 -153.5t141 -51.5q141 0 280 101v719h309zM768 1210h-238l152 297h293z" />
    <glyph glyph-name="ucircumflex" unicode="&#xfb;" horiz-adv-x="1347" 
d="M1214 1051v-1051h-249l-33 111q-206 -135 -400 -135t-296.5 96t-102.5 325v654h309v-615q0 -102 42 -153.5t141 -51.5q141 0 280 101v719h309zM532 1210h-237l219 297h317l220 -297h-238l-139 150z" />
    <glyph glyph-name="udieresis" unicode="&#xfc;" horiz-adv-x="1347" 
d="M1214 1051v-1051h-249l-33 111q-206 -135 -400 -135t-296.5 96t-102.5 325v654h309v-615q0 -102 42 -153.5t141 -51.5q141 0 280 101v719h309zM1061 1200h-305v264h305v-264zM590 1200h-305v264h305v-264z" />
    <glyph glyph-name="yacute" unicode="&#xfd;" horiz-adv-x="1208" 
d="M893 1051h336q-72 -203 -301.5 -709t-403.5 -752h-321q147 238 241 408q-143 268 -287.5 609t-176.5 444h335q35 -123 283 -758q156 326 295 758zM698 1210h-237l151 297h293z" />
    <glyph glyph-name="thorn" unicode="&#xfe;" horiz-adv-x="1374" 
d="M683 233q134 0 216 76t82 219t-77 216t-211 73t-251 -65v-453q107 -66 241 -66zM735 1071q242 0 405 -136q163 -135 163 -397t-164 -410t-391 -148q-164 0 -306 63v-453h-309v1825h309v-411q154 67 293 67z" />
    <glyph glyph-name="ydieresis" unicode="&#xff;" horiz-adv-x="1208" 
d="M893 1051h336q-72 -203 -301.5 -709t-403.5 -752h-321q147 238 241 408q-143 268 -287.5 609t-176.5 444h335q35 -123 283 -758q156 326 295 758zM991 1200h-305v264h305v-264zM520 1200h-305v264h305v-264z" />
    <glyph glyph-name="Amacron" unicode="&#x100;" horiz-adv-x="1398" 
d="M461 510h450q-113 322 -227 586q-110 -254 -223 -586zM373 242q-65 -211 -74 -242h-330q229 748 504 1331h442q297 -627 515 -1331h-351l-78 242h-628zM1018 1479h-660v217h660v-217z" />
    <glyph glyph-name="amacron" unicode="&#x101;" horiz-adv-x="1288" 
d="M401 319q0 -53 50.5 -84.5t148.5 -31.5t246 71v127q-94 45 -254 45q-191 0 -191 -127zM610 1073q545 0 545 -434v-639h-244l-28 92q-174 -117 -375 -117t-313.5 99.5t-112.5 251.5q0 117 70.5 193.5t165 104t235.5 27.5t293 -55v41q0 195 -328 194q-129 0 -350 -61v252
q172 51 442 51zM975 1212h-660v218h660v-218z" />
    <glyph glyph-name="Abreve" unicode="&#x102;" horiz-adv-x="1398" 
d="M461 510h450q-113 322 -227 586q-110 -254 -223 -586zM373 242q-65 -211 -74 -242h-330q229 748 504 1331h442q297 -627 515 -1331h-351l-78 242h-628zM690 1450q-311 0 -336 285h207q12 -57 41 -85t90 -28t88 26.5t39 86.5h207q-8 -123 -86 -204t-250 -81z" />
    <glyph glyph-name="abreve" unicode="&#x103;" horiz-adv-x="1288" 
d="M401 319q0 -53 50.5 -84.5t148.5 -31.5t246 71v127q-94 45 -254 45q-191 0 -191 -127zM610 1073q545 0 545 -434v-639h-244l-28 92q-174 -117 -375 -117t-313.5 99.5t-112.5 251.5q0 117 70.5 193.5t165 104t235.5 27.5t293 -55v41q0 195 -328 194q-129 0 -350 -61v252
q172 51 442 51zM645 1196q-311 0 -336 285h207q12 -57 41 -85t90 -28t88 26.5t39 86.5h207q-8 -123 -86 -204t-250 -81z" />
    <glyph glyph-name="Aogonek" unicode="&#x104;" horiz-adv-x="1398" 
d="M461 510h450q-113 322 -227 586q-110 -254 -223 -586zM1053 -158.5q0 -27.5 12 -36t47 -8.5q86 0 180 47l2 -176q-92 -41 -204 -41q-231 0 -232 156q0 78 69.5 141.5t147.5 87.5l-74 230h-628q-65 -211 -74 -242h-330q229 748 504 1331h442q297 -627 515 -1331h-166
q-96 -41 -153.5 -86t-57.5 -72.5z" />
    <glyph glyph-name="aogonek" unicode="&#x105;" horiz-adv-x="1288" 
d="M401 319q0 -53 50.5 -84.5t148.5 -31.5t246 71v127q-94 45 -254 45q-191 0 -191 -127zM1155 0h-57q-96 -41 -154 -86q-58 -44 -57.5 -72t12.5 -36.5t47 -8.5q86 0 180 47l2 -176q-92 -41 -204 -41q-231 0 -232 156q0 78 68.5 140.5t146.5 88.5l-24 80
q-174 -117 -375 -117t-313.5 99.5t-112.5 251.5q0 117 70.5 193.5t165 104t235.5 27.5t293 -55v41q0 195 -328 194q-129 0 -350 -61v252q172 51 442 51q545 0 545 -434v-639z" />
    <glyph glyph-name="Cacute" unicode="&#x106;" horiz-adv-x="1345" 
d="M891.5 1356q183.5 0 370.5 -58v-282q-188 61 -396 61t-330 -106.5t-122 -307t131 -306t315.5 -103.5t403.5 65v-299q-213 -45 -406 -45q-344 0 -560 171t-216 520q0 172 65.5 308t176 217t247.5 123t320.5 42zM913 1454h-237l151 297h293z" />
    <glyph glyph-name="cacute" unicode="&#x107;" horiz-adv-x="1132" 
d="M644.5 1073q230.5 0 406.5 -59v-264q-156 68 -314.5 67.5t-251 -73t-92.5 -218t99.5 -220.5t226.5 -75q182 0 332 48v-261q-201 -43 -344 -43q-283 0 -459 136.5t-176 404.5t171 412.5t401.5 144.5zM750 1210h-238l152 297h292z" />
    <glyph glyph-name="Ccircumflex" unicode="&#x108;" horiz-adv-x="1345" 
d="M891.5 1356q183.5 0 370.5 -58v-282q-188 61 -396 61t-330 -106.5t-122 -307t131 -306t315.5 -103.5t403.5 65v-299q-213 -45 -406 -45q-344 0 -560 171t-216 520q0 172 65.5 308t176 217t247.5 123t320.5 42zM1200 1454h-237l-140 150l-141 -150h-238l220 297h317z" />
    <glyph glyph-name="ccircumflex" unicode="&#x109;" horiz-adv-x="1132" 
d="M644.5 1073q230.5 0 406.5 -59v-264q-156 68 -314.5 67.5t-251 -73t-92.5 -218t99.5 -220.5t226.5 -75q182 0 332 48v-261q-201 -43 -344 -43q-283 0 -459 136.5t-176 404.5t171 412.5t401.5 144.5zM655 1360l-141 -150h-238l220 297h317l219 -297h-237z" />
    <glyph glyph-name="Cdotaccent" unicode="&#x10a;" horiz-adv-x="1345" 
d="M891.5 1356q183.5 0 370.5 -58v-282q-188 61 -396 61t-330 -106.5t-122 -307t131 -306t315.5 -103.5t403.5 65v-299q-213 -45 -406 -45q-344 0 -560 171t-216 520q0 172 65.5 308t176 217t247.5 123t320.5 42zM975 1446h-305v264h305v-264z" />
    <glyph glyph-name="cdotaccent" unicode="&#x10b;" horiz-adv-x="1132" 
d="M644.5 1073q230.5 0 406.5 -59v-264q-156 68 -314.5 67.5t-251 -73t-92.5 -218t99.5 -220.5t226.5 -75q182 0 332 48v-261q-201 -43 -344 -43q-283 0 -459 136.5t-176 404.5t171 412.5t401.5 144.5zM807 1200h-305v264h305v-264z" />
    <glyph glyph-name="Ccaron" unicode="&#x10c;" horiz-adv-x="1345" 
d="M891.5 1356q183.5 0 370.5 -58v-282q-188 61 -396 61t-330 -106.5t-122 -307t131 -306t315.5 -103.5t403.5 65v-299q-213 -45 -406 -45q-344 0 -560 171t-216 520q0 172 65.5 308t176 217t247.5 123t320.5 42zM981 1454h-317l-220 297h238l141 -149l140 149h237z" />
    <glyph glyph-name="ccaron" unicode="&#x10d;" horiz-adv-x="1132" 
d="M644.5 1073q230.5 0 406.5 -59v-264q-156 68 -314.5 67.5t-251 -73t-92.5 -218t99.5 -220.5t226.5 -75q182 0 332 48v-261q-201 -43 -344 -43q-283 0 -459 136.5t-176 404.5t171 412.5t401.5 144.5zM813 1210h-317l-220 297h238l141 -149l140 149h237z" />
    <glyph glyph-name="Dcaron" unicode="&#x10e;" horiz-adv-x="1488" 
d="M461 1063v-795h190q414 0 414 404q0 188 -106.5 289.5t-294.5 101.5h-203zM143 1331h531q300 0 498 -132q106 -71 165.5 -203t59.5 -316q-1 -184 -61 -320t-166 -212q-205 -149 -515 -148h-512v1331zM821 1454h-317l-219 297h237l142 -149l139 149h237z" />
    <glyph glyph-name="dcaron" unicode="&#x10f;" horiz-adv-x="1712" 
d="M393 526q0 -144 82 -218t210 -75q128 0 247 80v430q-123 76 -254 76t-208 -74q-77 -75 -77 -219zM1712 1415l-135 -399h-254l76 399h313zM932 1415h309v-1415h-229l-29 90q-166 -111 -356 -110q-236 0 -396 150q-159 150 -159 408q0 260 160 398q161 137 407 137
q145 0 293 -74v416z" />
    <glyph glyph-name="Dcroat" unicode="&#x110;" horiz-adv-x="1488" 
d="M461 268h190q414 0 414 404q0 188 -106.5 289.5t-294.5 101.5h-203v-266h235v-269h-235v-260zM143 1331h531q300 0 498 -132q106 -71 165.5 -203t59.5 -316q-1 -184 -61 -320t-166 -212q-205 -149 -515 -148h-512v528h-143v269h143v534z" />
    <glyph glyph-name="dcroat" unicode="&#x111;" horiz-adv-x="1374" 
d="M393 526q0 -144 82 -218t210 -75q128 0 247 80v430q-123 76 -254 76t-208 -74q-77 -75 -77 -219zM1419 1147h-178v-1147h-229l-29 90q-166 -111 -356 -110q-236 0 -396 150q-159 150 -159 408q0 260 160 398q161 137 407 137q145 0 293 -74v148h-266v184h266v84h309v-84
h178v-184z" />
    <glyph glyph-name="Emacron" unicode="&#x112;" horiz-adv-x="1284" 
d="M1178 1063h-717v-254h649v-258h-649v-283h731v-268h-1049v1331h1035v-268zM983 1479h-659v217h659v-217z" />
    <glyph glyph-name="emacron" unicode="&#x113;" horiz-adv-x="1253" 
d="M657 831q-241 0 -266 -227h473q-2 106 -55 166.5t-152 60.5zM1182 412h-793q10 -74 65.5 -119t116 -58.5t129.5 -13.5q195 0 426 72v-242q-240 -76 -434 -76q-293 0 -456.5 138.5t-163.5 409.5t170 410.5t420.5 139.5t385 -133t134.5 -385v-143zM979 1212h-660v218h660
v-218z" />
    <glyph glyph-name="Ebreve" unicode="&#x114;" horiz-adv-x="1284" 
d="M1178 1063h-717v-254h649v-258h-649v-283h731v-268h-1049v1331h1035v-268zM655 1450q-311 0 -336 285h207q12 -57 41 -85t90 -28t88 27t39 86h207q-8 -123 -86 -204t-250 -81z" />
    <glyph glyph-name="ebreve" unicode="&#x115;" horiz-adv-x="1253" 
d="M657 831q-241 0 -266 -227h473q-2 106 -55 166.5t-152 60.5zM1182 412h-793q10 -74 65.5 -119t116 -58.5t129.5 -13.5q195 0 426 72v-242q-240 -76 -434 -76q-293 0 -456.5 138.5t-163.5 409.5t170 410.5t420.5 139.5t385 -133t134.5 -385v-143zM649 1196
q-311 0 -336 285h207q12 -57 41 -85t90 -28t88 26.5t39 86.5h207q-8 -123 -86 -204t-250 -81z" />
    <glyph glyph-name="Edotaccent" unicode="&#x116;" horiz-adv-x="1284" 
d="M1178 1063h-717v-254h649v-258h-649v-283h731v-268h-1049v1331h1035v-268zM817 1446h-305v264h305v-264z" />
    <glyph glyph-name="edotaccent" unicode="&#x117;" horiz-adv-x="1253" 
d="M657 831q-241 0 -266 -227h473q-2 106 -55 166.5t-152 60.5zM1182 412h-793q10 -74 65.5 -119t116 -58.5t129.5 -13.5q195 0 426 72v-242q-240 -76 -434 -76q-293 0 -456.5 138.5t-163.5 409.5t170 410.5t420.5 139.5t385 -133t134.5 -385v-143zM801 1200h-305v264h305
v-264z" />
    <glyph glyph-name="Eogonek" unicode="&#x118;" horiz-adv-x="1284" 
d="M1192 0h-186q-96 -41 -154 -86q-58 -44 -57.5 -72t12.5 -36.5t47 -8.5q86 0 180 47l2 -176q-92 -41 -205 -41q-231 0 -231 156q0 70 55.5 127t128.5 90h-641v1331h1035v-268h-717v-254h649v-258h-649v-283h731v-268z" />
    <glyph glyph-name="eogonek" unicode="&#x119;" horiz-adv-x="1253" 
d="M657 831q-241 0 -266 -227h473q-2 106 -55 166.5t-152 60.5zM1182 412h-793q10 -74 65.5 -119t116 -58.5t129.5 -13.5q195 0 426 72v-242q-53 -18 -141 -39q-109 -41 -175.5 -90t-66.5 -88q0 -20 12.5 -28.5t47.5 -8.5q86 0 180 47l2 -176q-92 -41 -205 -41
q-231 0 -231 156q0 109 137 192q-291 2 -452.5 139.5t-161.5 408.5t170 410.5t420.5 139.5t385 -133t134.5 -385v-143z" />
    <glyph glyph-name="Ecaron" unicode="&#x11a;" horiz-adv-x="1284" 
d="M1178 1063h-717v-254h649v-258h-649v-283h731v-268h-1049v1331h1035v-268zM823 1454h-317l-219 297h237l142 -149l139 149h237z" />
    <glyph glyph-name="ecaron" unicode="&#x11b;" horiz-adv-x="1253" 
d="M657 831q-241 0 -266 -227h473q-2 106 -55 166.5t-152 60.5zM1182 412h-793q10 -74 65.5 -119t116 -58.5t129.5 -13.5q195 0 426 72v-242q-240 -76 -434 -76q-293 0 -456.5 138.5t-163.5 409.5t170 410.5t420.5 139.5t385 -133t134.5 -385v-143zM489 1210l-219 297h238
l141 -149l139 149h238l-219 -297h-318z" />
    <glyph glyph-name="Gcircumflex" unicode="&#x11c;" horiz-adv-x="1447" 
d="M893.5 1356q189.5 0 368.5 -58v-282q-211 61 -373 61q-229 0 -352 -106.5t-123 -311t122.5 -304t303.5 -99.5q96 0 180 27v422h305v-658q-270 -68 -516 -67q-299 0 -503 160q-104 81 -164 217.5t-60 312.5t64.5 311t175 215t246.5 120t325.5 40zM1143 1454h-238l-139 150
l-141 -150h-238l219 297h318z" />
    <glyph glyph-name="gcircumflex" unicode="&#x11d;" horiz-adv-x="1374" 
d="M685 233q128 0 247 80v428q-123 76 -254 76t-208 -72.5t-77 -217.5t82 -219.5t210 -74.5zM1241 1051v-961q0 -141 -49 -246.5t-136 -163.5q-169 -114 -424 -114t-454 67v261q234 -74 400 -74q354 0 354 217v24q-150 -82 -305 -81q-236 0 -395.5 148t-159.5 408
t160.5 397.5t406.5 137.5q186 0 346 -102l27 82h229zM512 1210h-238l220 297h317l219 -297h-237l-140 150z" />
    <glyph glyph-name="Gbreve" unicode="&#x11e;" horiz-adv-x="1447" 
d="M893.5 1356q189.5 0 368.5 -58v-282q-211 61 -373 61q-229 0 -352 -106.5t-123 -311t122.5 -304t303.5 -99.5q96 0 180 27v422h305v-658q-270 -68 -516 -67q-299 0 -503 160q-104 81 -164 217.5t-60 312.5t64.5 311t175 215t246.5 120t325.5 40zM756 1450
q-311 0 -336 285h207q12 -57 40.5 -85t90 -28t88.5 27t39 86h207q-8 -123 -86 -204t-250 -81z" />
    <glyph glyph-name="gbreve" unicode="&#x11f;" horiz-adv-x="1374" 
d="M685 233q128 0 247 80v428q-123 76 -254 76t-208 -72.5t-77 -217.5t82 -219.5t210 -74.5zM1241 1051v-961q0 -141 -49 -246.5t-136 -163.5q-169 -114 -424 -114t-454 67v261q234 -74 400 -74q354 0 354 217v24q-150 -82 -305 -81q-236 0 -395.5 148t-159.5 408
t160.5 397.5t406.5 137.5q186 0 346 -102l27 82h229zM653 1196q-311 0 -336 285h207q12 -57 41 -85t90 -28t88 26.5t39 86.5h207q-8 -123 -86 -204t-250 -81z" />
    <glyph glyph-name="Gdotaccent" unicode="&#x120;" horiz-adv-x="1447" 
d="M893.5 1356q189.5 0 368.5 -58v-282q-211 61 -373 61q-229 0 -352 -106.5t-123 -311t122.5 -304t303.5 -99.5q96 0 180 27v422h305v-658q-270 -68 -516 -67q-299 0 -503 160q-104 81 -164 217.5t-60 312.5t64.5 311t175 215t246.5 120t325.5 40zM918 1446h-306v264h306
v-264z" />
    <glyph glyph-name="gdotaccent" unicode="&#x121;" horiz-adv-x="1374" 
d="M685 233q128 0 247 80v428q-123 76 -254 76t-208 -72.5t-77 -217.5t82 -219.5t210 -74.5zM1241 1051v-961q0 -141 -49 -246.5t-136 -163.5q-169 -114 -424 -114t-454 67v261q234 -74 400 -74q354 0 354 217v24q-150 -82 -305 -81q-236 0 -395.5 148t-159.5 408
t160.5 397.5t406.5 137.5q186 0 346 -102l27 82h229zM805 1200h-305v264h305v-264z" />
    <glyph glyph-name="Gcommaaccent" unicode="&#x122;" horiz-adv-x="1447" 
d="M831 -512h-253l75 399h314zM893.5 1356q189.5 0 368.5 -58v-282q-211 61 -373 61q-229 0 -352 -106.5t-123 -311t122.5 -304t303.5 -99.5q96 0 180 27v422h305v-658q-270 -68 -516 -67q-299 0 -503 160q-104 81 -164 217.5t-60 312.5t64.5 311t175 215t246.5 120
t325.5 40z" />
    <glyph glyph-name="gcommaaccent" unicode="&#x123;" horiz-adv-x="1374" 
d="M685 233q128 0 247 80v428q-123 76 -254 76t-208 -72.5t-77 -217.5t82 -219.5t210 -74.5zM1241 1051v-961q0 -141 -49 -246.5t-136 -163.5q-169 -114 -424 -114t-454 67v261q234 -74 400 -74q354 0 354 217v24q-150 -82 -305 -81q-236 0 -395.5 148t-159.5 408
t160.5 397.5t406.5 137.5q186 0 346 -102l27 82h229zM772 1210h-313l135 400h254z" />
    <glyph glyph-name="Hcircumflex" unicode="&#x124;" horiz-adv-x="1509" 
d="M1366 0h-317v516h-588v-516h-318v1331h318v-547h588v547h317v-1331zM1133 1454h-238l-139 150l-142 -150h-237l219 297h317z" />
    <glyph glyph-name="hcircumflex" unicode="&#x125;" horiz-adv-x="1368" 
d="M1235 653v-653h-309v614q0 102 -42 152.5t-141 50.5q-166 0 -299 -98l-2 -719h-309v1415h311v-457q199 119 393.5 115t296 -98t101.5 -322zM379 1497h-238l219 297h318l219 -297h-238l-139 150z" />
    <glyph glyph-name="Hbar" unicode="&#x126;" horiz-adv-x="1509" 
d="M1049 979h-588v-195h588v195zM1509 979h-143v-979h-317v516h-588v-516h-318v979h-143v184h143v168h318v-168h588v168h317v-168h143v-184z" />
    <glyph glyph-name="hbar" unicode="&#x127;" horiz-adv-x="1368" 
d="M1235 653v-653h-309v614q0 102 -42 152.5t-141 50.5q-166 0 -299 -98l-2 -719h-309v1147h-176v184h176v84h311v-84h267v-184h-267v-189q199 119 393.5 115t296 -98t101.5 -322z" />
    <glyph glyph-name="Itilde" unicode="&#x128;" horiz-adv-x="604" 
d="M461 0h-318v1331h318v-1331zM416 1470q-61 0 -136 39t-106 39t-45 -16t-27 -57h-180q12 115 71.5 186.5t168.5 71.5q61 0 136 -39t105.5 -39t45 16.5t26.5 57.5h180q-12 -115 -71.5 -187t-167.5 -72z" />
    <glyph glyph-name="itilde" unicode="&#x129;" horiz-adv-x="575" 
d="M442 0h-309v1051h309v-1051zM416 1225q-61 0 -136 39t-106 39t-45 -16.5t-27 -57.5h-180q12 115 71.5 186.5t168.5 71.5q61 0 136 -39t105.5 -39t45 16.5t26.5 57.5h180q-12 -115 -71.5 -186.5t-167.5 -71.5z" />
    <glyph glyph-name="Imacron" unicode="&#x12a;" horiz-adv-x="604" 
d="M461 0h-318v1331h318v-1331zM621 1479h-660v217h660v-217z" />
    <glyph glyph-name="imacron" unicode="&#x12b;" horiz-adv-x="575" 
d="M442 0h-309v1051h309v-1051zM618 1212h-659v218h659v-218z" />
    <glyph glyph-name="Ibreve" unicode="&#x12c;" horiz-adv-x="604" 
d="M461 0h-318v1331h318v-1331zM293 1450q-311 0 -336 285h207q12 -57 40.5 -85t90 -28t88.5 27t39 86h207q-8 -123 -86 -204t-250 -81z" />
    <glyph glyph-name="ibreve" unicode="&#x12d;" horiz-adv-x="575" 
d="M442 0h-309v1051h309v-1051zM289 1196q-311 0 -336 285h207q12 -57 40.5 -85t90 -28t88.5 27t39 86h207q-8 -123 -86 -204t-250 -81z" />
    <glyph glyph-name="Iogonek" unicode="&#x12e;" horiz-adv-x="604" 
d="M461 0h-129q-96 -41 -154 -86q-58 -44 -57.5 -72t12.5 -36.5t47 -8.5q86 0 180 47l2 -176q-92 -41 -204 -41q-231 0 -232 156q0 78 70 141.5t147 87.5v1319h318v-1331z" />
    <glyph glyph-name="iogonek" unicode="&#x12f;" horiz-adv-x="575" 
d="M442 0h-120q-96 -41 -154 -86q-58 -44 -57.5 -72t12.5 -36.5t47 -8.5q86 0 180 47l2 -176q-92 -41 -205 -41q-231 0 -231 156q0 78 69.5 141.5t147.5 87.5v1039h309v-1051zM440 1200h-305v264h305v-264z" />
    <glyph glyph-name="Idotaccent" unicode="&#x130;" horiz-adv-x="604" 
d="M461 0h-318v1331h318v-1331zM455 1446h-305v264h305v-264z" />
    <glyph glyph-name="dotlessi" unicode="&#x131;" horiz-adv-x="575" 
d="M442 0h-309v1051h309v-1051z" />
    <glyph glyph-name="IJ" unicode="&#x132;" horiz-adv-x="1619" 
d="M1487 1331v-891q0 -219 -130 -339.5t-376 -120.5q-182 0 -367 45v278q166 -47 314 -47t194.5 58.5t46.5 187.5v829h318zM461 0h-318v1331h318v-1331z" />
    <glyph glyph-name="ij" unicode="&#x133;" horiz-adv-x="1159" 
d="M1026 1051v-1121q0 -186 -120 -275t-284 -89t-272 39v254q80 -39 186 -39t143 36q38 36 38 109v1086h309zM442 0h-309v1051h309v-1051zM1044 1200h-346v264h346v-264zM461 1200h-346v264h346v-264z" />
    <glyph glyph-name="Jcircumflex" unicode="&#x134;" horiz-adv-x="1015" 
d="M883 1331v-891q0 -219 -130 -339.5t-376 -120.5q-182 0 -367 45v278q164 -47 312 -47t195.5 58.5t47.5 187.5v829h318zM864 1454h-237l-140 150l-141 -150h-237l219 297h317z" />
    <glyph glyph-name="jcircumflex" unicode="&#x135;" horiz-adv-x="583" 
d="M451 1051v-1121q0 -186 -120 -275q-119 -89 -283 -89t-273 39v254q80 -39 185 -39t143 35.5t38 109.5v1086h310zM293 1360l-141 -150h-238l219 297h318l219 -297h-238z" />
    <glyph glyph-name="Kcommaaccent" unicode="&#x136;" horiz-adv-x="1423" 
d="M748 -512h-254l75 399h314zM971 1331h426q-383 -438 -537 -667q172 -163 360 -397q68 -85 137.5 -173t76.5 -94h-420q-233 317 -525 641q163 291 482 690zM461 0h-318v1331h318v-1331z" />
    <glyph glyph-name="kcommaaccent" unicode="&#x137;" horiz-adv-x="1257" 
d="M692 -512h-254l76 399h313zM846 1051h373q-262 -303 -412 -506q174 -160 471 -545h-377q-170 250 -438 526q197 312 383 525zM442 0h-309v1415h309v-1415z" />
    <glyph glyph-name="kgreenlandic" unicode="&#x138;" horiz-adv-x="1257" 
d="M846 1051h373q-262 -303 -412 -506q174 -160 471 -545h-377q-170 250 -438 526q197 312 383 525zM442 0h-309v1051h309v-1051z" />
    <glyph glyph-name="Lacute" unicode="&#x139;" horiz-adv-x="1097" 
d="M461 268h626v-268h-944v1331h318v-1063zM416 1454h-238l152 297h293z" />
    <glyph glyph-name="lacute" unicode="&#x13a;" horiz-adv-x="575" 
d="M442 0h-309v1415h309v-1415zM383 1497h-238l152 297h293z" />
    <glyph glyph-name="Lcommaaccent" unicode="&#x13b;" horiz-adv-x="1097" 
d="M645 -512h-254l76 399h313zM461 268h626v-268h-944v1331h318v-1063z" />
    <glyph glyph-name="lcommaaccent" unicode="&#x13c;" horiz-adv-x="575" 
d="M305 -512h-254l76 399h313zM442 0h-309v1415h309v-1415z" />
    <glyph glyph-name="Lcaron" unicode="&#x13d;" horiz-adv-x="1097" 
d="M874 932h-253l75 399h314zM461 268h626v-268h-944v1331h318v-1063z" />
    <glyph glyph-name="lcaron" unicode="&#x13e;" horiz-adv-x="974" 
d="M840 1016h-254l76 399h313zM442 0h-309v1415h309v-1415z" />
    <glyph glyph-name="Ldot" unicode="&#x13f;" horiz-adv-x="1097" 
d="M985 655h-332v318h332v-318zM461 268h626v-268h-944v1331h318v-1063z" />
    <glyph glyph-name="ldot" unicode="&#x140;" horiz-adv-x="933" 
d="M913 803h-331v317h331v-317zM442 0h-309v1415h309v-1415z" />
    <glyph glyph-name="Lslash" unicode="&#x141;" horiz-adv-x="1097" 
d="M1087 268v-268h-944v565l-143 -37v269l143 37v497h318v-420l358 90v-268l-358 -90v-375h626z" />
    <glyph glyph-name="lslash" unicode="&#x142;" horiz-adv-x="616" 
d="M463 0h-309v588l-195 -53v266l195 53v561h309v-475l194 53v-266l-194 -53v-674z" />
    <glyph glyph-name="Nacute" unicode="&#x143;" horiz-adv-x="1533" 
d="M1391 0h-316l-620 897v-897h-312v1329h367l569 -833v833h312v-1329zM889 1454h-238l152 297h293z" />
    <glyph glyph-name="nacute" unicode="&#x144;" horiz-adv-x="1368" 
d="M824.5 1073q205.5 0 308 -96t102.5 -324v-653h-309v614q0 102 -42 152.5t-141 50.5q-164 0 -301 -98v-719h-309v1051h250l33 -111q203 133 408.5 133zM778 1210h-237l151 297h293z" />
    <glyph glyph-name="Ncommaaccent" unicode="&#x145;" horiz-adv-x="1533" 
d="M864 -512h-254l76 399h313zM1391 0h-316l-620 897v-897h-312v1329h367l569 -833v833h312v-1329z" />
    <glyph glyph-name="ncommaaccent" unicode="&#x146;" horiz-adv-x="1368" 
d="M528 -113h314l-135 -399h-254zM824.5 1073q205.5 0 308 -96t102.5 -324v-653h-309v614q0 102 -42 152.5t-141 50.5q-164 0 -301 -98v-719h-309v1051h250l33 -111q203 133 408.5 133z" />
    <glyph glyph-name="Ncaron" unicode="&#x147;" horiz-adv-x="1533" 
d="M1391 0h-316l-620 897v-897h-312v1329h367l569 -833v833h312v-1329zM956 1454h-317l-219 297h237l142 -149l139 149h238z" />
    <glyph glyph-name="ncaron" unicode="&#x148;" horiz-adv-x="1368" 
d="M824.5 1073q205.5 0 308 -96t102.5 -324v-653h-309v614q0 102 -42 152.5t-141 50.5q-164 0 -301 -98v-719h-309v1051h250l33 -111q203 133 408.5 133zM524 1210l-219 297h238l141 -149l139 149h238l-219 -297h-318z" />
    <glyph glyph-name="napostrophe" unicode="&#x149;" horiz-adv-x="1552" 
d="M1008.5 1073q205.5 0 308 -96t102.5 -324v-653h-309v614q0 102 -42 152.5t-140 50.5q-164 0 -301 -98v-719h-310v1051h250l33 -111q203 133 408.5 133zM369 1415l-136 -399h-253l75 399h314z" />
    <glyph glyph-name="Eng" unicode="&#x14a;" horiz-adv-x="1533" 
d="M1391 1329v-1319q0 -286 -121 -404t-379 -118q-182 0 -367 45v279q164 -48 314 -48t198 56q49 56 49 170v10l-630 897v-897h-312v1329h367l569 -833v833h312z" />
    <glyph glyph-name="eng" unicode="&#x14b;" horiz-adv-x="1368" 
d="M824 1073q206 0 308 -96t103 -324v-723q0 -186 -120 -275q-119 -89 -283 -89t-273 39v254q79 -39 185 -39t144 36t38 109v649q0 102 -42 152t-141 51q-164 0 -301 -98v-719h-309v1051h250l33 -111q202 133 408 133z" />
    <glyph glyph-name="Omacron" unicode="&#x14c;" horiz-adv-x="1599" 
d="M799 1073q-166 0 -275.5 -105.5t-109.5 -305.5t114.5 -304t272 -104t271.5 104t114 304t-110.5 305.5t-276.5 105.5zM801 1356q133 0 257 -42t228.5 -122t168 -213t63.5 -309t-59.5 -315.5t-163 -219.5t-228.5 -120t-268.5 -40t-268 40t-227 120t-162 219.5t-59.5 315.5
t63.5 310t168 214t229.5 121t258 41zM1118 1479h-659v217h659v-217z" />
    <glyph glyph-name="omacron" unicode="&#x14d;" horiz-adv-x="1347" 
d="M671 817q-126 0 -202 -79t-76 -211t79 -214t205 -82t201.5 83t75.5 216t-78.5 210t-204.5 77zM675 1073q273 0 437 -143.5t164 -405.5t-164 -405.5t-437 -143.5t-438 142.5t-165 405.5t165 406.5t438 143.5zM1006 1212h-660v218h660v-218z" />
    <glyph glyph-name="Obreve" unicode="&#x14e;" horiz-adv-x="1599" 
d="M799 1073q-166 0 -275.5 -105.5t-109.5 -305t114.5 -304t272 -104.5t271.5 104.5t114 304t-110.5 305t-276.5 105.5zM801 1356q133 0 257 -42t228.5 -122t168 -213t63.5 -309t-59.5 -315.5t-163 -219.5t-228.5 -120t-268.5 -40t-268 40t-227 120t-162 219.5t-59.5 315.5
t63.5 310t168 214t229.5 121t258 41zM791 1450q-311 0 -336 285h207q12 -57 40.5 -85t90 -28t88.5 27t39 86h206q-8 -123 -85.5 -204t-249.5 -81z" />
    <glyph glyph-name="obreve" unicode="&#x14f;" horiz-adv-x="1347" 
d="M671 817q-126 0 -202 -79t-76 -211t79 -214t205 -82t201.5 83t75.5 216t-78.5 210t-204.5 77zM675 1073q273 0 437 -143.5t164 -405.5t-164 -405.5t-437 -143.5t-438 142.5t-165 405.5t165 406.5t438 143.5zM676 1196q-311 0 -336 285h207q12 -57 40.5 -85t90 -28
t88.5 27t39 86h207q-8 -123 -86 -204t-250 -81z" />
    <glyph glyph-name="Ohungarumlaut" unicode="&#x150;" horiz-adv-x="1599" 
d="M799 1073q-166 0 -275.5 -105.5t-109.5 -305.5t114.5 -304t272 -104t271.5 104t114 304t-110.5 305.5t-276.5 105.5zM801 1356q133 0 257 -42t228.5 -122t168 -213t63.5 -309t-59.5 -315.5t-163 -219.5t-228.5 -120t-268.5 -40t-268 40t-227 120t-162 219.5t-59.5 315.5
t63.5 310t168 214t229.5 121t258 41zM1108 1456h-231l151 297h293zM707 1456h-232l152 297h293z" />
    <glyph glyph-name="ohungarumlaut" unicode="&#x151;" horiz-adv-x="1347" 
d="M671 817q-126 0 -202 -79t-76 -211t79 -214t205 -82t201.5 83t75.5 216t-78.5 210t-204.5 77zM675 1073q273 0 437 -143.5t164 -405.5t-164 -405.5t-437 -143.5t-438 142.5t-165 405.5t165 406.5t438 143.5zM1010 1210h-232l152 297h293zM608 1210h-231l151 297h293z" />
    <glyph glyph-name="OE" unicode="&#x152;" horiz-adv-x="2125" 
d="M784 1073q-156 -1 -263 -107t-107 -304t112 -306q113 -106 262 -106q109 0 197 37v747q-90 39 -201 39zM2034 0h-1022q-111 -29 -239 -29t-250 40q-273 89 -382 344q-59 139 -59 315t62 310q112 242 390 335q122 41 244 41t226 -25h1015v-268h-716v-254h649v-258h-649
v-283h731v-268z" />
    <glyph glyph-name="oe" unicode="&#x153;" horiz-adv-x="2127" 
d="M393 528q0 -132 79 -212t205 -80t202 82q75 82 75 214q0 131 -78 208q-79 77 -205 77t-202 -79t-76 -210zM1532 831q-241 0 -266 -227h473q-1 106 -55 166t-152 61zM2056 412h-792q14 -104 105 -146t206 -41q195 0 426 72v-242q-240 -76 -434 -75q-299 0 -461 151
q-162 -151 -433 -151t-436 142t-165 403t165 405t437 143q272 0 436 -158q164 158 420 158t391 -133t135 -385v-143z" />
    <glyph glyph-name="Racute" unicode="&#x154;" horiz-adv-x="1417" 
d="M467 692h248q139 0 208.5 46t69.5 149q0 176 -284 176h-242v-371zM461 424v-424h-318v1331h627q294 0 435 -130q52 -48 86 -129t34 -185q0 -147 -91 -257t-233 -143q199 -208 381 -487h-397q-168 276 -311 424h-213zM778 1454h-237l151 297h293z" />
    <glyph glyph-name="racute" unicode="&#x155;" horiz-adv-x="872" 
d="M442 0h-309v1051h250l35 -115q193 133 418 137v-295q-209 2 -394 -104v-674zM592 1210h-238l152 297h293z" />
    <glyph glyph-name="Rcommaaccent" unicode="&#x156;" horiz-adv-x="1417" 
d="M565 -113h314l-136 -399h-254zM467 692h248q139 0 208.5 46t69.5 149q0 176 -284 176h-242v-371zM461 424v-424h-318v1331h627q294 0 435 -130q52 -48 86 -129t34 -185q0 -147 -91.5 -257t-232.5 -143q199 -209 381 -487h-397q-168 276 -311 424h-213z" />
    <glyph glyph-name="rcommaaccent" unicode="&#x157;" horiz-adv-x="872" 
d="M123 -113h313l-135 -399h-254zM442 0h-309v1051h250l35 -115q193 133 418 137v-295q-209 2 -394 -104v-674z" />
    <glyph glyph-name="Rcaron" unicode="&#x158;" horiz-adv-x="1417" 
d="M467 692h248q139 0 208.5 46t69.5 149q0 176 -284 176h-242v-371zM461 424v-424h-318v1331h627q294 0 435 -130q52 -48 86 -129t34 -185q0 -147 -91 -257t-233 -143q199 -208 381 -487h-397q-168 276 -311 424h-213zM528 1454l-219 297h238l141 -149l139 149h238
l-219 -297h-318z" />
    <glyph glyph-name="rcaron" unicode="&#x159;" horiz-adv-x="872" 
d="M442 0h-309v1051h250l35 -115q193 133 418 137v-295q-209 2 -394 -104v-674zM338 1210l-219 297h237l142 -149l139 149h237l-219 -297h-317z" />
    <glyph glyph-name="Sacute" unicode="&#x15a;" horiz-adv-x="1316" 
d="M680 1356q182 0 463 -68v-278q-188 46 -290.5 57.5t-195.5 11.5q-250 0 -249 -118q0 -74 137 -111l350 -92q340 -88 340 -361q0 -203 -149.5 -312.5t-428 -109.5t-555.5 74v289q330 -86 497 -86t237.5 26.5t70.5 88.5q0 94 -180 139l-338 86q-147 39 -227 134t-80 230
q0 400 598 400zM750 1454h-238l152 297h292z" />
    <glyph glyph-name="sacute" unicode="&#x15b;" horiz-adv-x="1120" 
d="M584.5 1073q234.5 0 396.5 -67v-246q-203 70 -371 69q-240 0 -239 -75q0 -31 25.5 -44t129.5 -34l213 -47q162 -37 236 -112t74 -195q0 -160 -129 -253.5t-408 -93.5q-96 0 -222 21.5t-198 46.5v254q215 -72 382 -72t217 20.5t50 58.5t-30.5 58.5t-128.5 40.5l-230 48
q-160 33 -220 109.5t-60 193.5q0 164 139 241.5t373.5 77.5zM643 1210h-237l151 297h293z" />
    <glyph glyph-name="Scircumflex" unicode="&#x15c;" horiz-adv-x="1316" 
d="M680 1356q182 0 463 -68v-278q-188 46 -290.5 57.5t-195.5 11.5q-250 0 -249 -118q0 -74 137 -111l350 -92q340 -88 340 -361q0 -203 -149.5 -312.5t-428 -109.5t-555.5 74v289q330 -86 497 -86t237.5 26.5t70.5 88.5q0 94 -180 139l-338 86q-147 39 -227 134t-80 230
q0 400 598 400zM1036 1454h-237l-140 150l-141 -150h-237l219 297h317z" />
    <glyph glyph-name="scircumflex" unicode="&#x15d;" horiz-adv-x="1120" 
d="M584.5 1073q234.5 0 396.5 -67v-246q-203 70 -371 69q-240 0 -239 -75q0 -31 25.5 -44t129.5 -34l213 -47q162 -37 236 -112t74 -195q0 -160 -129 -253.5t-408 -93.5q-96 0 -222 21.5t-198 46.5v254q215 -72 382 -72t217 20.5t50 58.5t-30.5 58.5t-128.5 40.5l-230 48
q-160 33 -220 109.5t-60 193.5q0 164 139 241.5t373.5 77.5zM549 1360l-141 -150h-238l219 297h318l219 -297h-238z" />
    <glyph glyph-name="Scedilla" unicode="&#x15e;" horiz-adv-x="1316" 
d="M1235 397q0 -178 -117 -285.5t-346 -129.5l-16 -48q154 -27 153 -167q0 -190 -235 -191q-88 0 -191 29v149q113 -35 192 -35t79 51.5t-88 51.5q-49 0 -86 -6l51 159q-264 2 -529 74v289q330 -86 497 -86t237.5 26.5t70.5 88.5q0 94 -180 139l-338 86q-147 39 -227 134
t-80 230q0 399 598 400q182 0 463 -68v-278q-188 46 -290.5 57.5t-195.5 11.5q-250 0 -249 -118q0 -74 137 -111l350 -92q340 -89 340 -361z" />
    <glyph glyph-name="scedilla" unicode="&#x15f;" horiz-adv-x="1120" 
d="M1049 322q0 -307 -431 -342l-16 -46q154 -27 154 -167q0 -190 -236 -191q-88 0 -190 29v149q113 -35 191.5 -35t78.5 51.5t-88 51.5q-49 0 -86 -6l53 159q-213 10 -387 68v254q215 -72 382 -72t217 20.5t50 58.5t-30.5 58.5t-128.5 40.5l-230 48q-160 33 -220 109.5
t-60 193.5q0 164 139 241.5t373.5 77.5t396.5 -67v-246q-203 70 -371 69q-240 0 -239 -75q0 -31 26 -44t129 -34l213 -47q162 -37 236 -111.5t74 -195.5z" />
    <glyph glyph-name="Scaron" unicode="&#x160;" horiz-adv-x="1316" 
d="M680 1356q182 0 463 -68v-278q-188 46 -290.5 57.5t-195.5 11.5q-250 0 -249 -118q0 -74 137 -111l350 -92q340 -88 340 -361q0 -203 -149.5 -312.5t-428 -109.5t-555.5 74v289q330 -86 497 -86t237.5 26.5t70.5 88.5q0 94 -180 139l-338 86q-147 39 -227 134t-80 230
q0 400 598 400zM817 1454h-317l-219 297h237l141 -149l140 149h237z" />
    <glyph glyph-name="scaron" unicode="&#x161;" horiz-adv-x="1120" 
d="M584.5 1073q234.5 0 396.5 -67v-246q-203 70 -371 69q-240 0 -239 -75q0 -31 25.5 -44t129.5 -34l213 -47q162 -37 236 -112t74 -195q0 -160 -129 -253.5t-408 -93.5q-96 0 -222 21.5t-198 46.5v254q215 -72 382 -72t217 20.5t50 58.5t-30.5 58.5t-128.5 40.5l-230 48
q-160 33 -220 109.5t-60 193.5q0 164 139 241.5t373.5 77.5zM707 1210h-318l-219 297h238l141 -149l139 149h238z" />
    <glyph glyph-name="Tcedilla" unicode="&#x162;" horiz-adv-x="1275" 
d="M653 -512h-254l76 399h313zM1235 1063h-438v-1063h-318v1063h-438v268h1194v-268z" />
    <glyph glyph-name="tcedilla" unicode="&#x163;" horiz-adv-x="845" 
d="M516 -512h-254l76 399h313zM795 1051v-246h-328v-410q0 -82 34 -123t121 -41t173 29v-246q-109 -39 -236 -39q-182 0 -291.5 85t-109.5 280v465h-178v246h190l35 268h262v-268h328z" />
    <glyph glyph-name="Tcaron" unicode="&#x164;" horiz-adv-x="1275" 
d="M1235 1063h-438v-1063h-318v1063h-438v268h1194v-268zM797 1454h-318l-219 297h238l141 -149l139 149h238z" />
    <glyph glyph-name="tcaron" unicode="&#x165;" horiz-adv-x="845" 
d="M795 1051v-246h-328v-410q0 -82 34 -123t121 -41t173 29v-246q-109 -39 -236 -39q-182 0 -291.5 85t-109.5 280v465h-178v246h190l35 268h262v-268h328zM864 1118h-254l76 400h313z" />
    <glyph glyph-name="Tbar" unicode="&#x166;" horiz-adv-x="1275" 
d="M797 1063v-266h231v-269h-231v-528h-318v528h-231v269h231v266h-438v268h1194v-268h-438z" />
    <glyph glyph-name="tbar" unicode="&#x167;" horiz-adv-x="845" 
d="M467 805v-82h328v-246h-328v-82q0 -82 34 -123t121 -41t173 29v-246q-109 -39 -236 -39q-182 0 -291.5 85t-109.5 280v137h-178v246h178v82h-178v246h190l35 268h262v-268h328v-246h-328z" />
    <glyph glyph-name="Utilde" unicode="&#x168;" horiz-adv-x="1511" 
d="M1378 1331v-721q0 -635 -626 -635q-618 0 -619 635v721h318v-723q0 -174 80.5 -262t224 -88t224.5 88t81 262v723h317zM868 1470q-61 0 -136 39t-105.5 39t-45 -16t-26.5 -57h-180q12 115 71.5 186.5t167.5 71.5q61 0 136 -39t106 -39t45.5 16.5t26.5 57.5h180
q-12 -115 -71.5 -187t-168.5 -72z" />
    <glyph glyph-name="utilde" unicode="&#x169;" horiz-adv-x="1347" 
d="M1214 1051v-1051h-249l-33 111q-205 -135 -399.5 -135.5t-297 96t-102.5 325.5v654h309v-615q0 -102 42 -153.5t141 -51.5q141 0 280 101v719h309zM559 1303q-31 0 -45 -16.5t-27 -57.5h-180q12 115 71.5 186.5t168.5 71.5q61 0 136 -39t105.5 -39t45 16.5t26.5 57.5h180
q-12 -115 -71.5 -186.5t-167.5 -71.5q-61 0 -136 39t-106 39z" />
    <glyph glyph-name="Umacron" unicode="&#x16a;" horiz-adv-x="1511" 
d="M1378 1331v-721q0 -635 -626 -635q-618 0 -619 635v721h318v-723q0 -174 80.5 -262t224 -88t224.5 88t81 262v723h317zM1073 1479h-659v217h659v-217z" />
    <glyph glyph-name="umacron" unicode="&#x16b;" horiz-adv-x="1347" 
d="M1214 1051v-1051h-249l-33 111q-206 -135 -400 -135t-296.5 96t-102.5 325v654h309v-615q0 -102 42 -153.5t141 -51.5q141 0 280 101v719h309zM1004 1212h-660v218h660v-218z" />
    <glyph glyph-name="Ubreve" unicode="&#x16c;" horiz-adv-x="1511" 
d="M1378 1331v-721q0 -635 -626 -635q-618 0 -619 635v721h318v-723q0 -174 80.5 -262t224 -88t224.5 88t81 262v723h317zM745 1450q-311 0 -335 285h206q12 -57 41 -85t90 -28t88 27t39 86h207q-8 -123 -85.5 -204t-250.5 -81z" />
    <glyph glyph-name="ubreve" unicode="&#x16d;" horiz-adv-x="1347" 
d="M1214 1051v-1051h-249l-33 111q-206 -135 -400 -135t-296.5 96t-102.5 325v654h309v-615q0 -102 42 -153.5t141 -51.5q141 0 280 101v719h309zM674 1196q-311 0 -336 285h207q12 -57 40.5 -85t90.5 -28t88.5 26.5t38.5 86.5h207q-8 -123 -86 -204t-250 -81z" />
    <glyph glyph-name="Uring" unicode="&#x16e;" horiz-adv-x="1511" 
d="M1378 1331v-721q0 -635 -626 -635q-618 0 -619 635v721h318v-723q0 -174 80.5 -262t224 -88t224.5 88t81 262v723h317zM755.5 1681q-100.5 0 -100.5 -73.5t100.5 -73.5t100.5 73.5t-100.5 73.5zM755.5 1419q-106.5 0 -165 51.5t-58.5 137.5t58.5 137t165 51t165 -51
t58.5 -137t-58.5 -137.5t-165 -51.5z" />
    <glyph glyph-name="uring" unicode="&#x16f;" horiz-adv-x="1347" 
d="M1214 1051v-1051h-249l-33 111q-206 -135 -400 -135t-296.5 96t-102.5 325v654h309v-615q0 -102 42 -153.5t141 -51.5q141 0 280 101v719h309zM673.5 1438q-100.5 0 -100.5 -74t100.5 -74t100.5 74t-100.5 74zM673.5 1176q-106.5 0 -164.5 51t-58 137t58 137t164.5 51
t165 -51t58.5 -137t-58.5 -137t-165 -51z" />
    <glyph glyph-name="Uhungarumlaut" unicode="&#x170;" horiz-adv-x="1511" 
d="M1378 1331v-721q0 -635 -626 -635q-618 0 -619 635v721h318v-723q0 -174 80.5 -262t224 -88t224.5 88t81 262v723h317zM1063 1456h-232l152 297h293zM662 1456h-232l152 297h292z" />
    <glyph glyph-name="uhungarumlaut" unicode="&#x171;" horiz-adv-x="1347" 
d="M905 1051h309v-1051h-249l-33 111q-206 -135 -400 -135t-296.5 96t-102.5 325v654h309v-615q0 -102 42 -153.5t141 -51.5q141 0 280 101v719zM776 1210l152 297h293l-213 -297h-232zM606 1210h-231l151 297h293z" />
    <glyph glyph-name="Uogonek" unicode="&#x172;" horiz-adv-x="1511" 
d="M1378 1331v-721q0 -512 -407 -610q-93 -41 -151 -86q-58 -44 -58 -72t12 -36.5t47 -8.5q86 0 180 47l3 -176q-92 -41 -205 -41q-231 0 -232 156q0 113 140 192q-573 27 -574 635v721h318v-723q0 -174 80.5 -262t224 -88t224.5 88t81 262v723h317z" />
    <glyph glyph-name="uogonek" unicode="&#x173;" horiz-adv-x="1347" 
d="M1214 1051v-1051h-28q-219 -92 -219 -166q-1 -53 75 -53t170 47l2 -154q-92 -41 -206 -41t-164.5 36t-50.5 109t52 132t120 90l-33 111q-206 -135 -400 -135t-296.5 96t-102.5 325v654h309v-615q0 -102 42 -153.5t141 -51.5q141 0 280 101v719h309z" />
    <glyph glyph-name="Wcircumflex" unicode="&#x174;" horiz-adv-x="1921" 
d="M1595 1331h316q-121 -659 -289 -1331h-440q-160 494 -221 760q-55 -221 -230 -760h-430q-162 653 -291 1331h318q78 -537 202 -1007q182 512 258 825h349q74 -299 256 -825q124 470 202 1007zM1337 1454h-237l-139 150l-142 -150h-237l219 297h317z" />
    <glyph glyph-name="wcircumflex" unicode="&#x175;" horiz-adv-x="1802" 
d="M745 1051h312q0 -4 70 -294t147 -478q57 147 121.5 395t91.5 377h325q-54 -239 -167 -556t-203 -495h-336q-145 369 -205 594q-66 -248 -205 -594h-338q-90 178 -196 477t-172 574h325q27 -129 91.5 -377t121.5 -395q81 198 149 483t68 289zM901 1360l-141 -150h-238
l219 297h318l219 -297h-238z" />
    <glyph glyph-name="Ycircumflex" unicode="&#x176;" horiz-adv-x="1294" 
d="M801 0h-316v444q-129 176 -203.5 301t-114.5 195q-61 108 -127.5 243.5t-70.5 147.5h361q20 -63 128.5 -278t184.5 -314q109 141 318 592h364q-53 -115 -208.5 -388t-315.5 -505v-438zM1024 1454h-238l-139 150l-141 -150h-238l219 297h318z" />
    <glyph glyph-name="ycircumflex" unicode="&#x177;" horiz-adv-x="1208" 
d="M893 1051h336q-72 -203 -301.5 -709t-403.5 -752h-321q147 238 241 408q-143 268 -287.5 609t-176.5 444h335q35 -123 283 -758q156 326 295 758zM463 1210h-238l219 297h318l219 -297h-238l-139 150z" />
    <glyph glyph-name="Ydieresis" unicode="&#x178;" horiz-adv-x="1294" 
d="M801 0h-316v444q-129 176 -203.5 301t-114.5 195q-61 108 -127.5 243.5t-70.5 147.5h361q20 -63 128.5 -278t184.5 -314q109 141 318 592h364q-53 -115 -208.5 -388t-315.5 -505v-438zM1034 1446h-305v264h305v-264zM563 1446h-305v264h305v-264z" />
    <glyph glyph-name="Zacute" unicode="&#x179;" horiz-adv-x="1280" 
d="M1202 268v-268h-1141v180l711 883h-680v268h1127v-180l-711 -883h694zM731 1454h-237l151 297h293z" />
    <glyph glyph-name="zacute" unicode="&#x17a;" horiz-adv-x="1169" 
d="M1087 246v-246h-1005v201l598 604h-582v246h985v-201l-598 -604h602zM698 1210h-237l151 297h293z" />
    <glyph glyph-name="Zdotaccent" unicode="&#x17b;" horiz-adv-x="1280" 
d="M1202 268v-268h-1141v180l711 883h-680v268h1127v-180l-711 -883h694zM793 1446h-306v264h306v-264z" />
    <glyph glyph-name="zdotaccent" unicode="&#x17c;" horiz-adv-x="1169" 
d="M1087 246v-246h-1005v201l598 604h-582v246h985v-201l-598 -604h602zM756 1200h-305v264h305v-264z" />
    <glyph glyph-name="Zcaron" unicode="&#x17d;" horiz-adv-x="1280" 
d="M1202 268v-268h-1141v180l711 883h-680v268h1127v-180l-711 -883h694zM799 1454h-318l-219 297h238l141 -149l139 149h238z" />
    <glyph glyph-name="zcaron" unicode="&#x17e;" horiz-adv-x="1169" 
d="M1087 246v-246h-1005v201l598 604h-582v246h985v-201l-598 -604h602zM762 1210h-318l-219 297h238l141 -149l139 149h238z" />
    <glyph glyph-name="longs" unicode="&#x17f;" horiz-adv-x="792" 
d="M602 1481q127 0 223 -35v-250q-75 31 -165 31t-122 -28t-32 -101v-1098h-309v805h-217v246h217v65q0 186 113 276q114 89 292 89z" />
    <glyph glyph-name="Schwa" unicode="&#x18f;" horiz-adv-x="1558" 
d="M786 254q139 0 236 69q96 69 113 216h-701q0 -100 60 -168q102 -117 292 -117zM768 1356q326 0 517 -169t192 -505q1 -182 -55 -322t-153 -221q-194 -164 -496 -164t-497 173t-194 532v127h1055q-49 266 -371 266q-217 0 -514 -61v288q293 56 516 56z" />
    <glyph glyph-name="florin" unicode="&#x192;" horiz-adv-x="1003" 
d="M778 1102q-74 0 -102 -29q-29 -29 -39 -100l-8 -47h325l-34 -246h-326l-84 -576q-53 -365 -436 -364q-106 0 -238 35l35 250q117 -31 191 -31t102 29q29 29 39 100l82 557h-217l34 246h217l11 65q51 365 436 365q106 0 238 -35l-35 -250q-117 31 -191 31z" />
    <glyph glyph-name="Aringacute" unicode="&#x1fa;" horiz-adv-x="1398" 
d="M461 510h450q-113 322 -227 586q-110 -254 -223 -586zM373 242q-65 -211 -74 -242h-330q229 748 504 1331h442q297 -627 515 -1331h-351l-78 242h-628zM700.5 1681q-100.5 0 -100.5 -73.5t100.5 -73.5t100.5 73.5t-100.5 73.5zM700.5 1419q-106.5 0 -165 51.5
t-58.5 137.5t58.5 137t165 51t165 -51t58.5 -137t-58.5 -137.5t-165 -51.5zM819 1870h-237l151 297h293z" />
    <glyph glyph-name="aringacute" unicode="&#x1fb;" horiz-adv-x="1288" 
d="M401 319q0 -53 50.5 -84.5t148.5 -31.5t246 71v127q-94 45 -254 45q-191 0 -191 -127zM610 1073q545 0 545 -434v-639h-244l-28 92q-174 -117 -375 -117t-313.5 99.5t-112.5 251.5q0 117 70.5 193.5t165 104t235.5 27.5t293 -55v41q0 195 -328 194q-129 0 -350 -61v252
q172 51 442 51zM645 1438q-100 0 -100 -74t100 -74t100 74t-100 74zM645.5 1176q-106.5 0 -165 51t-58.5 137t58.5 137t165 51t164.5 -51t58 -137t-58 -137t-164.5 -51zM760 1630h-238l152 297h293z" />
    <glyph glyph-name="AEacute" unicode="&#x1fc;" horiz-adv-x="2091" 
d="M1032 510l2 565q-203 -270 -395 -565h393zM1999 268v-268h-967v242h-563q-51 -82 -145 -242h-365q520 864 922 1331h1104v-268h-635v-254h567v-258h-567v-283h649zM1528 1454h-238l152 297h293z" />
    <glyph glyph-name="aeacute" unicode="&#x1fd;" horiz-adv-x="2029" 
d="M583 446q-181 0 -182 -127q0 -53 50.5 -84.5t158 -31.5t277.5 94q-16 41 -27 98q-96 51 -277 51zM1434 831q-240 0 -267 -227h473q-2 106 -55 166.5t-151 60.5zM1438.5 1073q248.5 0 384 -133t135.5 -385v-143h-793q14 -104 106.5 -147.5t205.5 -43.5q195 0 426 72v-242
q-240 -76 -435 -76q-309 0 -475 158q-223 -158 -491 -158q-195 0 -307.5 99.5t-112.5 251.5q0 117 70.5 193.5t165 104t235.5 27.5t293 -55v41q0 195 -328 194q-129 0 -350 -61v252q172 51 454.5 51t413.5 -145q154 145 402.5 145zM1190 1210h-238l152 297h293z" />
    <glyph glyph-name="Oslashacute" unicode="&#x1fe;" horiz-adv-x="1599" 
d="M801 254q158 0 271.5 104.5t113.5 317.5q0 109 -41 194l-496 -589q72 -27 152 -27zM414 676q0 -127 47 -225l500 591q-74 31 -162 31q-166 0 -275.5 -105.5t-109.5 -291.5zM1518 678q0 -184 -60 -324q-58 -140 -162 -219q-207 -160 -497 -160q-193 0 -350 70l-103 -123
l-194 162l92 109q-162 182 -162 485q0 168 64 302t168 214q212 162 487 162q188 0 354 -80l98 115l195 -162l-90 -107q160 -176 160 -444zM891 1454h-238l152 297h293z" />
    <glyph glyph-name="oslashacute" unicode="&#x1ff;" horiz-adv-x="1347" 
d="M680 231q123 0 198.5 83t75.5 210q0 76 -26 140l-353 -416q50 -17 105 -17zM393 524q0 -78 31 -139l352 416q-53 16 -108 16q-123 0 -199 -79t-76 -214zM1276 513q0 -251 -164 -394.5t-436 -143.5q-166 0 -289 52l-92 -111l-162 125l82 96q-143 147 -143 398t164.5 394.5
t439.5 143.5q156 0 287 -51l90 106l161 -124l-79 -95q141 -145 141 -396zM770 1210h-238l152 297h293z" />
    <glyph glyph-name="Scommaaccent" unicode="&#x218;" horiz-adv-x="1316" 
d="M756 -512h-254l76 399h313zM680 1356q182 0 463 -68v-278q-188 46 -290.5 57.5t-195.5 11.5q-250 0 -249 -118q0 -74 137 -111l350 -92q340 -88 340 -361q0 -203 -149.5 -312.5t-428 -109.5t-555.5 74v289q330 -86 497 -86t237.5 26.5t70.5 88.5q0 94 -180 139l-338 86
q-147 39 -227 134t-80 230q0 400 598 400z" />
    <glyph glyph-name="scommaaccent" unicode="&#x219;" horiz-adv-x="1120" 
d="M602 -512h-254l76 399h313zM584.5 1073q234.5 0 396.5 -67v-246q-203 70 -371 69q-240 0 -239 -75q0 -31 25.5 -44t129.5 -34l213 -47q162 -37 236 -112t74 -195q0 -160 -129 -253.5t-408 -93.5q-96 0 -222 21.5t-198 46.5v254q215 -72 382 -72t217 20.5t50 58.5
t-30.5 58.5t-128.5 40.5l-230 48q-160 33 -220 109.5t-60 193.5q0 164 139 241.5t373.5 77.5z" />
    <glyph glyph-name="uni021A" unicode="&#x21a;" horiz-adv-x="1275" 
d="M653 -512h-254l76 399h313zM1235 1063h-438v-1063h-318v1063h-438v268h1194v-268z" />
    <glyph glyph-name="uni021B" unicode="&#x21b;" horiz-adv-x="845" 
d="M516 -512h-254l76 399h313zM795 1051v-246h-328v-410q0 -82 34 -123t121 -41t173 29v-246q-109 -39 -236 -39q-182 0 -291.5 85t-109.5 280v465h-178v246h190l35 268h262v-268h328z" />
    <glyph glyph-name="dotlessj" unicode="&#x237;" horiz-adv-x="583" 
d="M451 1051v-1121q0 -186 -120 -275q-119 -89 -283 -89t-273 39v254q80 -39 185 -39t143 35.5t38 109.5v1086h310z" />
    <glyph glyph-name="schwa" unicode="&#x259;" horiz-adv-x="1243" 
d="M586 221q240 0 266 228h-473q1 -106 55 -167t152 -61zM573 1073q283 0 441 -134q158 -135 158 -407t-166 -412t-421 -140q-522 0 -524 559v102h793q-20 186 -289 186q-197 0 -448 -59v242q253 63 456 63z" />
    <glyph glyph-name="uni02BC" unicode="&#x2bc;" horiz-adv-x="512" 
d="M315 1016h-254l76 399h314z" />
    <glyph glyph-name="circumflex" unicode="&#x2c6;" horiz-adv-x="878" 
d="M440 1360l-141 -150h-238l220 297h317l219 -297h-237z" />
    <glyph glyph-name="caron" unicode="&#x2c7;" horiz-adv-x="878" 
d="M598 1210h-317l-220 297h238l141 -149l140 149h237z" />
    <glyph glyph-name="firsttonechinese" unicode="&#x2c9;" horiz-adv-x="782" 
d="M721 1212h-660v218h660v-218z" />
    <glyph glyph-name="breve" unicode="&#x2d8;" horiz-adv-x="794" 
d="M397 1196q-311 0 -336 285h207q12 -57 41 -85t90 -28t88 27t39 86h207q-8 -123 -86 -204t-250 -81z" />
    <glyph glyph-name="dotaccent" unicode="&#x2d9;" horiz-adv-x="428" 
d="M367 1200h-306v264h306v-264z" />
    <glyph glyph-name="ring" unicode="&#x2da;" horiz-adv-x="569" 
d="M284.5 1438q-100.5 0 -100.5 -74t100.5 -74t100.5 74t-100.5 74zM284.5 1176q-106.5 0 -165 51t-58.5 137t58.5 137t165 51t165 -51t58.5 -137t-58.5 -137t-165 -51z" />
    <glyph glyph-name="ogonek" unicode="&#x2db;" horiz-adv-x="559" 
d="M256 -166q0 -20 12 -28t47 -9q86 0 181 47l2 -176q-92 -41 -205 -41q-231 0 -232 156q0 78 70 141t148 88h219q-110 -41 -176 -90t-66 -88z" />
    <glyph glyph-name="tilde" unicode="&#x2dc;" horiz-adv-x="856" 
d="M313 1303q-31 -1 -45 -17t-26 -57h-181q11 115 71 187t169 71q61 0 136 -39t106 -39q31 1 45 17t26 57h181q-11 -115 -71 -187t-169 -71q-61 0 -136 39t-106 39z" />
    <glyph glyph-name="hungarumlaut" unicode="&#x2dd;" horiz-adv-x="968" 
d="M694 1210h-231l151 297h293zM293 1210h-232l152 297h293z" />
    <glyph glyph-name="uni0312" unicode="&#x312;" horiz-adv-x="0" 
d="M197 1610h254l-76 -400h-314z" />
    <glyph glyph-name="uni0326" unicode="&#x326;" horiz-adv-x="0" 
d="M315 -512h-254l76 399h314z" />
    <glyph glyph-name="uni0374" unicode="&#x374;" horiz-adv-x="522" 
d="M61 1069l70 440h330l-193 -440h-207z" />
    <glyph glyph-name="uni0375" unicode="&#x375;" horiz-adv-x="522" 
d="M461 145l-70 -440h-330l193 440h207z" />
    <glyph glyph-name="uni037E" unicode="&#x37e;" horiz-adv-x="585" 
d="M43 -268l115 585h331l-176 -585h-270zM162 666v317h332v-317h-332z" />
    <glyph glyph-name="tonos" unicode="&#x384;" horiz-adv-x="522" 
d="M61 1212l70 338h330l-193 -338h-207z" />
    <glyph glyph-name="dieresistonos" unicode="&#x385;" horiz-adv-x="1265" 
d="M899 1212v265h305v-265h-305zM61 1212v265h306v-265h-306zM471 1212l49 338h330l-172 -338h-207z" />
    <glyph glyph-name="Alphatonos" unicode="&#x386;" horiz-adv-x="1398" 
d="M461 510h450q-113 322 -227 586q-110 -254 -223 -586zM1001 242h-628l-74 -242h-330q109 352 235 685t197 491l72 155h442q291 -606 515 -1331h-351zM-72 993l70 338h330l-193 -338h-207z" />
    <glyph glyph-name="anoteleia" unicode="&#x387;" horiz-adv-x="516" 
d="M92 733v318h332v-318h-332z" />
    <glyph glyph-name="Epsilontonos" unicode="&#x388;" horiz-adv-x="1284" 
d="M461 1063v-254h649v-258h-649v-283h731v-268h-1049v1331h1035v-268h-717zM-399 993l69 338h330l-193 -338h-206z" />
    <glyph glyph-name="Etatonos" unicode="&#x389;" horiz-adv-x="1509" 
d="M1049 0v516h-588v-516h-318v1331h318v-547h588v547h317v-1331h-317zM-399 993l69 338h330l-193 -338h-206z" />
    <glyph glyph-name="Iotatonos" unicode="&#x38a;" horiz-adv-x="604" 
d="M143 0v1331h318v-1331h-318zM-399 993l69 338h330l-193 -338h-206z" />
    <glyph glyph-name="Omicrontonos" unicode="&#x38c;" horiz-adv-x="1599" 
d="M799 1073q-166 0 -276 -105q-109 -105 -109 -305t114 -305q115 -104 273 -104q157 0 271 104t114 304t-110 306t-277 105zM-201 993l70 338h330l-193 -338h-207zM801 1356q133 0 257 -42q281 -95 396 -335q64 -133 64 -309t-60 -316t-162 -219q-104 -80 -229 -120
t-268 -40t-269 40q-282 90 -389 339q-59 140 -59 316t63 310q114 243 398 335q125 41 258 41z" />
    <glyph glyph-name="Upsilontonos" unicode="&#x38e;" horiz-adv-x="1294" 
d="M801 0h-316v444q-131 178 -252 382t-168 305q-48 100 -71 147t-25 53h361q20 -63 129 -278t184 -314q109 141 318 592h364q-53 -115 -209 -388t-315 -505v-438zM-477 993l69 338h330l-192 -338h-207z" />
    <glyph glyph-name="Omegatonos" unicode="&#x38f;" horiz-adv-x="1556" 
d="M-221 993l69 338h330l-192 -338h-207zM784 1356q334 0 522 -184t189 -480q0 -295 -195 -444h205v-248h-614v260q272 143 272 426q0 184 -100 286q-99 102 -279 101q-180 0 -285 -95t-106 -296q0 -285 273 -422v-260h-615v248h205q-88 66 -141 180t-54 256q0 316 194 494
q195 178 529 178z" />
    <glyph glyph-name="iotadieresistonos" unicode="&#x390;" horiz-adv-x="811" 
d="M432 1051v-656q0 -82 34 -123t121 -41t173 29v-246q-109 -39 -236 -39q-182 0 -292 85t-109 280v711h309zM575 1212v265h306v-265h-306zM-262 1212v265h305v-265h-305zM147 1212l50 338h329l-172 -338h-207z" />
    <glyph glyph-name="Alpha" unicode="&#x391;" horiz-adv-x="1398" 
d="M461 510h450q-113 322 -227 586q-110 -254 -223 -586zM1001 242h-628l-74 -242h-330q109 352 235 685t197 491l72 155h442q291 -606 515 -1331h-351z" />
    <glyph glyph-name="Beta" unicode="&#x392;" horiz-adv-x="1437" 
d="M461 256h305q127 0 187 34q61 34 61 121t-69 119t-202 33h-282v-307zM461 791h241q117 1 184 31q66 30 66 115t-65 112q-66 27 -176 26h-250v-284zM143 1331h547q596 0 596 -340q0 -94 -59 -176t-176 -123v-6q119 -18 207 -97t88 -200q0 -389 -578 -389h-625v1331z" />
    <glyph glyph-name="Gamma" unicode="&#x393;" horiz-adv-x="1218" 
d="M461 0h-318v1331h994v-268h-676v-1063z" />
    <glyph glyph-name="Delta" unicode="&#x394;" horiz-adv-x="1490" 
d="M428 268h612q-145 442 -309 828q-160 -371 -303 -828zM1419 0h-1345v180q100 311 212 599t173 421l61 131h443q248 -520 456 -1151v-180z" />
    <glyph glyph-name="Epsilon" unicode="&#x395;" horiz-adv-x="1284" 
d="M461 1063v-254h649v-258h-649v-283h731v-268h-1049v1331h1035v-268h-717z" />
    <glyph glyph-name="Zeta" unicode="&#x396;" horiz-adv-x="1280" 
d="M1202 268v-268h-1141v180l711 883h-680v268h1127v-180l-711 -883h694z" />
    <glyph glyph-name="Eta" unicode="&#x397;" horiz-adv-x="1509" 
d="M1049 0v516h-588v-516h-318v1331h318v-547h588v547h317v-1331h-317z" />
    <glyph glyph-name="Theta" unicode="&#x398;" horiz-adv-x="1599" 
d="M537 776h524v-221h-524v221zM799 1073q-166 0 -276 -105q-109 -105 -109 -305t114 -307q115 -106 273 -106q157 0 271 106t114 306t-110 306t-277 105zM801 1356q133 0 257 -42q281 -95 396 -335q64 -133 64 -309t-60 -316t-162 -221q-104 -82 -229 -122t-268 -40
t-269 40q-280 89 -389 343q-59 140 -59 316t63 310q114 243 398 335q125 41 258 41z" />
    <glyph glyph-name="Iota" unicode="&#x399;" horiz-adv-x="604" 
d="M143 0v1331h318v-1331h-318z" />
    <glyph glyph-name="Kappa" unicode="&#x39a;" horiz-adv-x="1423" 
d="M971 1331h426q-383 -438 -537 -667q202 -193 498 -570q70 -88 76 -94h-420q-233 317 -525 641q163 291 482 690zM143 0v1331h318v-1331h-318z" />
    <glyph glyph-name="Lambda" unicode="&#x39b;" horiz-adv-x="1439" 
d="M705 1096q-193 -449 -386 -1096h-329q109 352 234 685q126 333 198 491l72 155h442q291 -606 514 -1331h-350q-200 647 -395 1096z" />
    <glyph glyph-name="Mu" unicode="&#x39c;" horiz-adv-x="1863" 
d="M1155 1331h459q102 -530 178 -1331h-309q-51 580 -123 1016q-164 -475 -279 -891h-299q-115 416 -278 891q-72 -436 -123 -1016h-309q76 801 178 1331h459q195 -618 223 -747q33 145 223 747z" />
    <glyph glyph-name="Nu" unicode="&#x39d;" horiz-adv-x="1533" 
d="M455 0h-312v1329h367l569 -833v833h312v-1329h-316l-620 897v-897z" />
    <glyph glyph-name="Xi" unicode="&#x39e;" horiz-adv-x="1333" 
d="M92 289h1149v-289h-1149v289zM174 819h985v-278h-985v278zM106 1331h1121v-289h-1121v289z" />
    <glyph glyph-name="Omicron" unicode="&#x39f;" horiz-adv-x="1599" 
d="M799 1073q-166 0 -276 -105q-109 -105 -109 -305t114 -305q115 -104 273 -104q157 0 271 104t114 304t-110 306t-277 105zM801 1356q133 0 257 -42q281 -95 396 -335q64 -133 64 -309t-60 -316t-162 -219q-104 -80 -229 -120t-268 -40t-269 40q-282 90 -389 339
q-59 140 -59 316t63 310q114 243 398 335q125 41 258 41z" />
    <glyph glyph-name="Pi" unicode="&#x3a0;" horiz-adv-x="1488" 
d="M1028 0v1063h-567v-1063h-318v1331h1203v-1331h-318z" />
    <glyph glyph-name="Rho" unicode="&#x3a1;" horiz-adv-x="1411" 
d="M461 635h274q135 0 207 46t72 170t-74 168t-211 44h-268v-428zM143 1331h619q584 0 584 -481q0 -134 -54 -232t-141 -150q-174 -103 -387 -101h-303v-367h-318v1331z" />
    <glyph glyph-name="Sigma" unicode="&#x3a3;" horiz-adv-x="1263" 
d="M1202 279v-279h-1132v236l346 387l-355 446v262h1141v-280h-694l313 -381l-323 -391h704z" />
    <glyph glyph-name="Tau" unicode="&#x3a4;" horiz-adv-x="1275" 
d="M797 1063v-1063h-318v1063h-438v268h1194v-268h-438z" />
    <glyph glyph-name="Upsilon" unicode="&#x3a5;" horiz-adv-x="1294" 
d="M801 0h-316v444q-131 178 -252 382t-168 305q-48 100 -71 147t-25 53h361q20 -63 129 -278t184 -314q109 141 318 592h364q-53 -115 -209 -388t-315 -505v-438z" />
    <glyph glyph-name="Phi" unicode="&#x3a6;" horiz-adv-x="1865" 
d="M1092 270q172 0 278 92t105 313q0 220 -127 308q-103 72 -256 74v-787zM774 1057q-172 0 -278 -93t-105 -312q0 -219 124 -306q105 -74 259 -76v787zM1092 -104h-318v108q-358 14 -535 185t-177 473t176 474q176 173 536 187v111h318v-111q352 -16 532 -182t180 -473
q0 -631 -712 -664v-108z" />
    <glyph glyph-name="Chi" unicode="&#x3a7;" horiz-adv-x="1335" 
d="M1376 0h-395l-315 436l-324 -436h-383l506 670l-504 661h406l295 -442l292 442h398l-484 -661z" />
    <glyph glyph-name="Psi" unicode="&#x3a8;" horiz-adv-x="1828" 
d="M756 0v246q-307 0 -465 120t-158 388v577h318v-538q0 -133 60 -199t245 -66v803h317v-803q168 0 237 58t68 207v538h318v-571q0 -254 -144 -384t-479 -130v-246h-317z" />
    <glyph glyph-name="Omega" unicode="&#x3a9;" horiz-adv-x="1556" 
d="M784 1356q334 0 522 -184t189 -480q0 -295 -195 -444h205v-248h-614v260q272 143 272 426q0 184 -100 286q-99 102 -279 101q-180 0 -285 -95t-106 -296q0 -285 273 -422v-260h-615v248h205q-88 66 -141 180t-54 256q0 316 194 494q195 178 529 178z" />
    <glyph glyph-name="Iotadieresis" unicode="&#x3aa;" horiz-adv-x="604" 
d="M461 0h-318v1331h318v-1331zM690 1446h-305v264h305v-264zM219 1446h-305v264h305v-264z" />
    <glyph glyph-name="Upsilondieresis" unicode="&#x3ab;" horiz-adv-x="1294" 
d="M801 0h-316v444q-129 176 -203.5 301t-114.5 195q-61 108 -127.5 243.5t-70.5 147.5h361q20 -63 128.5 -278t184.5 -314q109 141 318 592h364q-53 -115 -208.5 -388t-315.5 -505v-438zM1034 1446h-305v264h305v-264zM563 1446h-305v264h305v-264z" />
    <glyph glyph-name="alphatonos" unicode="&#x3ac;" horiz-adv-x="1374" 
d="M393 526q0 -144 82 -220t210 -75q128 0 247 80v432q-123 76 -254 76t-208 -74q-77 -75 -77 -219zM627 -25q-233 0 -395 151q-160 152 -160 412t160 398q161 137 407 137q184 0 348 -102l25 80h229v-1051h-244l-28 92q-57 -51 -155 -84t-187 -33zM559 1212l70 338h329
l-192 -338h-207z" />
    <glyph glyph-name="epsilontonos" unicode="&#x3ad;" horiz-adv-x="1134" 
d="M104 762q0 311 513 311q264 0 405 -59v-264q-144 61 -372 61t-228 -98q0 -70 110 -70h261v-235h-295q-104 0 -105 -78q0 -58 65 -78q64 -20 236 -20t328 51v-260q-208 -47 -454 -47t-371 88q-125 90 -125 239q0 90 46 157t136 87q-150 59 -150 215zM500 1212l69 338h330
l-192 -338h-207z" />
    <glyph glyph-name="etatonos" unicode="&#x3ae;" horiz-adv-x="1357" 
d="M1225 -410h-310v1024q0 102 -42 152t-140 51q-154 0 -291 -98v-719h-309v1051h250l33 -111q210 137 408 133t299 -98t102 -322v-1063zM524 1212l70 338h330l-193 -338h-207z" />
    <glyph glyph-name="iotatonos" unicode="&#x3af;" horiz-adv-x="811" 
d="M432 1051v-656q0 -82 34 -123t121 -41t173 29v-246q-109 -39 -236 -39q-182 0 -292 85t-109 280v711h309zM145 1212l70 338h330l-193 -338h-207z" />
    <glyph glyph-name="upsilondieresistonos" unicode="&#x3b0;" horiz-adv-x="1331" 
d="M645 -25q-135 0 -233 30t-151 73q-52 44 -83 112t-38 124t-7 135v602h309v-588q0 -233 215 -234q260 0 261 342q0 283 -130 480h340q111 -195 111 -459q0 -617 -594 -617zM911 1212v265h306v-265h-306zM74 1212v265h305v-265h-305zM483 1212l49 338h330l-172 -338h-207z
" />
    <glyph glyph-name="alpha" unicode="&#x3b1;" horiz-adv-x="1374" 
d="M393 526q0 -144 82 -220t210 -75q128 0 247 80v432q-123 76 -254 76t-208 -74q-77 -75 -77 -219zM627 -25q-233 0 -395 151q-160 152 -160 412t160 398q161 137 407 137q184 0 348 -102l25 80h229v-1051h-244l-28 92q-57 -51 -155 -84t-187 -33z" />
    <glyph glyph-name="beta" unicode="&#x3b2;" horiz-adv-x="1394" 
d="M684 1227q-242 0 -242 -234v-698q110 -66 272 -66q162 -1 224 63t63 151q0 87 -22 111q-23 24 -35 38t-41 22t-42 12q-25 8 -99 9h-174v246h121q115 0 165 44t52 134q0 168 -242 168zM678 1481q414 1 504 -237q24 -62 24 -156t-53 -180q-53 -87 -133 -117
q135 -9 219 -109t84 -244q0 -198 -128 -330t-409 -133q-199 0 -344 64v-449h-309v1377q0 74 6 130t38 133t86 127q55 50 161 87t254 37z" />
    <glyph glyph-name="gamma" unicode="&#x3b3;" horiz-adv-x="1302" 
d="M500 -410v295q0 43 -179 481t-290 685h338q178 -432 307 -832q231 410 244 832h331q-4 -303 -131 -593t-311 -521v-347h-309z" />
    <glyph glyph-name="delta" unicode="&#x3b4;" horiz-adv-x="1312" 
d="M383 498q1 -131 71 -203t196 -72t196 80t69 189q0 110 -55 182t-180 125l-25 10q-272 -51 -272 -311zM1241 502q1 -211 -151 -368t-445 -157q-293 1 -438 149t-146 357q1 170 89 300t258 180q-68 49 -103 98t-35 129q0 137 124 214t348 77t380 -54v-249q-131 51 -308 51
t-177 -68q0 -33 62 -69q63 -36 151 -78q88 -44 177 -104t151 -166t63 -242z" />
    <glyph glyph-name="epsilon" unicode="&#x3b5;" horiz-adv-x="1134" 
d="M104 762q0 311 513 311q264 0 405 -59v-264q-144 61 -372 61t-228 -98q0 -70 110 -70h261v-235h-295q-104 0 -105 -78q0 -58 65 -78q64 -20 236 -20t328 51v-260q-208 -47 -454 -47t-371 88q-125 90 -125 239q0 90 46 157t136 87q-150 59 -150 215z" />
    <glyph glyph-name="zeta" unicode="&#x3b6;" horiz-adv-x="1118" 
d="M412 543q0 -125 74 -192t244 -95q172 -28 252 -92q80 -66 79 -222q0 -156 -84 -352h-320q82 156 82 244t-38 115t-141 44t-178 48t-150 88q-76 57 -118 157t-42 230q0 201 104 368t289 265h-311v266h913v-229q-655 -203 -655 -643z" />
    <glyph glyph-name="eta" unicode="&#x3b7;" horiz-adv-x="1357" 
d="M1225 -410h-310v1024q0 102 -42 152t-140 51q-154 0 -291 -98v-719h-309v1051h250l33 -111q210 137 408 133t299 -98t102 -322v-1063z" />
    <glyph glyph-name="theta" unicode="&#x3b8;" horiz-adv-x="1347" 
d="M975 614h-602q1 -190 67 -286t231 -96t235 92q70 93 69 290zM373 860h602q-2 176 -82 270q-81 94 -227 94t-218 -100t-75 -264zM1276 737q0 -391 -144 -577t-464 -185q-322 0 -459 193t-137 559q0 754 602 754t602 -744z" />
    <glyph glyph-name="iota" unicode="&#x3b9;" horiz-adv-x="811" 
d="M432 1051v-656q0 -82 34 -123t121 -41t173 29v-246q-109 -39 -236 -39q-182 0 -292 85t-109 280v711h309z" />
    <glyph glyph-name="kappa" unicode="&#x3ba;" horiz-adv-x="1257" 
d="M846 1051h373q-262 -303 -412 -506q174 -160 471 -545h-377q-170 250 -438 526q197 312 383 525zM133 0v1051h309v-1051h-309z" />
    <glyph glyph-name="lambda" unicode="&#x3bb;" horiz-adv-x="1259" 
d="M270 1225q-64 0 -143 -29v246q102 39 188 39q175 0 277 -83t223 -331q295 -600 424 -1067h-330q-137 485 -264 713q-55 -101 -141 -313t-144 -400h-329q61 228 198 534t256 496q-63 121 -107 158t-108 37z" />
    <glyph glyph-name="mu" unicode="&#x3bc;" horiz-adv-x="1347" 
d="M1214 1051v-1051h-249l-33 111q-209 -137 -408 -134q-39 0 -82 15v-402h-309v1461h309v-615q0 -102 42 -152t141 -51q143 0 280 99v719h309z" />
    <glyph glyph-name="nu" unicode="&#x3bd;" horiz-adv-x="1167" 
d="M858 1051h330q-89 -281 -215 -577t-230 -474h-319q-104 178 -235 486t-209 565h329q31 -109 119 -375t156 -414q68 148 156 414t118 375z" />
    <glyph glyph-name="xi" unicode="&#x3be;" horiz-adv-x="1167" 
d="M135 1096q0 383 572 385q248 0 378 -60v-264q-135 68 -307 68t-241 -36q-70 -36 -70 -133t76 -131t227 -34h219v-266h-287q-152 0 -222 -36t-68 -127q0 -91 74 -131q74 -39 197 -61q124 -22 168 -33q117 -29 173 -96q57 -67 57 -214q0 -146 -84 -337h-319q82 156 82 245
t-38 116t-138 42q-294 44 -403 144t-109 250q0 149 75 254q76 104 236 137q-248 66 -248 318z" />
    <glyph glyph-name="omicron" unicode="&#x3bf;" horiz-adv-x="1347" 
d="M671 817q-126 0 -202 -80t-76 -211t79 -212t205 -81t202 83q75 83 75 214t-78 209q-79 78 -205 78zM72 523q0 261 165 405t438 145q273 0 437 -144q164 -143 164 -405t-164 -404t-437 -142t-438 142t-165 403z" />
    <glyph glyph-name="pi" unicode="&#x3c0;" horiz-adv-x="1601" 
d="M1530 1051v-267h-277v-385q0 -86 22 -125t95 -38q39 0 125 28v-246q-109 -39 -211 -38q-172 0 -256 82t-84 282v440h-342v-784h-309v784h-252v267h1489z" />
    <glyph glyph-name="rho" unicode="&#x3c1;" horiz-adv-x="1343" 
d="M652 229q134 0 216 78t82 220t-77 216t-197 74q-264 0 -264 -315v-207q106 -66 240 -66zM717 -25q-164 0 -305 64v-449h-310v914q0 234 119 393q132 176 445 176q313 -1 459 -153q147 -152 147 -398t-164 -396t-391 -151z" />
    <glyph glyph-name="sigmafinal" unicode="&#x3c2;" horiz-adv-x="1142" 
d="M72 516q0 256 147 407t455 150q201 0 377 -59v-264q-156 68 -319 68t-242 -66q-78 -64 -78 -199t74 -202t244 -95q172 -28 252 -92q80 -66 79 -220q0 -154 -84 -354h-320q82 150 82 241t-38 119q-39 28 -147 45q-340 53 -439 291q-43 99 -43 230z" />
    <glyph glyph-name="sigma" unicode="&#x3c3;" horiz-adv-x="1427" 
d="M663 229q125 0 199 80t74 205q0 178 -156 270h-116q-137 0 -207 -80t-70 -207q0 -128 76 -198t200 -70zM1251 514q1 -258 -161 -398t-432 -139q-270 -1 -428 145t-158 396t161 391q162 141 437 142h706v-267h-207q82 -102 82 -270z" />
    <glyph glyph-name="tau" unicode="&#x3c4;" horiz-adv-x="1214" 
d="M1153 1051v-267h-440v-385q-1 -82 33 -123q34 -40 121 -40t173 28v-246q-109 -39 -235 -38q-182 0 -292 85t-110 279v440h-352v267h1102z" />
    <glyph glyph-name="upsilon" unicode="&#x3c5;" horiz-adv-x="1331" 
d="M645 -25q-135 0 -233 30t-151 73q-52 44 -83 112t-38 124t-7 135v602h309v-588q0 -233 215 -234q260 0 261 342q0 283 -130 480h340q111 -195 111 -459q0 -617 -594 -617z" />
    <glyph glyph-name="phi" unicode="&#x3c6;" horiz-adv-x="1701" 
d="M1006 836v-627q129 0 212 84q82 83 82 233t-82 230q-83 80 -212 80zM696 209v627q-129 0 -212 -80t-83 -230t83 -233q83 -84 212 -84zM1006 -410h-310v375q-246 0 -427 122q-91 62 -144 176t-53 265q0 260 168 408t456 149v271h310v-271q288 0 456 -148t168 -409
q0 -422 -395 -533q-106 -30 -229 -30v-375z" />
    <glyph glyph-name="chi" unicode="&#x3c7;" horiz-adv-x="1226" 
d="M850 1051h367l-431 -721l428 -740h-376l-238 461l-225 -461h-365l430 721l-426 740h375l236 -465z" />
    <glyph glyph-name="psi" unicode="&#x3c8;" horiz-adv-x="1722" 
d="M696 -25h-26q-312 0 -424 132q-113 132 -113 335v609h309v-576q0 -129 62 -187t192 -59v1127h312v-1127q168 -1 234 91t67 266q0 268 -129 465h340q110 -195 110 -469t-159 -440q-159 -165 -465 -167v-385h-310v385z" />
    <glyph glyph-name="omega" unicode="&#x3c9;" horiz-adv-x="1691" 
d="M999 780v-395q0 -76 39 -114t105 -38q145 0 145 205q0 154 -57 324t-148 289h334q193 -262 193 -607q0 -215 -104 -340t-322 -124q-246 0 -336 188h-4q-90 -188 -336 -188q-217 0 -322 124q-104 125 -104 340q0 344 192 607h334q-90 -119 -147 -289t-58 -324
q0 -205 148 -205q61 0 101 37t40 115v395h307z" />
    <glyph glyph-name="iotadieresis" unicode="&#x3ca;" horiz-adv-x="811" 
d="M432 1051v-656q0 -82 34 -123t121 -41t173 29v-246q-109 -39 -236 -39q-182 0 -292 85t-109 280v711h309zM655 1464v-264h-305v264h305zM184 1464v-264h-305v264h305z" />
    <glyph glyph-name="upsilondieresis" unicode="&#x3cb;" horiz-adv-x="1331" 
d="M645 -25q-135 0 -233 30t-151 73q-52 44 -83 112t-38 124t-7 135v602h309v-588q0 -233 215 -234q260 0 261 342q0 283 -130 480h340q111 -195 111 -459q0 -617 -594 -617zM1012 1464v-264h-305v264h305zM541 1464v-264h-305v264h305z" />
    <glyph glyph-name="omicrontonos" unicode="&#x3cc;" horiz-adv-x="1347" 
d="M671 817q-126 0 -202 -80t-76 -211t79 -212t205 -81t202 83q75 83 75 214t-78 209q-79 78 -205 78zM72 523q0 261 165 405t438 145q273 0 437 -144q164 -143 164 -405t-164 -404t-437 -142t-438 142t-165 403zM557 1212l70 338h329l-192 -338h-207z" />
    <glyph glyph-name="upsilontonos" unicode="&#x3cd;" horiz-adv-x="1331" 
d="M645 -25q-135 0 -233 30t-151 73q-52 44 -83 112t-38 124t-7 135v602h309v-588q0 -233 215 -234q260 0 261 342q0 283 -130 480h340q111 -195 111 -459q0 -617 -594 -617zM512 1212l70 338h329l-192 -338h-207z" />
    <glyph glyph-name="omegatonos" unicode="&#x3ce;" horiz-adv-x="1691" 
d="M999 780v-395q0 -76 39 -114t105 -38q145 0 145 205q0 154 -57 324t-148 289h334q193 -262 193 -607q0 -215 -104 -340t-322 -124q-246 0 -336 188h-4q-90 -188 -336 -188q-217 0 -322 124q-104 125 -104 340q0 344 192 607h334q-90 -119 -147 -289t-58 -324
q0 -205 148 -205q61 0 101 37t40 115v395h307zM739 1212l70 338h330l-193 -338h-207z" />
    <glyph glyph-name="uni0400" unicode="&#x400;" horiz-adv-x="1284" 
d="M1178 1063h-717v-254h649v-258h-649v-283h731v-268h-1049v1331h1035v-268zM807 1454h-238l-207 297h293z" />
    <glyph glyph-name="uni0401" unicode="&#x401;" horiz-adv-x="1284" 
d="M1178 1063h-717v-254h649v-258h-649v-283h731v-268h-1049v1331h1035v-268zM1053 1446h-305v264h305v-264zM582 1446h-306v264h306v-264z" />
    <glyph glyph-name="uni0402" unicode="&#x402;" horiz-adv-x="1710" 
d="M1597 438v-82q1 -200 -121 -292t-288 -92t-275 38v275q79 -39 185 -39t144 36t38 109v43q0 109 -45 156t-135 47q-166 0 -303 -98v-539h-318v1063h-438v268h1194v-268h-438v-277q200 125 402 123q202 -1 300 -109t98 -362z" />
    <glyph glyph-name="uni0403" unicode="&#x403;" horiz-adv-x="1095" 
d="M1055 1063h-594v-1063h-318v1331h912v-268zM670 1454h-238l152 297h293z" />
    <glyph glyph-name="uni0404" unicode="&#x404;" horiz-adv-x="1290" 
d="M82 674q0 174 56 307t154 214q196 161 494 161q233 0 420 -58v-282q-188 61 -380 61q-192 -1 -285 -65q-92 -64 -119 -203h571v-258h-575q44 -301 368 -297q203 2 422 65v-296q-223 -47 -446 -48q-320 -1 -500 175t-180 524z" />
    <glyph glyph-name="uni0405" unicode="&#x405;" horiz-adv-x="1316" 
d="M680 1356q182 0 463 -68v-278q-188 46 -290.5 57.5t-195.5 11.5q-250 0 -249 -118q0 -74 137 -111l350 -92q340 -88 340 -361q0 -203 -149.5 -312.5t-428 -109.5t-555.5 74v289q330 -86 497 -86t237.5 26.5t70.5 88.5q0 94 -180 139l-338 86q-147 39 -227 134t-80 230
q0 400 598 400z" />
    <glyph glyph-name="uni0406" unicode="&#x406;" horiz-adv-x="604" 
d="M461 0h-318v1331h318v-1331z" />
    <glyph glyph-name="uni0407" unicode="&#x407;" horiz-adv-x="604" 
d="M461 0h-318v1331h318v-1331zM690 1446h-305v264h305v-264zM219 1446h-305v264h305v-264z" />
    <glyph glyph-name="uni0408" unicode="&#x408;" horiz-adv-x="1015" 
d="M883 1331v-891q0 -219 -130 -339.5t-376 -120.5q-182 0 -367 45v278q164 -47 312 -47t195.5 58.5t47.5 187.5v829h318z" />
    <glyph glyph-name="uni0409" unicode="&#x409;" horiz-adv-x="2072" 
d="M1204 268h252q129 0 186 44t58 149q0 168 -244 168h-252v-361zM1204 889h260q276 -1 422 -107t146 -321t-146 -338t-428 -123h-571v1063h-297q-71 -641 -145 -824t-219 -235q-81 -29 -195 -29q-29 0 -49 2l-2 250q16 -2 30 -2q94 1 133 59q104 156 166 1047h895v-442z
" />
    <glyph glyph-name="uni040A" unicode="&#x40a;" horiz-adv-x="2213" 
d="M1346 268h276q123 0 171 37t48 119q0 143 -219 143h-276v-299zM1346 827h284q543 0 543 -399q0 -200 -138 -314t-411 -114h-596v567h-567v-567h-318v1331h318v-504h567v504h318v-504z" />
    <glyph glyph-name="uni040B" unicode="&#x40b;" horiz-adv-x="1710" 
d="M1597 438v-438h-317v434q0 109 -45 156t-135 47q-166 0 -303 -98v-539h-318v1063h-438v268h1194v-268h-438v-277q200 125 402 123q202 -1 300 -109t98 -362z" />
    <glyph glyph-name="uni040C" unicode="&#x40c;" horiz-adv-x="1411" 
d="M461 516v-516h-318v1331h318v-549h121q152 240 407 549h395q-399 -430 -544 -647q296 -299 581 -684h-399q-178 250 -422 516h-139zM797 1454h-238l152 297h293z" />
    <glyph glyph-name="uni040D" unicode="&#x40d;" horiz-adv-x="1533" 
d="M455 1329v-860l581 860h355v-1329h-312v903l-608 -903h-328v1329h312zM897 1454h-238l-206 297h292z" />
    <glyph glyph-name="uni040E" unicode="&#x40e;" horiz-adv-x="1304" 
d="M971 1331h364q-471 -889 -792 -1331h-359q166 209 314 444q-137 188 -208 308t-111 189t-75.5 138.5t-55 109.5t-43 89t-25.5 53h360q20 -61 133 -281.5t191 -318.5q88 129 307 600zM655 1450q-311 0 -336 285h207q12 -57 41 -85t90 -28t88 27t39 86h207
q-8 -123 -86 -204t-250 -81z" />
    <glyph glyph-name="uni040F" unicode="&#x40f;" horiz-adv-x="1468" 
d="M1325 0h-436v-346h-309v346h-437v1331h318v-1063h547v1063h317v-1331z" />
    <glyph glyph-name="uni0410" unicode="&#x410;" horiz-adv-x="1398" 
d="M461 510h450q-113 322 -227 586q-110 -254 -223 -586zM373 242q-65 -211 -74 -242h-330q229 748 504 1331h442q297 -627 515 -1331h-351l-78 242h-628z" />
    <glyph glyph-name="uni0411" unicode="&#x411;" horiz-adv-x="1370" 
d="M461 629v-361h272q129 0 187 44q57 44 57 149q0 168 -244 168h-272zM1116 1063h-655v-174h280q275 -1 421 -107t146 -321t-144 -338q-146 -123 -429 -123h-592v1331h973v-268z" />
    <glyph glyph-name="uni0412" unicode="&#x412;" horiz-adv-x="1437" 
d="M461 563v-307h305q127 0 187 34q61 34 61 121t-69 119t-202 33h-282zM461 1075v-284h241q117 1 184 31q66 30 66 115t-65 112q-66 27 -176 26h-250zM143 1331h547q596 0 596 -340q0 -94 -59 -176t-176 -123v-6q119 -18 207 -97t88 -200q0 -389 -578 -389h-625v1331z" />
    <glyph glyph-name="uni0413" unicode="&#x413;" horiz-adv-x="1095" 
d="M1055 1063h-594v-1063h-318v1331h912v-268z" />
    <glyph glyph-name="uni0414" unicode="&#x414;" horiz-adv-x="1413" 
d="M920 268v795h-332q-43 -389 -92 -627q-20 -94 -56 -168h480zM1237 268h166v-614h-307v346h-799v-346h-307v614h139q112 122 178 1065l930 -2v-1063z" />
    <glyph glyph-name="uni0415" unicode="&#x415;" horiz-adv-x="1284" 
d="M1178 1063h-717v-254h649v-258h-649v-283h731v-268h-1049v1331h1035v-268z" />
    <glyph glyph-name="uni0416" unicode="&#x416;" horiz-adv-x="2076" 
d="M1192 514v-514h-307v514h-133q-201 -254 -355 -514h-397q354 502 496 684q-141 246 -459 647h381q197 -270 348 -549h119v549h307v-549h119q152 279 348 549h381q-317 -401 -459 -647q142 -182 496 -684h-398q-154 260 -354 514h-133z" />
    <glyph glyph-name="uni0417" unicode="&#x417;" horiz-adv-x="1265" 
d="M564 1356q262 0 406 -92t144 -256q0 -217 -233 -303v-7q137 -26 215 -106t78 -193q0 -424 -648 -424q-201 0 -424 48v299q233 -68 416 -68q184 0 254 41t70 120t-62 113t-207 35h-288v228h247q139 0 195 36q55 37 55 109t-60 106t-238 35q-178 0 -367 -61v282
q185 58 447 58z" />
    <glyph glyph-name="uni0418" unicode="&#x418;" horiz-adv-x="1533" 
d="M455 1329v-860l581 860h355v-1329h-312v903l-608 -903h-328v1329h312z" />
    <glyph glyph-name="uni0419" unicode="&#x419;" horiz-adv-x="1533" 
d="M455 1329v-860l581 860h355v-1329h-312v903l-608 -903h-328v1329h312zM741 1421q-309 0 -338 289h238q18 -117 119 -117q61 0 98 27t60 90h182q-20 -137 -115.5 -213t-243.5 -76z" />
    <glyph glyph-name="uni041A" unicode="&#x41a;" horiz-adv-x="1411" 
d="M461 516v-516h-318v1331h318v-549h121q152 240 407 549h395q-399 -430 -544 -647q296 -299 581 -684h-399q-178 250 -422 516h-139z" />
    <glyph glyph-name="uni041B" unicode="&#x41b;" horiz-adv-x="1361" 
d="M1219 1331v-1331h-318v1063h-311q-71 -641 -145 -824t-219 -235q-81 -29 -195 -29q-29 0 -49 2l-2 250q16 -2 30 -2q94 1 133 59q104 156 166 1047h910z" />
    <glyph glyph-name="uni041C" unicode="&#x41c;" horiz-adv-x="1863" 
d="M1155 1331h459q102 -530 178 -1331h-309q-51 580 -123 1016q-164 -475 -279 -891h-299q-115 416 -278 891q-72 -436 -123 -1016h-309q76 801 178 1331h459q195 -618 223 -747q33 145 223 747z" />
    <glyph glyph-name="uni041D" unicode="&#x41d;" horiz-adv-x="1509" 
d="M1366 0h-317v516h-588v-516h-318v1331h318v-547h588v547h317v-1331z" />
    <glyph glyph-name="uni041E" unicode="&#x41e;" horiz-adv-x="1599" 
d="M799 1073q-166 0 -275.5 -105.5t-109.5 -305.5t114.5 -304t272 -104t271.5 104t114 304t-110.5 305.5t-276.5 105.5zM801 1356q133 0 257 -42t228.5 -122t168 -213t63.5 -309t-59.5 -315.5t-163 -219.5t-228.5 -120t-268.5 -40t-268 40t-227 120t-162 219.5t-59.5 315.5
t63.5 310t168 214t229.5 121t258 41z" />
    <glyph glyph-name="uni041F" unicode="&#x41f;" horiz-adv-x="1499" 
d="M1356 0h-318v1063h-577v-1063h-318v1331h1213v-1331z" />
    <glyph glyph-name="uni0420" unicode="&#x420;" horiz-adv-x="1411" 
d="M461 1063v-428h274q135 0 207 46t72 170t-74 168t-211 44h-268zM143 1331h619q584 0 584 -481q0 -134 -54 -232t-141 -150q-174 -103 -387 -101h-303v-367h-318v1331z" />
    <glyph glyph-name="uni0421" unicode="&#x421;" horiz-adv-x="1345" 
d="M891.5 1356q183.5 0 370.5 -58v-282q-188 61 -396 61t-330 -106.5t-122 -307t131 -306t315.5 -103.5t403.5 65v-299q-213 -45 -406 -45q-344 0 -560 171t-216 520q0 172 65.5 308t176 217t247.5 123t320.5 42z" />
    <glyph glyph-name="uni0422" unicode="&#x422;" horiz-adv-x="1275" 
d="M1235 1063h-438v-1063h-318v1063h-438v268h1194v-268z" />
    <glyph glyph-name="uni0423" unicode="&#x423;" horiz-adv-x="1304" 
d="M971 1331h364q-471 -889 -792 -1331h-359q166 209 314 444q-137 188 -208 308t-111 189t-75.5 138.5t-55 109.5t-43 89t-25.5 53h360q20 -61 133 -281.5t191 -318.5q88 129 307 600z" />
    <glyph glyph-name="uni0424" unicode="&#x424;" horiz-adv-x="1693" 
d="M1284 664q0 328 -295 391v-783q295 64 295 392zM410 666q0 -324 295 -392v781q-295 -65 -295 -389zM1612 662q0 -304 -164 -472t-449 -202v-88l-305 -2v90q-284 34 -448 202t-164 472t169 474q169 169 443 205v93h305v-93q272 -37 443 -206q170 -170 170 -473z" />
    <glyph glyph-name="uni0425" unicode="&#x425;" horiz-adv-x="1335" 
d="M868 670l508 -670h-395l-315 436l-324 -436h-383l506 670l-504 661h406l295 -442l292 442h398z" />
    <glyph glyph-name="uni0426" unicode="&#x426;" horiz-adv-x="1499" 
d="M1489 268v-614h-307v346h-1039v1331h318v-1063h547v1063h317v-1063h164z" />
    <glyph glyph-name="uni0427" unicode="&#x427;" horiz-adv-x="1374" 
d="M1231 1331v-1331h-318v442q-201 -125 -403 -123t-299 110q-98 108 -98 362v540h317v-536q0 -109 45 -156t135 -47q166 0 303 98v641h318z" />
    <glyph glyph-name="uni0428" unicode="&#x428;" horiz-adv-x="1978" 
d="M1835 1331v-1331h-1692v1331h318v-1063h375v1063h307v-1063h375v1063h317z" />
    <glyph glyph-name="uni0429" unicode="&#x429;" horiz-adv-x="2009" 
d="M1999 268v-614h-307v346h-1549v1331h318v-1063h375v1063h307v-1063h375v1063h317v-1063h164z" />
    <glyph glyph-name="uni042A" unicode="&#x42a;" horiz-adv-x="1585" 
d="M696 268h273q129 0 186 44t57 149q0 168 -243 168h-273v-361zM696 889h281q275 -1 421 -107t146 -321t-145 -338t-428 -123h-592v1063h-369v268h686v-442z" />
    <glyph glyph-name="uni042B" unicode="&#x42b;" horiz-adv-x="1945" 
d="M461 629v-361h272q129 0 187 44q57 44 57 149q0 168 -244 168h-272zM1802 0h-317v1331h317v-1331zM461 889h280q275 -1 421 -107t146 -321t-144 -338q-146 -123 -429 -123h-592v1331h318v-442z" />
    <glyph glyph-name="uni042C" unicode="&#x42c;" horiz-adv-x="1349" 
d="M461 268h272q129 0 187 44q57 44 57 149q0 168 -244 168h-272v-361zM461 889h280q275 -1 421 -107t146 -321t-144 -338q-146 -123 -429 -123h-592v1331h318v-442z" />
    <glyph glyph-name="uni042D" unicode="&#x42d;" horiz-adv-x="1290" 
d="M460 1356q533 0 692 -374q56 -134 56 -308q0 -350 -189 -524t-511 -175q-223 0 -426 43v299q213 -61 401 -63q334 -4 387 297h-573v258h571q-25 139 -117 204q-93 65 -286 65t-381 -62v282q187 58 376 58z" />
    <glyph glyph-name="uni042E" unicode="&#x42e;" horiz-adv-x="2084" 
d="M1307 262q143 0 254 102t111 298q0 194 -107 300q-106 106 -258 107q-152 0 -254 -105q-103 -105 -103 -301q0 -197 107 -299t250 -102zM1292 1352q269 0 483 -163q103 -79 165 -213t62 -308t-58 -312q-60 -138 -160 -217q-202 -161 -466 -160q-265 1 -452 134
q-186 133 -231 403h-174v-516h-318v1331h318v-547h168q25 186 133 319q109 133 249 191q141 58 281 58z" />
    <glyph glyph-name="uni042F" unicode="&#x42f;" horiz-adv-x="1431" 
d="M965 1063h-242q-285 0 -285 -195q0 -96 64 -137t215 -41h248v373zM1288 1331v-1331h-317v422h-219q-147 -152 -314 -422h-397q174 268 369 473q-135 31 -220 136q-84 105 -84 253q0 469 617 469h565z" />
    <glyph glyph-name="uni0430" unicode="&#x430;" horiz-adv-x="1288" 
d="M401 319q0 -53 50.5 -84.5t148.5 -31.5t246 71v127q-94 45 -254 45q-191 0 -191 -127zM610 1073q545 0 545 -434v-639h-244l-28 92q-174 -117 -375 -117t-313.5 99.5t-112.5 251.5q0 117 70.5 193.5t165 104t235.5 27.5t293 -55v41q0 195 -328 194q-129 0 -350 -61v252
q172 51 442 51z" />
    <glyph glyph-name="uni0431" unicode="&#x431;" horiz-adv-x="1351" 
d="M670 231q140 0 215 71q74 71 73 200q0 244 -247 243q-97 0 -179 -49t-135 -125q-7 -178 63 -259t210 -81zM794 991q226 0 356 -125q130 -126 130 -372t-165 -382t-449 -136t-435 144q-150 146 -149 474v4q0 291 54 445q32 91 86 151q164 181 604 219q138 13 186 25
q49 12 84 47l57 -250q-63 -80 -307 -91t-340 -77q-94 -66 -107 -219q168 143 395 143z" />
    <glyph glyph-name="uni0432" unicode="&#x432;" horiz-adv-x="1247" 
d="M442 440v-200h293q135 0 135 104q0 45 -33 71q-34 26 -94 25h-301zM442 811v-178h254q49 -1 82 23t33 66t-31 66t-84 23h-254zM133 1051h578q213 0 317 -70t105 -190q0 -186 -226 -242v-6q137 -15 211 -79t74 -165q0 -299 -455 -299h-604v1051z" />
    <glyph glyph-name="uni0433" unicode="&#x433;" horiz-adv-x="946" 
d="M905 803h-463v-803h-309v1051h772v-248z" />
    <glyph glyph-name="uni0434" unicode="&#x434;" horiz-adv-x="1253" 
d="M795 256v549h-246q-35 -393 -127 -549h373zM1274 256v-602h-301v346h-672v-346h-301v602h133q59 68 92 257t51 540l828 -2v-795h170z" />
    <glyph glyph-name="uni0435" unicode="&#x435;" horiz-adv-x="1253" 
d="M657 831q-241 0 -266 -227h473q-2 106 -55 166.5t-152 60.5zM1182 412h-793q10 -74 65.5 -119t116 -58.5t129.5 -13.5q195 0 426 72v-242q-240 -76 -434 -76q-293 0 -456.5 138.5t-163.5 409.5t170 410.5t420.5 139.5t385 -133t134.5 -385v-143z" />
    <glyph glyph-name="uni0436" unicode="&#x436;" horiz-adv-x="1775" 
d="M1042 408v-408h-309v408h-117q-119 -164 -266 -408h-370q256 375 389 545q-125 231 -330 506h350q78 -111 229 -398h115v398h309v-398h111q139 264 233 398h351q-205 -274 -330 -506q133 -170 389 -545h-371q-117 190 -276 408h-107z" />
    <glyph glyph-name="uni0437" unicode="&#x437;" horiz-adv-x="997" 
d="M491 1073q214 0 313 -73t99 -189q0 -201 -219 -262v-6q258 -47 258 -256q0 -143 -122 -227t-344 -85q-222 0 -415 48v245q162 -51 394 -51q166 0 166 127q0 45 -34 71t-93 25h-322v193h274q61 0 99 24q37 25 37 72q0 104 -146 105q-176 0 -354 -66v248q195 57 409 57z
" />
    <glyph glyph-name="uni0438" unicode="&#x438;" horiz-adv-x="1296" 
d="M440 1051v-602l383 602h340v-1051h-307v637l-407 -637h-316v1051h307z" />
    <glyph glyph-name="uni0439" unicode="&#x439;" horiz-adv-x="1296" 
d="M440 1051v-602l383 602h340v-1051h-307v637l-407 -637h-316v1051h307zM629 1196q-309 0 -338 289h237q18 -117 119 -117q61 0 98 26.5t60 90.5h182q-20 -137 -115.5 -213t-242.5 -76z" />
    <glyph glyph-name="uni043A" unicode="&#x43a;" horiz-adv-x="1257" 
d="M442 408v-408h-309v1051h309v-398h103q160 236 301 398h373q-262 -303 -412 -506q174 -160 471 -545h-377q-127 190 -326 408h-133z" />
    <glyph glyph-name="uni043B" unicode="&#x43b;" horiz-adv-x="1179" 
d="M1047 1051v-1051h-310v805h-245q-29 -328 -86 -508q-56 -180 -148 -251t-242 -71q-35 0 -55 2l-2 240q16 -2 31 -2q106 0 155 194t74 642h828z" />
    <glyph glyph-name="uni043C" unicode="&#x43c;" horiz-adv-x="1593" 
d="M977 1051h426q92 -586 141 -1051h-301q-59 608 -78 735q-74 -203 -221 -651h-291q-92 313 -221 651q-41 -274 -82 -735h-301q45 471 144 1051h425q147 -469 181 -605q47 187 178 605z" />
    <glyph glyph-name="uni043D" unicode="&#x43d;" horiz-adv-x="1296" 
d="M854 0v397h-412v-397h-309v1051h309v-398h412v398h309v-1051h-309z" />
    <glyph glyph-name="uni043E" unicode="&#x43e;" horiz-adv-x="1347" 
d="M671 817q-126 0 -202 -79t-76 -211t79 -214t205 -82t201.5 83t75.5 216t-78.5 210t-204.5 77zM675 1073q273 0 437 -143.5t164 -405.5t-164 -405.5t-437 -143.5t-438 142.5t-165 405.5t165 406.5t438 143.5z" />
    <glyph glyph-name="uni043F" unicode="&#x43f;" horiz-adv-x="1327" 
d="M1194 0h-309v795h-443v-795h-309v1051h1061v-1051z" />
    <glyph glyph-name="uni0440" unicode="&#x440;" horiz-adv-x="1374" 
d="M683 229q134 0 216 78t82 221t-77 217t-209 74t-253 -67v-457q107 -66 241 -66zM735 1073q242 0 405 -137q163 -136 163 -398t-164 -412t-391 -151q-164 0 -306 64v-449h-309v1461h229l23 -76q184 98 350 98z" />
    <glyph glyph-name="uni0441" unicode="&#x441;" horiz-adv-x="1132" 
d="M644.5 1073q230.5 0 406.5 -59v-264q-156 68 -314.5 67.5t-251 -73t-92.5 -218t99.5 -220.5t226.5 -75q182 0 332 48v-261q-201 -43 -344 -43q-283 0 -459 136.5t-176 404.5t171 412.5t401.5 144.5z" />
    <glyph glyph-name="uni0442" unicode="&#x442;" horiz-adv-x="1150" 
d="M1110 805h-381v-805h-307v805h-381v246h1069v-246z" />
    <glyph glyph-name="uni0443" unicode="&#x443;" horiz-adv-x="1208" 
d="M893 1051h336q-72 -203 -301.5 -709t-403.5 -752h-321q147 238 241 408q-143 268 -287.5 609t-176.5 444h335q35 -123 283 -758q156 326 295 758z" />
    <glyph glyph-name="uni0444" unicode="&#x444;" horiz-adv-x="1701" 
d="M999 229h19q127 0 209 78t82 221t-77 218t-206 75h-27v-592zM393 528q0 -143 82 -221t209 -78h18v592h-26q-129 0 -206 -75t-77 -218zM1063 1071q243 0 405 -136q162 -135 162 -397t-164 -410t-391 -148q-47 0 -69 2v-392h-310v392q-23 -2 -69 -2q-227 0 -391 148
t-164 409t162 398q163 136 405 136q39 0 57 -2v346h310v-346q18 2 57 2z" />
    <glyph glyph-name="uni0445" unicode="&#x445;" horiz-adv-x="1193" 
d="M786 518l428 -518h-374l-254 326l-232 -326h-372l405 518l-407 533h385l225 -351l235 351h369z" />
    <glyph glyph-name="uni0446" unicode="&#x446;" horiz-adv-x="1323" 
d="M1343 256v-602h-301v346h-909v1051h309v-795h422v795h310v-795h169z" />
    <glyph glyph-name="uni0447" unicode="&#x447;" horiz-adv-x="1243" 
d="M1110 1051v-1051h-309v344q-171 -123 -357 -120q-186 4 -274 106t-88 342v379h309v-371q0 -106 38 -154t124 -47q135 0 248 105v467h309z" />
    <glyph glyph-name="uni0448" unicode="&#x448;" horiz-adv-x="1818" 
d="M1686 1051v-1051h-1553v1051h309v-795h318v795h299v-795h317v795h310z" />
    <glyph glyph-name="uni0449" unicode="&#x449;" horiz-adv-x="1835" 
d="M1855 256v-602h-301v346h-1421v1051h309v-795h318v795h299v-795h317v795h310v-795h169z" />
    <glyph glyph-name="uni044A" unicode="&#x44a;" horiz-adv-x="1513" 
d="M936 219q207 0 207 148q0 69 -44 103q-43 34 -167 34t-234 -45v-213q129 -27 238 -27zM1028 750q209 0 322 -98q112 -98 112 -286t-123 -287t-389 -99t-561 38v777h-358v256h669v-367q181 66 328 66z" />
    <glyph glyph-name="uni044B" unicode="&#x44b;" horiz-adv-x="1792" 
d="M672 219q195 0 194 148q0 137 -172 137q-141 0 -252 -45v-213q130 -27 230 -27zM1659 0h-309v1051h309v-1051zM764 750q202 0 312 -100t110 -284q0 -386 -531 -386q-227 0 -522 38v1033h311v-367q181 66 320 66z" />
    <glyph glyph-name="uni044C" unicode="&#x44c;" horiz-adv-x="1257" 
d="M680 219q207 0 207 148q0 69 -44 103q-43 34 -167 34t-234 -45v-213q129 -27 238 -27zM772 750q209 0 322 -98q112 -98 112 -286t-123 -287t-389 -99t-561 38v1033h311v-367q181 66 328 66z" />
    <glyph glyph-name="uni044D" unicode="&#x44d;" horiz-adv-x="1085" 
d="M473 1073q246 0 393 -137q148 -138 148 -408t-157 -409t-429 -139q-162 0 -352 40v261q154 -45 340 -45q219 0 266 194h-444v193h446q-39 195 -266 194q-150 0 -342 -61v264q209 53 397 53z" />
    <glyph glyph-name="uni044E" unicode="&#x44e;" horiz-adv-x="1783" 
d="M1125 813q-113 0 -185 -78t-72 -206q0 -127 77 -209t187 -82t183 83q74 83 74 211t-76 205q-76 76 -188 76zM1146 1073q234 0 400 -143q166 -144 166 -406t-166 -403t-400 -141t-390 108t-195 313h-119v-401h-309v1051h309v-404h119q39 207 195 317t390 109z" />
    <glyph glyph-name="uni044F" unicode="&#x44f;" horiz-adv-x="1298" 
d="M428 672q0 -125 152 -125t276 10v252h-252q-176 0 -176 -137zM1165 1051v-1051h-311v322q-98 -12 -211 -17q-121 -137 -235 -305h-377q113 147 288 342q-209 82 -208 311q0 176 125 287t378 111h551z" />
    <glyph glyph-name="uni0450" unicode="&#x450;" horiz-adv-x="1253" 
d="M657 831q-241 0 -266 -227h473q-2 106 -55 166.5t-152 60.5zM1182 412h-793q10 -74 65.5 -119t116 -58.5t129.5 -13.5q195 0 426 72v-242q-240 -76 -434 -76q-293 0 -456.5 138.5t-163.5 409.5t170 410.5t420.5 139.5t385 -133t134.5 -385v-143zM555 1210l-207 297h293
l152 -297h-238z" />
    <glyph glyph-name="uni0451" unicode="&#x451;" horiz-adv-x="1253" 
d="M657 831q-241 0 -266 -227h473q-2 106 -55 166.5t-152 60.5zM1182 412h-793q10 -74 65.5 -119t116 -58.5t129.5 -13.5q195 0 426 72v-242q-240 -76 -434 -76q-293 0 -456.5 138.5t-163.5 409.5t170 410.5t420.5 139.5t385 -133t134.5 -385v-143zM1036 1200h-305v264h305
v-264zM565 1200h-305v264h305v-264z" />
    <glyph glyph-name="uni0452" unicode="&#x452;" horiz-adv-x="1368" 
d="M1235 653v-723q0 -186 -120 -275t-283.5 -89t-272.5 39v254q80 -39 185.5 -39t143.5 35.5t38 109.5v649q0 102 -42 152.5t-141 50.5q-166 0 -299 -98l-2 -719h-309v1147h-176v184h176v84h311v-84h267v-184h-267v-189q199 119 393.5 115t296 -98t101.5 -322z" />
    <glyph glyph-name="uni0453" unicode="&#x453;" horiz-adv-x="946" 
d="M905 803h-463v-803h-309v1051h772v-248zM692 1210h-237l151 297h293z" />
    <glyph glyph-name="uni0454" unicode="&#x454;" horiz-adv-x="1085" 
d="M668 817q-227 0 -267 -194h447v-193h-445q41 -195 267 -194q186 0 340 45v-261q-190 -41 -353 -40q-272 0 -429 139q-156 139 -156 409t147 408t393 137q188 0 398 -53v-264q-192 61 -342 61z" />
    <glyph glyph-name="uni0455" unicode="&#x455;" horiz-adv-x="1120" 
d="M584.5 1073q234.5 0 396.5 -67v-246q-203 70 -371 69q-240 0 -239 -75q0 -31 25.5 -44t129.5 -34l213 -47q162 -37 236 -112t74 -195q0 -160 -129 -253.5t-408 -93.5q-96 0 -222 21.5t-198 46.5v254q215 -72 382 -72t217 20.5t50 58.5t-30.5 58.5t-128.5 40.5l-230 48
q-160 33 -220 109.5t-60 193.5q0 164 139 241.5t373.5 77.5z" />
    <glyph glyph-name="uni0456" unicode="&#x456;" horiz-adv-x="575" 
d="M442 0h-309v1051h309v-1051zM461 1200h-346v264h346v-264z" />
    <glyph glyph-name="uni0457" unicode="&#x457;" horiz-adv-x="575" 
d="M442 0h-309v1051h309v-1051zM676 1200h-305v264h305v-264zM205 1200h-305v264h305v-264z" />
    <glyph glyph-name="uni0458" unicode="&#x458;" horiz-adv-x="583" 
d="M451 1051v-1121q0 -186 -120 -275q-119 -89 -283 -89t-273 39v254q80 -39 185 -39t143 36t38 109v1086h310zM469 1200h-346v264h346v-264z" />
    <glyph glyph-name="uni0459" unicode="&#x459;" horiz-adv-x="1822" 
d="M1255 219q197 0 197 148q0 137 -174 137q-139 0 -250 -45v-213q129 -27 227 -27zM1348 750q204 0 314 -98t110 -286t-122 -287t-411 -99q-225 0 -520 38v787h-227q-29 -328 -86 -508q-56 -180 -148 -251t-242 -71q-35 0 -55 2l-2 240q16 -2 31 -2q106 0 155 194t74 642
h811v-367q181 66 318 66z" />
    <glyph glyph-name="uni045A" unicode="&#x45a;" horiz-adv-x="1955" 
d="M1389 219q197 0 196 148q0 137 -174 137q-137 0 -248 -45v-213q130 -27 226 -27zM1481 750q203 0 313 -98t111 -286q0 -188 -122 -287t-411 -99q-223 0 -518 38v379h-412v-397h-309v1051h309v-398h412v398h309v-367q181 66 318 66z" />
    <glyph glyph-name="uni045B" unicode="&#x45b;" horiz-adv-x="1368" 
d="M1235 653v-653h-309v614q0 102 -42 152.5t-141 50.5q-166 0 -299 -98l-2 -719h-309v1147h-176v184h176v84h311v-84h267v-184h-267v-189q199 119 393.5 115t296 -98t101.5 -322z" />
    <glyph glyph-name="uni045C" unicode="&#x45c;" horiz-adv-x="1257" 
d="M442 408v-408h-309v1051h309v-398h103q160 236 301 398h373q-262 -303 -412 -506q174 -160 471 -545h-377q-127 190 -326 408h-133zM723 1210h-238l152 297h293z" />
    <glyph glyph-name="uni045D" unicode="&#x45d;" horiz-adv-x="1296" 
d="M440 1051v-602l383 602h340v-1051h-307v637l-407 -637h-316v1051h307zM793 1210h-238l-207 297h293z" />
    <glyph glyph-name="uni045E" unicode="&#x45e;" horiz-adv-x="1208" 
d="M893 1051h336q-72 -203 -301.5 -709t-403.5 -752h-321q147 238 241 408q-143 268 -287.5 609t-176.5 444h335q35 -123 283 -758q156 326 295 758zM604 1196q-311 0 -336 285h207q12 -57 41 -85t90 -28t88 26.5t39 86.5h207q-8 -123 -86 -204t-250 -81z" />
    <glyph glyph-name="uni045F" unicode="&#x45f;" horiz-adv-x="1306" 
d="M1174 0h-369v-346h-303v346h-369v1051h309v-795h422v795h310v-1051z" />
    <glyph glyph-name="uni0490" unicode="&#x490;" horiz-adv-x="1095" 
d="M1055 1677v-614h-594v-1063h-318v1331h605v346h307z" />
    <glyph glyph-name="uni0491" unicode="&#x491;" horiz-adv-x="946" 
d="M905 1397v-602h-463v-795h-309v1051h471v346h301z" />
    <glyph glyph-name="uni0492" unicode="&#x492;" horiz-adv-x="1095" 
d="M461 1063v-266h235v-269h-235v-528h-318v528h-143v269h143v534h912v-268h-594z" />
    <glyph glyph-name="uni0493" unicode="&#x493;" horiz-adv-x="970" 
d="M467 803v-182h266v-246h-266v-375h-309v375h-178v246h178v430h772v-248h-463z" />
    <glyph glyph-name="uni0496" unicode="&#x496;" horiz-adv-x="2086" 
d="M2118 268v-614h-308v346h-131q-154 260 -354 514h-133v-514h-307v514h-133q-201 -254 -355 -514h-397q354 502 496 684q-141 246 -459 647h381q197 -270 348 -549h119v549h307v-549h119q152 279 348 549h381q-317 -401 -459 -647q147 -190 307 -416h230z" />
    <glyph glyph-name="uni0497" unicode="&#x497;" horiz-adv-x="1775" 
d="M1815 256v-602h-302v346h-88q-117 190 -276 408h-107v-408h-309v408h-117q-119 -164 -266 -408h-370q256 375 389 545q-125 231 -330 506h350q78 -111 229 -398h115v398h309v-398h111q139 264 233 398h351q-205 -274 -330 -506q84 -104 211 -289h197z" />
    <glyph glyph-name="uni049A" unicode="&#x49a;" horiz-adv-x="1400" 
d="M1442 268v-614h-307v346h-113q-178 250 -422 516h-139v-516h-318v1331h318v-549h121q152 240 407 549h395q-399 -430 -544 -647q201 -205 372 -416h230z" />
    <glyph glyph-name="uni049B" unicode="&#x49b;" horiz-adv-x="1257" 
d="M1278 256v-602h-301v346h-76q-127 190 -326 408h-133v-408h-309v1051h309v-398h103q160 236 301 398h373q-262 -303 -412 -506q92 -84 268 -289h203z" />
    <glyph glyph-name="uni049C" unicode="&#x49c;" horiz-adv-x="1419" 
d="M633 516v-352h-125v352h-47v-516h-318v1331h318v-549h47v269h125v-269h20q152 279 348 549h381q-317 -401 -458 -647q141 -182 495 -684h-397q-145 244 -356 516h-33z" />
    <glyph glyph-name="uni049D" unicode="&#x49d;" horiz-adv-x="1255" 
d="M610 408v-306h-114v306h-54v-408h-309v1051h309v-398h54v213h114v-213h23q139 264 233 398h351q-205 -274 -330 -506q133 -170 389 -545h-371q-117 190 -276 408h-19z" />
    <glyph glyph-name="uni04A2" unicode="&#x4a2;" horiz-adv-x="1540" 
d="M1530 268v-614h-307v346h-174v516h-588v-516h-318v1331h318v-547h588v547h317v-1063h164z" />
    <glyph glyph-name="uni04A3" unicode="&#x4a3;" horiz-adv-x="1312" 
d="M1333 256v-602h-301v346h-178v397h-412v-397h-309v1051h309v-398h412v398h309v-795h170z" />
    <glyph glyph-name="uni04AE" unicode="&#x4ae;" horiz-adv-x="1294" 
d="M801 0h-316v444q-129 176 -203.5 301t-114.5 195q-61 108 -127.5 243.5t-70.5 147.5h361q20 -63 128.5 -278t184.5 -314q109 141 318 592h364q-53 -115 -208.5 -388t-315.5 -505v-438z" />
    <glyph glyph-name="uni04AF" unicode="&#x4af;" horiz-adv-x="1167" 
d="M739 -410h-309v410q-104 178 -236 485t-214 566h329q31 -109 119 -375t156 -414q68 148 156 414t118 375h330q-89 -278 -217 -576q-128 -297 -232 -475v-410z" />
    <glyph glyph-name="uni04B2" unicode="&#x4b2;" horiz-adv-x="1376" 
d="M1417 268v-614h-307v346h-129l-315 436l-324 -436h-383l506 670l-504 661h406l295 -442l292 442h398l-484 -661l306 -402h243z" />
    <glyph glyph-name="uni04B3" unicode="&#x4b3;" horiz-adv-x="1193" 
d="M1214 256v-602h-301v346h-73l-254 326l-232 -326h-372l405 518l-407 533h385l225 -351l235 351h369l-408 -533l218 -262h210z" />
    <glyph glyph-name="uni04B8" unicode="&#x4b8;" horiz-adv-x="1374" 
d="M1231 1331v-1331h-318v442q-51 -31 -120 -63v-215h-248v155h-29q-207 2 -305 110t-98 362v540h317v-536q0 -166 115 -195v451h248v-426q63 25 120 65v641h318z" />
    <glyph glyph-name="uni04B9" unicode="&#x4b9;" horiz-adv-x="1243" 
d="M1110 1051v-1051h-309v344q-68 -45 -103 -63v-179h-206v121h-39q-195 5 -283 107t-88 342v379h309v-371q0 -166 101 -193v359h206v-336q45 20 103 74v467h309z" />
    <glyph glyph-name="uni04BA" unicode="&#x4ba;" horiz-adv-x="1374" 
d="M1262 0h-318v496q0 110 -45 156t-135 46q-166 0 -303 -98v-600h-318v1331h318v-483q200 125 402 123t300 -110t99 -361v-500z" />
    <glyph glyph-name="uni04BB" unicode="&#x4bb;" horiz-adv-x="1368" 
d="M1235 633v-633h-309v594q0 102 -42 152.5t-141 50.5q-164 0 -301 -99v-698h-309v1415h311v-477q199 119 393.5 115t296 -98.5t101.5 -321.5z" />
    <glyph glyph-name="uni04C0" unicode="&#x4c0;" horiz-adv-x="604" 
d="M461 0h-318v1331h318v-1331z" />
    <glyph glyph-name="uni04CF" unicode="&#x4cf;" horiz-adv-x="575" 
d="M442 0h-309v1415h309v-1415z" />
    <glyph glyph-name="uni04D8" unicode="&#x4d8;" horiz-adv-x="1558" 
d="M786 254q139 0 236 69q96 69 113 216h-701q0 -100 60 -168q102 -117 292 -117zM768 1356q326 0 517 -169t192 -505q1 -182 -55 -322t-153 -221q-194 -164 -496 -164t-497 173t-194 532v127h1055q-49 266 -371 266q-217 0 -514 -61v288q293 56 516 56z" />
    <glyph glyph-name="uni04D9" unicode="&#x4d9;" horiz-adv-x="1243" 
d="M586 221q240 0 266 228h-473q1 -106 55 -167t152 -61zM573 1073q283 0 441 -134q158 -135 158 -407t-166 -412t-421 -140q-522 0 -524 559v102h793q-20 186 -289 186q-197 0 -448 -59v242q253 63 456 63z" />
    <glyph glyph-name="uni04E8" unicode="&#x4e8;" horiz-adv-x="1599" 
d="M800 254q132 0 235.5 72.5t135.5 222.5h-745q33 -150 137.5 -222.5t236.5 -72.5zM800 1073q-140 0 -243.5 -77.5t-132.5 -219.5h752q-29 141 -132.5 219t-243.5 78zM801 1356q133 0 257 -42t228.5 -122t168 -213t63.5 -309t-59.5 -315.5t-163 -219.5t-228.5 -120
t-268.5 -40t-268 40t-227 120t-162 219.5t-59.5 315.5t63.5 310t168 214t229.5 121t258 41z" />
    <glyph glyph-name="uni04E9" unicode="&#x4e9;" horiz-adv-x="1347" 
d="M677 231q97 0 164.5 51.5t96.5 135.5h-528q29 -86 99.5 -136.5t167.5 -50.5zM671 817q-97 0 -166 -48t-95 -136h530q-27 88 -99.5 136t-169.5 48zM675 1073q273 0 437 -143.5t164 -405.5t-164 -405.5t-437 -143.5t-438 142.5t-165 405.5t165 406.5t438 143.5z" />
    <glyph glyph-name="Wgrave" unicode="&#x1e80;" horiz-adv-x="1921" 
d="M1595 1331h316q-121 -659 -289 -1331h-440q-160 494 -221 760q-55 -221 -230 -760h-430q-162 653 -291 1331h318q78 -537 202 -1007q182 512 258 825h349q74 -299 256 -825q124 470 202 1007zM1102 1454h-238l-207 297h293z" />
    <glyph glyph-name="wgrave" unicode="&#x1e81;" horiz-adv-x="1802" 
d="M745 1051h312q0 -4 70 -294t147 -478q57 147 121.5 395t91.5 377h325q-54 -239 -167 -556t-203 -495h-336q-145 369 -205 594q-66 -248 -205 -594h-338q-90 178 -196 477t-172 574h325q27 -129 91.5 -377t121.5 -395q81 198 149 483t68 289zM1044 1210h-237l-207 297h293
z" />
    <glyph glyph-name="Wacute" unicode="&#x1e82;" horiz-adv-x="1921" 
d="M1595 1331h316q-121 -659 -289 -1331h-440q-160 494 -221 760q-55 -221 -230 -760h-430q-162 653 -291 1331h318q78 -537 202 -1007q182 512 258 825h349q74 -299 256 -825q124 470 202 1007zM1051 1454h-238l152 297h292z" />
    <glyph glyph-name="wacute" unicode="&#x1e83;" horiz-adv-x="1802" 
d="M745 1051h312q0 -4 70 -294t147 -478q57 147 121.5 395t91.5 377h325q-54 -239 -167 -556t-203 -495h-336q-145 369 -205 594q-66 -248 -205 -594h-338q-90 178 -196 477t-172 574h325q27 -129 91.5 -377t121.5 -395q81 198 149 483t68 289zM995 1210h-237l151 297h293z
" />
    <glyph glyph-name="Wdieresis" unicode="&#x1e84;" horiz-adv-x="1921" 
d="M1595 1331h316q-121 -659 -289 -1331h-440q-160 494 -221 760q-55 -221 -230 -760h-430q-162 653 -291 1331h318q78 -537 202 -1007q182 512 258 825h349q74 -299 256 -825q124 470 202 1007zM1348 1446h-306v264h306v-264zM877 1446h-306v264h306v-264z" />
    <glyph glyph-name="wdieresis" unicode="&#x1e85;" horiz-adv-x="1802" 
d="M745 1051h312q0 -4 70 -294t147 -478q57 147 121.5 395t91.5 377h325q-54 -239 -167 -556t-203 -495h-336q-145 369 -205 594q-66 -248 -205 -594h-338q-90 178 -196 477t-172 574h325q27 -129 91.5 -377t121.5 -395q81 198 149 483t68 289zM1288 1200h-305v264h305v-264
zM817 1200h-305v264h305v-264z" />
    <glyph glyph-name="uni1E9E" unicode="&#x1e9e;" horiz-adv-x="1576" 
d="M1511 416q0 -190 -132 -316t-368 -125q-236 0 -452 76v289q238 -86 442 -86q98 0 139 34q40 34 40 122t-86 140t-316 68v195l217 219q-92 47 -213 47q-174 0 -248 -87t-73 -304v-688h-318v688q0 342 159 505t482 163q197 0 369 -76t254 -197l-242 -249q346 -100 346 -418
z" />
    <glyph glyph-name="Ygrave" unicode="&#x1ef2;" horiz-adv-x="1294" 
d="M801 0h-316v444q-129 176 -203.5 301t-114.5 195q-61 108 -127.5 243.5t-70.5 147.5h361q20 -63 128.5 -278t184.5 -314q109 141 318 592h364q-53 -115 -208.5 -388t-315.5 -505v-438zM788 1454h-237l-207 297h293z" />
    <glyph glyph-name="ygrave" unicode="&#x1ef3;" horiz-adv-x="1208" 
d="M893 1051h336q-72 -203 -301.5 -709t-403.5 -752h-321q147 238 241 408q-143 268 -287.5 609t-176.5 444h335q35 -123 283 -758q156 326 295 758zM510 1210l-207 297h293l152 -297h-238z" />
    <glyph glyph-name="hyphentwo" unicode="&#x2010;" horiz-adv-x="942" 
d="M870 457h-798v297h798v-297z" />
    <glyph glyph-name="endash" unicode="&#x2013;" horiz-adv-x="1146" 
d="M1075 457h-1003v297h1003v-297z" />
    <glyph glyph-name="emdash" unicode="&#x2014;" horiz-adv-x="1761" 
d="M1690 457h-1618v297h1618v-297z" />
    <glyph glyph-name="uni2015" unicode="&#x2015;" horiz-adv-x="1761" 
d="M1690 457h-1618v297h1618v-297z" />
    <glyph glyph-name="underscoredbl" unicode="&#x2017;" horiz-adv-x="1064" 
d="M1065 -614h-1065v278h1065v-278zM1065 -111h-1065v279h1065v-279z" />
    <glyph glyph-name="quoteleft" unicode="&#x2018;" horiz-adv-x="399" 
d="M186 1358h224l-95 -484h-274z" />
    <glyph glyph-name="quoteright" unicode="&#x2019;" horiz-adv-x="399" 
d="M213 874h-223l94 484h274z" />
    <glyph glyph-name="quotesinglbase" unicode="&#x201a;" horiz-adv-x="399" 
d="M213 -166h-223l94 483h274z" />
    <glyph glyph-name="quotereversed" unicode="&#x201b;" horiz-adv-x="399" 
d="M315 1358l95 -484h-224l-145 484h274z" />
    <glyph glyph-name="quotedblleft" unicode="&#x201c;" horiz-adv-x="802" 
d="M719 874h-275l146 484h223zM315 874h-274l145 484h224z" />
    <glyph glyph-name="quotedblright" unicode="&#x201d;" horiz-adv-x="802" 
d="M616 874h-223l94 484h275zM213 874h-223l94 484h274z" />
    <glyph glyph-name="quotedblbase" unicode="&#x201e;" horiz-adv-x="802" 
d="M616 -166h-223l94 483h275zM213 -166h-223l94 483h274z" />
    <glyph glyph-name="dagger" unicode="&#x2020;" horiz-adv-x="1120" 
d="M709 0h-297v735h-340v297h340v340h297v-340h340v-297h-340v-735z" />
    <glyph glyph-name="daggerdbl" unicode="&#x2021;" horiz-adv-x="1120" 
d="M709 735v-133h340v-297h-340v-305h-297v305h-340v297h340v133h-340v297h340v340h297v-340h340v-297h-340z" />
    <glyph glyph-name="bullet" unicode="&#x2022;" horiz-adv-x="659" 
d="M567 377h-475v452h475v-452z" />
    <glyph glyph-name="ellipsis" unicode="&#x2026;" horiz-adv-x="1548" 
d="M1456 0h-332v317h332v-317zM940 0h-332v317h332v-317zM424 0h-332v317h332v-317z" />
    <glyph glyph-name="perthousand" unicode="&#x2030;" horiz-adv-x="2570" 
d="M2208 580q-121 0 -121 -217t117 -218q125 0 125 232q0 203 -121 203zM1409 580q-121 0 -121 -217t117 -218q125 0 125 232q0 203 -121 203zM2207 754q171 0 257 -110t86 -285t-87 -280t-257 -105t-256 104t-86 280t86 286t257 110zM1408 754q171 0 257 -110t86 -285
t-87 -280t-257 -105t-256 104t-86 280t86 286t257 110zM367 1186q-125 0 -125 -232q0 -203 120 -202q122 0 122 217t-117 217zM668 0h-250l690 1331h246zM20 972q0 174 88 280t257 106q170 0 256 -104t86 -281q0 -176 -86 -286q-85 -109 -257 -109t-258 110t-86 284z" />
    <glyph glyph-name="minute" unicode="&#x2032;" horiz-adv-x="647" 
d="M428 979h-207l-47 502h299z" />
    <glyph glyph-name="second" unicode="&#x2033;" horiz-adv-x="647" 
d="M473 1481l-45 -502h-207l-47 502h299z" />
    <glyph glyph-name="guilsinglleft" unicode="&#x2039;" horiz-adv-x="706" 
d="M371 543l223 -398h-242l-239 402l237 397h244z" />
    <glyph glyph-name="guilsinglright" unicode="&#x203a;" horiz-adv-x="706" 
d="M594 547l-240 -402h-241l223 398l-223 401h243z" />
    <glyph glyph-name="exclamdbl" unicode="&#x203c;" horiz-adv-x="1069" 
d="M971 317v-317h-332v317h332zM432 317v-317h-332v317h332zM631 1331h346l-25 -852h-297zM92 1331h346l-24 -852h-297z" />
    <glyph glyph-name="uni203D" unicode="&#x203d;" horiz-adv-x="1095" 
d="M610 317v-317h-331v317h331zM494 1352q272 0 422 -92t149 -267q0 -92 -36 -163t-106 -121t-181 -104q-110 -55 -134 -77t-26 -57h-301l-19 483h334l-4 -114q123 60 123 122q1 62 -55 86t-206 24t-431 -68v284q268 64 471 64z" />
    <glyph glyph-name="overline" unicode="&#x203e;" horiz-adv-x="1064" 
d="M1065 1257h-1065v279h1065v-279z" />
    <glyph glyph-name="fraction" unicode="&#x2044;" horiz-adv-x="403" 
d="M-16 0h-250l690 1331h246z" />
    <glyph glyph-name="zerosuperior" unicode="&#x2070;" 
d="M406 932q70 0 116 54t45 162q1 108 -45 170t-117 62t-112 -59t-41 -170t42 -165t112 -54zM407 1544q175 0 267 -104t92 -284t-95 -284t-265 -104t-261 102q-92 102 -92 284t89 287q90 103 265 103z" />
    <glyph glyph-name="foursuperior" unicode="&#x2074;" 
d="M786 928h-120v-142h-195v142h-424v143q152 238 326 453h237q-203 -231 -329 -434h190v176h195v-176h120v-162z" />
    <glyph glyph-name="fivesuperior" unicode="&#x2075;" 
d="M657 1362h-338l-8 -96q45 10 109 10q147 0 230 -68t83 -182t-91 -186q-90 -72 -246 -72t-285 39v166q164 -41 249 -41q174 0 175 102q0 80 -158 80q-123 0 -254 -29l33 439h501v-162z" />
    <glyph glyph-name="sixsuperior" unicode="&#x2076;" 
d="M424 1176q-147 0 -148 -129q0 -117 142 -117q66 0 98 36t33 87q0 51 -32 87t-93 36zM469 1325q133 0 206 -76q73 -75 73 -199t-88 -203t-242 -79q-152 0 -246 80t-94 244q0 212 144 336t456 116v-170q-123 6 -207 -9t-158 -77q78 37 156 37z" />
    <glyph glyph-name="sevensuperior" unicode="&#x2077;" 
d="M725 1524v-129q-264 -379 -352 -609h-209q76 172 170 335t151 241h-370v162h610z" />
    <glyph glyph-name="eightsuperior" unicode="&#x2078;" 
d="M410 1090q-64 0 -93 -26t-29 -60t34 -57q33 -21 87 -21t89 22q34 22 34 56t-28 60q-30 26 -94 26zM514 1313q0 33 -28 57t-76 25q-49 0 -77 -25q-28 -26 -28 -58t29 -58t76 -26q48 0 76 26t28 59zM711 1328q0 -104 -97 -163q49 -20 83 -68t34 -102q0 -227 -320 -227
t-321 227q0 55 33 101t84 69q-98 59 -98 163t82 159q84 55 219 56t218 -55t83 -160z" />
    <glyph glyph-name="ninesuperior" unicode="&#x2079;" 
d="M399 1137q147 0 148 129q0 53 -34 85q-35 31 -103 31t-102 -36t-34 -86q0 -51 32 -87t93 -36zM354 987q-133 0 -206 76q-72 75 -72 199t88 203t240 79t246 -81q95 -81 95 -242q-1 -211 -145 -336t-455 -117v170q123 -6 207 9t158 77q-78 -37 -156 -37z" />
    <glyph glyph-name="plussuperior" unicode="&#x207a;" horiz-adv-x="610" 
d="M397 1061v-193h-184v193h-193v184h193v193h184v-193h193v-184h-193z" />
    <glyph glyph-name="uni207B" unicode="&#x207b;" horiz-adv-x="624" 
d="M604 1061h-584v184h584v-184z" />
    <glyph glyph-name="equalsuperior" unicode="&#x207c;" horiz-adv-x="624" 
d="M604 1098v-185h-584v185h584zM604 1384v-184h-584v184h584z" />
    <glyph glyph-name="parenleftsuperior" unicode="&#x207d;" horiz-adv-x="348" 
d="M240 1118q0 -215 149 -508h-203q-135 256 -135 506t135 506h201q-147 -289 -147 -504z" />
    <glyph glyph-name="parenrightsuperior" unicode="&#x207e;" horiz-adv-x="348" 
d="M297 1116q0 -250 -135 -506h-203q150 293 150 508q-1 215 -148 504h201q135 -256 135 -506z" />
    <glyph glyph-name="nsuperior" unicode="&#x207f;" horiz-adv-x="1368" 
d="M824.5 1073q205.5 0 308 -96t102.5 -324v-653h-309v614q0 102 -42 152.5t-141 50.5q-164 0 -301 -98v-719h-309v1051h250l33 -111q203 133 408.5 133z" />
    <glyph glyph-name="zeroinferior" unicode="&#x2080;" 
d="M406 -59q70 0 116 54q46 55 45 163q1 108 -45 170t-117 61q-71 0 -112 -59t-41 -170t42 -165t112 -54zM407 553q175 0 267 -104q92 -105 92 -285t-95 -284t-265 -103q-170 0 -261 102q-92 103 -92 285t89 286q90 103 265 103z" />
    <glyph glyph-name="oneinferior" unicode="&#x2081;" 
d="M397 -205v535l-243 -35v168l438 86v-754h-195z" />
    <glyph glyph-name="twoinferior" unicode="&#x2082;" 
d="M411 553q128 0 211 -65t83 -177t-79 -191t-233 -163h299v-162h-588v164q207 117 305 191q97 74 97 133q0 106 -141 106q-68 0 -232 -45v164q150 45 278 45z" />
    <glyph glyph-name="threeinferior" unicode="&#x2083;" 
d="M356 -223q-121 0 -260 37v163q257 -68 367 -14q45 23 45 70t-55 69t-181 23h-18v80l170 168h-322v159h582v-124l-168 -170q92 -16 141 -74t50 -139q0 -248 -351 -248z" />
    <glyph glyph-name="fourinferior" unicode="&#x2084;" 
d="M786 -63h-120v-142h-195v142h-424v143q152 238 326 452h237q-203 -231 -329 -434h190v176h195v-176h120v-161z" />
    <glyph glyph-name="fiveinferior" unicode="&#x2085;" 
d="M657 371h-338l-8 -97q45 10 109 11q147 0 230 -68q83 -69 83 -183t-91 -186q-90 -72 -246 -72t-285 40v166q164 -41 249 -41q174 0 175 102q0 80 -158 80q-123 0 -254 -29l33 438h501v-161z" />
    <glyph glyph-name="sixinferior" unicode="&#x2086;" 
d="M424 184q-147 0 -148 -129q0 -117 142 -116q66 -1 98 35t33 87q0 51 -32 87t-93 36zM469 334q133 0 206 -76t73 -200t-88 -202t-242 -79q-152 0 -246 80t-94 243q0 211 144 336q145 125 456 117v-170q-123 6 -207 -9t-158 -77q78 37 156 37z" />
    <glyph glyph-name="seveninferior" unicode="&#x2087;" 
d="M725 532v-129q-264 -379 -352 -608h-209q76 172 170 335t151 241h-370v161h610z" />
    <glyph glyph-name="eightinferior" unicode="&#x2088;" 
d="M410 98q-64 0 -93 -26t-29 -60t34 -56q33 -22 87 -22t89 22q34 22 34 56t-28 61q-30 25 -94 25zM514 322q0 33 -28 57t-76 24q-49 -1 -77 -25t-28 -56t29 -59q29 -25 76 -25q48 0 76 26t28 58zM711 336q0 -104 -97 -162q49 -20 83 -68t34 -102q0 -227 -320 -227t-321 227
q0 55 33 101t84 69q-98 58 -98 162t82 160q84 55 219 56t218 -55q83 -57 83 -161z" />
    <glyph glyph-name="nineinferior" unicode="&#x2089;" 
d="M399 145q147 0 148 129q0 53 -34 85q-35 32 -103 32t-102 -36t-34 -87t32 -87t93 -36zM354 -4q-133 0 -206 76q-72 76 -72 200t88 202q88 79 240 79t246 -81q95 -81 95 -243q-1 -211 -145 -335t-455 -117v170q123 -6 207 9t158 77q-78 -37 -156 -37z" />
    <glyph glyph-name="uni208A" unicode="&#x208a;" horiz-adv-x="610" 
d="M397 57v-192h-184v192h-193v185h193v192h184v-192h193v-185h-193z" />
    <glyph glyph-name="uni208B" unicode="&#x208b;" horiz-adv-x="624" 
d="M604 57h-584v185h584v-185z" />
    <glyph glyph-name="uni208C" unicode="&#x208c;" horiz-adv-x="624" 
d="M604 94v-184h-584v184h584zM604 381v-184h-584v184h584z" />
    <glyph glyph-name="uni208D" unicode="&#x208d;" horiz-adv-x="348" 
d="M240 114q0 -214 149 -507h-203q-135 255 -135 505t135 506h201q-147 -290 -147 -504z" />
    <glyph glyph-name="uni208E" unicode="&#x208e;" horiz-adv-x="348" 
d="M297 112q0 -250 -135 -505h-203q149 293 149 507t-147 504h201q135 -256 135 -506z" />
    <glyph glyph-name="franc" unicode="&#x20a3;" horiz-adv-x="1239" 
d="M461 1063v-236h629v-268h-629v-121h235v-248h-235v-190h-318v190h-143v248h143v893h1014v-268h-696z" />
    <glyph glyph-name="lira" unicode="&#x20a4;" horiz-adv-x="1138" 
d="M1128 0h-985v180q74 59 114 137t40 150v20h-182v185h182v84h-182v184h182v23q0 393 414 393q154 0 274 -35v-250q-103 31 -205 31t-134 -32t-32 -105v-25h254v-184h-254v-84h254v-185h-254v-4q0 -73 -22 -119t-78 -96h614v-268z" />
    <glyph glyph-name="peseta" unicode="&#x20a7;" horiz-adv-x="2717" 
d="M2077 608q123 0 229 -28v-158q-142 33 -218 33t-101 -6t-25 -29t82 -39l121 -23q180 -35 180 -184q0 -199 -320 -199q-115 0 -237 35v162q135 -41 251 -41t115 37q0 20 -13 28t-70 19l-129 25q-94 18 -130 64q-35 46 -34 116q0 188 299 188zM1550 596h185v-156h-185v-221
q0 -43 16 -63q35 -42 169 0v-158q-59 -23 -142 -23q-233 0 -233 211v254h-103v156h103l10 147h180v-147zM461 1063v-428h213q135 0 207 46q71 46 71 170t-73 168q-74 44 -211 44h-207zM143 1331h557q584 0 584 -481q0 -361 -379 -459q-96 -25 -203 -24h-241v-367h-318v1331z
" />
    <glyph glyph-name="Euro" unicode="&#x20ac;" horiz-adv-x="1415" 
d="M928 -20q-551 0 -666 436h-242l70 184h146l-3 59v23h-172l70 184h125q56 240 240 363t416 123t419 -58v-282q-188 61 -373 61q-287 0 -362 -207h475l-70 -184h-436v-20q0 -41 2 -62h463l-69 -184h-340q146 -260 712 -94v-299q-203 -43 -405 -43z" />
    <glyph glyph-name="uni20B9" unicode="&#x20b9;" horiz-adv-x="1208" 
d="M432 1147h-381l37 184h1090l-37 -184h-226q61 -76 74 -166h189l-37 -184h-174q-39 -111 -135 -200t-244 -134l342 -463h-314l-368 489l67 166q240 0 318 142h-578l37 184h580q-4 76 -66 121t-174 45z" />
    <glyph glyph-name="uni20BA" unicode="&#x20ba;" horiz-adv-x="1306" 
d="M918 745h317q0 -325 -236 -535t-536 -210q-139 0 -225 6v430l-156 -84v207l156 84v115l-156 -84v207l156 84v368h317v-198l272 147v-207l-272 -147v-115l272 148v-207l-272 -148v-323q171 19 267 135t96 327z" />
    <glyph glyph-name="uni20BC" unicode="&#x20bc;" horiz-adv-x="1359" 
d="M461 737h274q106 1 150 23q45 22 61 59t17 96q0 147 -234 148h-268v-326zM143 1331h598q553 0 553 -411q0 -329 -353 -410q-91 -20 -198 -21h-282v-92h235v-227h-235v-170h-318v170h-143v227h143v92h-143v248h143v594z" />
    <glyph glyph-name="uni20BD" unicode="&#x20bd;" horiz-adv-x="1359" 
d="M461 737h274q106 1 150 23q45 22 61 59t17 96q0 147 -234 148h-268v-326zM143 1331h598q553 0 553 -411q0 -329 -353 -410q-91 -20 -198 -21h-282v-92h235v-227h-235v-170h-318v170h-143v227h143v92h-143v248h143v594z" />
    <glyph glyph-name="uni2105" unicode="&#x2105;" horiz-adv-x="1810" 
d="M1402 131q68 0 108 44t40 114q0 69 -42 111t-110 42q-69 0 -108 -42t-39 -112t41 -114q41 -43 110 -43zM1053 286q0 154 95 236t253 82t253 -83t95 -235t-95 -234q-95 -83 -253 -83t-253 82t-95 235zM659 0h-249l690 1331h246zM391 1356q131 0 242 -37v-170
q-103 45 -189 45t-135 -39t-49 -116t53 -117t133 -39q80 0 187 28v-163q-133 -27 -203 -27q-164 0 -266 79q-102 80 -102 234t98 238q100 84 231 84z" />
    <glyph glyph-name="uni2113" unicode="&#x2113;" horiz-adv-x="980" 
d="M516 1055v-221q217 174 217 344q0 115 -100 114q-61 0 -89 -54t-28 -183zM674 250q96 0 174 24l2 -254q-90 -29 -205 -28q-231 0 -335 74q-103 74 -103 251v97l-111 -54l-76 166q127 70 187 105v424q0 451 422 450q156 0 254 -79t98 -222q0 -313 -465 -614v-158
q0 -104 31 -143t127 -39z" />
    <glyph glyph-name="uni2116" unicode="&#x2116;" horiz-adv-x="2682" 
d="M2560 0h-901v297h901v-297zM2107 1112q-92 0 -147 -58t-55 -154t57 -154q58 -60 150 -60t147 60t55 156t-57 154q-58 56 -150 56zM1391 0h-316l-620 897v-897h-312v1329h367l569 -833v833h312v-1329zM2109 1358q227 0 365 -121t137 -339q0 -218 -136 -338
q-137 -120 -365 -120t-366 119t-138 339t138 340t365 120z" />
    <glyph glyph-name="uni2117" unicode="&#x2117;" horiz-adv-x="1703" 
d="M770 958v-202h129q80 0 114 24t34 84q0 94 -152 94h-125zM766 569v-250h-217v826h385q154 0 247 -72t93 -209q0 -295 -361 -295h-147zM1511 739q0 274 -192 467q-193 193 -468 193q-275 -1 -465 -191t-191 -464q0 -274 189 -464q190 -192 466 -192t469 188
q192 189 192 463zM1622 743q0 -325 -221 -545t-551 -220t-549 218t-219 544t220 549q220 222 550 222t550 -222t220 -546z" />
    <glyph glyph-name="trademark" unicode="&#x2122;" horiz-adv-x="1660" 
d="M1167 979l101 352h272q66 -346 100 -741h-202q-27 319 -54 487q-51 -150 -122 -422h-189q-82 299 -125 426q-31 -180 -51 -491h-205q37 403 101 741h272q80 -250 102 -352zM688 1149h-231v-559h-205v559h-232v182h668v-182z" />
    <glyph glyph-name="Ohm" unicode="&#x2126;" horiz-adv-x="1597" 
d="M1516 692q0 -264 -175 -424h164v-268h-616v250q133 0 214 118t81 310t-111 294t-277 101q-166 0 -274 -101t-108 -294q0 -192 80 -310t213 -118v-250h-615v268h164q-174 160 -174 424q0 164 63 295q113 235 397 328q124 41 257 41t257 -41t228 -119t168 -209t64 -295z
" />
    <glyph glyph-name="estimated" unicode="&#x212e;" horiz-adv-x="1695" 
d="M845 1305q-259 0 -444 -185q-29 -27 -28 -80v-329q0 -23 26 -23h895q27 0 27 23v329q0 51 -31 80q-186 185 -445 185zM848 1356q346 0 550 -206t204 -507h-1203q-27 0 -26 -22v-330q0 -59 28 -86q184 -180 447 -180q141 0 266 59t205 158h135q-78 -109 -232 -187
t-374 -78q-340 0 -548 193t-208 493q0 301 205 497t551 196z" />
    <glyph glyph-name="oneeighth" unicode="&#x215b;" horiz-adv-x="1910" 
d="M1624 218q0 34 -29 60t-93 25q-64 1 -94 -25q-28 -26 -28 -61t33 -57t87 -21q54 0 89 22q35 23 35 57zM1606 526q0 32 -28 58q-28 24 -77 24t-77 -24t-28 -58q0 -32 30 -58q28 -26 75 -26t76 26t29 58zM1200 542q0 104 83 158q83 56 218 57t218 -55t83 -161
q0 -104 -96 -162q49 -21 83 -69t34 -101q-1 -227 -321 -227t-320 227q0 55 32 101q33 46 84 69q-98 59 -98 163zM702 0h-249l690 1331h246zM397 582v534l-243 -35v168l438 86v-753h-195z" />
    <glyph glyph-name="threeeighths" unicode="&#x215c;" horiz-adv-x="1929" 
d="M1520 303q-64 1 -93 -25t-29 -61t34 -57q33 -22 87 -21q54 0 89 22q34 23 34 57t-28 60q-30 25 -94 25zM1520 442q48 0 76 26t28 58t-28 58q-28 24 -76 24q-49 0 -77 -24t-28 -58q0 -32 29 -58t76 -26zM1219 542q0 104 83 158q83 56 218 57t218 -55t83 -161
q0 -104 -97 -162q49 -21 83 -69t34 -101q0 -227 -320 -227t-321 227q0 55 33 101t84 69q-98 59 -98 163zM467 0l690 1331h246l-686 -1331h-250zM356 575q-121 0 -260 37v164q142 -37 232 -37q180 0 180 86q0 53 -55 76t-181 23h-18v80l170 167h-322v160h582v-125l-168 -170
q92 -16 141 -73t50 -140q0 -248 -351 -248z" />
    <glyph glyph-name="fiveeighths" unicode="&#x215d;" horiz-adv-x="1951" 
d="M1665 218q0 34 -29 60q-30 26 -94 25q-64 1 -92 -25t-29 -61q0 -35 33 -57t87 -21q54 0 89 22q35 23 35 57zM1647 526q0 32 -28 58q-28 24 -77 24t-77 -24q-27 -24 -27 -58q0 -32 28 -58t76 -26q47 0 76 26t29 58zM1241 542q0 104 83 158q83 56 218 57t218 -55t83 -161
q0 -104 -96 -162q49 -21 83 -69t34 -101q0 -227 -320 -227t-321 227q0 55 32 101q33 46 84 69q-98 59 -98 163zM487 0l691 1331h245l-686 -1331h-250zM657 1169h-338l-8 -96q45 10 109 10q147 1 230 -67t83 -182t-91 -187q-90 -72 -246 -72t-285 39v166q164 -41 249 -41
q174 0 175 103q0 80 -158 80q-123 0 -254 -29l33 438h501v-162z" />
    <glyph glyph-name="seveneighths" unicode="&#x215e;" horiz-adv-x="1816" 
d="M1530 218q0 34 -29 60t-93 25q-64 1 -94 -25q-28 -26 -28 -61t33 -57t87 -21q54 0 89 22q35 23 35 57zM1407 608q-49 0 -77 -24t-28 -58q0 -32 30 -58q28 -26 75 -26t76 26t29 58t-28 58q-28 24 -77 24zM1106 542q0 104 83 158q83 56 218 57t218 -55t83 -161
q0 -104 -96 -162q49 -21 83 -69t34 -101q-1 -227 -321 -227t-321 227q0 55 33 101t84 69q-98 59 -98 163zM354 0l690 1331h246l-686 -1331h-250zM725 1331v-129q-264 -379 -352 -608h-209q76 172 170 335t151 240h-370v162h610z" />
    <glyph glyph-name="Sevenroman" unicode="&#x2166;" horiz-adv-x="2586" 
d="M2443 0h-317v1331h317v-1331zM1839 0h-317v1331h317v-1331zM1061 1331h348q-227 -766 -498 -1331h-460q-295 631 -482 1331h342q209 -719 373 -1081q176 395 377 1081z" />
    <glyph glyph-name="partialdiff" unicode="&#x2202;" horiz-adv-x="1347" 
d="M679 231q124 1 197 95t78 274q-135 135 -301 135q-260 0 -260 -252q0 -98 81 -175t205 -77zM1276 627q0 -319 -163 -485t-435 -167t-439 137t-167 380t146 371q146 128 351 128t340 -96q-61 159 -203 235t-366 105l84 246q260 -34 458 -143q118 -66 202 -154t138 -232
t54 -325z" />
    <glyph glyph-name="increment" unicode="&#x2206;" horiz-adv-x="1398" 
d="M381 268h612q-145 442 -309 828q-160 -371 -303 -828zM1372 0h-1347v180q219 672 448 1151h442q266 -569 457 -1151v-180z" />
    <glyph glyph-name="product" unicode="&#x220f;" horiz-adv-x="1499" 
d="M1356 -410h-318v1557h-577v-1557h-318v1825h1213v-1825z" />
    <glyph glyph-name="summation" unicode="&#x2211;" horiz-adv-x="1263" 
d="M1202 -141v-269h-1141v181l588 731l-588 733v180h1141v-268h-694l434 -543v-207l-434 -538h694z" />
    <glyph glyph-name="minus" unicode="&#x2212;" horiz-adv-x="1146" 
d="M1075 498h-1003v297h1003v-297z" />
    <glyph glyph-name="divisionslash" unicode="&#x2215;" horiz-adv-x="1122" 
d="M430 0h-317l571 1331h326z" />
    <glyph glyph-name="bulletoperator" unicode="&#x2219;" horiz-adv-x="516" 
d="M567 377h-475v452h475v-452z" />
    <glyph glyph-name="radical" unicode="&#x221a;" horiz-adv-x="1128" 
d="M721 -408h-244l-291 615l-84 -41l-102 223l319 146l220 -492l301 1491h278z" />
    <glyph glyph-name="infinity" unicode="&#x221e;" horiz-adv-x="1368" 
d="M987 721q-61 0 -147 -100q57 -59 87 -81q31 -22 65 -22t57 28t23 72t-24 73q-24 30 -61 30zM381 721q-37 0 -61 -30t-23 -74q1 -43 23 -71t57 -28t65 22t86 81q-86 100 -147 100zM991 952q145 0 231 -92t85 -237q0 -145 -84 -239t-224 -95q-99 0 -165 37t-150 127
q-84 -90 -150 -127t-165 -37q-139 0 -224 94q-84 93 -84 239t85 238t231 92q92 0 163 -46t144 -130q74 84 144 130t163 46z" />
    <glyph glyph-name="integral" unicode="&#x222b;" horiz-adv-x="788" 
d="M590 1536q106 0 198 -20v-248q-92 12 -143 12t-74 -23t-22 -88v-1228q0 -175 -89 -275t-261 -100q-106 0 -199 20v248q92 -12 141 -12t74 24t25 86v1229q0 179 90 277t260 98z" />
    <glyph glyph-name="approxequal" unicode="&#x2248;" horiz-adv-x="1144" 
d="M1073 567q0 -139 -83 -233t-216 -94q-84 0 -199 44t-167 44q-98 0 -129 -97h-207q0 139 88 233t223 95q86 0 201 -47t170 -47q82 0 100 102h219zM1073 1044q0 -139 -83 -233t-216 -94q-84 0 -199 44t-167 44q-98 0 -129 -96h-207q0 139 88 233t223 94q86 0 201 -47
t170 -47q82 0 100 102h219z" />
    <glyph glyph-name="notequal" unicode="&#x2260;" horiz-adv-x="1146" 
d="M1075 743h-305l-94 -215h399v-297h-520l-88 -202h-317l88 202h-166v297h301l92 215h-393v297h512l88 205h325l-88 -205h166v-297z" />
    <glyph glyph-name="lessequal" unicode="&#x2264;" horiz-adv-x="1218" 
d="M1147 297v-297h-1075v297h1075zM1147 1024l-801 -195l801 -192v-287l-1073 320v321l1073 320v-287z" />
    <glyph glyph-name="greaterequal" unicode="&#x2265;" horiz-adv-x="1218" 
d="M1147 0h-1075v297h1075v-297zM1145 991v-321l-1073 -320v287l800 192l-800 195v287z" />
    <glyph glyph-name="lozenge" unicode="&#x25ca;" horiz-adv-x="1157" 
d="M367 668l211 -416l213 416l-213 413zM1137 668l-410 -699h-297l-410 699l410 690h297z" />
    <glyph glyph-name="uni5143" unicode="&#x5143;" horiz-adv-x="1779" 
d="M1577 629h-371v-297q0 -37 16 -53q16 -17 63 -17q48 0 67 33q18 33 26 85t10 60t3 15l266 -43q-41 -246 -123 -329t-313 -83q-332 0 -332 270v359h-160v-135q0 -236 -141 -350q-74 -58 -162 -94t-227 -73l-80 285q92 27 135 42t86 45t57 73t15 113v94h-324v268h1489v-268
zM1485 1063h-1305v268h1305v-268z" />
    <glyph glyph-name="Kanji" unicode="&#x5186;" horiz-adv-x="1705" 
d="M1245 1063h-260v-289h260v289zM717 1063h-256v-289h256v289zM1563 1331v-1032q0 -147 -87 -233t-266 -86q-25 0 -239 6v254q93 -4 163 -4t94 22t23 80v168h-790v-506h-318v1331h1420z" />
    <glyph glyph-name="uniF8FF" unicode="&#xf8ff;" horiz-adv-x="1110" 
d="M807 297v942h-504v-942h504zM1110 1536v-1536h-1110v1536h1110z" />
    <glyph glyph-name="fi" unicode="&#xfb01;" horiz-adv-x="1374" 
d="M1241 0h-309v1051h309v-1051zM1260 1200h-347v264h347v-264zM602 1481q127 0 223 -35v-250q-75 31 -165 31t-122 -28t-32 -101v-47h325v-246h-325v-805h-309v805h-217v246h217v65q0 186 113 276q114 89 292 89z" />
    <glyph glyph-name="fl" unicode="&#xfb02;" horiz-adv-x="1374" 
d="M1241 0h-309v1415h309v-1415zM602 1481q127 0 223 -35v-250q-75 31 -165 31t-122 -28t-32 -101v-47h325v-246h-325v-805h-309v805h-217v246h217v65q0 186 113 276q114 89 292 89z" />
    <glyph glyph-name="uniFEFF" unicode="&#xfeff;" horiz-adv-x="1228" 
 />
    <glyph glyph-name="NULL" horiz-adv-x="1228" 
 />
    <glyph glyph-name="zero.dnom" 
d="M567 362q1 108 -45 170t-117 62t-112 -59t-41 -170t42 -165t112 -54t116 54t45 162zM53 368q-1 182 89 286t265 104t267 -104t92 -285q0 -179 -95 -283t-265 -104t-261 102q-92 102 -92 284z" />
    <glyph glyph-name="one.dnom" 
d="M397 0v535l-243 -35v168l438 86v-754h-195z" />
    <glyph glyph-name="two.dnom" 
d="M411 758q128 0 211 -65t83 -177t-79 -191t-233 -163h299v-162h-588v164q207 117 305 190q97 74 97 133q0 106 -141 107q-68 0 -232 -45v164q150 45 278 45z" />
    <glyph glyph-name="three.dnom" 
d="M328 145q180 0 180 86q0 53 -55 76t-181 23h-18v80l170 168h-322v159h582v-125l-168 -170q92 -16 141 -73t50 -140q0 -248 -351 -247q-121 0 -260 36v164q142 -37 232 -37z" />
    <glyph glyph-name="four.dnom" 
d="M786 141h-120v-141h-195v141h-424v144q152 238 326 452h237q-203 -231 -329 -434h190v176h195v-176h120v-162z" />
    <glyph glyph-name="five.dnom" 
d="M657 575h-338l-8 -96q45 10 109 10q147 1 230 -67t83 -182t-91 -187q-90 -71 -246 -71t-285 38v166q164 -41 249 -41q174 0 175 103q0 80 -158 80q-123 0 -254 -29l33 438h501v-162z" />
    <glyph glyph-name="six.dnom" 
d="M424 389q-147 0 -148 -129q0 -117 142 -117q66 0 98 36t33 87q0 51 -32 87t-93 36zM469 539q133 0 206 -76t73 -200t-88 -203q-88 -78 -242 -78q-152 0 -246 80t-94 243q0 211 144 336q145 125 456 117v-170q-123 6 -207 -9t-158 -77q78 37 156 37z" />
    <glyph glyph-name="seven.dnom" 
d="M725 737v-129q-264 -379 -352 -608h-209q76 172 170 335t151 240h-370v162h610z" />
    <glyph glyph-name="eight.dnom" 
d="M410 303q-64 1 -93 -25t-29 -61t34 -57q33 -22 87 -21q54 0 89 22q34 23 34 57t-28 60q-30 25 -94 25zM410 442q48 0 76 26t28 58t-28 58q-28 24 -76 24q-49 0 -77 -24t-28 -58q0 -32 29 -58t76 -26zM109 542q0 104 83 158q83 56 218 57t218 -55t83 -161q0 -104 -97 -162
q49 -21 83 -69t34 -101q0 -227 -320 -227t-321 227q0 55 33 101t84 69q-98 59 -98 163z" />
    <glyph glyph-name="nine.dnom" 
d="M399 350q147 0 148 129q0 53 -34 85q-35 32 -103 32t-102 -36t-34 -87t32 -87t93 -36zM354 201q-133 -1 -206 75q-72 76 -72 200t88 203t240 79t246 -81q95 -81 95 -243q0 -211 -144 -336q-145 -124 -456 -116v170q123 -6 207 9t158 77q-78 -37 -156 -37z" />
    <glyph glyph-name="zero.numr" 
d="M252 958q0 -110 42 -164t112 -54t116 54t45 162q1 108 -45 170t-117 62t-112 -60t-41 -170zM407 1352q175 0 267 -104t92 -286q0 -180 -95 -283t-265 -103t-261 102q-92 102 -92 284t89 286q90 104 265 104z" />
    <glyph glyph-name="one.numr" 
d="M397 594v534l-243 -34v168l438 86v-754h-195z" />
    <glyph glyph-name="two.numr" 
d="M411 1352q128 0 211 -65t83 -177t-79 -191t-233 -163h299v-162h-588v164q207 117 305 190q97 74 97 133q0 106 -141 107q-68 0 -232 -45v164q150 45 278 45z" />
    <glyph glyph-name="three.numr" 
d="M356 575q-121 0 -260 37v164q142 -37 232 -37q180 0 180 86q0 53 -55 76t-181 23h-18v80l170 167h-322v160h582v-125l-168 -170q92 -16 141 -73t50 -140q0 -248 -351 -248z" />
    <glyph glyph-name="four.numr" 
d="M786 735h-120v-141h-195v141h-424v144q152 238 326 452h237q-203 -231 -329 -434h190v176h195v-176h120v-162z" />
    <glyph glyph-name="five.numr" 
d="M657 1169h-338l-8 -96q45 10 109 10q147 1 230 -67t83 -182t-91 -187q-90 -72 -246 -72t-285 39v166q164 -41 249 -41q174 0 175 103q0 80 -158 80q-123 0 -254 -29l33 438h501v-162z" />
    <glyph glyph-name="six.numr" 
d="M424 983q-147 0 -148 -129q0 -117 142 -117q66 0 98 36t33 87q0 51 -32 87t-93 36zM469 1133q133 0 206 -76t73 -200t-88 -203t-242 -79q-152 0 -246 80t-94 244q0 211 144 336q145 125 456 117v-170q-123 6 -207 -10t-158 -76q78 37 156 37z" />
    <glyph glyph-name="seven.numr" 
d="M725 1331v-129q-264 -379 -352 -608h-209q76 172 170 335t151 240h-370v162h610z" />
    <glyph glyph-name="eight.numr" 
d="M410 897q-64 0 -93 -26q-29 -27 -29 -61t34 -56q33 -22 87 -21q54 0 89 22q34 23 34 57t-28 60q-30 26 -94 25zM410 1036q48 0 76 26t28 58t-28 58q-28 24 -76 24q-49 0 -77 -24t-28 -58q0 -32 29 -58t76 -26zM109 1136q0 104 83 158q83 56 218 57t218 -55t83 -161
q0 -104 -97 -162q49 -21 83 -69t34 -101q0 -227 -320 -227t-321 227q0 55 33 101t84 69q-98 59 -98 163z" />
    <glyph glyph-name="nine.numr" 
d="M399 944q147 0 148 129q0 53 -34 85q-35 32 -103 32t-102 -36t-34 -87t32 -87t93 -36zM404 1352q152 0 246 -81q95 -81 95 -243q-1 -211 -145 -336t-455 -117v170q123 -7 207 9t158 77q-78 -37 -156 -36q-133 -1 -206 75q-72 76 -72 200t88 203t240 79z" />
    <glyph glyph-name="ampersand.001" horiz-adv-x="1492" 
d="M369 358q0 -123 166 -122q73 0 123 22t110 72q-143 127 -229 213q-92 -45 -131 -86t-39 -99zM764 1020q0 50 -32 80t-84 30t-88 -32t-36 -90t78 -154q162 86 162 166zM518 -31q-225 -1 -341 99t-116 270q0 231 297 407q-228 300 -7 517q109 106 303 106t298 -102
t105 -240q0 -184 -273 -338q68 -76 195 -182q68 72 145 205h332q-154 -268 -274 -389q67 -69 204 -191q138 -123 148 -131h-424q-111 99 -139 127q-117 -84 -217 -121t-236 -37z" />
    <glyph glyph-name="acute.case" horiz-adv-x="567" 
d="M299 1454h-238l152 297h293z" />
    <glyph glyph-name="breve.case" horiz-adv-x="794" 
d="M397 1450q-311 0 -336 285h207q12 -57 41 -85t90 -28t88 27t39 86h207q-8 -123 -86 -204t-250 -81z" />
    <glyph glyph-name="caron.alt" horiz-adv-x="512" 
d="M315 1016h-254l76 399h314z" />
    <glyph glyph-name="caron.case" horiz-adv-x="878" 
d="M598 1454h-317l-220 297h238l141 -149l140 149h237z" />
    <glyph glyph-name="circumflex.case" horiz-adv-x="878" 
d="M817 1454h-237l-140 150l-141 -150h-238l220 297h317z" />
    <glyph glyph-name="dieresis.case" horiz-adv-x="899" 
d="M838 1446h-306v264h306v-264zM367 1446h-306v264h306v-264z" />
    <glyph glyph-name="dotaccent.case" horiz-adv-x="428" 
d="M367 1446h-306v264h306v-264z" />
    <glyph glyph-name="grave.case" horiz-adv-x="567" 
d="M506 1454h-238l-207 297h293z" />
    <glyph glyph-name="hungarumlaut.case" horiz-adv-x="968" 
d="M694 1456h-231l151 297h293zM293 1456h-232l152 297h293z" />
    <glyph glyph-name="macron.case" horiz-adv-x="782" 
d="M721 1479h-660v217h660v-217z" />
    <glyph glyph-name="ring.case" horiz-adv-x="569" 
d="M284.5 1681q-100.5 0 -100.5 -73.5t100.5 -73.5t100.5 73.5t-100.5 73.5zM284.5 1419q-106.5 0 -165 51.5t-58.5 137.5t58.5 137t165 51t165 -51t58.5 -137t-58.5 -137.5t-165 -51.5z" />
    <glyph glyph-name="tilde.case" horiz-adv-x="856" 
d="M555 1470q-61 0 -136 39t-106 39t-45 -16t-26 -57h-181q11 115 71 187t169 71q61 0 136 -39t106 -39q31 1 45 17t26 57h181q-11 -115 -71 -187t-169 -72z" />
    <glyph glyph-name="brevecy" horiz-adv-x="0" 
d="M399 1196q-309 0 -338 289h238q18 -117 119 -117q61 0 98 26.5t59 90.5h183q-20 -137 -115.5 -213t-243.5 -76z" />
    <glyph glyph-name="brevecy.case" horiz-adv-x="0" 
d="M399 1421q-309 0 -338 289h238q18 -117 119 -117q61 0 98 27t59 90h183q-20 -137 -115.5 -213t-243.5 -76z" />
    <glyph glyph-name="tonos.cap" horiz-adv-x="522" 
d="M61 993l70 338h330l-193 -338h-207z" />
    </font>
</defs>
</svg>
