<?phpxml version="1.0" standalone="no"?>
<!DOCTYPE svg PUBLIC "-//W3C//DTD SVG 1.1//EN" "http://www.w3.org/Graphics/SVG/1.1/DTD/svg11.dtd" >
<svg xmlns="http://www.w3.org/2000/svg">
<metadata></metadata>
<defs>
<font id="cronos_mmregular" horiz-adv-x="944" >
<font-face units-per-em="2048" ascent="1638" descent="-410" />
<missing-glyph horiz-adv-x="434" />
<glyph horiz-adv-x="2048" />
<glyph horiz-adv-x="2048" />
<glyph horiz-adv-x="682" />
<glyph horiz-adv-x="819" d="M195 1300q0 -111 53 -175t145 -64q98 0 157.5 59.5t74.5 188.5q0 8 -8.5 16t-21.5 12t-27.5 7.5t-24.5 3.5t-15.5 -6.5t-5.5 -10.5q-8 -49 -21.5 -78.5t-28.5 -47t-33.5 -22.5t-37.5 -5h-2q-35 0 -61.5 31.5t-38.5 119.5q0 6 -3 12.5t-13 6.5q-27 0 -57.5 -10.5 t-30.5 -37.5z" />
<glyph horiz-adv-x="819" d="M319 1194q0 -49 27 -71.5t62 -22.5q43 0 69.5 25.5t26.5 72.5q0 35 -22.5 64.5t-63.5 29.5h-2q-47 0 -72 -28.5t-25 -69.5z" />
<glyph horiz-adv-x="819" d="M225 1194q0 -86 55.5 -132t127.5 -46q84 0 135 51t51 131q0 33 -11.5 64.5t-34 58.5t-56 43t-78.5 16h-2q-86 0 -136.5 -55t-50.5 -131zM330 1200q0 31 19.5 61.5t58.5 30.5h2q45 0 63.5 -30.5t18.5 -65.5t-18.5 -64.5t-59.5 -29.5q-35 0 -59.5 27.5t-24.5 70.5z" />
<glyph unicode="&#xa;" horiz-adv-x="819" d="M197 1114q-6 -35 8 -51q10 -10 26.5 -19.5t32.5 -11.5q33 66 78 148t90 143q8 14 7 22.5t-7 18.5q-12 16 -39.5 33.5t-56.5 15.5q-14 0 -32.5 -29.5t-38 -73.5t-38 -97.5t-30.5 -98.5zM498 1110q-6 -35 6 -47q14 -10 29.5 -18.5t29.5 -12.5q33 66 79 148t89 147 q10 12 9 19.5t-9 17.5q-10 16 -38.5 33.5t-55.5 15.5q-16 0 -35.5 -29.5t-38 -74.5t-36 -98.5t-29.5 -100.5z" />
<glyph horiz-adv-x="819" d="M199 -291q0 -70 50 -118t124 -48q47 0 90 14.5t65 36.5q8 10 15.5 33t7.5 39q0 31 -27 19q-18 -10 -45.5 -16.5t-56.5 -6.5q-39 0 -63.5 21.5t-24.5 56.5q0 20 9 47t33.5 59.5t68.5 72.5t114 87h-139q-96 -61 -158.5 -137t-62.5 -160z" />
<glyph horiz-adv-x="819" d="M186 1356q47 -82 92.5 -161t90.5 -163q14 0 30.5 2t32.5 6q14 4 20.5 11.5t16.5 23.5q37 76 78 142.5t86 144.5q-16 12 -41 20.5t-43 8.5q-10 0 -17.5 -6.5t-9.5 -10.5q-33 -55 -59.5 -100t-50.5 -92q-35 59 -60.5 103t-48.5 85q-10 20 -31 21q-25 0 -48 -12.5t-38 -22.5 z" />
<glyph unicode="&#xd;" horiz-adv-x="434" />
<glyph horiz-adv-x="1009" d="M88 -45q8 -16 16.5 -31.5t24.5 -34.5q14 -14 23.5 -12t25.5 29q233 401 425 721.5t315 535.5q-4 23 -15.5 39.5t-28.5 28.5q-27 23 -40 -2q-84 -147 -182.5 -316.5t-199 -339.5t-195.5 -329.5t-169 -288.5z" />
<glyph horiz-adv-x="1011" d="M41 821q0 -23 24.5 -34t86.5 -11q0 -223 1 -408.5t-3 -351.5q0 -18 5 -23t21 -5q23 0 72 3t78 11q0 43 -1 139.5t-2 211t-2.5 229t-1.5 194.5q82 0 143.5 1t106.5 2t77 2t59 5v-479q0 -90 -2.5 -174t-4.5 -145q25 0 41.5 1t30.5 1t27.5 1t33.5 5q23 4 32 13t9 40v729 q0 84 -6 109.5t-22 25.5t-57.5 -6t-90.5 -8q-61 -4 -122.5 -5t-114.5 -1q-51 0 -87 1t-48 1q-4 203 61.5 292t159.5 89q39 0 67.5 -7t59.5 -24q14 -8 31.5 4.5t33.5 28.5q8 16 14.5 30.5t4.5 30.5q-23 29 -74 46.5t-107 17.5q-61 0 -127.5 -20.5t-125.5 -67.5 q-78 -59 -124 -157.5t-46 -262.5q-41 -18 -65 -34.5t-46 -39.5z" />
<glyph horiz-adv-x="1011" d="M41 817q0 -41 111 -41q0 -223 1 -407.5t-3 -350.5q0 -18 5 -24t21 -6q31 0 78 4t72 12q0 43 -1 138.5t-2 209t-2.5 229t-1.5 195.5q174 -4 261.5 2t124.5 10v-776q0 -27 26 -26q12 0 31.5 1t42 3t42 5t32.5 7q-2 43 -4.5 118t-2.5 150v1026q0 72 -6 89.5t-22 17.5 t-54 -11.5t-67 -23.5q-27 14 -63.5 24.5t-90.5 10.5q-66 0 -135 -23.5t-125 -74.5q-66 -59 -109.5 -153.5t-47.5 -256.5q-41 -20 -66 -37.5t-45 -40.5zM324 895q0 199 67.5 293t161.5 94h2q88 0 137 -43q12 -12 13 -45v-299q-29 -2 -89 -2h-118t-111.5 1t-62.5 1z" />
<glyph horiz-adv-x="899" d="M25 471q4 -33 38 -6l113 80v-496l31 -41q41 -10 133 -15t213 -5q106 0 160.5 2t74.5 6q37 14 60.5 47t34.5 78l-4 4q-59 -6 -145.5 -8t-155.5 -2q-66 0 -130.5 4t-95.5 14v508l236 168q10 16 17 44t7 58q0 37 -32 15l-228 -164v416q0 72 -4 90t-26 18q-35 0 -80 -6 t-72 -10q6 -61 6 -262v-349l-131 -92q-12 -10 -16 -38.5t-4 -57.5z" />
<glyph horiz-adv-x="468" d="M16 596q2 -18 7.5 -21.5t21.5 11.5l121 112v-686q0 -27 24 -26q8 0 28 1t42.5 3t45 5t36.5 7q-4 43 -6 118t-2 150v535l168 149q10 16 17 52t7 55q0 33 -28 16l-164 -147v327q0 45 -2 72t-5 41t-8.5 17.5t-13.5 3.5q-12 0 -30.5 -2.5t-40 -5.5t-42 -8t-34.5 -11 q4 -31 6 -83t2 -144v-322l-131 -117q-4 -6 -8 -19t-6.5 -28.5t-3.5 -31t-1 -23.5z" />
<glyph horiz-adv-x="1122" d="M59 55q2 -25 33 -51q20 -4 62.5 -7t113 -5t175 -3t249.5 -1q88 0 143.5 1t88 2t47 3t20.5 4q20 8 50 38t53 81l-2 4q-49 -4 -149.5 -5t-217.5 -1q-115 0 -225.5 3t-180.5 7q68 96 139.5 202.5t140.5 210t131.5 198.5t111.5 175t82.5 136.5t46.5 78.5q23 45 32 76t19 78 h-713q-55 0 -91 4t-60 12q-14 -12 -30.5 -32.5t-29.5 -53.5q-10 -23 9.5 -40t109.5 -17h584q-51 -86 -135 -218t-185.5 -283.5t-211 -307.5t-210.5 -289zM307 1575q63 -47 118.5 -101.5t106.5 -113.5q10 0 23.5 1t30.5 5q20 10 30 23q47 55 97.5 103t105.5 89 q-10 16 -34.5 30.5t-45.5 14.5h-2q-10 0 -19 -5t-20 -9q-29 -20 -63.5 -50t-69.5 -65q-45 41 -80.5 71.5t-56.5 45.5q-16 12 -43 12q-20 0 -44 -17.5t-34 -33.5z" />
<glyph horiz-adv-x="780" d="M35 53l28 -43q33 -6 80 -9t100.5 -5t106.5 -2h103q66 0 111.5 1t76.5 4t49.5 7t30.5 12q18 14 33.5 43t25.5 60q-23 -4 -85 -6t-139 -3t-153.5 1t-126.5 6q68 104 135.5 209.5t123 194.5t95.5 155.5t52 95.5l14 31.5t9.5 26t4.5 26.5t3 37h-422q-72 0 -111 2t-67 18 q-10 -10 -26.5 -32.5t-29.5 -57.5q-10 -27 19.5 -38t103.5 -11h322q-49 -90 -119 -199.5t-138.5 -214t-126 -188.5t-83.5 -121zM170 1356q47 -82 93 -161t89 -163q14 0 30.5 2t33.5 6q23 8 37 35q39 76 79.5 142.5t83.5 144.5q-16 12 -40.5 20.5t-43.5 8.5q-8 0 -15 -6.5 t-11 -10.5q-33 -55 -58.5 -100t-52.5 -92q-35 59 -60.5 103t-45.5 85q-12 20 -33 21q-23 0 -47.5 -12.5t-38.5 -22.5z" />
<glyph unicode=" "  horiz-adv-x="434" />
<glyph unicode="&#x09;" horiz-adv-x="434" />
<glyph unicode="&#xa0;" horiz-adv-x="434" />
<glyph unicode="!" horiz-adv-x="370" d="M76 86q0 -55 34.5 -82t69.5 -27q51 0 82 31t31 82q0 41 -25.5 75t-72.5 34h-2q-59 0 -88 -33t-29 -80zM100 1194q0 -37 3 -103.5t7.5 -148.5t9.5 -170t9 -165t6 -134.5t4 -77.5q6 0 31 6.5t49 16.5q10 6 20.5 15t12.5 38q2 14 5 67.5t8 125t10.5 153.5t8.5 157t6 133 t3 83q0 33 -10.5 43t-30.5 10q-16 0 -40 -4t-48.5 -10t-43 -15.5t-20.5 -19.5z" />
<glyph unicode="&#x22;" horiz-adv-x="620" d="M68 1325q8 -41 12 -96t6 -113.5t2 -116.5v-100q33 2 62.5 15.5t39.5 29.5q8 25 16.5 61.5t15.5 79.5t12.5 87.5t5.5 80.5q2 51 -10.5 83t-43.5 32h-2q-27 0 -60.5 -13.5t-55.5 -29.5zM385 1325q8 -41 12 -96t6.5 -113.5t2.5 -116.5v-100q29 2 59.5 15.5t40.5 29.5 q8 25 17 61.5t15.5 79.5t11.5 87.5t5 80.5q2 51 -10.5 83t-42.5 32h-2q-27 0 -59.5 -13.5t-55.5 -29.5z" />
<glyph unicode="#" d="M45 487q-6 -29 31 -28l137 -2l-63 -291q18 -14 42.5 -26.5t34.5 -12.5q23 0 29 29l61 301h197l-61 -297q-4 -12 -1 -22.5t15 -10.5q23 0 53.5 9t36.5 18l59 303h166q10 12 19.5 36.5t13.5 47.5q6 29 -31 28h-141l57 277h146q18 29 33 78q6 35 -31 34h-123l53 240 q2 16 0 23.5t-14 7.5q-25 0 -56.5 -8.5t-35.5 -14.5l-56 -248h-188l53 240q4 12 1 21.5t-15 9.5q-23 0 -52.5 -8.5t-39.5 -14.5l-56 -248h-167q-10 -16 -17.5 -36.5t-13.5 -49.5q-8 -27 29 -26h145l-59 -277h-160q-10 -16 -18.5 -37.5t-12.5 -44.5zM344 569l59 277h191 l-57 -277h-193z" />
<glyph unicode="$" d="M109 96q41 -35 113.5 -62.5t158.5 -33.5l-21 -190q25 -2 49.5 0t47.5 6q16 4 27.5 13t13.5 28l16 151q47 4 101.5 23.5t101.5 56.5t78.5 95.5t31.5 142.5q0 66 -21.5 113.5t-56 85.5t-77.5 68t-86 58q-43 29 -84 55.5t-73 55.5t-51.5 61.5t-19.5 75.5t17.5 74t43 51 t56.5 29.5t60 9.5q45 0 89 -13.5t78 -29.5q23 -10 42.5 -8t33.5 20q20 35 25 68q-29 29 -89.5 51.5t-125.5 26.5l22 168q-27 0 -51 -2.5t-49 -10.5q-33 -8 -35 -49l-16 -110q-33 -4 -79 -20.5t-88 -51.5t-72 -89.5t-30 -131.5q0 -57 17.5 -103.5t50.5 -85.5t79 -74.5 t103 -70.5q100 -59 158.5 -114.5t58.5 -127.5q0 -86 -58 -134t-161 -48q-68 0 -127 16.5t-100 38.5q-27 16 -45.5 14t-30.5 -18q-27 -39 -26 -78z" />
<glyph unicode="%" horiz-adv-x="1394" d="M70 889q0 -86 21.5 -148.5t58 -103.5t87 -61.5t105.5 -20.5q70 0 122 29.5t86 77t50 108.5t16 125q0 94 -22.5 158.5t-59 104.5t-85 57.5t-99.5 17.5h-2q-74 0 -126 -32t-86 -82t-50 -111.5t-16 -118.5zM199 891q0 51 10 95t28.5 78t45 53.5t61.5 19.5h2q59 0 100 -62.5 t41 -175.5t-38.5 -180.5t-106.5 -67.5q-37 0 -63.5 20.5t-44 53.5t-26.5 76t-9 90zM266 -2q8 -33 41 -57q10 -10 21 -11q10 0 24 23q123 195 234.5 377t210 343t182 299.5t151.5 244.5q-10 33 -40 53q-29 27 -46 2q-86 -141 -189 -311t-208.5 -342.5t-204 -334 t-176.5 -286.5zM780 305q0 -90 23.5 -153.5t62.5 -102.5t88.5 -56.5t102.5 -17.5q68 0 118 29t83.5 75t50 106.5t16.5 123.5q0 92 -20.5 157.5t-56.5 107.5t-83 60.5t-98 18.5h-2q-74 0 -127 -31.5t-89 -80.5t-52.5 -111.5t-16.5 -124.5zM909 307q0 49 10.5 95.5t29 80 t45 54t61.5 20.5h2q63 0 102 -63.5t39 -180.5q0 -111 -39 -176t-104 -65q-37 0 -64.5 19.5t-45 52t-27 75.5t-9.5 88z" />
<glyph unicode="&#x26;" horiz-adv-x="1329" d="M86 317q0 -80 27.5 -143t79 -107t120 -68t152.5 -24q39 0 84 7.5t94 30t100.5 62.5t102.5 105q66 -61 106.5 -102t67.5 -68q39 -39 74 -39q45 0 80.5 9.5t58.5 19.5l8 25q-10 8 -28.5 26.5t-52.5 51t-87 83t-131 121.5q111 186 185.5 301t127.5 168l-2 21 q-16 16 -41.5 31.5t-72.5 15.5q-29 0 -84 -84q-41 -70 -97.5 -167.5t-113.5 -195.5q-14 12 -46 42t-74 68t-87 81t-84 80q29 20 72 47.5t84 65.5t70.5 88.5t29.5 115.5q0 72 -23.5 123t-63.5 85t-91 49t-109 15q-68 0 -125 -22.5t-99 -63.5t-65.5 -96t-23.5 -123 q0 -141 127 -268q-39 -31 -83 -66.5t-81 -79.5t-61.5 -98.5t-24.5 -122.5zM262 342q0 80 39 141.5t111 112.5q25 -25 64.5 -63.5t87.5 -84t98.5 -93.5t93.5 -89q-39 -49 -75 -79.5t-69.5 -47t-64.5 -21.5t-58 -5q-98 0 -162.5 65.5t-64.5 163.5zM362 963q0 72 43.5 125 t110.5 53q59 0 101 -40t42 -114q0 -72 -50 -130.5t-132 -113.5q-68 63 -91.5 116.5t-23.5 103.5z" />
<glyph unicode="'" horiz-adv-x="307" d="M68 1325q8 -41 12 -96t6 -113.5t2 -116.5v-100q33 2 62.5 15.5t39.5 29.5q8 25 16.5 61.5t15.5 79.5t12.5 87.5t5.5 80.5q2 51 -10.5 83t-43.5 32h-2q-27 0 -60.5 -13.5t-55.5 -29.5z" />
<glyph unicode="(" horiz-adv-x="659" d="M117 483q0 -160 35.5 -301t90 -252.5t119 -190.5t119.5 -116q20 0 47 25.5t37 62.5q-156 145 -231.5 355t-75.5 460q0 223 77 431t230 374q4 29 -16.5 59.5t-42.5 43.5q-174 -147 -281.5 -388t-107.5 -561v-2z" />
<glyph unicode=")" horiz-adv-x="659" d="M98 -274q-4 -27 15.5 -59t46.5 -44q86 74 157.5 172.5t121.5 218t79 260t29 297.5v2q0 160 -36 301.5t-91 253t-118.5 190.5t-119.5 116q-23 0 -49.5 -26t-34.5 -62q154 -145 229.5 -355.5t75.5 -460.5q0 -223 -75.5 -431t-229.5 -373z" />
<glyph unicode="*" horiz-adv-x="714" d="M72 938q4 -25 17 -48.5t30 -33.5l207 143l-50 -188q-12 -59 23 -66q31 -6 54.5 -7t39.5 3l-2 250l191 -174q16 10 34.5 27.5t28.5 40.5q18 35 -18 59l-195 103l186 61q43 12 31 55q-10 49 -45 76l-198 -133l53 213q10 37 -41 41q-23 4 -41.5 3t-36.5 -5l-2 -254l-180 170 q-23 -16 -39.5 -31.5t-26.5 -36.5q-18 -33 23 -55l180 -98l-207 -68q-10 -6 -16 -17.5t0 -29.5z" />
<glyph unicode="+" horiz-adv-x="1169" d="M125 457h395v-439l53 5q47 6 61.5 20t14.5 39v375h328q41 0 53 31.5t12 84.5h-393v318q0 47 -10 62.5t-41 9.5l-84 -11q4 -29 5 -77t1 -89v-213h-330q-35 0 -49 -31.5t-16 -84.5z" />
<glyph unicode="," horiz-adv-x="352" d="M-33 -213q41 -2 73 4t54 23q31 20 62.5 57t57.5 82t43 94t17 94q0 53 -17 85t-42 32h-4q-29 0 -62.5 -14.5t-60.5 -30.5q4 -16 7 -36.5t3 -47.5q0 -86 -37.5 -178t-93.5 -164z" />
<glyph unicode="-" horiz-adv-x="612" d="M68 389l16 -14q33 0 81 6t97 14t94 18.5t74 20.5q25 6 43.5 20.5t33.5 34t24.5 40t15.5 36.5l-15 27q-33 -8 -82 -18.5t-104 -20.5t-109.5 -19.5t-99.5 -15.5q-41 -6 -69 -129z" />
<glyph unicode="." horiz-adv-x="352" d="M66 90q0 -57 34.5 -85t71.5 -28q53 0 84 32t31 85q0 41 -27 77t-74 36h-2q-57 0 -87.5 -35t-30.5 -82z" />
<glyph unicode="/" horiz-adv-x="724" d="M78 -195l100 5q29 2 41 15t25 54l411 1432l-84 -2q-41 -4 -52 -16.5t-21 -41.5z" />
<glyph unicode="0" d="M61 604q0 -184 35 -305t92.5 -192.5t130 -101.5t148.5 -30q94 0 171 38t131 115t84 195.5t30 282.5q0 57 -5.5 126t-19.5 138.5t-42 135t-72 115.5t-108.5 81t-152.5 31h-2q-72 0 -136 -25.5t-112 -72.5q-33 -31 -63.5 -78t-55 -111.5t-39 -149.5t-14.5 -192zM240 606 q0 156 23.5 255.5t58 155.5t76.5 76.5t79 20.5h2q37 0 77 -18.5t73 -70.5t54.5 -149.5t21.5 -252.5q0 -176 -23 -280.5t-56.5 -160t-73.5 -72t-77 -16.5q-43 0 -85 23.5t-75.5 82t-54 158t-20.5 248.5z" />
<glyph unicode="1" d="M156 967l12 -21q33 8 76 20.5t87 28t85 30.5t71 28v-377q0 -174 -1 -314.5t-1 -236.5v-137q23 0 62 2t69 6q23 4 35.5 13t12.5 40v133t-1 210t-2.5 247t-2.5 243.5t-1 200.5v123l-39 27q-61 -29 -162.5 -71t-248.5 -97z" />
<glyph unicode="2" d="M82 1057q0 -29 14 -53q31 -53 80 -11q12 12 34.5 29.5t53.5 33t67 27t75 11.5q88 0 145 -55.5t57 -178.5q0 -61 -20.5 -122.5t-73.5 -144.5t-147.5 -197.5t-243.5 -284.5l-39 -66l18 -33q82 -16 203 -18t273 -2q84 0 139 8t71 18q20 10 48 43t34 68q-66 -4 -138.5 -5 t-145.5 -1q-72 0 -140.5 1t-128.5 5q86 100 145.5 169t99.5 118t66.5 86t51.5 71q109 152 108 310q0 63 -18 125.5t-59 112.5t-105.5 81t-159.5 31h-2q-98 0 -194 -46t-168 -130z" />
<glyph unicode="3" d="M80 92q0 -29 12 -58.5t33 -49.5q18 -14 69.5 -29.5t137.5 -15.5q104 0 198.5 26.5t166 78.5t113.5 126t42 170q0 57 -16.5 109.5t-52 95.5t-92 75.5t-134.5 51.5q72 41 106.5 73.5t57.5 63.5q20 29 31.5 66.5t11.5 85.5q0 33 -13.5 79.5t-50 90t-99 73t-161.5 29.5 q-47 0 -93 -12.5t-88 -32t-75.5 -46t-56.5 -55.5q-2 -18 3 -37.5t15 -33.5q10 -18 26.5 -14t35.5 20q37 31 88 52.5t111 21.5q88 0 134 -49.5t46 -120.5q0 -57 -29 -100.5t-73 -74t-95 -50t-94 -29.5q-12 -14 -25.5 -40t-27.5 -54l16 -13q25 0 48.5 3t55.5 3 q147 0 225.5 -61t78.5 -170q0 -53 -22.5 -103.5t-67 -89t-112 -62.5t-155.5 -24q-68 0 -127 12.5t-94 26.5z" />
<glyph unicode="4" d="M41 438q4 -18 25.5 -48t33.5 -38q31 -6 84.5 -11t120 -9t138 -6t139.5 -2q0 -100 -3.5 -188.5t-5.5 -147.5q20 0 62.5 2t75.5 8q20 4 32.5 15.5t12.5 35.5v275q16 4 33.5 6t33.5 10q29 18 46.5 39.5t33.5 52.5l-4 19q-43 -4 -85 -7.5t-58 -3.5v381l-29 10 q-43 -6 -73.5 -15t-63.5 -23l-6 -353q-98 -2 -188.5 3.5t-168.5 15.5q57 98 124 200.5t139.5 206t150.5 202.5t158 189l-31 19q-41 -8 -100.5 -30.5t-100.5 -55.5q-25 -25 -65.5 -76t-90 -117.5t-101.5 -143.5t-102 -151.5t-94 -143.5t-73 -120z" />
<glyph unicode="5" d="M111 668l18 -35q55 -6 145.5 -19.5t169.5 -35.5q104 -29 163 -84.5t59 -153.5q2 -74 -29 -127t-81 -87t-111.5 -49.5t-120.5 -15.5q-61 0 -115.5 8.5t-81.5 18.5l-4 -4q0 -29 11 -60.5t30 -48.5q18 -14 62 -25t128 -11q100 2 190.5 29.5t158 80.5t106.5 130t39 175 q0 141 -83 225.5t-247 129.5q-61 16 -123.5 28.5t-120.5 20.5q12 92 32 171t40 148q106 6 173 9.5t107 8.5t59.5 13t31.5 20q41 39 51 97l-8 14q-25 -4 -96.5 -9t-155.5 -10.5t-161 -8.5t-107 -3q-12 -27 -31 -94t-37 -149t-35.5 -164t-25.5 -133z" />
<glyph unicode="6" d="M57 479q0 -141 37 -237.5t96.5 -155.5t135 -85t153.5 -26q100 0 177 34t129.5 91.5t78 132t25.5 158.5q0 51 -15.5 112.5t-51.5 114t-96 88t-151 35.5q-53 0 -96 -14t-65 -33q-20 -16 -30.5 -52t-8.5 -52q23 8 55.5 18t73.5 10q37 0 73.5 -12t66.5 -40.5t49.5 -79 t19.5 -126.5q0 -70 -18.5 -120t-48.5 -82.5t-68.5 -48t-79.5 -15.5q-51 0 -98.5 22.5t-83 69.5t-57 120t-21.5 171q0 147 49 270t133 216q86 96 194.5 150t249.5 83l2 8q-16 41 -42.5 56.5t-63.5 15.5q-33 0 -89.5 -12.5t-126 -43t-144 -84t-144.5 -132.5 q-98 -111 -148.5 -247t-50.5 -278z" />
<glyph unicode="7" d="M74 1124q-8 -23 21.5 -36t115.5 -13q166 0 277.5 1t195.5 1q-33 -133 -92.5 -287.5t-133 -304t-154.5 -281.5t-154 -220l6 -15q20 -2 52 0t60 8q33 6 57.5 18.5t49.5 37.5q23 25 67.5 97.5t97 174t109 221t103.5 237.5t80.5 223.5t39.5 178.5l-26 43h-518 q-55 0 -98.5 5.5t-67.5 21.5q-31 -23 -57.5 -55.5t-30.5 -55.5z" />
<glyph unicode="8" d="M70 287q0 -43 18 -97.5t63.5 -102.5t122 -80t193.5 -32q92 0 168 26t129 70t81.5 104.5t28.5 127.5q0 63 -21.5 113.5t-59 91.5t-88 74.5t-107.5 66.5q59 39 94 67.5t58 55.5q27 29 44 72t17 98q0 43 -15.5 93t-54.5 94.5t-102.5 74t-157.5 29.5h-2q-84 0 -148.5 -26.5 t-108.5 -70.5t-66.5 -103.5t-22.5 -125.5q0 -74 43 -149.5t158 -136.5q-72 -45 -120 -84t-75 -68q-31 -35 -50 -79t-19 -103zM242 301q0 72 57 138.5t137 119.5q76 -37 126 -70.5t81 -66.5t43 -66.5t12 -70.5q0 -53 -22.5 -91t-56 -61.5t-72.5 -34t-74 -10.5h-2 q-43 0 -85 13.5t-73.5 41t-51 66.5t-19.5 92zM293 932q0 47 15.5 82t40 58.5t56 35.5t62.5 12h2q84 0 134 -48t50 -140q0 -127 -155 -223q-59 29 -99.5 56.5t-64 55t-32.5 55t-9 56.5z" />
<glyph unicode="9" d="M63 823q0 -72 20.5 -135t61.5 -111.5t101.5 -77t140.5 -28.5q59 0 102 13.5t66 33.5q16 16 24.5 51t6.5 56q-20 -10 -53 -19.5t-72 -9.5q-45 0 -85 14.5t-71 45t-48 78.5t-17 116q0 49 14 97t42 85t67.5 59.5t91.5 22.5q57 0 102 -28.5t76 -80t46 -122t15 -156.5 q0 -147 -44 -271t-138 -225q-43 -47 -94 -81.5t-102.5 -59t-101.5 -40t-89 -21.5l-2 -6q14 -45 47 -70q10 -6 24.5 -10t36.5 -4q23 0 67 9t100.5 32.5t120 62.5t122.5 98q131 129 182 277.5t51 302.5q0 100 -23.5 193.5t-71.5 164t-123.5 112.5t-180.5 42h-2 q-100 0 -176 -36t-128 -93t-79 -131t-27 -150z" />
<glyph unicode=":" horiz-adv-x="352" d="M66 739q0 -57 34.5 -83.5t71.5 -26.5q49 0 79 31.5t30 84.5q0 43 -25 78t-74 35q-57 0 -86.5 -35t-29.5 -84zM68 90q0 -57 34.5 -85t71.5 -28q53 0 84 32t31 85q0 41 -26.5 77t-74.5 36h-2q-57 0 -87.5 -35t-30.5 -82z" />
<glyph unicode=";" horiz-adv-x="352" d="M-33 -213q84 -4 129 27q29 20 60.5 57t57.5 82t43 94t17 94q0 53 -16 85t-41 32h-6q-29 0 -62.5 -14.5t-60.5 -30.5q10 -37 10 -84q0 -86 -37.5 -178t-93.5 -164zM66 739q0 -57 35.5 -83.5t70.5 -26.5q51 0 81 31.5t30 84.5q0 43 -25 78t-72 35h-4q-57 0 -86.5 -35 t-29.5 -84z" />
<glyph unicode="&#x3c;" horiz-adv-x="1169" d="M195 446q0 -14 8 -22t20 -16l676 -398q33 -18 53 8q10 16 16.5 47t6.5 48l-621 356v6l621 361q-2 16 -6 40.5t-15 45.5q-20 35 -53 14l-684 -412q-23 -33 -22 -78z" />
<glyph unicode="=" horiz-adv-x="1169" d="M125 248h852q41 0 52 30.5t13 86.5h-852q-35 0 -49 -29t-16 -88zM125 649h852q41 0 52 30t13 87h-852q-35 0 -49 -29t-16 -88z" />
<glyph unicode="&#x3e;" horiz-adv-x="1169" d="M195 113q2 -16 7 -42t13 -44q10 -20 23.5 -22.5t31.5 7.5l682 412q23 29 23 78q0 23 -27 37l-678 399q-35 18 -51 -10q-10 -16 -17 -47t-7 -47l620 -355v-6z" />
<glyph unicode="?" horiz-adv-x="657" d="M82 1133l6 -33q10 -41 27.5 -51.5t36.5 2.5q29 18 70.5 35.5t90.5 17.5q59 0 91 -35t32 -88q0 -29 -12 -58.5t-29.5 -58t-38 -55.5t-39.5 -51q-47 -68 -72.5 -125.5t-25.5 -112.5q0 -39 10.5 -66.5t25.5 -45t32.5 -25.5t31.5 -8q16 0 38 7t32 17q-16 37 -16 93 q0 37 22.5 95t79.5 130q53 72 93 135t40 139q0 104 -66.5 178t-193.5 74h-2q-55 0 -130 -24.5t-134 -85.5zM223 86q0 -55 35 -82t72 -27q49 0 79.5 31t30.5 82q0 39 -25.5 74t-72.5 35h-4q-57 0 -86 -33t-29 -80z" />
<glyph unicode="@" horiz-adv-x="1525" d="M82 504q0 -150 47 -266.5t128 -197.5t190.5 -123t236.5 -42q123 0 222.5 20.5t183.5 67.5q0 25 -15 57q-10 23 -21.5 27t-31.5 -6q-66 -31 -139.5 -44t-143.5 -13q-121 0 -217 39.5t-163.5 110.5t-103.5 169t-36 217q0 139 46 261t130 212t202 142.5t263 52.5 q96 0 179 -31t144.5 -88t97.5 -139t36 -185q0 -117 -25.5 -193.5t-64.5 -122.5t-82 -65.5t-76 -19.5q-78 0 -55 166q6 39 19.5 105.5t29.5 135t31.5 129t25.5 85.5q-23 -4 -36 -7.5t-23 -5.5t-20.5 -4t-26.5 -6q-25 10 -51.5 20.5t-61.5 10.5h-2q-47 0 -123 -26.5 t-164 -110.5q-53 -51 -91 -107.5t-61.5 -113t-33.5 -107.5t-10 -94q0 -98 41 -141.5t86 -43.5q25 0 57.5 8.5t75.5 34t95 73.5t114 128q-12 -72 -5 -119t27.5 -74.5t50 -39t62.5 -11.5q90 0 169 38t136 105.5t90 160t33 200.5q0 125 -43 228.5t-120 177t-185.5 114.5 t-239.5 41q-176 0 -319.5 -59t-244.5 -164.5t-157.5 -250t-56.5 -316.5zM561 422q0 25 6 63.5t21.5 82.5t41 91.5t62.5 88.5q57 68 104.5 92t88.5 24h2q14 0 32.5 -6t36.5 -20q-4 -12 -11 -40t-17 -62t-22.5 -67.5t-24.5 -56.5q-31 -55 -70 -103t-76 -84t-70.5 -55.5 t-56.5 -19.5t-35 19.5t-12 52.5z" />
<glyph unicode="A" horiz-adv-x="1277" d="M33 12q25 -10 66.5 -17t64.5 -7q33 0 45 24q27 55 70 153.5t100 227.5h512q27 -61 45 -108t34.5 -86t31 -75t30.5 -77q16 -35 28.5 -47t31.5 -12q12 0 30.5 1t40 4t42 7t36.5 10l2 13q-29 55 -67.5 149t-100.5 238q-31 70 -76 180t-94 230t-96 235.5t-82 197.5 q-6 14 -16.5 23.5t-30.5 9.5q-18 0 -60 -6t-75 -14l26 -62q-16 -39 -54 -123t-88 -193.5t-106.5 -234.5t-110.5 -242.5t-100 -218t-77 -163.5zM428 520q33 76 60.5 143.5t54 129t52.5 121t52 120.5q20 -49 69.5 -174t131.5 -340h-420z" />
<glyph unicode="B" horiz-adv-x="1021" d="M147 1262q2 -37 3.5 -69t2.5 -62.5t1 -63.5v-74v-979q49 -10 82.5 -16t65.5 -10t65.5 -6t83.5 -2q106 0 197 24.5t158.5 74.5t105.5 126t38 180q0 51 -15 103.5t-46 97.5t-78 80.5t-111 56.5q68 43 107 108.5t39 145.5q0 37 -11.5 90t-51.5 102.5t-119.5 85t-214.5 35.5 q-106 0 -190.5 -11t-111.5 -17zM328 115v518q27 4 53.5 5t58.5 1q152 0 235 -67.5t83 -188.5q0 -72 -23.5 -125t-63.5 -89t-94.5 -54.5t-117.5 -18.5q-37 0 -73 5t-58 14zM328 745v420q18 4 41.5 6.5t46.5 2.5q70 0 118 -17.5t78.5 -47.5t45 -70t14.5 -85q0 -78 -37 -130 t-78 -66q-25 1 -50 1q-39 0 -77 -2q-64 -3 -102 -12z" />
<glyph unicode="C" horiz-adv-x="1200" d="M78 631q0 -145 46 -266t135 -209t221 -137.5t304 -49.5q104 0 181 18.5t110 41.5q53 45 62 123l-9 6q-43 -18 -131 -38t-180 -20q-135 0 -237.5 41t-171 114t-104.5 172t-36 216q0 131 42 231.5t112 169t162 103.5t194 35q86 0 153.5 -15.5t117.5 -42.5q25 -12 45 -14 t32 10q27 27 31 84q-14 14 -47 32t-80 35t-108.5 28.5t-130.5 11.5q-141 0 -266.5 -39t-231.5 -135q-59 -53 -100 -114.5t-67 -126.5t-37 -132.5t-11 -132.5z" />
<glyph unicode="D" horiz-adv-x="1331" d="M150 1255q2 -23 3 -43t1 -47v-63v-86v-993q47 -10 90 -18.5t87 -13.5t92 -8t105 -3q43 0 104.5 5t130 22.5t140.5 50t135 85.5q131 111 178.5 240t47.5 272q0 61 -11.5 133t-42 142.5t-83 135t-136.5 115t-201.5 80t-277.5 29.5q-49 0 -107.5 -4t-110.5 -9t-92 -11 t-52 -11zM330 123v1034q68 12 168 12q145 0 252.5 -37.5t179 -105.5t107.5 -163t36 -210q0 -158 -47 -264t-123 -170.5t-172 -91.5t-192 -27q-61 0 -115.5 5.5t-93.5 17.5z" />
<glyph unicode="E" horiz-adv-x="897" d="M150 1251q4 -59 4 -123v-135v-944l30 -41q37 -10 130.5 -15t222.5 -5q109 0 162 2t73 6q35 12 59.5 46t36.5 79l-4 4q-59 -6 -142 -8t-153 -2q-74 0 -140.5 3t-98.5 13v463h332q25 0 44 3t34.5 16.5t26.5 39t21 70.5h-458v430h268q68 0 100.5 1t53.5 11q18 18 32.5 46 t20.5 69h-502q-41 -4 -83 -11t-70 -18z" />
<glyph unicode="F" horiz-adv-x="880" d="M147 1251q4 -35 5.5 -87t1.5 -132v-1009q0 -23 10 -29t26 -6q35 0 79 4t67 12q-4 117 -5 245t-1 302h350q25 0 46.5 4t37.5 16.5t27.5 38t17.5 68.5h-479v475h321q61 0 93 2t49 14q16 16 29.5 41t23.5 70h-531q-47 -4 -94 -12t-74 -17z" />
<glyph unicode="G" horiz-adv-x="1333" d="M78 631q0 -184 62.5 -310t165 -204t232.5 -113t265 -35q82 0 151.5 9.5t116.5 25.5q35 14 78 39t65 43v453q0 33 -7 44t-23 11q-31 0 -78 -11.5t-76 -19.5q8 -47 8 -100v-123v-213q-37 -20 -96 -28.5t-121 -8.5q-98 0 -197.5 31t-178 96.5t-128 171t-49.5 256.5 q0 123 39 223.5t107.5 170t163 107.5t204.5 38q86 0 169 -17.5t155 -56.5q27 -12 46 -14t32 14q12 14 21 33.5t9 46.5q-12 12 -43.5 32.5t-84 40t-125 34t-166.5 14.5q-152 0 -269.5 -39t-199.5 -105q-45 -37 -89 -87t-80 -116.5t-57.5 -149.5t-21.5 -183z" />
<glyph unicode="H" horiz-adv-x="1335" d="M147 -12q37 0 66 1t66 7q31 4 41 13t10 38v553h385h116q49 0 83 1t55.5 2t38.5 3v-586q0 -20 7 -26t23 -6q10 0 31 1t42.5 4t43 5t33.5 6q-2 31 -4 87t-2 165v662q0 252 6 368q-31 0 -72 -2t-67 -6q-23 -4 -32 -13.5t-9 -37.5v-500h-678v453q0 70 -8.5 88t-28.5 18 q-12 0 -30.5 -1t-40 -4t-42 -6t-33.5 -5q6 -59 7 -260v-648q0 -129 -1 -221t-6 -153z" />
<glyph unicode="I" horiz-adv-x="481" d="M147 1270q6 -55 7 -258v-985q0 -25 8 -32t24 -7q12 0 33 1t43.5 3t42 5t31.5 7q-2 31 -4 87t-2 163v926q0 70 -5.5 88t-27.5 18q-12 0 -33.5 -2t-44 -4t-42 -5t-30.5 -5z" />
<glyph unicode="J" horiz-adv-x="481" d="M-74 -186q10 -31 33 -55.5t51 -24.5q35 0 86 21.5t92 60.5q39 35 66 76.5t44 100t24.5 136.5t7.5 182v871q0 70 -4 87t-27 17q-12 0 -31.5 -2t-42 -4t-44 -5t-34.5 -5q6 -55 7 -258v-703q0 -133 -13.5 -219t-41 -140t-68.5 -81t-94 -41z" />
<glyph unicode="K" horiz-adv-x="1163" d="M147 1270q6 -59 7 -260v-987q0 -23 7 -29t27 -6q12 0 33 1t42.5 4t42 5t30.5 6q-2 31 -4 87t-2 165v399q12 -16 48 -58t85 -98.5t105.5 -122t111.5 -127t102 -113.5t78 -83q41 -43 72 -56t63 -13q43 0 84 6t58 16l4 10q-41 35 -93.5 87.5t-109.5 112.5t-116.5 125 t-114 127t-102.5 116.5t-81 95.5q55 53 126 122.5t143.5 141.5t140 139.5t117.5 116.5q33 35 33 56q0 24 -42 30q-29 6 -57.5 9t-48.5 3q-70 -72 -149.5 -153.5t-160.5 -163.5t-157 -160t-139 -141v506q0 66 -4 83t-27 17q-12 0 -32.5 -2t-43 -4t-43 -5t-33.5 -5z" />
<glyph unicode="L" horiz-adv-x="880" d="M147 1270q6 -61 7 -262v-959l30 -41q41 -10 132.5 -15t215.5 -5q109 0 162.5 2t73.5 6q37 14 61.5 47t34.5 78l-4 4q-31 -4 -68.5 -5t-77.5 -3t-81 -2h-76q-66 0 -130.5 4t-96.5 14v1043q0 74 -7.5 92t-23.5 18q-37 0 -81 -6t-71 -10z" />
<glyph unicode="M" horiz-adv-x="1712" d="M76 6q25 -14 65.5 -16t63.5 -2q27 0 35 32q12 76 33.5 202t45 269.5l47 287t40.5 253.5q43 -117 96 -265.5t106.5 -294.5t97.5 -272t68 -200q18 0 43 4t43 10q23 6 33 18.5t18 35.5q53 139 107.5 280t105 270.5t93.5 239t71 184.5l96 -620q8 -70 16.5 -124t15.5 -99 t14.5 -86t15.5 -84q6 -41 43 -41q12 0 30.5 1t39 4t39 6t28.5 7q-16 74 -36.5 188.5t-49.5 276.5l-131 762q-4 33 -12 43t-21 10q-12 0 -32.5 -2t-42 -5t-41 -7t-27.5 -8l2 -37q-33 -78 -78 -185.5t-97 -230.5t-107.5 -255t-106.5 -261l-289 762q-41 104 -63.5 155.5 t-42.5 73.5q-45 0 -86 -7t-70 -15l14 -54q-35 -172 -69.5 -354t-66.5 -346t-57.5 -296t-39.5 -208z" />
<glyph unicode="N" horiz-adv-x="1359" d="M117 1253l51 -63v-830q0 -129 -1 -220t-5 -152q27 0 58.5 2t53.5 6q23 4 33 14t10 47v527v80q0 43 -2 96t-4 121.5t-6 160.5q59 -98 114.5 -181t108.5 -165q68 -92 137.5 -188t137 -188.5t130 -177.5t114.5 -154q2 -2 12 -8.5t20 -6.5q29 0 69 12.5t50 18.5v905 q0 129 1 220.5t5 156.5q-29 0 -50 -1t-67 -7q-20 -4 -28 -14.5t-8 -44.5v-568v-82t1 -94t4 -114.5t7 -141.5q-41 78 -104.5 167t-143.5 200q-80 106 -155.5 211.5t-141 195.5t-116 158t-76.5 100q-29 35 -54 35q-10 0 -32.5 -2t-46 -4t-45 -5t-31.5 -5v-17z" />
<glyph unicode="O" horiz-adv-x="1468" d="M78 625q0 -104 36 -220t114.5 -212.5t203.5 -160t303 -63.5q162 0 286 57.5t206 151.5t124 217t42 256q0 121 -41 239t-122 212t-204 151.5t-287 57.5h-2q-154 0 -275.5 -52.5t-207.5 -143.5t-131 -217t-45 -273zM268 641q0 133 36 235.5t98.5 171t145.5 105.5t179 37h2 q84 0 169 -33t152.5 -100.5t110.5 -171t43 -244.5q0 -137 -35.5 -240.5t-97 -172t-145.5 -103.5t-181 -35q-90 0 -176 36t-152.5 105.5t-107.5 172t-41 237.5z" />
<glyph unicode="P" horiz-adv-x="1005" d="M145 1268q6 -72 7.5 -137.5t1.5 -139.5v-966q0 -23 9 -30t25 -7q33 0 79 4t69 12q-2 31 -4 85t-2 161v913q29 4 55.5 5t56.5 1q47 0 101.5 -9t100.5 -38.5t76 -85t30 -145.5q0 -84 -28 -137.5t-67 -83t-82 -41t-73 -11.5q-18 0 -32.5 1.5t-29.5 3.5q0 -33 15.5 -60.5 t33.5 -38.5q25 -14 74 -14h9q46 0 106 18q66 20 123 65.5t97 120t40 183.5q0 106 -37 181t-102.5 122t-155.5 68.5t-197 21.5q-90 0 -174 -8t-125 -14z" />
<glyph unicode="Q" horiz-adv-x="1468" d="M78 625q0 -104 36 -219t113.5 -212.5t202.5 -161t301 -63.5h23q12 0 22 2q35 -29 93.5 -72.5t129.5 -93.5q102 -72 191.5 -115.5t163.5 -43.5q45 0 87 13t66 48q-70 18 -141.5 54t-139 79t-130 88t-113.5 86q104 37 181 102.5t127 149.5t76 183.5t26 201.5q0 121 -41 239 t-122 212t-204 151.5t-287 57.5h-2q-154 0 -275.5 -52.5t-207.5 -143.5t-131 -217t-45 -273zM268 641q0 133 36 235.5t97.5 172t144.5 105.5t179 36h2q84 0 169 -33t153.5 -100.5t111.5 -171t43 -244.5q0 -139 -35.5 -241.5t-97 -172t-145.5 -103.5t-183 -34q-86 0 -171 36 t-152.5 105.5t-109.5 172t-42 237.5z" />
<glyph unicode="R" horiz-adv-x="1075" d="M147 -12q18 0 59.5 1t84.5 5q20 4 28.5 13t8.5 38v494h121q35 0 52 -12.5t40 -51.5q55 -90 97 -155.5t73.5 -113.5t55.5 -81t44 -59q39 -49 74 -65.5t76 -16.5q35 0 70.5 5t47.5 13l2 10q-16 16 -35.5 38t-45 54.5t-59.5 79.5t-79 115q-76 111 -115.5 175.5t-66.5 107.5 q20 12 57 37.5t72 65.5t61.5 97.5t26.5 135.5q0 102 -33 173.5t-92 115.5t-142 63.5t-186 19.5q-86 0 -167.5 -10t-126.5 -20q4 -47 4 -93v-120v-687q0 -250 -7 -372zM328 653v510q23 6 55.5 8.5t67.5 2.5q49 0 96 -13.5t84 -45.5t59.5 -82t22.5 -124q0 -55 -14.5 -98 t-36 -74.5t-48 -51t-51.5 -28.5q-10 -4 -43 -6t-71 -2q-37 0 -72 1t-49 3z" />
<glyph unicode="S" horiz-adv-x="849" d="M66 94q0 -29 30 -53q33 -27 105.5 -49.5t169.5 -22.5q84 0 159.5 22.5t132 66.5t90 109.5t33.5 151.5q0 66 -18 118t-54 98.5t-89.5 89.5t-122.5 92q-53 37 -96.5 67.5t-74 63.5t-48 68.5t-17.5 82.5q0 49 18.5 84t47 58.5t66.5 34t75 10.5q49 0 91 -11.5t77 -27.5 q20 -10 37.5 -9t28.5 19q19 30 19 62q0 7 -1 14q-25 25 -90.5 51.5t-151.5 26.5h-2q-117 0 -191.5 -34t-118.5 -84t-61.5 -107.5t-17.5 -104.5q0 -39 9.5 -80t36 -87t76.5 -98t134 -110q70 -49 118 -87t77.5 -71.5t43 -68.5t13.5 -78q0 -51 -19.5 -90t-52 -64.5t-73.5 -39 t-86 -13.5q-66 0 -142.5 24.5t-132.5 67.5q-10 -18 -17 -35.5t-11 -56.5z" />
<glyph unicode="T" horiz-adv-x="1097" d="M39 1200q-5 -11 -5 -19q0 -9 6 -16q11 -12 34 -12h391v-1128q0 -23 7 -30t24 -7q35 0 75.5 4t73.5 12q-2 31 -4 87t-2 163v899h377q20 10 44.5 47t26.5 80h-686h-137t-86 2t-50 3t-30 5q-10 -12 -27.5 -35.5t-31.5 -54.5z" />
<glyph unicode="U" horiz-adv-x="1353" d="M139 1270q6 -61 6 -262v-392q0 -178 36 -302t102.5 -200.5t163 -110.5t217.5 -34q94 0 191 24.5t174 98.5t126 211t49 363v249q0 250 6 371q-31 0 -55.5 -2t-69.5 -6q-16 -4 -27 -12.5t-11 -36.5v-565q0 -170 -29 -279t-79 -173.5t-116.5 -89t-140.5 -24.5 q-61 0 -125.5 19.5t-117 76t-85 159t-32.5 265.5v558q0 74 -5.5 92t-29.5 18q-12 0 -33 -2t-42.5 -4t-41.5 -5t-31 -5z" />
<glyph unicode="V" horiz-adv-x="1220" d="M47 1245q18 -41 38.5 -87t45.5 -102.5t53.5 -128t65.5 -163.5q37 -96 82 -215t87 -230.5t76.5 -205t53.5 -138.5q41 0 72.5 6.5t48.5 16.5q23 12 41 59q74 178 142.5 346t147.5 361q70 164 112 263t65 161q9 24 10 41q0 29 -27 39t-54.5 13t-68.5 7q-14 -37 -26.5 -72.5 t-27.5 -77.5t-35.5 -96.5t-51.5 -130.5q-29 -76 -64.5 -167t-72.5 -185t-72 -182t-61 -158q-115 315 -197 538.5t-133 360.5q-20 53 -33.5 86t-24 51.5t-19.5 24.5t-19 6q-33 0 -76 -12.5t-78 -28.5z" />
<glyph unicode="W" horiz-adv-x="1806" d="M51 1249q12 -31 27.5 -75t34 -95t38 -107.5t35.5 -109.5q41 -127 86 -266t85 -264t70 -221.5t42 -135.5q29 0 60.5 6.5t48.5 14.5q18 10 29 26.5t22 55.5q12 43 33.5 112.5t47 153.5t54.5 175t55.5 179t50 166t39.5 135q45 -160 89 -313.5t82 -288.5t69 -243.5t49 -178.5 q29 0 67 7.5t50 15.5q14 10 24.5 25.5t22.5 50.5q29 78 63.5 177t72.5 206.5l76 215t73 204.5q31 92 55 162.5t53 154.5q8 25 8 42q0 34 -32 38q-29 4 -64 7t-45 5q-16 -55 -44 -140t-68 -211t-96 -298t-132 -404q-123 440 -195.5 694.5t-93.5 311.5q-8 23 -16 35t-25 12 q-61 0 -121 -26q4 -10 6.5 -25.5t4.5 -28.5q-45 -141 -88 -280.5t-81 -265t-71 -233.5t-55 -185q-51 178 -93 321.5t-76 254t-59.5 192.5t-42.5 141q-14 43 -23 69.5t-17.5 41t-16.5 19.5t-20 5q-10 0 -29.5 -3t-41.5 -8t-43.5 -12.5t-33.5 -13.5z" />
<glyph unicode="X" horiz-adv-x="1155" d="M29 23l2 -17q23 -8 64.5 -13t66.5 -5q14 0 27.5 6t21.5 22q23 33 63.5 92.5t90 130t102.5 146.5t100 143q123 -178 201 -296.5t141 -208.5q16 -25 31.5 -32t32.5 -7q49 0 91 7t62 17v12q-25 33 -61.5 84.5t-89.5 128t-127 183t-172 252.5q68 92 133 181t121.5 165 t99.5 135t68 94l-6 12q-27 14 -65 22.5t-58 8.5q-23 0 -54 -45q-70 -98 -150.5 -215t-172.5 -244q-45 63 -82 116.5t-72 103t-70.5 101.5t-78.5 116q-25 37 -39 52t-29 15q-29 0 -65.5 -9t-75.5 -20l-10 -20q29 -41 79 -111.5t108 -153.5t117.5 -169t106.5 -156 q-63 -88 -127.5 -177t-124 -171t-111.5 -153.5t-89 -122.5z" />
<glyph unicode="Y" horiz-adv-x="1134" d="M37 1245q31 -41 67.5 -91t76.5 -104.5t78 -107.5t69 -98q53 -72 89 -126t46 -73q14 -31 14 -88v-532q0 -23 6 -30t25 -7q47 0 88 4t63 12q0 31 -3 86t-3 160v323q0 20 5.5 42t17.5 40q6 10 35.5 48t69.5 91.5t87 116t89 118.5t75 101.5t47 63.5q19 27 19 46q0 21 -25 30 q-18 6 -46 11t-75 5q-10 -18 -36.5 -56t-61.5 -88t-75 -106.5t-77.5 -109t-69.5 -96.5t-50 -70q-80 115 -158 228.5t-133 193.5q-37 53 -59.5 78.5t-45.5 25.5q-31 0 -72.5 -8t-76.5 -21v-12z" />
<glyph unicode="Z" horiz-adv-x="1122" d="M59 55q2 -25 33 -51q20 -4 62.5 -7t113 -5t175 -3t249.5 -1q88 0 143.5 1t88 2t47 3t20.5 4q20 8 50 38t53 81l-2 4q-49 -4 -149.5 -5t-217.5 -1q-115 0 -225.5 3t-180.5 7q68 96 139.5 202.5t140.5 210t131.5 198.5t111.5 175t82.5 136.5t46.5 78.5q23 45 32 76t19 78 h-713q-55 0 -91 4t-60 12q-14 -12 -30.5 -32.5t-29.5 -53.5q-10 -23 9.5 -40t109.5 -17h584q-51 -86 -135 -218t-185.5 -283.5t-211 -307.5t-210.5 -289z" />
<glyph unicode="[" horiz-adv-x="659" d="M187 -18.5q-1 -102.5 0 -184.5t6 -127q2 -4 29.5 -10t72.5 -12t104.5 -10.5t124.5 -4.5q18 27 23 74q4 18 -27 23q-53 6 -88 11t-59 9q-20 4 -30.5 13.5t-14.5 31.5q-2 10 -3 38t-2 95.5t-1 184.5v307q4 385 8 577.5t8 214.5q6 41 35 50q23 4 61.5 9t85.5 11q29 4 37 7 t8 11q0 47 -20 82q-31 0 -86.5 -4t-109.5 -10t-96 -12t-44 -8q-2 -39 -4 -106.5t-4 -151.5t-4 -177.5t-3 -182.5t-2.5 -166t-1.5 -128v-2q0 -115 -1 -232.5t-2 -220z" />
<glyph unicode="\" horiz-adv-x="641" d="M78 1253l360 -1448l84 5q31 2 39 15t0 54l-362 1432l-62 -2q-47 -4 -56 -18.5t-3 -37.5z" />
<glyph unicode="]" horiz-adv-x="659" d="M94 -285q0 -47 21 -82q31 0 86 4.5t109.5 10.5t95 11t45.5 9q2 39 4 106.5t4 151.5t4 177.5t3 182.5t2 165.5t1 128.5v2q0 115 1 232.5t2 220t0 184t-5 127.5q-4 4 -30.5 10t-72 12t-104.5 10t-125 4q-18 -27 -22 -73q-4 -18 26 -23q53 -6 88 -11t60 -9q20 -4 30.5 -13.5 t14.5 -31.5q2 -10 3 -38t2 -95.5t1 -184.5v-307q-4 -385 -8 -577.5t-8 -215.5q-6 -41 -35 -49q-23 -4 -62 -9t-86 -11q-29 -4 -37 -7t-8 -12z" />
<glyph unicode="^" horiz-adv-x="1169" d="M158 463q16 -12 55 -22.5t55 -10.5q10 0 17.5 6t17.5 25l279 629l274 -615q8 -16 17.5 -30.5t25.5 -14.5q12 0 29.5 4t34 9.5t30 10.5t19.5 9l-359 770q-29 2 -53.5 0t-48.5 -6q-25 -4 -35 -10.5t-16 -22.5z" />
<glyph unicode="_" horiz-adv-x="1024" d="M0 -154v-102h1024v102h-1024z" />
<glyph unicode="`" horiz-adv-x="819" d="M197 1313q59 -63 119.5 -142t97.5 -137q18 2 53 29q20 14 8 47q-12 35 -35.5 85t-48 96t-48.5 79t-36 33q-51 0 -104 -47q-25 -25 -6 -43z" />
<glyph unicode="a" horiz-adv-x="874" d="M59 201q0 -96 63.5 -161t170.5 -65q43 0 83 12.5t74.5 32t62.5 42t46 42.5q10 -51 45 -90t98 -39q53 0 88 20.5t46 43.5v72q-10 -4 -24.5 -6.5t-27.5 -2.5q-66 0 -65 64q-1 30 -1 67v39q1 60 2 120.5t2 113.5t1 86q0 72 -16.5 132t-51 103t-90 68t-133.5 25 q-53 0 -105.5 -14.5t-99.5 -36t-84 -48t-57 -49.5l10 -35q18 -56 53 -56q18 0 41 15q39 29 95.5 57.5t109.5 28.5q88 0 127 -54q37 -51 37 -117v-7v-65q-16 -4 -39.5 -8.5t-56.5 -10.5q-39 -10 -106.5 -29.5t-134 -56.5t-115 -94t-48.5 -139zM227 225v2q0 43 29 77t75 59.5 t105.5 42t120.5 26.5v-143q0 -49 -14 -66q-12 -18 -33 -37.5t-46.5 -35t-56 -25.5t-63.5 -10q-55 0 -86 29.5t-31 80.5z" />
<glyph unicode="b" horiz-adv-x="1054" d="M133 1364q4 -33 6 -84t2 -145v-1051q0 -27 7.5 -38t25.5 -21q43 -16 120 -33t155 -17q72 0 160.5 19.5t162.5 68.5q39 27 78 64t69.5 88t50 116.5t19.5 149.5q0 115 -37 198t-95 136t-130 79t-143 26q-88 0 -156 -28t-119 -54v419q0 45 -1 72t-4 41t-9 17.5t-14 3.5 q-10 0 -29 -2.5t-40.5 -6.5t-43 -9t-35.5 -9zM309 121v598q41 29 97.5 47t109.5 18q129 0 212 -84t83 -237q0 -94 -29.5 -164t-78 -116t-111 -68.5t-125.5 -22.5q-41 0 -85 7t-73 22z" />
<glyph unicode="c" horiz-adv-x="854" d="M66 440q0 -135 47 -225t118.5 -143.5t156.5 -75t159 -21.5q61 0 110.5 10.5t79.5 26.5q20 16 35.5 48t20.5 65l-9 8q-39 -12 -86 -20.5t-102 -8.5q-53 0 -114.5 16.5t-115 56.5t-88 107.5t-34.5 170.5q0 72 21.5 134t59 108t92 72t122.5 26q88 0 182 -45 q18 -10 36.5 -12.5t30.5 14.5q12 14 20.5 36.5t8.5 40.5q-6 8 -25.5 23.5t-53 30t-81 26t-106.5 11.5q-82 0 -163 -26t-146 -79q-33 -27 -65 -62.5t-56.5 -81.5t-39.5 -103.5t-15 -127.5z" />
<glyph unicode="d" horiz-adv-x="1060" d="M66 418q0 -111 33.5 -194t91 -138t133 -83t159.5 -28q78 0 147.5 31t135.5 84q10 -43 55 -79t117 -36q29 0 50.5 24t37.5 52v37q-49 6 -82 29.5t-33 95.5v1044q0 45 -2 72t-5 41t-8 17.5t-13 3.5q-12 0 -30.5 -2.5t-40 -6.5t-41 -9t-34.5 -9q4 -33 6 -75t2 -124v-282 q-23 14 -70.5 25.5t-111.5 11.5q-80 0 -163 -27t-154 -82q-80 -66 -130 -163t-50 -230zM246 438q0 88 27.5 156t72.5 114t102.5 70.5t118.5 24.5q55 0 102.5 -15.5t75.5 -39.5v-549q-41 -39 -99 -62.5t-116 -23.5q-59 0 -111 22.5t-90 65.5t-60.5 103.5t-22.5 133.5z" />
<glyph unicode="e" horiz-adv-x="878" d="M66 430q0 -102 31.5 -193.5t92.5 -150.5q72 -68 157 -89.5t161 -21.5q59 0 107.5 10.5t66.5 18.5q23 10 51.5 45t32.5 78l-8 16q-23 -10 -78 -23.5t-127 -13.5q-139 0 -227 86.5t-88 241.5q57 -2 118 -2q63 0 119.5 1t102 2t67.5 5q25 4 54.5 11.5t55 17.5t44 22.5 t20.5 24.5q4 12 5 30.5t1 35.5q-2 63 -22.5 123.5t-60.5 107.5t-102 77t-151 30q-100 0 -179 -40t-133 -107.5t-82.5 -156t-28.5 -186.5zM246 549q6 59 26.5 107.5t50 82t66.5 51t76 17.5h2q92 -1 142 -61q46 -56 46 -140v-14q0 -18 -11 -30.5t-32 -12.5q-14 0 -52 -1 t-88 -2h-52.5h-57.5q-60 1 -116 3z" />
<glyph unicode="f" horiz-adv-x="536" d="M43 819q0 -23 23.5 -33t87.5 -12q0 -219 1 -404v-74q0 -145 -3 -276q0 -20 5 -26t21 -6q23 0 72 4t78 12q0 43 -1 139.5t-3 210t-3.5 227t-1.5 193.5q92 0 148.5 4t79.5 21q18 14 32.5 37.5t20.5 62.5q-18 -4 -59 -5t-86 -1q-43 0 -81 1t-50 1v25q0 86 12 149 q14 72 38.5 117t58.5 65.5t71 20.5q18 0 35.5 -4t33.5 -8t33 1t31 31q18 35 18 61v5q-10 16 -47 30.5t-84 14.5q-53 0 -112.5 -20.5t-116.5 -73.5q-70 -59 -105.5 -153.5t-35.5 -260.5q-41 -16 -66 -33.5t-45 -42.5z" />
<glyph unicode="g" horiz-adv-x="905" d="M35 -190q0 -113 101.5 -183.5t287.5 -70.5q94 0 181 22.5t154.5 67.5t107.5 111.5t40 152.5q0 96 -56 155.5t-177 69.5q-59 4 -138 5t-157 5q-70 2 -102.5 22.5t-32.5 43.5q0 8 14 20t29.5 26.5t38.5 35.5q27 -8 48 -11t56 -3q66 0 125 20t105.5 60t74 99.5t27.5 139.5 q0 37 -6 70.5t-27 74.5h121q23 4 34 30t11 58q0 14 -2 25.5t-4 20.5q-33 -4 -98.5 -10.5t-137.5 -6.5q-23 16 -78 38t-141 22h-2q-76 0 -139.5 -26t-109.5 -71t-72.5 -105.5t-26.5 -129.5q0 -90 41 -156.5t104 -105.5q-23 -23 -60.5 -51.5t-80.5 -55.5q-18 -10 -18 -24 q4 -45 40.5 -90.5t116.5 -73.5q-78 -41 -135 -96.5t-57 -124.5zM201 -166q0 25 12 48.5t31.5 43t42 35.5t43.5 27q20 12 51 12q41 2 90 2t113 -4q96 -6 128.5 -40t32.5 -83q0 -43 -22.5 -80t-60 -64.5t-90 -44t-113.5 -16.5q-117 0 -185.5 42t-72.5 120v2zM248 594 q0 102 52 159.5t128 57.5h2q88 0 133 -61.5t45 -153.5q0 -41 -11 -80t-32.5 -67.5t-55.5 -46t-79 -17.5q-80 0 -131 57.5t-51 151.5z" />
<glyph unicode="h" horiz-adv-x="1046" d="M133 1364q4 -33 6 -85t2 -144v-770q0 -141 -1 -232.5t-5 -144.5q31 0 66 1t69 5q23 4 31 14t8 37v602q16 20 41 44t56.5 45.5t70.5 35.5t86 14q35 0 67 -10t55.5 -37.5t37.5 -74t14 -117.5v-148q0 -78 -1 -151.5t-1 -134.5v-93t27 -32h2q84 0 145 16q-4 35 -4 96v160v301 q0 68 -14 132.5t-48 114.5t-91.5 81t-143.5 31q-45 0 -80.5 -8.5t-64.5 -22.5q-35 -16 -74 -43t-80 -70v481q0 45 -2 72t-5 41t-8 17.5t-13 3.5q-25 0 -66 -7.5t-82 -19.5z" />
<glyph unicode="i" horiz-adv-x="448" d="M129 1255q0 -47 26.5 -71.5t67.5 -24.5q43 0 68.5 30t25.5 71t-23.5 69.5t-64.5 28.5h-2q-31 0 -64.5 -24.5t-33.5 -78.5zM133 887q4 -35 6 -86t2 -146v-346q0 -92 -2 -176t-4 -145q43 2 77 4t56 6q23 4 32 13t9 38v731q0 43 -2 68.5t-5 39t-8 16.5t-13 3q-10 0 -30 -1 t-41.5 -4t-43 -7t-33.5 -8z" />
<glyph unicode="j" horiz-adv-x="448" d="M-66 -379q12 -29 35 -47t51 -18q14 0 38 9t51.5 27.5t56.5 48t55 70.5q47 82 67.5 187.5t20.5 242.5v639q0 43 -2 68.5t-5 39t-8 16.5t-13 3q-10 0 -30 -1t-41.5 -4t-43 -7t-33.5 -8q4 -33 6 -84t2 -146v-501q0 -131 -14 -221.5t-41 -149.5t-64.5 -94t-82.5 -56z M129 1249q0 -47 27.5 -71.5t66.5 -24.5q43 0 68.5 32t25.5 72q0 41 -23.5 70t-64.5 29h-2q-31 0 -64.5 -25.5t-33.5 -81.5z" />
<glyph unicode="k" horiz-adv-x="921" d="M133 1362q4 -33 6 -84t2 -143v-773q0 -129 -1 -221t-5 -153q43 0 69.5 1t55.5 5t39 14t10 41v438q29 -41 78 -103t102.5 -125.5t102.5 -121t80 -90.5q31 -37 57.5 -50t61.5 -13q37 0 73.5 5t55.5 15l2 8q-37 33 -97.5 99.5t-124 140.5t-121 144.5t-90.5 113.5 q96 88 167 153.5t128 124.5q61 57 72.5 82t-18.5 35q-29 10 -62 12.5t-55 2.5q-33 -31 -82 -83.5t-105.5 -110.5t-115 -116.5t-109.5 -101.5v749q0 45 -2 72t-5 41t-8 17.5t-13 3.5q-10 0 -30 -2.5t-42.5 -6.5t-43 -9t-32.5 -11z" />
<glyph unicode="l" horiz-adv-x="448" d="M133 1364q4 -31 6 -83t2 -144v-1125q0 -26 25 -26h2q8 0 27.5 1t42 3t44 5t33.5 7q-2 43 -4 118t-2 150v987q0 45 -2 72t-5 41t-8 17.5t-13 3.5q-10 0 -29 -2.5t-40.5 -5.5t-43 -8t-35.5 -11z" />
<glyph unicode="m" horiz-adv-x="1603" d="M100 821q23 -10 36.5 -36.5t13.5 -77.5v-342q0 -272 -7 -377q31 0 65 1t68 5q23 4 31 12t8 35v596q16 25 41 50.5t55.5 47t66.5 34.5t77 13q80 0 124 -51t44 -174v-192q0 -272 -6 -377q29 0 61.5 1t71.5 5q29 4 35 14t6 41v598q14 23 37.5 46.5t52.5 44t64.5 32.5 t78.5 12q80 0 126 -53t46 -178v-533q0 -30 25 -30h2q39 0 78 6t72 10q-4 37 -6.5 99.5t-2.5 152.5v326q0 70 -15 131t-50 107t-90.5 73t-134.5 27q-47 0 -84 -9.5t-68 -25.5q-37 -18 -75 -48t-85 -81q-31 78 -93 121t-157 43q-47 0 -77.5 -8.5t-59.5 -22.5q-35 -16 -74 -42 t-92 -83q-4 49 -26.5 93t-65.5 54q-23 8 -47 2q-18 -10 -37.5 -29.5t-32.5 -35.5v-27z" />
<glyph unicode="n" horiz-adv-x="1048" d="M100 821q23 -10 36.5 -36.5t13.5 -77.5v-342q0 -272 -7 -377q33 2 64 2q33 0 67 4q25 4 33 13t8 40v586q16 25 42 51.5t56.5 48t66.5 35.5t77 14q86 0 135 -52t49 -175l-2 -539q0 -28 27 -28h2q39 0 78 6t72 10q-4 37 -7.5 99.5t-3.5 154.5v309q0 72 -14 136.5t-50 112.5 t-94.5 76t-144.5 28q-41 0 -78 -10.5t-67 -26.5q-39 -20 -75 -49t-75 -70q-4 53 -26.5 95t-65.5 52q-23 8 -47 2q-18 -10 -37.5 -29.5t-32.5 -35.5v-27z" />
<glyph unicode="o" horiz-adv-x="1048" d="M66 440q0 -90 29.5 -174t87 -148.5t143.5 -103.5t200 -39q88 0 164 28t131 75q27 23 56.5 57.5t52 80.5t38 105.5t15.5 133.5q0 92 -29.5 177t-87 148.5t-143.5 101.5t-197 38h-2q-88 0 -165.5 -32t-139.5 -85q-76 -66 -114.5 -159t-38.5 -204zM246 459q0 84 23.5 148.5 t62.5 107.5t88 65.5t100 22.5h2q57 0 108.5 -24.5t89.5 -70.5t60.5 -112t22.5 -150q0 -96 -23.5 -162.5t-61.5 -109.5t-85 -62.5t-94 -19.5h-9q-52 0 -100 20q-52 22 -93.5 68.5t-66 116.5t-24.5 162z" />
<glyph unicode="p" horiz-adv-x="1073" d="M100 819q18 -8 34 -29.5t16 -70.5v-795q0 -279 -7 -360q35 0 67 1t66 5q27 8 33 17.5t6 33.5v404q29 -16 89.5 -33t125.5 -17q61 0 134 18.5t145 67.5q92 68 145.5 173.5t53.5 240.5q0 113 -34 197t-87 139t-122 82t-136 27q-84 0 -157 -34t-163 -108q-4 70 -35.5 106 t-72.5 36q-18 0 -43 -11q-33 -27 -58 -59v-31zM315 160v495q16 16 44 39t62 42.5t74 33.5t80 14q111 0 181.5 -87t70.5 -230q0 -106 -31.5 -178t-77.5 -116t-99.5 -63.5t-96.5 -19.5q-66 0 -124 23.5t-83 46.5z" />
<glyph unicode="q" horiz-adv-x="1052" d="M66 424q0 -109 34.5 -193t95 -141t139.5 -86t167 -29q59 0 126.5 21.5t114.5 52.5v-133q0 -129 -1 -217t-5 -148q20 0 48 2.5t57 6.5q45 4 57 15t12 40v791q0 217 4.5 342.5t4.5 173.5h-23l-119 -39q-29 10 -80 23.5t-116 13.5q-88 0 -162 -24t-133 -65 q-96 -61 -158.5 -164.5t-62.5 -242.5zM244 442q0 96 31.5 165t81 112t106.5 63.5t108 20.5q70 0 107 -13.5t65 -29.5v-598q-31 -20 -85 -35.5t-105 -15.5q-72 0 -129 24.5t-97 69.5t-61.5 105.5t-21.5 131.5z" />
<glyph unicode="r" horiz-adv-x="663" d="M82 817q35 -16 51.5 -46t16.5 -71v-335q0 -272 -7 -377q31 0 66 2t72 6q23 4 28.5 14t5.5 33v451q0 35 6.5 59.5t18.5 52.5q33 76 78 112t80 36q14 0 30.5 -2t36.5 -9q16 -6 31.5 0.5t26.5 20.5q16 25 23 57.5t7 55.5q-10 14 -36.5 28.5t-65.5 14.5q-70 0 -133.5 -51.5 t-112.5 -149.5q-2 86 -35.5 143.5t-91.5 57.5q-23 0 -47 -15q-14 -14 -28.5 -31.5t-20.5 -31.5v-25z" />
<glyph unicode="s" horiz-adv-x="694" d="M53 68q29 -37 102.5 -65t157.5 -28q61 0 121 17.5t107 52.5t75.5 88t28.5 125q0 55 -26.5 104.5t-86.5 90.5q-25 14 -56.5 33.5t-63 37t-59 32.5t-40.5 24q-61 39 -61 94q0 47 32.5 85t92.5 38q63 0 129 -31q35 -18 55 8q10 12 18.5 37t6.5 43q-12 16 -61.5 41t-133.5 25 h-2q-59 0 -113.5 -18.5t-95.5 -53.5t-65.5 -84t-24.5 -111q0 -66 30 -116t83 -80q14 -10 35.5 -23.5t46 -28t49 -27.5t45.5 -26q53 -29 76.5 -56.5t23.5 -64.5q0 -55 -43 -94t-112 -39q-53 0 -96.5 14.5t-82.5 37.5q-20 12 -36 12q-14 0 -23 -10q-14 -12 -23.5 -36t-9.5 -48 z" />
<glyph unicode="t" horiz-adv-x="686" d="M61 811q0 -16 19.5 -27.5t79.5 -11.5v-530q0 -115 57 -191t191 -76q53 0 105 13.5t83 38.5q23 16 32 38.5t11 53.5l-2 24l-10 11q-27 -18 -68 -33t-86 -15q-53 0 -95 31t-50 121q-4 33 -5 88t-1 123q0 70 1 147.5t5 157.5h90t54.5 1t38.5 2t44 3q29 2 56.5 20.5 t43.5 94.5h-325q0 31 2 67.5t6 86.5q-39 -10 -61.5 -22.5t-40.5 -29.5q-10 -10 -37 -33.5t-54.5 -52t-52 -56.5t-31.5 -44z" />
<glyph unicode="u" horiz-adv-x="1044" d="M133 887q4 -35 6 -86t2 -146v-352q0 -152 75 -240t230 -88q72 0 132 27q31 12 72.5 39t92.5 80q10 -66 55.5 -106t106.5 -40q31 0 55.5 27t32.5 49v35q-41 6 -71.5 29.5t-30.5 99.5v326q0 133 3 232t3 134q-33 0 -66.5 -4t-74.5 -10q-20 -4 -26.5 -16.5t-6.5 -49.5v-585 q-12 -20 -35.5 -43t-53.5 -41.5t-64.5 -30.5t-71.5 -12q-33 0 -67 8t-60.5 33.5t-44 75t-17.5 133.5v204q0 109 -2 211q0 43 -2 68.5t-5 39t-8 16.5t-13 3q-25 0 -72 -6t-74 -14z" />
<glyph unicode="v" horiz-adv-x="882" d="M33 870q10 -20 21.5 -44.5t24.5 -58.5t31.5 -80t43.5 -112q47 -123 81.5 -215t61.5 -161.5t45 -124t35 -99.5q23 2 52.5 7.5t53.5 13.5q33 10 54 65q49 121 89 219.5t75.5 183.5t66.5 159.5t61 146.5q25 61 28 87v6q0 21 -19 30q-27 14 -58.5 20.5t-60.5 6.5 q-23 -68 -56.5 -163t-70.5 -197.5t-74 -201t-61 -170.5q-31 94 -67 199t-69.5 200t-62.5 172t-43 118q-16 43 -43 43t-70.5 -17t-68.5 -33z" />
<glyph unicode="w" horiz-adv-x="1361" d="M35 870q16 -41 43.5 -113.5t75.5 -201.5q29 -84 56.5 -168t52 -160.5t45 -141.5t36.5 -110q25 2 52.5 7.5t52.5 11.5q33 10 47 55q14 43 41.5 126t58.5 173t58.5 174t41.5 131q29 -96 52.5 -176t46 -157.5t47 -160.5t55.5 -184q25 2 51.5 6.5t48.5 10.5q23 8 34 22.5 t22 44.5q39 104 72.5 195.5t65.5 177.5t61.5 170t64.5 176q18 50 18 79q0 26 -14 36q-25 12 -58.5 18.5t-62.5 8.5q-8 -31 -21.5 -81.5t-38 -133t-64.5 -204.5t-99 -298q-61 211 -108.5 369.5t-75.5 261.5q-14 45 -23.5 64.5t-26.5 19.5q-25 0 -65.5 -10.5t-56.5 -20.5 q4 -10 5 -21.5t5 -23.5q-25 -78 -47.5 -149.5t-47 -146.5t-51 -159t-59.5 -184q-59 207 -110.5 370.5t-98.5 309.5q-10 37 -39 37q-12 0 -31.5 -4.5t-40 -11.5t-40 -16.5t-31.5 -17.5z" />
<glyph unicode="x" horiz-adv-x="870" d="M23 23l6 -23q25 -6 58.5 -9t62.5 -3q33 0 51 26q43 63 75.5 110.5t59 86.5t48.5 70.5t44 64.5q31 -47 63.5 -96t62.5 -93t54.5 -81t40.5 -62q17 -26 47 -26h2q43 0 83 4t65 12v21q-72 104 -157 225t-157 227q74 102 150 201.5t147 189.5v23q-25 10 -64.5 19.5t-57.5 9.5 q-16 0 -26.5 -10.5t-27.5 -32.5q-23 -33 -45 -64t-44.5 -64.5t-49.5 -70.5t-59 -82q-53 76 -103.5 148.5t-83.5 119.5q-20 27 -33.5 41.5t-25.5 14.5h-2q-14 0 -34.5 -4.5t-40 -10.5t-37 -12t-25.5 -10l-2 -25q16 -23 52 -71t77 -106t80.5 -116.5t68.5 -99.5 q-88 -123 -175 -241t-148 -201z" />
<glyph unicode="y" horiz-adv-x="856" d="M37 872q35 -76 82 -188.5t91 -224t78 -201.5t46 -121q10 -27 18 -45t19 -35q-72 -145 -159 -255.5t-171 -172.5v-14q16 -16 48 -33.5t67 -17.5q16 0 49 20.5t78 68.5t100 129t117 202q59 117 113.5 245.5t97.5 247.5t72.5 212t41.5 138q4 17 4 30q0 35 -30 44 q-55 18 -113 19q-14 -63 -39.5 -153.5t-55.5 -187t-62.5 -190.5t-63.5 -164q-14 37 -34.5 93.5t-44.5 123t-49.5 135t-48 130t-41 107.5t-28.5 69q-16 37 -43 37h-2q-27 0 -67.5 -14.5t-69.5 -33.5z" />
<glyph unicode="z" horiz-adv-x="780" d="M35 53l28 -43q33 -6 80 -9t100.5 -5t106.5 -2h103q66 0 111.5 1t76.5 4t49.5 7t30.5 12q18 14 33.5 43t25.5 60q-23 -4 -85 -6t-139 -3h-51q-51 0 -103 1q-76 2 -126 6q68 104 135.5 209.5t123 194.5t95.5 155.5t52 95.5l14 31.5t9.5 26t4.5 26.5t3 37h-422q-72 0 -111 2 t-67 18q-10 -10 -26.5 -32.5t-29.5 -57.5q-10 -27 19.5 -38t103.5 -11h322q-49 -90 -119 -199.5t-138.5 -214t-126 -188.5t-83.5 -121z" />
<glyph unicode="{" horiz-adv-x="659" d="M98 594q-4 -29 5.5 -53.5t23.5 -26.5q92 -8 125 -51t33 -133q0 -43 -7.5 -96.5t-14.5 -107.5t-14 -106.5t-7 -95.5q0 -143 82 -212.5t221 -73.5q8 10 14 32.5t6 42.5q0 16 -28 25q-90 23 -122 73t-32 117q0 86 21.5 181.5t21.5 203.5q0 39 -3 77t-17.5 71t-43 59.5 t-77.5 46.5q66 29 103.5 81t37.5 149q0 86 -19.5 172t-19.5 161q0 82 35 129.5t115 75.5q16 6 22 12.5t6 20.5q0 20 -3 37.5t-11 28.5q-51 -2 -101.5 -17.5t-89.5 -44.5q-68 -47 -90 -111.5t-22 -130.5q0 -39 6 -85t12 -93t12.5 -92t6.5 -82q0 -33 -7.5 -61.5t-27 -52 t-56 -42t-96.5 -28.5z" />
<glyph unicode="|" horiz-adv-x="573" d="M215 -512h143v2048h-143v-2048z" />
<glyph unicode="}" horiz-adv-x="659" d="M94 -297q0 -49 15 -65q49 2 100 18t92 45q66 47 87.5 110.5t21.5 129.5q0 43 -5.5 95t-12.5 103t-12 100.5t-5 86.5q0 33 6 62.5t26.5 53t56.5 42t95 28.5q4 27 -5 51.5t-22 26.5q-92 8 -124.5 51t-32.5 129q0 35 6 82t14 98t14.5 102.5t6.5 94.5q0 143 -81 213t-222 74 q-6 -10 -12.5 -33t-6.5 -43q0 -16 29 -25q88 -23 119.5 -71t31.5 -113q0 -90 -21.5 -180t-21.5 -183q0 -39 4.5 -74.5t19.5 -68.5t43 -59.5t75 -46.5q-59 -29 -100.5 -82.5t-41.5 -157.5q0 -94 19.5 -187.5t19.5 -168.5q0 -82 -34.5 -129.5t-114.5 -77.5q-27 -8 -27 -31z " />
<glyph unicode="~" horiz-adv-x="1169" d="M117 354q16 -10 36.5 -17t45.5 -7q37 0 45 41q20 127 55 178t86 51q33 0 71 -25.5t91 -78.5q66 -72 126 -121t138 -49q45 0 86 16t75 58t55.5 111t25.5 173q-12 14 -38 24.5t-50 10.5q-10 0 -17.5 -5t-11.5 -26q-6 -66 -17.5 -109.5t-26.5 -70.5t-35.5 -38t-45.5 -11 q-47 0 -93 42t-100 99q-66 70 -115.5 98.5t-115.5 28.5h-2q-31 0 -71 -10t-79.5 -47t-71.5 -112t-46 -204z" />
<glyph unicode="&#xa1;" horiz-adv-x="370" d="M80 -293q0 -33 11 -43t30 -10q16 0 40.5 4t48 10t41 15.5t21.5 19.5q-2 35 -4 102.5t-6 149.5t-8 170t-8 165t-6 134.5t-4 77.5q-8 0 -33 -6.5t-49 -16.5q-10 -6 -19.5 -15t-13.5 -38q-2 -16 -5 -68.5t-7.5 -124t-9.5 -153.5t-9 -157t-7 -133t-3 -83zM80 807 q0 -41 25.5 -75t72.5 -34h2q59 0 88 33t29 80q0 55 -34 82t-70 27q-51 0 -82 -32t-31 -81z" />
<glyph unicode="&#xa2;" d="M127 602q0 -109 36 -180.5t85 -114.5t101 -62.5t87 -27.5l-24 -199l84 7q31 2 41 14t14 41l16 127q66 0 107 11t63 22q43 23 62 133q-96 -39 -205 -39q-49 0 -100.5 15.5t-93.5 51t-67.5 91t-25.5 135.5q0 39 13.5 89t45 94t86 73.5t134.5 29.5q41 0 72.5 -10t60.5 -22 q25 -10 40 -3t27 23q25 35 25 62q-23 25 -72 45t-116 26l16 150l-57 -2q-45 -4 -59.5 -15.5t-18.5 -36.5l-10 -100q-43 -10 -106.5 -34.5t-121 -74t-98.5 -126t-41 -193.5z" />
<glyph unicode="&#xa3;" d="M57 25q135 -45 277.5 -77t271.5 -32q78 0 125 9t78 28q23 20 41 48t27 73l-7 4q-25 -8 -56.5 -14.5t-65 -9.5t-66.5 -5t-59 -2q-43 0 -93.5 6t-99.5 14.5t-93 20.5t-75 25q59 74 92 179t37 269q133 0 197.5 -1t85.5 3q29 4 56.5 29.5t37.5 91.5q-18 -4 -66.5 -5 t-105.5 -1q-55 0 -109.5 1t-85.5 1q2 74 10.5 153.5t30 145t60.5 108.5t106 43q35 0 60.5 -7t44.5 -15q18 -8 31.5 -6t23.5 18t16.5 37t3.5 39q-23 20 -66.5 39.5t-109.5 19.5q-190 0 -282 -143t-103 -434q-53 -16 -80.5 -35.5t-42.5 -54.5q12 -14 36 -20.5t77 -6.5 q0 -55 -5 -123.5t-22.5 -137.5t-48 -133.5t-82.5 -113.5z" />
<glyph unicode="&#xa4;" d="M57 195q4 -16 18.5 -33t35.5 -27q20 -8 39.5 -2t39.5 33q29 35 48.5 61.5t29.5 42.5q35 -18 75 -26t81 -8q51 0 100 11t103 48q63 -72 100 -115t49 -43q8 0 20.5 8.5t23.5 20.5t19.5 26.5t12.5 28.5q-10 20 -45 57t-84 93q41 43 63.5 112.5t22.5 134.5q0 59 -15.5 114.5 t-48.5 98.5q41 45 70 80t29 58q0 14 -14.5 39.5t-45.5 48.5q-27 -33 -57.5 -69t-60.5 -68q-35 29 -88.5 44t-110.5 15h-2q-57 0 -113.5 -16.5t-93.5 -38.5q-33 33 -65.5 71.5t-51.5 57.5q-35 6 -61 -47q-23 -35 8 -76q25 -29 41 -45.5t35 -38.5q-39 -47 -67.5 -107.5 t-28.5 -138.5q0 -70 23.5 -139.5t76.5 -122.5q-29 -41 -59.5 -81t-51.5 -62zM207 608q0 53 16.5 100.5t46 83t71.5 56t95 20.5h4q102 0 167 -68.5t65 -187.5q0 -117 -59.5 -191.5t-170.5 -74.5q-106 0 -170.5 73t-64.5 189z" />
<glyph unicode="&#xa5;" d="M31 1180q16 -25 56 -85.5t87 -131t93 -142t75 -119.5h-246q-4 -4 -9 -15t-8 -25.5t-5 -30t-2 -25.5h290v-184h-260q-4 -4 -7 -15.5t-6 -25.5t-5 -29.5t-2 -25.5h280v-303q0 -25 10.5 -31t26.5 -6q35 0 71 5t60 9v326h209q20 0 32.5 10t20 25.5t9.5 32t2 28.5h-273v184 h234q29 0 47 34t20 62h-270q45 70 92 140.5t90 134t79 115t57 82.5q12 23 -21 30q-29 6 -62.5 8t-58.5 0q-18 -29 -48 -77t-66.5 -107t-76.5 -124.5t-79 -127.5q-31 51 -69 114.5t-72.5 124t-62 108.5t-40.5 71q-6 8 -14 14t-21 6q-23 0 -64.5 -5t-86.5 -13z" />
<glyph unicode="&#xa6;" horiz-adv-x="573" d="M215 358v-716h143v716h-143zM215 666h143v716h-143v-716z" />
<glyph unicode="&#xa7;" horiz-adv-x="921" d="M63 784q0 -84 33 -151.5t74 -132.5q23 -39 60.5 -88.5t75.5 -95.5t73 -86t51 -60q80 -92 80 -170q0 -61 -51 -94t-117 -33q-43 0 -90 9t-78 26q-10 -47 0 -79t29 -44q14 -10 53 -19.5t80 -9.5q39 0 84 8.5t84 28.5q18 8 43.5 24.5t48 43t39 64.5t16.5 91q0 45 -15 95.5 t-56 109.5q-20 31 -50 68t-63 78t-66.5 81.5t-64.5 79.5q-74 92 -114 173t-38 159q0 59 15.5 104.5t33.5 79.5q6 20 -14 19q-16 -4 -38.5 -17.5t-43.5 -37.5q-27 -31 -50.5 -86.5t-23.5 -135.5v-2zM272 1069q0 -59 22.5 -118.5t94.5 -141.5q88 -104 156.5 -189t109.5 -153 q31 -49 49.5 -104.5t18.5 -116.5q0 -51 -8 -90t-19 -62q0 -4 2 -11t13 -3q16 4 41.5 22.5t38.5 36.5q16 23 32.5 70t16.5 115q2 90 -28 164.5t-91 154.5q-59 78 -113.5 138.5t-105.5 119.5q-59 70 -77.5 108t-18.5 66q0 53 37.5 88t103.5 35q33 0 67.5 -9t63.5 -26 q10 12 16 34t6 44q0 23 -22 39q-16 12 -51 21.5t-76 9.5h-2q-100 0 -176 -54q-47 -35 -74 -82t-27 -106z" />
<glyph unicode="&#xa8;" horiz-adv-x="819" d="M150 1192q0 -47 26.5 -69.5t61.5 -22.5q41 0 67.5 25.5t26.5 72.5q0 35 -22.5 63.5t-63.5 28.5h-2q-47 0 -70.5 -28.5t-23.5 -69.5zM489 1192q0 -47 28 -69.5t58 -22.5q43 0 70 25.5t27 72.5q0 35 -22.5 63.5t-63.5 28.5h-2q-47 0 -71 -28.5t-24 -69.5z" />
<glyph unicode="&#xa9;" horiz-adv-x="1390" d="M76 647q0 -145 48 -263t132 -203t197.5 -131t246.5 -46q129 0 241 46t195 131t131 203t48 263q0 143 -48 262t-131 204t-195 131t-239 46h-2q-133 0 -246.5 -46t-197.5 -131t-132 -203.5t-48 -262.5zM184 647q0 117 37 219.5t105.5 178t165 118.5t210.5 43h3 q113 0 204.5 -43t157.5 -118.5t102.5 -177t36.5 -218.5q0 -119 -36.5 -221t-102.5 -178t-158 -119t-204 -43q-117 0 -212.5 44t-165 120t-106.5 178t-37 217zM393 645q0 -74 24.5 -135t69.5 -105.5t108.5 -69t143.5 -24.5q72 0 105 11.5t47 19.5q29 29 39 70l-17 20 q-20 -8 -59 -16t-80 -8q-129 0 -194.5 67.5t-65.5 179.5q0 63 20.5 108.5t53.5 74t73.5 43t79.5 14.5q47 0 81 -8t55 -17q12 -4 22 -4q12 0 21 13q6 6 11 23.5t5 31.5q-16 16 -63.5 33.5t-118.5 17.5q-78 0 -144.5 -24.5t-115 -69.5t-75 -107.5t-26.5 -138.5z" />
<glyph unicode="&#xaa;" horiz-adv-x="649" d="M59 711q0 -63 47.5 -105.5t126.5 -42.5q61 2 103.5 25.5t71.5 52.5q10 -33 38.5 -54.5t73.5 -19.5q41 0 64.5 14.5t36.5 26.5l2 62q-12 -4 -21.5 -6t-26.5 -2q-35 0 -40 47q0 23 1 57.5t1 71.5t1 70.5t1 54.5q0 92 -50.5 150t-164.5 58q-39 0 -78 -10t-73 -25.5 t-59.5 -34t-37.5 -32.5l12 -27q18 -55 64 -30q29 20 66.5 39.5t78.5 19.5q106 0 106 -113v-26q-16 -4 -31.5 -7t-39.5 -7q-31 -6 -77 -18.5t-90 -36t-75 -60.5t-31 -92zM199 729v2q0 29 19.5 49.5t49 35.5t65.5 23.5t68 12.5v-74q0 -16 -3 -27.5t-7 -21.5q-14 -29 -47 -49.5 t-68 -20.5t-56 18.5t-21 51.5z" />
<glyph unicode="&#xab;" horiz-adv-x="962" d="M98 477q0 -10 3 -24.5t10 -24.5q78 -78 149.5 -176t130.5 -197q20 4 43 26.5t23 49.5q0 25 -23.5 71t-55.5 96t-63 95.5t-43 65.5q12 18 45 64t67 97.5t60.5 96.5t26.5 63q0 23 -22.5 47.5t-38.5 30.5q-66 -106 -147 -204.5t-165 -176.5zM471 477q0 -12 4 -26.5t14 -24.5 q82 -86 156 -185.5t135 -209.5q23 10 47.5 32.5t24.5 49.5q0 18 -26.5 68t-61.5 105.5t-69 105t-48 67.5q12 18 48 65t74 100.5t66.5 102.5t28.5 70q-2 29 -24.5 54.5t-38.5 35.5q-74 -117 -159 -221.5t-171 -188.5z" />
<glyph unicode="&#xac;" horiz-adv-x="1169" d="M125 629h788v-471l48 4q53 4 67 20.5t14 38.5v502l-20 22h-832q-35 0 -49 -28.5t-16 -87.5z" />
<glyph unicode="&#xad;" horiz-adv-x="1169" d="M127 446h852q37 0 50 32t15 85h-858q-33 0 -45 -32t-14 -85z" />
<glyph unicode="&#xae;" horiz-adv-x="645" d="M61 1042q0 -55 17.5 -103t51.5 -84t82 -56.5t110 -20.5q61 0 109 20.5t82 56.5t52.5 84t18.5 103t-18.5 104.5t-52.5 86.5t-82 57.5t-107 20.5h-2q-123 0 -192 -78t-69 -191zM129 1044q0 90 52 150.5t138 60.5h5q86 0 139 -60t53 -151q0 -92 -53 -152.5t-139 -60.5 q-88 0 -141.5 60.5t-53.5 152.5zM223 911h60v107q31 2 43 -21t24 -42t21 -31q4 -6 11 -10.5t24 -4.5q20 0 40 4v15q-16 16 -39.5 51t-33.5 53q20 8 36.5 25.5t16.5 44.5q0 41 -29.5 60.5t-83.5 19.5q-25 0 -48 -2t-42 -6v-263zM283 1053v84q12 4 30 4q47 0 47 -41 q0 -35 -28 -43q-12 -4 -25 -4h-24z" />
<glyph unicode="&#xaf;" horiz-adv-x="819" d="M186 1141q0 -27 27 -27h381q12 14 25.5 48t13.5 55q0 20 -25 20h-389q-8 -8 -20.5 -38t-12.5 -58z" />
<glyph unicode="&#xb0;" horiz-adv-x="589" d="M66 997q0 -57 19 -99t51 -69.5t71 -42t76 -14.5q111 0 176 63.5t65 165.5q0 43 -14 84t-42 74t-70 53.5t-97 20.5h-2q-53 0 -96 -19.5t-74 -51.5t-47 -75t-16 -90zM182 1001q0 55 30 95.5t83 40.5h2q55 0 84 -43t29 -97q0 -51 -25 -91t-88 -40q-45 0 -80 35t-35 100z" />
<glyph unicode="&#xb1;" horiz-adv-x="1169" d="M125 629h395v-406l53 4q47 6 61.5 20.5t14.5 39.5v342h328q41 0 52 31.5t13 84.5h-393v289q0 39 -8 56.5t-43 13.5l-86 -10q8 -47 8 -136v-213h-327q-37 0 -51.5 -30.5t-16.5 -85.5zM127 0h852q41 0 52 31.5t13 85.5h-851q-35 0 -49.5 -31t-16.5 -86z" />
<glyph unicode="&#xb2;" horiz-adv-x="604" d="M47 610l10 -26q45 -10 117 -11.5t145 -1.5q72 0 108 3.5t67 11.5q27 16 42 43.5t19 56.5q-102 -8 -174 -9t-137 3q68 59 110.5 97t71.5 69q29 35 55.5 80t26.5 100q0 96 -59.5 151.5t-161.5 55.5q-66 0 -119 -27.5t-88 -62.5l-19 -78l21 -16q35 29 76 51t82 22 q49 0 81.5 -28.5t32.5 -85.5q0 -41 -25.5 -85t-64.5 -87t-86 -86t-92 -82z" />
<glyph unicode="&#xb3;" horiz-adv-x="604" d="M59 614q4 -25 13.5 -41t17.5 -26q14 -10 43 -18.5t92 -8.5q59 0 115.5 15.5t100.5 44t71 69.5t27 94q0 72 -40 118t-112 63q53 41 74 69q10 14 16 31.5t6 44.5q0 23 -9 51.5t-30.5 53t-58.5 41t-94 16.5h-2q-61 0 -108.5 -23.5t-67.5 -44.5q-25 -20 -25 -39 q0 -10 8 -27.5t19 -27.5q29 25 64.5 43t70.5 18q39 0 67.5 -21.5t28.5 -64.5q0 -29 -14.5 -48t-37 -33.5t-51 -22.5t-57.5 -14q-12 -16 -21 -32.5t-15 -29.5l12 -14q25 4 44 6t38 2q61 0 104 -26.5t43 -86.5q0 -53 -52 -91t-146 -38q-35 0 -67 5.5t-50 11.5z" />
<glyph unicode="&#xb4;" horiz-adv-x="819" d="M338 1079q0 -12 8 -18q12 -10 24.5 -19.5t28.5 -13.5q41 59 99.5 136t119.5 147q14 16 15 24q0 8 -10 17q-16 18 -48 32.5t-59 14.5h-2q-14 0 -36.5 -33t-46 -78t-46.5 -93t-35 -79q-12 -25 -12 -37z" />
<glyph unicode="&#xb5;" horiz-adv-x="1048" d="M122 -391.5q1 -16.5 9 -26.5t25.5 -16t50.5 -8q20 -2 40.5 -3t41.5 1l-8 524q31 -51 83 -77t109 -26q63 -2 121 25q27 12 64.5 39t82.5 76q10 -63 56.5 -102.5t107.5 -39.5q31 0 55.5 27t32.5 49v37q-20 2 -38.5 8t-33 19.5t-22.5 37t-8 60.5v324q0 133 3 232t3 138 q-33 -2 -66.5 -6t-74.5 -8q-20 -6 -26.5 -18.5t-6.5 -53.5v-575q-27 -47 -87.5 -89t-137.5 -42q-31 0 -64 8t-59.5 31.5t-44 67.5t-17.5 116v225q0 111 -2 213q0 45 -1 71.5t-4 40t-9 16.5t-14 3q-27 0 -73 -7t-73 -15q4 -35 6 -87.5t2 -146.5v-352l-22 -647 q-2 -27 -1 -43.5z" />
<glyph unicode="&#xb6;" horiz-adv-x="1013" d="M86 -23q0 -16 20.5 -37.5t55.5 -40t84 -30.5t104 -12q86 0 152.5 25.5t113.5 70.5q39 37 66 82t43 108.5t23.5 148.5t7.5 200v614l123 10l61 76l-6 29h-207h-197q-92 0 -171.5 -29t-138 -83t-91.5 -132t-33 -174q0 -78 25.5 -145.5t70 -116.5t103.5 -77t127 -28 q35 0 76 13l118 32v-84q0 -426 -258 -426q-123 0 -231 90q-6 -8 -23.5 -35.5t-17.5 -48.5z" />
<glyph unicode="&#xb7;" horiz-adv-x="352" d="M66 483q0 -59 34.5 -85.5t73.5 -26.5q53 0 83 32.5t30 85.5q0 41 -25.5 78t-75.5 37h-4q-57 0 -86.5 -36t-29.5 -85z" />
<glyph unicode="&#xb8;" horiz-adv-x="819" d="M268 -399q0 -14 13.5 -37t33.5 -27q43 6 88.5 21.5t82 42t60 61.5t23.5 78q0 53 -32.5 94t-96.5 60l78 114h-112l-130 -182v-23q59 2 109.5 -17t50.5 -60q0 -23 -30.5 -51.5t-116.5 -53.5q-14 -4 -17.5 -9t-3.5 -11z" />
<glyph unicode="&#xb9;" horiz-adv-x="604" d="M115 1073l12 -16q12 0 33.5 3t46 7t48.5 9t38 9q0 -72 -1 -158.5t-2 -163.5t-2 -133.5t-1 -66.5l94 6q29 2 38 9.5t9 25.5v172t2 193.5t4 166t2 89.5l-18 8q-18 -10 -51 -22.5t-72 -26t-78 -25.5t-72 -20z" />
<glyph unicode="&#xba;" horiz-adv-x="733" d="M51 858q0 -53 19.5 -105.5t57.5 -94.5t96.5 -68.5t135.5 -26.5q72 0 129.5 23.5t98.5 58.5t67.5 92.5t26.5 134.5q0 59 -19.5 113.5t-56.5 95.5t-94 65.5t-135 24.5h-2q-68 0 -122 -22.5t-89 -50.5q-113 -90 -113 -240zM203 870q0 90 47 145.5t112 55.5h3q72 0 119.5 -53 t47.5 -150q0 -106 -51 -155t-114 -49q-29 0 -57.5 11t-52.5 36.5t-39 64.5t-15 94z" />
<glyph unicode="&#xbb;" horiz-adv-x="962" d="M98 119q2 -31 24.5 -55.5t39.5 -34.5q74 117 159 221t171 188q0 29 -19 54q-80 84 -154.5 184t-138.5 211q-23 -10 -46 -34t-23 -48q0 -20 26.5 -70.5t62.5 -106t69.5 -104.5t47.5 -67q-14 -18 -50 -65.5t-73.5 -100.5t-66.5 -102.5t-29 -69.5zM492 135q0 -23 22.5 -47.5 t38.5 -30.5q68 106 148.5 204.5t162.5 176.5q0 29 -14 51q-78 78 -149.5 175.5t-131.5 195.5q-20 -4 -42.5 -25.5t-20.5 -50.5q0 -23 23.5 -68.5t54 -97t61.5 -96.5t45 -65q-14 -18 -47 -64.5t-66.5 -96.5t-59 -96t-25.5 -65z" />
<glyph unicode="&#xbc;" horiz-adv-x="1402" d="M117 1073l12 -16q12 0 33.5 3t46 7t48.5 9t38 9q0 -72 -1 -158.5t-2 -163.5t-2 -133.5t-1 -66.5l94 6q47 2 47 35v172t2 193.5t4 166t2 89.5l-18 8q-20 -10 -53 -22.5t-71 -26t-77 -25.5t-72 -20zM248 0q4 -16 17.5 -32.5t31.5 -28.5q10 -10 20.5 -9.5t24.5 23.5 q119 195 228.5 377t205.5 343t179 299.5t149 244.5q-6 18 -17.5 31.5t-27.5 27.5q-29 25 -45 -4q-84 -141 -185.5 -311t-205 -342.5t-201.5 -333t-174 -285.5zM727 231q0 -8 16.5 -34.5t24.5 -32.5q39 -8 117 -11t170 -3q0 -35 -2 -77t-4 -75l12 -12q14 2 44 7t83 13v148 q8 2 22.5 6t30.5 10l43 61l-8 21q-25 -4 -48.5 -5t-39.5 -3v180h-29q-25 -4 -55.5 -17.5t-44.5 -23.5l-4 -143q-68 0 -108 2t-75 6q78 119 163 226.5t177 199.5l-34 16q-18 -4 -41 -11t-44.5 -16.5t-39 -18.5t-25.5 -17q-29 -27 -67.5 -74t-80.5 -102.5t-82 -113.5t-71 -106 z" />
<glyph unicode="&#xbd;" horiz-adv-x="1402" d="M100 1073l13 -16q12 0 34.5 3t47 7t47 9t37.5 9v-159q0 -86 -1.5 -163t-2.5 -133.5t-3 -66.5l97 6q47 2 47 35v172t1 193.5t3 166t2 89.5l-19 8q-18 -10 -51 -22.5t-70.5 -26t-76.5 -25.5t-72 -20zM219 0q10 -35 47 -61q12 -10 22.5 -9.5t22.5 23.5q121 195 230.5 377 t206 343t178 299.5t147.5 244.5q-4 18 -15 31.5t-28 27.5q-29 25 -45 -4q-84 -141 -185.5 -311t-204.5 -342.5t-201.5 -333t-174.5 -285.5zM799 33l8 -27q47 -10 117.5 -11t144.5 -1q72 0 107.5 3t66.5 11q27 16 42 44t22 57q-102 -8 -175 -9.5t-137 2.5q68 59 110 97.5 t71 68.5q31 35 56 80t25 98q0 96 -59 152.5t-162 56.5q-66 0 -119 -27.5t-88 -62.5l-18 -78l23 -16q33 29 73.5 51.5t83.5 22.5q49 0 82 -29t33 -86q0 -41 -25.5 -85t-65.5 -87t-87 -86t-92 -82z" />
<glyph unicode="&#xbe;" horiz-adv-x="1402" d="M92 614q4 -25 13.5 -41t17.5 -26q14 -10 43 -18.5t92 -8.5q59 0 115.5 15.5t100.5 44t70.5 69.5t26.5 94q0 72 -39.5 118t-111.5 63q53 41 74 69q10 14 16 31.5t6 44.5q0 23 -9 51.5t-30.5 53t-58.5 41t-94 16.5h-2q-59 0 -107.5 -23.5t-69.5 -44.5q-25 -20 -24 -39 q0 -10 8 -27.5t18 -27.5q29 25 65 43t71 18q41 0 68.5 -21.5t27.5 -64.5q0 -29 -14.5 -48t-37 -33.5t-51 -22.5t-57.5 -14q-12 -16 -21.5 -32.5t-15.5 -29.5l13 -14q25 4 44 6t37 2q61 0 104.5 -26.5t43.5 -86.5q0 -53 -52.5 -91t-146.5 -38q-35 0 -66.5 5.5t-49.5 11.5z M305 0q6 -35 47 -61q10 -10 20.5 -9.5t24.5 23.5q119 195 228.5 377t206 343t179 299.5t148.5 244.5q-6 18 -16 31.5t-27 27.5q-29 23 -47 -4q-84 -141 -185.5 -311t-205 -342.5t-200.5 -333t-173 -285.5zM758 231q0 -8 15 -34.5t24 -32.5q39 -8 117.5 -11t170.5 -3 q0 -35 -2 -77t-6 -75l13 -12q14 2 43.5 7t83.5 13v148q20 4 53 16l43 61l-6 21q-27 -4 -50.5 -5t-39.5 -3v180h-29q-25 -4 -55.5 -17.5t-42.5 -23.5l-5 -143q-70 0 -109.5 2t-74.5 6q156 240 342 426l-37 16q-18 -4 -40.5 -11t-44 -16.5t-39 -18.5t-25.5 -17 q-29 -27 -68 -74t-81 -102.5t-82 -113.5t-68 -106z" />
<glyph unicode="&#xbf;" horiz-adv-x="659" d="M72 -94q0 -104 65.5 -178t194.5 -74h2q55 0 128 24.5t136 85.5l-6 33q-10 41 -27.5 51.5t-36.5 -2.5q-29 -18 -70.5 -36.5t-90.5 -18.5q-59 0 -91 36t-32 89q0 29 12 58.5t29.5 58t39 56.5t40.5 52q47 66 70.5 123.5t23.5 112.5q0 76 -35 110.5t-64 34.5q-16 0 -38.5 -7 t-32.5 -17q18 -37 18 -95q0 -37 -22.5 -94t-79.5 -129q-55 -72 -94 -136t-39 -138zM242 807q0 -39 25.5 -74t72.5 -35h2q57 0 87 33t30 78q0 57 -35 84t-70 27q-49 0 -80.5 -32t-31.5 -81z" />
<glyph unicode="&#xc0;" horiz-adv-x="1277" d="M33 12q25 -10 66.5 -17t64.5 -7q33 0 45 24q27 55 70 153.5t100 227.5h512q27 -61 45 -108t34.5 -86t31 -75t30.5 -77q16 -35 28.5 -47t31.5 -12q12 0 30.5 1t40 4t42 7t36.5 10l2 13q-29 55 -67.5 149t-100.5 238q-31 70 -76 180t-94 230t-96 235.5t-82 197.5 q-6 14 -16.5 23.5t-30.5 9.5q-18 0 -60 -6t-75 -14l26 -62q-16 -39 -54 -123t-88 -193.5t-106.5 -234.5t-110.5 -242.5t-100 -218t-77 -163.5zM379 1554q-8 -20 12 -28q43 -14 90 -33.5t92 -40t86 -40t72 -36.5q6 8 14.5 16.5t18.5 24.5q23 29 -8 49q-27 25 -69 56.5 t-85 58.5t-79 45.5t-50 18.5h-2q-25 0 -52.5 -31t-39.5 -60zM428 520q33 76 60.5 143.5t54 129t52.5 121t52 120.5q20 -49 69.5 -174t131.5 -340h-420z" />
<glyph unicode="&#xc1;" horiz-adv-x="1277" d="M33 12q25 -10 66.5 -17t64.5 -7q33 0 45 24q27 55 70 153.5t100 227.5h512q27 -61 45 -108t34.5 -86t31 -75t30.5 -77q16 -35 28.5 -47t31.5 -12q12 0 30.5 1t40 4t42 7t36.5 10l2 13q-29 55 -67.5 149t-100.5 238q-31 70 -76 180t-94 230t-96 235.5t-82 197.5 q-6 14 -16.5 23.5t-30.5 9.5q-18 0 -60 -6t-75 -14l26 -62q-16 -39 -54 -123t-88 -193.5t-106.5 -234.5t-110.5 -242.5t-100 -218t-77 -163.5zM428 520q33 76 60.5 143.5t54 129t52.5 121t52 120.5q20 -49 69.5 -174t131.5 -340h-420zM513 1432.5q-3 -11.5 5 -27.5 q6 -12 13.5 -23.5t15.5 -17.5q31 10 71.5 25.5t88 32t97.5 34t99 31.5q16 4 24.5 12t2.5 25q-4 12 -11.5 27.5t-17.5 29.5t-23.5 25.5t-25.5 15.5q-18 0 -60 -18.5t-89.5 -44t-93.5 -54t-77 -49.5q-16 -12 -19 -23.5z" />
<glyph unicode="&#xc2;" horiz-adv-x="1277" d="M33 12q25 -10 66.5 -17t64.5 -7q33 0 45 24q27 55 70 153.5t100 227.5h512q27 -61 45 -108t34.5 -86t31 -75t30.5 -77q16 -35 28.5 -47t31.5 -12q12 0 30.5 1t40 4t42 7t36.5 10l2 13q-29 55 -67.5 149t-100.5 238q-31 70 -76 180t-94 230t-96 235.5t-82 197.5 q-6 14 -16.5 23.5t-30.5 9.5q-18 0 -60 -6t-75 -14l26 -62q-16 -39 -54 -123t-88 -193.5t-106.5 -234.5t-110.5 -242.5t-100 -218t-77 -163.5zM389 1405q10 -16 35 -30.5t47 -14.5h2q12 0 21.5 5t17.5 9q31 23 66.5 53.5t70.5 67.5q47 -45 85 -77t59 -46q18 -12 45 -12 q20 0 44.5 17.5t32.5 33.5q-131 104 -233 223q-10 0 -23.5 -1t-29.5 -5q-10 -4 -18.5 -10t-14.5 -12q-94 -115 -207 -201zM428 520q33 76 60.5 143.5t54 129t52.5 121t52 120.5q20 -49 69.5 -174t131.5 -340h-420z" />
<glyph unicode="&#xc3;" horiz-adv-x="1277" d="M33 12q25 -10 66.5 -17t64.5 -7q33 0 45 24q27 55 70 153.5t100 227.5h512q27 -61 45 -108t34.5 -86t31 -75t30.5 -77q16 -35 28.5 -47t31.5 -12q12 0 30.5 1t40 4t42 7t36.5 10l2 13q-29 55 -67.5 149t-100.5 238q-31 70 -76 180t-94 230t-96 235.5t-82 197.5 q-6 14 -16.5 23.5t-30.5 9.5q-18 0 -60 -6t-75 -14l26 -62q-16 -39 -54 -123t-88 -193.5t-106.5 -234.5t-110.5 -242.5t-100 -218t-77 -163.5zM395 1401q10 -4 36 -10.5t44 -6.5q12 0 17 23q10 43 24 69.5t35 28.5q16 0 28.5 -12t30.5 -35q31 -35 57.5 -58.5t63.5 -23.5 q66 0 101.5 55.5t46.5 159.5q-16 12 -38 21.5t-34 9.5q-16 0 -23 -20q-10 -59 -23 -82t-28 -23q-10 0 -25.5 15.5t-31.5 37.5q-55 72 -119 72h-2q-41 0 -69.5 -20.5t-47 -52t-29 -71.5t-14.5 -77zM428 520q33 76 60.5 143.5t54 129t52.5 121t52 120.5q20 -49 69.5 -174 t131.5 -340h-420z" />
<glyph unicode="&#xc4;" horiz-adv-x="1277" d="M33 12q25 -10 66.5 -17t64.5 -7q33 0 45 24q27 55 70 153.5t100 227.5h512q27 -61 45 -108t34.5 -86t31 -75t30.5 -77q16 -35 28.5 -47t31.5 -12q12 0 30.5 1t40 4t42 7t36.5 10l2 13q-29 55 -67.5 149t-100.5 238q-31 70 -76 180t-94 230t-96 235.5t-82 197.5 q-6 14 -16.5 23.5t-30.5 9.5q-18 0 -60 -6t-75 -14l26 -62q-16 -39 -54 -123t-88 -193.5t-106.5 -234.5t-110.5 -242.5t-100 -218t-77 -163.5zM360 1464q0 -49 29 -71.5t64 -22.5q43 0 68.5 25.5t25.5 74.5q0 33 -22.5 64t-63.5 31h-2q-47 0 -73 -30t-26 -71zM428 520 q33 76 60.5 143.5t54 129t52.5 121t52 120.5q20 -49 69.5 -174t131.5 -340h-420zM735 1464q0 -49 29 -71.5t61 -22.5q43 0 70 25.5t27 74.5q0 33 -22.5 64t-63.5 31h-2q-47 0 -73 -30t-26 -71z" />
<glyph unicode="&#xc5;" horiz-adv-x="1277" d="M33 12q25 -10 66.5 -17t64.5 -7q33 0 45 24q27 55 70 153.5t100 227.5h512q27 -61 45 -108t34.5 -86t31 -75t30.5 -77q16 -35 28.5 -47t31.5 -12q12 0 30.5 1t40 4t42 7t36.5 10l2 13q-29 55 -67.5 149t-100.5 238q-31 70 -76 180t-94 230t-96 235.5t-82 197.5 q-6 14 -16.5 23.5t-30.5 9.5q-18 0 -60 -6t-75 -14l26 -62q-16 -39 -54 -123t-88 -193.5t-106.5 -234.5t-110.5 -242.5t-100 -218t-77 -163.5zM428 520q33 76 60.5 143.5t54 129t52.5 121t52 120.5q20 -49 69.5 -174t131.5 -340h-420zM463 1532q0 -82 53 -127t121 -45 q84 0 135 50t51 130q0 31 -11 61.5t-32.5 55t-53.5 41t-75 16.5h-2q-88 0 -137 -54t-49 -128zM563 1536q0 33 19.5 63.5t56.5 30.5h2q47 0 65.5 -31.5t18.5 -64.5q0 -35 -19.5 -63.5t-60.5 -28.5q-35 0 -58.5 26.5t-23.5 67.5z" />
<glyph unicode="&#xc6;" horiz-adv-x="1609" d="M25 29l4 -19q20 -12 53 -23.5t70 -11.5q12 0 21 10.5t15 22.5q12 20 30 56t48.5 100.5t78.5 166t122 255.5h360l43 -537l33 -41q37 -8 130 -14t243 -6q96 0 147.5 2t71.5 6q39 14 62.5 47t33.5 78l-4 4q-23 -2 -55.5 -4t-71.5 -3t-80 -1h-75q-80 -2 -152 2t-113 12 l-45 451h355q47 0 70.5 26.5t37.5 96.5h-473l-39 446h369q43 2 71.5 6t38.5 17q14 16 26.5 44.5t14.5 61.5h-671q-45 -4 -91.5 -10t-74.5 -10q-4 -16 -9.5 -28.5t-15.5 -33.5q-31 -57 -78 -152.5t-103 -208t-114.5 -233.5t-113 -231.5t-99.5 -201.5t-71 -142zM518 705 q20 43 41 87t43.5 92t51 104t63.5 124q14 29 29.5 38t31.5 9l35 -454h-295z" />
<glyph unicode="&#xc7;" horiz-adv-x="1200" d="M78 631q0 -135 40 -250t117.5 -202t192.5 -140t266 -66l-104 -147v-23q59 2 109.5 -17t50.5 -60q0 -23 -31 -51.5t-117 -53.5q-14 -4 -17 -9t-3 -11q0 -14 13 -37t36 -27q43 6 88 21.5t82 42t60.5 61.5t23.5 78q0 53 -34 94t-97 60l53 77q98 2 167.5 19.5t100.5 40.5 q53 43 62 119l-17 10q-18 -10 -52 -20.5t-75 -19.5t-87 -14.5t-89 -5.5q-135 0 -237.5 41t-171 114t-104.5 172t-36 216q0 131 41 232.5t112 170t163 103.5t194 35q82 0 152.5 -16.5t116.5 -43.5q59 -29 79 -4q12 12 19.5 34t11.5 44q-14 16 -46 35.5t-78 37t-107.5 29 t-134.5 11.5q-141 0 -265.5 -39t-228.5 -133q-123 -109 -171 -243t-48 -265z" />
<glyph unicode="&#xc8;" horiz-adv-x="897" d="M150 1251q4 -59 4 -123v-135v-944l30 -41q37 -10 130.5 -15t222.5 -5q109 0 162 2t73 6q35 12 59.5 46t36.5 79l-4 4q-59 -6 -142 -8t-153 -2q-74 0 -140.5 3t-98.5 13v463h332q25 0 44 3t34.5 16.5t26.5 39t21 70.5h-458v430h268q68 0 100.5 1t53.5 11q18 18 32.5 46 t20.5 69h-502q-41 -4 -83 -11t-70 -18zM209 1542q-8 -23 12 -29q43 -14 90 -33.5t92.5 -40t86 -41t71.5 -34.5q6 6 14.5 14t18.5 25q12 16 10 27.5t-18 23.5q-27 25 -69 55.5t-85 57t-79 45t-50 18.5h-2q-25 0 -52.5 -29.5t-39.5 -58.5z" />
<glyph unicode="&#xc9;" horiz-adv-x="897" d="M150 1251q4 -59 4 -123v-135v-944l30 -41q37 -10 130.5 -15t222.5 -5q109 0 162 2t73 6q35 12 59.5 46t36.5 79l-4 4q-59 -6 -142 -8t-153 -2q-74 0 -140.5 3t-98.5 13v463h332q25 0 44 3t34.5 16.5t26.5 39t21 70.5h-458v430h268q68 0 100.5 1t53.5 11q18 18 32.5 46 t20.5 69h-502q-41 -4 -83 -11t-70 -18zM355.5 1432.5q-3.5 -11.5 4.5 -27.5q6 -12 13.5 -23.5t17.5 -17.5q31 10 72 25.5t87 32t96 34t99 31.5q37 6 29 37q-6 23 -29.5 56.5t-50.5 41.5q-18 0 -59 -18.5t-89 -44t-94 -54t-75 -49.5q-18 -12 -21.5 -23.5z" />
<glyph unicode="&#xca;" horiz-adv-x="897" d="M150 1251q4 -59 4 -123v-135v-944l30 -41q37 -10 130.5 -15t222.5 -5q109 0 162 2t73 6q35 12 59.5 46t36.5 79l-4 4q-59 -6 -142 -8t-153 -2q-74 0 -140.5 3t-98.5 13v463h332q25 0 44 3t34.5 16.5t26.5 39t21 70.5h-458v430h268q68 0 100.5 1t53.5 11q18 18 32.5 46 t20.5 69h-502q-41 -4 -83 -11t-70 -18zM225 1405q12 -16 37 -30.5t47 -14.5h2q10 0 19.5 5t19.5 9q31 23 67 53.5t70 67.5q47 -45 84 -77t58 -46q20 -12 47 -12q18 0 43.5 17.5t34.5 33.5q-131 104 -234 223q-12 0 -25.5 -1t-29.5 -5q-10 -4 -17.5 -10t-13.5 -12 q-49 -59 -99 -108.5t-110 -92.5z" />
<glyph unicode="&#xcb;" horiz-adv-x="897" d="M150 1251q4 -59 4 -123v-135v-944l30 -41q37 -10 130.5 -15t222.5 -5q109 0 162 2t73 6q35 12 59.5 46t36.5 79l-4 4q-59 -6 -142 -8t-153 -2q-74 0 -140.5 3t-98.5 13v463h332q25 0 44 3t34.5 16.5t26.5 39t21 70.5h-458v430h268q68 0 100.5 1t53.5 11q18 18 32.5 46 t20.5 69h-502q-41 -4 -83 -11t-70 -18zM190 1477q0 -49 29 -72t64 -23q43 0 68.5 27t25.5 74q0 35 -22.5 64.5t-63.5 29.5h-2q-47 0 -73 -28.5t-26 -71.5zM565 1477q0 -49 29 -72t61 -23q43 0 70 27t27 74q0 35 -22.5 64.5t-63.5 29.5h-2q-47 0 -73 -28.5t-26 -71.5z" />
<glyph unicode="&#xcc;" horiz-adv-x="481" d="M-1 1524q1 -6 13 -11q45 -14 92.5 -33.5t92.5 -40t85 -41t70 -34.5q6 6 15.5 14t19.5 25q10 16 8 27.5t-16 23.5q-29 25 -71 55.5t-85 57t-77.5 45t-49.5 18.5h-2q-27 0 -54.5 -29.5t-37.5 -58.5q-4 -12 -3 -18zM147 1270q6 -55 7 -258v-985q0 -25 8 -32t24 -7q12 0 33 1 t43.5 3t42 5t31.5 7q-2 31 -4 87t-2 163v926q0 70 -5.5 88t-27.5 18q-12 0 -33.5 -2t-44 -4t-42 -5t-30.5 -5z" />
<glyph unicode="&#xcd;" horiz-adv-x="481" d="M93.5 1432.5q-3.5 -11.5 4.5 -27.5q6 -12 13.5 -23.5t17.5 -17.5q31 10 72 25.5t87 32t96 34t99 31.5q37 6 29 37q-6 23 -29.5 56.5t-50.5 41.5q-18 0 -59 -18.5t-89 -44t-94.5 -54t-74.5 -49.5q-18 -12 -21.5 -23.5zM147 1270q6 -55 7 -258v-985q0 -25 8 -32t24 -7 q12 0 33 1t43.5 3t42 5t31.5 7q-2 31 -4 87t-2 163v926q0 70 -5.5 88t-27.5 18q-12 0 -33.5 -2t-44 -4t-42 -5t-30.5 -5z" />
<glyph unicode="&#xce;" horiz-adv-x="481" d="M-20 1405q10 -16 34.5 -30.5t46.5 -14.5h2q12 0 21.5 5t17.5 9q31 23 67 53.5t71 67.5q47 -45 84.5 -77t58.5 -46q18 -12 45 -12q20 0 45 17.5t35 33.5q-131 100 -236 223q-10 0 -23 -1t-30 -5q-10 -4 -18 -10t-15 -12q-94 -115 -206 -201zM147 1270q6 -55 7 -258v-985 q0 -25 8 -32t24 -7q12 0 33 1t43.5 3t42 5t31.5 7q-2 31 -4 87t-2 163v926q0 70 -5.5 88t-27.5 18q-12 0 -33.5 -2t-44 -4t-42 -5t-30.5 -5z" />
<glyph unicode="&#xcf;" horiz-adv-x="481" d="M-39 1464q0 -49 28.5 -71.5t63.5 -22.5q43 0 70 25.5t27 74.5q0 33 -23 64t-64 31h-2q-47 0 -73.5 -30t-26.5 -71zM147 1270q6 -55 7 -258v-985q0 -25 8 -32t24 -7q12 0 33 1t43.5 3t42 5t31.5 7q-2 31 -4 87t-2 163v926q0 70 -5.5 88t-27.5 18q-12 0 -33.5 -2t-44 -4 t-42 -5t-30.5 -5zM336 1464q0 -49 28.5 -71.5t61.5 -22.5q45 0 70.5 25.5t25.5 74.5q0 33 -21.5 64t-64.5 31h-2q-47 0 -72.5 -30t-25.5 -71z" />
<glyph unicode="&#xd0;" horiz-adv-x="1355" d="M-2 598h180v-571q53 -12 97 -21.5t87.5 -14.5t89.5 -8t107 -3q41 0 101.5 5t128 22.5t139 50t135.5 85.5q131 113 178 241t47 271q0 61 -11 133t-41 142.5t-82 136.5t-135 116t-201 79.5t-275 29.5q-63 0 -117.5 -4t-99.5 -10l-152 -18q2 -25 3 -46.5t1 -50.5v-63v-86 v-293h-82q-35 0 -61.5 -22.5t-36.5 -100.5zM354 129v469h234q27 0 47 4t37.5 16.5t30 37t22.5 65.5h-371v436q47 8 92.5 11t83.5 3q141 0 248 -37.5t177.5 -107.5t106.5 -165t36 -212q0 -156 -47 -261t-124 -168.5t-172.5 -91.5t-189.5 -28q-115 0 -211 29z" />
<glyph unicode="&#xd1;" horiz-adv-x="1359" d="M117 1253l51 -63v-830q0 -129 -1 -220t-5 -152q27 0 58.5 2t53.5 6q23 4 33 14t10 47v527v80q0 43 -2 96t-4 121.5t-6 160.5q59 -98 114.5 -181t108.5 -165q68 -92 137.5 -188t137 -188.5t130 -177.5t114.5 -154q2 -2 12 -8.5t20 -6.5q29 0 69 12.5t50 18.5v905 q0 129 1 220.5t5 156.5q-29 0 -50 -1t-67 -7q-20 -4 -28 -14.5t-8 -44.5v-568v-82t1 -94t4 -114.5t7 -141.5q-41 78 -104.5 167t-143.5 200q-80 106 -155.5 211.5t-141 195.5t-116 158t-76.5 100q-29 35 -54 35q-10 0 -32.5 -2t-46 -4t-45 -5t-31.5 -5v-17zM436 1382 q10 -4 36 -10t42 -6q14 0 18 20q10 45 24.5 72t33.5 29q16 0 29.5 -12.5t31.5 -34.5q31 -35 57.5 -58.5t63.5 -23.5q66 0 101.5 55t46.5 160q-16 12 -39 21.5t-35 9.5q-14 0 -21 -23q-10 -57 -23.5 -79.5t-27.5 -22.5q-12 0 -26.5 15t-30.5 38q-27 33 -55.5 52.5t-63.5 19.5 h-2q-41 0 -69.5 -20.5t-47 -52.5t-29 -72t-14.5 -77z" />
<glyph unicode="&#xd2;" horiz-adv-x="1468" d="M78 625q0 -104 36 -220t114.5 -212.5t203.5 -160t303 -63.5q162 0 286 57.5t206 151.5t124 217t42 256q0 121 -41 239t-122 212t-204 151.5t-287 57.5h-2q-154 0 -275.5 -52.5t-207.5 -143.5t-131 -217t-45 -273zM268 641q0 133 36 235.5t98.5 171t145.5 105.5t179 37h2 q84 0 169 -33t152.5 -100.5t110.5 -171t43 -244.5q0 -137 -35.5 -240.5t-97 -172t-145.5 -103.5t-181 -35q-90 0 -176 36t-152.5 105.5t-107.5 172t-41 237.5zM500 1556q-8 -20 12 -26q43 -14 90 -33.5t92 -40t86 -41t72 -35.5q6 6 14 14.5t19 24.5q10 16 9 27.5t-17 23.5 q-27 25 -69 55.5t-85 57.5t-79 45.5t-50 18.5h-2q-25 0 -52.5 -30t-39.5 -61z" />
<glyph unicode="&#xd3;" horiz-adv-x="1468" d="M78 625q0 -104 36 -220t114.5 -212.5t203.5 -160t303 -63.5q162 0 286 57.5t206 151.5t124 217t42 256q0 121 -41 239t-122 212t-204 151.5t-287 57.5h-2q-154 0 -275.5 -52.5t-207.5 -143.5t-131 -217t-45 -273zM268 641q0 133 36 235.5t98.5 171t145.5 105.5t179 37h2 q84 0 169 -33t152.5 -100.5t110.5 -171t43 -244.5q0 -137 -35.5 -240.5t-97 -172t-145.5 -103.5t-181 -35q-90 0 -176 36t-152.5 105.5t-107.5 172t-41 237.5zM593 1449q-3 -11 5 -28q10 -29 29 -41q31 10 71.5 25.5t88 32t97.5 34t99 31.5q16 4 24.5 12.5t2.5 24.5 q-6 23 -29.5 56.5t-50.5 41.5q-18 0 -59.5 -18t-89.5 -45t-94 -55.5t-75 -49.5q-16 -10 -19 -21z" />
<glyph unicode="&#xd4;" horiz-adv-x="1468" d="M78 625q0 -104 36 -220t114.5 -212.5t203.5 -160t303 -63.5q162 0 286 57.5t206 151.5t124 217t42 256q0 121 -41 239t-122 212t-204 151.5t-287 57.5h-2q-154 0 -275.5 -52.5t-207.5 -143.5t-131 -217t-45 -273zM268 641q0 133 36 235.5t98.5 171t145.5 105.5t179 37h2 q84 0 169 -33t152.5 -100.5t110.5 -171t43 -244.5q0 -137 -35.5 -240.5t-97 -172t-145.5 -103.5t-181 -35q-90 0 -176 36t-152.5 105.5t-107.5 172t-41 237.5zM473 1421q10 -16 36 -30.5t46 -14.5h2q12 0 21.5 5t19.5 10q29 23 65.5 53.5t71.5 66.5q47 -45 84 -76.5 t58 -45.5q18 -12 47 -13q18 0 43.5 17.5t33.5 33.5q-66 51 -124 106.5t-111 117.5q-10 0 -23.5 -1t-29.5 -5q-16 -6 -33 -23q-47 -59 -97.5 -108.5t-109.5 -92.5z" />
<glyph unicode="&#xd5;" horiz-adv-x="1468" d="M78 625q0 -104 36 -220t114.5 -212.5t203.5 -160t303 -63.5q162 0 286 57.5t206 151.5t124 217t42 256q0 121 -41 239t-122 212t-204 151.5t-287 57.5h-2q-154 0 -275.5 -52.5t-207.5 -143.5t-131 -217t-45 -273zM268 641q0 133 36 235.5t98.5 171t145.5 105.5t179 37h2 q84 0 169 -33t152.5 -100.5t110.5 -171t43 -244.5q0 -137 -35.5 -240.5t-97 -172t-145.5 -103.5t-181 -35q-90 0 -176 36t-152.5 105.5t-107.5 172t-41 237.5zM483 1403q10 -4 36 -10.5t44 -6.5q12 0 17 23q10 43 24 70.5t35 27.5q16 0 28.5 -12t32.5 -35q29 -35 55.5 -58.5 t63.5 -23.5q66 0 101.5 56.5t46.5 160.5q-16 12 -38 20.5t-34 8.5q-16 0 -23 -20q-10 -59 -22 -81t-29 -22q-10 0 -25.5 15.5t-31.5 37.5q-27 33 -55.5 51.5t-63.5 18.5h-2q-41 0 -69.5 -20.5t-47 -52t-29 -71.5t-14.5 -77z" />
<glyph unicode="&#xd6;" horiz-adv-x="1468" d="M78 625q0 -104 36 -220t114.5 -212.5t203.5 -160t303 -63.5q162 0 286 57.5t206 151.5t124 217t42 256q0 121 -41 239t-122 212t-204 151.5t-287 57.5h-2q-154 0 -275.5 -52.5t-207.5 -143.5t-131 -217t-45 -273zM268 641q0 133 36 235.5t98.5 171t145.5 105.5t179 37h2 q84 0 169 -33t152.5 -100.5t110.5 -171t43 -244.5q0 -137 -35.5 -240.5t-97 -172t-145.5 -103.5t-181 -35q-90 0 -176 36t-152.5 105.5t-107.5 172t-41 237.5zM457 1468q0 -49 28.5 -72.5t63.5 -23.5q41 0 67.5 26.5t26.5 76.5q0 33 -22.5 63.5t-63.5 30.5h-2 q-47 0 -72.5 -30t-25.5 -71zM829 1468q0 -49 30 -72.5t61 -23.5q45 0 71.5 26.5t26.5 76.5q0 33 -22.5 63.5t-65.5 30.5h-2q-47 0 -73 -30t-26 -71z" />
<glyph unicode="&#xd7;" horiz-adv-x="1169" d="M162 145.5q-4 -14.5 6 -34.5q27 -49 65 -62l340 363l347 -363q20 8 38.5 21.5t32.5 33.5q12 16 9 35t-17 33l-317 328l348 360q-4 8 -17.5 29.5t-38.5 38.5q-16 10 -32.5 7t-34.5 -22l-313 -325l-345 354q-23 -8 -39 -24.5t-26 -32.5q-20 -37 2 -60l319 -325l-311 -324 q-12 -16 -16 -30.5z" />
<glyph unicode="&#xd8;" horiz-adv-x="1468" d="M78 621q0 -55 10 -116t33.5 -123.5t61.5 -121.5t93 -110l-135 -173q4 -16 17.5 -31.5t25.5 -31.5q23 -31 52 4l124 162q72 -51 167.5 -81t207.5 -30q170 0 294 57.5t205 152.5t120 218t39 254q0 133 -49.5 264.5t-159.5 229.5l112 145q-2 14 -11 32.5t-30 37.5 q-14 10 -26 6t-35 -31l-96 -127q-78 53 -168 78t-193 25q-123 0 -223 -35t-180 -96q-123 -90 -189.5 -228.5t-66.5 -330.5zM260 633q0 135 38 238.5t101.5 174t147.5 107.5t176 37q172 0 287 -94l-633 -817q-53 66 -85 155.5t-32 198.5zM453 199l632 817q57 -63 91 -156.5 t34 -210.5q0 -145 -35.5 -249.5t-99 -174t-148.5 -102.5t-186 -33q-80 0 -154.5 27.5t-133.5 81.5z" />
<glyph unicode="&#xd9;" horiz-adv-x="1353" d="M139 1270q6 -61 6 -262v-392q0 -178 36 -302t102.5 -200.5t163 -110.5t217.5 -34q94 0 191 24.5t174 98.5t126 211t49 363v249q0 250 6 371q-31 0 -55.5 -2t-69.5 -6q-16 -4 -27 -12.5t-11 -36.5v-565q0 -170 -29 -279t-79 -173.5t-116.5 -89t-140.5 -24.5 q-61 0 -125.5 19.5t-117 76t-85 159t-32.5 265.5v558q0 74 -5.5 92t-29.5 18q-12 0 -33 -2t-42.5 -4t-41.5 -5t-31 -5zM428 1526q-12 -23 10 -29q45 -14 92.5 -33.5t92.5 -40t85 -41t70 -34.5q6 6 14.5 14t20.5 24q10 16 8 27.5t-16 24.5q-29 25 -71 55.5t-85 57t-77.5 45 t-49.5 18.5h-2q-27 0 -54.5 -30t-37.5 -58z" />
<glyph unicode="&#xda;" horiz-adv-x="1353" d="M139 1270q6 -61 6 -262v-392q0 -178 36 -302t102.5 -200.5t163 -110.5t217.5 -34q94 0 191 24.5t174 98.5t126 211t49 363v249q0 250 6 371q-31 0 -55.5 -2t-69.5 -6q-16 -4 -27 -12.5t-11 -36.5v-565q0 -170 -29 -279t-79 -173.5t-116.5 -89t-140.5 -24.5 q-61 0 -125.5 19.5t-117 76t-85 159t-32.5 265.5v558q0 74 -5.5 92t-29.5 18q-12 0 -33 -2t-42.5 -4t-41.5 -5t-31 -5zM513 1432.5q-3 -11.5 5 -27.5q10 -29 29 -41q31 10 71.5 25.5t88 32t97.5 34t99 31.5q16 4 24.5 12t2.5 25q-6 23 -29.5 56.5t-50.5 41.5 q-18 0 -59 -18.5t-88.5 -44t-93.5 -54t-77 -49.5q-16 -12 -19 -23.5z" />
<glyph unicode="&#xdb;" horiz-adv-x="1353" d="M139 1270q6 -61 6 -262v-392q0 -178 36 -302t102.5 -200.5t163 -110.5t217.5 -34q94 0 191 24.5t174 98.5t126 211t49 363v249q0 250 6 371q-31 0 -55.5 -2t-69.5 -6q-16 -4 -27 -12.5t-11 -36.5v-565q0 -170 -29 -279t-79 -173.5t-116.5 -89t-140.5 -24.5 q-61 0 -125.5 19.5t-117 76t-85 159t-32.5 265.5v558q0 74 -5.5 92t-29.5 18q-12 0 -33 -2t-42.5 -4t-41.5 -5t-31 -5zM416 1405q10 -16 35.5 -30.5t46.5 -14.5h2q12 0 21 5t20 9q29 23 65.5 53.5t71.5 67.5q47 -45 84 -77t57 -46q18 -12 45 -12q20 0 45 17.5t35 33.5 q-66 51 -124 106.5t-111 116.5q-10 0 -23.5 -1t-30.5 -5q-16 -6 -32 -22q-94 -115 -207 -201z" />
<glyph unicode="&#xdc;" horiz-adv-x="1353" d="M139 1270q6 -61 6 -262v-392q0 -178 36 -302t102.5 -200.5t163 -110.5t217.5 -34q94 0 191 24.5t174 98.5t126 211t49 363v249q0 250 6 371q-31 0 -55.5 -2t-69.5 -6q-16 -4 -27 -12.5t-11 -36.5v-565q0 -170 -29 -279t-79 -173.5t-116.5 -89t-140.5 -24.5 q-61 0 -125.5 19.5t-117 76t-85 159t-32.5 265.5v558q0 74 -5.5 92t-29.5 18q-12 0 -33 -2t-42.5 -4t-41.5 -5t-31 -5zM403 1464q0 -49 29 -71.5t64 -22.5q43 0 69.5 25.5t26.5 74.5q0 33 -22.5 64t-63.5 31h-2q-47 0 -74 -30t-27 -71zM778 1464q0 -49 30 -71.5t60 -22.5 q45 0 71 25.5t26 74.5q0 33 -21.5 64t-64.5 31h-2q-47 0 -73 -30t-26 -71z" />
<glyph unicode="&#xdd;" horiz-adv-x="1134" d="M37 1245q31 -41 67.5 -91t76.5 -104.5t78 -107.5t69 -98q53 -72 89 -126t46 -73q14 -31 14 -88v-532q0 -23 6 -30t25 -7q47 0 88 4t63 12q0 31 -3 86t-3 160v323q0 20 5.5 42t17.5 40q6 10 35.5 48t69.5 91.5t87 116t89 118.5t75 101.5t47 63.5q41 59 -6 76q-18 6 -46 11 t-75 5q-10 -18 -36.5 -56t-61.5 -88t-75 -106.5t-77.5 -109t-69.5 -96.5t-50 -70q-80 115 -158 228.5t-133 193.5q-37 53 -59.5 78.5t-45.5 25.5q-31 0 -72.5 -8t-76.5 -21v-12zM466 1416.5q-3 -11.5 5 -27.5q6 -12 13.5 -23.5t15.5 -17.5q31 10 71.5 25.5t88 31.5 t97.5 33.5t99 31.5q16 4 24.5 12.5t2.5 24.5q-2 12 -9.5 27.5t-18.5 30t-23.5 26t-26.5 15.5q-18 0 -60.5 -18.5t-89.5 -44t-93 -54.5t-77 -49q-16 -12 -19 -23.5z" />
<glyph unicode="&#xde;" horiz-adv-x="964" d="M147 1270q6 -59 7 -260v-985q0 -23 9 -30t30 -7q14 0 34.5 1t41 3t39 5t28.5 7q-2 31 -4 87t-2 165v645q23 6 49.5 8t54.5 2q125 2 201 -66.5t76 -209.5q0 -92 -30 -146.5t-70 -84t-83 -39t-69 -9.5h-17h-10q-4 0 -11 1t-22 3q4 -35 19.5 -60.5t38.5 -37.5q27 -14 73 -14 q49 0 113 18.5t120 64.5t96 122.5t40 191.5q0 66 -20.5 138.5t-83.5 136.5q-59 61 -147.5 86.5t-190.5 25.5q-45 0 -75 -3t-52 -7v152q0 72 -6.5 92t-26.5 20q-12 0 -32.5 -2t-42 -4t-42 -5t-33.5 -5z" />
<glyph unicode="&#xdf;" horiz-adv-x="1056" d="M43 817q0 -23 24.5 -41t86.5 -20q0 -211 1 -394.5t-3 -347.5q0 -27 26 -26q10 0 29.5 1t42 3t44 5t36.5 7q-6 186 -7 383t-1 436q2 240 74.5 351.5t185.5 111.5q84 0 134 -55t50 -160q0 -35 -12.5 -68.5t-24.5 -50.5q-117 -66 -168 -137.5t-51 -136.5q0 -63 29.5 -110.5 t68.5 -82.5q25 -23 57.5 -48t73.5 -52q47 -35 64.5 -65.5t17.5 -75.5q0 -61 -51 -103.5t-129 -42.5q-35 0 -68.5 8.5t-64.5 20.5q-16 6 -33 6q-14 0 -26 -14q-25 -31 -29 -86q35 -25 92 -40.5t119 -15.5q74 0 140.5 19.5t116.5 57.5t78.5 93.5t28.5 128.5q0 68 -27.5 119 t-84.5 92q-41 31 -82 64t-72 55q-53 43 -53 103q0 59 54 110t126 88q23 16 50.5 59.5t27.5 123.5q-2 66 -23.5 123t-62.5 99t-102.5 66.5t-141.5 24.5h-2q-82 0 -156.5 -30t-136.5 -91q-37 -37 -65.5 -84t-48 -99t-29.5 -107.5t-12 -106.5q-41 -18 -64.5 -32.5t-46.5 -35.5z " />
<glyph unicode="&#xe0;" horiz-adv-x="874" d="M59 201q0 -96 63.5 -161t170.5 -65q43 0 83 12.5t74.5 32t62.5 42t46 42.5q10 -51 45 -90t98 -39q53 0 88 20.5t46 43.5v72q-10 -4 -24.5 -6.5t-27.5 -2.5q-66 0 -65 64q-2 45 -1 105.5l2 121t2 113.5t1 86q0 72 -16.5 132t-51 103t-90 68t-133.5 25q-53 0 -105.5 -14.5 t-99.5 -36t-84 -48t-57 -49.5l10 -35q27 -84 94 -41q39 29 95.5 57.5t109.5 28.5q88 0 127 -54t37 -124v-65q-16 -4 -39.5 -8.5t-56.5 -10.5q-39 -10 -106.5 -29.5t-134 -56.5t-115 -94t-48.5 -139zM199 1313q59 -66 118.5 -143.5t98.5 -137.5q18 6 51 31q20 14 8 47 q-12 35 -35.5 85t-48 96t-47 79t-35.5 33h-2q-49 0 -102 -47q-29 -25 -6 -43zM227 225v2q0 43 29 77t75 59.5t105.5 42t120.5 26.5v-143q0 -49 -14 -66q-12 -18 -33 -37.5t-46.5 -35t-56 -25.5t-63.5 -10q-55 0 -86 29.5t-31 80.5z" />
<glyph unicode="&#xe1;" horiz-adv-x="874" d="M59 201q0 -96 63.5 -161t170.5 -65q43 0 83 12.5t74.5 32t62.5 42t46 42.5q10 -51 45 -90t98 -39q53 0 88 20.5t46 43.5v72q-10 -4 -24.5 -6.5t-27.5 -2.5q-66 0 -65 64q-2 45 -1 105.5l2 121t2 113.5t1 86q0 72 -16.5 132t-51 103t-90 68t-133.5 25q-53 0 -105.5 -14.5 t-99.5 -36t-84 -48t-57 -49.5l10 -35q27 -84 94 -41q39 29 95.5 57.5t109.5 28.5q88 0 127 -54t37 -124v-65q-16 -4 -39.5 -8.5t-56.5 -10.5q-39 -10 -106.5 -29.5t-134 -56.5t-115 -94t-48.5 -139zM227 225v2q0 43 29 77t75 59.5t105.5 42t120.5 26.5v-143q0 -49 -14 -66 q-12 -18 -33 -37.5t-46.5 -35t-56 -25.5t-63.5 -10q-55 0 -86 29.5t-31 80.5zM325 1079q-1 -12 7 -18q12 -10 24.5 -19.5t28.5 -13.5q43 59 100.5 136t118.5 147q14 16 15.5 23t-9.5 18q-18 16 -48.5 31.5t-59.5 15.5q-14 0 -37 -33t-47.5 -78t-47 -93t-34.5 -79 q-10 -25 -11 -37z" />
<glyph unicode="&#xe2;" horiz-adv-x="874" d="M59 201q0 -96 63.5 -161t170.5 -65q43 0 83 12.5t74.5 32t62.5 42t46 42.5q10 -51 45 -90t98 -39q53 0 88 20.5t46 43.5v72q-10 -4 -24.5 -6.5t-27.5 -2.5q-66 0 -65 64q-2 45 -1 105.5l2 121t2 113.5t1 86q0 72 -16.5 132t-51 103t-90 68t-133.5 25q-53 0 -105.5 -14.5 t-99.5 -36t-84 -48t-57 -49.5l10 -35q27 -84 94 -41q39 29 95.5 57.5t109.5 28.5q88 0 127 -54t37 -124v-65q-16 -4 -39.5 -8.5t-56.5 -10.5q-39 -10 -106.5 -29.5t-134 -56.5t-115 -94t-48.5 -139zM186 1063q16 -12 42 -20.5t44 -8.5q10 0 17.5 6.5t11.5 8.5 q33 55 59.5 100t53.5 94q33 -61 59.5 -104t48.5 -84q10 -20 33 -21q25 0 49.5 12.5t38.5 22.5l-94 160t-92 162q-14 0 -30.5 -2.5t-33.5 -6.5q-16 -4 -22 -10t-17 -22q-39 -76 -81 -142.5t-87 -144.5zM227 225v2q0 43 29 77t75 59.5t105.5 42t120.5 26.5v-143q0 -49 -14 -66 q-12 -18 -33 -37.5t-46.5 -35t-56 -25.5t-63.5 -10q-55 0 -86 29.5t-31 80.5z" />
<glyph unicode="&#xe3;" horiz-adv-x="874" d="M59 201q0 -96 63.5 -161t170.5 -65q43 0 83 12.5t74.5 32t62.5 42t46 42.5q10 -51 45 -90t98 -39q53 0 88 20.5t46 43.5v72q-10 -4 -24.5 -6.5t-27.5 -2.5q-66 0 -65 64q-2 45 -1 105.5l2 121t2 113.5t1 86q0 72 -16.5 132t-51 103t-90 68t-133.5 25q-53 0 -105.5 -14.5 t-99.5 -36t-84 -48t-57 -49.5l10 -35q27 -84 94 -41q39 29 95.5 57.5t109.5 28.5q88 0 127 -54t37 -124v-65q-16 -4 -39.5 -8.5t-56.5 -10.5q-39 -10 -106.5 -29.5t-134 -56.5t-115 -94t-48.5 -139zM172 1104q10 -4 37 -11.5t47 -7.5q12 0 16 23q10 45 24.5 71.5t33.5 26.5 q16 0 28.5 -12t32.5 -35q31 -33 57.5 -57.5t63.5 -24.5q66 0 102.5 56.5t47.5 164.5q-16 14 -40 22.5t-36 8.5q-14 0 -23 -22q-10 -57 -22.5 -80t-28.5 -23q-10 0 -24.5 15.5t-30.5 37.5q-27 33 -55.5 51.5t-63.5 18.5h-2q-43 0 -71.5 -20.5t-48 -52t-30 -71.5t-14.5 -79z M227 225v2q0 43 29 77t75 59.5t105.5 42t120.5 26.5v-143q0 -49 -14 -66q-12 -18 -33 -37.5t-46.5 -35t-56 -25.5t-63.5 -10q-55 0 -86 29.5t-31 80.5z" />
<glyph unicode="&#xe4;" horiz-adv-x="874" d="M59 201q0 -96 63.5 -161t170.5 -65q43 0 83 12.5t74.5 32t62.5 42t46 42.5q10 -51 45 -90t98 -39q53 0 88 20.5t46 43.5v72q-10 -4 -24.5 -6.5t-27.5 -2.5q-66 0 -65 64q-2 45 -1 105.5l2 121t2 113.5t1 86q0 72 -16.5 132t-51 103t-90 68t-133.5 25q-53 0 -105.5 -14.5 t-99.5 -36t-84 -48t-57 -49.5l10 -35q27 -84 94 -41q39 29 95.5 57.5t109.5 28.5q88 0 127 -54t37 -124v-65q-16 -4 -39.5 -8.5t-56.5 -10.5q-39 -10 -106.5 -29.5t-134 -56.5t-115 -94t-48.5 -139zM154 1192q0 -47 27.5 -69.5t60.5 -22.5q43 0 68.5 25.5t25.5 72.5 q0 33 -21.5 62.5t-62.5 29.5h-2q-47 0 -71.5 -28.5t-24.5 -69.5zM227 225v2q0 43 29 77t75 59.5t105.5 42t120.5 26.5v-143q0 -49 -14 -66q-12 -18 -33 -37.5t-46.5 -35t-56 -25.5t-63.5 -10q-55 0 -86 29.5t-31 80.5zM494 1192q0 -47 28.5 -69.5t59.5 -22.5q41 0 67.5 25.5 t26.5 72.5q0 33 -21.5 62.5t-62.5 29.5h-4q-47 0 -70.5 -28.5t-23.5 -69.5z" />
<glyph unicode="&#xe5;" horiz-adv-x="874" d="M59 201q0 -96 63.5 -161t170.5 -65q43 0 83 12.5t74.5 32t62.5 42t46 42.5q10 -51 45 -90t98 -39q53 0 88 20.5t46 43.5v72q-10 -4 -24.5 -6.5t-27.5 -2.5q-66 0 -65 64q-2 45 -1 105.5l2 121t2 113.5t1 86q0 72 -16.5 132t-51 103t-90 68t-133.5 25q-53 0 -105.5 -14.5 t-99.5 -36t-84 -48t-57 -49.5l10 -35q27 -84 94 -41q39 29 95.5 57.5t109.5 28.5q88 0 127 -54t37 -124v-65q-16 -4 -39.5 -8.5t-56.5 -10.5q-39 -10 -106.5 -29.5t-134 -56.5t-115 -94t-48.5 -139zM227 225v2q0 43 29 77t75 59.5t105.5 42t120.5 26.5v-143q0 -49 -14 -66 q-12 -18 -33 -37.5t-46.5 -35t-56 -25.5t-63.5 -10q-55 0 -86 29.5t-31 80.5zM236 1194q0 -86 55 -132t127 -46q84 0 135 50t51 132q0 31 -11 63.5t-33.5 59.5t-56.5 43t-79 16h-2q-86 0 -136 -55t-50 -131zM340 1200q0 31 19.5 61.5t58.5 30.5h2q45 0 63.5 -31.5 t18.5 -66.5t-18.5 -63.5t-59.5 -28.5q-35 -2 -59.5 25.5t-24.5 72.5z" />
<glyph unicode="&#xe6;" horiz-adv-x="1351" d="M59 203q0 -96 63.5 -162t170.5 -66q53 0 102 15.5t92 41t79 57.5t65 63q25 -43 63.5 -76t84.5 -55.5t98.5 -34t103.5 -11.5q57 0 108.5 10.5t69.5 18.5q23 10 52.5 45t33.5 78l-10 18q-25 -10 -81 -24.5t-122 -14.5q-72 0 -131 23t-102 66t-65.5 103t-22.5 136 q57 -2 120 -2h121q57 0 103.5 2t66.5 4q25 4 54.5 12.5t55 18.5t44 23.5t20.5 25.5q4 12 4 31v35q-2 61 -22.5 121.5t-60 108.5t-102 77t-148.5 29q-98 0 -174 -45.5t-123 -116.5q-25 70 -83.5 116t-156.5 46q-53 0 -105.5 -14.5t-98.5 -36t-83 -48t-57 -49.5l10 -35 q14 -45 37 -53t57 14q39 29 91.5 56.5t105.5 27.5q94 0 132 -55t36 -135v-51q-12 -4 -32.5 -6.5t-33.5 -6.5q-49 -10 -122.5 -31.5t-142 -58.5t-117 -94t-48.5 -141zM229 221q0 47 29 82t75 60.5t103.5 41t116.5 25.5q0 -18 2 -44t6 -52.5t10.5 -50t12.5 -35.5 q-53 -61 -112.5 -98t-125.5 -37q-59 0 -88 33.5t-29 74.5zM715 547q16 129 81.5 193.5t145.5 64.5h2q92 0 140.5 -60.5t45.5 -152.5q0 -43 -40 -43q-14 -2 -52.5 -3t-89.5 -2t-112.5 0t-120.5 3z" />
<glyph unicode="&#xe7;" horiz-adv-x="854" d="M66 440q0 -119 35.5 -201.5t94 -138t132 -83t147.5 -35.5l-108 -156v-23q59 2 108 -17t49 -60q0 -23 -30.5 -51.5t-116.5 -53.5q-12 -4 -15.5 -9t-3.5 -11q0 -14 13.5 -37t34.5 -27q43 6 88 21.5t81.5 42t60 61.5t23.5 78q0 53 -33.5 94t-97.5 60l60 86q51 2 88 11t59 21 q23 16 38 48t20 65l-7 8q-41 -12 -87 -20.5t-99 -8.5q-55 0 -117.5 16.5t-116 56.5t-88 107.5t-34.5 170.5q0 72 21.5 134t59 108t92 72t122.5 26q88 0 182 -45q18 -10 36.5 -12.5t30.5 14.5q12 14 20.5 36.5t8.5 40.5q-6 8 -25.5 23.5t-53 30t-81 26t-106.5 11.5 q-82 0 -163 -26t-146 -79q-33 -27 -65 -62.5t-56.5 -81.5t-39.5 -103.5t-15 -127.5z" />
<glyph unicode="&#xe8;" horiz-adv-x="878" d="M66 430q0 -102 31.5 -193.5t92.5 -150.5q72 -68 157 -89.5t161 -21.5q59 0 107.5 10.5t66.5 18.5q23 10 51.5 45t32.5 78l-8 16q-23 -10 -78 -23.5t-127 -13.5q-139 0 -227 86.5t-88 241.5q57 -2 118 -2q63 0 119.5 1t102 2t67.5 5q25 4 54.5 11.5t55 17.5t44 22.5 t20.5 24.5q4 12 5 30.5t1 35.5q-2 63 -22.5 123.5t-60.5 107.5t-102 77t-151 30q-100 0 -179 -40t-133 -107.5t-82.5 -156t-28.5 -186.5zM242 1313q61 -63 120.5 -142t98.5 -137q16 2 51 29q20 14 8 47q-12 35 -35.5 85t-48 96t-47 79t-35.5 33h-2q-25 0 -52.5 -12.5 t-49.5 -34.5q-27 -25 -8 -43zM246 549q6 59 26.5 107.5t50 82t66.5 51t76 17.5h2q92 0 142 -60.5t46 -154.5q0 -18 -11 -30.5t-32 -12.5q-14 0 -52 -1t-88 -2t-109.5 0t-116.5 3z" />
<glyph unicode="&#xe9;" horiz-adv-x="878" d="M66 430q0 -102 31.5 -193.5t92.5 -150.5q72 -68 157 -89.5t161 -21.5q59 0 107.5 10.5t66.5 18.5q23 10 51.5 45t32.5 78l-8 16q-23 -10 -78 -23.5t-127 -13.5q-139 0 -227 86.5t-88 241.5q57 -2 118 -2q63 0 119.5 1t102 2t67.5 5q25 4 54.5 11.5t55 17.5t44 22.5 t20.5 24.5q4 12 5 30.5t1 35.5q-2 63 -22.5 123.5t-60.5 107.5t-102 77t-151 30q-100 0 -179 -40t-133 -107.5t-82.5 -156t-28.5 -186.5zM246 549q6 59 26.5 107.5t50 82t66.5 51t76 17.5h2q92 0 142 -60.5t46 -154.5q0 -18 -11 -30.5t-32 -12.5q-14 0 -52 -1t-88 -2 t-109.5 0t-116.5 3zM367 1079q0 -12 8 -18q12 -10 24.5 -19.5t28.5 -13.5q43 59 100.5 136t118.5 147q25 27 6 41q-18 18 -48.5 32.5t-59.5 14.5q-14 0 -37 -33t-47.5 -78t-47 -93t-34.5 -79q-12 -25 -12 -37z" />
<glyph unicode="&#xea;" horiz-adv-x="878" d="M66 430q0 -102 31.5 -193.5t92.5 -150.5q72 -68 157 -89.5t161 -21.5q59 0 107.5 10.5t66.5 18.5q23 10 51.5 45t32.5 78l-8 16q-23 -10 -78 -23.5t-127 -13.5q-139 0 -227 86.5t-88 241.5q57 -2 118 -2q63 0 119.5 1t102 2t67.5 5q25 4 54.5 11.5t55 17.5t44 22.5 t20.5 24.5q4 12 5 30.5t1 35.5q-2 63 -22.5 123.5t-60.5 107.5t-102 77t-151 30q-100 0 -179 -40t-133 -107.5t-82.5 -156t-28.5 -186.5zM240 1063q16 -10 41.5 -19.5t46.5 -9.5q8 0 15 7.5t11 9.5q33 53 59.5 99t53.5 93q35 -59 60.5 -103t47.5 -85q10 -20 33 -21 q25 0 49.5 12.5t38.5 22.5l-94 160t-92 164q-14 0 -30.5 -2t-33.5 -7q-16 -4 -22 -11t-16 -23q-39 -76 -81 -142.5t-87 -144.5zM246 549q6 59 26.5 107.5t50 82t66.5 51t76 17.5h2q92 0 142 -60.5t46 -154.5q0 -18 -11 -30.5t-32 -12.5q-14 0 -52 -1t-88 -2t-109.5 0 t-116.5 3z" />
<glyph unicode="&#xeb;" horiz-adv-x="878" d="M66 430q0 -102 31.5 -193.5t92.5 -150.5q72 -68 157 -89.5t161 -21.5q59 0 107.5 10.5t66.5 18.5q23 10 51.5 45t32.5 78l-8 16q-23 -10 -78 -23.5t-127 -13.5q-139 0 -227 86.5t-88 241.5q57 -2 118 -2q63 0 119.5 1t102 2t67.5 5q25 4 54.5 11.5t55 17.5t44 22.5 t20.5 24.5q4 12 5 30.5t1 35.5q-2 63 -22.5 123.5t-60.5 107.5t-102 77t-151 30q-100 0 -179 -40t-133 -107.5t-82.5 -156t-28.5 -186.5zM205 1192q0 -47 26.5 -69.5t61.5 -22.5q41 0 67.5 25.5t26.5 72.5q0 35 -22.5 63.5t-63.5 28.5h-2q-45 0 -69.5 -28.5t-24.5 -69.5z M246 549q6 59 26.5 107.5t50 82t66.5 51t76 17.5h2q92 0 142 -60.5t46 -154.5q0 -18 -11 -30.5t-32 -12.5q-14 0 -52 -1t-88 -2t-109.5 0t-116.5 3zM545 1192q0 -47 27.5 -69.5t60.5 -22.5q41 0 67.5 25.5t26.5 72.5q0 35 -22.5 63.5t-63.5 28.5h-2q-47 0 -70.5 -28.5 t-23.5 -69.5z" />
<glyph unicode="&#xec;" horiz-adv-x="448" d="M10 1313q59 -63 119.5 -142t97.5 -137q18 2 54 29q20 14 8 47q-12 35 -36 85t-48.5 96t-48 79t-35.5 33q-25 0 -52.5 -12.5t-50.5 -34.5q-27 -25 -8 -43zM133 887q4 -35 6 -86t2 -146v-346q0 -92 -2 -176t-4 -145q43 2 77 4t56 6q23 4 32 13t9 38v731q0 43 -2 68.5t-5 39 t-8 16.5t-13 3q-10 0 -30 -2t-41.5 -5l-43 -6t-33.5 -7z" />
<glyph unicode="&#xed;" horiz-adv-x="448" d="M133 887q4 -35 6 -86t2 -146v-346q0 -92 -2 -176t-4 -145q43 2 77 4t56 6q23 4 32 13t9 38v731q0 43 -2 68.5t-5 39t-8 16.5t-13 3q-10 0 -30 -2t-41.5 -5l-43 -6t-33.5 -7zM133 1079q0 -12 8 -18q12 -10 24.5 -19.5t29.5 -13.5q43 59 100 136t119 147q25 27 4 41 q-16 18 -47 32.5t-60 14.5q-14 0 -36.5 -33t-47 -78t-47 -93t-35.5 -79q-12 -25 -12 -37z" />
<glyph unicode="&#xee;" horiz-adv-x="448" d="M-4 1063q16 -10 41.5 -19.5t46.5 -9.5q8 0 15 7.5t12 9.5q35 53 60.5 99t51.5 93q35 -59 60.5 -103t48.5 -85q12 -20 33 -21q25 0 49 12.5t39 22.5q-47 80 -93.5 160t-91.5 164q-16 0 -32.5 -2t-32.5 -7q-16 -4 -22.5 -11t-16.5 -23q-39 -76 -80 -142.5t-88 -144.5z M133 887q4 -35 6 -86t2 -146v-346q0 -92 -2 -176t-4 -145q43 2 77 4t56 6q23 4 32 13t9 38v731q0 43 -2 68.5t-5 39t-8 16.5t-13 3q-10 0 -30 -2t-41.5 -5l-43 -6t-33.5 -7z" />
<glyph unicode="&#xef;" horiz-adv-x="448" d="M-29 1192q0 -47 27 -69.5t61 -22.5q41 0 68 25.5t27 72.5q0 35 -22.5 63.5t-63.5 28.5h-2q-45 0 -70 -28.5t-25 -69.5zM133 887q4 -35 6 -86t2 -146v-346q0 -92 -2 -176t-4 -145q43 2 77 4t56 6q23 4 32 13t9 38v731q0 43 -2 68.5t-5 39t-8 16.5t-13 3q-10 0 -30 -2 t-41.5 -5l-43 -6t-33.5 -7zM311 1192q0 -47 28 -69.5t60 -22.5q41 0 68 25.5t27 72.5q0 35 -22.5 63.5t-63.5 28.5h-2q-47 0 -71 -28.5t-24 -69.5z" />
<glyph unicode="&#xf0;" horiz-adv-x="1019" d="M66 430q0 -102 31.5 -186t90 -143.5t140.5 -92.5t182 -33q96 0 178 35t142.5 102.5t94 169t33.5 234.5q0 190 -59 361.5t-174 287.5l156 80q23 16 27.5 43t4.5 58q0 35 -36 14l-240 -121q-43 33 -92 60.5t-97.5 48t-91.5 32t-71 11.5q-31 0 -47 -17l-50 -53l9 -21 q72 -10 155.5 -45.5t145.5 -80.5l-222 -107q-12 -12 -18 -31.5t-6 -54.5q0 -20 10 -26.5t25 1.5l299 146q47 -43 81.5 -98.5t61.5 -126.5q-41 23 -88 32t-90 9q-84 0 -169 -27t-157 -92q-78 -66 -118.5 -157t-40.5 -212zM246 442q0 90 24.5 158t64.5 112t93 65.5t109 21.5h2 q66 0 125 -19.5t92 -54.5q10 -29 19 -82t9 -125q0 -215 -74.5 -319.5t-193.5 -104.5q-43 0 -90 17.5t-87 58.5t-66.5 107.5t-26.5 164.5z" />
<glyph unicode="&#xf1;" horiz-adv-x="1048" d="M100 821q23 -10 36.5 -36.5t13.5 -77.5v-342q0 -272 -7 -377q33 2 64 2q33 0 67 4q25 4 33 13t8 40v586q16 25 42 51.5t56.5 48t66.5 35.5t77 14q86 0 135 -52t49 -175l-2 -539q0 -29 29 -28q39 0 78 6t72 10q-4 37 -7.5 99.5t-3.5 154.5v309q0 72 -14 136.5t-50 112.5 t-94.5 76t-144.5 28q-41 0 -78 -10.5t-67 -26.5q-39 -20 -75 -49t-75 -70q-4 53 -26.5 95t-65.5 52q-23 8 -47 2q-18 -10 -37.5 -29.5t-32.5 -35.5v-27zM268 1104q10 -4 37 -11.5t45 -7.5q14 0 19 23q10 45 24.5 71.5t32.5 26.5q16 0 28.5 -11t32.5 -36q31 -33 57.5 -57.5 t63.5 -24.5q66 0 103 56.5t47 164.5q-16 14 -40 22.5t-36 8.5q-16 0 -23 -22q-10 -57 -22 -79t-29 -22q-10 0 -24.5 14.5t-30.5 36.5q-27 33 -55.5 52.5t-63.5 19.5h-2q-43 0 -71.5 -20.5t-48 -53t-30 -72.5t-14.5 -79z" />
<glyph unicode="&#xf2;" horiz-adv-x="1048" d="M66 440q0 -90 29.5 -174t87 -148.5t143.5 -103.5t200 -39q88 0 164 28t131 75q27 23 56.5 57.5t52 80.5t38 105.5t15.5 133.5q0 92 -29.5 177t-87 148.5t-143.5 101.5t-197 38h-2q-88 0 -165.5 -32t-139.5 -85q-76 -66 -114.5 -159t-38.5 -204zM246 459q0 84 23.5 148.5 t62.5 107.5t88 65.5t100 22.5h2q57 0 108.5 -24.5t89.5 -70.5t60.5 -112t22.5 -150q0 -96 -23.5 -162.5t-61.5 -109.5t-85 -62.5t-94 -19.5q-57 -2 -109.5 20.5t-93.5 68.5t-65.5 116t-24.5 162zM311 1313q61 -63 121 -142t98 -137q16 2 52 29q20 14 8 47q-12 35 -36 85 t-48.5 96t-47 79t-34.5 33h-2q-25 0 -52.5 -12.5t-50.5 -34.5q-27 -25 -8 -43z" />
<glyph unicode="&#xf3;" horiz-adv-x="1048" d="M66 440q0 -90 29.5 -174t87 -148.5t143.5 -103.5t200 -39q88 0 164 28t131 75q27 23 56.5 57.5t52 80.5t38 105.5t15.5 133.5q0 92 -29.5 177t-87 148.5t-143.5 101.5t-197 38h-2q-88 0 -165.5 -32t-139.5 -85q-76 -66 -114.5 -159t-38.5 -204zM246 459q0 84 23.5 148.5 t62.5 107.5t88 65.5t100 22.5h2q57 0 108.5 -24.5t89.5 -70.5t60.5 -112t22.5 -150q0 -96 -23.5 -162.5t-61.5 -109.5t-85 -62.5t-94 -19.5q-57 -2 -109.5 20.5t-93.5 68.5t-65.5 116t-24.5 162zM420 1079q0 -12 8 -18q12 -10 24.5 -19.5t28.5 -13.5q43 59 100.5 136 t118.5 147q25 27 7 41q-18 18 -49 32.5t-60 14.5q-14 0 -36.5 -33t-47.5 -78t-47.5 -93t-34.5 -79q-12 -25 -12 -37z" />
<glyph unicode="&#xf4;" horiz-adv-x="1048" d="M66 440q0 -90 29.5 -174t87 -148.5t143.5 -103.5t200 -39q88 0 164 28t131 75q27 23 56.5 57.5t52 80.5t38 105.5t15.5 133.5q0 92 -29.5 177t-87 148.5t-143.5 101.5t-197 38h-2q-88 0 -165.5 -32t-139.5 -85q-76 -66 -114.5 -159t-38.5 -204zM246 459q0 84 23.5 148.5 t62.5 107.5t88 65.5t100 22.5h2q57 0 108.5 -24.5t89.5 -70.5t60.5 -112t22.5 -150q0 -96 -23.5 -162.5t-61.5 -109.5t-85 -62.5t-94 -19.5q-57 -2 -109.5 20.5t-93.5 68.5t-65.5 116t-24.5 162zM313 1063q16 -10 42 -19.5t46 -9.5q8 0 15.5 7.5t11.5 9.5q33 53 59.5 99 t53.5 93q35 -59 60.5 -103t47.5 -85q10 -20 33 -21q25 0 49.5 12.5t38.5 22.5l-94 160t-92 164q-14 0 -30.5 -2t-33.5 -7q-16 -4 -22 -11t-17 -23q-39 -76 -81 -142.5t-87 -144.5z" />
<glyph unicode="&#xf5;" horiz-adv-x="1048" d="M66 440q0 -90 29.5 -174t87 -148.5t143.5 -103.5t200 -39q88 0 164 28t131 75q27 23 56.5 57.5t52 80.5t38 105.5t15.5 133.5q0 92 -29.5 177t-87 148.5t-143.5 101.5t-197 38h-2q-88 0 -165.5 -32t-139.5 -85q-76 -66 -114.5 -159t-38.5 -204zM246 459q0 84 23.5 148.5 t62.5 107.5t88 65.5t100 22.5h2q57 0 108.5 -24.5t89.5 -70.5t60.5 -112t22.5 -150q0 -96 -23.5 -162.5t-61.5 -109.5t-85 -62.5t-94 -19.5q-57 -2 -109.5 20.5t-93.5 68.5t-65.5 116t-24.5 162zM266 1104q10 -4 37 -11.5t47 -7.5q12 0 17 23q10 45 24.5 71.5t32.5 26.5 q16 0 28.5 -11t32.5 -36q31 -33 57.5 -57.5t63.5 -24.5q66 0 102.5 56.5t47.5 164.5q-16 14 -40 22.5t-36 8.5q-16 0 -23 -22q-10 -57 -22 -79t-29 -22q-10 0 -24.5 14.5t-30.5 36.5q-27 33 -55.5 52.5t-63.5 19.5h-2q-43 0 -71.5 -20.5t-48 -53t-30 -72.5t-14.5 -79z" />
<glyph unicode="&#xf6;" horiz-adv-x="1048" d="M66 440q0 -90 29.5 -174t87 -148.5t143.5 -103.5t200 -39q88 0 164 28t131 75q27 23 56.5 57.5t52 80.5t38 105.5t15.5 133.5q0 92 -29.5 177t-87 148.5t-143.5 101.5t-197 38h-2q-88 0 -165.5 -32t-139.5 -85q-76 -66 -114.5 -159t-38.5 -204zM246 459q0 84 23.5 148.5 t62.5 107.5t88 65.5t100 22.5h2q57 0 108.5 -24.5t89.5 -70.5t60.5 -112t22.5 -150q0 -96 -23.5 -162.5t-61.5 -109.5t-85 -62.5t-94 -19.5q-57 -2 -109.5 20.5t-93.5 68.5t-65.5 116t-24.5 162zM252 1192q0 -47 26.5 -69.5t61.5 -22.5q41 0 67.5 25.5t26.5 72.5 q0 35 -22.5 63.5t-61.5 28.5h-2q-47 0 -71.5 -28.5t-24.5 -69.5zM592 1192q0 -47 27.5 -69.5t60.5 -22.5q41 0 67.5 25.5t26.5 72.5q0 35 -21.5 63.5t-62.5 28.5h-4q-47 0 -70.5 -28.5t-23.5 -69.5z" />
<glyph unicode="&#xf7;" horiz-adv-x="1169" d="M127 446h852q35 0 49 30t16 87h-858q-33 0 -45 -31t-14 -86zM489 190q0 -39 27 -67.5t66 -28.5q37 0 64.5 29t27.5 67q0 41 -28 68t-62 27h-2q-39 0 -66 -27t-27 -68zM494 819q0 -37 26.5 -65.5t61.5 -28.5h2q43 0 68.5 28.5t25.5 65.5q0 39 -25.5 66.5t-68.5 27.5 q-37 0 -63.5 -27.5t-26.5 -66.5z" />
<glyph unicode="&#xf8;" horiz-adv-x="1048" d="M66 442q0 -100 35.5 -192t105.5 -158q-35 -47 -56.5 -76.5t-39.5 -54.5q4 -16 14 -28.5t20 -26.5q23 -29 52 10q16 23 34.5 48.5t53.5 72.5q49 -29 110.5 -45.5t139.5 -16.5q82 0 155.5 28t126.5 73q29 25 58.5 59.5t53 80.5t38 104.5t14.5 130.5q0 104 -36 197t-107 157 l84 113q-10 33 -35 59q-10 16 -23.5 12t-36.5 -35q-10 -16 -24.5 -35.5t-42.5 -56.5q-53 31 -105.5 44.5t-126.5 13.5q-88 0 -165.5 -32t-137.5 -83q-80 -70 -119.5 -162t-39.5 -201zM236 451q0 84 23.5 150.5t63 111.5t91 68.5t106.5 23.5q96 0 160 -55l-377 -523 q-68 86 -67 224zM365 150l378 526q68 -84 68 -232q0 -96 -24.5 -163.5t-64.5 -110.5t-89 -62.5t-98 -19.5q-47 0 -91.5 15.5t-78.5 46.5z" />
<glyph unicode="&#xf9;" horiz-adv-x="1044" d="M133 887q4 -35 6 -86t2 -146v-352q0 -152 75 -240t230 -88q72 0 132 27q31 12 72.5 39t92.5 80q10 -66 55.5 -106t106.5 -40q31 0 55.5 27t32.5 49v35q-41 6 -71.5 29.5t-30.5 99.5v326q0 133 3 232t3 134q-33 0 -66.5 -4t-74.5 -10q-20 -4 -26.5 -16.5t-6.5 -49.5v-585 q-12 -20 -35.5 -43t-53.5 -41.5t-64.5 -30.5t-71.5 -12q-33 0 -67 8t-60.5 33.5t-44 75t-17.5 133.5v204q0 109 -2 211q0 43 -2 68.5t-5 39t-8 16.5t-13 3q-25 0 -72 -6t-74 -14zM299 1313q61 -63 120.5 -142t98.5 -137q16 2 51 29q20 14 9 47q-12 35 -36 85t-48.5 96 t-47 79t-34.5 33h-2q-25 0 -52.5 -12.5t-50.5 -34.5q-27 -25 -8 -43z" />
<glyph unicode="&#xfa;" horiz-adv-x="1044" d="M133 887q4 -35 6 -86t2 -146v-352q0 -152 75 -240t230 -88q72 0 132 27q31 12 72.5 39t92.5 80q10 -66 55.5 -106t106.5 -40q31 0 55.5 27t32.5 49v35q-41 6 -71.5 29.5t-30.5 99.5v326q0 133 3 232t3 134q-33 0 -66.5 -4t-74.5 -10q-20 -4 -26.5 -16.5t-6.5 -49.5v-585 q-12 -20 -35.5 -43t-53.5 -41.5t-64.5 -30.5t-71.5 -12q-33 0 -67 8t-60.5 33.5t-44 75t-17.5 133.5v204q0 109 -2 211q0 43 -2 68.5t-5 39t-8 16.5t-13 3q-25 0 -72 -6t-74 -14zM420 1079q0 -12 8 -18q12 -10 24.5 -19.5t28.5 -13.5q41 59 99.5 136t117.5 147q16 16 17 24 q0 8 -10 17q-16 18 -48 32.5t-59 14.5h-2q-14 0 -36.5 -33t-47.5 -78t-47.5 -93t-34.5 -79q-10 -25 -10 -37z" />
<glyph unicode="&#xfb;" horiz-adv-x="1044" d="M133 887q4 -35 6 -86t2 -146v-352q0 -152 75 -240t230 -88q72 0 132 27q31 12 72.5 39t92.5 80q10 -66 55.5 -106t106.5 -40q31 0 55.5 27t32.5 49v35q-41 6 -71.5 29.5t-30.5 99.5v326q0 133 3 232t3 134q-33 0 -66.5 -4t-74.5 -10q-20 -4 -26.5 -16.5t-6.5 -49.5v-585 q-12 -20 -35.5 -43t-53.5 -41.5t-64.5 -30.5t-71.5 -12q-33 0 -67 8t-60.5 33.5t-44 75t-17.5 133.5v204q0 109 -2 211q0 43 -2 68.5t-5 39t-8 16.5t-13 3q-25 0 -72 -6t-74 -14zM287 1063q16 -10 41.5 -19.5t46.5 -9.5q8 0 15 7.5t11 9.5q33 53 59.5 99t53.5 93 q35 -59 60.5 -103t48.5 -85q10 -20 32 -21q25 0 49.5 12.5t38.5 22.5l-94 160t-92 164q-14 0 -30.5 -2t-32.5 -7q-16 -4 -22.5 -11t-16.5 -23q-39 -76 -81 -142.5t-87 -144.5z" />
<glyph unicode="&#xfc;" horiz-adv-x="1044" d="M133 887q4 -35 6 -86t2 -146v-352q0 -152 75 -240t230 -88q72 0 132 27q31 12 72.5 39t92.5 80q10 -66 55.5 -106t106.5 -40q31 0 55.5 27t32.5 49v35q-41 6 -71.5 29.5t-30.5 99.5v326q0 133 3 232t3 134q-33 0 -66.5 -4t-74.5 -10q-20 -4 -26.5 -16.5t-6.5 -49.5v-585 q-12 -20 -35.5 -43t-53.5 -41.5t-64.5 -30.5t-71.5 -12q-33 0 -67 8t-60.5 33.5t-44 75t-17.5 133.5v204q0 109 -2 211q0 43 -2 68.5t-5 39t-8 16.5t-13 3q-25 0 -72 -6t-74 -14zM248 1192q0 -47 26.5 -69.5t61.5 -22.5q41 0 67.5 25.5t26.5 72.5q0 35 -22.5 63.5 t-61.5 28.5h-2q-47 0 -71.5 -28.5t-24.5 -69.5zM588 1192q0 -47 27.5 -69.5t60.5 -22.5q41 0 67.5 25.5t26.5 72.5q0 35 -22.5 63.5t-63.5 28.5h-2q-47 0 -70.5 -28.5t-23.5 -69.5z" />
<glyph unicode="&#xfd;" horiz-adv-x="856" d="M37 872q35 -76 82 -188.5t91 -224t78 -201.5t46 -121q10 -27 18 -45t19 -35q-72 -145 -159 -255.5t-171 -172.5v-14q16 -16 48 -33.5t67 -17.5q16 0 49 20.5t78 68.5t100 129t117 202q59 117 113.5 245.5t97.5 247.5t72.5 212t41.5 138q16 61 -26 74q-55 18 -113 19 q-14 -63 -39.5 -153.5t-55.5 -187t-62.5 -190.5t-63.5 -164q-14 37 -34.5 93.5t-44.5 123t-49.5 135t-48 130t-41 107.5t-28.5 69q-16 37 -43 37h-2q-27 0 -67.5 -14.5t-69.5 -33.5zM362 1079q0 -12 9 -18q12 -10 24.5 -19.5t28.5 -13.5q41 59 99.5 136t119.5 147 q14 16 14 24t-10 17q-16 18 -48 32.5t-58 14.5h-2q-14 0 -37 -33t-46.5 -78t-46 -93t-34.5 -79q-12 -25 -13 -37z" />
<glyph unicode="&#xfe;" horiz-adv-x="1058" d="M133 1364q4 -31 6 -83t2 -144v-418v-795q0 -276 -6 -364q35 0 66.5 2t66.5 6q27 6 34 14t7 33v397q29 -14 79 -25.5t110 -11.5q31 0 69.5 5.5t79.5 16.5t81 30.5t77 50.5q84 63 137 162.5t53 240.5q0 115 -32.5 198t-87 136t-122 79t-135.5 26q-86 0 -158.5 -32 t-150.5 -93v462q0 45 -2 72t-5 41t-8 17.5t-13 3.5q-10 0 -29 -2.5t-40.5 -5.5t-43 -8t-35.5 -11zM309 141v527q16 16 44 35.5t60.5 37t69.5 29.5t74 12q121 0 189.5 -82t68.5 -221q0 -117 -36 -191.5t-88 -117.5t-108.5 -59.5t-95.5 -16.5q-45 0 -91 11.5t-87 35.5z" />
<glyph unicode="&#xff;" horiz-adv-x="856" d="M37 872q35 -76 82 -188.5t91 -224t78 -201.5t46 -121q10 -27 18 -45t19 -35q-72 -145 -159 -255.5t-171 -172.5v-14q16 -16 48 -33.5t67 -17.5q16 0 49 20.5t78 68.5t100 129t117 202q59 117 113.5 245.5t97.5 247.5t72.5 212t41.5 138q16 61 -26 74q-55 18 -113 19 q-14 -63 -39.5 -153.5t-55.5 -187t-62.5 -190.5t-63.5 -164q-14 37 -34.5 93.5t-44.5 123t-49.5 135t-48 130t-41 107.5t-28.5 69q-16 37 -43 37h-2q-27 0 -67.5 -14.5t-69.5 -33.5zM190 1192q0 -47 27 -69.5t62 -22.5q41 0 67.5 25.5t26.5 72.5q0 35 -22.5 63.5t-63.5 28.5 h-2q-47 0 -71 -28.5t-24 -69.5zM528 1192q0 -47 29 -69.5t59 -22.5q43 0 70 25.5t27 72.5q0 35 -22.5 63.5t-63.5 28.5h-2q-47 0 -72 -28.5t-25 -69.5z" />
<glyph unicode="&#x152;" horiz-adv-x="1935" d="M78 616q0 -109 33.5 -223t110.5 -208.5t199 -155t298 -60.5q147 0 273 59.5t202 180.5v-160l31 -41q37 -10 128 -15t220 -5q109 0 163 2t72 6q39 14 62.5 47t34.5 78l-4 4q-29 -4 -67 -5t-79 -2t-82 -1h-78q-66 0 -133 3t-98 13v461h330q25 0 45 3t35.5 16.5t28 39 t22.5 70.5h-461v428h272q70 0 104 3t50 13q20 18 35.5 46t23.5 67h-510q-39 -4 -80.5 -10t-64.5 -15v-168q-72 111 -190.5 167.5t-272.5 56.5q-113 0 -204 -31t-179 -92q-127 -92 -198.5 -236.5t-71.5 -335.5zM264 635v2q0 141 42 244.5t108.5 172t149.5 102.5t167 34 q80 0 163 -22.5t151.5 -84t111.5 -168t43 -274.5q0 -152 -40 -256t-105.5 -169.5t-149.5 -95.5t-172 -30q-82 0 -165 28.5t-150.5 93t-110.5 168t-43 255.5z" />
<glyph unicode="&#x153;" horiz-adv-x="1609" d="M66 440q0 -92 29.5 -176t86 -148.5t141.5 -102.5t195 -38q117 0 212 52.5t149 150.5q51 -104 150 -153.5t210 -49.5q55 0 105.5 10.5t68.5 18.5q23 12 52.5 46t33.5 77l-10 16q-25 -10 -81 -24.5t-122 -14.5q-145 0 -233 89.5t-88 242.5q57 -2 120 -2q66 0 123.5 1 t101.5 2t64 5q27 2 56.5 10.5t55 18.5t44 22.5t20.5 24.5q4 12 4 31v37q-2 61 -21.5 121.5t-59 107.5t-102 76t-148.5 29q-117 0 -200 -57.5t-130 -151.5q-55 104 -149.5 156.5t-215.5 52.5h-2q-86 0 -162.5 -30t-136.5 -79q-82 -72 -121.5 -166t-39.5 -205zM244 453 q0 88 23.5 153.5t62.5 108.5t89 64.5t101 21.5h2q57 0 108.5 -22.5t90.5 -67.5t61.5 -109.5t22.5 -150.5q0 -100 -25.5 -169t-65.5 -111t-89.5 -60.5t-94.5 -18.5q-55 0 -106 22.5t-91 67.5t-64.5 112.5t-24.5 158.5zM975 549q20 127 81.5 192.5t141.5 65.5h2 q92 0 140.5 -60.5t45.5 -156.5q0 -35 -40 -39q-14 0 -52.5 -2t-89.5 -2h-112q-59 0 -117 2z" />
<glyph unicode="&#x178;" horiz-adv-x="1134" d="M37 1245q31 -41 67.5 -91t76.5 -104.5t78 -107.5t69 -98q53 -72 89 -126t46 -73q14 -31 14 -88v-532q0 -23 6 -30t25 -7q47 0 88 4t63 12q0 31 -3 86t-3 160v323q0 20 5.5 42t17.5 40q6 10 35.5 48t69.5 91.5t87 116t89 118.5t75 101.5t47 63.5q41 59 -6 76q-18 6 -46 11 t-75 5q-10 -18 -36.5 -56t-61.5 -88t-75 -106.5t-77.5 -109t-69.5 -96.5t-50 -70q-80 115 -158 228.5t-133 193.5q-37 53 -59.5 78.5t-45.5 25.5q-31 0 -72.5 -8t-76.5 -21v-12zM297 1464q0 -49 28.5 -71.5t63.5 -22.5q41 0 67.5 25.5t26.5 74.5q0 33 -22.5 64t-63.5 31h-2 q-47 0 -72.5 -30t-25.5 -71zM670 1464q0 -49 29.5 -71.5t60.5 -22.5q45 0 71.5 25.5t26.5 74.5q0 33 -22.5 64t-65.5 31h-2q-47 0 -72.5 -30t-25.5 -71z" />
<glyph unicode="&#x2c6;" horiz-adv-x="819" d="M182 1063q16 -10 42 -19.5t44 -9.5q10 0 17.5 7.5t11.5 9.5q33 53 59.5 99t53.5 93q33 -59 59.5 -103t48.5 -85q10 -20 33 -21q23 0 48.5 12.5t37.5 22.5q-47 80 -93 160t-91 164q-14 0 -32 -2t-34 -7q-23 -8 -37 -34q-39 -76 -81 -142.5t-87 -144.5z" />
<glyph unicode="&#x2dc;" horiz-adv-x="819" d="M164 1104q12 -4 38.5 -11.5t45.5 -7.5q12 0 16 23q12 45 26.5 71.5t33.5 26.5q16 0 28.5 -11t30.5 -36q31 -33 57.5 -57.5t65.5 -24.5q66 0 102.5 56.5t46.5 164.5q-16 14 -39.5 22.5t-37.5 8.5t-21 -22q-10 -57 -22.5 -79t-28.5 -22q-12 0 -25.5 14.5t-29.5 36.5 q-27 33 -56.5 52.5t-64.5 19.5h-2q-43 0 -72 -20.5t-48.5 -53t-29.5 -72.5t-14 -79z" />
<glyph unicode="&#x2000;" horiz-adv-x="857" />
<glyph unicode="&#x2001;" horiz-adv-x="1714" />
<glyph unicode="&#x2002;" horiz-adv-x="857" />
<glyph unicode="&#x2003;" horiz-adv-x="1714" />
<glyph unicode="&#x2004;" horiz-adv-x="571" />
<glyph unicode="&#x2005;" horiz-adv-x="428" />
<glyph unicode="&#x2006;" horiz-adv-x="285" />
<glyph unicode="&#x2007;" horiz-adv-x="285" />
<glyph unicode="&#x2008;" horiz-adv-x="214" />
<glyph unicode="&#x2009;" horiz-adv-x="342" />
<glyph unicode="&#x200a;" horiz-adv-x="95" />
<glyph unicode="&#x2010;" horiz-adv-x="612" d="M68 389l16 -14q33 0 81 6t97 14t94 18.5t74 20.5q25 6 43.5 20.5t33.5 34t24.5 40t15.5 36.5l-15 27q-33 -8 -82 -18.5t-104 -20.5t-109.5 -19.5t-99.5 -15.5q-41 -6 -69 -129z" />
<glyph unicode="&#x2011;" horiz-adv-x="612" d="M68 389l16 -14q33 0 81 6t97 14t94 18.5t74 20.5q25 6 43.5 20.5t33.5 34t24.5 40t15.5 36.5l-15 27q-33 -8 -82 -18.5t-104 -20.5t-109.5 -19.5t-99.5 -15.5q-41 -6 -69 -129z" />
<glyph unicode="&#x2012;" horiz-adv-x="612" d="M68 389l16 -14q33 0 81 6t97 14t94 18.5t74 20.5q25 6 43.5 20.5t33.5 34t24.5 40t15.5 36.5l-15 27q-33 -8 -82 -18.5t-104 -20.5t-109.5 -19.5t-99.5 -15.5q-41 -6 -69 -129z" />
<glyph unicode="&#x2013;" horiz-adv-x="1120" d="M96 430h873q16 0 26.5 13.5t18.5 60.5l8 57h-858q-20 0 -37.5 -14.5t-22.5 -52.5z" />
<glyph unicode="&#x2014;" horiz-adv-x="1898" d="M96 430h1653q16 0 27.5 11.5t15.5 56.5l10 63h-1638q-20 0 -37.5 -14.5t-22.5 -52.5z" />
<glyph unicode="&#x2018;" horiz-adv-x="382" d="M66 1022q0 -39 12 -68.5t47 -29.5q29 0 59.5 13t53.5 30q-8 33 -9 80q0 90 29 181t64 150q-47 2 -77 -7t-52 -30q-23 -23 -45.5 -58.5t-41 -79.5t-29.5 -91t-11 -90z" />
<glyph unicode="&#x2019;" horiz-adv-x="382" d="M63 913q88 -2 127 39q23 20 45.5 56t41 80.5t30.5 91.5t12 90q0 39 -12 68.5t-47 29.5q-29 0 -59.5 -13.5t-50.5 -29.5q6 -35 6 -78q0 -90 -29 -181.5t-64 -152.5z" />
<glyph unicode="&#x201a;" horiz-adv-x="352" d="M-2 -217q41 -2 68.5 3t50.5 21q29 20 58.5 58.5t54 84.5t40 96t15.5 95q0 39 -14.5 77t-49.5 38h-2q-29 0 -61.5 -15.5t-55.5 -29.5q4 -16 8.5 -37.5t4.5 -52.5q0 -86 -34 -177t-83 -161z" />
<glyph unicode="&#x201c;" horiz-adv-x="698" d="M66 1022q0 -39 12 -68.5t47 -29.5q29 0 59.5 13t53.5 30q-8 33 -9 80q0 90 29 181t64 150q-47 2 -77 -7t-52 -30q-23 -23 -45.5 -58.5t-41 -79.5t-29.5 -91t-11 -90zM381 1024q0 -41 11 -70.5t46 -29.5q29 0 59.5 13t53.5 30q-6 37 -6 82q0 43 8 89t20.5 89t29 81.5 t34.5 69.5q-47 2 -77 -7t-52 -30q-23 -23 -45.5 -58.5t-41 -79.5t-29.5 -90t-11 -89z" />
<glyph unicode="&#x201d;" horiz-adv-x="696" d="M63 913q88 -2 127 39q23 20 45.5 56t41 80.5t30.5 91.5t12 90q0 39 -12 68.5t-47 29.5q-29 0 -59.5 -13.5t-50.5 -29.5q6 -35 6 -78q0 -92 -29 -182.5t-64 -151.5zM377 913q88 -2 129 39q20 20 42.5 56t41 80.5t31 91.5t12.5 90q0 39 -11.5 68.5t-46.5 29.5 q-29 0 -60.5 -13.5t-51.5 -29.5q4 -16 6 -36.5t2 -41.5q0 -90 -29.5 -181.5t-64.5 -152.5z" />
<glyph unicode="&#x201e;" horiz-adv-x="661" d="M4 -213q80 -4 117 25q27 20 56.5 58t52 84t38 96t15.5 95q0 16 -3.5 36t-10.5 36t-20 27.5t-32 11.5q-29 0 -60.5 -15.5t-54.5 -27.5q6 -16 9.5 -37.5t3.5 -52.5q0 -86 -32 -176t-79 -160zM313 -213q82 -4 119 25q27 20 56.5 58t52 84t38 96t15.5 95q0 16 -3 36t-10.5 36 t-19.5 27.5t-29 11.5q-31 0 -62.5 -15.5t-55.5 -27.5q4 -16 8 -37.5t4 -52.5q0 -86 -33 -176t-80 -160z" />
<glyph unicode="&#x2022;" horiz-adv-x="550" d="M106 487q0 -43 14.5 -76.5t38 -57t52.5 -37t59 -13.5q82 0 129 50t47 136q0 33 -10 65t-30.5 57.5t-51 41t-69.5 15.5h-2q-86 0 -131.5 -54.5t-45.5 -126.5z" />
<glyph unicode="&#x2026;" horiz-adv-x="1691" d="M154 90q0 -57 34.5 -85t71.5 -28q53 0 83 32t30 85q0 41 -25.5 77t-73.5 36h-2q-57 0 -87.5 -35t-30.5 -82zM719 90q0 -57 34.5 -85t71.5 -28q51 0 82 32t31 85q0 41 -25.5 77t-72.5 36h-2q-59 0 -89 -35t-30 -82zM1284 90q0 -57 35 -85t72 -28q51 0 81.5 32t30.5 85 q0 41 -25.5 77t-72.5 36h-2q-59 0 -89 -35t-30 -82z" />
<glyph unicode="&#x202f;" horiz-adv-x="342" />
<glyph unicode="&#x2039;" horiz-adv-x="610" d="M98 477q0 -25 19 -53q82 -84 160.5 -184.5t150.5 -210.5q23 10 46.5 32.5t23.5 49.5q0 18 -30 68t-69 106.5t-75 106t-50 67.5q14 18 52.5 65t79 100.5t72.5 102.5t32 72q0 29 -22.5 53.5t-38.5 34.5q-80 -117 -169.5 -221.5t-181.5 -188.5z" />
<glyph unicode="&#x203a;" horiz-adv-x="610" d="M98 119q2 -31 24.5 -54.5t39.5 -33.5q84 117 173 220t175 187q0 27 -16 54q-82 86 -161 185t-151 210q-23 -8 -46 -32t-23 -50q0 -12 14 -40t35.5 -62.5t48.5 -72.5t51.5 -72t44 -60.5t29.5 -38.5q-12 -18 -51 -66.5t-81 -101.5t-74 -102.5t-32 -69.5z" />
<glyph unicode="&#x205f;" horiz-adv-x="428" />
<glyph unicode="&#x2122;" horiz-adv-x="903" d="M55 1237q-4 -18 13 -18h112v-267q0 -10 15 -10l63 4q0 8 -1 24.5t-1 43.5v205h98q10 6 22.5 25.5t12.5 37.5h-225h-86q-4 -4 -10.5 -13t-12.5 -32zM379 946q10 -4 27.5 -6t35.5 -2q8 0 13 12q4 23 10 55.5t12 66.5t11.5 62.5t9.5 43.5q8 -18 21 -52t26.5 -69t26 -65.5 t16.5 -45.5h22t27 4q14 37 30.5 74t31 69.5t24.5 58.5t16 40l21 -145q4 -25 6 -48.5t6 -46.5q0 -14 14 -14q16 0 37 2t33 6l-10 50t-15 71l-28 199q-4 16 -8 16q-10 0 -37 -2t-37 -6l-2 -6q-10 -20 -23.5 -48t-28 -55.5t-26.5 -53.5t-18 -42l-66 156q-16 37 -21.5 47 t-11.5 10q-10 0 -38.5 -3t-41.5 -7l7 -23q-8 -39 -18.5 -82t-21 -84t-18.5 -76.5t-14 -60.5z" />
<glyph unicode="&#xe000;" horiz-adv-x="921" d="M0 0v922h922v-922h-922z" />
</font>
</defs>
</svg>
