<?xml version="1.0" standalone="no"?>
<!DOCTYPE svg PUBLIC "-//W3C//DTD SVG 1.1//EN" "http://www.w3.org/Graphics/SVG/1.1/DTD/svg11.dtd" >
<svg xmlns="http://www.w3.org/2000/svg">
<metadata>
Created by FontPrep 20130207 at Thu May 10 15:01:16 2018
 By Mauricio Duran
Mathieu Reguer for Michelin
</metadata>
<defs>
<font id="4d4e388d2f807ca0dddba269b09bad56" horiz-adv-x='1024' >
  <font-face 
    font-family="Michelin-SemiBold"
    font-weight="500"
    font-style="italic"
    font-stretch="semi-condensed"
    units-per-em="2048"
    panose-1="2 0 0 0 0 0 0 0 0 0"
    ascent="1536"
    descent="-512"
    x-height="1475"
    cap-height="1475"
    bbox="-434 -532 3735.92 1927"
    underline-thickness="237"
    underline-position="-156"
    slope="-90"
    unicode-range="U+0020-F6C3"
  />
<missing-glyph horiz-adv-x="931" 
d="M422 313q-74 -1 -119 -45t-45 -117t45 -119t119 -46t118 45t44 119t-44 118t-118 45zM461 1061q-418 0 -418 -359l289 -20q0 78 27 109q28 31 85 30q102 0 103 -73v-13q0 -49 -58 -69l-43 -19q-94 -37 -124 -97t-21 -202h244q0 58 14 76t80 49l72 31q158 74 157 264v12
q0 127 -102 204t-305 77zM-47 -348v1843h1026v-1843h-1026z" />
    <glyph glyph-name=".notdef" horiz-adv-x="931" 
d="M422 313q-74 -1 -119 -45t-45 -117t45 -119t119 -46t118 45t44 119t-44 118t-118 45zM461 1061q-418 0 -418 -359l289 -20q0 78 27 109q28 31 85 30q102 0 103 -73v-13q0 -49 -58 -69l-43 -19q-94 -37 -124 -97t-21 -202h244q0 58 14 76t80 49l72 31q158 74 157 264v12
q0 127 -102 204t-305 77zM-47 -348v1843h1026v-1843h-1026z" />
    <glyph glyph-name=".null" horiz-adv-x="0" 
 />
    <glyph glyph-name="nonmarkingreturn" horiz-adv-x="681" 
 />
    <glyph glyph-name="space" unicode=" " horiz-adv-x="614" 
 />
    <glyph glyph-name="exclam" unicode="!" horiz-adv-x="798" 
d="M319 0h-372l104 299h373zM422 473h-254l229 764l84 238h377l-84 -238z" />
    <glyph glyph-name="quotedbl" unicode="&#x22;" horiz-adv-x="1345" 
d="M645 932h-260l115 420l41 123h348l-41 -123zM1100 932h-260l114 420l41 123h348l-40 -123z" />
    <glyph glyph-name="numbersign" unicode="#" 
d="M762 -2l129 354h-359l-129 -354h-274l129 354h-289l76 217h293l121 334h-273l74 217h279l129 355h274l-129 -355h358l129 355h275l-129 -355h287l-76 -217h-291l-121 -334h273l-76 -217h-277l-129 -354h-274zM971 569l121 334h-359l-121 -334h359z" />
    <glyph glyph-name="dollar" unicode="$" 
d="M664 -31h-11l-71 -194h-170l73 200q-309 18 -540 115l94 275q256 -113 543 -125l145 399l-88 14q-469 74 -324 484q127 369 740 368h24l64 174h170l-66 -184q223 -23 457 -109l-92 -266q-209 92 -461 113l-127 -354l53 -9q168 -26 260 -102q91 -76 103 -181t-33 -237
q-76 -209 -259 -295t-484 -86zM928 604l-41 6l-135 -366q143 8 221 44q77 36 109 112t-2 129q-34 52 -152 75zM782 920l80 -13l119 328q-285 -8 -332 -135q-33 -74 -5 -116t138 -64z" />
    <glyph glyph-name="percent" unicode="%" horiz-adv-x="2756" 
d="M2185 752q-106 0 -174 -62t-125 -217q-113 -303 135 -303q106 0 173 61t124 218q109 303 -133 303zM2007 -20q-283 0 -378 150t-9 382q86 230 217 330t363 100q280 0 374 -150t11 -386q-85 -226 -217 -326t-361 -100zM741 1305q-106 1 -174 -61t-125 -218
q-113 -303 136 -303q106 0 173 61t123 217q109 304 -133 304zM1790 1475h291l-1112 -1473h-291zM563 532q-283 0 -378 151t-9 382t217 331t363 99q280 -1 374 -151t11 -386q-85 -226 -217 -326t-361 -100z" />
    <glyph glyph-name="ampersand" unicode="&#x26;" horiz-adv-x="1933" 
d="M528 -31q-328 1 -462 141t-48 373q86 231 431 305q-91 112 -109 216t29 233q96 266 538 266q274 0 392 -128t59 -304q-45 -135 -158 -212t-293 -126l238 -229l229 233h338l-389 -405l344 -332h-395l-162 152q-117 -94 -253 -138t-329 -45zM584 211q195 0 342 113
l-328 305q-117 -31 -171 -68t-81 -112q-43 -119 27 -179t211 -59zM668 1157q-57 -141 88 -278q145 41 212 85q66 44 96 122t-18 128q-48 51 -163 52q-174 0 -215 -109z" />
    <glyph glyph-name="quotesingle" unicode="'" horiz-adv-x="794" 
d="M598 932h-260l115 420l41 123h348l-41 -123z" />
    <glyph glyph-name="parenleft" unicode="(" horiz-adv-x="983" 
d="M500 -307h-246q-156 219 -182 524q-42 479 232 942q93 158 260 329t376 294h324q-297 -184 -496 -452t-307 -568q-92 -234 -88 -552t127 -517z" />
    <glyph glyph-name="parenright" unicode=")" horiz-adv-x="983" 
d="M489 1782h244q157 -218 183 -524t-72 -592t-294 -540q-196 -253 -501 -433h-323q296 184 494 451t308 569q92 233 87 551t-126 518z" />
    <glyph glyph-name="asterisk" unicode="*" horiz-adv-x="1073" 
d="M821 565l-172 289l-174 -289l-194 144l219 254l-326 73l74 236l311 -133l-31 336h240l-31 -336l312 133l73 -236l-325 -73l217 -254z" />
    <glyph glyph-name="plus" unicode="+" horiz-adv-x="1697" 
d="M1399 616h-475l-170 -469h-234l170 469h-471l84 244h477l170 469h234l-170 -469h471z" />
    <glyph glyph-name="comma" unicode="," horiz-adv-x="800" 
d="M63 -244h-260l324 543h367z" />
    <glyph glyph-name="hyphen" unicode="-" horiz-adv-x="796" 
d="M39 596l98 285h625l-98 -285h-625z" />
    <glyph glyph-name="period" unicode="." horiz-adv-x="798" 
d="M319 0h-372l104 299h373z" />
    <glyph glyph-name="slash" unicode="/" horiz-adv-x="1144" 
d="M1202 1782h324l-1581 -2089h-324z" />
    <glyph glyph-name="zero" unicode="0" horiz-adv-x="1732" 
d="M1006 1225q-190 1 -310 -103t-215 -366q-186 -506 252 -506q188 0 306 103t216 366q183 506 -249 506zM711 -31q-179 0 -315 44q-257 83 -328 305q-67 208 38 499q136 362 346 525t574 163q180 0 315 -44q253 -82 324 -298t-35 -506q-137 -365 -347 -527t-572 -161z" />
    <glyph glyph-name="one" unicode="1" horiz-adv-x="1093" 
d="M616 0h-393l416 1139l-530 -217l108 313l582 240h354z" />
    <glyph glyph-name="two" unicode="2" horiz-adv-x="1527" 
d="M1196 0h-1362l64 180q43 123 143 178l668 357q161 84 223 125q63 42 93 76t46 77q45 113 -29 176t-290 63t-490 -71l98 279q242 66 502 65q385 0 538 -143t60 -389q-37 -99 -125 -185t-163 -130q-76 -44 -172 -94t-107 -56l-465 -232h864z" />
    <glyph glyph-name="three" unicode="3" horiz-adv-x="1601" 
d="M552 -31q-358 0 -654 129l94 271q276 -129 559 -129q219 0 332 36t149 127q36 92 -17 158q-54 66 -227 66h-473l78 229l740 342h-840l96 275h1354l-55 -156q-47 -133 -136 -176l-645 -307h27q311 0 426 -144t33 -366q-72 -193 -278 -274q-205 -81 -563 -81z" />
    <glyph glyph-name="four" unicode="4" horiz-adv-x="1646" 
d="M1477 373h-246l-135 -373h-377l135 373h-901l102 301l887 700q104 100 205 101h485l-307 -846h242zM948 629l248 684l-827 -684h579z" />
    <glyph glyph-name="five" unicode="5" horiz-adv-x="1568" 
d="M548 -31q-352 0 -636 127l94 264q264 -121 547 -120q207 0 321 39t154 139q39 100 -23 166q-62 64 -292 64t-557 -21l299 848h1235l-97 -275h-891l-114 -303q120 8 272 8q448 0 545 -236q58 -137 -14 -327q-74 -201 -283 -287q-208 -86 -560 -86z" />
    <glyph glyph-name="six" unicode="6" horiz-adv-x="1622" 
d="M721 221q153 0 239 52t125 163q100 276 -276 277q-182 0 -379 -62q-60 -215 8 -323t283 -107zM704 -31q-304 0 -468 114q-313 216 -127 773q131 360 380 505q250 144 656 144q319 0 584 -102l-89 -264q-223 96 -487 96t-417 -78t-226 -262q201 57 414 57q336 0 477 -158
t45 -419q-80 -219 -259 -313t-483 -93z" />
    <glyph glyph-name="seven" unicode="7" horiz-adv-x="1441" 
d="M457 0h-394l58 172q51 150 140 260t298 289l539 479h-905l96 275h1386l-55 -158q-27 -67 -54 -96t-53 -51q-25 -23 -28 -27l-604 -535q-190 -158 -261 -247t-116 -218z" />
    <glyph glyph-name="eight" unicode="8" 
d="M684 229q180 0 273 40t130 141q43 125 -24 186q-68 61 -255 61q-188 0 -280 -41t-127 -137q-92 -250 283 -250zM898 823q171 0 255 41t125 153t-24 171q-66 59 -236 59t-254 -41q-84 -42 -126 -152t24 -170t236 -61zM680 -29q-436 1 -596 137t-76 365q47 125 165 203
t290 92q-121 38 -166 148t2 243q72 195 252 271t479 75q395 0 550 -130t75 -351q-45 -131 -151 -212t-253 -101q143 -33 195 -148t-2 -254q-68 -182 -251 -260t-513 -78z" />
    <glyph glyph-name="nine" unicode="9" horiz-adv-x="1619" 
d="M481 -31q-319 0 -583 103l88 264q211 -96 481 -96t423 78t226 262q-201 -57 -414 -58q-336 0 -477 159t-45 419q80 219 259 312t483 93q304 1 469 -113q167 -114 191 -311t-64 -463q-131 -360 -381 -504t-656 -145zM812 762q188 0 384 61q61 215 -8 323q-70 108 -285 107
q-151 0 -237 -52t-130 -174q-44 -121 22 -193t254 -72z" />
    <glyph glyph-name="colon" unicode=":" horiz-adv-x="890" 
d="M365 0h-373l104 299h373zM610 672h-372l104 299h373z" />
    <glyph glyph-name="semicolon" unicode=";" horiz-adv-x="892" 
d="M111 -244h-261l324 543h367zM612 672h-372l104 299h373z" />
    <glyph glyph-name="less" unicode="&#x3c;" 
d="M1243 193l-1046 362l127 369l1314 362l-90 -264l-1067 -289l852 -287z" />
    <glyph glyph-name="equal" unicode="=" 
d="M127 360l84 244h1182l-86 -244h-1180zM309 870l86 244h1182l-86 -244h-1182z" />
    <glyph glyph-name="greater" unicode="&#x3e;" 
d="M1378 555l-1315 -362l93 264l1067 288l-852 287l88 254l1048 -362z" />
    <glyph glyph-name="question" unicode="?" horiz-adv-x="1335" 
d="M412 0h-373l106 299h371zM827 1513q438 0 543 -232q63 -136 -4 -315q-68 -179 -220 -267q-153 -87 -401 -105l-188 -16l-47 -121h-283l119 338l260 20q184 12 275 51q90 40 130 144q41 104 -21 172q-62 70 -284 70t-450 -64l94 270q209 55 477 55z" />
    <glyph glyph-name="at" unicode="@" horiz-adv-x="2113" 
d="M920 510q125 0 247 123l119 325h-156q-116 0 -188 -50t-115 -171t-20 -174t113 -53zM883 -41q-516 0 -709 245t-45 640q135 364 401 518t709 154q221 0 386 -46q304 -86 401 -306q89 -199 -3 -445q-156 -412 -526 -412q-229 0 -280 158q-91 -78 -175 -115t-208 -37
q-124 -1 -206 63q-148 116 -61 390q143 385 602 385h457l-180 -498q-31 -92 -7 -129q25 -37 107 -37t158 71q76 70 115 184t41 196q4 181 -151 299q-155 117 -501 117t-555 -123t-323 -427t25 -492q138 -188 558 -189q287 0 586 98l-65 -184q-254 -78 -551 -78z" />
    <glyph glyph-name="A" unicode="A" horiz-adv-x="1783" 
d="M1020 1475h440l58 -1475h-371l-8 311h-719l-219 -311h-414l993 1333q50 76 106 109t134 33zM1133 586l-17 708l-502 -708h519z" />
    <glyph glyph-name="B" unicode="B" horiz-adv-x="1867" 
d="M1356 1475q278 0 386 -126t38 -323q-90 -244 -389 -293q154 -35 212 -151t-2 -277t-212 -233t-400 -72h-1044l536 1475h875zM997 627h-432l-131 -361h467q160 0 236 31q77 31 111 125t-28 150t-223 55zM1174 1208h-396l-129 -352h352q166 0 256 36t126 131t-13 140
t-196 45z" />
    <glyph glyph-name="C" unicode="C" horiz-adv-x="1667" 
d="M922 260q262 0 462 55l-102 -292q-180 -53 -471 -54q-461 1 -640 235t-37 620t424 539q261 142 626 142q293 0 559 -98l-96 -285q-211 94 -459 94t-421 -102t-261 -354q-170 -500 416 -500z" />
    <glyph glyph-name="D" unicode="D" horiz-adv-x="1882" 
d="M1137 1475q533 0 650 -335q70 -201 -32 -481q-127 -347 -365 -503t-628 -156h-817l536 1475h656zM1108 1200h-334l-336 -924h330q248 0 385 98t225 336q88 236 19 363q-70 127 -289 127z" />
    <glyph glyph-name="E" unicode="E" horiz-adv-x="1626" 
d="M-55 0l536 1475h1307l-94 -267h-916l-123 -338h818l-95 -266h-821l-123 -338h909l-92 -266h-1306z" />
    <glyph glyph-name="F" unicode="F" horiz-adv-x="1564" 
d="M1354 522h-826l-190 -522h-393l536 1475h1307l-96 -275h-918l-145 -401h821z" />
    <glyph glyph-name="G" unicode="G" horiz-adv-x="1796" 
d="M926 250q76 0 172 10l145 408h375l-227 -637q-217 -61 -551 -62q-480 -1 -664 233t-43 621t434 542q267 142 641 140q299 0 576 -106l-96 -283q-223 100 -482 101q-543 0 -700 -457q-176 -510 420 -510z" />
    <glyph glyph-name="H" unicode="H" horiz-adv-x="1935" 
d="M1065 0l217 596h-727l-217 -596h-393l536 1475h393l-217 -594h727l218 594h393l-537 -1475h-393z" />
    <glyph glyph-name="I" unicode="I" horiz-adv-x="815" 
d="M338 0h-393l536 1475h393z" />
    <glyph glyph-name="J" unicode="J" horiz-adv-x="1261" 
d="M240 268q252 0 348 248l350 959h393l-373 -1031q-94 -264 -252 -369t-432 -105t-477 87l99 281q162 -70 344 -70z" />
    <glyph glyph-name="K" unicode="K" horiz-adv-x="1849" 
d="M1133 0l-375 596h-203l-217 -596h-393l536 1475h393l-217 -594h195l756 594h430l-938 -777l446 -698h-413z" />
    <glyph glyph-name="L" unicode="L" horiz-adv-x="1529" 
d="M-55 0l536 1475h393l-432 -1190h865l-99 -285h-1263z" />
    <glyph glyph-name="M" unicode="M" horiz-adv-x="2527" 
d="M885 1475q96 0 135 -45t43 -150l63 -877l834 1072h627l-537 -1475h-395l434 1182l-920 -1182h-370l-64 1192l-440 -1192h-350l536 1475h404z" />
    <glyph glyph-name="N" unicode="N" horiz-adv-x="2068" 
d="M877 1475q156 0 170 -160l272 -1030l438 1190h352l-536 -1475h-559l-283 1180l-436 -1180h-350l536 1475h396z" />
    <glyph glyph-name="O" unicode="O" horiz-adv-x="1943" 
d="M836 250q227 0 368 101t238 356q186 518 -330 518q-228 1 -368 -101t-234 -354q-192 -520 326 -520zM803 -31q-587 0 -710 345q-73 206 36 499q133 365 375 529t643 163q588 0 707 -345q72 -204 -33 -498q-135 -365 -377 -529t-641 -164z" />
    <glyph glyph-name="P" unicode="P" horiz-adv-x="1724" 
d="M870 387h-391l-141 -387h-393l536 1475h623q430 1 567 -175t35 -450t-293 -368t-543 -95zM1026 1208h-248l-203 -555h275q223 0 320 50t151 192q68 165 2 239t-297 74z" />
    <glyph glyph-name="Q" unicode="Q" horiz-adv-x="1943" 
d="M836 250q227 0 368 101t238 356q186 518 -330 518q-228 1 -368 -101t-234 -354q-192 -520 326 -520zM954 -512q-578 0 -403 502q-174 30 -287 106q-213 142 -198 429q6 134 63 288q133 365 375 529t643 163q588 0 707 -345q72 -204 -33 -498q-133 -354 -365 -520
t-610 -173q-49 -127 2 -179q52 -52 176 -52t221 18l-82 -248q-90 -20 -209 -20z" />
    <glyph glyph-name="R" unicode="R" horiz-adv-x="1798" 
d="M1147 1475q397 0 533 -154t36 -432q-61 -172 -186 -256t-318 -107l220 -526h-404l-172 469h-348l-170 -469h-393l536 1475h666zM1044 1208h-266l-172 -473h271q219 0 314 39t145 173t-9 198q-60 63 -283 63z" />
    <glyph glyph-name="S" unicode="S" horiz-adv-x="1593" 
d="M610 -31q-430 0 -719 121l95 275q270 -125 594 -125q184 0 278 36t127 119q35 82 1 132t-152 75l-248 47q-465 90 -324 488q127 369 739 368q336 0 650 -119l-92 -266q-266 117 -564 117q-165 0 -247 -32t-111 -105q-33 -74 -4 -115t137 -63l254 -50q168 -34 260 -108
t104 -178t-34 -236q-76 -209 -260 -295t-484 -86z" />
    <glyph glyph-name="T" unicode="T" horiz-adv-x="1552" 
d="M1667 1190h-524l-432 -1190h-394l433 1190h-523l99 285h1441z" />
    <glyph glyph-name="U" unicode="U" horiz-adv-x="1857" 
d="M784 256q113 0 188 24q74 24 148 102t127 220l316 873h393l-314 -869q-128 -360 -338 -498t-598 -138t-536 174q-147 175 -41 468l313 863h394l-318 -873q-68 -182 -2 -264t268 -82z" />
    <glyph glyph-name="V" unicode="V" horiz-adv-x="1783" 
d="M778 0h-450l-58 1475h387l37 -1239l875 1239h432l-993 -1334q-94 -141 -230 -141z" />
    <glyph glyph-name="W" unicode="W" horiz-adv-x="2811" 
d="M1903 0h-426l75 1233l-678 -1092q-72 -141 -235 -141h-385l37 1475h387l-51 -1248l757 1248h537l-86 -1246l778 1246h396l-869 -1334q-82 -141 -237 -141z" />
    <glyph glyph-name="X" unicode="X" horiz-adv-x="1814" 
d="M1087 0l-225 569l-626 -569h-461l866 770l-305 705h397l225 -572l629 572h455l-864 -768l303 -707h-394z" />
    <glyph glyph-name="Y" unicode="Y" horiz-adv-x="1777" 
d="M809 0h-393l217 596l-363 879h375l258 -598l692 598h453l-1038 -922z" />
    <glyph glyph-name="Z" unicode="Z" horiz-adv-x="1681" 
d="M1321 0h-1448l53 147q35 100 127 172l1176 881h-885l96 275h1391l-88 -250l-1276 -949h948z" />
    <glyph glyph-name="bracketleft" unicode="[" horiz-adv-x="958" 
d="M-164 -305l762 2085h668l-82 -236h-381l-588 -1614h371l-82 -235h-668z" />
    <glyph glyph-name="backslash" unicode="\" horiz-adv-x="1038" 
d="M659 1782v-2089h-276v2089h276z" />
    <glyph glyph-name="bracketright" unicode="]" horiz-adv-x="958" 
d="M-303 -305l82 235h381l590 1614h-371l82 236h665l-759 -2085h-670z" />
    <glyph glyph-name="asciicircum" unicode="^" horiz-adv-x="1636" 
d="M1245 1325v-1175h-231l6 1009l-780 -1009h-271l924 1175h352z" />
    <glyph glyph-name="underscore" unicode="_" horiz-adv-x="1431" 
d="M-428 -512l82 236h1382l-82 -236h-1382z" />
    <glyph glyph-name="grave" unicode="`" horiz-adv-x="1732" 
d="M1210 1577l-280 330h381l227 -330h-328z" />
    <glyph glyph-name="a" unicode="a" horiz-adv-x="1783" 
d="M1020 1475h440l58 -1475h-371l-8 311h-719l-219 -311h-414l993 1333q50 76 106 109t134 33zM1133 586l-17 708l-502 -708h519z" />
    <glyph glyph-name="b" unicode="b" horiz-adv-x="1867" 
d="M1356 1475q278 0 386 -126t38 -323q-90 -244 -389 -293q154 -35 212 -151t-2 -277t-212 -233t-400 -72h-1044l536 1475h875zM997 627h-432l-131 -361h467q160 0 236 31q77 31 111 125t-28 150t-223 55zM1174 1208h-396l-129 -352h352q166 0 256 36t126 131t-13 140
t-196 45z" />
    <glyph glyph-name="c" unicode="c" horiz-adv-x="1667" 
d="M922 260q262 0 462 55l-102 -292q-180 -53 -471 -54q-461 1 -640 235t-37 620t424 539q261 142 626 142q293 0 559 -98l-96 -285q-211 94 -459 94t-421 -102t-261 -354q-170 -500 416 -500z" />
    <glyph glyph-name="d" unicode="d" horiz-adv-x="1882" 
d="M1137 1475q533 0 650 -335q70 -201 -32 -481q-127 -347 -365 -503t-628 -156h-817l536 1475h656zM1108 1200h-334l-336 -924h330q248 0 385 98t225 336q88 236 19 363q-70 127 -289 127z" />
    <glyph glyph-name="e" unicode="e" horiz-adv-x="1626" 
d="M-55 0l536 1475h1307l-94 -267h-916l-123 -338h818l-95 -266h-821l-123 -338h909l-92 -266h-1306z" />
    <glyph glyph-name="f" unicode="f" horiz-adv-x="1564" 
d="M1354 522h-826l-190 -522h-393l536 1475h1307l-96 -275h-918l-145 -401h821z" />
    <glyph glyph-name="g" unicode="g" horiz-adv-x="1796" 
d="M926 250q76 0 172 10l145 408h375l-227 -637q-217 -61 -551 -62q-480 -1 -664 233t-43 621t434 542q267 142 641 140q299 0 576 -106l-96 -283q-223 100 -482 101q-543 0 -700 -457q-176 -510 420 -510z" />
    <glyph glyph-name="h" unicode="h" horiz-adv-x="1935" 
d="M1065 0l217 596h-727l-217 -596h-393l536 1475h393l-217 -594h727l218 594h393l-537 -1475h-393z" />
    <glyph glyph-name="i" unicode="i" horiz-adv-x="815" 
d="M338 0h-393l536 1475h393z" />
    <glyph glyph-name="j" unicode="j" horiz-adv-x="1261" 
d="M240 268q252 0 348 248l350 959h393l-373 -1031q-94 -264 -252 -369t-432 -105t-477 87l99 281q162 -70 344 -70z" />
    <glyph glyph-name="k" unicode="k" horiz-adv-x="1849" 
d="M1133 0l-375 596h-203l-217 -596h-393l536 1475h393l-217 -594h195l756 594h430l-938 -777l446 -698h-413z" />
    <glyph glyph-name="l" unicode="l" horiz-adv-x="1517" 
d="M-55 0l536 1475h393l-432 -1190h865l-99 -285h-1263z" />
    <glyph glyph-name="m" unicode="m" horiz-adv-x="2527" 
d="M885 1475q96 0 135 -45t43 -150l63 -877l834 1072h627l-537 -1475h-395l434 1182l-920 -1182h-370l-64 1192l-440 -1192h-350l536 1475h404z" />
    <glyph glyph-name="n" unicode="n" horiz-adv-x="2068" 
d="M877 1475q156 0 170 -160l272 -1030l438 1190h352l-536 -1475h-559l-283 1180l-436 -1180h-350l536 1475h396z" />
    <glyph glyph-name="o" unicode="o" horiz-adv-x="1943" 
d="M836 250q227 0 368 101t238 356q186 518 -330 518q-228 1 -368 -101t-234 -354q-192 -520 326 -520zM803 -31q-587 0 -710 345q-73 206 36 499q133 365 375 529t643 163q588 0 707 -345q72 -204 -33 -498q-135 -365 -377 -529t-641 -164z" />
    <glyph glyph-name="p" unicode="p" horiz-adv-x="1724" 
d="M870 387h-391l-141 -387h-393l536 1475h623q430 1 567 -175t35 -450t-293 -368t-543 -95zM1026 1208h-248l-203 -555h275q223 0 320 50t151 192q68 165 2 239t-297 74z" />
    <glyph glyph-name="q" unicode="q" horiz-adv-x="1943" 
d="M836 250q227 0 368 101t238 356q186 518 -330 518q-228 1 -368 -101t-234 -354q-192 -520 326 -520zM954 -512q-578 0 -403 502q-174 30 -287 106q-213 142 -198 429q6 134 63 288q133 365 375 529t643 163q588 0 707 -345q72 -204 -33 -498q-133 -354 -365 -520
t-610 -173q-49 -127 2 -179q52 -52 176 -52t221 18l-82 -248q-90 -20 -209 -20z" />
    <glyph glyph-name="r" unicode="r" horiz-adv-x="1798" 
d="M1147 1475q397 0 533 -154t36 -432q-61 -172 -186 -256t-318 -107l220 -526h-404l-172 469h-348l-170 -469h-393l536 1475h666zM1044 1208h-266l-172 -473h271q219 0 314 39t145 173t-9 198q-60 63 -283 63z" />
    <glyph glyph-name="s" unicode="s" horiz-adv-x="1593" 
d="M610 -31q-430 0 -719 121l95 275q270 -125 594 -125q184 0 278 36t127 119q35 82 1 132t-152 75l-248 47q-465 90 -324 488q127 369 739 368q336 0 650 -119l-92 -266q-266 117 -564 117q-165 0 -247 -32t-111 -105q-33 -74 -4 -115t137 -63l254 -50q168 -34 260 -108
t104 -178t-34 -236q-76 -209 -260 -295t-484 -86z" />
    <glyph glyph-name="t" unicode="t" horiz-adv-x="1527" 
d="M1667 1190h-524l-432 -1190h-394l433 1190h-523l99 285h1441z" />
    <glyph glyph-name="u" unicode="u" horiz-adv-x="1857" 
d="M784 256q113 0 188 24q74 24 148 102t127 220l316 873h393l-314 -869q-128 -360 -338 -498t-598 -138t-536 174q-147 175 -41 468l313 863h394l-318 -873q-68 -182 -2 -264t268 -82z" />
    <glyph glyph-name="v" unicode="v" horiz-adv-x="1783" 
d="M778 0h-450l-58 1475h387l37 -1239l875 1239h432l-993 -1334q-94 -141 -230 -141z" />
    <glyph glyph-name="w" unicode="w" horiz-adv-x="2811" 
d="M1903 0h-426l75 1233l-678 -1092q-72 -141 -235 -141h-385l37 1475h387l-51 -1248l757 1248h537l-86 -1246l778 1246h396l-869 -1334q-82 -141 -237 -141z" />
    <glyph glyph-name="x" unicode="x" horiz-adv-x="1814" 
d="M1087 0l-225 569l-626 -569h-461l866 770l-305 705h397l225 -572l629 572h455l-864 -768l303 -707h-394z" />
    <glyph glyph-name="y" unicode="y" horiz-adv-x="1777" 
d="M809 0h-393l217 596l-363 879h375l258 -598l692 598h453l-1038 -922z" />
    <glyph glyph-name="z" unicode="z" horiz-adv-x="1681" 
d="M1321 0h-1448l53 147q35 100 127 172l1176 881h-885l96 275h1391l-88 -250l-1276 -949h948z" />
    <glyph glyph-name="braceleft" unicode="{" horiz-adv-x="1056" 
d="M1054 1784q162 0 283 -43l-63 -207q-84 22 -174 22t-136 -34t-81 -131l-105 -279q-62 -174 -126 -238t-199 -83q180 -78 88 -336l-144 -379q-76 -166 111 -166q117 0 172 6l-76 -203q-86 -16 -256 -16q-170 -1 -233 109t6 307l162 432q29 79 7 109t-102 30h-92l86 248h66
q96 0 147 36t82 113l150 402q57 157 161 229t266 72z" />
    <glyph glyph-name="bar" unicode="|" horiz-adv-x="942" 
d="M709 1782h290l-761 -2089h-291z" />
    <glyph glyph-name="braceright" unicode="}" horiz-adv-x="1054" 
d="M6 -303q-166 0 -282 43l63 205q86 -21 174 -21t135 34t82 132l103 279q66 176 128 237t199 82q-182 80 -90 338l146 379q79 166 -113 166q-59 0 -170 -6l74 202q111 16 243 17q182 0 247 -111t-5 -305l-164 -432q-29 -80 -6 -111t102 -30h93l-88 -248h-66q-94 0 -146 -35
t-83 -113l-148 -401q-58 -162 -160 -232t-268 -69z" />
    <glyph glyph-name="asciitilde" unicode="~" horiz-adv-x="1595" 
d="M543 672q-100 0 -230 -135l-100 176q174 193 350 192q98 0 179 -41t150 -81t134 -40q102 0 238 134l100 -175q-180 -192 -336 -192t-270 81q-115 81 -215 81z" />
    <glyph glyph-name="exclamdown" unicode="&#xa1;" horiz-adv-x="798" 
d="M375 1001h254l-230 -763l-84 -238h-376l84 238zM477 1475h373l-105 -299h-372z" />
    <glyph glyph-name="cent" unicode="&#xa2;" horiz-adv-x="1701" 
d="M840 61h-19l-104 -286h-170l108 299q-307 47 -424 247t-3 514t347 446t568 132h2l96 266h170l-100 -276q184 -23 360 -88l-98 -283q-182 80 -365 90l-282 -772h22q236 0 438 56l-100 -291q-172 -54 -446 -54zM586 770q-62 -180 -20 -276t196 -127l274 751
q-339 -35 -450 -348z" />
    <glyph glyph-name="sterling" unicode="&#xa3;" 
d="M1380 276l-96 -276h-1384l82 231l110 29q207 49 264 211l13 35h-256l59 166h258l47 129h-256l60 166h256l22 61q87 244 273 364t483 120t495 -89l-98 -280q-158 70 -358 69q-328 0 -418 -245h522l-59 -166h-527l-49 -129h527l-60 -166h-530q-37 -94 -82 -146t-113 -84
h815z" />
    <glyph glyph-name="currency" unicode="&#xa4;" 
d="M786 473q123 0 200 55t128 195q100 289 -180 289q-123 0 -199 -56t-127 -196q-103 -287 178 -287zM970 1192q152 0 259 -51l252 186l116 -190l-227 -168q31 -117 -27 -280t-155 -257l82 -131l-205 -149l-100 161q-81 -23 -223 -23t-244 52l-254 -190l-119 190l229 170
q-36 120 20 272t134 240l-94 150l202 149l103 -164q99 33 251 33z" />
    <glyph glyph-name="yen" unicode="&#xa5;" horiz-adv-x="1697" 
d="M1370 506h-420l-182 -506h-393l182 506h-418l60 166h419l48 129h-418l61 166h330l-297 508h369l237 -394l492 394h442l-655 -508h313l-61 -166h-420l-47 -129h418z" />
    <glyph glyph-name="brokenbar" unicode="&#xa6;" horiz-adv-x="991" 
d="M246 516h291l-299 -823h-291zM999 1782l-299 -821h-290l299 821h290z" />
    <glyph glyph-name="section" unicode="&#xa7;" horiz-adv-x="1372" 
d="M449 -29q-262 0 -459 76l78 223q158 -72 395 -71q129 0 186 18t74 64q29 78 -74 100l-246 51q-172 33 -232 122t-15 206q31 84 87 130t158 81q-121 100 -53 284q88 248 574 248q258 0 460 -73l-79 -226q-68 30 -180 52q-111 22 -227 22t-173 -20t-74 -64q-33 -78 72 -100
l246 -52q174 -34 233 -122t14 -205q-31 -84 -86 -130t-157 -83q119 -98 51 -283q-88 -248 -573 -248zM799 578l6 -3q63 33 94 64t45 76q31 100 -96 125l-275 57l-6 2q-117 -55 -139 -139q-31 -100 96 -125z" />
    <glyph glyph-name="dieresis" unicode="&#xa8;" horiz-adv-x="1732" 
d="M1118 1622h-311l84 240h311zM1577 1622h-311l84 240h311z" />
    <glyph glyph-name="copyright" unicode="&#xa9;" horiz-adv-x="2113" 
d="M1090 469q160 0 286 33l-73 -213q-119 -33 -299 -33q-307 0 -422 147t-27 387t260 334q171 94 393 94t389 -61l-69 -207q-128 56 -282 56t-254 -58t-150 -203q-92 -276 248 -276zM913 121q356 0 558 120t320 427t-15 496t-570 190q-358 0 -560 -120t-317 -424t5 -488
q62 -96 208 -148t371 -53zM883 -41q-510 0 -706 245q-195 245 -53 627q142 381 401 533t714 152q254 0 435 -67t271 -184q89 -118 105 -280t-59 -352q-139 -369 -397 -521t-711 -153z" />
    <glyph glyph-name="ordfeminine" unicode="&#xaa;" horiz-adv-x="1169" 
d="M868 207h-893l64 188h893zM817 553l-2 182h-436l-127 -182h-289l608 825q66 96 166 97h316l26 -922h-262zM813 924l-4 426l-299 -426h303z" />
    <glyph glyph-name="guillemotleft" unicode="&#xab;" horiz-adv-x="1449" 
d="M1223 1262h311l-537 -537l160 -512h-280l-193 535zM649 1262h312l-537 -537l160 -512h-281l-192 535z" />
    <glyph glyph-name="logicalnot" unicode="&#xac;" horiz-adv-x="1697" 
d="M1227 147h-234l168 469h-942l84 244h1182z" />
    <glyph glyph-name="registered" unicode="&#xae;" horiz-adv-x="2113" 
d="M1253 1229q238 1 326 -105t25 -274q-41 -104 -117 -156t-199 -65l137 -322h-286l-101 279h-184l-102 -279h-287l336 922h452zM1174 1047h-152l-102 -279h155q119 0 171 25t80 101t-4 115q-32 38 -148 38zM913 121q356 0 558 120t320 427t-15 496t-570 190
q-358 0 -560 -120t-317 -424t5 -488q62 -96 208 -148t371 -53zM883 -41q-510 0 -706 245q-195 245 -53 627q142 381 401 533t714 152q254 0 435 -67t271 -184q89 -118 105 -280t-59 -352q-139 -369 -397 -521t-711 -153z" />
    <glyph glyph-name="macron" unicode="&#xaf;" horiz-adv-x="1732" 
d="M1665 1659h-926l64 188h926z" />
    <glyph glyph-name="degree" unicode="&#xb0;" horiz-adv-x="1329" 
d="M686 727q135 0 218 59t140 211q113 311 -192 312q-137 1 -220 -59t-138 -210q-115 -313 192 -313zM659 539q-317 0 -420 147q-103 148 -19 380t240 332q155 100 417 101q161 0 271 -41q110 -42 156 -114q101 -159 13 -375q-88 -229 -243 -329t-415 -101z" />
    <glyph glyph-name="plusminus" unicode="&#xb1;" 
d="M45 147l86 244h1182l-86 -244h-1182zM1460 788h-475l-108 -292h-234l109 292h-471l86 246h475l108 295h234l-109 -295h471z" />
    <glyph glyph-name="twosuperior" unicode="&#xb2;" horiz-adv-x="983" 
d="M666 1587q-133 0 -301 -45l67 189q164 41 322 41q248 0 344 -90t39 -244q-25 -64 -79 -116q-97 -94 -280 -175l-258 -129h516l-65 -189h-865l44 121q33 88 98 121l405 217q66 35 96 51q29 16 63 47t46 64q27 63 -16 100t-176 37z" />
    <glyph glyph-name="threesuperior" unicode="&#xb3;" horiz-adv-x="1030" 
d="M565 809q-238 0 -422 80l66 180q165 -76 321 -76q156 -1 221 19t87 72t-10 90t-128 36h-299l56 156l440 199h-512l66 184h858l-39 -107q-31 -94 -94 -120l-373 -174h10q193 0 263 -90t18 -228q-83 -221 -529 -221z" />
    <glyph glyph-name="acute" unicode="&#xb4;" horiz-adv-x="1730" 
d="M1176 1577h-349l404 330h407z" />
    <glyph glyph-name="paragraph" unicode="&#xb6;" horiz-adv-x="1472" 
d="M627 672q-573 0 -414 465q68 184 208 261t351 77h383l-537 -1475h-217l244 672h-18zM995 0h-217l537 1475h217z" />
    <glyph glyph-name="periodcentered" unicode="&#xb7;" horiz-adv-x="798" 
d="M537 590h-373l104 299h373z" />
    <glyph glyph-name="cedilla" unicode="&#xb8;" horiz-adv-x="1732" 
d="M513 -256q91 0 114 59q35 88 -92 215h237q78 -92 97 -160t-15 -165q-63 -145 -315 -146q-183 1 -289 60l55 176q117 -39 208 -39z" />
    <glyph glyph-name="onesuperior" unicode="&#xb9;" horiz-adv-x="724" 
d="M625 829h-281l254 695l-322 -133l74 213l357 147h251z" />
    <glyph glyph-name="ordmasculine" unicode="&#xba;" horiz-adv-x="1259" 
d="M893 207h-893l66 188h890zM647 715q135 0 218 59t141 211q113 311 -193 311q-137 0 -219 -59t-139 -211q-115 -311 192 -311zM623 524q-317 0 -421 148t-20 382q86 232 241 332t417 101q162 0 272 -42t154 -114q100 -160 12 -377q-86 -226 -240 -328t-415 -102z" />
    <glyph glyph-name="guillemotright" unicode="&#xbb;" horiz-adv-x="1449" 
d="M233 213h-311l537 537l-158 512h279l192 -535zM807 213h-311l536 537l-158 512h279l193 -535z" />
    <glyph glyph-name="onequarter" unicode="&#xbc;" horiz-adv-x="2308" 
d="M1860 922h344l-191 -525h148l-62 -174h-149l-80 -223h-266l82 223h-553l71 209l518 420q74 70 138 70zM1749 397l149 410l-481 -410h332zM524 553h-280l254 694l-322 -133l74 213l356 148h252zM1468 1475h291l-1112 -1473h-291z" />
    <glyph glyph-name="onehalf" unicode="&#xbd;" horiz-adv-x="2240" 
d="M1620 758q-133 0 -301 -45l67 188q164 41 322 41q248 0 344 -89t39 -245q-25 -63 -79 -115t-98 -78q-44 -25 -108 -59t-73 -39l-258 -129h516l-66 -188h-864l43 121q33 88 98 121l406 217q66 35 96 51t62 47q34 31 46 64q27 63 -16 100t-176 37zM524 553h-280l254 694
l-322 -133l74 213l356 148h252zM1403 1475h291l-1112 -1473h-291z" />
    <glyph glyph-name="threequarters" unicode="&#xbe;" horiz-adv-x="2613" 
d="M2167 922h344l-191 -525h148l-62 -174h-149l-80 -223h-266l82 223h-553l71 209l519 420q74 70 137 70zM713 1071q193 0 263 -89t20 -218q-48 -128 -179 -180t-361 -52t-413 80l66 181q165 -76 321 -76t220 19q64 20 86 72t-9 89t-127 37h-299l55 156l441 198h-512l65 185
h858l-39 -107q-31 -94 -94 -121l-373 -174h11zM2056 397l150 410l-482 -410h332zM1761 1475h291l-1112 -1473h-291z" />
    <glyph glyph-name="questiondown" unicode="&#xbf;" horiz-adv-x="1335" 
d="M718 223q222 0 449 64l-94 -271q-209 -55 -477 -55q-435 0 -543 233q-62 132 5 313t220 268t400 106l188 16l47 121h283l-119 -338l-260 -21q-184 -12 -274 -51q-90 -38 -130 -142t21 -174q62 -70 284 -69zM1012 1475h372l-106 -299h-371z" />
    <glyph glyph-name="Agrave" unicode="&#xc0;" horiz-adv-x="1783" 
d="M1020 1475h440l58 -1475h-371l-8 311h-719l-219 -311h-414l993 1333q50 76 106 109t134 33zM1133 586l-17 708l-502 -708h519zM1051 1577l-281 330h381l227 -330h-327z" />
    <glyph glyph-name="Aacute" unicode="&#xc1;" horiz-adv-x="1783" 
d="M1020 1475h440l58 -1475h-371l-8 311h-719l-219 -311h-414l993 1333q50 76 106 109t134 33zM1133 586l-17 708l-502 -708h519zM1368 1577h-348l403 330h408z" />
    <glyph glyph-name="Acircumflex" unicode="&#xc2;" horiz-adv-x="1783" 
d="M1020 1475h440l58 -1475h-371l-8 311h-719l-219 -311h-414l993 1333q50 76 106 109t134 33zM1133 586l-17 708l-502 -708h519zM1372 1577l-80 240l-235 -240h-322l330 330h481l119 -330h-293z" />
    <glyph glyph-name="Atilde" unicode="&#xc3;" horiz-adv-x="1783" 
d="M1020 1475h440l58 -1475h-371l-8 311h-719l-219 -311h-414l993 1333q50 76 106 109t134 33zM1133 586l-17 708l-502 -708h519zM1426 1749q42 0 66 30t58 128h236q-74 -213 -138 -280t-202 -66q-86 0 -159 44t-127 88t-95 44t-64 -30t-61 -130h-235q76 215 140 281
q65 66 199 65q86 0 159 -44t127 -87t96 -43z" />
    <glyph glyph-name="Adieresis" unicode="&#xc4;" horiz-adv-x="1783" 
d="M1020 1475h440l58 -1475h-371l-8 311h-719l-219 -311h-414l993 1333q50 76 106 109t134 33zM1133 586l-17 708l-502 -708h519zM1149 1622h-311l84 240h311zM1608 1622h-312l84 240h312z" />
    <glyph glyph-name="Aring" unicode="&#xc5;" horiz-adv-x="1783" 
d="M1020 1475h440l58 -1475h-371l-8 311h-719l-219 -311h-414l993 1333q50 76 106 109t134 33zM1133 586l-17 708l-502 -708h519zM1221 1663q109 0 135 72q16 45 -8 65q-25 20 -93 21q-111 0 -137 -72q-16 -47 8 -67q25 -19 95 -19zM1194 1556q-223 0 -301 52t-39 159
q59 160 424 160q223 0 301 -51t39 -158q-57 -162 -424 -162z" />
    <glyph glyph-name="AE" unicode="&#xc6;" horiz-adv-x="2764" 
d="M1440 1475h1487l-93 -267h-915l-123 -338h817l-94 -266h-821l-123 -338h909l-94 -266h-1305l144 393h-617l-409 -393h-469l1440 1333q70 76 126 109t140 33zM1329 668l230 632l-660 -632h430z" />
    <glyph glyph-name="Ccedilla" unicode="&#xc7;" horiz-adv-x="1667" 
d="M537 -453q-182 0 -289 60l55 176q117 -39 208 -39t114 59q33 80 -66 189q-325 62 -435 286t15 560q136 372 419 525q261 142 626 142q293 0 559 -98l-96 -285q-211 94 -459 94t-421 -102t-261 -354q-170 -500 416 -500q262 0 462 55l-102 -292q-180 -53 -471 -54h-2
q53 -74 63 -134t-20 -142q-63 -146 -315 -146z" />
    <glyph glyph-name="Egrave" unicode="&#xc8;" horiz-adv-x="1626" 
d="M-55 0l536 1475h1307l-94 -267h-916l-123 -338h818l-95 -266h-821l-123 -338h909l-92 -266h-1306zM1010 1577l-281 330h381l227 -330h-327z" />
    <glyph glyph-name="Eacute" unicode="&#xc9;" horiz-adv-x="1626" 
d="M-55 0l536 1475h1307l-94 -267h-916l-123 -338h818l-95 -266h-821l-123 -338h909l-92 -266h-1306zM1327 1577h-348l403 330h408z" />
    <glyph glyph-name="Ecircumflex" unicode="&#xca;" horiz-adv-x="1626" 
d="M-55 0l536 1475h1307l-94 -267h-916l-123 -338h818l-95 -266h-821l-123 -338h909l-92 -266h-1306zM1331 1577l-80 240l-235 -240h-322l330 330h481l119 -330h-293z" />
    <glyph glyph-name="Edieresis" unicode="&#xcb;" horiz-adv-x="1626" 
d="M-55 0l536 1475h1307l-94 -267h-916l-123 -338h818l-95 -266h-821l-123 -338h909l-92 -266h-1306zM1108 1622h-311l84 240h311zM1567 1622h-312l84 240h312z" />
    <glyph glyph-name="Igrave" unicode="&#xcc;" horiz-adv-x="815" 
d="M338 0h-393l536 1475h393zM561 1577l-280 330h381l227 -330h-328z" />
    <glyph glyph-name="Iacute" unicode="&#xcd;" horiz-adv-x="815" 
d="M338 0h-393l536 1475h393zM879 1577h-349l404 330h407z" />
    <glyph glyph-name="Icircumflex" unicode="&#xce;" horiz-adv-x="815" 
d="M338 0h-393l536 1475h393zM883 1577l-80 240l-236 -240h-321l329 330h482l119 -330h-293z" />
    <glyph glyph-name="Idieresis" unicode="&#xcf;" horiz-adv-x="815" 
d="M338 0h-393l536 1475h393zM659 1622h-311l84 240h311zM1118 1622h-311l84 240h311z" />
    <glyph glyph-name="Eth" unicode="&#xd0;" horiz-adv-x="1882" 
d="M1137 1475q533 0 650 -335q70 -201 -32 -481q-127 -347 -365 -503t-628 -156h-817l237 651h-209l66 189h211l231 635h656zM768 276q248 0 385 98t225 336q88 236 19 363q-70 127 -289 127h-334l-131 -360h338l-66 -189h-340l-137 -375h330z" />
    <glyph glyph-name="Ntilde" unicode="&#xd1;" horiz-adv-x="2068" 
d="M877 1475q156 0 170 -160l272 -1030l438 1190h352l-536 -1475h-559l-283 1180l-436 -1180h-350l536 1475h396zM1564 1749q42 0 66 30t58 128h235q-75 -213 -139 -280t-201 -66q-86 0 -159 44t-127 88t-95 44q-42 0 -64 -30t-61 -130h-235q76 215 140 281q65 66 200 65
q86 0 158 -44t127 -87t97 -43z" />
    <glyph glyph-name="Ograve" unicode="&#xd2;" horiz-adv-x="1943" 
d="M836 250q227 0 368 101t238 356q186 518 -330 518q-228 1 -368 -101t-234 -354q-192 -520 326 -520zM803 -31q-587 0 -710 345q-73 206 36 499q133 365 375 529t643 163q588 0 707 -345q72 -204 -33 -498q-135 -365 -377 -529t-641 -164zM1098 1577l-281 330h381
l227 -330h-327z" />
    <glyph glyph-name="Oacute" unicode="&#xd3;" horiz-adv-x="1943" 
d="M836 250q227 0 368 101t238 356q186 518 -330 518q-228 1 -368 -101t-234 -354q-192 -520 326 -520zM803 -31q-587 0 -710 345q-73 206 36 499q133 365 375 529t643 163q588 0 707 -345q72 -204 -33 -498q-135 -365 -377 -529t-641 -164zM1417 1577h-348l404 330h407z
" />
    <glyph glyph-name="Ocircumflex" unicode="&#xd4;" horiz-adv-x="1943" 
d="M836 250q227 0 368 101t238 356q186 518 -330 518q-228 1 -368 -101t-234 -354q-192 -520 326 -520zM803 -31q-587 0 -710 345q-73 206 36 499q133 365 375 529t643 163q588 0 707 -345q72 -204 -33 -498q-135 -365 -377 -529t-641 -164zM1419 1577l-80 240l-235 -240
h-322l330 330h481l119 -330h-293z" />
    <glyph glyph-name="Otilde" unicode="&#xd5;" horiz-adv-x="1943" 
d="M836 250q227 0 368 101t238 356q186 518 -330 518q-228 1 -368 -101t-234 -354q-192 -520 326 -520zM803 -31q-587 0 -710 345q-73 206 36 499q133 365 375 529t643 163q588 0 707 -345q72 -204 -33 -498q-135 -365 -377 -529t-641 -164zM1474 1749q42 0 66 30t57 128
h236q-75 -213 -139 -280t-201 -66q-86 0 -159 44t-127 88t-95 44q-42 0 -64 -30t-61 -130h-235q76 215 140 281q65 66 200 65q86 0 158 -44t127 -87t97 -43z" />
    <glyph glyph-name="Odieresis" unicode="&#xd6;" horiz-adv-x="1943" 
d="M836 250q227 0 368 101t238 356q186 518 -330 518q-228 1 -368 -101t-234 -354q-192 -520 326 -520zM803 -31q-587 0 -710 345q-73 206 36 499q133 365 375 529t643 163q588 0 707 -345q72 -204 -33 -498q-135 -365 -377 -529t-641 -164zM1196 1622h-311l84 240h311z
M1655 1622h-312l84 240h312z" />
    <glyph glyph-name="multiply" unicode="&#xd7;" horiz-adv-x="1697" 
d="M1073 152l-260 407l-561 -407l-119 190l559 408l-270 424l203 149l272 -426l592 430l117 -190l-588 -428l260 -408z" />
    <glyph glyph-name="Oslash" unicode="&#xd8;" horiz-adv-x="1943" 
d="M841 250q222 0 363 101t238 356q53 145 49 249l-965 -614q93 -92 315 -92zM1108 1225q-224 1 -364 -101t-234 -354q-53 -150 -51 -250l962 613q-90 92 -313 92zM798 -31q-404 0 -589 172l-221 -141l-101 158l213 135q-84 211 29 520q133 365 375 529t644 163
q402 0 593 -170l219 140l98 -158l-211 -135q86 -209 -26 -520q-135 -365 -377 -529t-646 -164z" />
    <glyph glyph-name="Ugrave" unicode="&#xd9;" horiz-adv-x="1857" 
d="M784 256q113 0 188 24q74 24 148 102t127 220l316 873h393l-314 -869q-128 -360 -338 -498t-598 -138t-536 174q-147 175 -41 468l313 863h394l-318 -873q-68 -182 -2 -264t268 -82zM1081 1577l-280 330h381l227 -330h-328z" />
    <glyph glyph-name="Uacute" unicode="&#xda;" horiz-adv-x="1857" 
d="M784 256q113 0 188 24q74 24 148 102t127 220l316 873h393l-314 -869q-128 -360 -338 -498t-598 -138t-536 174q-147 175 -41 468l313 863h394l-318 -873q-68 -182 -2 -264t268 -82zM1401 1577h-348l403 330h408z" />
    <glyph glyph-name="Ucircumflex" unicode="&#xdb;" horiz-adv-x="1857" 
d="M784 256q113 0 188 24q74 24 148 102t127 220l316 873h393l-314 -869q-128 -360 -338 -498t-598 -138t-536 174q-147 175 -41 468l313 863h394l-318 -873q-68 -182 -2 -264t268 -82zM1403 1577l-80 240l-236 -240h-321l330 330h481l119 -330h-293z" />
    <glyph glyph-name="Udieresis" unicode="&#xdc;" horiz-adv-x="1857" 
d="M784 256q113 0 188 24q74 24 148 102t127 220l316 873h393l-314 -869q-128 -360 -338 -498t-598 -138t-536 174q-147 175 -41 468l313 863h394l-318 -873q-68 -182 -2 -264t268 -82zM1182 1622h-312l84 240h312zM1640 1622h-311l84 240h311z" />
    <glyph glyph-name="Yacute" unicode="&#xdd;" horiz-adv-x="1777" 
d="M809 0h-393l217 596l-363 879h375l258 -598l692 598h453l-1038 -922zM1329 1577h-348l403 330h408z" />
    <glyph glyph-name="Thorn" unicode="&#xde;" horiz-adv-x="1724" 
d="M797 190h-389l-70 -190h-393l536 1475h393l-71 -195h227q220 0 366 -49t208 -135t69 -203q8 -117 -47 -254q-94 -257 -286 -353t-543 -96zM952 1014h-245l-203 -557h272q223 0 321 50q97 50 150 191q66 166 0 241t-295 75z" />
    <glyph glyph-name="germandbls" unicode="&#xdf;" horiz-adv-x="3188" 
d="M610 -31q-430 0 -719 121l95 275q270 -125 594 -125q184 0 278 36t127 119q35 82 1 132t-152 75l-248 47q-465 90 -324 488q127 369 739 368q336 0 650 -119l-92 -266q-266 117 -564 117q-165 0 -247 -32t-111 -105q-33 -74 -4 -115t137 -63l254 -50q168 -34 260 -108
t104 -178t-34 -236q-76 -209 -260 -295t-484 -86zM2204 -31q-430 0 -719 121l94 275q270 -125 594 -125q184 0 278 36t127 119q35 82 1 132t-152 75l-248 47q-465 90 -324 488q127 369 740 368q336 0 649 -119l-92 -266q-266 117 -563 117q-164 0 -247 -32t-112 -105
q-33 -74 -4 -115t137 -63l254 -50q168 -34 260 -108q91 -74 103 -178t-33 -236q-76 -209 -259 -295t-484 -86z" />
    <glyph glyph-name="agrave" unicode="&#xe0;" horiz-adv-x="1783" 
d="M1020 1475h440l58 -1475h-371l-8 311h-719l-219 -311h-414l993 1333q50 76 106 109t134 33zM1133 586l-17 708l-502 -708h519zM1051 1577l-281 330h381l227 -330h-327z" />
    <glyph glyph-name="aacute" unicode="&#xe1;" horiz-adv-x="1783" 
d="M1020 1475h440l58 -1475h-371l-8 311h-719l-219 -311h-414l993 1333q50 76 106 109t134 33zM1133 586l-17 708l-502 -708h519zM1368 1577h-348l403 330h408z" />
    <glyph glyph-name="acircumflex" unicode="&#xe2;" horiz-adv-x="1783" 
d="M1020 1475h440l58 -1475h-371l-8 311h-719l-219 -311h-414l993 1333q50 76 106 109t134 33zM1133 586l-17 708l-502 -708h519zM1372 1577l-80 240l-235 -240h-322l330 330h481l119 -330h-293z" />
    <glyph glyph-name="atilde" unicode="&#xe3;" horiz-adv-x="1783" 
d="M1020 1475h440l58 -1475h-371l-8 311h-719l-219 -311h-414l993 1333q50 76 106 109t134 33zM1133 586l-17 708l-502 -708h519zM1426 1749q42 0 66 30t58 128h236q-74 -213 -138 -280t-202 -66q-86 0 -159 44t-127 88t-95 44t-64 -30t-61 -130h-235q76 215 140 281
q65 66 199 65q86 0 159 -44t127 -87t96 -43z" />
    <glyph glyph-name="adieresis" unicode="&#xe4;" horiz-adv-x="1783" 
d="M1020 1475h440l58 -1475h-371l-8 311h-719l-219 -311h-414l993 1333q50 76 106 109t134 33zM1133 586l-17 708l-502 -708h519zM1149 1622h-311l84 240h311zM1608 1622h-312l84 240h312z" />
    <glyph glyph-name="aring" unicode="&#xe5;" horiz-adv-x="1783" 
d="M1020 1475h440l58 -1475h-371l-8 311h-719l-219 -311h-414l993 1333q50 76 106 109t134 33zM1133 586l-17 708l-502 -708h519zM1221 1663q109 0 135 72q16 45 -8 65q-25 20 -93 21q-111 0 -137 -72q-16 -47 8 -67q25 -19 95 -19zM1194 1556q-223 0 -301 52t-39 159
q59 160 424 160q223 0 301 -51t39 -158q-57 -162 -424 -162z" />
    <glyph glyph-name="ae" unicode="&#xe6;" horiz-adv-x="2764" 
d="M1440 1475h1487l-93 -267h-915l-123 -338h817l-94 -266h-821l-123 -338h909l-94 -266h-1305l144 393h-617l-409 -393h-469l1440 1333q70 76 126 109t140 33zM1329 668l230 632l-660 -632h430z" />
    <glyph glyph-name="ccedilla" unicode="&#xe7;" horiz-adv-x="1667" 
d="M537 -453q-182 0 -289 60l55 176q117 -39 208 -39t114 59q33 80 -66 189q-325 62 -435 286t15 560q136 372 419 525q261 142 626 142q293 0 559 -98l-96 -285q-211 94 -459 94t-421 -102t-261 -354q-170 -500 416 -500q262 0 462 55l-102 -292q-180 -53 -471 -54h-2
q53 -74 63 -134t-20 -142q-63 -146 -315 -146z" />
    <glyph glyph-name="egrave" unicode="&#xe8;" horiz-adv-x="1626" 
d="M-55 0l536 1475h1307l-94 -267h-916l-123 -338h818l-95 -266h-821l-123 -338h909l-92 -266h-1306zM1010 1577l-281 330h381l227 -330h-327z" />
    <glyph glyph-name="eacute" unicode="&#xe9;" horiz-adv-x="1626" 
d="M-55 0l536 1475h1307l-94 -267h-916l-123 -338h818l-95 -266h-821l-123 -338h909l-92 -266h-1306zM1327 1577h-348l403 330h408z" />
    <glyph glyph-name="ecircumflex" unicode="&#xea;" horiz-adv-x="1626" 
d="M-55 0l536 1475h1307l-94 -267h-916l-123 -338h818l-95 -266h-821l-123 -338h909l-92 -266h-1306zM1331 1577l-80 240l-235 -240h-322l330 330h481l119 -330h-293z" />
    <glyph glyph-name="edieresis" unicode="&#xeb;" horiz-adv-x="1626" 
d="M-55 0l536 1475h1307l-94 -267h-916l-123 -338h818l-95 -266h-821l-123 -338h909l-92 -266h-1306zM1108 1622h-311l84 240h311zM1567 1622h-312l84 240h312z" />
    <glyph glyph-name="igrave" unicode="&#xec;" horiz-adv-x="815" 
d="M338 0h-393l536 1475h393zM561 1577l-280 330h381l227 -330h-328z" />
    <glyph glyph-name="iacute" unicode="&#xed;" horiz-adv-x="815" 
d="M338 0h-393l536 1475h393zM879 1577h-349l404 330h407z" />
    <glyph glyph-name="icircumflex" unicode="&#xee;" horiz-adv-x="815" 
d="M338 0h-393l536 1475h393zM883 1577l-80 240l-236 -240h-321l329 330h482l119 -330h-293z" />
    <glyph glyph-name="idieresis" unicode="&#xef;" horiz-adv-x="815" 
d="M338 0h-393l536 1475h393zM659 1622h-311l84 240h311zM1118 1622h-311l84 240h311z" />
    <glyph glyph-name="eth" unicode="&#xf0;" horiz-adv-x="1882" 
d="M1137 1475q533 0 650 -335q70 -201 -32 -481q-127 -347 -365 -503t-628 -156h-817l237 651h-209l66 189h211l231 635h656zM768 276q248 0 385 98t225 336q88 236 19 363q-70 127 -289 127h-334l-131 -360h338l-66 -189h-340l-137 -375h330z" />
    <glyph glyph-name="ntilde" unicode="&#xf1;" horiz-adv-x="2068" 
d="M877 1475q156 0 170 -160l272 -1030l438 1190h352l-536 -1475h-559l-283 1180l-436 -1180h-350l536 1475h396zM1564 1749q42 0 66 30t58 128h235q-75 -213 -139 -280t-201 -66q-86 0 -159 44t-127 88t-95 44q-42 0 -64 -30t-61 -130h-235q76 215 140 281q65 66 200 65
q86 0 158 -44t127 -87t97 -43z" />
    <glyph glyph-name="ograve" unicode="&#xf2;" horiz-adv-x="1943" 
d="M836 250q227 0 368 101t238 356q186 518 -330 518q-228 1 -368 -101t-234 -354q-192 -520 326 -520zM803 -31q-587 0 -710 345q-73 206 36 499q133 365 375 529t643 163q588 0 707 -345q72 -204 -33 -498q-135 -365 -377 -529t-641 -164zM1098 1577l-281 330h381
l227 -330h-327z" />
    <glyph glyph-name="oacute" unicode="&#xf3;" horiz-adv-x="1943" 
d="M836 250q227 0 368 101t238 356q186 518 -330 518q-228 1 -368 -101t-234 -354q-192 -520 326 -520zM803 -31q-587 0 -710 345q-73 206 36 499q133 365 375 529t643 163q588 0 707 -345q72 -204 -33 -498q-135 -365 -377 -529t-641 -164zM1417 1577h-348l404 330h407z
" />
    <glyph glyph-name="ocircumflex" unicode="&#xf4;" horiz-adv-x="1943" 
d="M836 250q227 0 368 101t238 356q186 518 -330 518q-228 1 -368 -101t-234 -354q-192 -520 326 -520zM803 -31q-587 0 -710 345q-73 206 36 499q133 365 375 529t643 163q588 0 707 -345q72 -204 -33 -498q-135 -365 -377 -529t-641 -164zM1419 1577l-80 240l-235 -240
h-322l330 330h481l119 -330h-293z" />
    <glyph glyph-name="otilde" unicode="&#xf5;" horiz-adv-x="1943" 
d="M836 250q227 0 368 101t238 356q186 518 -330 518q-228 1 -368 -101t-234 -354q-192 -520 326 -520zM803 -31q-587 0 -710 345q-73 206 36 499q133 365 375 529t643 163q588 0 707 -345q72 -204 -33 -498q-135 -365 -377 -529t-641 -164zM1474 1749q42 0 66 30t57 128
h236q-75 -213 -139 -280t-201 -66q-86 0 -159 44t-127 88t-95 44q-42 0 -64 -30t-61 -130h-235q76 215 140 281q65 66 200 65q86 0 158 -44t127 -87t97 -43z" />
    <glyph glyph-name="odieresis" unicode="&#xf6;" horiz-adv-x="1943" 
d="M836 250q227 0 368 101t238 356q186 518 -330 518q-228 1 -368 -101t-234 -354q-192 -520 326 -520zM803 -31q-587 0 -710 345q-73 206 36 499q133 365 375 529t643 163q588 0 707 -345q72 -204 -33 -498q-135 -365 -377 -529t-641 -164zM1196 1622h-311l84 240h311z
M1655 1622h-312l84 240h312z" />
    <glyph glyph-name="divide" unicode="&#xf7;" horiz-adv-x="1697" 
d="M590 381h258l-82 -234h-258zM219 616l84 244h1182l-86 -244h-1180zM938 1329h258l-82 -233h-260z" />
    <glyph glyph-name="oslash" unicode="&#xf8;" horiz-adv-x="1943" 
d="M841 250q222 0 363 101t238 356q53 145 49 249l-965 -614q93 -92 315 -92zM1108 1225q-224 1 -364 -101t-234 -354q-53 -150 -51 -250l962 613q-90 92 -313 92zM798 -31q-404 0 -589 172l-221 -141l-101 158l213 135q-84 211 29 520q133 365 375 529t644 163
q402 0 593 -170l219 140l98 -158l-211 -135q86 -209 -26 -520q-135 -365 -377 -529t-646 -164z" />
    <glyph glyph-name="ugrave" unicode="&#xf9;" horiz-adv-x="1857" 
d="M784 256q113 0 188 24q74 24 148 102t127 220l316 873h393l-314 -869q-128 -360 -338 -498t-598 -138t-536 174q-147 175 -41 468l313 863h394l-318 -873q-68 -182 -2 -264t268 -82zM1081 1577l-280 330h381l227 -330h-328z" />
    <glyph glyph-name="uacute" unicode="&#xfa;" horiz-adv-x="1857" 
d="M784 256q113 0 188 24q74 24 148 102t127 220l316 873h393l-314 -869q-128 -360 -338 -498t-598 -138t-536 174q-147 175 -41 468l313 863h394l-318 -873q-68 -182 -2 -264t268 -82zM1401 1577h-348l403 330h408z" />
    <glyph glyph-name="ucircumflex" unicode="&#xfb;" horiz-adv-x="1857" 
d="M784 256q113 0 188 24q74 24 148 102t127 220l316 873h393l-314 -869q-128 -360 -338 -498t-598 -138t-536 174q-147 175 -41 468l313 863h394l-318 -873q-68 -182 -2 -264t268 -82zM1403 1577l-80 240l-236 -240h-321l330 330h481l119 -330h-293z" />
    <glyph glyph-name="udieresis" unicode="&#xfc;" horiz-adv-x="1857" 
d="M784 256q113 0 188 24q74 24 148 102t127 220l316 873h393l-314 -869q-128 -360 -338 -498t-598 -138t-536 174q-147 175 -41 468l313 863h394l-318 -873q-68 -182 -2 -264t268 -82zM1182 1622h-312l84 240h312zM1640 1622h-311l84 240h311z" />
    <glyph glyph-name="yacute" unicode="&#xfd;" horiz-adv-x="1777" 
d="M809 0h-393l217 596l-363 879h375l258 -598l692 598h453l-1038 -922zM1329 1577h-348l403 330h408z" />
    <glyph glyph-name="thorn" unicode="&#xfe;" horiz-adv-x="1724" 
d="M797 190h-389l-70 -190h-393l536 1475h393l-71 -195h227q220 0 366 -49t208 -135t69 -203q8 -117 -47 -254q-94 -257 -286 -353t-543 -96zM952 1014h-245l-203 -557h272q223 0 321 50q97 50 150 191q66 166 0 241t-295 75z" />
    <glyph glyph-name="ydieresis" unicode="&#xff;" horiz-adv-x="1777" 
d="M809 0h-393l217 596l-363 879h375l258 -598l692 598h453l-1038 -922zM1110 1622h-311l84 240h311zM1569 1622h-312l84 240h312z" />
    <glyph glyph-name="Amacron" unicode="&#x100;" horiz-adv-x="1783" 
d="M1020 1475h440l58 -1475h-371l-8 311h-719l-219 -311h-414l993 1333q50 76 106 109t134 33zM1133 586l-17 708l-502 -708h519zM1696 1659h-926l64 188h925z" />
    <glyph glyph-name="amacron" unicode="&#x101;" horiz-adv-x="1783" 
d="M1020 1475h440l58 -1475h-371l-8 311h-719l-219 -311h-414l993 1333q50 76 106 109t134 33zM1133 586l-17 708l-502 -708h519zM1696 1659h-926l64 188h925z" />
    <glyph glyph-name="Abreve" unicode="&#x102;" horiz-adv-x="1783" 
d="M1020 1475h440l58 -1475h-371l-8 311h-719l-219 -311h-414l993 1333q50 76 106 109t134 33zM1133 586l-17 708l-502 -708h519zM1255 1714q143 0 218 193h266q-70 -195 -192 -273q-123 -78 -329 -78t-284 88t-16 263h266q-72 -193 71 -193z" />
    <glyph glyph-name="abreve" unicode="&#x103;" horiz-adv-x="1783" 
d="M1020 1475h440l58 -1475h-371l-8 311h-719l-219 -311h-414l993 1333q50 76 106 109t134 33zM1133 586l-17 708l-502 -708h519zM1255 1714q143 0 218 193h266q-70 -195 -192 -273q-123 -78 -329 -78t-284 88t-16 263h266q-72 -193 71 -193z" />
    <glyph glyph-name="Aogonek" unicode="&#x104;" horiz-adv-x="1783" 
d="M1233 -453q-182 0 -259 70t-36 182q41 121 209 205l-8 307h-719l-219 -311h-414l993 1333q50 76 106 109t134 33h440l58 -1475h-127q-133 -88 -154 -162q-15 -55 13 -81q28 -25 106 -25t164 20l-62 -172q-106 -33 -225 -33zM1133 586l-17 708l-502 -708h519z" />
    <glyph glyph-name="aogonek" unicode="&#x105;" horiz-adv-x="1783" 
d="M1233 -453q-182 0 -259 70t-36 182q41 121 209 205l-8 307h-719l-219 -311h-414l993 1333q50 76 106 109t134 33h440l58 -1475h-127q-133 -88 -154 -162q-15 -55 13 -81q28 -25 106 -25t164 20l-62 -172q-106 -33 -225 -33zM1133 586l-17 708l-502 -708h519z" />
    <glyph glyph-name="Cacute" unicode="&#x106;" horiz-adv-x="1667" 
d="M922 260q262 0 462 55l-102 -292q-180 -53 -471 -54q-461 1 -640 235t-37 620t424 539q261 142 626 142q293 0 559 -98l-96 -285q-211 94 -459 94t-421 -102t-261 -354q-170 -500 416 -500zM1362 1577h-348l403 330h408z" />
    <glyph glyph-name="cacute" unicode="&#x107;" horiz-adv-x="1667" 
d="M922 260q262 0 462 55l-102 -292q-180 -53 -471 -54q-461 1 -640 235t-37 620t424 539q261 142 626 142q293 0 559 -98l-96 -285q-211 94 -459 94t-421 -102t-261 -354q-170 -500 416 -500zM1362 1577h-348l403 330h408z" />
    <glyph glyph-name="Ccircumflex" unicode="&#x108;" horiz-adv-x="1667" 
d="M922 260q262 0 462 55l-102 -292q-180 -53 -471 -54q-461 1 -640 235t-37 620t424 539q261 142 626 142q293 0 559 -98l-96 -285q-211 94 -459 94t-421 -102t-261 -354q-170 -500 416 -500zM1366 1577l-80 240l-235 -240h-322l330 330h481l119 -330h-293z" />
    <glyph glyph-name="ccircumflex" unicode="&#x109;" horiz-adv-x="1667" 
d="M922 260q262 0 462 55l-102 -292q-180 -53 -471 -54q-461 1 -640 235t-37 620t424 539q261 142 626 142q293 0 559 -98l-96 -285q-211 94 -459 94t-421 -102t-261 -354q-170 -500 416 -500zM1366 1577l-80 240l-235 -240h-322l330 330h481l119 -330h-293z" />
    <glyph glyph-name="Cdotaccent" unicode="&#x10a;" horiz-adv-x="1667" 
d="M922 260q262 0 462 55l-102 -292q-180 -53 -471 -54q-461 1 -640 235t-37 620t424 539q261 142 626 142q293 0 559 -98l-96 -285q-211 94 -459 94t-421 -102t-261 -354q-170 -500 416 -500zM1432 1622h-394l84 240h394z" />
    <glyph glyph-name="cdotaccent" unicode="&#x10b;" horiz-adv-x="1667" 
d="M922 260q262 0 462 55l-102 -292q-180 -53 -471 -54q-461 1 -640 235t-37 620t424 539q261 142 626 142q293 0 559 -98l-96 -285q-211 94 -459 94t-421 -102t-261 -354q-170 -500 416 -500zM1432 1622h-394l84 240h394z" />
    <glyph glyph-name="Ccaron" unicode="&#x10c;" horiz-adv-x="1667" 
d="M922 260q262 0 462 55l-102 -292q-180 -53 -471 -54q-461 1 -640 235t-37 620t424 539q261 142 626 142q293 0 559 -98l-96 -285q-211 94 -459 94t-421 -102t-261 -354q-170 -500 416 -500zM973 1577l-119 330h295l80 -238l233 238h322l-330 -330h-481z" />
    <glyph glyph-name="ccaron" unicode="&#x10d;" horiz-adv-x="1667" 
d="M922 260q262 0 462 55l-102 -292q-180 -53 -471 -54q-461 1 -640 235t-37 620t424 539q261 142 626 142q293 0 559 -98l-96 -285q-211 94 -459 94t-421 -102t-261 -354q-170 -500 416 -500zM973 1577l-119 330h295l80 -238l233 238h322l-330 -330h-481z" />
    <glyph glyph-name="Dcaron" unicode="&#x10e;" horiz-adv-x="1882" 
d="M1137 1475q533 0 650 -335q70 -201 -32 -481q-127 -347 -365 -503t-628 -156h-817l536 1475h656zM1108 1200h-334l-336 -924h330q248 0 385 98t225 336q88 236 19 363q-70 127 -289 127zM969 1577l-119 330h295l80 -238l233 238h322l-330 -330h-481z" />
    <glyph glyph-name="dcaron" unicode="&#x10f;" horiz-adv-x="1882" 
d="M1137 1475q533 0 650 -335q70 -201 -32 -481q-127 -347 -365 -503t-628 -156h-817l536 1475h656zM1108 1200h-334l-336 -924h330q248 0 385 98t225 336q88 236 19 363q-70 127 -289 127zM969 1577l-119 330h295l80 -238l233 238h322l-330 -330h-481z" />
    <glyph glyph-name="Dcroat" unicode="&#x110;" horiz-adv-x="1882" 
d="M1137 1475q533 0 650 -335q70 -201 -32 -481q-127 -347 -365 -503t-628 -156h-817l237 651h-209l66 189h211l231 635h656zM768 276q248 0 385 98t225 336q88 236 19 363q-70 127 -289 127h-334l-131 -360h338l-66 -189h-340l-137 -375h330z" />
    <glyph glyph-name="dcroat" unicode="&#x111;" horiz-adv-x="1882" 
d="M1137 1475q533 0 650 -335q70 -201 -32 -481q-127 -347 -365 -503t-628 -156h-817l237 651h-209l66 189h211l231 635h656zM768 276q248 0 385 98t225 336q88 236 19 363q-70 127 -289 127h-334l-131 -360h338l-66 -189h-340l-137 -375h330z" />
    <glyph glyph-name="Emacron" unicode="&#x112;" horiz-adv-x="1626" 
d="M-55 0l536 1475h1307l-94 -267h-916l-123 -338h818l-95 -266h-821l-123 -338h909l-92 -266h-1306zM1655 1659h-926l64 188h925z" />
    <glyph glyph-name="emacron" unicode="&#x113;" horiz-adv-x="1626" 
d="M-55 0l536 1475h1307l-94 -267h-916l-123 -338h818l-95 -266h-821l-123 -338h909l-92 -266h-1306zM1655 1659h-926l64 188h925z" />
    <glyph glyph-name="Ebreve" unicode="&#x114;" horiz-adv-x="1626" 
d="M-55 0l536 1475h1307l-94 -267h-916l-123 -338h818l-95 -266h-821l-123 -338h909l-92 -266h-1306zM1214 1714q144 0 218 193h266q-70 -195 -192 -273t-328 -78t-285 88q-78 88 -16 263h266q-73 -193 71 -193z" />
    <glyph glyph-name="ebreve" unicode="&#x115;" horiz-adv-x="1626" 
d="M-55 0l536 1475h1307l-94 -267h-916l-123 -338h818l-95 -266h-821l-123 -338h909l-92 -266h-1306zM1214 1714q144 0 218 193h266q-70 -195 -192 -273t-328 -78t-285 88q-78 88 -16 263h266q-73 -193 71 -193z" />
    <glyph glyph-name="Edotaccent" unicode="&#x116;" horiz-adv-x="1626" 
d="M-55 0l536 1475h1307l-94 -267h-916l-123 -338h818l-95 -266h-821l-123 -338h909l-92 -266h-1306zM1378 1622h-393l84 240h393z" />
    <glyph glyph-name="edotaccent" unicode="&#x117;" horiz-adv-x="1626" 
d="M-55 0l536 1475h1307l-94 -267h-916l-123 -338h818l-95 -266h-821l-123 -338h909l-92 -266h-1306zM1378 1622h-393l84 240h393z" />
    <glyph glyph-name="Eogonek" unicode="&#x118;" horiz-adv-x="1626" 
d="M881 -453q-182 0 -259 70q-77 69 -36 183t200 200h-841l536 1475h1307l-94 -267h-916l-123 -338h818l-95 -266h-821l-123 -338h909l-92 -266h-213q-133 -88 -153 -162q-15 -55 13 -81q28 -25 106 -25t163 20l-61 -172q-106 -33 -225 -33z" />
    <glyph glyph-name="eogonek" unicode="&#x119;" horiz-adv-x="1626" 
d="M881 -453q-182 0 -259 70q-77 69 -36 183t200 200h-841l536 1475h1307l-94 -267h-916l-123 -338h818l-95 -266h-821l-123 -338h909l-92 -266h-213q-133 -88 -153 -162q-15 -55 13 -81q28 -25 106 -25t163 20l-61 -172q-106 -33 -225 -33z" />
    <glyph glyph-name="Ecaron" unicode="&#x11a;" horiz-adv-x="1626" 
d="M-55 0l536 1475h1307l-94 -267h-916l-123 -338h818l-95 -266h-821l-123 -338h909l-92 -266h-1306zM936 1577l-119 330h295l80 -238l233 238h322l-330 -330h-481z" />
    <glyph glyph-name="ecaron" unicode="&#x11b;" horiz-adv-x="1626" 
d="M-55 0l536 1475h1307l-94 -267h-916l-123 -338h818l-95 -266h-821l-123 -338h909l-92 -266h-1306zM936 1577l-119 330h295l80 -238l233 238h322l-330 -330h-481z" />
    <glyph glyph-name="Gcircumflex" unicode="&#x11c;" horiz-adv-x="1796" 
d="M926 250q76 0 172 10l145 408h375l-227 -637q-217 -61 -551 -62q-480 -1 -664 233t-43 621t434 542q267 142 641 140q299 0 576 -106l-96 -283q-223 100 -482 101q-543 0 -700 -457q-176 -510 420 -510zM1393 1577l-80 240l-236 -240h-321l329 330h482l119 -330h-293z
" />
    <glyph glyph-name="gcircumflex" unicode="&#x11d;" horiz-adv-x="1796" 
d="M926 250q76 0 172 10l145 408h375l-227 -637q-217 -61 -551 -62q-480 -1 -664 233t-43 621t434 542q267 142 641 140q299 0 576 -106l-96 -283q-223 100 -482 101q-543 0 -700 -457q-176 -510 420 -510zM1393 1577l-80 240l-236 -240h-321l329 330h482l119 -330h-293z
" />
    <glyph glyph-name="Gbreve" unicode="&#x11e;" horiz-adv-x="1796" 
d="M926 250q76 0 172 10l145 408h375l-227 -637q-217 -61 -551 -62q-480 -1 -664 233t-43 621t434 542q267 142 641 140q299 0 576 -106l-96 -283q-223 100 -482 101q-543 0 -700 -457q-176 -510 420 -510zM1276 1714q144 0 217 193h266q-69 -195 -191 -273t-329 -78
t-285 88t-16 263h266q-72 -193 72 -193z" />
    <glyph glyph-name="gbreve" unicode="&#x11f;" horiz-adv-x="1796" 
d="M926 250q76 0 172 10l145 408h375l-227 -637q-217 -61 -551 -62q-480 -1 -664 233t-43 621t434 542q267 142 641 140q299 0 576 -106l-96 -283q-223 100 -482 101q-543 0 -700 -457q-176 -510 420 -510zM1276 1714q144 0 217 193h266q-69 -195 -191 -273t-329 -78
t-285 88t-16 263h266q-72 -193 72 -193z" />
    <glyph glyph-name="Gdotaccent" unicode="&#x120;" horiz-adv-x="1796" 
d="M926 250q76 0 172 10l145 408h375l-227 -637q-217 -61 -551 -62q-480 -1 -664 233t-43 621t434 542q267 142 641 140q299 0 576 -106l-96 -283q-223 100 -482 101q-543 0 -700 -457q-176 -510 420 -510zM1440 1622h-393l83 240h394z" />
    <glyph glyph-name="gdotaccent" unicode="&#x121;" horiz-adv-x="1796" 
d="M926 250q76 0 172 10l145 408h375l-227 -637q-217 -61 -551 -62q-480 -1 -664 233t-43 621t434 542q267 142 641 140q299 0 576 -106l-96 -283q-223 100 -482 101q-543 0 -700 -457q-176 -510 420 -510zM1440 1622h-393l83 240h394z" />
    <glyph glyph-name="Gcommaaccent" unicode="&#x122;" horiz-adv-x="1796" 
d="M575 -432h-342l383 330h406zM926 250q76 0 172 10l145 408h375l-227 -637q-217 -61 -551 -62q-480 -1 -664 233t-43 621t434 542q267 142 641 140q299 0 576 -106l-96 -283q-223 100 -482 101q-543 0 -700 -457q-176 -510 420 -510z" />
    <glyph glyph-name="gcommaaccent" unicode="&#x123;" horiz-adv-x="1796" 
d="M575 -432h-342l383 330h406zM926 250q76 0 172 10l145 408h375l-227 -637q-217 -61 -551 -62q-480 -1 -664 233t-43 621t434 542q267 142 641 140q299 0 576 -106l-96 -283q-223 100 -482 101q-543 0 -700 -457q-176 -510 420 -510z" />
    <glyph glyph-name="Hcircumflex" unicode="&#x124;" horiz-adv-x="1935" 
d="M1065 0l217 596h-727l-217 -596h-393l536 1475h393l-217 -594h727l218 594h393l-537 -1475h-393zM1444 1577l-80 240l-236 -240h-321l330 330h481l119 -330h-293z" />
    <glyph glyph-name="hcircumflex" unicode="&#x125;" horiz-adv-x="1935" 
d="M1065 0l217 596h-727l-217 -596h-393l536 1475h393l-217 -594h727l218 594h393l-537 -1475h-393zM1444 1577l-80 240l-236 -240h-321l330 330h481l119 -330h-293z" />
    <glyph glyph-name="Hbar" unicode="&#x126;" horiz-adv-x="1935" 
d="M1065 0l217 596h-727l-217 -596h-393l407 1120h-209l66 189h213l59 166h393l-59 -166h727l60 166h393l-60 -166h209l-67 -189h-211l-408 -1120h-393zM1384 881l89 239h-728l-88 -239h727z" />
    <glyph glyph-name="hbar" unicode="&#x127;" horiz-adv-x="1935" 
d="M1065 0l217 596h-727l-217 -596h-393l407 1120h-209l66 189h213l59 166h393l-59 -166h727l60 166h393l-60 -166h209l-67 -189h-211l-408 -1120h-393zM1384 881l89 239h-728l-88 -239h727z" />
    <glyph glyph-name="Itilde" unicode="&#x128;" horiz-adv-x="815" 
d="M338 0h-393l536 1475h393zM937 1749q41 0 65 30t59 128h235q-74 -213 -138 -280t-202 -66q-86 0 -158 44t-127 88q-53 44 -95 44t-64 -30t-61 -130h-236q76 215 140 281q65 66 200 65q86 0 159 -44t127 -87t96 -43z" />
    <glyph glyph-name="itilde" unicode="&#x129;" horiz-adv-x="815" 
d="M338 0h-393l536 1475h393zM937 1749q41 0 65 30t59 128h235q-74 -213 -138 -280t-202 -66q-86 0 -158 44t-127 88q-53 44 -95 44t-64 -30t-61 -130h-236q76 215 140 281q65 66 200 65q86 0 159 -44t127 -87t96 -43z" />
    <glyph glyph-name="Imacron" unicode="&#x12a;" horiz-adv-x="815" 
d="M338 0h-393l536 1475h393zM1206 1659h-925l63 188h926z" />
    <glyph glyph-name="imacron" unicode="&#x12b;" horiz-adv-x="815" 
d="M338 0h-393l536 1475h393zM1206 1659h-925l63 188h926z" />
    <glyph glyph-name="Ibreve" unicode="&#x12c;" horiz-adv-x="815" 
d="M338 0h-393l536 1475h393zM766 1714q144 0 217 193h266q-69 -195 -191 -273t-329 -78t-285 88t-16 263h266q-72 -193 72 -193z" />
    <glyph glyph-name="ibreve" unicode="&#x12d;" horiz-adv-x="815" 
d="M338 0h-393l536 1475h393zM766 1714q144 0 217 193h266q-69 -195 -191 -273t-329 -78t-285 88t-16 263h266q-72 -193 72 -193z" />
    <glyph glyph-name="Iogonek" unicode="&#x12e;" horiz-adv-x="815" 
d="M106 -453q-182 0 -259 70t-35 182q41 115 200 201h-67l536 1475h393l-536 -1475h-74q-133 -88 -153 -162q-15 -55 13 -81q28 -25 106 -25t163 20l-61 -172q-106 -33 -226 -33z" />
    <glyph glyph-name="iogonek" unicode="&#x12f;" horiz-adv-x="815" 
d="M106 -453q-182 0 -259 70t-35 182q41 115 200 201h-67l536 1475h393l-536 -1475h-74q-133 -88 -153 -162q-15 -55 13 -81q28 -25 106 -25t163 20l-61 -172q-106 -33 -226 -33z" />
    <glyph glyph-name="Idotaccent" unicode="&#x130;" horiz-adv-x="815" 
d="M338 0h-393l536 1475h393zM930 1622h-393l84 240h393z" />
    <glyph glyph-name="dotlessi" unicode="&#x131;" horiz-adv-x="815" 
d="M338 0h-393l536 1475h393z" />
    <glyph glyph-name="IJ" unicode="&#x132;" horiz-adv-x="2076" 
d="M1055 268q252 0 348 248l350 959h393l-372 -1031q-94 -264 -252 -369t-432 -105t-478 87l99 281q162 -70 344 -70zM338 0h-393l536 1475h393z" />
    <glyph glyph-name="ij" unicode="&#x133;" horiz-adv-x="2076" 
d="M1055 268q252 0 348 248l350 959h393l-372 -1031q-94 -264 -252 -369t-432 -105t-478 87l99 281q162 -70 344 -70zM338 0h-393l536 1475h393z" />
    <glyph glyph-name="Jcircumflex" unicode="&#x134;" horiz-adv-x="1261" 
d="M240 268q252 0 348 248l350 959h393l-373 -1031q-94 -264 -252 -369t-432 -105t-477 87l99 281q162 -70 344 -70zM1339 1577l-79 240l-236 -240h-322l330 330h481l119 -330h-293z" />
    <glyph glyph-name="jcircumflex" unicode="&#x135;" horiz-adv-x="1261" 
d="M240 268q252 0 348 248l350 959h393l-373 -1031q-94 -264 -252 -369t-432 -105t-477 87l99 281q162 -70 344 -70zM1339 1577l-79 240l-236 -240h-322l330 330h481l119 -330h-293z" />
    <glyph glyph-name="Kcommaaccent" unicode="&#x136;" horiz-adv-x="1849" 
d="M463 -432h-342l383 330h405zM1133 0l-375 596h-203l-217 -596h-393l536 1475h393l-217 -594h195l756 594h430l-938 -777l446 -698h-413z" />
    <glyph glyph-name="kcommaaccent" unicode="&#x137;" horiz-adv-x="1849" 
d="M463 -432h-342l383 330h405zM1133 0l-375 596h-203l-217 -596h-393l536 1475h393l-217 -594h195l756 594h430l-938 -777l446 -698h-413z" />
    <glyph glyph-name="Lacute" unicode="&#x139;" horiz-adv-x="1517" 
d="M-55 0l536 1475h393l-432 -1190h865l-99 -285h-1263zM895 1577h-348l403 330h408z" />
    <glyph glyph-name="lacute" unicode="&#x13a;" horiz-adv-x="1517" 
d="M-55 0l536 1475h393l-432 -1190h865l-99 -285h-1263zM895 1577h-348l403 330h408z" />
    <glyph glyph-name="Lcommaaccent" unicode="&#x13b;" horiz-adv-x="1517" 
d="M377 -432h-342l383 330h405zM-55 0l536 1475h393l-432 -1190h865l-99 -285h-1263z" />
    <glyph glyph-name="lcommaaccent" unicode="&#x13c;" horiz-adv-x="1517" 
d="M377 -432h-342l383 330h405zM-55 0l536 1475h393l-432 -1190h865l-99 -285h-1263z" />
    <glyph glyph-name="Lcaron" unicode="&#x13d;" horiz-adv-x="1517" 
d="M-55 0l536 1475h393l-432 -1190h865l-99 -285h-1263zM1094 932h-256l325 543h342z" />
    <glyph glyph-name="lcaron" unicode="&#x13e;" horiz-adv-x="1517" 
d="M-55 0l536 1475h393l-432 -1190h865l-99 -285h-1263zM1094 932h-256l325 543h342z" />
    <glyph glyph-name="Ldot" unicode="&#x13f;" horiz-adv-x="1517" 
d="M-55 0l536 1475h393l-432 -1190h865l-99 -285h-1263zM1331 690h-373l105 299h373z" />
    <glyph glyph-name="ldot" unicode="&#x140;" horiz-adv-x="1517" 
d="M-55 0l536 1475h393l-432 -1190h865l-99 -285h-1263zM1331 690h-373l105 299h373z" />
    <glyph glyph-name="Lslash" unicode="&#x141;" horiz-adv-x="1517" 
d="M-55 0l215 592l-260 -92l77 229l267 92l237 654h393l-192 -529l412 141l-78 -227l-416 -141l-158 -434h865l-99 -285h-1263z" />
    <glyph glyph-name="lslash" unicode="&#x142;" horiz-adv-x="1517" 
d="M-55 0l215 592l-260 -92l77 229l267 92l237 654h393l-192 -529l412 141l-78 -227l-416 -141l-158 -434h865l-99 -285h-1263z" />
    <glyph glyph-name="Nacute" unicode="&#x143;" horiz-adv-x="2068" 
d="M877 1475q156 0 170 -160l272 -1030l438 1190h352l-536 -1475h-559l-283 1180l-436 -1180h-350l536 1475h396zM1505 1577h-348l404 330h407z" />
    <glyph glyph-name="nacute" unicode="&#x144;" horiz-adv-x="2068" 
d="M877 1475q156 0 170 -160l272 -1030l438 1190h352l-536 -1475h-559l-283 1180l-436 -1180h-350l536 1475h396zM1505 1577h-348l404 330h407z" />
    <glyph glyph-name="Ncommaaccent" unicode="&#x145;" horiz-adv-x="2068" 
d="M551 -432h-342l383 330h405zM877 1475q156 0 170 -160l272 -1030l438 1190h352l-536 -1475h-559l-283 1180l-436 -1180h-350l536 1475h396z" />
    <glyph glyph-name="ncommaaccent" unicode="&#x146;" horiz-adv-x="2068" 
d="M551 -432h-342l383 330h405zM877 1475q156 0 170 -160l272 -1030l438 1190h352l-536 -1475h-559l-283 1180l-436 -1180h-350l536 1475h396z" />
    <glyph glyph-name="Ncaron" unicode="&#x147;" horiz-adv-x="2068" 
d="M877 1475q156 0 170 -160l272 -1030l438 1190h352l-536 -1475h-559l-283 1180l-436 -1180h-350l536 1475h396zM1114 1577l-119 330h295l80 -238l234 238h321l-330 -330h-481z" />
    <glyph glyph-name="ncaron" unicode="&#x148;" horiz-adv-x="2068" 
d="M877 1475q156 0 170 -160l272 -1030l438 1190h352l-536 -1475h-559l-283 1180l-436 -1180h-350l536 1475h396zM1114 1577l-119 330h295l80 -238l234 238h321l-330 -330h-481z" />
    <glyph glyph-name="Eng" unicode="&#x14a;" horiz-adv-x="2068" 
d="M991 -532q-213 0 -362 67l96 281q129 -51 248 -52q158 0 207 130l41 114l-484 1186l-442 -1194h-350l536 1475h353q82 0 124 -32t74 -128l359 -844l368 1004h350l-596 -1643q-129 -364 -522 -364z" />
    <glyph glyph-name="eng" unicode="&#x14b;" horiz-adv-x="2068" 
d="M991 -532q-213 0 -362 67l96 281q129 -51 248 -52q158 0 207 130l41 114l-484 1186l-442 -1194h-350l536 1475h353q82 0 124 -32t74 -128l359 -844l368 1004h350l-596 -1643q-129 -364 -522 -364z" />
    <glyph glyph-name="Omacron" unicode="&#x14c;" horiz-adv-x="1943" 
d="M836 250q227 0 368 101t238 356q186 518 -330 518q-228 1 -368 -101t-234 -354q-192 -520 326 -520zM803 -31q-587 0 -710 345q-73 206 36 499q133 365 375 529t643 163q588 0 707 -345q72 -204 -33 -498q-135 -365 -377 -529t-641 -164zM1743 1659h-926l64 188h925z" />
    <glyph glyph-name="omacron" unicode="&#x14d;" horiz-adv-x="1943" 
d="M836 250q227 0 368 101t238 356q186 518 -330 518q-228 1 -368 -101t-234 -354q-192 -520 326 -520zM803 -31q-587 0 -710 345q-73 206 36 499q133 365 375 529t643 163q588 0 707 -345q72 -204 -33 -498q-135 -365 -377 -529t-641 -164zM1743 1659h-926l64 188h925z" />
    <glyph glyph-name="Obreve" unicode="&#x14e;" horiz-adv-x="1943" 
d="M836 250q227 0 368 101t238 356q186 518 -330 518q-228 1 -368 -101t-234 -354q-192 -520 326 -520zM803 -31q-587 0 -710 345q-73 206 36 499q133 365 375 529t643 163q588 0 707 -345q72 -204 -33 -498q-135 -365 -377 -529t-641 -164zM1302 1714q144 0 218 193h266
q-70 -195 -192 -273t-328 -78t-285 88q-78 88 -16 263h266q-73 -193 71 -193z" />
    <glyph glyph-name="obreve" unicode="&#x14f;" horiz-adv-x="1943" 
d="M836 250q227 0 368 101t238 356q186 518 -330 518q-228 1 -368 -101t-234 -354q-192 -520 326 -520zM803 -31q-587 0 -710 345q-73 206 36 499q133 365 375 529t643 163q588 0 707 -345q72 -204 -33 -498q-135 -365 -377 -529t-641 -164zM1302 1714q144 0 218 193h266
q-70 -195 -192 -273t-328 -78t-285 88q-78 88 -16 263h266q-73 -193 71 -193z" />
    <glyph glyph-name="Ohungarumlaut" unicode="&#x150;" horiz-adv-x="1943" 
d="M836 250q227 0 368 101t238 356q186 518 -330 518q-228 1 -368 -101t-234 -354q-192 -520 326 -520zM803 -31q-587 0 -710 345q-73 206 36 499q133 365 375 529t643 163q588 0 707 -345q72 -204 -33 -498q-135 -365 -377 -529t-641 -164zM1114 1577h-323l403 330h383z
M1675 1577h-323l403 330h383z" />
    <glyph glyph-name="ohungarumlaut" unicode="&#x151;" horiz-adv-x="1943" 
d="M836 250q227 0 368 101t238 356q186 518 -330 518q-228 1 -368 -101t-234 -354q-192 -520 326 -520zM803 -31q-587 0 -710 345q-73 206 36 499q133 365 375 529t643 163q588 0 707 -345q72 -204 -33 -498q-135 -365 -377 -529t-641 -164zM1114 1577h-323l403 330h383z
M1675 1577h-323l403 330h383z" />
    <glyph glyph-name="OE" unicode="&#x152;" horiz-adv-x="2678" 
d="M735 0q-533 0 -650 335q-70 201 32 482q127 346 364 502q238 156 629 156h1731l-93 -267h-917l-123 -338h819l-94 -266h-823l-123 -338h911l-94 -266h-1569zM764 276h334l336 924h-330q-246 0 -384 -99t-226 -335t-19 -364q70 -126 289 -126z" />
    <glyph glyph-name="oe" unicode="&#x153;" horiz-adv-x="2678" 
d="M735 0q-533 0 -650 335q-70 201 32 482q127 346 364 502q238 156 629 156h1731l-93 -267h-917l-123 -338h819l-94 -266h-823l-123 -338h911l-94 -266h-1569zM764 276h334l336 924h-330q-246 0 -384 -99t-226 -335t-19 -364q70 -126 289 -126z" />
    <glyph glyph-name="Racute" unicode="&#x154;" horiz-adv-x="1798" 
d="M1147 1475q397 0 533 -154t36 -432q-61 -172 -186 -256t-318 -107l220 -526h-404l-172 469h-348l-170 -469h-393l536 1475h666zM1044 1208h-266l-172 -473h271q219 0 314 39t145 173t-9 198q-60 63 -283 63zM1298 1577h-348l404 330h407z" />
    <glyph glyph-name="racute" unicode="&#x155;" horiz-adv-x="1798" 
d="M1147 1475q397 0 533 -154t36 -432q-61 -172 -186 -256t-318 -107l220 -526h-404l-172 469h-348l-170 -469h-393l536 1475h666zM1044 1208h-266l-172 -473h271q219 0 314 39t145 173t-9 198q-60 63 -283 63zM1298 1577h-348l404 330h407z" />
    <glyph glyph-name="Rcommaaccent" unicode="&#x156;" horiz-adv-x="1798" 
d="M416 -432h-342l383 330h405zM1147 1475q397 0 533 -154t36 -432q-61 -172 -186 -256t-318 -107l220 -526h-404l-172 469h-348l-170 -469h-393l536 1475h666zM1044 1208h-266l-172 -473h271q219 0 314 39t145 173t-9 198q-60 63 -283 63z" />
    <glyph glyph-name="rcommaaccent" unicode="&#x157;" horiz-adv-x="1798" 
d="M416 -432h-342l383 330h405zM1147 1475q397 0 533 -154t36 -432q-61 -172 -186 -256t-318 -107l220 -526h-404l-172 469h-348l-170 -469h-393l536 1475h666zM1044 1208h-266l-172 -473h271q219 0 314 39t145 173t-9 198q-60 63 -283 63z" />
    <glyph glyph-name="Rcaron" unicode="&#x158;" horiz-adv-x="1798" 
d="M1147 1475q397 0 533 -154t36 -432q-61 -172 -186 -256t-318 -107l220 -526h-404l-172 469h-348l-170 -469h-393l536 1475h666zM1044 1208h-266l-172 -473h271q219 0 314 39t145 173t-9 198q-60 63 -283 63zM907 1577l-119 330h295l80 -238l234 238h321l-329 -330h-482z
" />
    <glyph glyph-name="rcaron" unicode="&#x159;" horiz-adv-x="1798" 
d="M1147 1475q397 0 533 -154t36 -432q-61 -172 -186 -256t-318 -107l220 -526h-404l-172 469h-348l-170 -469h-393l536 1475h666zM1044 1208h-266l-172 -473h271q219 0 314 39t145 173t-9 198q-60 63 -283 63zM907 1577l-119 330h295l80 -238l234 238h321l-329 -330h-482z
" />
    <glyph glyph-name="Sacute" unicode="&#x15a;" horiz-adv-x="1593" 
d="M610 -31q-430 0 -719 121l95 275q270 -125 594 -125q184 0 278 36t127 119q35 82 1 132t-152 75l-248 47q-465 90 -324 488q127 369 739 368q336 0 650 -119l-92 -266q-266 117 -564 117q-165 0 -247 -32t-111 -105q-33 -74 -4 -115t137 -63l254 -50q168 -34 260 -108
t104 -178t-34 -236q-76 -209 -260 -295t-484 -86zM1225 1577h-348l403 330h408z" />
    <glyph glyph-name="sacute" unicode="&#x15b;" horiz-adv-x="1593" 
d="M610 -31q-430 0 -719 121l95 275q270 -125 594 -125q184 0 278 36t127 119q35 82 1 132t-152 75l-248 47q-465 90 -324 488q127 369 739 368q336 0 650 -119l-92 -266q-266 117 -564 117q-165 0 -247 -32t-111 -105q-33 -74 -4 -115t137 -63l254 -50q168 -34 260 -108
t104 -178t-34 -236q-76 -209 -260 -295t-484 -86zM1225 1577h-348l403 330h408z" />
    <glyph glyph-name="Scircumflex" unicode="&#x15c;" horiz-adv-x="1593" 
d="M610 -31q-430 0 -719 121l95 275q270 -125 594 -125q184 0 278 36t127 119q35 82 1 132t-152 75l-248 47q-465 90 -324 488q127 369 739 368q336 0 650 -119l-92 -266q-266 117 -564 117q-165 0 -247 -32t-111 -105q-33 -74 -4 -115t137 -63l254 -50q168 -34 260 -108
t104 -178t-34 -236q-76 -209 -260 -295t-484 -86zM1227 1577l-80 240l-236 -240h-321l330 330h481l119 -330h-293z" />
    <glyph glyph-name="scircumflex" unicode="&#x15d;" horiz-adv-x="1593" 
d="M610 -31q-430 0 -719 121l95 275q270 -125 594 -125q184 0 278 36t127 119q35 82 1 132t-152 75l-248 47q-465 90 -324 488q127 369 739 368q336 0 650 -119l-92 -266q-266 117 -564 117q-165 0 -247 -32t-111 -105q-33 -74 -4 -115t137 -63l254 -50q168 -34 260 -108
t104 -178t-34 -236q-76 -209 -260 -295t-484 -86zM1227 1577l-80 240l-236 -240h-321l330 330h481l119 -330h-293z" />
    <glyph glyph-name="Scedilla" unicode="&#x15e;" horiz-adv-x="1593" 
d="M367 -453q-182 0 -289 60l55 176q117 -39 208 -39t114 59q29 78 -54 174q-297 20 -510 113l95 275q270 -125 594 -125q184 0 278 36t127 119q35 82 1 132t-152 75l-248 47q-465 90 -324 488q127 369 739 368q336 0 650 -119l-92 -266q-266 117 -564 117q-165 0 -247 -32
t-111 -105q-33 -74 -4 -115t137 -63l254 -50q168 -34 260 -108t104 -178t-34 -236q-76 -203 -252 -290t-463 -91q53 -74 63 -134t-20 -142q-63 -146 -315 -146z" />
    <glyph glyph-name="scedilla" unicode="&#x15f;" horiz-adv-x="1593" 
d="M367 -453q-182 0 -289 60l55 176q117 -39 208 -39t114 59q29 78 -54 174q-297 20 -510 113l95 275q270 -125 594 -125q184 0 278 36t127 119q35 82 1 132t-152 75l-248 47q-465 90 -324 488q127 369 739 368q336 0 650 -119l-92 -266q-266 117 -564 117q-165 0 -247 -32
t-111 -105q-33 -74 -4 -115t137 -63l254 -50q168 -34 260 -108t104 -178t-34 -236q-76 -203 -252 -290t-463 -91q53 -74 63 -134t-20 -142q-63 -146 -315 -146z" />
    <glyph glyph-name="Scaron" unicode="&#x160;" horiz-adv-x="1593" 
d="M610 -31q-430 0 -719 121l95 275q270 -125 594 -125q184 0 278 36t127 119q35 82 1 132t-152 75l-248 47q-465 90 -324 488q127 369 739 368q336 0 650 -119l-92 -266q-266 117 -564 117q-165 0 -247 -32t-111 -105q-33 -74 -4 -115t137 -63l254 -50q168 -34 260 -108
t104 -178t-34 -236q-76 -209 -260 -295t-484 -86zM834 1577l-119 330h295l80 -238l233 238h322l-330 -330h-481z" />
    <glyph glyph-name="scaron" unicode="&#x161;" horiz-adv-x="1593" 
d="M610 -31q-430 0 -719 121l95 275q270 -125 594 -125q184 0 278 36t127 119q35 82 1 132t-152 75l-248 47q-465 90 -324 488q127 369 739 368q336 0 650 -119l-92 -266q-266 117 -564 117q-165 0 -247 -32t-111 -105q-33 -74 -4 -115t137 -63l254 -50q168 -34 260 -108
t104 -178t-34 -236q-76 -209 -260 -295t-484 -86zM834 1577l-119 330h295l80 -238l233 238h322l-330 -330h-481z" />
    <glyph glyph-name="Tcommaaccent" unicode="&#x162;" horiz-adv-x="1527" 
d="M229 -432h-342l383 330h406zM1667 1190h-524l-432 -1190h-394l433 1190h-523l99 285h1441z" />
    <glyph glyph-name="tcommaaccent" unicode="&#x163;" horiz-adv-x="1527" 
d="M229 -432h-342l383 330h406zM1667 1190h-524l-432 -1190h-394l433 1190h-523l99 285h1441z" />
    <glyph glyph-name="Tcaron" unicode="&#x164;" horiz-adv-x="1527" 
d="M1667 1190h-524l-432 -1190h-394l433 1190h-523l99 285h1441zM844 1577l-119 330h295l80 -238l233 238h322l-330 -330h-481z" />
    <glyph glyph-name="tcaron" unicode="&#x165;" horiz-adv-x="1527" 
d="M1667 1190h-524l-432 -1190h-394l433 1190h-523l99 285h1441zM844 1577l-119 330h295l80 -238l233 238h322l-330 -330h-481z" />
    <glyph glyph-name="Tbar" unicode="&#x166;" horiz-adv-x="1527" 
d="M1206 578h-284l-211 -578h-394l211 578h-303l68 188h303l154 424h-523l99 285h1441l-100 -285h-524l-154 -424h285z" />
    <glyph glyph-name="tbar" unicode="&#x167;" horiz-adv-x="1527" 
d="M1206 578h-284l-211 -578h-394l211 578h-303l68 188h303l154 424h-523l99 285h1441l-100 -285h-524l-154 -424h285z" />
    <glyph glyph-name="Utilde" unicode="&#x168;" horiz-adv-x="1857" 
d="M784 256q113 0 188 24q74 24 148 102t127 220l316 873h393l-314 -869q-128 -360 -338 -498t-598 -138t-536 174q-147 175 -41 468l313 863h394l-318 -873q-68 -182 -2 -264t268 -82zM1459 1749q42 0 66 30t58 128h236q-74 -213 -139 -280t-201 -66q-86 0 -159 44t-127 88
t-95 44t-64 -30t-61 -130h-236q76 215 141 281t199 65q86 0 159 -44t127 -87t96 -43z" />
    <glyph glyph-name="utilde" unicode="&#x169;" horiz-adv-x="1857" 
d="M784 256q113 0 188 24q74 24 148 102t127 220l316 873h393l-314 -869q-128 -360 -338 -498t-598 -138t-536 174q-147 175 -41 468l313 863h394l-318 -873q-68 -182 -2 -264t268 -82zM1459 1749q42 0 66 30t58 128h236q-74 -213 -139 -280t-201 -66q-86 0 -159 44t-127 88
t-95 44t-64 -30t-61 -130h-236q76 215 141 281t199 65q86 0 159 -44t127 -87t96 -43z" />
    <glyph glyph-name="Umacron" unicode="&#x16a;" horiz-adv-x="1857" 
d="M784 256q113 0 188 24q74 24 148 102t127 220l316 873h393l-314 -869q-128 -360 -338 -498t-598 -138t-536 174q-147 175 -41 468l313 863h394l-318 -873q-68 -182 -2 -264t268 -82zM1729 1659h-926l63 188h926z" />
    <glyph glyph-name="umacron" unicode="&#x16b;" horiz-adv-x="1857" 
d="M784 256q113 0 188 24q74 24 148 102t127 220l316 873h393l-314 -869q-128 -360 -338 -498t-598 -138t-536 174q-147 175 -41 468l313 863h394l-318 -873q-68 -182 -2 -264t268 -82zM1729 1659h-926l63 188h926z" />
    <glyph glyph-name="Ubreve" unicode="&#x16c;" horiz-adv-x="1857" 
d="M784 256q113 0 188 24q74 24 148 102t127 220l316 873h393l-314 -869q-128 -360 -338 -498t-598 -138t-536 174q-147 175 -41 468l313 863h394l-318 -873q-68 -182 -2 -264t268 -82zM1288 1714q143 0 217 193h267q-70 -195 -192 -273t-329 -78t-285 88t-16 263h267
q-72 -193 71 -193z" />
    <glyph glyph-name="ubreve" unicode="&#x16d;" horiz-adv-x="1857" 
d="M784 256q113 0 188 24q74 24 148 102t127 220l316 873h393l-314 -869q-128 -360 -338 -498t-598 -138t-536 174q-147 175 -41 468l313 863h394l-318 -873q-68 -182 -2 -264t268 -82zM1288 1714q143 0 217 193h267q-70 -195 -192 -273t-329 -78t-285 88t-16 263h267
q-72 -193 71 -193z" />
    <glyph glyph-name="Uring" unicode="&#x16e;" horiz-adv-x="1857" 
d="M784 256q113 0 188 24q74 24 148 102t127 220l316 873h393l-314 -869q-128 -360 -338 -498t-598 -138t-536 174q-147 175 -41 468l313 863h394l-318 -873q-68 -182 -2 -264t268 -82zM1251 1663q109 0 135 72q16 45 -8 65q-25 20 -92 21q-111 0 -137 -72q-16 -47 8 -67
t94 -19zM1225 1556q-223 0 -301 52t-39 159q59 160 424 160q223 0 301 -51t39 -158q-57 -162 -424 -162z" />
    <glyph glyph-name="uring" unicode="&#x16f;" horiz-adv-x="1857" 
d="M784 256q113 0 188 24q74 24 148 102t127 220l316 873h393l-314 -869q-128 -360 -338 -498t-598 -138t-536 174q-147 175 -41 468l313 863h394l-318 -873q-68 -182 -2 -264t268 -82zM1251 1663q109 0 135 72q16 45 -8 65q-25 20 -92 21q-111 0 -137 -72q-16 -47 8 -67
t94 -19zM1225 1556q-223 0 -301 52t-39 159q59 160 424 160q223 0 301 -51t39 -158q-57 -162 -424 -162z" />
    <glyph glyph-name="Uhungarumlaut" unicode="&#x170;" horiz-adv-x="1857" 
d="M784 256q113 0 188 24q74 24 148 102t127 220l316 873h393l-314 -869q-128 -360 -338 -498t-598 -138t-536 174q-147 175 -41 468l313 863h394l-318 -873q-68 -182 -2 -264t268 -82zM1098 1577h-324l404 330h383zM1659 1577h-324l404 330h383z" />
    <glyph glyph-name="uhungarumlaut" unicode="&#x171;" horiz-adv-x="1857" 
d="M784 256q113 0 188 24q74 24 148 102t127 220l316 873h393l-314 -869q-128 -360 -338 -498t-598 -138t-536 174q-147 175 -41 468l313 863h394l-318 -873q-68 -182 -2 -264t268 -82zM1098 1577h-324l404 330h383zM1659 1577h-324l404 330h383z" />
    <glyph glyph-name="Uogonek" unicode="&#x172;" horiz-adv-x="1857" 
d="M702 -453q-182 0 -259 70t-39 177t163 183q-317 35 -425 204t-13 431l313 863h394l-318 -873q-68 -182 -2 -264t268 -82q113 0 188 24q74 24 148 102t127 220l316 873h393l-314 -869q-121 -338 -311 -479t-514 -156q-90 -66 -108 -127q-17 -61 11 -87q28 -25 106 -25
t163 20l-61 -172q-107 -33 -226 -33z" />
    <glyph glyph-name="uogonek" unicode="&#x173;" horiz-adv-x="1857" 
d="M702 -453q-182 0 -259 70t-39 177t163 183q-317 35 -425 204t-13 431l313 863h394l-318 -873q-68 -182 -2 -264t268 -82q113 0 188 24q74 24 148 102t127 220l316 873h393l-314 -869q-121 -338 -311 -479t-514 -156q-90 -66 -108 -127q-17 -61 11 -87q28 -25 106 -25
t163 20l-61 -172q-107 -33 -226 -33z" />
    <glyph glyph-name="Wcircumflex" unicode="&#x174;" horiz-adv-x="2811" 
d="M1903 0h-426l75 1233l-678 -1092q-72 -141 -235 -141h-385l37 1475h387l-51 -1248l757 1248h537l-86 -1246l778 1246h396l-869 -1334q-82 -141 -237 -141zM1853 1577l-79 240l-236 -240h-321l329 330h482l118 -330h-293z" />
    <glyph glyph-name="wcircumflex" unicode="&#x175;" horiz-adv-x="2811" 
d="M1903 0h-426l75 1233l-678 -1092q-72 -141 -235 -141h-385l37 1475h387l-51 -1248l757 1248h537l-86 -1246l778 1246h396l-869 -1334q-82 -141 -237 -141zM1853 1577l-79 240l-236 -240h-321l329 330h482l118 -330h-293z" />
    <glyph glyph-name="Ycircumflex" unicode="&#x176;" horiz-adv-x="1777" 
d="M809 0h-393l217 596l-363 879h375l258 -598l692 598h453l-1038 -922zM1333 1577l-80 240l-235 -240h-322l330 330h481l119 -330h-293z" />
    <glyph glyph-name="ycircumflex" unicode="&#x177;" horiz-adv-x="1777" 
d="M809 0h-393l217 596l-363 879h375l258 -598l692 598h453l-1038 -922zM1333 1577l-80 240l-235 -240h-322l330 330h481l119 -330h-293z" />
    <glyph glyph-name="Ydieresis" unicode="&#x178;" horiz-adv-x="1777" 
d="M809 0h-393l217 596l-363 879h375l258 -598l692 598h453l-1038 -922zM1110 1622h-311l84 240h311zM1569 1622h-312l84 240h312z" />
    <glyph glyph-name="Zacute" unicode="&#x179;" horiz-adv-x="1681" 
d="M1321 0h-1448l53 147q35 100 127 172l1176 881h-885l96 275h1391l-88 -250l-1276 -949h948zM1325 1577h-348l403 330h408z" />
    <glyph glyph-name="zacute" unicode="&#x17a;" horiz-adv-x="1681" 
d="M1321 0h-1448l53 147q35 100 127 172l1176 881h-885l96 275h1391l-88 -250l-1276 -949h948zM1325 1577h-348l403 330h408z" />
    <glyph glyph-name="Zdotaccent" unicode="&#x17b;" horiz-adv-x="1681" 
d="M1321 0h-1448l53 147q35 100 127 172l1176 881h-885l96 275h1391l-88 -250l-1276 -949h948zM1376 1622h-393l84 240h393z" />
    <glyph glyph-name="zdotaccent" unicode="&#x17c;" horiz-adv-x="1681" 
d="M1321 0h-1448l53 147q35 100 127 172l1176 881h-885l96 275h1391l-88 -250l-1276 -949h948zM1376 1622h-393l84 240h393z" />
    <glyph glyph-name="Zcaron" unicode="&#x17d;" horiz-adv-x="1681" 
d="M1321 0h-1448l53 147q35 100 127 172l1176 881h-885l96 275h1391l-88 -250l-1276 -949h948zM936 1577l-119 330h295l80 -238l233 238h322l-330 -330h-481z" />
    <glyph glyph-name="zcaron" unicode="&#x17e;" horiz-adv-x="1681" 
d="M1321 0h-1448l53 147q35 100 127 172l1176 881h-885l96 275h1391l-88 -250l-1276 -949h948zM936 1577l-119 330h295l80 -238l233 238h322l-330 -330h-481z" />
    <glyph glyph-name="Scommaaccent" unicode="&#x218;" horiz-adv-x="1593" 
d="M311 -432h-342l383 330h406zM610 -31q-430 0 -719 121l95 275q270 -125 594 -125q184 0 278 36t127 119q35 82 1 132t-152 75l-248 47q-465 90 -324 488q127 369 739 368q336 0 650 -119l-92 -266q-266 117 -564 117q-165 0 -247 -32t-111 -105q-33 -74 -4 -115t137 -63
l254 -50q168 -34 260 -108t104 -178t-34 -236q-76 -209 -260 -295t-484 -86z" />
    <glyph glyph-name="scommaaccent" unicode="&#x219;" horiz-adv-x="1593" 
d="M311 -432h-342l383 330h406zM610 -31q-430 0 -719 121l95 275q270 -125 594 -125q184 0 278 36t127 119q35 82 1 132t-152 75l-248 47q-465 90 -324 488q127 369 739 368q336 0 650 -119l-92 -266q-266 117 -564 117q-165 0 -247 -32t-111 -105q-33 -74 -4 -115t137 -63
l254 -50q168 -34 260 -108t104 -178t-34 -236q-76 -209 -260 -295t-484 -86z" />
    <glyph glyph-name="circumflex" unicode="&#x2c6;" horiz-adv-x="1732" 
d="M1346 1577l-80 240l-236 -240h-321l329 330h482l118 -330h-292z" />
    <glyph glyph-name="caron" unicode="&#x2c7;" horiz-adv-x="1732" 
d="M948 1577l-119 330h295l80 -238l234 238h321l-329 -330h-482z" />
    <glyph glyph-name="breve" unicode="&#x2d8;" horiz-adv-x="1730" 
d="M1218 1714q144 0 218 193h266q-70 -195 -192 -273t-328 -78t-285 88q-78 88 -16 263h266q-73 -193 71 -193z" />
    <glyph glyph-name="dotaccent" unicode="&#x2d9;" horiz-adv-x="1732" 
d="M1389 1622h-394l84 240h394z" />
    <glyph glyph-name="ring" unicode="&#x2da;" horiz-adv-x="1732" 
d="M1219 1663q109 0 135 72q16 45 -8 65q-25 20 -93 21q-111 0 -137 -72q-16 -47 8 -67q25 -19 95 -19zM1192 1556q-223 0 -301 52t-39 159q59 160 424 160q223 0 301 -51t39 -158q-57 -162 -424 -162z" />
    <glyph glyph-name="ogonek" unicode="&#x2db;" horiz-adv-x="1777" 
d="M623 -453q-182 0 -259 70t-36 182q43 125 235 219h246q-84 -53 -126 -93t-57 -91q-31 -104 119 -102q78 0 164 20l-61 -172q-106 -33 -225 -33z" />
    <glyph glyph-name="tilde" unicode="&#x2dc;" horiz-adv-x="1779" 
d="M1438 1749q42 0 66 30t59 128h235q-74 -213 -138 -280t-202 -66q-86 0 -159 44t-127 88t-95 44t-63 -30t-62 -130h-235q76 215 140 281q65 66 200 65q87 0 159 -44t126 -87t96 -43z" />
    <glyph glyph-name="hungarumlaut" unicode="&#x2dd;" horiz-adv-x="1730" 
d="M870 1577h-323l403 330h383zM1432 1577h-324l403 330h383z" />
    <glyph glyph-name="Delta" unicode="&#x394;" horiz-adv-x="1783" 
d="M1020 1475h440l58 -1475h-1731l993 1333q50 76 106 109t134 33zM1141 276l-25 1024l-725 -1024h750z" />
    <glyph glyph-name="Omega" unicode="&#x3a9;" horiz-adv-x="1943" 
d="M1147 1505q199 0 346 -43q147 -42 230 -114q168 -144 159 -361q-4 -100 -43 -205q-66 -184 -169 -303t-292 -203h338l-96 -276h-741l92 254q178 66 294 180t185 309q88 221 3 351t-321 131q-236 0 -377 -90q-140 -90 -214 -287q-152 -387 157 -594l-82 -254h-698l96 276
h322q-141 98 -183 280t33 396q205 553 961 553z" />
    <glyph glyph-name="mu" unicode="&#x3bc;" horiz-adv-x="2527" 
d="M885 1475q96 0 135 -45t43 -150l63 -877l834 1072h627l-537 -1475h-395l434 1182l-920 -1182h-370l-64 1192l-440 -1192h-350l536 1475h404z" />
    <glyph glyph-name="pi" unicode="&#x3c0;" horiz-adv-x="1935" 
d="M1065 0l432 1190h-727l-432 -1190h-393l536 1475h1514l-537 -1475h-393z" />
    <glyph glyph-name="uni2009" unicode="&#x2009;" horiz-adv-x="61" 
 />
    <glyph glyph-name="endash" unicode="&#x2013;" horiz-adv-x="1433" 
d="M-14 618l82 238h1382l-82 -238h-1382z" />
    <glyph glyph-name="emdash" unicode="&#x2014;" horiz-adv-x="2867" 
d="M-14 618l82 238h2818l-84 -238h-2816z" />
    <glyph glyph-name="quoteleft" unicode="&#x2018;" horiz-adv-x="798" 
d="M659 1475h263l-326 -543h-367z" />
    <glyph glyph-name="quoteright" unicode="&#x2019;" horiz-adv-x="798" 
d="M492 932h-263l326 543h367z" />
    <glyph glyph-name="quotesinglbase" unicode="&#x201a;" horiz-adv-x="892" 
d="M111 -244h-261l324 543h367z" />
    <glyph glyph-name="quotedblleft" unicode="&#x201c;" horiz-adv-x="1409" 
d="M707 1475h262l-326 -543h-367zM1223 1475h262l-326 -543h-366z" />
    <glyph glyph-name="quotedblright" unicode="&#x201d;" horiz-adv-x="1409" 
d="M539 932h-263l326 543h367zM1055 932h-262l325 543h367z" />
    <glyph glyph-name="quotedblbase" unicode="&#x201e;" horiz-adv-x="1409" 
d="M111 -244h-261l324 543h367zM627 -244h-260l323 543h367z" />
    <glyph glyph-name="dagger" unicode="&#x2020;" horiz-adv-x="1052" 
d="M1128 915h-370l-332 -915h-258l332 915h-369l72 209h372l127 351h259l-127 -351h366z" />
    <glyph glyph-name="daggerdbl" unicode="&#x2021;" horiz-adv-x="1052" 
d="M924 350h-373l-127 -350h-258l127 350h-367l74 209h369l131 356h-369l72 209h372l127 351h259l-127 -351h366l-72 -209h-370l-131 -356h370z" />
    <glyph glyph-name="bullet" unicode="&#x2022;" horiz-adv-x="1011" 
d="M427 444q-171 0 -233 94t-8 243t146 209q94 60 265 60t233 -94t8 -242t-146 -209q-94 -61 -265 -61z" />
    <glyph glyph-name="ellipsis" unicode="&#x2026;" horiz-adv-x="2553" 
d="M367 0h-373l104 299h373zM1198 0h-373l105 299h373zM2030 0h-373l104 299h373z" />
    <glyph glyph-name="perthousand" unicode="&#x2030;" horiz-adv-x="3868" 
d="M2185 752q-106 0 -174 -62t-125 -217q-113 -303 135 -303q106 0 173 61t124 218q109 303 -133 303zM3297 752q-106 0 -174 -62t-125 -217q-113 -303 135 -303q106 0 173 61t124 218q109 303 -133 303zM2007 -20q-283 0 -378 150t-9 382q86 230 217 330t363 100
q280 0 374 -150t11 -386q-85 -226 -217 -326t-361 -100zM3119 -20q-283 0 -378 150t-9 382q86 230 217 330t363 100q280 0 374 -150t11 -386q-86 -227 -217 -327q-132 -99 -361 -99zM741 1305q-106 1 -174 -61t-125 -218q-113 -303 136 -303q106 0 173 61t123 217
q109 304 -133 304zM1790 1475h291l-1112 -1473h-291zM563 532q-283 0 -378 151t-9 382t217 331t363 99q280 -1 374 -151t11 -386q-85 -226 -217 -326t-361 -100z" />
    <glyph glyph-name="guilsinglleft" unicode="&#x2039;" horiz-adv-x="878" 
d="M649 1262h312l-537 -537l160 -512h-281l-192 535z" />
    <glyph glyph-name="guilsinglright" unicode="&#x203a;" horiz-adv-x="878" 
d="M233 213h-311l537 537l-158 512h279l192 -535z" />
    <glyph glyph-name="fraction" unicode="&#x2044;" horiz-adv-x="530" 
d="M678 1475h291l-1112 -1473h-291z" />
    <glyph glyph-name="zerosuperior" unicode="&#x2070;" horiz-adv-x="1112" 
d="M842 1581q-106 0 -174 -61t-125 -217q-113 -303 135 -304q106 -1 173 61t124 218q109 303 -133 303zM664 809q-283 1 -378 151t-10 386q86 227 218 326t362 100q281 0 375 -151t10 -386q-86 -227 -217 -327t-360 -99z" />
    <glyph glyph-name="foursuperior" unicode="&#x2074;" horiz-adv-x="1050" 
d="M905 1751h344l-190 -524h147l-61 -174h-150l-80 -224h-266l82 224h-553l72 209l518 419q74 70 137 70zM795 1227l149 409l-481 -409h332z" />
    <glyph glyph-name="fivesuperior" unicode="&#x2075;" horiz-adv-x="1013" 
d="M552 809q-226 0 -402 78l63 180q164 -74 340 -74q242 0 278 94q25 63 -11 99t-177 37q-141 0 -342 -13l191 541h786l-66 -186h-544l-66 -172q74 6 150 6q244 1 320 -99t20 -258q-50 -127 -182 -180t-358 -53z" />
    <glyph glyph-name="sixsuperior" unicode="&#x2076;" horiz-adv-x="1050" 
d="M670 979q162 0 211 127q55 160 -160 160q-102 0 -207 -31q-77 -256 156 -256zM649 809q-276 1 -369 151q-94 150 -8 390t243 331t389 91t403 -64l-62 -180q-131 61 -295 61t-252 -45t-131 -147q100 31 238 30q209 0 298 -98q89 -99 35 -251t-168 -210t-321 -59z" />
    <glyph glyph-name="sevensuperior" unicode="&#x2077;" horiz-adv-x="940" 
d="M494 829h-279l41 119q37 98 88 164t174 160l352 293h-544l67 186h883l-39 -109q-11 -34 -28 -54t-22 -25t-23 -21t-21 -20l-393 -324q-111 -84 -152 -135t-70 -131z" />
    <glyph glyph-name="eightsuperior" unicode="&#x2078;" horiz-adv-x="1091" 
d="M719 1235q-105 0 -157 -24q-52 -25 -76 -91t16 -102t141 -35q102 0 155 24q52 24 76 90t-14 102q-37 36 -141 36zM775 1348q97 0 145 24q47 25 73 90q23 70 -12 105t-132 35t-145 -25t-75 -88q-46 -141 146 -141zM643 809q-281 0 -382 86t-50 229q63 168 295 185
q-82 20 -113 90t-2 157q47 121 161 168q114 48 335 48t319 -82t49 -220q-59 -170 -256 -196q94 -20 128 -91t-1 -161q-44 -113 -158 -163t-325 -50z" />
    <glyph glyph-name="ninesuperior" unicode="&#x2079;" horiz-adv-x="1050" 
d="M550 809q-232 0 -400 63l59 181q129 -59 295 -59t255 43q87 44 130 149q-109 -33 -238 -33q-209 0 -299 99t-28 264q49 139 162 197q114 58 321 59q275 0 369 -151t8 -391t-244 -330t-390 -91zM735 1315q100 0 207 31q78 256 -158 256q-162 0 -206 -127
q-58 -160 157 -160z" />
    <glyph glyph-name="zeroinferior" unicode="&#x2080;" horiz-adv-x="1112" 
d="M440 475q-106 0 -174 -61t-125 -217q-113 -303 135 -303q106 0 174 61q67 61 123 217q109 303 -133 303zM262 -297q-283 0 -378 151t-9 382t217 330t363 100q281 0 375 -151t10 -386q-86 -227 -217 -327q-132 -99 -361 -99z" />
    <glyph glyph-name="oneinferior" unicode="&#x2081;" horiz-adv-x="724" 
d="M223 -276h-280l254 694l-322 -133l74 213l356 147h252z" />
    <glyph glyph-name="twoinferior" unicode="&#x2082;" horiz-adv-x="983" 
d="M264 481q-133 0 -301 -45l68 189q164 41 321 41q248 0 344 -89t39 -245q-25 -64 -79 -116t-112 -86t-167 -89l-258 -129h516l-66 -188h-864l43 120q33 88 98 121l406 217q66 35 96 51q30 15 63 47q34 32 46 64q27 63 -17 100t-176 37z" />
    <glyph glyph-name="threeinferior" unicode="&#x2083;" horiz-adv-x="1030" 
d="M164 -297q-238 0 -422 80l65 180q166 -76 322 -76q157 -1 221 19t86 72t-10 90q-31 38 -127 36h-299l55 156l441 199h-512l65 184h858l-39 -106q-31 -94 -94 -121l-373 -174h11q192 0 262 -89t18 -229q-82 -221 -528 -221z" />
    <glyph glyph-name="fourinferior" unicode="&#x2084;" horiz-adv-x="1050" 
d="M504 645h344l-191 -524h148l-62 -174h-149l-80 -223h-266l82 223h-553l71 209l519 419q74 70 137 70zM393 121l150 409l-482 -409h332z" />
    <glyph glyph-name="fiveinferior" unicode="&#x2085;" horiz-adv-x="1013" 
d="M152 -297q-226 0 -404 78l64 180q164 -74 340 -74q242 0 278 95q25 63 -11 99q-35 36 -177 36t-342 -13l190 541h787l-66 -186h-545l-65 -172q74 6 149 6q244 0 321 -99t19 -257q-49 -127 -181 -181q-131 -54 -357 -53z" />
    <glyph glyph-name="sixinferior" unicode="&#x2086;" horiz-adv-x="1050" 
d="M268 -127q162 0 211 127q55 160 -160 160q-102 0 -206 -31q-78 -256 155 -256zM248 -297q-276 0 -370 151q-93 151 -7 391t243 330q157 91 389 91t402 -64l-61 -180q-131 61 -295 61t-252 -45t-131 -147q100 31 237 31q209 0 298 -98t35 -252q-54 -152 -168 -210
t-320 -59z" />
    <glyph glyph-name="seveninferior" unicode="&#x2087;" horiz-adv-x="940" 
d="M92 -276h-278l41 118q37 98 88 164t174 160l352 293h-545l68 186h882l-38 -108q-20 -61 -95 -121l-393 -324q-112 -84 -152 -135t-69 -131z" />
    <glyph glyph-name="eightinferior" unicode="&#x2088;" horiz-adv-x="1091" 
d="M242 -123q102 0 154 24q52 25 76 91q50 138 -161 137q-98 0 -150 -24t-76 -90q-25 -66 15 -102t142 -36zM374 242q97 0 144 24t74 90q23 70 -12 105q-34 35 -132 35t-146 -25t-75 -88q-46 -141 147 -141zM242 -297q-281 0 -382 86t-50 229q63 168 294 185q-82 20 -112 90
t-2 158q47 121 161 167t335 48q221 0 319 -82t49 -219q-59 -170 -256 -197q94 -20 128 -91t-1 -161q-45 -113 -159 -163t-324 -50z" />
    <glyph glyph-name="nineinferior" unicode="&#x2089;" horiz-adv-x="1050" 
d="M150 -297q-232 0 -402 64l59 180q129 -59 296 -59t254 43q87 44 130 149q-109 -33 -237 -33q-209 0 -299 99t-29 264q49 139 163 197t321 59q276 0 369 -151t7 -391t-243 -331q-157 -90 -389 -90zM334 209q100 0 207 31q78 256 -158 256q-162 0 -207 -127
q-57 -160 158 -160z" />
    <glyph glyph-name="Euro" unicode="&#x20ac;" 
d="M1290 1505q250 0 514 -98l-96 -285q-216 94 -400 94t-302 -56t-205 -193h620l-59 -166h-641q-2 -10 -15 -47t-26 -82h633l-60 -166h-591q6 -126 101 -186t291 -60t390 55l-98 -292q-188 -53 -410 -54q-324 -1 -495 139t-167 398h-276l59 166h236q10 53 35 129h-222
l60 166h225q133 289 359 413t540 125z" />
    <glyph glyph-name="litre" unicode="&#x2113;" horiz-adv-x="1163" 
d="M862 1284q-48 0 -79 -17q-127 -67 -314 -575q-20 -55 -23 -63q336 158 453 469q37 110 24 148t-61 38zM460 -37q-114 0 -178 14q-64 15 -120 59q-170 137 15 642q184 505 368 673q92 85 176 117t184 33q179 0 241 -94t-5 -287q-188 -496 -762 -737q-11 -98 25 -134
t143 -36t215 47l-86 -252q-102 -45 -216 -45z" />
    <glyph glyph-name="trademark" unicode="&#x2122;" horiz-adv-x="2674" 
d="M1171 1266h-305l-258 -713h-303l258 713h-303l74 209h909zM1706 1475q66 0 92 -33t27 -107l24 -463l453 603h475l-336 -922h-305l258 694l-524 -694h-275l-18 717l-260 -717h-266l335 922h320z" />
    <glyph glyph-name="estimated" unicode="&#x212e;" horiz-adv-x="1687" 
d="M844 -35q-309 0 -528 224q-218 225 -218 541t218 536t526 221q308 0 525 -221q218 -221 218 -535q0 -23 -2 -35h-1141v-370q166 -176 402 -176q164 0 295 78t188 216h207q-82 -213 -271 -346t-419 -133zM842 1303q-238 0 -400 -166v-277h799v277q-161 166 -399 166z" />
    <glyph glyph-name="partialdiff" unicode="&#x2202;" horiz-adv-x="1615" 
d="M628 221q194 -1 307 99q114 100 195 309q-201 84 -380 84t-267 -44t-136 -160q-49 -116 19 -202t262 -86zM559 -31q-358 0 -513 168t-56 441q72 198 242 286t455 88q284 0 525 -96q63 193 -26 289q-90 96 -379 96t-514 -61l96 268q252 57 551 57q412 0 574 -212t36 -564
q-96 -279 -213 -437t-305 -241q-188 -82 -473 -82z" />
    <glyph glyph-name="product" unicode="&#x220f;" horiz-adv-x="1935" 
d="M909 -430l588 1620h-727l-588 -1620h-393l692 1905h1514l-692 -1905h-394z" />
    <glyph glyph-name="summation" unicode="&#x2211;" horiz-adv-x="1681" 
d="M1165 -430h-1448l54 147q33 96 127 172l860 656l-428 704l78 226h1390l-96 -275h-924l309 -534q45 -74 17 -162l-29 -90l-764 -570h949z" />
    <glyph glyph-name="minus" unicode="&#x2212;" horiz-adv-x="1697" 
d="M219 616l84 244h1182l-86 -244h-1180z" />
    <glyph glyph-name="radical" unicode="&#x221a;" horiz-adv-x="1337" 
d="M147 0l46 913h276l-41 -669l819 1231h291l-989 -1475h-402z" />
    <glyph glyph-name="infinity" unicode="&#x221e;" horiz-adv-x="1675" 
d="M428 555q68 0 138 53t165 156q-23 86 -57 131q-35 45 -101 45q-176 0 -249 -199q-72 -186 104 -186zM1122 580q176 0 250 192t-104 193q-68 -1 -138 -53t-163 -154q23 -88 56 -133t99 -45zM1048 344q-194 0 -266 221q-229 -221 -432 -221q-126 0 -194 55t-70 147t39 212
q68 190 198 305q131 115 325 115t265 -222q229 221 433 222q126 0 194 -56t71 -147q3 -92 -38 -213q-70 -190 -200 -304q-131 -114 -325 -114z" />
    <glyph glyph-name="integral" unicode="&#x222b;" horiz-adv-x="1105" 
d="M-119 -432q-147 0 -270 53l82 240q109 -41 199 -41t156 58q65 58 116 192l348 960q90 246 222 360t347 113q156 0 273 -53l-84 -238q-104 39 -198 39t-158 -57q-65 -57 -113 -190l-348 -961q-91 -247 -223 -361t-349 -114z" />
    <glyph glyph-name="approxequal" unicode="&#x2248;" horiz-adv-x="1732" 
d="M557 453q-104 0 -235 -134l-101 175q174 193 350 192q78 0 146 -26q67 -26 109 -56q113 -80 212 -80q98 0 234 135l100 -176q-180 -193 -350 -192q-98 0 -180 41t-151 81t-134 40zM1202 791q-98 1 -179 41t-150 80t-136 40q-102 0 -235 -135l-101 176q174 193 351 193
q78 0 146 -26t110 -56q112 -80 211 -80t233 133l100 -176q-178 -190 -350 -190z" />
    <glyph glyph-name="notequal" unicode="&#x2260;" 
d="M1307 360h-756l-223 -210h-199l223 210h-225l84 244h397l281 266h-580l86 244h750l225 213h199l-226 -213h234l-86 -244h-404l-280 -266h586z" />
    <glyph glyph-name="lessequal" unicode="&#x2264;" 
d="M16 68l86 243h1180l-86 -243h-1180zM1305 369l-1057 333l133 388l1307 333l-93 -266l-1073 -266l871 -268z" />
    <glyph glyph-name="greaterequal" unicode="&#x2265;" 
d="M1196 68h-1180l86 243h1180zM1430 702l-1305 -333l90 266l1075 266l-872 268l90 254l1057 -333z" />
    <glyph glyph-name="lozenge" unicode="&#x25ca;" horiz-adv-x="1214" 
d="M416 752l-2 -572l395 543l2 575zM160 0l8 762l510 713h385l-6 -762l-510 -713h-387z" />
    <glyph glyph-name="dotlessj" unicode="&#xf6be;" horiz-adv-x="1261" 
d="M240 268q252 0 348 248l350 959h393l-373 -1031q-94 -264 -252 -369t-432 -105t-477 87l99 281q162 -70 344 -70z" />
    <glyph glyph-name="commaaccent" unicode="&#xf6c3;" horiz-adv-x="1732" 
d="M430 -432h-342l383 330h406z" />
    <glyph glyph-name="caron.alt" horiz-adv-x="1732" 
d="M948 932h-256l326 543h342z" />
    <glyph glyph-name="germandbls.cap" horiz-adv-x="3188" 
d="M610 -31q-430 0 -719 121l95 275q270 -125 594 -125q184 0 278 36t127 119q35 82 1 132t-152 75l-248 47q-465 90 -324 488q127 369 739 368q336 0 650 -119l-92 -266q-266 117 -564 117q-165 0 -247 -32t-111 -105q-33 -74 -4 -115t137 -63l254 -50q168 -34 260 -108
t104 -178t-34 -236q-76 -209 -260 -295t-484 -86zM2204 -31q-430 0 -719 121l94 275q270 -125 594 -125q184 0 278 36t127 119q35 82 1 132t-152 75l-248 47q-465 90 -324 488q127 369 740 368q336 0 649 -119l-92 -266q-266 117 -563 117q-164 0 -247 -32t-112 -105
q-33 -74 -4 -115t137 -63l254 -50q168 -34 260 -108q91 -74 103 -178t-33 -236q-76 -209 -259 -295t-484 -86z" />
    <glyph glyph-name="i.trk" horiz-adv-x="815" 
d="M338 0h-393l536 1475h393zM930 1622h-393l84 240h393z" />
    <glyph glyph-name="dollar.lt" 
d="M664 -31h-11l-71 -194h-170l73 200q-309 18 -540 115l94 275q256 -113 543 -125l145 399l-88 14q-469 74 -324 484q127 369 740 368h24l64 174h170l-66 -184q223 -23 457 -109l-92 -266q-209 92 -461 113l-127 -354l53 -9q168 -26 260 -102q91 -76 103 -181t-33 -237
q-76 -209 -259 -295t-484 -86zM928 604l-41 6l-135 -366q143 8 221 44q77 36 109 112t-2 129q-34 52 -152 75zM782 920l80 -13l119 328q-285 -8 -332 -135q-33 -74 -5 -116t138 -64z" />
    <glyph glyph-name="Euro.lt" 
d="M1290 1505q250 0 514 -98l-96 -285q-216 94 -400 94t-302 -56t-205 -193h620l-59 -166h-641q-2 -10 -15 -47t-26 -82h633l-60 -166h-591q6 -126 101 -186t291 -60t390 55l-98 -292q-188 -53 -410 -54q-324 -1 -495 139t-167 398h-276l59 166h236q10 53 35 129h-222
l60 166h225q133 289 359 413t540 125z" />
    <glyph glyph-name="cent.lt" 
d="M840 61h-19l-104 -286h-170l108 299q-307 47 -424 247t-3 514t347 446t568 132h2l96 266h170l-100 -276q184 -23 360 -88l-98 -283q-182 80 -365 90l-282 -772h22q236 0 438 56l-100 -291q-172 -54 -446 -54zM586 770q-62 -180 -20 -276t196 -127l274 751
q-339 -35 -450 -348z" />
    <glyph glyph-name="sterling.lt" 
d="M1380 276l-96 -276h-1384l82 231l110 29q207 49 264 211l13 35h-256l59 166h258l47 129h-256l60 166h256l22 61q87 244 273 364t483 120t495 -89l-98 -280q-158 70 -358 69q-328 0 -418 -245h522l-59 -166h-527l-49 -129h527l-60 -166h-530q-37 -94 -82 -146t-113 -84
h815z" />
    <glyph glyph-name="yen.lt" 
d="M1370 506h-420l-182 -506h-393l182 506h-418l60 166h419l48 129h-418l61 166h330l-297 508h369l237 -394l492 394h442l-655 -508h313l-61 -166h-420l-47 -129h418z" />
    <glyph glyph-name="zero.lt" 
d="M1000 1225q-196 -1 -309 -101q-114 -100 -210 -368q-180 -506 234 -506q186 0 300 100t210 369q87 264 29 385t-254 121zM1008 1505q222 1 372 -67t213 -184t69 -270t-65 -327q-135 -365 -340 -527t-561 -161q-222 0 -372 68q-150 67 -213 183t-69 270t64 327
q134 365 340 527t562 161z" />
    <glyph glyph-name="one.lt" 
d="M920 0h-394l414 1137l-643 -263l109 316l696 285h354z" />
    <glyph glyph-name="two.lt" 
d="M1282 0h-1362l64 180q43 123 143 178l668 357q161 84 223 125q63 42 93 76t46 77q45 113 -29 176t-290 63t-490 -71l98 279q242 66 502 65q385 0 538 -143t60 -389q-37 -99 -125 -185t-163 -130q-76 -44 -172 -94t-107 -56l-465 -232h864z" />
    <glyph glyph-name="three.lt" 
d="M600 -31q-358 0 -653 129l94 271q276 -129 559 -129q219 0 332 36q114 36 150 127q36 92 -18 158t-226 66h-473l77 229l740 342h-840l96 275h1354l-55 -156q-47 -133 -135 -176l-646 -307h27q311 0 426 -144t33 -366q-72 -193 -278 -274t-564 -81z" />
    <glyph glyph-name="four.lt" 
d="M1509 373h-245l-136 -373h-376l135 373h-901l102 301l887 700q104 100 205 101h485l-307 -846h241zM981 629l248 684l-828 -684h580z" />
    <glyph glyph-name="five.lt" 
d="M614 -31q-352 0 -637 127l95 264q264 -121 546 -120q207 0 322 39t154 139q38 100 -24 166q-62 64 -292 64t-557 -21l299 848h1235l-96 -275h-891l-115 -303q121 8 273 8q447 0 544 -236q58 -137 -14 -327q-74 -201 -282 -287t-560 -86z" />
    <glyph glyph-name="six.lt" 
d="M760 221q152 0 238 52t126 163q100 276 -276 277q-182 0 -379 -62q-61 -215 7 -323t284 -107zM744 -31q-304 0 -470 114q-166 115 -190 311t63 462q131 360 381 504t656 145q319 0 583 -102l-88 -264q-223 96 -487 96t-417 -78t-226 -262q201 57 414 57q336 0 477 -158
t45 -419q-80 -219 -259 -313q-178 -94 -482 -93z" />
    <glyph glyph-name="seven.lt" 
d="M586 0h-393l57 172q51 150 140 260t298 289l539 479h-905l96 275h1386l-55 -158q-27 -67 -54 -96t-53 -51q-25 -23 -28 -27l-604 -535q-190 -158 -261 -247t-116 -218z" />
    <glyph glyph-name="eight.lt" 
d="M684 229q180 0 273 40t130 141q43 125 -24 186q-68 61 -255 61q-188 0 -280 -41t-127 -137q-92 -250 283 -250zM898 823q171 0 255 41t125 153t-24 171q-66 59 -236 59t-254 -41q-84 -42 -126 -152t24 -170t236 -61zM680 -29q-436 1 -596 137t-76 365q47 125 165 203
t290 92q-121 38 -166 148t2 243q72 195 252 271t479 75q395 0 550 -130t75 -351q-45 -131 -151 -212t-253 -101q143 -33 195 -148t-2 -254q-68 -182 -251 -260t-513 -78z" />
    <glyph glyph-name="nine.lt" 
d="M520 -31q-319 0 -583 103l88 264q211 -96 481 -96t423 78t226 262q-201 -57 -414 -58q-336 0 -477 159t-45 419q80 219 259 312q178 93 482 93q304 1 470 -113t190 -311t-64 -463q-130 -360 -380 -504t-656 -145zM850 762q188 0 385 61q61 215 -8 323q-70 108 -285 107
q-150 0 -236 -52t-131 -174q-44 -121 22 -193q65 -72 253 -72z" />
    <glyph glyph-name="zero.numr" horiz-adv-x="1112" 
d="M741 1305q-106 1 -174 -61t-125 -218q-113 -303 136 -303q106 0 173 61t123 217q109 304 -133 304zM563 532q-283 0 -378 151t-9 382t217 331t363 99q280 -1 374 -151t11 -386q-85 -226 -217 -326t-361 -100z" />
    <glyph glyph-name="one.numr" horiz-adv-x="724" 
d="M524 553h-280l254 694l-322 -133l74 213l356 148h252z" />
    <glyph glyph-name="two.numr" horiz-adv-x="983" 
d="M565 1311q-133 0 -301 -45l68 188q164 41 321 41q248 0 344 -89t39 -245q-25 -63 -79 -115t-98 -78t-108 -60t-73 -38l-258 -129h516l-66 -188h-864l43 121q33 88 98 121l406 217q65 35 95 51t64 47t46 64q28 63 -16 100t-177 37z" />
    <glyph glyph-name="three.numr" horiz-adv-x="1030" 
d="M713 1071q193 0 263 -89t20 -218q-48 -128 -179 -180t-361 -52t-413 80l66 181q165 -76 321 -76t220 19q64 20 86 72t-9 89t-127 37h-299l55 156l441 198h-512l65 185h858l-39 -107q-31 -94 -94 -121l-373 -174h11z" />
    <glyph glyph-name="four.numr" horiz-adv-x="1050" 
d="M805 1475h344l-191 -525h148l-62 -174h-149l-80 -223h-266l82 223h-553l72 209l518 420q74 70 137 70zM694 950l150 410l-482 -410h332z" />
    <glyph glyph-name="five.numr" horiz-adv-x="1013" 
d="M452 532q-226 0 -403 78l64 181q164 -74 340 -74q242 0 278 94q25 63 -11 99t-178 36t-341 -12l190 541h787l-66 -187h-545l-65 -172q74 6 149 6q244 0 321 -99t19 -257q-49 -126 -181 -180t-358 -54z" />
    <glyph glyph-name="six.numr" horiz-adv-x="1050" 
d="M569 702q162 0 211 127q55 160 -159 160q-102 0 -207 -31q-78 -256 155 -256zM804 1495q232 0 402 -63l-61 -181q-131 61 -295 61t-252 -44q-88 -45 -131 -148q102 31 238 31q209 -1 297 -99t35 -250q-54 -152 -168 -211q-114 -58 -320 -59q-276 0 -370 151
q-93 151 -7 391t243 330t389 91z" />
    <glyph glyph-name="seven.numr" horiz-adv-x="940" 
d="M393 553h-278l41 119q37 98 88 164t174 159l352 293h-545l68 187h883l-39 -109q-11 -34 -28 -53q-17 -21 -23 -27t-22 -21q-17 -15 -22 -20l-393 -323q-111 -84 -151 -136t-70 -131z" />
    <glyph glyph-name="eight.numr" horiz-adv-x="1091" 
d="M543 707q102 -1 154 23t76 90t-13 103q-38 35 -142 35t-156 -24t-76 -90t15 -102q40 -35 142 -35zM675 1071q97 0 144 25t74 90q23 70 -12 104t-133 35q-98 0 -145 -25q-48 -25 -75 -88q-46 -141 147 -141zM543 532q-281 0 -382 86t-50 230q63 168 295 184
q-82 20 -113 90t-2 158q47 121 161 168t335 47t319 -82t49 -219q-59 -170 -256 -197q94 -20 128 -91t-1 -161q-44 -113 -158 -163t-325 -50z" />
    <glyph glyph-name="nine.numr" horiz-adv-x="1050" 
d="M707 1495q276 -1 369 -151t7 -390q-85 -240 -243 -332q-158 -90 -390 -90t-401 64l60 180q129 -59 295 -59t254 44q87 44 130 148q-109 -33 -237 -32q-209 0 -299 99t-29 263q49 139 163 197t321 59zM635 1038q98 0 207 31q78 256 -158 256q-162 0 -207 -127
q-57 -160 158 -160z" />
    <glyph glyph-name="zero.dnom" horiz-adv-x="1112" 
d="M541 752q-106 0 -174 -62t-125 -217q-113 -303 135 -303q106 0 173 61t124 218q109 303 -133 303zM362 -20q-284 0 -378 150t-8 382q86 230 216 330q132 100 363 100q281 0 375 -150t10 -386q-86 -227 -217 -327q-132 -99 -361 -99z" />
    <glyph glyph-name="one.dnom" horiz-adv-x="724" 
d="M324 0h-281l254 694l-322 -133l74 213l357 148h251z" />
    <glyph glyph-name="two.dnom" horiz-adv-x="983" 
d="M365 758q-133 0 -302 -45l68 188q164 41 322 41q248 0 344 -89t39 -245q-25 -63 -79 -115q-55 -52 -99 -78q-44 -25 -108 -59t-73 -39l-258 -129h516l-65 -188h-865l43 121q33 88 99 121l405 217q66 35 96 51t63 47q34 31 46 64q27 63 -16 100t-176 37z" />
    <glyph glyph-name="three.dnom" horiz-adv-x="1030" 
d="M512 518q192 0 262 -89t22 -218t-180 -180t-360 -51q-230 0 -414 79l66 181q166 -76 322 -76t220 19t86 71t-10 90q-32 37 -127 37h-299l56 156l440 198h-512l66 185h858l-39 -107q-31 -94 -95 -121l-372 -174h10z" />
    <glyph glyph-name="four.dnom" horiz-adv-x="1050" 
d="M604 922h344l-190 -525h147l-61 -174h-150l-80 -223h-266l82 223h-553l72 209l518 420q74 70 137 70zM494 397l149 410l-481 -410h332z" />
    <glyph glyph-name="five.dnom" horiz-adv-x="1013" 
d="M252 -20q-226 0 -404 77l64 181q164 -74 340 -74q242 0 278 94q25 63 -11 99t-177 36t-342 -12l190 541h787l-66 -187h-544l-66 -172q74 6 150 6q245 0 321 -99t19 -257q-49 -127 -181 -180t-358 -53z" />
    <glyph glyph-name="six.dnom" horiz-adv-x="1050" 
d="M369 150q162 0 211 126q55 160 -160 160q-102 0 -207 -30q-77 -256 156 -256zM348 -20q-276 0 -370 150q-93 152 -7 392t243 330q158 90 390 90t402 -63l-62 -181q-130 62 -294 62t-252 -45t-132 -148q100 31 238 31q210 0 298 -98t34 -250t-167 -212q-114 -58 -321 -58z
" />
    <glyph glyph-name="seven.dnom" horiz-adv-x="940" 
d="M193 0h-279l41 119q37 98 88 164t174 159l352 293h-544l67 187h883l-39 -109q-12 -37 -29 -55q-16 -18 -21 -24q-4 -6 -22 -22q-18 -15 -22 -20l-393 -323q-111 -83 -152 -135t-70 -132z" />
    <glyph glyph-name="eight.dnom" horiz-adv-x="1091" 
d="M418 406q-104 0 -156 -24t-77 -90t15 -102t142 -36t155 23q51 25 75 91t-13 102t-141 36zM474 518q97 0 144 25t74 90q23 71 -12 105t-132 34t-146 -24q-48 -25 -74 -89q-46 -141 146 -141zM342 -20q-281 0 -382 86t-50 229q63 168 295 184q-82 20 -113 90t-2 158
q47 121 161 168t335 47t319 -82t49 -219q-59 -170 -256 -197q94 -20 128 -91t-1 -160q-45 -113 -159 -163t-324 -50z" />
    <glyph glyph-name="nine.dnom" horiz-adv-x="1050" 
d="M250 -20q-232 0 -402 63l60 180q130 -59 296 -59t254 44q87 44 130 148q-109 -33 -238 -32q-209 0 -299 99t-28 263q49 139 162 198q114 58 321 58q276 0 370 -150q93 -152 7 -392t-244 -330q-157 -90 -389 -90zM434 485q98 0 207 31q78 256 -158 256q-162 0 -207 -127
q-57 -160 158 -160z" />
    <glyph glyph-name="numero" horiz-adv-x="3164" 
d="M2810 207h-844l64 188h843zM877 1475q156 0 170 -160l272 -1030l438 1190h352l-536 -1475h-559l-283 1180l-436 -1180h-350l536 1475h396zM2744 1305q-106 1 -174 -61t-125 -218q-113 -303 135 -303q106 0 174 61q67 61 123 217q109 304 -133 304zM2566 532
q-283 0 -378 151t-9 382t217 331t363 99q281 -1 375 -151t10 -386q-86 -226 -218 -326t-360 -100z" />
    <glyph glyph-name="bar.alt" horiz-adv-x="0" 
d="M-10 -530v2457h20v-2457h-20z" />
    <glyph glyph-name="space.alt" horiz-adv-x="446" 
 />
    </font>
</defs>
</svg>
