<?xml version="1.0" standalone="no"?>
<!DOCTYPE svg PUBLIC "-//W3C//DTD SVG 1.1//EN" "http://www.w3.org/Graphics/SVG/1.1/DTD/svg11.dtd" >
<svg xmlns="http://www.w3.org/2000/svg">
<metadata>
Created by FontPrep 20130207 at Thu May 10 15:01:15 2018
 By Mauricio Duran
Mathieu Reguer for Michelin
</metadata>
<defs>
<font id="21261526c58c46c19d9c5c988b9a9ba4" horiz-adv-x='1024' >
  <font-face 
    font-family="Michelin-Regular"
    font-weight="400"
    font-style="italic"
    font-stretch="semi-condensed"
    units-per-em="2048"
    panose-1="2 0 0 0 0 0 0 0 0 0"
    ascent="1536"
    descent="-512"
    x-height="1475"
    cap-height="1475"
    bbox="-428 -532 3687.09 1927"
    underline-thickness="169"
    underline-position="-261"
    slope="-20"
    unicode-range="U+0020-F6C3"
  />
<missing-glyph horiz-adv-x="927" 
d="M420 313q-74 -1 -119 -45t-45 -117t45 -119t119 -46t118 45t44 119t-44 118t-118 45zM459 1061q-418 0 -418 -359l289 -20q0 78 27 109q28 31 85 30q102 0 103 -73v-13q0 -49 -58 -69l-43 -19q-94 -37 -125 -97t-20 -202h244q0 58 14 76t80 49l72 31q158 74 157 264v12
q0 127 -102 204t-305 77zM-49 -348v1843h1026v-1843h-1026z" />
    <glyph glyph-name=".notdef" horiz-adv-x="927" 
d="M420 313q-74 -1 -119 -45t-45 -117t45 -119t119 -46t118 45t44 119t-44 118t-118 45zM459 1061q-418 0 -418 -359l289 -20q0 78 27 109q28 31 85 30q102 0 103 -73v-13q0 -49 -58 -69l-43 -19q-94 -37 -125 -97t-20 -202h244q0 58 14 76t80 49l72 31q158 74 157 264v12
q0 127 -102 204t-305 77zM-49 -348v1843h1026v-1843h-1026z" />
    <glyph glyph-name=".null" horiz-adv-x="0" 
 />
    <glyph glyph-name="nonmarkingreturn" horiz-adv-x="681" 
 />
    <glyph glyph-name="space" unicode=" " horiz-adv-x="614" 
 />
    <glyph glyph-name="exclam" unicode="!" horiz-adv-x="792" 
d="M276 0h-290l88 246h291zM373 434h-183l263 832l73 209h281l-76 -209z" />
    <glyph glyph-name="quotedbl" unicode="&#x22;" horiz-adv-x="1251" 
d="M610 961h-170l121 442l25 72h256l-25 -72zM973 961h-170l121 442l24 72h256l-24 -72z" />
    <glyph glyph-name="numbersign" unicode="#" horiz-adv-x="1699" 
d="M784 -2l140 383h-406l-139 -383h-203l139 383h-313l59 162h314l141 387h-291l58 162h292l140 383h203l-140 -383h406l139 383h203l-140 -383h314l-60 -162h-313l-141 -387h293l-60 -162h-293l-139 -383h-203zM983 543l141 387h-405l-141 -387h405z" />
    <glyph glyph-name="dollar" unicode="$" horiz-adv-x="1699" 
d="M674 -25h-15l-73 -200h-164l76 207q-303 20 -529 120l76 207q252 -121 522 -137l189 518l-92 19q-432 86 -299 454q121 336 682 336h30l66 180h164l-70 -192q215 -25 440 -113l-67 -196q-213 96 -441 122l-168 -460l56 -11q229 -47 303 -176t4 -321t-240 -275
q-170 -82 -450 -82zM942 651l-35 6l-178 -487q338 12 410 203q45 107 2 175t-199 103zM766 889l82 -17l160 437q-346 -2 -412 -179q-41 -94 -6 -151t176 -90z" />
    <glyph glyph-name="percent" unicode="%" horiz-adv-x="2721" 
d="M2170 793q-142 0 -226 -72t-146 -241t-17 -260q46 -91 189 -91t226 71q82 70 144 240t16 262q-44 92 -186 91zM1968 -16q-272 0 -362 148t-8 374t216 328q132 104 355 104q270 2 361 -148q90 -150 8 -374t-214 -328t-356 -104zM758 1346q-142 0 -226 -72t-146 -241
t-16 -260t189 -91t226 71t145 241t16 260q-46 92 -188 92zM1806 1475h228l-1116 -1473h-228zM557 537q-272 0 -362 148q-89 147 -7 373t214 330t356 103q270 2 361 -148q91 -151 8 -375t-215 -328t-355 -103z" />
    <glyph glyph-name="ampersand" unicode="&#x26;" horiz-adv-x="1871" 
d="M889 1497q255 0 367 -125t55 -297q-45 -131 -168 -209t-328 -131l315 -293l283 295h240l-391 -418l344 -319h-289l-201 184q-119 -108 -255 -158t-331 -51q-311 1 -443 141t-47 368t431 313q-86 109 -106 209t22 231q96 260 502 260zM542 152q154 0 250 34t193 121
l-364 336q-11 11 -35 31q-152 -39 -222 -87t-104 -145q-51 -146 38 -218q90 -72 244 -72zM602 1184q-63 -166 90 -330q193 45 281 99q88 55 122 149q33 94 -25 156t-184 62t-191 -30q-64 -30 -93 -106z" />
    <glyph glyph-name="quotesingle" unicode="'" horiz-adv-x="790" 
d="M561 961h-170l121 442l25 72h256l-25 -72z" />
    <glyph glyph-name="parenleft" unicode="(" horiz-adv-x="931" 
d="M434 -307h-186q-152 213 -175 524q-24 311 83 612q90 262 291 521q202 258 505 432h248q-590 -352 -829 -1006q-128 -362 -64 -739q35 -199 127 -344z" />
    <glyph glyph-name="parenright" unicode=")" horiz-adv-x="931" 
d="M502 1782h186q152 -212 176 -524t-84 -613q-122 -361 -424 -663q-168 -170 -372 -289h-246q588 350 827 1005q129 362 64 740q-35 199 -127 344z" />
    <glyph glyph-name="asterisk" unicode="*" horiz-adv-x="1042" 
d="M827 610l-184 303l-184 -303l-158 113l231 268l-344 82l60 184l325 -135l-28 353h194l-28 -355l325 137l62 -184l-344 -82l229 -268z" />
    <glyph glyph-name="plus" unicode="+" horiz-adv-x="1697" 
d="M1409 647h-500l-182 -500h-182l182 500h-500l66 182h500l182 500h182l-182 -500h500z" />
    <glyph glyph-name="comma" unicode="," horiz-adv-x="794" 
d="M29 -268h-193l326 514h282z" />
    <glyph glyph-name="hyphen" unicode="-" horiz-adv-x="792" 
d="M78 639l72 199h569l-74 -199h-567z" />
    <glyph glyph-name="period" unicode="." horiz-adv-x="792" 
d="M276 0h-290l88 246h291z" />
    <glyph glyph-name="slash" unicode="/" horiz-adv-x="1058" 
d="M1202 1782h240l-1581 -2089h-240z" />
    <glyph glyph-name="zero" unicode="0" horiz-adv-x="1712" 
d="M690 174q256 0 404 122q150 122 255 408t18 440q-87 156 -342 156t-405 -122t-255 -420q-103 -272 -17 -428t342 -156zM692 -25q-217 0 -363 67q-271 124 -275 442q-1 146 61 315q133 360 346 530t561 170q217 -1 363 -67q271 -123 275 -442q1 -146 -61 -314
q-133 -362 -345 -532t-562 -169z" />
    <glyph glyph-name="one" unicode="1" horiz-adv-x="1024" 
d="M518 0h-260l449 1235l-576 -240l80 226l612 254h232z" />
    <glyph glyph-name="two" unicode="2" horiz-adv-x="1507" 
d="M806 1303q-241 0 -497 -70l76 205q209 61 471 61q358 0 506 -142t59 -384q-42 -112 -145 -205q-102 -93 -412 -256l-588 -315h953l-72 -197h-1309l52 141q33 80 104 119l713 389q23 12 83 45t121 66t118 79t85 81t45 81q53 145 -34 224q-88 78 -329 78z" />
    <glyph glyph-name="three" unicode="3" horiz-adv-x="1579" 
d="M872 852q314 0 438 -150t47 -358t-271 -288q-194 -81 -533 -81q-338 0 -633 140l74 200q295 -145 553 -145t391 48t174 159q45 127 -20 216q-66 89 -279 89h-465l58 168l837 428h-901l72 195h1304l-39 -105q-33 -86 -94 -115l-778 -401h65z" />
    <glyph glyph-name="four" unicode="4" horiz-adv-x="1609" 
d="M1444 416h-266l-152 -416h-254l152 416h-949l74 202l1032 793q80 63 166 64h316l-318 -871h268zM991 604l266 731l-944 -731h678z" />
    <glyph glyph-name="five" unicode="5" horiz-adv-x="1542" 
d="M580 -25q-354 0 -629 136l74 194q283 -135 553 -135q455 0 536 225q51 139 -23 223q-75 84 -349 84t-549 -20l280 793h1178l-72 -195h-934l-145 -399q172 12 326 12q304 0 442 -111q192 -155 84 -442q-133 -365 -772 -365z" />
    <glyph glyph-name="six" unicode="6" horiz-adv-x="1566" 
d="M696 162q186 0 292 59q105 59 151 191q121 342 -342 342q-231 0 -471 -82q-130 -510 370 -510zM1133 1499q287 0 540 -102l-65 -195q-223 102 -497 102t-457 -98q-183 -100 -265 -344q213 76 479 76q332 0 467 -158t43 -413q-76 -211 -250 -301t-460 -91q-401 0 -544 244
q-142 244 3 639q127 350 374 496t632 145z" />
    <glyph glyph-name="seven" unicode="7" horiz-adv-x="1382" 
d="M373 0h-260l57 174q57 168 165 303t355 354l506 449h-971l72 195h1315l-39 -107q-18 -51 -92 -113l-594 -522q-242 -211 -328 -323t-141 -273z" />
    <glyph glyph-name="eight" unicode="8" horiz-adv-x="1685" 
d="M656 168q236 0 354 45t164 174t-44 203t-328 74t-356 -46t-155 -157q-51 -143 39 -218t326 -75zM896 815q218 0 324 47q105 47 151 178t-36 200t-300 69t-324 -46t-152 -169q-47 -141 36 -210t301 -69zM662 -23q-406 1 -559 135t-66 367q45 117 161 196t275 95
q-113 43 -154 152t3 221t109 181q123 126 362 160q106 15 243 15q376 0 522 -131t64 -350q-47 -123 -148 -204t-241 -103q133 -39 180 -150t-4 -239q-74 -193 -257 -269t-490 -76z" />
    <glyph glyph-name="nine" unicode="9" horiz-adv-x="1564" 
d="M438 -25q-287 0 -540 103l65 192q215 -100 488 -100q434 0 617 227q71 88 114 215q-217 -76 -477 -75q-334 1 -469 159t-43 412q76 209 250 300q175 91 460 91q401 0 543 -244t-2 -639q-127 -350 -374 -496t-632 -145zM774 721q231 0 471 82q131 510 -371 510
q-186 -1 -291 -61t-151 -189q-121 -342 342 -342z" />
    <glyph glyph-name="colon" unicode=":" horiz-adv-x="892" 
d="M324 0h-291l88 246h291zM569 672h-290l88 246h290z" />
    <glyph glyph-name="semicolon" unicode=";" horiz-adv-x="892" 
d="M78 -268h-193l326 514h283zM571 672h-290l88 246h290z" />
    <glyph glyph-name="less" unicode="&#x3c;" horiz-adv-x="1697" 
d="M1249 215l-1040 385l102 283l1323 385l-71 -201l-1153 -334l907 -334z" />
    <glyph glyph-name="equal" unicode="=" horiz-adv-x="1697" 
d="M137 399l66 181h1181l-65 -181h-1182zM317 897l66 180h1182l-66 -180h-1182z" />
    <glyph glyph-name="greater" unicode="&#x3e;" horiz-adv-x="1699" 
d="M70 215l71 201l1153 334l-907 333l68 185l1040 -385l-102 -283z" />
    <glyph glyph-name="question" unicode="?" horiz-adv-x="1269" 
d="M338 0h-291l90 246h289zM1098 1119q0 47 -30 97q-62 102 -359 103q-193 0 -428 -68l73 205q205 55 399 55q346 0 481 -113q183 -153 81 -423q-69 -186 -221 -270t-408 -105l-199 -16l-55 -156h-207l119 328l238 16q224 16 336 64t157 174q23 61 23 109z" />
    <glyph glyph-name="at" unicode="@" horiz-adv-x="2113" 
d="M903 479q152 0 293 162l127 342h-186q-133 0 -216 -55q-83 -54 -129 -190t-20 -198t131 -61zM883 -41q-493 0 -689 247t-49 638q133 364 399 518t695 154q215 0 378 -46q297 -85 395 -306q88 -198 -3 -445q-74 -197 -208 -305t-312 -107q-223 0 -268 168
q-90 -82 -174 -122t-204 -40t-198 65q-142 119 -57 388q143 385 602 385h405l-180 -498q-68 -186 109 -186q102 0 186 75t135 224q27 94 32 182t-36 166q-138 262 -624 262q-349 0 -567 -128t-328 -433q-121 -319 26 -517t559 -198q287 0 586 99l-59 -162q-254 -78 -551 -78
z" />
    <glyph glyph-name="A" unicode="A" horiz-adv-x="1656" 
d="M1143 0l-21 367h-780l-270 -367h-281l1051 1380q66 94 176 95h274l99 -1475h-248zM1110 561l-43 785l-582 -785h625z" />
    <glyph glyph-name="B" unicode="B" horiz-adv-x="1812" 
d="M1272 1475q282 0 390 -124t34 -327q-86 -229 -369 -291q150 -41 204 -157t-1 -261q-121 -315 -602 -315h-955l537 1475h762zM975 649h-506l-166 -456h559q201 1 295 39t133 143q46 135 -32 205t-283 69zM1171 1282h-471l-165 -453h419q213 0 328 45t159 171
q44 125 -19 181t-251 56z" />
    <glyph glyph-name="C" unicode="C" horiz-adv-x="1628" 
d="M1135 1298q-563 0 -738 -526q-98 -292 20 -444t429 -152q266 0 465 60l-74 -203q-170 -57 -461 -58q-420 1 -591 233t-29 617q248 674 993 674q274 0 526 -98l-71 -199q-213 96 -469 96z" />
    <glyph glyph-name="D" unicode="D" horiz-adv-x="1820" 
d="M1122 1475q203 0 343 -65t202 -174q61 -110 69 -254t-57 -304q-129 -352 -355 -515t-617 -163h-734l537 1475h612zM1106 1280h-408l-393 -1083h410q291 -1 451 115t260 390t15 426t-335 152z" />
    <glyph glyph-name="E" unicode="E" horiz-adv-x="1574" 
d="M-27 0l537 1475h1225l-72 -193h-963l-163 -448h866l-72 -193h-864l-164 -448h965l-70 -193h-1225z" />
    <glyph glyph-name="F" unicode="F" horiz-adv-x="1513" 
d="M1309 559h-873l-203 -559h-260l537 1475h1225l-72 -195h-965l-190 -524h872z" />
    <glyph glyph-name="G" unicode="G" horiz-adv-x="1730" 
d="M1184 1499q270 0 532 -100l-71 -199q-221 98 -476 98q-600 0 -772 -526q-199 -598 480 -598q125 0 231 14l164 453h252l-217 -606q-188 -59 -492 -60q-443 1 -623 231t-36 619q246 674 1028 674z" />
    <glyph glyph-name="H" unicode="H" horiz-adv-x="1884" 
d="M1118 0l234 639h-885l-234 -639h-260l537 1475h260l-231 -637h884l232 637h260l-537 -1475h-260z" />
    <glyph glyph-name="I" unicode="I" horiz-adv-x="739" 
d="M233 0h-260l537 1475h260z" />
    <glyph glyph-name="J" unicode="J" horiz-adv-x="1208" 
d="M227 180q296 0 402 293l364 1002h258l-370 -1033q-92 -254 -243 -360t-410 -106t-437 85l72 195q162 -76 364 -76z" />
    <glyph glyph-name="K" unicode="K" horiz-adv-x="1740" 
d="M1141 0l-459 639h-215l-234 -639h-260l537 1475h260l-231 -637h206l875 637h307l-1016 -760l510 -715h-280z" />
    <glyph glyph-name="L" unicode="L" horiz-adv-x="1501" 
d="M-27 0l537 1475h260l-465 -1276h948l-71 -199h-1209z" />
    <glyph glyph-name="M" unicode="M" horiz-adv-x="2406" 
d="M754 1475q84 0 118 -33t41 -115l101 -1098l993 1246h430l-534 -1475h-263l465 1276l-1030 -1276h-278l-113 1288l-469 -1288h-242l537 1475h244z" />
    <glyph glyph-name="N" unicode="N" horiz-adv-x="1996" 
d="M741 1475q125 0 146 -99l403 -1183l467 1282h246l-537 -1475h-364l-422 1276l-465 -1276h-242l537 1475h231z" />
    <glyph glyph-name="O" unicode="O" 
d="M791 174q264 0 429 121t273 418q106 276 8 432t-407 155q-262 0 -427 -120t-272 -416q-109 -278 -11 -434t407 -156zM774 -25q-553 0 -665 342q-67 198 36 480q131 362 363 532t606 170q238 -1 396 -67t224 -179q64 -113 70 -261t-61 -314q-133 -362 -365 -532t-604 -171
z" />
    <glyph glyph-name="P" unicode="P" horiz-adv-x="1646" 
d="M811 430h-422l-156 -430h-260l537 1475h537q411 0 541 -167q130 -166 31 -430t-279 -356t-529 -92zM997 1282h-297l-239 -659h362q256 0 368 57t173 223q76 205 -5 292t-362 87z" />
    <glyph glyph-name="Q" unicode="Q" 
d="M913 -512q-254 0 -358 124t-6 382q-168 28 -277 104q-201 139 -188 421q6 130 61 278q131 362 363 532t606 170q238 -1 396 -67t224 -179q64 -113 70 -261t-61 -314q-133 -362 -365 -532t-604 -171h-8q-51 -115 -35 -181q17 -66 77 -94q60 -26 170 -26t206 19l-62 -185
q-90 -20 -209 -20zM791 174q264 0 429 121t273 418q106 276 8 432t-407 155q-262 0 -427 -120t-272 -416q-109 -278 -11 -434t407 -156z" />
    <glyph glyph-name="R" unicode="R" horiz-adv-x="1728" 
d="M1087 1475q379 0 508 -151t31 -415q-119 -326 -512 -364l213 -545h-266l-184 512h-457l-187 -512h-260l537 1475h577zM1026 1282h-326l-211 -577h353q256 0 370 48t162 191q66 186 -7 262t-341 76z" />
    <glyph glyph-name="S" unicode="S" horiz-adv-x="1562" 
d="M604 -25q-424 0 -702 127l73 207q293 -141 619 -141q387 0 461 205q45 106 2 173t-199 101l-264 58q-428 92 -299 458q121 336 684 336q301 0 631 -125l-70 -196q-283 131 -586 131q-348 0 -411 -179q-41 -94 -6 -149t176 -88l274 -59q231 -50 305 -180t4 -322t-240 -275
q-170 -82 -452 -82z" />
    <glyph glyph-name="T" unicode="T" horiz-adv-x="1525" 
d="M1669 1276h-575l-465 -1276h-260l465 1276h-584l74 199h1419z" />
    <glyph glyph-name="U" unicode="U" horiz-adv-x="1806" 
d="M682 -25q-360 0 -495 173q-134 173 -33 450l315 877h260l-317 -879q-80 -220 -1 -320t308 -100t358 84t221 336l318 879h260l-317 -883q-127 -354 -322 -486t-555 -131z" />
    <glyph glyph-name="V" unicode="V" horiz-adv-x="1646" 
d="M651 0h-282l-99 1475h254l76 -1303l961 1303h299l-1051 -1381q-66 -94 -158 -94z" />
    <glyph glyph-name="W" unicode="W" horiz-adv-x="2664" 
d="M291 0v1475h254l-15 -1307l854 1307h365l-31 -1299l858 1299h281l-934 -1381q-63 -94 -162 -94h-278l20 1288l-794 -1194q-55 -94 -166 -94h-252z" />
    <glyph glyph-name="X" unicode="X" horiz-adv-x="1726" 
d="M1116 0l-287 612l-725 -612h-321l913 762l-346 713h268l287 -615l729 615h314l-914 -764l346 -711h-264z" />
    <glyph glyph-name="Y" unicode="Y" horiz-adv-x="1665" 
d="M686 0h-260l233 641l-389 834h254l310 -656l790 656h311l-1022 -852z" />
    <glyph glyph-name="Z" unicode="Z" horiz-adv-x="1632" 
d="M1266 0h-1379l39 102q25 63 92 113l1338 1065h-975l72 195h1329l-62 -166l-1405 -1112h1020z" />
    <glyph glyph-name="bracketleft" unicode="[" horiz-adv-x="870" 
d="M-168 -305l760 2085h616l-61 -168h-406l-639 -1749h406l-62 -168h-614z" />
    <glyph glyph-name="backslash" unicode="\" horiz-adv-x="958" 
d="M580 1782v-2089h-197v2089h197z" />
    <glyph glyph-name="bracketright" unicode="]" horiz-adv-x="872" 
d="M-332 -305l62 168h405l639 1749h-405l61 168h614l-761 -2085h-615z" />
    <glyph glyph-name="asciicircum" unicode="^" horiz-adv-x="1677" 
d="M1073 150l-37 1054l-823 -1054h-211l926 1175h282l43 -1175h-180z" />
    <glyph glyph-name="underscore" unicode="_" horiz-adv-x="1431" 
d="M-428 -512l61 168h1383l-62 -168h-1382z" />
    <glyph glyph-name="grave" unicode="`" horiz-adv-x="1714" 
d="M1257 1577l-290 330h266l250 -330h-226z" />
    <glyph glyph-name="a" unicode="a" horiz-adv-x="1656" 
d="M1143 0l-21 367h-780l-270 -367h-281l1051 1380q66 94 176 95h274l99 -1475h-248zM1110 561l-43 785l-582 -785h625z" />
    <glyph glyph-name="b" unicode="b" horiz-adv-x="1812" 
d="M1272 1475q282 0 390 -124t34 -327q-86 -229 -369 -291q150 -41 204 -157t-1 -261q-121 -315 -602 -315h-955l537 1475h762zM975 649h-506l-166 -456h559q201 1 295 39t133 143q46 135 -32 205t-283 69zM1171 1282h-471l-165 -453h419q213 0 328 45t159 171
q44 125 -19 181t-251 56z" />
    <glyph glyph-name="c" unicode="c" horiz-adv-x="1628" 
d="M1135 1298q-563 0 -738 -526q-98 -292 20 -444t429 -152q266 0 465 60l-74 -203q-170 -57 -461 -58q-420 1 -591 233t-29 617q248 674 993 674q274 0 526 -98l-71 -199q-213 96 -469 96z" />
    <glyph glyph-name="d" unicode="d" horiz-adv-x="1820" 
d="M1122 1475q203 0 343 -65t202 -174q61 -110 69 -254t-57 -304q-129 -352 -355 -515t-617 -163h-734l537 1475h612zM1106 1280h-408l-393 -1083h410q291 -1 451 115t260 390t15 426t-335 152z" />
    <glyph glyph-name="e" unicode="e" horiz-adv-x="1574" 
d="M-27 0l537 1475h1225l-72 -193h-963l-163 -448h866l-72 -193h-864l-164 -448h965l-70 -193h-1225z" />
    <glyph glyph-name="f" unicode="f" horiz-adv-x="1513" 
d="M1309 559h-873l-203 -559h-260l537 1475h1225l-72 -195h-965l-190 -524h872z" />
    <glyph glyph-name="g" unicode="g" horiz-adv-x="1730" 
d="M1184 1499q270 0 532 -100l-71 -199q-221 98 -476 98q-600 0 -772 -526q-199 -598 480 -598q125 0 231 14l164 453h252l-217 -606q-188 -59 -492 -60q-443 1 -623 231t-36 619q246 674 1028 674z" />
    <glyph glyph-name="h" unicode="h" horiz-adv-x="1884" 
d="M1118 0l234 639h-885l-234 -639h-260l537 1475h260l-231 -637h884l232 637h260l-537 -1475h-260z" />
    <glyph glyph-name="i" unicode="i" horiz-adv-x="739" 
d="M233 0h-260l537 1475h260z" />
    <glyph glyph-name="j" unicode="j" horiz-adv-x="1208" 
d="M227 180q296 0 402 293l364 1002h258l-370 -1033q-92 -254 -243 -360t-410 -106t-437 85l72 195q162 -76 364 -76z" />
    <glyph glyph-name="k" unicode="k" horiz-adv-x="1740" 
d="M1141 0l-459 639h-215l-234 -639h-260l537 1475h260l-231 -637h206l875 637h307l-1016 -760l510 -715h-280z" />
    <glyph glyph-name="l" unicode="l" horiz-adv-x="1482" 
d="M-27 0l537 1475h260l-465 -1276h948l-71 -199h-1209z" />
    <glyph glyph-name="m" unicode="m" horiz-adv-x="2406" 
d="M754 1475q84 0 118 -33t41 -115l101 -1098l993 1246h430l-534 -1475h-263l465 1276l-1030 -1276h-278l-113 1288l-469 -1288h-242l537 1475h244z" />
    <glyph glyph-name="n" unicode="n" horiz-adv-x="1996" 
d="M741 1475q125 0 146 -99l403 -1183l467 1282h246l-537 -1475h-364l-422 1276l-465 -1276h-242l537 1475h231z" />
    <glyph glyph-name="o" unicode="o" 
d="M791 174q264 0 429 121t273 418q106 276 8 432t-407 155q-262 0 -427 -120t-272 -416q-109 -278 -11 -434t407 -156zM774 -25q-553 0 -665 342q-67 198 36 480q131 362 363 532t606 170q238 -1 396 -67t224 -179q64 -113 70 -261t-61 -314q-133 -362 -365 -532t-604 -171
z" />
    <glyph glyph-name="p" unicode="p" horiz-adv-x="1646" 
d="M811 430h-422l-156 -430h-260l537 1475h537q411 0 541 -167q130 -166 31 -430t-279 -356t-529 -92zM997 1282h-297l-239 -659h362q256 0 368 57t173 223q76 205 -5 292t-362 87z" />
    <glyph glyph-name="q" unicode="q" 
d="M913 -512q-254 0 -358 124t-6 382q-168 28 -277 104q-201 139 -188 421q6 130 61 278q131 362 363 532t606 170q238 -1 396 -67t224 -179q64 -113 70 -261t-61 -314q-133 -362 -365 -532t-604 -171h-8q-51 -115 -35 -181q17 -66 77 -94q60 -26 170 -26t206 19l-62 -185
q-90 -20 -209 -20zM791 174q264 0 429 121t273 418q106 276 8 432t-407 155q-262 0 -427 -120t-272 -416q-109 -278 -11 -434t407 -156z" />
    <glyph glyph-name="r" unicode="r" horiz-adv-x="1728" 
d="M1087 1475q379 0 508 -151t31 -415q-119 -326 -512 -364l213 -545h-266l-184 512h-457l-187 -512h-260l537 1475h577zM1026 1282h-326l-211 -577h353q256 0 370 48t162 191q66 186 -7 262t-341 76z" />
    <glyph glyph-name="s" unicode="s" horiz-adv-x="1562" 
d="M604 -25q-424 0 -702 127l73 207q293 -141 619 -141q387 0 461 205q45 106 2 173t-199 101l-264 58q-428 92 -299 458q121 336 684 336q301 0 631 -125l-70 -196q-283 131 -586 131q-348 0 -411 -179q-41 -94 -6 -149t176 -88l274 -59q231 -50 305 -180t4 -322t-240 -275
q-170 -82 -452 -82z" />
    <glyph glyph-name="t" unicode="t" horiz-adv-x="1490" 
d="M1669 1276h-575l-465 -1276h-260l465 1276h-584l74 199h1419z" />
    <glyph glyph-name="u" unicode="u" horiz-adv-x="1806" 
d="M682 -25q-360 0 -495 173q-134 173 -33 450l315 877h260l-317 -879q-80 -220 -1 -320t308 -100t358 84t221 336l318 879h260l-317 -883q-127 -354 -322 -486t-555 -131z" />
    <glyph glyph-name="v" unicode="v" horiz-adv-x="1646" 
d="M651 0h-282l-99 1475h254l76 -1303l961 1303h299l-1051 -1381q-66 -94 -158 -94z" />
    <glyph glyph-name="w" unicode="w" horiz-adv-x="2664" 
d="M291 0v1475h254l-15 -1307l854 1307h365l-31 -1299l858 1299h281l-934 -1381q-63 -94 -162 -94h-278l20 1288l-794 -1194q-55 -94 -166 -94h-252z" />
    <glyph glyph-name="x" unicode="x" horiz-adv-x="1726" 
d="M1116 0l-287 612l-725 -612h-321l913 762l-346 713h268l287 -615l729 615h314l-914 -764l346 -711h-264z" />
    <glyph glyph-name="y" unicode="y" horiz-adv-x="1665" 
d="M686 0h-260l233 641l-389 834h254l310 -656l790 656h311l-1022 -852z" />
    <glyph glyph-name="z" unicode="z" horiz-adv-x="1632" 
d="M1266 0h-1379l39 102q25 63 92 113l1338 1065h-975l72 195h1329l-62 -166l-1405 -1112h1020z" />
    <glyph glyph-name="braceleft" unicode="{" horiz-adv-x="948" 
d="M1006 1782q144 0 251 -41l-45 -148q-90 23 -179 23t-139 -32t-85 -132l-119 -326q-68 -188 -129 -254t-188 -84q174 -63 86 -296l-174 -476q-37 -80 -11 -125t141 -45q114 0 167 7l-58 -142q-78 -16 -207 -16q-168 0 -228 92t3 272l182 494q31 90 7 123q-25 33 -109 33
h-74l68 186h43q190 0 258 188l156 424q53 147 146 211t237 64z" />
    <glyph glyph-name="bar" unicode="|" horiz-adv-x="942" 
d="M750 1782h208l-761 -2089h-209z" />
    <glyph glyph-name="braceright" unicode="}" horiz-adv-x="946" 
d="M-56 -305q-146 0 -251 41l45 147q90 -23 179 -23t139 32t85 133l119 325q68 188 129 254t189 84q-174 61 -86 297l174 475q37 80 10 125t-139 45q-57 0 -168 -6l57 141q82 16 207 17q168 0 228 -92t-3 -273l-182 -493q-31 -88 -6 -122t108 -34h76l-70 -186h-43
q-190 0 -258 -189l-155 -424q-54 -152 -146 -213t-238 -61z" />
    <glyph glyph-name="asciitilde" unicode="~" horiz-adv-x="1660" 
d="M578 694q-109 0 -242 -133l-80 129q172 182 330 182q80 0 150 -26t111 -54q117 -82 212 -81q57 -1 110 27t136 106l79 -129q-90 -94 -166 -138q-76 -45 -171 -45q-93 0 -177 41t-154 81t-138 40z" />
    <glyph glyph-name="exclamdown" unicode="&#xa1;" horiz-adv-x="792" 
d="M418 1040h182l-262 -831l-74 -209h-280l75 209zM514 1475h291l-88 -246h-291z" />
    <glyph glyph-name="cent" unicode="&#xa2;" horiz-adv-x="1701" 
d="M825 61q-39 0 -59 2l-104 -288h-164l112 307q-281 55 -381 248t7 493q205 571 860 590l96 266h164l-99 -272q201 -16 394 -90l-72 -201q-178 82 -393 94l-346 -946q18 -2 55 -2q266 0 457 57l-74 -202q-168 -56 -453 -56zM473 776q-139 -410 209 -493l338 925
q-418 -41 -547 -432z" />
    <glyph glyph-name="sterling" unicode="&#xa3;" horiz-adv-x="1699" 
d="M1339 1305q-385 0 -491 -293l-12 -35h610l-55 -160h-613l-59 -160h612l-57 -159h-612l-25 -70q-33 -92 -83 -145t-124 -86h903l-71 -197h-1350l65 176l97 21q238 51 305 239l22 62h-274l57 159h275l57 160h-272l55 160h274l23 61q88 246 269 358t459 112t458 -87
l-72 -194q-160 78 -371 78z" />
    <glyph glyph-name="currency" unicode="&#xa4;" horiz-adv-x="1699" 
d="M782 418q147 0 240 68q92 69 156 239q119 342 -224 342q-147 0 -240 -69t-155 -238q-121 -342 223 -342zM740 276q-160 0 -271 66l-260 -190l-92 143l241 178q-52 127 12 302t158 274l-108 172l155 106l109 -170q116 53 298 53t290 -67l252 184l92 -143l-236 -172
q49 -127 -16 -310q-78 -203 -199 -303l86 -137l-153 -110l-99 157q-99 -33 -259 -33z" />
    <glyph glyph-name="yen" unicode="&#xa5;" horiz-adv-x="1697" 
d="M1325 498h-436l-182 -498h-261l183 498h-432l55 159h434l57 160h-432l58 160h346l-357 498h269l313 -439l610 439h326l-711 -498h332l-57 -160h-436l-58 -160h434z" />
    <glyph glyph-name="brokenbar" unicode="&#xa6;" horiz-adv-x="1011" 
d="M287 516h209l-299 -823h-209zM958 1782l-299 -821h-208l299 821h208z" />
    <glyph glyph-name="section" unicode="&#xa7;" horiz-adv-x="1372" 
d="M449 -20q-238 0 -435 73l66 178q162 -76 395 -75q143 0 211 26t90 82q37 104 -90 133l-285 68q-151 35 -205 118t-18 178t89 142q54 47 159 86q-117 94 -49 273q86 236 545 235q238 0 434 -74l-66 -180q-160 78 -395 78q-143 0 -211 -26t-88 -83q-39 -104 88 -133
l285 -67q154 -35 208 -119t17 -178q-37 -93 -91 -141t-159 -89q117 -92 49 -270q-85 -235 -544 -235zM782 557q16 -4 29 -8q86 41 124 75t54 85q35 109 -96 137l-305 74q-12 6 -27 6q-86 -39 -125 -74t-55 -86q-31 -104 96 -137z" />
    <glyph glyph-name="dieresis" unicode="&#xa8;" horiz-adv-x="1712" 
d="M1104 1647h-230l68 190h229zM1505 1647h-229l70 190h229z" />
    <glyph glyph-name="copyright" unicode="&#xa9;" horiz-adv-x="2113" 
d="M1051 414q166 0 290 37l-57 -156q-109 -35 -293 -35q-279 0 -389 146t-18 391q152 418 641 417q182 0 342 -59l-56 -154q-133 59 -290 60q-334 0 -439 -305q-109 -342 269 -342zM907 98q365 0 572 125t323 428q66 156 62 288t-68 229q-64 96 -212 152t-372 56
q-368 0 -574 -125t-321 -428q-61 -157 -61 -287q0 -280 280 -383q148 -55 371 -55zM883 -41q-500 0 -693 246t-45 639q135 368 391 520t703 152q250 0 428 -67t265 -185q88 -118 104 -279q16 -162 -60 -352q-139 -371 -393 -523t-700 -151z" />
    <glyph glyph-name="ordfeminine" unicode="&#xaa;" horiz-adv-x="1112" 
d="M827 233h-831l49 146h832zM739 1475h228l47 -922h-195l-8 213h-471l-154 -213h-217l637 852q55 70 133 70zM805 911l-19 469l-340 -469h359z" />
    <glyph glyph-name="guillemotleft" unicode="&#xab;" horiz-adv-x="1343" 
d="M1198 1262h236l-574 -531l197 -518h-209l-223 535zM676 1262h235l-573 -531l197 -518h-209l-224 535z" />
    <glyph glyph-name="logicalnot" unicode="&#xac;" horiz-adv-x="1697" 
d="M1227 147h-180l180 500h-1000l66 182h1182z" />
    <glyph glyph-name="registered" unicode="&#xae;" horiz-adv-x="2113" 
d="M1229 1229q237 0 321 -97t21 -264q-76 -201 -320 -227l135 -334h-210l-111 305h-248l-110 -305h-209l336 922h395zM1174 1087h-183l-123 -333h197q143 0 208 28t99 123q34 94 -9 138q-42 44 -189 44zM907 98q365 0 572 125t323 428q66 156 62 288t-68 229
q-64 96 -212 152t-372 56q-368 0 -574 -125t-321 -428q-61 -157 -61 -287q0 -280 280 -383q148 -55 371 -55zM883 -41q-500 0 -693 246t-45 639q135 368 391 520t703 152q250 0 428 -67t265 -185q88 -118 104 -279q16 -162 -60 -352q-139 -371 -393 -523t-700 -151z" />
    <glyph glyph-name="macron" unicode="&#xaf;" horiz-adv-x="1712" 
d="M1626 1686h-844l49 147h844z" />
    <glyph glyph-name="degree" unicode="&#xb0;" horiz-adv-x="1259" 
d="M641 678q152 0 248 70t160 243q127 350 -228 350q-154 1 -249 -69t-158 -244q-127 -350 227 -350zM625 532q-301 0 -399 146t-13 374q84 228 232 331t393 104q299 3 397 -145t14 -374t-232 -331t-392 -105z" />
    <glyph glyph-name="plusminus" unicode="&#xb1;" horiz-adv-x="1697" 
d="M45 147l68 181h1181l-67 -181h-1182zM1464 801h-499l-127 -346h-181l125 346h-499l67 182h500l125 346h182l-127 -346h502z" />
    <glyph glyph-name="twosuperior" unicode="&#xb2;" horiz-adv-x="983" 
d="M702 1624q-144 0 -307 -43l56 148q145 39 305 38q233 0 326 -88t38 -241q-23 -64 -82 -118t-110 -84t-160 -87l-324 -174h564l-54 -146h-835l37 99q23 63 77 90l429 235q67 33 84 46q18 12 45 27q27 16 37 24t28 22q42 32 62 82q28 80 -22 125t-194 45z" />
    <glyph glyph-name="threesuperior" unicode="&#xb3;" horiz-adv-x="1028" 
d="M560 813q-220 0 -398 84l53 143q175 -86 335 -86t236 27t101 95t-13 116q-38 49 -155 49h-295l45 121l494 246h-547l53 141h831l-28 -80q-27 -66 -74 -88l-444 -223h30q195 0 270 -92q74 -92 26 -222t-174 -180q-126 -51 -346 -51z" />
    <glyph glyph-name="acute" unicode="&#xb4;" horiz-adv-x="1710" 
d="M1112 1577h-252l420 330h305z" />
    <glyph glyph-name="paragraph" unicode="&#xb6;" horiz-adv-x="1433" 
d="M627 731q-541 0 -387 430q61 170 193 242t331 72h356l-536 -1475h-183l267 731h-41zM930 0h-182l536 1475h182z" />
    <glyph glyph-name="periodcentered" unicode="&#xb7;" horiz-adv-x="792" 
d="M502 616h-291l88 246h291z" />
    <glyph glyph-name="cedilla" unicode="&#xb8;" horiz-adv-x="1712" 
d="M546 -305q98 0 120 61q22 60 2 118t-97 144h185q78 -106 94 -153q28 -83 -6 -168q-59 -150 -285 -150q-164 1 -262 54l41 135q111 -41 208 -41z" />
    <glyph glyph-name="onesuperior" unicode="&#xb9;" horiz-adv-x="696" 
d="M575 829h-206l268 746l-344 -145l59 165l373 156h184z" />
    <glyph glyph-name="ordmasculine" unicode="&#xba;" horiz-adv-x="1234" 
d="M862 233h-831l49 146h831zM627 674q151 0 247 70t160 243q127 350 -227 350q-154 1 -249 -69t-159 -244q-126 -350 228 -350zM610 528q-301 0 -398 146t-13 374q84 226 232 330t392 105q299 3 397 -145t15 -374q-85 -226 -233 -331t-392 -105z" />
    <glyph glyph-name="guillemotright" unicode="&#xbb;" horiz-adv-x="1341" 
d="M150 213h-236l573 530l-196 519h209l223 -535zM672 213h-236l574 530l-197 519h209l223 -535z" />
    <glyph glyph-name="onequarter" unicode="&#xbc;" horiz-adv-x="2242" 
d="M2028 246h-162l-88 -246h-201l90 246h-575l55 155l596 469q57 51 117 52h251l-194 -537h162zM1718 385l156 432l-539 -432h383zM475 553h-207l269 745l-344 -145l59 166l373 156h184zM1468 1475h228l-1116 -1473h-228z" />
    <glyph glyph-name="onehalf" unicode="&#xbd;" horiz-adv-x="2181" 
d="M1596 795q-144 0 -306 -43l56 147q145 39 305 39q233 0 326 -88t38 -242q-23 -64 -82 -118t-110 -84t-160 -87l-324 -174h564l-54 -145h-835l37 98q23 63 77 90l428 236q63 31 83 44q20 12 47 28q26 16 36 24t42 33t48 72q29 80 -21 125q-51 45 -195 45zM475 553h-207
l269 745l-344 -145l59 166l373 156h184zM1393 1475h227l-1116 -1473h-228z" />
    <glyph glyph-name="threequarters" unicode="&#xbe;" horiz-adv-x="2574" 
d="M2361 246h-161l-89 -246h-200l90 246h-576l56 155l596 469q57 51 116 52h252l-194 -537h162zM460 537q-220 0 -399 84l54 143q175 -86 335 -86t236 27t100 95t-12 116q-37 48 -156 49h-294l45 120l493 246h-547l54 142h831l-29 -80q-27 -66 -73 -88l-445 -224h31
q196 0 270 -92t26 -221t-174 -180t-346 -51zM2052 385l156 432l-539 -432h383zM1784 1475h227l-1116 -1473h-227z" />
    <glyph glyph-name="questiondown" unicode="&#xbf;" horiz-adv-x="1269" 
d="M638 -37q-345 0 -481 114q-183 153 -81 423q68 186 220 270q153 84 409 104l198 17l55 156h207l-118 -328l-238 -17q-225 -16 -337 -63t-157 -171t8 -210q64 -104 359 -102q190 0 428 67l-74 -205q-204 -55 -398 -55zM1053 1475h290l-90 -246h-288z" />
    <glyph glyph-name="Agrave" unicode="&#xc0;" horiz-adv-x="1656" 
d="M1143 0l-21 367h-780l-270 -367h-281l1051 1380q66 94 176 95h274l99 -1475h-248zM1110 561l-43 785l-582 -785h625zM1026 1577l-291 330h266l250 -330h-225z" />
    <glyph glyph-name="Aacute" unicode="&#xc1;" horiz-adv-x="1656" 
d="M1143 0l-21 367h-780l-270 -367h-281l1051 1380q66 94 176 95h274l99 -1475h-248zM1110 561l-43 785l-582 -785h625zM1253 1577h-252l420 330h305z" />
    <glyph glyph-name="Acircumflex" unicode="&#xc2;" horiz-adv-x="1656" 
d="M1143 0l-21 367h-780l-270 -367h-281l1051 1380q66 94 176 95h274l99 -1475h-248zM1110 561l-43 785l-582 -785h625zM1341 1577l-116 248l-260 -248h-226l328 330h330l137 -330h-193z" />
    <glyph glyph-name="Atilde" unicode="&#xc3;" horiz-adv-x="1656" 
d="M1143 0l-21 367h-780l-270 -367h-281l1051 1380q66 94 176 95h274l99 -1475h-248zM1110 561l-43 785l-582 -785h625zM995 1921q66 0 121 -34q55 -33 88 -73q90 -107 143 -108q53 0 79 36t71 165h168q-76 -217 -132 -281t-177 -63q-66 -1 -121 33t-88 75q-88 109 -142 109
q-55 0 -79 -37t-72 -166h-168q78 217 133 281t176 63z" />
    <glyph glyph-name="Adieresis" unicode="&#xc4;" horiz-adv-x="1656" 
d="M1143 0l-21 367h-780l-270 -367h-281l1051 1380q66 94 176 95h274l99 -1475h-248zM1110 561l-43 785l-582 -785h625zM1075 1647h-229l67 190h230zM1477 1647h-230l70 190h229z" />
    <glyph glyph-name="Aring" unicode="&#xc5;" horiz-adv-x="1656" 
d="M1143 0l-21 367h-780l-270 -367h-281l1051 1380q66 94 176 95h274l99 -1475h-248zM1110 561l-43 785l-582 -785h625zM1149 1657q121 0 151 78q16 49 -11 69q-28 20 -107 21q-125 0 -156 -78q-16 -49 12 -70q29 -20 111 -20zM1122 1556q-182 0 -250 54t-30 159
q57 158 362 158q182 0 250 -54t31 -157q-58 -160 -363 -160z" />
    <glyph glyph-name="AE" unicode="&#xc6;" horiz-adv-x="2650" 
d="M1483 1475h1329l-72 -193h-962l-164 -448h866l-72 -193h-864l-164 -448h965l-70 -193h-1224l163 449h-659l-502 -449h-319l1564 1380q50 51 90 73t95 22zM1284 643l248 682l-760 -682h512z" />
    <glyph glyph-name="Ccedilla" unicode="&#xc7;" horiz-adv-x="1628" 
d="M530 -453q-164 0 -262 54l41 135q111 -41 208 -41t124 69q36 90 -78 230q-307 59 -417 279t10 552q248 674 993 674q274 0 526 -98l-71 -199q-213 96 -469 96q-563 0 -738 -526q-98 -292 20 -444t429 -152q266 0 465 60l-74 -203q-170 -57 -461 -58h-18q57 -82 71 -138
t-14 -140q-60 -150 -285 -150z" />
    <glyph glyph-name="Egrave" unicode="&#xc8;" horiz-adv-x="1574" 
d="M-27 0l537 1475h1225l-72 -193h-963l-163 -448h866l-72 -193h-864l-164 -448h965l-70 -193h-1225zM1049 1577l-291 330h266l250 -330h-225z" />
    <glyph glyph-name="Eacute" unicode="&#xc9;" horiz-adv-x="1574" 
d="M-27 0l537 1475h1225l-72 -193h-963l-163 -448h866l-72 -193h-864l-164 -448h965l-70 -193h-1225zM1276 1577h-252l420 330h305z" />
    <glyph glyph-name="Ecircumflex" unicode="&#xca;" horiz-adv-x="1574" 
d="M-27 0l537 1475h1225l-72 -193h-963l-163 -448h866l-72 -193h-864l-164 -448h965l-70 -193h-1225zM1362 1577l-117 248l-260 -248h-225l327 330h330l137 -330h-192z" />
    <glyph glyph-name="Edieresis" unicode="&#xcb;" horiz-adv-x="1574" 
d="M-27 0l537 1475h1225l-72 -193h-963l-163 -448h866l-72 -193h-864l-164 -448h965l-70 -193h-1225zM1096 1647h-230l68 190h229zM1497 1647h-229l69 190h230z" />
    <glyph glyph-name="Igrave" unicode="&#xcc;" horiz-adv-x="739" 
d="M233 0h-260l537 1475h260zM569 1577l-290 330h266l250 -330h-226z" />
    <glyph glyph-name="Iacute" unicode="&#xcd;" horiz-adv-x="739" 
d="M233 0h-260l537 1475h260zM797 1577h-252l420 330h305z" />
    <glyph glyph-name="Icircumflex" unicode="&#xce;" horiz-adv-x="739" 
d="M233 0h-260l537 1475h260zM883 1577l-117 248l-260 -248h-225l327 330h330l137 -330h-192z" />
    <glyph glyph-name="Idieresis" unicode="&#xcf;" horiz-adv-x="739" 
d="M233 0h-260l537 1475h260zM616 1647h-229l68 190h229zM1018 1647h-230l70 190h229z" />
    <glyph glyph-name="Eth" unicode="&#xd0;" horiz-adv-x="1820" 
d="M1122 1475q203 0 343 -65t202 -174q61 -110 69 -254t-57 -304q-129 -352 -355 -515t-617 -163h-734l246 674h-237l53 147h237l238 654h612zM715 197q291 -1 451 115t260 390t15 426t-335 152h-408l-166 -459h377l-53 -147h-377l-174 -477h410z" />
    <glyph glyph-name="Ntilde" unicode="&#xd1;" horiz-adv-x="1996" 
d="M741 1475q125 0 146 -99l403 -1183l467 1282h246l-537 -1475h-364l-422 1276l-465 -1276h-242l537 1475h231zM1167 1921q66 0 121 -34q55 -33 88 -73q90 -107 143 -108q53 0 79 36t71 165h168q-76 -217 -132 -281t-177 -63q-66 -1 -121 33t-88 75q-88 109 -142 109
q-55 0 -79 -37t-72 -166h-168q78 217 133 281t176 63z" />
    <glyph glyph-name="Ograve" unicode="&#xd2;" 
d="M791 174q264 0 429 121t273 418q106 276 8 432t-407 155q-262 0 -427 -120t-272 -416q-109 -278 -11 -434t407 -156zM774 -25q-553 0 -665 342q-67 198 36 480q131 362 363 532t606 170q238 -1 396 -67t224 -179q64 -113 70 -261t-61 -314q-133 -362 -365 -532t-604 -171
zM1118 1577l-291 330h267l249 -330h-225z" />
    <glyph glyph-name="Oacute" unicode="&#xd3;" 
d="M791 174q264 0 429 121t273 418q106 276 8 432t-407 155q-262 0 -427 -120t-272 -416q-109 -278 -11 -434t407 -156zM774 -25q-553 0 -665 342q-67 198 36 480q131 362 363 532t606 170q238 -1 396 -67t224 -179q64 -113 70 -261t-61 -314q-133 -362 -365 -532t-604 -171
zM1346 1577h-252l419 330h306z" />
    <glyph glyph-name="Ocircumflex" unicode="&#xd4;" 
d="M791 174q264 0 429 121t273 418q106 276 8 432t-407 155q-262 0 -427 -120t-272 -416q-109 -278 -11 -434t407 -156zM774 -25q-553 0 -665 342q-67 198 36 480q131 362 363 532t606 170q238 -1 396 -67t224 -179q64 -113 70 -261t-61 -314q-133 -362 -365 -532t-604 -171
zM1434 1577l-117 248l-260 -248h-226l328 330h330l137 -330h-192z" />
    <glyph glyph-name="Otilde" unicode="&#xd5;" 
d="M791 174q264 0 429 121t273 418q106 276 8 432t-407 155q-262 0 -427 -120t-272 -416q-109 -278 -11 -434t407 -156zM774 -25q-553 0 -665 342q-67 198 36 480q131 362 363 532t606 170q238 -1 396 -67t224 -179q64 -113 70 -261t-61 -314q-133 -362 -365 -532t-604 -171
zM1087 1921q66 0 121 -34q55 -33 88 -73q90 -107 143 -108q54 0 80 36t70 165h168q-76 -217 -132 -281t-177 -63q-66 -1 -121 33t-88 75q-88 109 -142 109t-79 -37t-72 -166h-168q78 217 133 281t176 63z" />
    <glyph glyph-name="Odieresis" unicode="&#xd6;" 
d="M791 174q264 0 429 121t273 418q106 276 8 432t-407 155q-262 0 -427 -120t-272 -416q-109 -278 -11 -434t407 -156zM774 -25q-553 0 -665 342q-67 198 36 480q131 362 363 532t606 170q238 -1 396 -67t224 -179q64 -113 70 -261t-61 -314q-133 -362 -365 -532t-604 -171
zM1167 1647h-229l68 190h229zM1569 1647h-230l70 190h229z" />
    <glyph glyph-name="multiply" unicode="&#xd7;" horiz-adv-x="1697" 
d="M1100 152l-283 444l-604 -444l-94 143l608 446l-305 480l158 106l301 -473l645 473l92 -143l-645 -475l282 -447z" />
    <glyph glyph-name="Oslash" unicode="&#xd8;" 
d="M789 174q266 0 431 121t273 418q72 203 45 338l-1124 -758q109 -119 375 -119zM395 764q-74 -203 -47 -340l1125 758q-109 118 -375 118t-432 -120t-271 -416zM764 -25q-383 0 -557 179l-227 -154l-82 121l227 153q-94 209 20 523q131 362 363 532t614 170
q383 0 557 -178l228 154l80 -123l-226 -152q96 -211 -18 -522q-133 -362 -365 -532t-614 -171z" />
    <glyph glyph-name="Ugrave" unicode="&#xd9;" horiz-adv-x="1806" 
d="M682 -25q-360 0 -495 173q-134 173 -33 450l315 877h260l-317 -879q-80 -220 -1 -320t308 -100t358 84t221 336l318 879h260l-317 -883q-127 -354 -322 -486t-555 -131zM1104 1577l-291 330h266l250 -330h-225z" />
    <glyph glyph-name="Uacute" unicode="&#xda;" horiz-adv-x="1806" 
d="M682 -25q-360 0 -495 173q-134 173 -33 450l315 877h260l-317 -879q-80 -220 -1 -320t308 -100t358 84t221 336l318 879h260l-317 -883q-127 -354 -322 -486t-555 -131zM1331 1577h-252l420 330h305z" />
    <glyph glyph-name="Ucircumflex" unicode="&#xdb;" horiz-adv-x="1806" 
d="M682 -25q-360 0 -495 173q-134 173 -33 450l315 877h260l-317 -879q-80 -220 -1 -320t308 -100t358 84t221 336l318 879h260l-317 -883q-127 -354 -322 -486t-555 -131zM1417 1577l-117 248l-260 -248h-225l328 330h330l137 -330h-193z" />
    <glyph glyph-name="Udieresis" unicode="&#xdc;" horiz-adv-x="1806" 
d="M682 -25q-360 0 -495 173q-134 173 -33 450l315 877h260l-317 -879q-80 -220 -1 -320t308 -100t358 84t221 336l318 879h260l-317 -883q-127 -354 -322 -486t-555 -131zM1151 1647h-229l67 190h230zM1552 1647h-229l70 190h229z" />
    <glyph glyph-name="Yacute" unicode="&#xdd;" horiz-adv-x="1665" 
d="M686 0h-260l233 641l-389 834h254l310 -656l790 656h311l-1022 -852zM1235 1577h-252l420 330h305z" />
    <glyph glyph-name="Thorn" unicode="&#xde;" horiz-adv-x="1646" 
d="M733 217h-420l-80 -217h-260l537 1475h260l-78 -213h275q211 0 350 -46t197 -129q125 -177 20 -436q-92 -250 -270 -342t-531 -92zM920 1069h-297l-240 -659h360q258 0 371 57t170 223q74 207 -4 293t-360 86z" />
    <glyph glyph-name="germandbls" unicode="&#xdf;" horiz-adv-x="3125" 
d="M604 -25q-424 0 -702 127l73 207q293 -141 619 -141q387 0 461 205q45 106 2 173t-199 101l-264 58q-428 92 -299 458q121 336 684 336q301 0 631 -125l-70 -196q-283 131 -586 131q-348 0 -411 -179q-41 -94 -6 -149t176 -88l274 -59q231 -50 305 -180t4 -322t-240 -275
q-170 -82 -452 -82zM2167 -25q-424 0 -703 127l74 207q293 -141 619 -141q387 0 460 205q45 106 2 173t-198 101l-264 58q-428 92 -299 458q121 336 684 336q301 0 630 -125l-69 -196q-283 131 -586 131q-183 0 -281 -44t-131 -135q-41 -94 -6 -149t176 -88l275 -59
q231 -50 305 -180t4 -322q-71 -192 -241 -275q-170 -82 -451 -82z" />
    <glyph glyph-name="agrave" unicode="&#xe0;" horiz-adv-x="1656" 
d="M1143 0l-21 367h-780l-270 -367h-281l1051 1380q66 94 176 95h274l99 -1475h-248zM1110 561l-43 785l-582 -785h625zM1026 1577l-291 330h266l250 -330h-225z" />
    <glyph glyph-name="aacute" unicode="&#xe1;" horiz-adv-x="1656" 
d="M1143 0l-21 367h-780l-270 -367h-281l1051 1380q66 94 176 95h274l99 -1475h-248zM1110 561l-43 785l-582 -785h625zM1253 1577h-252l420 330h305z" />
    <glyph glyph-name="acircumflex" unicode="&#xe2;" horiz-adv-x="1656" 
d="M1143 0l-21 367h-780l-270 -367h-281l1051 1380q66 94 176 95h274l99 -1475h-248zM1110 561l-43 785l-582 -785h625zM1341 1577l-116 248l-260 -248h-226l328 330h330l137 -330h-193z" />
    <glyph glyph-name="atilde" unicode="&#xe3;" horiz-adv-x="1656" 
d="M1143 0l-21 367h-780l-270 -367h-281l1051 1380q66 94 176 95h274l99 -1475h-248zM1110 561l-43 785l-582 -785h625zM995 1921q66 0 121 -34q55 -33 88 -73q90 -107 143 -108q53 0 79 36t71 165h168q-76 -217 -132 -281t-177 -63q-66 -1 -121 33t-88 75q-88 109 -142 109
q-55 0 -79 -37t-72 -166h-168q78 217 133 281t176 63z" />
    <glyph glyph-name="adieresis" unicode="&#xe4;" horiz-adv-x="1656" 
d="M1143 0l-21 367h-780l-270 -367h-281l1051 1380q66 94 176 95h274l99 -1475h-248zM1110 561l-43 785l-582 -785h625zM1075 1647h-229l67 190h230zM1477 1647h-230l70 190h229z" />
    <glyph glyph-name="aring" unicode="&#xe5;" horiz-adv-x="1656" 
d="M1143 0l-21 367h-780l-270 -367h-281l1051 1380q66 94 176 95h274l99 -1475h-248zM1110 561l-43 785l-582 -785h625zM1149 1657q121 0 151 78q16 49 -11 69q-28 20 -107 21q-125 0 -156 -78q-16 -49 12 -70q29 -20 111 -20zM1122 1556q-182 0 -250 54t-30 159
q57 158 362 158q182 0 250 -54t31 -157q-58 -160 -363 -160z" />
    <glyph glyph-name="ae" unicode="&#xe6;" horiz-adv-x="2650" 
d="M1483 1475h1329l-72 -193h-962l-164 -448h866l-72 -193h-864l-164 -448h965l-70 -193h-1224l163 449h-659l-502 -449h-319l1564 1380q50 51 90 73t95 22zM1284 643l248 682l-760 -682h512z" />
    <glyph glyph-name="ccedilla" unicode="&#xe7;" horiz-adv-x="1628" 
d="M530 -453q-164 0 -262 54l41 135q111 -41 208 -41t124 69q36 90 -78 230q-307 59 -417 279t10 552q248 674 993 674q274 0 526 -98l-71 -199q-213 96 -469 96q-563 0 -738 -526q-98 -292 20 -444t429 -152q266 0 465 60l-74 -203q-170 -57 -461 -58h-18q57 -82 71 -138
t-14 -140q-60 -150 -285 -150z" />
    <glyph glyph-name="egrave" unicode="&#xe8;" horiz-adv-x="1574" 
d="M-27 0l537 1475h1225l-72 -193h-963l-163 -448h866l-72 -193h-864l-164 -448h965l-70 -193h-1225zM1049 1577l-291 330h266l250 -330h-225z" />
    <glyph glyph-name="eacute" unicode="&#xe9;" horiz-adv-x="1574" 
d="M-27 0l537 1475h1225l-72 -193h-963l-163 -448h866l-72 -193h-864l-164 -448h965l-70 -193h-1225zM1276 1577h-252l420 330h305z" />
    <glyph glyph-name="ecircumflex" unicode="&#xea;" horiz-adv-x="1574" 
d="M-27 0l537 1475h1225l-72 -193h-963l-163 -448h866l-72 -193h-864l-164 -448h965l-70 -193h-1225zM1362 1577l-117 248l-260 -248h-225l327 330h330l137 -330h-192z" />
    <glyph glyph-name="edieresis" unicode="&#xeb;" horiz-adv-x="1574" 
d="M-27 0l537 1475h1225l-72 -193h-963l-163 -448h866l-72 -193h-864l-164 -448h965l-70 -193h-1225zM1096 1647h-230l68 190h229zM1497 1647h-229l69 190h230z" />
    <glyph glyph-name="igrave" unicode="&#xec;" horiz-adv-x="739" 
d="M233 0h-260l537 1475h260zM569 1577l-290 330h266l250 -330h-226z" />
    <glyph glyph-name="iacute" unicode="&#xed;" horiz-adv-x="739" 
d="M233 0h-260l537 1475h260zM797 1577h-252l420 330h305z" />
    <glyph glyph-name="icircumflex" unicode="&#xee;" horiz-adv-x="739" 
d="M233 0h-260l537 1475h260zM883 1577l-117 248l-260 -248h-225l327 330h330l137 -330h-192z" />
    <glyph glyph-name="idieresis" unicode="&#xef;" horiz-adv-x="739" 
d="M233 0h-260l537 1475h260zM616 1647h-229l68 190h229zM1018 1647h-230l70 190h229z" />
    <glyph glyph-name="eth" unicode="&#xf0;" horiz-adv-x="1820" 
d="M1122 1475q203 0 343 -65t202 -174q61 -110 69 -254t-57 -304q-129 -352 -355 -515t-617 -163h-734l246 674h-237l53 147h237l238 654h612zM715 197q291 -1 451 115t260 390t15 426t-335 152h-408l-166 -459h377l-53 -147h-377l-174 -477h410z" />
    <glyph glyph-name="ntilde" unicode="&#xf1;" horiz-adv-x="1996" 
d="M741 1475q125 0 146 -99l403 -1183l467 1282h246l-537 -1475h-364l-422 1276l-465 -1276h-242l537 1475h231zM1167 1921q66 0 121 -34q55 -33 88 -73q90 -107 143 -108q53 0 79 36t71 165h168q-76 -217 -132 -281t-177 -63q-66 -1 -121 33t-88 75q-88 109 -142 109
q-55 0 -79 -37t-72 -166h-168q78 217 133 281t176 63z" />
    <glyph glyph-name="ograve" unicode="&#xf2;" 
d="M791 174q264 0 429 121t273 418q106 276 8 432t-407 155q-262 0 -427 -120t-272 -416q-109 -278 -11 -434t407 -156zM774 -25q-553 0 -665 342q-67 198 36 480q131 362 363 532t606 170q238 -1 396 -67t224 -179q64 -113 70 -261t-61 -314q-133 -362 -365 -532t-604 -171
zM1118 1577l-291 330h267l249 -330h-225z" />
    <glyph glyph-name="oacute" unicode="&#xf3;" 
d="M791 174q264 0 429 121t273 418q106 276 8 432t-407 155q-262 0 -427 -120t-272 -416q-109 -278 -11 -434t407 -156zM774 -25q-553 0 -665 342q-67 198 36 480q131 362 363 532t606 170q238 -1 396 -67t224 -179q64 -113 70 -261t-61 -314q-133 -362 -365 -532t-604 -171
zM1346 1577h-252l419 330h306z" />
    <glyph glyph-name="ocircumflex" unicode="&#xf4;" 
d="M791 174q264 0 429 121t273 418q106 276 8 432t-407 155q-262 0 -427 -120t-272 -416q-109 -278 -11 -434t407 -156zM774 -25q-553 0 -665 342q-67 198 36 480q131 362 363 532t606 170q238 -1 396 -67t224 -179q64 -113 70 -261t-61 -314q-133 -362 -365 -532t-604 -171
zM1434 1577l-117 248l-260 -248h-226l328 330h330l137 -330h-192z" />
    <glyph glyph-name="otilde" unicode="&#xf5;" 
d="M791 174q264 0 429 121t273 418q106 276 8 432t-407 155q-262 0 -427 -120t-272 -416q-109 -278 -11 -434t407 -156zM774 -25q-553 0 -665 342q-67 198 36 480q131 362 363 532t606 170q238 -1 396 -67t224 -179q64 -113 70 -261t-61 -314q-133 -362 -365 -532t-604 -171
zM1087 1921q66 0 121 -34q55 -33 88 -73q90 -107 143 -108q54 0 80 36t70 165h168q-76 -217 -132 -281t-177 -63q-66 -1 -121 33t-88 75q-88 109 -142 109t-79 -37t-72 -166h-168q78 217 133 281t176 63z" />
    <glyph glyph-name="odieresis" unicode="&#xf6;" 
d="M791 174q264 0 429 121t273 418q106 276 8 432t-407 155q-262 0 -427 -120t-272 -416q-109 -278 -11 -434t407 -156zM774 -25q-553 0 -665 342q-67 198 36 480q131 362 363 532t606 170q238 -1 396 -67t224 -179q64 -113 70 -261t-61 -314q-133 -362 -365 -532t-604 -171
zM1167 1647h-229l68 190h229zM1569 1647h-230l70 190h229z" />
    <glyph glyph-name="divide" unicode="&#xf7;" horiz-adv-x="1697" 
d="M598 342h217l-72 -195h-215zM227 647l66 182h1182l-66 -182h-1182zM958 1329h216l-70 -194h-217z" />
    <glyph glyph-name="oslash" unicode="&#xf8;" 
d="M789 174q266 0 431 121t273 418q72 203 45 338l-1124 -758q109 -119 375 -119zM395 764q-74 -203 -47 -340l1125 758q-109 118 -375 118t-432 -120t-271 -416zM764 -25q-383 0 -557 179l-227 -154l-82 121l227 153q-94 209 20 523q131 362 363 532t614 170
q383 0 557 -178l228 154l80 -123l-226 -152q96 -211 -18 -522q-133 -362 -365 -532t-614 -171z" />
    <glyph glyph-name="ugrave" unicode="&#xf9;" horiz-adv-x="1806" 
d="M682 -25q-360 0 -495 173q-134 173 -33 450l315 877h260l-317 -879q-80 -220 -1 -320t308 -100t358 84t221 336l318 879h260l-317 -883q-127 -354 -322 -486t-555 -131zM1104 1577l-291 330h266l250 -330h-225z" />
    <glyph glyph-name="uacute" unicode="&#xfa;" horiz-adv-x="1806" 
d="M682 -25q-360 0 -495 173q-134 173 -33 450l315 877h260l-317 -879q-80 -220 -1 -320t308 -100t358 84t221 336l318 879h260l-317 -883q-127 -354 -322 -486t-555 -131zM1331 1577h-252l420 330h305z" />
    <glyph glyph-name="ucircumflex" unicode="&#xfb;" horiz-adv-x="1806" 
d="M682 -25q-360 0 -495 173q-134 173 -33 450l315 877h260l-317 -879q-80 -220 -1 -320t308 -100t358 84t221 336l318 879h260l-317 -883q-127 -354 -322 -486t-555 -131zM1417 1577l-117 248l-260 -248h-225l328 330h330l137 -330h-193z" />
    <glyph glyph-name="udieresis" unicode="&#xfc;" horiz-adv-x="1806" 
d="M682 -25q-360 0 -495 173q-134 173 -33 450l315 877h260l-317 -879q-80 -220 -1 -320t308 -100t358 84t221 336l318 879h260l-317 -883q-127 -354 -322 -486t-555 -131zM1151 1647h-229l67 190h230zM1552 1647h-229l70 190h229z" />
    <glyph glyph-name="yacute" unicode="&#xfd;" horiz-adv-x="1665" 
d="M686 0h-260l233 641l-389 834h254l310 -656l790 656h311l-1022 -852zM1235 1577h-252l420 330h305z" />
    <glyph glyph-name="thorn" unicode="&#xfe;" horiz-adv-x="1646" 
d="M733 217h-420l-80 -217h-260l537 1475h260l-78 -213h275q211 0 350 -46t197 -129q125 -177 20 -436q-92 -250 -270 -342t-531 -92zM920 1069h-297l-240 -659h360q258 0 371 57t170 223q74 207 -4 293t-360 86z" />
    <glyph glyph-name="ydieresis" unicode="&#xff;" horiz-adv-x="1665" 
d="M686 0h-260l233 641l-389 834h254l310 -656l790 656h311l-1022 -852zM1055 1647h-230l68 190h229zM1456 1647h-229l69 190h230z" />
    <glyph glyph-name="Amacron" unicode="&#x100;" horiz-adv-x="1656" 
d="M1143 0l-21 367h-780l-270 -367h-281l1051 1380q66 94 176 95h274l99 -1475h-248zM1110 561l-43 785l-582 -785h625zM1597 1686h-843l49 147h844z" />
    <glyph glyph-name="amacron" unicode="&#x101;" horiz-adv-x="1656" 
d="M1143 0l-21 367h-780l-270 -367h-281l1051 1380q66 94 176 95h274l99 -1475h-248zM1110 561l-43 785l-582 -785h625zM1597 1686h-843l49 147h844z" />
    <glyph glyph-name="Abreve" unicode="&#x102;" horiz-adv-x="1656" 
d="M1143 0l-21 367h-780l-270 -367h-281l1051 1380q66 94 176 95h274l99 -1475h-248zM1110 561l-43 785l-582 -785h625zM1156 1556q-175 0 -248 90t-11 261h186q-39 -113 -13 -168t106 -56q170 0 251 224h189q-70 -190 -177 -271q-108 -80 -283 -80z" />
    <glyph glyph-name="abreve" unicode="&#x103;" horiz-adv-x="1656" 
d="M1143 0l-21 367h-780l-270 -367h-281l1051 1380q66 94 176 95h274l99 -1475h-248zM1110 561l-43 785l-582 -785h625zM1156 1556q-175 0 -248 90t-11 261h186q-39 -113 -13 -168t106 -56q170 0 251 224h189q-70 -190 -177 -271q-108 -80 -283 -80z" />
    <glyph glyph-name="Aogonek" unicode="&#x104;" horiz-adv-x="1656" 
d="M1214 -453q-164 0 -236 72q-72 73 -32 189q41 116 197 200l-21 359h-780l-270 -367h-281l1051 1380q66 94 176 95h274l99 -1475h-72q-143 -96 -166 -188q-16 -63 13 -93q30 -29 117 -29t167 27l-51 -141q-82 -29 -185 -29zM1110 561l-43 785l-582 -785h625z" />
    <glyph glyph-name="aogonek" unicode="&#x105;" horiz-adv-x="1656" 
d="M1214 -453q-164 0 -236 72q-72 73 -32 189q41 116 197 200l-21 359h-780l-270 -367h-281l1051 1380q66 94 176 95h274l99 -1475h-72q-143 -96 -166 -188q-16 -63 13 -93q30 -29 117 -29t167 27l-51 -141q-82 -29 -185 -29zM1110 561l-43 785l-582 -785h625z" />
    <glyph glyph-name="Cacute" unicode="&#x106;" horiz-adv-x="1628" 
d="M1135 1298q-563 0 -738 -526q-98 -292 20 -444t429 -152q266 0 465 60l-74 -203q-170 -57 -461 -58q-420 1 -591 233t-29 617q248 674 993 674q274 0 526 -98l-71 -199q-213 96 -469 96zM1315 1577h-252l420 330h305z" />
    <glyph glyph-name="cacute" unicode="&#x107;" horiz-adv-x="1628" 
d="M1135 1298q-563 0 -738 -526q-98 -292 20 -444t429 -152q266 0 465 60l-74 -203q-170 -57 -461 -58q-420 1 -591 233t-29 617q248 674 993 674q274 0 526 -98l-71 -199q-213 96 -469 96zM1315 1577h-252l420 330h305z" />
    <glyph glyph-name="Ccircumflex" unicode="&#x108;" horiz-adv-x="1628" 
d="M1135 1298q-563 0 -738 -526q-98 -292 20 -444t429 -152q266 0 465 60l-74 -203q-170 -57 -461 -58q-420 1 -591 233t-29 617q248 674 993 674q274 0 526 -98l-71 -199q-213 96 -469 96zM1401 1577l-117 248l-260 -248h-225l327 330h330l137 -330h-192z" />
    <glyph glyph-name="ccircumflex" unicode="&#x109;" horiz-adv-x="1628" 
d="M1135 1298q-563 0 -738 -526q-98 -292 20 -444t429 -152q266 0 465 60l-74 -203q-170 -57 -461 -58q-420 1 -591 233t-29 617q248 674 993 674q274 0 526 -98l-71 -199q-213 96 -469 96zM1401 1577l-117 248l-260 -248h-225l327 330h330l137 -330h-192z" />
    <glyph glyph-name="Cdotaccent" unicode="&#x10a;" horiz-adv-x="1628" 
d="M1135 1298q-563 0 -738 -526q-98 -292 20 -444t429 -152q266 0 465 60l-74 -203q-170 -57 -461 -58q-420 1 -591 233t-29 617q248 674 993 674q274 0 526 -98l-71 -199q-213 96 -469 96zM1356 1647h-260l69 190h260z" />
    <glyph glyph-name="cdotaccent" unicode="&#x10b;" horiz-adv-x="1628" 
d="M1135 1298q-563 0 -738 -526q-98 -292 20 -444t429 -152q266 0 465 60l-74 -203q-170 -57 -461 -58q-420 1 -591 233t-29 617q248 674 993 674q274 0 526 -98l-71 -199q-213 96 -469 96zM1356 1647h-260l69 190h260z" />
    <glyph glyph-name="Ccaron" unicode="&#x10c;" horiz-adv-x="1628" 
d="M1135 1298q-563 0 -738 -526q-98 -292 20 -444t429 -152q266 0 465 60l-74 -203q-170 -57 -461 -58q-420 1 -591 233t-29 617q248 674 993 674q274 0 526 -98l-71 -199q-213 96 -469 96zM1049 1577l-138 330h195l117 -248l258 248h225l-328 -330h-329z" />
    <glyph glyph-name="ccaron" unicode="&#x10d;" horiz-adv-x="1628" 
d="M1135 1298q-563 0 -738 -526q-98 -292 20 -444t429 -152q266 0 465 60l-74 -203q-170 -57 -461 -58q-420 1 -591 233t-29 617q248 674 993 674q274 0 526 -98l-71 -199q-213 96 -469 96zM1049 1577l-138 330h195l117 -248l258 248h225l-328 -330h-329z" />
    <glyph glyph-name="Dcaron" unicode="&#x10e;" horiz-adv-x="1820" 
d="M1122 1475q203 0 343 -65t202 -174q61 -110 69 -254t-57 -304q-129 -352 -355 -515t-617 -163h-734l537 1475h612zM1106 1280h-408l-393 -1083h410q291 -1 451 115t260 390t15 426t-335 152zM1022 1577l-137 330h194l117 -248l258 248h225l-327 -330h-330z" />
    <glyph glyph-name="dcaron" unicode="&#x10f;" horiz-adv-x="1820" 
d="M1122 1475q203 0 343 -65t202 -174q61 -110 69 -254t-57 -304q-129 -352 -355 -515t-617 -163h-734l537 1475h612zM1106 1280h-408l-393 -1083h410q291 -1 451 115t260 390t15 426t-335 152zM1022 1577l-137 330h194l117 -248l258 248h225l-327 -330h-330z" />
    <glyph glyph-name="Dcroat" unicode="&#x110;" horiz-adv-x="1820" 
d="M1122 1475q203 0 343 -65t202 -174q61 -110 69 -254t-57 -304q-129 -352 -355 -515t-617 -163h-734l246 674h-237l53 147h237l238 654h612zM715 197q291 -1 451 115t260 390t15 426t-335 152h-408l-166 -459h377l-53 -147h-377l-174 -477h410z" />
    <glyph glyph-name="dcroat" unicode="&#x111;" horiz-adv-x="1820" 
d="M1122 1475q203 0 343 -65t202 -174q61 -110 69 -254t-57 -304q-129 -352 -355 -515t-617 -163h-734l246 674h-237l53 147h237l238 654h612zM715 197q291 -1 451 115t260 390t15 426t-335 152h-408l-166 -459h377l-53 -147h-377l-174 -477h410z" />
    <glyph glyph-name="Emacron" unicode="&#x112;" horiz-adv-x="1574" 
d="M-27 0l537 1475h1225l-72 -193h-963l-163 -448h866l-72 -193h-864l-164 -448h965l-70 -193h-1225zM1618 1686h-844l49 147h844z" />
    <glyph glyph-name="emacron" unicode="&#x113;" horiz-adv-x="1574" 
d="M-27 0l537 1475h1225l-72 -193h-963l-163 -448h866l-72 -193h-864l-164 -448h965l-70 -193h-1225zM1618 1686h-844l49 147h844z" />
    <glyph glyph-name="Ebreve" unicode="&#x114;" horiz-adv-x="1574" 
d="M-27 0l537 1475h1225l-72 -193h-963l-163 -448h866l-72 -193h-864l-164 -448h965l-70 -193h-1225zM1178 1556q-174 0 -247 90t-11 261h186q-39 -113 -13 -168t105 -56q170 0 252 224h188q-70 -190 -177 -271q-109 -80 -283 -80z" />
    <glyph glyph-name="ebreve" unicode="&#x115;" horiz-adv-x="1574" 
d="M-27 0l537 1475h1225l-72 -193h-963l-163 -448h866l-72 -193h-864l-164 -448h965l-70 -193h-1225zM1178 1556q-174 0 -247 90t-11 261h186q-39 -113 -13 -168t105 -56q170 0 252 224h188q-70 -190 -177 -271q-109 -80 -283 -80z" />
    <glyph glyph-name="Edotaccent" unicode="&#x116;" horiz-adv-x="1574" 
d="M-27 0l537 1475h1225l-72 -193h-963l-163 -448h866l-72 -193h-864l-164 -448h965l-70 -193h-1225zM1311 1647h-260l69 190h260z" />
    <glyph glyph-name="edotaccent" unicode="&#x117;" horiz-adv-x="1574" 
d="M-27 0l537 1475h1225l-72 -193h-963l-163 -448h866l-72 -193h-864l-164 -448h965l-70 -193h-1225zM1311 1647h-260l69 190h260z" />
    <glyph glyph-name="Eogonek" unicode="&#x118;" horiz-adv-x="1574" 
d="M862 -453q-164 0 -236 72q-72 71 -32 185q41 114 182 196h-803l537 1475h1225l-72 -193h-963l-163 -448h866l-72 -193h-864l-164 -448h965l-70 -193h-231q-143 -96 -166 -188q-16 -63 13 -93q30 -29 117 -29t167 27l-51 -141q-82 -29 -185 -29z" />
    <glyph glyph-name="eogonek" unicode="&#x119;" horiz-adv-x="1574" 
d="M862 -453q-164 0 -236 72q-72 71 -32 185q41 114 182 196h-803l537 1475h1225l-72 -193h-963l-163 -448h866l-72 -193h-864l-164 -448h965l-70 -193h-231q-143 -96 -166 -188q-16 -63 13 -93q30 -29 117 -29t167 27l-51 -141q-82 -29 -185 -29z" />
    <glyph glyph-name="Ecaron" unicode="&#x11a;" horiz-adv-x="1574" 
d="M-27 0l537 1475h1225l-72 -193h-963l-163 -448h866l-72 -193h-864l-164 -448h965l-70 -193h-1225zM1010 1577l-138 330h195l117 -248l258 248h225l-328 -330h-329z" />
    <glyph glyph-name="ecaron" unicode="&#x11b;" horiz-adv-x="1574" 
d="M-27 0l537 1475h1225l-72 -193h-963l-163 -448h866l-72 -193h-864l-164 -448h965l-70 -193h-1225zM1010 1577l-138 330h195l117 -248l258 248h225l-328 -330h-329z" />
    <glyph glyph-name="Gcircumflex" unicode="&#x11c;" horiz-adv-x="1730" 
d="M1184 1499q270 0 532 -100l-71 -199q-221 98 -476 98q-600 0 -772 -526q-199 -598 480 -598q125 0 231 14l164 453h252l-217 -606q-188 -59 -492 -60q-443 1 -623 231t-36 619q246 674 1028 674zM1413 1577l-117 248l-260 -248h-225l328 330h329l138 -330h-193z" />
    <glyph glyph-name="gcircumflex" unicode="&#x11d;" horiz-adv-x="1730" 
d="M1184 1499q270 0 532 -100l-71 -199q-221 98 -476 98q-600 0 -772 -526q-199 -598 480 -598q125 0 231 14l164 453h252l-217 -606q-188 -59 -492 -60q-443 1 -623 231t-36 619q246 674 1028 674zM1413 1577l-117 248l-260 -248h-225l328 330h329l138 -330h-193z" />
    <glyph glyph-name="Gbreve" unicode="&#x11e;" horiz-adv-x="1730" 
d="M1184 1499q270 0 532 -100l-71 -199q-221 98 -476 98q-600 0 -772 -526q-199 -598 480 -598q125 0 231 14l164 453h252l-217 -606q-188 -59 -492 -60q-443 1 -623 231t-36 619q246 674 1028 674zM1228 1556q-174 0 -248 90q-73 90 -11 261h186q-39 -113 -13 -168t105 -56
q170 0 252 224h189q-70 -191 -178 -271t-282 -80z" />
    <glyph glyph-name="gbreve" unicode="&#x11f;" horiz-adv-x="1730" 
d="M1184 1499q270 0 532 -100l-71 -199q-221 98 -476 98q-600 0 -772 -526q-199 -598 480 -598q125 0 231 14l164 453h252l-217 -606q-188 -59 -492 -60q-443 1 -623 231t-36 619q246 674 1028 674zM1228 1556q-174 0 -248 90q-73 90 -11 261h186q-39 -113 -13 -168t105 -56
q170 0 252 224h189q-70 -191 -178 -271t-282 -80z" />
    <glyph glyph-name="Gdotaccent" unicode="&#x120;" horiz-adv-x="1730" 
d="M1184 1499q270 0 532 -100l-71 -199q-221 98 -476 98q-600 0 -772 -526q-199 -598 480 -598q125 0 231 14l164 453h252l-217 -606q-188 -59 -492 -60q-443 1 -623 231t-36 619q246 674 1028 674zM1362 1647h-260l69 190h261z" />
    <glyph glyph-name="gdotaccent" unicode="&#x121;" horiz-adv-x="1730" 
d="M1184 1499q270 0 532 -100l-71 -199q-221 98 -476 98q-600 0 -772 -526q-199 -598 480 -598q125 0 231 14l164 453h252l-217 -606q-188 -59 -492 -60q-443 1 -623 231t-36 619q246 674 1028 674zM1362 1647h-260l69 190h261z" />
    <glyph glyph-name="Gcommaaccent" unicode="&#x122;" horiz-adv-x="1730" 
d="M483 -432h-250l414 330h305zM1184 1499q270 0 532 -100l-71 -199q-221 98 -476 98q-600 0 -772 -526q-199 -598 480 -598q125 0 231 14l164 453h252l-217 -606q-188 -59 -492 -60q-443 1 -623 231t-36 619q246 674 1028 674z" />
    <glyph glyph-name="gcommaaccent" unicode="&#x123;" horiz-adv-x="1730" 
d="M483 -432h-250l414 330h305zM1184 1499q270 0 532 -100l-71 -199q-221 98 -476 98q-600 0 -772 -526q-199 -598 480 -598q125 0 231 14l164 453h252l-217 -606q-188 -59 -492 -60q-443 1 -623 231t-36 619q246 674 1028 674z" />
    <glyph glyph-name="Hcircumflex" unicode="&#x124;" horiz-adv-x="1884" 
d="M1118 0l234 639h-885l-234 -639h-260l537 1475h260l-231 -637h884l232 637h260l-537 -1475h-260zM1458 1577l-117 248l-260 -248h-225l328 330h329l138 -330h-193z" />
    <glyph glyph-name="hcircumflex" unicode="&#x125;" horiz-adv-x="1884" 
d="M1118 0l234 639h-885l-234 -639h-260l537 1475h260l-231 -637h884l232 637h260l-537 -1475h-260zM1458 1577l-117 248l-260 -248h-225l328 330h329l138 -330h-193z" />
    <glyph glyph-name="Hbar" unicode="&#x126;" horiz-adv-x="1884" 
d="M1118 0l234 639h-885l-234 -639h-260l416 1145h-237l53 145h237l68 185h260l-68 -185h885l68 185h260l-68 -185h240l-53 -145h-240l-416 -1145h-260zM1423 838l111 307h-885l-110 -307h884z" />
    <glyph glyph-name="hbar" unicode="&#x127;" horiz-adv-x="1884" 
d="M1118 0l234 639h-885l-234 -639h-260l416 1145h-237l53 145h237l68 185h260l-68 -185h885l68 185h260l-68 -185h240l-53 -145h-240l-416 -1145h-260zM1423 838l111 307h-885l-110 -307h884z" />
    <glyph glyph-name="Itilde" unicode="&#x128;" horiz-adv-x="739" 
d="M233 0h-260l537 1475h260zM537 1921q67 0 121 -34q54 -33 87 -73q90 -107 143 -108q54 0 80 36t70 165h168q-76 -217 -132 -281t-177 -63q-66 -1 -121 33t-88 75q-88 109 -142 109t-79 -37t-72 -166h-168q78 217 133 281t177 63z" />
    <glyph glyph-name="itilde" unicode="&#x129;" horiz-adv-x="739" 
d="M233 0h-260l537 1475h260zM537 1921q67 0 121 -34q54 -33 87 -73q90 -107 143 -108q54 0 80 36t70 165h168q-76 -217 -132 -281t-177 -63q-66 -1 -121 33t-88 75q-88 109 -142 109t-79 -37t-72 -166h-168q78 217 133 281t177 63z" />
    <glyph glyph-name="Imacron" unicode="&#x12a;" horiz-adv-x="739" 
d="M233 0h-260l537 1475h260zM1139 1686h-844l49 147h844z" />
    <glyph glyph-name="imacron" unicode="&#x12b;" horiz-adv-x="739" 
d="M233 0h-260l537 1475h260zM1139 1686h-844l49 147h844z" />
    <glyph glyph-name="Ibreve" unicode="&#x12c;" horiz-adv-x="739" 
d="M233 0h-260l537 1475h260zM699 1556q-175 0 -247 90t-12 261h187q-39 -113 -13 -168t105 -56q170 0 252 224h188q-70 -190 -177 -271q-108 -80 -283 -80z" />
    <glyph glyph-name="ibreve" unicode="&#x12d;" horiz-adv-x="739" 
d="M233 0h-260l537 1475h260zM699 1556q-175 0 -247 90t-12 261h187q-39 -113 -13 -168t105 -56q170 0 252 224h188q-70 -190 -177 -271q-108 -80 -283 -80z" />
    <glyph glyph-name="Iogonek" unicode="&#x12e;" horiz-adv-x="739" 
d="M78 -453q-164 0 -237 72q-73 71 -31 185t182 196h-19l537 1475h260l-537 -1475h-51q-143 -96 -166 -188q-16 -62 14 -92t116 -30t167 27l-51 -141q-82 -29 -184 -29z" />
    <glyph glyph-name="iogonek" unicode="&#x12f;" horiz-adv-x="739" 
d="M78 -453q-164 0 -237 72q-73 71 -31 185t182 196h-19l537 1475h260l-537 -1475h-51q-143 -96 -166 -188q-16 -62 14 -92t116 -30t167 27l-51 -141q-82 -29 -184 -29z" />
    <glyph glyph-name="Idotaccent" unicode="&#x130;" horiz-adv-x="739" 
d="M233 0h-260l537 1475h260zM831 1647h-260l70 190h260z" />
    <glyph glyph-name="dotlessi" unicode="&#x131;" horiz-adv-x="739" 
d="M233 0h-260l537 1475h260z" />
    <glyph glyph-name="IJ" unicode="&#x132;" horiz-adv-x="1945" 
d="M967 180q295 0 401 293l365 1002h258l-371 -1033q-92 -254 -243 -360t-409 -106t-438 85l72 195q162 -76 365 -76zM233 0h-260l537 1475h260z" />
    <glyph glyph-name="ij" unicode="&#x133;" horiz-adv-x="1945" 
d="M967 180q295 0 401 293l365 1002h258l-371 -1033q-92 -254 -243 -360t-409 -106t-438 85l72 195q162 -76 365 -76zM233 0h-260l537 1475h260z" />
    <glyph glyph-name="Jcircumflex" unicode="&#x134;" horiz-adv-x="1208" 
d="M227 180q296 0 402 293l364 1002h258l-370 -1033q-92 -254 -243 -360t-410 -106t-437 85l72 195q162 -76 364 -76zM1366 1577l-117 248l-260 -248h-225l328 330h329l138 -330h-193z" />
    <glyph glyph-name="jcircumflex" unicode="&#x135;" horiz-adv-x="1208" 
d="M227 180q296 0 402 293l364 1002h258l-370 -1033q-92 -254 -243 -360t-410 -106t-437 85l72 195q162 -76 364 -76zM1366 1577l-117 248l-260 -248h-225l328 330h329l138 -330h-193z" />
    <glyph glyph-name="Kcommaaccent" unicode="&#x136;" horiz-adv-x="1740" 
d="M340 -432h-250l414 330h305zM1141 0l-459 639h-215l-234 -639h-260l537 1475h260l-231 -637h206l875 637h307l-1016 -760l510 -715h-280z" />
    <glyph glyph-name="kcommaaccent" unicode="&#x137;" horiz-adv-x="1740" 
d="M340 -432h-250l414 330h305zM1141 0l-459 639h-215l-234 -639h-260l537 1475h260l-231 -637h206l875 637h307l-1016 -760l510 -715h-280z" />
    <glyph glyph-name="Lacute" unicode="&#x139;" horiz-adv-x="1482" 
d="M-27 0l537 1475h260l-465 -1276h948l-71 -199h-1209zM807 1577h-252l420 330h305z" />
    <glyph glyph-name="lacute" unicode="&#x13a;" horiz-adv-x="1482" 
d="M-27 0l537 1475h260l-465 -1276h948l-71 -199h-1209zM807 1577h-252l420 330h305z" />
    <glyph glyph-name="Lcommaaccent" unicode="&#x13b;" horiz-adv-x="1482" 
d="M303 -432h-250l414 330h305zM-27 0l537 1475h260l-465 -1276h948l-71 -199h-1209z" />
    <glyph glyph-name="lcommaaccent" unicode="&#x13c;" horiz-adv-x="1482" 
d="M303 -432h-250l414 330h305zM-27 0l537 1475h260l-465 -1276h948l-71 -199h-1209z" />
    <glyph glyph-name="Lcaron" unicode="&#x13d;" horiz-adv-x="1482" 
d="M-27 0l537 1475h260l-465 -1276h948l-71 -199h-1209zM967 961h-183l324 514h250z" />
    <glyph glyph-name="lcaron" unicode="&#x13e;" horiz-adv-x="1482" 
d="M-27 0l537 1475h260l-465 -1276h948l-71 -199h-1209zM967 961h-183l324 514h250z" />
    <glyph glyph-name="Ldot" unicode="&#x13f;" horiz-adv-x="1482" 
d="M-27 0l537 1475h260l-465 -1276h948l-71 -199h-1209zM1227 680h-291l88 246h291z" />
    <glyph glyph-name="ldot" unicode="&#x140;" horiz-adv-x="1482" 
d="M-27 0l537 1475h260l-465 -1276h948l-71 -199h-1209zM1227 680h-291l88 246h291z" />
    <glyph glyph-name="Lslash" unicode="&#x141;" horiz-adv-x="1482" 
d="M-27 0l222 606l-279 -92l61 176l281 90l252 695h260l-221 -609l448 148l-61 -174l-451 -146l-180 -495h948l-71 -199h-1209z" />
    <glyph glyph-name="lslash" unicode="&#x142;" horiz-adv-x="1482" 
d="M-27 0l222 606l-279 -92l61 176l281 90l252 695h260l-221 -609l448 148l-61 -174l-451 -146l-180 -495h948l-71 -199h-1209z" />
    <glyph glyph-name="Nacute" unicode="&#x143;" horiz-adv-x="1996" 
d="M741 1475q125 0 146 -99l403 -1183l467 1282h246l-537 -1475h-364l-422 1276l-465 -1276h-242l537 1475h231zM1425 1577h-251l419 330h305z" />
    <glyph glyph-name="nacute" unicode="&#x144;" horiz-adv-x="1996" 
d="M741 1475q125 0 146 -99l403 -1183l467 1282h246l-537 -1475h-364l-422 1276l-465 -1276h-242l537 1475h231zM1425 1577h-251l419 330h305z" />
    <glyph glyph-name="Ncommaaccent" unicode="&#x145;" horiz-adv-x="1996" 
d="M424 -432h-250l414 330h305zM741 1475q125 0 146 -99l403 -1183l467 1282h246l-537 -1475h-364l-422 1276l-465 -1276h-242l537 1475h231z" />
    <glyph glyph-name="ncommaaccent" unicode="&#x146;" horiz-adv-x="1996" 
d="M424 -432h-250l414 330h305zM741 1475q125 0 146 -99l403 -1183l467 1282h246l-537 -1475h-364l-422 1276l-465 -1276h-242l537 1475h231z" />
    <glyph glyph-name="Ncaron" unicode="&#x147;" horiz-adv-x="1996" 
d="M741 1475q125 0 146 -99l403 -1183l467 1282h246l-537 -1475h-364l-422 1276l-465 -1276h-242l537 1475h231zM1159 1577l-137 330h195l116 -248l258 248h226l-328 -330h-330z" />
    <glyph glyph-name="ncaron" unicode="&#x148;" horiz-adv-x="1996" 
d="M741 1475q125 0 146 -99l403 -1183l467 1282h246l-537 -1475h-364l-422 1276l-465 -1276h-242l537 1475h231zM1159 1577l-137 330h195l116 -248l258 248h226l-328 -330h-330z" />
    <glyph glyph-name="Eng" unicode="&#x14a;" horiz-adv-x="1996" 
d="M938 -532q-188 0 -326 65l72 195q117 -57 260 -58q78 0 134 46t83 118l62 170l-541 1278l-467 -1282h-242l537 1475h215q67 1 103 -19t59 -80l450 -1059l422 1158h244l-604 -1670q-57 -161 -165 -249t-296 -88z" />
    <glyph glyph-name="eng" unicode="&#x14b;" horiz-adv-x="1996" 
d="M938 -532q-188 0 -326 65l72 195q117 -57 260 -58q78 0 134 46t83 118l62 170l-541 1278l-467 -1282h-242l537 1475h215q67 1 103 -19t59 -80l450 -1059l422 1158h244l-604 -1670q-57 -161 -165 -249t-296 -88z" />
    <glyph glyph-name="Omacron" unicode="&#x14c;" 
d="M791 174q264 0 429 121t273 418q106 276 8 432t-407 155q-262 0 -427 -120t-272 -416q-109 -278 -11 -434t407 -156zM774 -25q-553 0 -665 342q-67 198 36 480q131 362 363 532t606 170q238 -1 396 -67t224 -179q64 -113 70 -261t-61 -314q-133 -362 -365 -532t-604 -171
zM1690 1686h-844l49 147h844z" />
    <glyph glyph-name="omacron" unicode="&#x14d;" 
d="M791 174q264 0 429 121t273 418q106 276 8 432t-407 155q-262 0 -427 -120t-272 -416q-109 -278 -11 -434t407 -156zM774 -25q-553 0 -665 342q-67 198 36 480q131 362 363 532t606 170q238 -1 396 -67t224 -179q64 -113 70 -261t-61 -314q-133 -362 -365 -532t-604 -171
zM1690 1686h-844l49 147h844z" />
    <glyph glyph-name="Obreve" unicode="&#x14e;" 
d="M791 174q264 0 429 121t273 418q106 276 8 432t-407 155q-262 0 -427 -120t-272 -416q-109 -278 -11 -434t407 -156zM774 -25q-553 0 -665 342q-67 198 36 480q131 362 363 532t606 170q238 -1 396 -67t224 -179q64 -113 70 -261t-61 -314q-133 -362 -365 -532t-604 -171
zM1248 1556q-175 0 -248 90t-11 261h187q-40 -113 -14 -168t106 -56q170 0 252 224h188q-70 -190 -177 -271q-108 -80 -283 -80z" />
    <glyph glyph-name="obreve" unicode="&#x14f;" 
d="M791 174q264 0 429 121t273 418q106 276 8 432t-407 155q-262 0 -427 -120t-272 -416q-109 -278 -11 -434t407 -156zM774 -25q-553 0 -665 342q-67 198 36 480q131 362 363 532t606 170q238 -1 396 -67t224 -179q64 -113 70 -261t-61 -314q-133 -362 -365 -532t-604 -171
zM1248 1556q-175 0 -248 90t-11 261h187q-40 -113 -14 -168t106 -56q170 0 252 224h188q-70 -190 -177 -271q-108 -80 -283 -80z" />
    <glyph glyph-name="Ohungarumlaut" unicode="&#x150;" 
d="M791 174q264 0 429 121t273 418q106 276 8 432t-407 155q-262 0 -427 -120t-272 -416q-109 -278 -11 -434t407 -156zM774 -25q-553 0 -665 342q-67 198 36 480q131 362 363 532t606 170q238 -1 396 -67t224 -179q64 -113 70 -261t-61 -314q-133 -362 -365 -532t-604 -171
zM1067 1577h-242l418 330h297zM1571 1577h-242l420 330h295z" />
    <glyph glyph-name="ohungarumlaut" unicode="&#x151;" 
d="M791 174q264 0 429 121t273 418q106 276 8 432t-407 155q-262 0 -427 -120t-272 -416q-109 -278 -11 -434t407 -156zM774 -25q-553 0 -665 342q-67 198 36 480q131 362 363 532t606 170q238 -1 396 -67t224 -179q64 -113 70 -261t-61 -314q-133 -362 -365 -532t-604 -171
zM1067 1577h-242l418 330h297zM1571 1577h-242l420 330h295z" />
    <glyph glyph-name="OE" unicode="&#x152;" horiz-adv-x="2637" 
d="M682 0q-203 0 -343 65t-202 175q-61 111 -68 255t56 304q129 352 357 514t618 162h1698l-72 -193h-963l-164 -448h867l-72 -193h-864l-164 -448h965l-70 -193h-1579zM700 197h408l393 1083h-409q-293 0 -454 -116t-260 -390q-98 -274 -14 -426t336 -151z" />
    <glyph glyph-name="oe" unicode="&#x153;" horiz-adv-x="2637" 
d="M682 0q-203 0 -343 65t-202 175q-61 111 -68 255t56 304q129 352 357 514t618 162h1698l-72 -193h-963l-164 -448h867l-72 -193h-864l-164 -448h965l-70 -193h-1579zM700 197h408l393 1083h-409q-293 0 -454 -116t-260 -390q-98 -274 -14 -426t336 -151z" />
    <glyph glyph-name="Racute" unicode="&#x154;" horiz-adv-x="1728" 
d="M1087 1475q379 0 508 -151t31 -415q-119 -326 -512 -364l213 -545h-266l-184 512h-457l-187 -512h-260l537 1475h577zM1026 1282h-326l-211 -577h353q256 0 370 48t162 191q66 186 -7 262t-341 76zM1212 1577h-251l419 330h306z" />
    <glyph glyph-name="racute" unicode="&#x155;" horiz-adv-x="1728" 
d="M1087 1475q379 0 508 -151t31 -415q-119 -326 -512 -364l213 -545h-266l-184 512h-457l-187 -512h-260l537 1475h577zM1026 1282h-326l-211 -577h353q256 0 370 48t162 191q66 186 -7 262t-341 76zM1212 1577h-251l419 330h306z" />
    <glyph glyph-name="Rcommaaccent" unicode="&#x156;" horiz-adv-x="1728" 
d="M309 -432h-250l414 330h305zM1087 1475q379 0 508 -151t31 -415q-119 -326 -512 -364l213 -545h-266l-184 512h-457l-187 -512h-260l537 1475h577zM1026 1282h-326l-211 -577h353q256 0 370 48t162 191q66 186 -7 262t-341 76z" />
    <glyph glyph-name="rcommaaccent" unicode="&#x157;" horiz-adv-x="1728" 
d="M309 -432h-250l414 330h305zM1087 1475q379 0 508 -151t31 -415q-119 -326 -512 -364l213 -545h-266l-184 512h-457l-187 -512h-260l537 1475h577zM1026 1282h-326l-211 -577h353q256 0 370 48t162 191q66 186 -7 262t-341 76z" />
    <glyph glyph-name="Rcaron" unicode="&#x158;" horiz-adv-x="1728" 
d="M1087 1475q379 0 508 -151t31 -415q-119 -326 -512 -364l213 -545h-266l-184 512h-457l-187 -512h-260l537 1475h577zM1026 1282h-326l-211 -577h353q256 0 370 48t162 191q66 186 -7 262t-341 76zM946 1577l-137 330h195l116 -248l258 248h226l-328 -330h-330z" />
    <glyph glyph-name="rcaron" unicode="&#x159;" horiz-adv-x="1728" 
d="M1087 1475q379 0 508 -151t31 -415q-119 -326 -512 -364l213 -545h-266l-184 512h-457l-187 -512h-260l537 1475h577zM1026 1282h-326l-211 -577h353q256 0 370 48t162 191q66 186 -7 262t-341 76zM946 1577l-137 330h195l116 -248l258 248h226l-328 -330h-330z" />
    <glyph glyph-name="Sacute" unicode="&#x15a;" horiz-adv-x="1562" 
d="M604 -25q-424 0 -702 127l73 207q293 -141 619 -141q387 0 461 205q45 106 2 173t-199 101l-264 58q-428 92 -299 458q121 336 684 336q301 0 631 -125l-70 -196q-283 131 -586 131q-348 0 -411 -179q-41 -94 -6 -149t176 -88l274 -59q231 -50 305 -180t4 -322t-240 -275
q-170 -82 -452 -82zM1147 1577h-252l420 330h305z" />
    <glyph glyph-name="sacute" unicode="&#x15b;" horiz-adv-x="1562" 
d="M604 -25q-424 0 -702 127l73 207q293 -141 619 -141q387 0 461 205q45 106 2 173t-199 101l-264 58q-428 92 -299 458q121 336 684 336q301 0 631 -125l-70 -196q-283 131 -586 131q-348 0 -411 -179q-41 -94 -6 -149t176 -88l274 -59q231 -50 305 -180t4 -322t-240 -275
q-170 -82 -452 -82zM1147 1577h-252l420 330h305z" />
    <glyph glyph-name="Scircumflex" unicode="&#x15c;" horiz-adv-x="1562" 
d="M604 -25q-424 0 -702 127l73 207q293 -141 619 -141q387 0 461 205q45 106 2 173t-199 101l-264 58q-428 92 -299 458q121 336 684 336q301 0 631 -125l-70 -196q-283 131 -586 131q-348 0 -411 -179q-41 -94 -6 -149t176 -88l274 -59q231 -50 305 -180t4 -322t-240 -275
q-170 -82 -452 -82zM1235 1577l-117 248l-260 -248h-225l328 330h329l137 -330h-192z" />
    <glyph glyph-name="scircumflex" unicode="&#x15d;" horiz-adv-x="1562" 
d="M604 -25q-424 0 -702 127l73 207q293 -141 619 -141q387 0 461 205q45 106 2 173t-199 101l-264 58q-428 92 -299 458q121 336 684 336q301 0 631 -125l-70 -196q-283 131 -586 131q-348 0 -411 -179q-41 -94 -6 -149t176 -88l274 -59q231 -50 305 -180t4 -322t-240 -275
q-170 -82 -452 -82zM1235 1577l-117 248l-260 -248h-225l328 330h329l137 -330h-192z" />
    <glyph glyph-name="Scedilla" unicode="&#x15e;" horiz-adv-x="1562" 
d="M354 -453q-164 0 -262 54l41 135q111 -41 208 -41t124 69q33 92 -70 220q-289 25 -493 118l73 207q293 -141 619 -141q387 0 461 205q45 106 2 173t-199 101l-264 58q-428 92 -299 458q121 336 684 336q301 0 631 -125l-70 -196q-283 131 -586 131q-348 0 -411 -179
q-41 -94 -6 -149t176 -88l274 -59q231 -50 305 -180t4 -322t-240 -275q-170 -82 -452 -82h-22q57 -82 71 -138t-14 -140q-60 -150 -285 -150z" />
    <glyph glyph-name="scedilla" unicode="&#x15f;" horiz-adv-x="1562" 
d="M354 -453q-164 0 -262 54l41 135q111 -41 208 -41t124 69q33 92 -70 220q-289 25 -493 118l73 207q293 -141 619 -141q387 0 461 205q45 106 2 173t-199 101l-264 58q-428 92 -299 458q121 336 684 336q301 0 631 -125l-70 -196q-283 131 -586 131q-348 0 -411 -179
q-41 -94 -6 -149t176 -88l274 -59q231 -50 305 -180t4 -322t-240 -275q-170 -82 -452 -82h-22q57 -82 71 -138t-14 -140q-60 -150 -285 -150z" />
    <glyph glyph-name="Scaron" unicode="&#x160;" horiz-adv-x="1562" 
d="M604 -25q-424 0 -702 127l73 207q293 -141 619 -141q387 0 461 205q45 106 2 173t-199 101l-264 58q-428 92 -299 458q121 336 684 336q301 0 631 -125l-70 -196q-283 131 -586 131q-348 0 -411 -179q-41 -94 -6 -149t176 -88l274 -59q231 -50 305 -180t4 -322t-240 -275
q-170 -82 -452 -82zM881 1577l-138 330h195l117 -248l258 248h225l-328 -330h-329z" />
    <glyph glyph-name="scaron" unicode="&#x161;" horiz-adv-x="1562" 
d="M604 -25q-424 0 -702 127l73 207q293 -141 619 -141q387 0 461 205q45 106 2 173t-199 101l-264 58q-428 92 -299 458q121 336 684 336q301 0 631 -125l-70 -196q-283 131 -586 131q-348 0 -411 -179q-41 -94 -6 -149t176 -88l274 -59q231 -50 305 -180t4 -322t-240 -275
q-170 -82 -452 -82zM881 1577l-138 330h195l117 -248l258 248h225l-328 -330h-329z" />
    <glyph glyph-name="Tcommaaccent" unicode="&#x162;" horiz-adv-x="1490" 
d="M133 -432h-250l414 330h305zM1669 1276h-575l-465 -1276h-260l465 1276h-584l74 199h1419z" />
    <glyph glyph-name="tcommaaccent" unicode="&#x163;" horiz-adv-x="1490" 
d="M133 -432h-250l414 330h305zM1669 1276h-575l-465 -1276h-260l465 1276h-584l74 199h1419z" />
    <glyph glyph-name="Tcaron" unicode="&#x164;" horiz-adv-x="1490" 
d="M1669 1276h-575l-465 -1276h-260l465 1276h-584l74 199h1419zM907 1577l-137 330h195l116 -248l258 248h226l-328 -330h-330z" />
    <glyph glyph-name="tcaron" unicode="&#x165;" horiz-adv-x="1490" 
d="M1669 1276h-575l-465 -1276h-260l465 1276h-584l74 199h1419zM907 1577l-137 330h195l116 -248l258 248h226l-328 -330h-330z" />
    <glyph glyph-name="Tbar" unicode="&#x166;" horiz-adv-x="1490" 
d="M1171 649h-307l-235 -649h-260l235 649h-340l53 148h342l175 479h-584l74 199h1419l-74 -199h-575l-174 -479h305z" />
    <glyph glyph-name="tbar" unicode="&#x167;" horiz-adv-x="1490" 
d="M1171 649h-307l-235 -649h-260l235 649h-340l53 148h342l175 479h-584l74 199h1419l-74 -199h-575l-174 -479h305z" />
    <glyph glyph-name="Utilde" unicode="&#x168;" horiz-adv-x="1806" 
d="M682 -25q-360 0 -495 173q-134 173 -33 450l315 877h260l-317 -879q-80 -220 -1 -320t308 -100t358 84t221 336l318 879h260l-317 -883q-127 -354 -322 -486t-555 -131zM1071 1921q66 0 121 -34q55 -33 88 -73q90 -107 143 -108q53 0 79 36t71 165h168
q-76 -217 -132 -281t-177 -63q-66 -1 -121 33t-88 75q-88 109 -142 109q-55 0 -80 -37t-71 -166h-168q78 217 133 281t176 63z" />
    <glyph glyph-name="utilde" unicode="&#x169;" horiz-adv-x="1806" 
d="M682 -25q-360 0 -495 173q-134 173 -33 450l315 877h260l-317 -879q-80 -220 -1 -320t308 -100t358 84t221 336l318 879h260l-317 -883q-127 -354 -322 -486t-555 -131zM1071 1921q66 0 121 -34q55 -33 88 -73q90 -107 143 -108q53 0 79 36t71 165h168
q-76 -217 -132 -281t-177 -63q-66 -1 -121 33t-88 75q-88 109 -142 109q-55 0 -80 -37t-71 -166h-168q78 217 133 281t176 63z" />
    <glyph glyph-name="Umacron" unicode="&#x16a;" horiz-adv-x="1806" 
d="M682 -25q-360 0 -495 173q-134 173 -33 450l315 877h260l-317 -879q-80 -220 -1 -320t308 -100t358 84t221 336l318 879h260l-317 -883q-127 -354 -322 -486t-555 -131zM1673 1686h-844l50 147h843z" />
    <glyph glyph-name="umacron" unicode="&#x16b;" horiz-adv-x="1806" 
d="M682 -25q-360 0 -495 173q-134 173 -33 450l315 877h260l-317 -879q-80 -220 -1 -320t308 -100t358 84t221 336l318 879h260l-317 -883q-127 -354 -322 -486t-555 -131zM1673 1686h-844l50 147h843z" />
    <glyph glyph-name="Ubreve" unicode="&#x16c;" horiz-adv-x="1806" 
d="M682 -25q-360 0 -495 173q-134 173 -33 450l315 877h260l-317 -879q-80 -220 -1 -320t308 -100t358 84t221 336l318 879h260l-317 -883q-127 -354 -322 -486t-555 -131zM1234 1556q-175 0 -248 90t-11 261h186q-39 -113 -13 -168t105 -56q170 0 252 224h189
q-70 -190 -177 -271q-108 -80 -283 -80z" />
    <glyph glyph-name="ubreve" unicode="&#x16d;" horiz-adv-x="1806" 
d="M682 -25q-360 0 -495 173q-134 173 -33 450l315 877h260l-317 -879q-80 -220 -1 -320t308 -100t358 84t221 336l318 879h260l-317 -883q-127 -354 -322 -486t-555 -131zM1234 1556q-175 0 -248 90t-11 261h186q-39 -113 -13 -168t105 -56q170 0 252 224h189
q-70 -190 -177 -271q-108 -80 -283 -80z" />
    <glyph glyph-name="Uring" unicode="&#x16e;" horiz-adv-x="1806" 
d="M682 -25q-360 0 -495 173q-134 173 -33 450l315 877h260l-317 -879q-80 -220 -1 -320t308 -100t358 84t221 336l318 879h260l-317 -883q-127 -354 -322 -486t-555 -131zM1225 1657q121 0 151 78q16 49 -11 69q-28 20 -108 21q-125 0 -155 -78q-16 -49 12 -70
q29 -20 111 -20zM1198 1556q-182 0 -250 54t-30 159q57 158 362 158q182 0 250 -54t31 -157q-58 -160 -363 -160z" />
    <glyph glyph-name="uring" unicode="&#x16f;" horiz-adv-x="1806" 
d="M682 -25q-360 0 -495 173q-134 173 -33 450l315 877h260l-317 -879q-80 -220 -1 -320t308 -100t358 84t221 336l318 879h260l-317 -883q-127 -354 -322 -486t-555 -131zM1225 1657q121 0 151 78q16 49 -11 69q-28 20 -108 21q-125 0 -155 -78q-16 -49 12 -70
q29 -20 111 -20zM1198 1556q-182 0 -250 54t-30 159q57 158 362 158q182 0 250 -54t31 -157q-58 -160 -363 -160z" />
    <glyph glyph-name="Uhungarumlaut" unicode="&#x170;" horiz-adv-x="1806" 
d="M682 -25q-360 0 -495 173q-134 173 -33 450l315 877h260l-317 -879q-80 -220 -1 -320t308 -100t358 84t221 336l318 879h260l-317 -883q-127 -354 -322 -486t-555 -131zM1051 1577h-242l418 330h297zM1554 1577h-241l420 330h295z" />
    <glyph glyph-name="uhungarumlaut" unicode="&#x171;" horiz-adv-x="1806" 
d="M682 -25q-360 0 -495 173q-134 173 -33 450l315 877h260l-317 -879q-80 -220 -1 -320t308 -100t358 84t221 336l318 879h260l-317 -883q-127 -354 -322 -486t-555 -131zM1051 1577h-242l418 330h297zM1554 1577h-241l420 330h295z" />
    <glyph glyph-name="Uogonek" unicode="&#x172;" horiz-adv-x="1806" 
d="M698 -453q-164 0 -236 72t-35 178q38 106 155 185q-311 29 -416 196q-104 168 -12 420l315 877h260l-317 -879q-80 -220 -1 -320t308 -100t358 84t221 336l318 879h260l-317 -883q-121 -336 -303 -470t-486 -145q-113 -84 -131 -156t11 -102q30 -29 117 -29t167 27
l-51 -141q-83 -29 -185 -29z" />
    <glyph glyph-name="uogonek" unicode="&#x173;" horiz-adv-x="1806" 
d="M698 -453q-164 0 -236 72t-35 178q38 106 155 185q-311 29 -416 196q-104 168 -12 420l315 877h260l-317 -879q-80 -220 -1 -320t308 -100t358 84t221 336l318 879h260l-317 -883q-121 -336 -303 -470t-486 -145q-113 -84 -131 -156t11 -102q30 -29 117 -29t167 27
l-51 -141q-83 -29 -185 -29z" />
    <glyph glyph-name="Wcircumflex" unicode="&#x174;" horiz-adv-x="2664" 
d="M291 0v1475h254l-15 -1307l854 1307h365l-31 -1299l858 1299h281l-934 -1381q-63 -94 -162 -94h-278l20 1288l-794 -1194q-55 -94 -166 -94h-252zM1800 1577l-117 248l-260 -248h-225l328 330h329l138 -330h-193z" />
    <glyph glyph-name="wcircumflex" unicode="&#x175;" horiz-adv-x="2664" 
d="M291 0v1475h254l-15 -1307l854 1307h365l-31 -1299l858 1299h281l-934 -1381q-63 -94 -162 -94h-278l20 1288l-794 -1194q-55 -94 -166 -94h-252zM1800 1577l-117 248l-260 -248h-225l328 330h329l138 -330h-193z" />
    <glyph glyph-name="Ycircumflex" unicode="&#x176;" horiz-adv-x="1665" 
d="M686 0h-260l233 641l-389 834h254l310 -656l790 656h311l-1022 -852zM1323 1577l-117 248l-260 -248h-225l328 330h329l138 -330h-193z" />
    <glyph glyph-name="ycircumflex" unicode="&#x177;" horiz-adv-x="1665" 
d="M686 0h-260l233 641l-389 834h254l310 -656l790 656h311l-1022 -852zM1323 1577l-117 248l-260 -248h-225l328 330h329l138 -330h-193z" />
    <glyph glyph-name="Ydieresis" unicode="&#x178;" horiz-adv-x="1665" 
d="M686 0h-260l233 641l-389 834h254l310 -656l790 656h311l-1022 -852zM1055 1647h-230l68 190h229zM1456 1647h-229l69 190h230z" />
    <glyph glyph-name="Zacute" unicode="&#x179;" horiz-adv-x="1632" 
d="M1266 0h-1379l39 102q25 63 92 113l1338 1065h-975l72 195h1329l-62 -166l-1405 -1112h1020zM1262 1577h-252l420 330h305z" />
    <glyph glyph-name="zacute" unicode="&#x17a;" horiz-adv-x="1632" 
d="M1266 0h-1379l39 102q25 63 92 113l1338 1065h-975l72 195h1329l-62 -166l-1405 -1112h1020zM1262 1577h-252l420 330h305z" />
    <glyph glyph-name="Zdotaccent" unicode="&#x17b;" horiz-adv-x="1632" 
d="M1266 0h-1379l39 102q25 63 92 113l1338 1065h-975l72 195h1329l-62 -166l-1405 -1112h1020zM1298 1647h-260l70 190h260z" />
    <glyph glyph-name="zdotaccent" unicode="&#x17c;" horiz-adv-x="1632" 
d="M1266 0h-1379l39 102q25 63 92 113l1338 1065h-975l72 195h1329l-62 -166l-1405 -1112h1020zM1298 1647h-260l70 190h260z" />
    <glyph glyph-name="Zcaron" unicode="&#x17d;" horiz-adv-x="1632" 
d="M1266 0h-1379l39 102q25 63 92 113l1338 1065h-975l72 195h1329l-62 -166l-1405 -1112h1020zM995 1577l-137 330h195l116 -248l258 248h226l-328 -330h-330z" />
    <glyph glyph-name="zcaron" unicode="&#x17e;" horiz-adv-x="1632" 
d="M1266 0h-1379l39 102q25 63 92 113l1338 1065h-975l72 195h1329l-62 -166l-1405 -1112h1020zM995 1577l-137 330h195l116 -248l258 248h226l-328 -330h-330z" />
    <glyph glyph-name="Scommaaccent" unicode="&#x218;" horiz-adv-x="1562" 
d="M205 -432h-250l414 330h305zM604 -25q-424 0 -702 127l73 207q293 -141 619 -141q387 0 461 205q45 106 2 173t-199 101l-264 58q-428 92 -299 458q121 336 684 336q301 0 631 -125l-70 -196q-283 131 -586 131q-348 0 -411 -179q-41 -94 -6 -149t176 -88l274 -59
q231 -50 305 -180t4 -322t-240 -275q-170 -82 -452 -82z" />
    <glyph glyph-name="scommaaccent" unicode="&#x219;" horiz-adv-x="1562" 
d="M205 -432h-250l414 330h305zM604 -25q-424 0 -702 127l73 207q293 -141 619 -141q387 0 461 205q45 106 2 173t-199 101l-264 58q-428 92 -299 458q121 336 684 336q301 0 631 -125l-70 -196q-283 131 -586 131q-348 0 -411 -179q-41 -94 -6 -149t176 -88l274 -59
q231 -50 305 -180t4 -322t-240 -275q-170 -82 -452 -82z" />
    <glyph glyph-name="circumflex" unicode="&#x2c6;" horiz-adv-x="1712" 
d="M1368 1577l-117 248l-260 -248h-225l328 330h329l138 -330h-193z" />
    <glyph glyph-name="caron" unicode="&#x2c7;" horiz-adv-x="1712" 
d="M1024 1577l-137 330h194l117 -248l258 248h225l-327 -330h-330z" />
    <glyph glyph-name="breve" unicode="&#x2d8;" horiz-adv-x="1710" 
d="M1182 1556q-174 0 -247 90t-11 261h186q-39 -113 -13 -168t105 -56q170 0 252 224h188q-70 -190 -177 -271q-109 -80 -283 -80z" />
    <glyph glyph-name="dotaccent" unicode="&#x2d9;" horiz-adv-x="1712" 
d="M1319 1647h-260l69 190h261z" />
    <glyph glyph-name="ring" unicode="&#x2da;" horiz-adv-x="1714" 
d="M1210 1657q121 0 152 78q16 49 -11 69q-28 20 -108 21q-125 0 -156 -78q-15 -49 13 -69t110 -21zM1184 1556q-182 0 -250 54t-31 159q57 158 363 158q182 0 250 -54t30 -157q-57 -160 -362 -160z" />
    <glyph glyph-name="ogonek" unicode="&#x2db;" horiz-adv-x="1777" 
d="M662 -453q-164 0 -237 72q-73 71 -30 191t215 208h185q-170 -106 -195 -206q-16 -63 13 -93q30 -29 117 -29t167 27l-51 -141q-82 -29 -184 -29z" />
    <glyph glyph-name="tilde" unicode="&#x2dc;" horiz-adv-x="1779" 
d="M1077 1921q66 0 121 -34q55 -33 88 -73q90 -107 143 -108q53 0 79 36t71 165h168q-76 -217 -132 -281t-177 -63q-66 -1 -121 33t-88 75q-88 109 -142 109q-55 0 -79 -37t-72 -166h-168q78 217 133 281t176 63z" />
    <glyph glyph-name="hungarumlaut" unicode="&#x2dd;" horiz-adv-x="1710" 
d="M838 1577h-242l418 330h297zM1341 1577h-241l420 330h295z" />
    <glyph glyph-name="Delta" unicode="&#x394;" horiz-adv-x="1656" 
d="M-209 0l1051 1380q66 94 176 95h274l99 -1475h-1600zM1133 197l-68 1157l-852 -1157h920z" />
    <glyph glyph-name="Omega" unicode="&#x3a9;" 
d="M1114 1499q188 0 328 -43t220 -118q235 -223 87 -619q-68 -182 -174 -310t-281 -212h332l-72 -197h-690l66 174q205 58 343 190t224 361q61 176 45 304t-131 200t-317 71q-500 0 -658 -430q-68 -176 -54 -315q26 -263 255 -381l-62 -174h-634l71 197h318
q-143 111 -179 311t44 418q213 573 919 573z" />
    <glyph glyph-name="mu" unicode="&#x3bc;" horiz-adv-x="2406" 
d="M754 1475q84 0 118 -33t41 -115l101 -1098l993 1246h430l-534 -1475h-263l465 1276l-1030 -1276h-278l-113 1288l-469 -1288h-242l537 1475h244z" />
    <glyph glyph-name="pi" unicode="&#x3c0;" horiz-adv-x="1884" 
d="M1118 0l465 1276h-885l-465 -1276h-260l537 1475h1405l-537 -1475h-260z" />
    <glyph glyph-name="uni2009" unicode="&#x2009;" horiz-adv-x="61" 
 />
    <glyph glyph-name="endash" unicode="&#x2013;" horiz-adv-x="1433" 
d="M-4 653l61 168h1383l-62 -168h-1382z" />
    <glyph glyph-name="emdash" unicode="&#x2014;" horiz-adv-x="2867" 
d="M-4 653l61 168h2816l-61 -168h-2816z" />
    <glyph glyph-name="quoteleft" unicode="&#x2018;" horiz-adv-x="794" 
d="M688 1475h191l-326 -514h-283z" />
    <glyph glyph-name="quoteright" unicode="&#x2019;" horiz-adv-x="794" 
d="M463 961h-193l326 514h283z" />
    <glyph glyph-name="quotesinglbase" unicode="&#x201a;" horiz-adv-x="892" 
d="M78 -268h-193l326 514h283z" />
    <glyph glyph-name="quotedblleft" unicode="&#x201c;" horiz-adv-x="1341" 
d="M737 1475h191l-326 -514h-283zM1188 1475h190l-325 -514h-283z" />
    <glyph glyph-name="quotedblright" unicode="&#x201d;" horiz-adv-x="1341" 
d="M512 961h-193l326 514h283zM963 961h-193l326 514h282z" />
    <glyph glyph-name="quotedblbase" unicode="&#x201e;" horiz-adv-x="1343" 
d="M78 -268h-193l326 514h283zM528 -268h-192l326 514h282z" />
    <glyph glyph-name="dagger" unicode="&#x2020;" horiz-adv-x="983" 
d="M1096 940h-379l-340 -940h-197l340 940h-381l60 160h381l135 375h196l-135 -375h379z" />
    <glyph glyph-name="daggerdbl" unicode="&#x2021;" horiz-adv-x="983" 
d="M891 375h-379l-137 -375h-197l137 375h-381l60 160h379l147 405h-381l60 160h379l137 375h196l-137 -375h381l-59 -160h-379l-148 -405h381z" />
    <glyph glyph-name="bullet" unicode="&#x2022;" horiz-adv-x="980" 
d="M422 485q-152 0 -207 82t-7 210t130 180q82 53 234 53t206 -82q55 -82 7 -210t-130 -180q-81 -52 -233 -53z" />
    <glyph glyph-name="ellipsis" unicode="&#x2026;" horiz-adv-x="2514" 
d="M326 0h-291l88 246h291zM1137 0h-291l88 246h291zM1948 0h-291l88 246h291z" />
    <glyph glyph-name="perthousand" unicode="&#x2030;" horiz-adv-x="3833" 
d="M2170 793q-142 0 -226 -72t-146 -241t-17 -260q46 -91 189 -91t226 71q82 70 144 240t16 262q-44 92 -186 91zM3280 793q-142 0 -226 -72t-146 -241t-17 -260q46 -91 189 -91t226 71q82 70 144 240t16 262q-44 92 -186 91zM1968 -16q-272 0 -362 148t-8 374t216 328
q132 104 355 104q270 2 361 -148q90 -150 8 -374t-214 -328t-356 -104zM3078 -16q-272 0 -362 148t-8 374t216 328q132 104 355 104q270 2 361 -148q90 -150 8 -374t-214 -328t-356 -104zM758 1346q-142 0 -226 -72t-146 -241t-16 -260t189 -91t226 71t145 241t16 260
q-46 92 -188 92zM1806 1475h228l-1116 -1473h-228zM557 537q-272 0 -362 148q-89 147 -7 373t214 330t356 103q270 2 361 -148q91 -151 8 -375t-215 -328t-355 -103z" />
    <glyph glyph-name="guilsinglleft" unicode="&#x2039;" horiz-adv-x="821" 
d="M676 1262h235l-573 -531l197 -518h-209l-224 535z" />
    <glyph glyph-name="guilsinglright" unicode="&#x203a;" horiz-adv-x="821" 
d="M150 213h-236l573 530l-196 519h209l223 -535z" />
    <glyph glyph-name="fraction" unicode="&#x2044;" horiz-adv-x="499" 
d="M696 1475h228l-1117 -1473h-227z" />
    <glyph glyph-name="zerosuperior" unicode="&#x2070;" horiz-adv-x="1110" 
d="M858 1622q-142 0 -225 -72q-85 -72 -147 -240t-16 -259q46 -93 190 -93t226 71q83 71 144 247q61 162 16 254q-46 92 -188 92zM657 813q-272 1 -362 149t-8 373q84 225 216 329t355 103q270 2 362 -147q91 -150 8 -375t-215 -329q-133 -103 -356 -103z" />
    <glyph glyph-name="foursuperior" unicode="&#x2074;" horiz-adv-x="1046" 
d="M965 1751h252l-195 -537h162l-51 -139h-162l-88 -246h-201l90 246h-575l55 156l596 469q57 51 117 51zM823 1214l156 433l-539 -433h383z" />
    <glyph glyph-name="fivesuperior" unicode="&#x2075;" horiz-adv-x="1007" 
d="M578 813q-233 0 -404 82l55 141q168 -82 342 -82q268 0 314 125q29 78 -13 126t-194 48q-150 0 -350 -12l180 510h754l-52 -143h-569l-82 -224q127 8 186 9q233 1 309 -99t23 -254q-89 -227 -499 -227z" />
    <glyph glyph-name="sixsuperior" unicode="&#x2076;" horiz-adv-x="1032" 
d="M662 948q199 0 251 146q68 195 -194 194q-131 0 -260 -45q-78 -295 203 -295zM641 813q-260 0 -351 153t-5 387t241 324q156 90 375 90t381 -63l-49 -141q-135 63 -305 63t-274 -56t-152 -192q127 41 276 41q209 0 296 -98t28 -260q-47 -135 -158 -191t-303 -57z" />
    <glyph glyph-name="sevensuperior" unicode="&#x2077;" horiz-adv-x="917" 
d="M442 829h-206l45 127q39 109 101 189t206 192l340 271h-580l53 143h846l-28 -80q-16 -37 -74 -90l-393 -309q-138 -106 -188 -171t-85 -167z" />
    <glyph glyph-name="eightsuperior" unicode="&#x2078;" horiz-adv-x="1093" 
d="M636 952q130 0 196 27t92 101q28 74 -22 118q-50 43 -182 43t-197 -27q-65 -28 -91 -102t24 -117t180 -43zM777 1341q122 0 181 29t89 103q27 79 -19 119t-168 40q-121 0 -180 -28t-87 -104q-28 -77 17 -118t167 -41zM639 813q-264 0 -363 85q-98 85 -45 228
q29 76 102 125t177 60q-74 25 -100 93t2 148q47 123 157 169q111 46 323 46q212 1 306 -81t45 -218q-63 -168 -246 -196q86 -22 116 -92t-3 -152q-44 -119 -158 -167t-313 -48z" />
    <glyph glyph-name="ninesuperior" unicode="&#x2079;" horiz-adv-x="1032" 
d="M795 1767q262 -1 352 -153t3 -386q-88 -234 -242 -325q-154 -90 -371 -90t-383 64l47 141q133 -64 306 -64t276 56t153 194q-129 -43 -279 -43q-209 -1 -295 99t-26 260q47 133 158 190t301 57zM717 1292q127 0 262 43q78 297 -205 297q-199 0 -250 -145
q-67 -195 193 -195z" />
    <glyph glyph-name="zeroinferior" unicode="&#x2080;" horiz-adv-x="1110" 
d="M456 516q-142 0 -225 -72q-84 -72 -146 -240t-16 -259q46 -92 189 -92q143 1 226 71q82 70 144 239t16 261t-188 92zM256 -293q-272 1 -362 149t-9 373q84 225 216 329t356 104q270 2 361 -148t8 -375t-215 -329t-355 -103z" />
    <glyph glyph-name="oneinferior" unicode="&#x2081;" horiz-adv-x="696" 
d="M174 -276h-207l269 745l-345 -145l60 165l373 156h184z" />
    <glyph glyph-name="twoinferior" unicode="&#x2082;" horiz-adv-x="983" 
d="M300 518q-144 0 -306 -43l55 148q145 39 305 39q232 0 326 -88t39 -242q-23 -64 -82 -118t-111 -84t-159 -87l-324 -174h563l-53 -145h-836l37 98q23 63 78 90l428 235q67 33 84 46q18 12 45 27q27 16 37 24t41 32t49 72q29 80 -21 125q-51 45 -195 45z" />
    <glyph glyph-name="threeinferior" unicode="&#x2083;" horiz-adv-x="1028" 
d="M159 -293q-220 0 -399 84l54 143q176 -86 336 -86t235 27q77 27 101 95t-13 116q-37 49 -156 49h-294l45 121l493 246h-547l54 141h831l-29 -80q-27 -66 -73 -88l-445 -223h31q195 0 269 -92t27 -222q-48 -130 -174 -180q-126 -51 -346 -51z" />
    <glyph glyph-name="fourinferior" unicode="&#x2084;" horiz-adv-x="1046" 
d="M563 645h252l-194 -536h161l-51 -140h-162l-88 -245h-200l90 245h-576l55 156l596 469q57 51 117 51zM422 109l156 432l-539 -432h383z" />
    <glyph glyph-name="fiveinferior" unicode="&#x2085;" horiz-adv-x="1007" 
d="M176 -293q-233 0 -403 82l55 141q168 -82 342 -82q268 0 313 125q29 78 -13 126t-192 48t-352 -12l180 510h754l-51 -143h-569l-82 -223q127 8 186 8q233 1 309 -99t23 -254q-90 -227 -500 -227z" />
    <glyph glyph-name="sixinferior" unicode="&#x2086;" horiz-adv-x="1032" 
d="M260 -158q199 0 252 146q68 195 -195 194q-131 0 -260 -45q-78 -295 203 -295zM240 -293q-260 0 -352 153q-91 153 -5 387t242 324q157 91 375 91t381 -64l-50 -141q-135 63 -305 63t-274 -56t-152 -192q127 41 277 41q209 0 295 -98t28 -260q-47 -135 -157 -192
q-111 -56 -303 -56z" />
    <glyph glyph-name="seveninferior" unicode="&#x2087;" horiz-adv-x="917" 
d="M41 -276h-207l45 126q39 109 101 189t206 192l340 271h-579l53 143h846l-29 -80q-16 -37 -74 -90l-393 -309q-137 -106 -187 -171t-85 -167z" />
    <glyph glyph-name="eightinferior" unicode="&#x2088;" horiz-adv-x="1093" 
d="M235 -154q129 0 195 27t88 92q62 170 -200 170q-132 -1 -196 -27t-92 -101q-26 -75 24 -118t181 -43zM459 526q-121 0 -180 -28t-87 -104q-28 -78 17 -118t167 -40t181 28t88 103q27 79 -19 119t-167 40zM238 -293q-264 0 -363 85q-98 85 -45 228q29 76 101 125
q73 49 178 60q-74 25 -101 93t2 148q47 123 158 169q111 47 323 47t306 -82t45 -218q-63 -168 -246 -196q86 -22 116 -92t-3 -152q-45 -119 -159 -167t-312 -48z" />
    <glyph glyph-name="nineinferior" unicode="&#x2089;" horiz-adv-x="1032" 
d="M135 -293q-217 0 -383 64l47 141q133 -64 307 -64t276 56q103 56 153 194q-129 -43 -279 -43q-209 -1 -295 99t-27 260q47 133 158 190t301 58q262 0 352 -153t3 -387t-241 -325q-155 -90 -372 -90zM315 186q127 0 263 43q78 297 -205 297q-199 0 -250 -145
q-68 -195 192 -195z" />
    <glyph glyph-name="Euro" unicode="&#x20ac;" horiz-adv-x="1699" 
d="M1280 1499q268 0 526 -98l-71 -199q-223 96 -431 96t-350 -72q-141 -72 -241 -249h676l-56 -160h-694q-9 -18 -14 -41q-18 -49 -33 -119h682l-57 -159h-646q2 -322 449 -322q213 0 403 60l-71 -203q-170 -57 -400 -58q-311 -1 -476 137t-161 386h-313l57 159h275
q12 61 45 160h-260l55 160h272q134 279 350 401t484 121z" />
    <glyph glyph-name="litre" unicode="&#x2113;" horiz-adv-x="1134" 
d="M841 1321q-36 0 -73 -19q-97 -50 -197 -261t-190 -476q387 180 520 539q65 180 -5 209q-20 8 -55 8zM434 -33q-100 -1 -156 13t-105 57q-152 136 30 629q211 584 434 745q72 51 129 67t127 15q160 0 215 -97t-12 -278q-199 -516 -768 -749q-23 -123 14 -167
q38 -44 148 -44t212 45l-69 -193q-99 -43 -199 -43z" />
    <glyph glyph-name="trademark" unicode="&#x2122;" horiz-adv-x="2568" 
d="M1176 1321h-340l-279 -768h-215l279 768h-342l55 154h897zM1602 1475q54 0 78 -25t28 -84l47 -608l557 717h348l-336 -922h-217l279 764l-598 -764h-213l-49 776l-283 -776h-194l335 922h218z" />
    <glyph glyph-name="estimated" unicode="&#x212e;" horiz-adv-x="1677" 
d="M385 342q177 -223 473 -223q152 0 290 87t202 236h170q-82 -209 -268 -341t-414 -132q-305 0 -522 222q-216 223 -216 533t216 529t520 219t519 -218q216 -220 216 -529q0 -23 -2 -35h-1184v-348zM838 1323q-135 0 -254 -57t-199 -158v-279h901v277q-172 217 -448 217z
" />
    <glyph glyph-name="partialdiff" unicode="&#x2202;" horiz-adv-x="1558" 
d="M571 162q269 0 411 136q71 68 117 146t91 193q-141 63 -251 90q-111 27 -277 27t-268 -46t-148 -163q-63 -160 22 -272q86 -111 303 -111zM692 938q279 0 559 -129q171 506 -421 506q-298 0 -519 -58l72 187q229 55 504 55q389 0 552 -204t42 -545q-55 -162 -109 -275
q-124 -258 -305 -373q-202 -127 -536 -127t-480 173q-145 173 -49 436q129 354 690 354z" />
    <glyph glyph-name="product" unicode="&#x220f;" horiz-adv-x="1884" 
d="M963 -430l620 1706h-885l-620 -1706h-260l692 1905h1405l-692 -1905h-260z" />
    <glyph glyph-name="summation" unicode="&#x2211;" horiz-adv-x="1630" 
d="M1110 -430h-1378l39 102q23 63 90 113l932 745l-426 787l57 158h1329l-72 -195h-1015l348 -664q33 -49 12 -110l-25 -72l-843 -670h1022z" />
    <glyph glyph-name="minus" unicode="&#x2212;" horiz-adv-x="1697" 
d="M227 647l66 182h1182l-66 -182h-1182z" />
    <glyph glyph-name="radical" unicode="&#x221a;" horiz-adv-x="1306" 
d="M190 0l33 913h207l-29 -729l883 1291h219l-1011 -1475h-302z" />
    <glyph glyph-name="infinity" unicode="&#x221e;" horiz-adv-x="1667" 
d="M392 520q93 0 172 62t192 190q-23 102 -63 158t-122 55q-201 0 -288 -244q-83 -221 109 -221zM1114 535q203 0 291 243q83 221 -110 221q-93 0 -172 -62t-191 -189q27 -104 64 -159q38 -54 118 -54zM1069 362q-121 0 -182 62t-92 176q-233 -238 -449 -238q-126 0 -192 52
q-120 95 -35 344q66 182 192 292q127 110 307 109q120 0 182 -63t93 -174q238 238 448 237q184 0 240 -113q55 -114 -14 -284q-66 -182 -191 -291t-307 -109z" />
    <glyph glyph-name="integral" unicode="&#x222b;" horiz-adv-x="1054" 
d="M-141 -432q-152 0 -271 57l66 180q111 -49 213 -49t173 68t128 225l354 983q90 248 208 357t321 108q154 0 272 -57l-66 -180q-111 49 -214 49t-173 -68t-127 -225l-354 -983q-91 -249 -209 -357t-321 -108z" />
    <glyph glyph-name="approxequal" unicode="&#x2248;" horiz-adv-x="1712" 
d="M1035 330q-83 0 -153 26t-113 55q-113 81 -217 81t-239 -134l-80 129q174 180 330 181q103 0 185 -41t152 -81t138 -40q106 0 246 135l80 -131q-92 -92 -169 -136t-160 -44zM1206 809q-80 0 -150 26q-70 25 -113 55q-115 80 -218 81q-103 0 -238 -133l-79 129
q172 182 329 182q80 0 151 -26q70 -25 112 -55q113 -80 217 -81q104 0 241 133l80 -129q-178 -182 -332 -182z" />
    <glyph glyph-name="notequal" unicode="&#x2260;" horiz-adv-x="1697" 
d="M1319 399h-733l-262 -249h-187l262 249h-262l66 181h385l334 317h-605l66 180h727l262 250h187l-263 -250h269l-66 -180h-391l-334 -317h610z" />
    <glyph glyph-name="lessequal" unicode="&#x2264;" horiz-adv-x="1697" 
d="M25 104l67 181h1182l-68 -181h-1181zM1298 354l-1044 375l104 289l1319 377l-71 -203l-1155 -328l915 -325z" />
    <glyph glyph-name="greaterequal" unicode="&#x2265;" horiz-adv-x="1699" 
d="M1206 104h-1181l67 181h1182zM119 354l71 201l1158 328l-918 327l68 185l1044 -377l-104 -289z" />
    <glyph glyph-name="lozenge" unicode="&#x25ca;" horiz-adv-x="1183" 
d="M391 760l4 -604l408 559l-2 606zM197 0l-2 776l510 699h294l2 -777l-509 -698h-295z" />
    <glyph glyph-name="dotlessj" unicode="&#xf6be;" horiz-adv-x="1208" 
d="M227 180q296 0 402 293l364 1002h258l-370 -1033q-92 -254 -243 -360t-410 -106t-437 85l72 195q162 -76 364 -76z" />
    <glyph glyph-name="commaaccent" unicode="&#xf6c3;" horiz-adv-x="1712" 
d="M356 -432h-250l414 330h305z" />
    <glyph glyph-name="caron.alt" horiz-adv-x="1712" 
d="M911 961h-182l324 514h250z" />
    <glyph glyph-name="germandbls.cap" horiz-adv-x="3125" 
d="M604 -25q-424 0 -702 127l73 207q293 -141 619 -141q387 0 461 205q45 106 2 173t-199 101l-264 58q-428 92 -299 458q121 336 684 336q301 0 631 -125l-70 -196q-283 131 -586 131q-348 0 -411 -179q-41 -94 -6 -149t176 -88l274 -59q231 -50 305 -180t4 -322t-240 -275
q-170 -82 -452 -82zM2167 -25q-424 0 -703 127l74 207q293 -141 619 -141q387 0 460 205q45 106 2 173t-198 101l-264 58q-428 92 -299 458q121 336 684 336q301 0 630 -125l-69 -196q-283 131 -586 131q-183 0 -281 -44t-131 -135q-41 -94 -6 -149t176 -88l275 -59
q231 -50 305 -180t4 -322q-71 -192 -241 -275q-170 -82 -451 -82z" />
    <glyph glyph-name="i.trk" horiz-adv-x="739" 
d="M233 0h-260l537 1475h260zM831 1647h-260l70 190h260z" />
    <glyph glyph-name="dollar.lt" horiz-adv-x="1699" 
d="M674 -25h-15l-73 -200h-164l76 207q-303 20 -529 120l76 207q252 -121 522 -137l189 518l-92 19q-432 86 -299 454q121 336 682 336h30l66 180h164l-70 -192q215 -25 440 -113l-67 -196q-213 96 -441 122l-168 -460l56 -11q229 -47 303 -176t4 -321t-240 -275
q-170 -82 -450 -82zM942 651l-35 6l-178 -487q338 12 410 203q45 107 2 175t-199 103zM766 889l82 -17l160 437q-346 -2 -412 -179q-41 -94 -6 -151t176 -90z" />
    <glyph glyph-name="Euro.lt" horiz-adv-x="1699" 
d="M1280 1499q268 0 526 -98l-71 -199q-223 96 -431 96t-350 -72q-141 -72 -241 -249h676l-56 -160h-694q-9 -18 -14 -41q-18 -49 -33 -119h682l-57 -159h-646q2 -322 449 -322q213 0 403 60l-71 -203q-170 -57 -400 -58q-311 -1 -476 137t-161 386h-313l57 159h275
q12 61 45 160h-260l55 160h272q134 279 350 401t484 121z" />
    <glyph glyph-name="cent.lt" horiz-adv-x="1699" 
d="M825 61q-39 0 -59 2l-104 -288h-164l112 307q-281 55 -381 248t7 493q205 571 860 590l96 266h164l-99 -272q201 -16 394 -90l-72 -201q-178 82 -393 94l-346 -946q18 -2 55 -2q266 0 457 57l-74 -202q-168 -56 -453 -56zM473 776q-139 -410 209 -493l338 925
q-418 -41 -547 -432z" />
    <glyph glyph-name="sterling.lt" horiz-adv-x="1699" 
d="M1339 1305q-385 0 -491 -293l-12 -35h610l-55 -160h-613l-59 -160h612l-57 -159h-612l-25 -70q-33 -92 -83 -145t-124 -86h903l-71 -197h-1350l65 176l97 21q238 51 305 239l22 62h-274l57 159h275l57 160h-272l55 160h274l23 61q88 246 269 358t459 112t458 -87
l-72 -194q-160 78 -371 78z" />
    <glyph glyph-name="yen.lt" horiz-adv-x="1699" 
d="M1325 498h-436l-182 -498h-261l183 498h-432l55 159h434l57 160h-432l58 160h346l-357 498h269l313 -439l610 439h326l-711 -498h332l-57 -160h-436l-58 -160h434z" />
    <glyph glyph-name="zero.lt" horiz-adv-x="1699" 
d="M1018 1300q-253 0 -400 -120q-148 -120 -252 -411t-19 -443t338 -152t400 121t251 411t21 442q-86 152 -339 152zM1016 1499q215 -1 360 -67q271 -124 273 -442q0 -146 -62 -314q-133 -362 -343 -532t-556 -169q-215 0 -361 67t-209 181q-128 237 1 587q129 351 340 520
t557 169z" />
    <glyph glyph-name="one.lt" horiz-adv-x="1699" 
d="M856 0h-260l446 1235l-692 -289l80 225l731 304h232z" />
    <glyph glyph-name="two.lt" horiz-adv-x="1699" 
d="M902 1303q-240 0 -496 -70l75 205q209 61 471 61q358 0 506 -142t60 -384q-64 -169 -277 -302q-112 -70 -280 -159l-588 -315h952l-72 -197h-1308l51 141q33 80 104 119l713 389q23 12 83 45t121 66t118 79t84 80t47 82q53 145 -35 223q-89 78 -329 79z" />
    <glyph glyph-name="three.lt" horiz-adv-x="1699" 
d="M613 -25q-338 0 -633 140l73 200q295 -145 553 -145t392 48q132 48 173 159q45 127 -20 216q-66 89 -279 89h-464l57 168l838 428h-902l72 195h1305l-39 -105q-33 -86 -94 -115l-779 -401h66q313 0 437 -150t47 -358t-271 -288q-194 -81 -532 -81z" />
    <glyph glyph-name="four.lt" horiz-adv-x="1699" 
d="M1491 416h-266l-152 -416h-254l152 416h-948l73 202l1032 793q80 63 166 64h316l-318 -871h269zM1038 604l267 731l-945 -731h678z" />
    <glyph glyph-name="five.lt" horiz-adv-x="1699" 
d="M657 -25q-354 0 -628 136l73 194q283 -135 553 -135q455 0 537 225q51 139 -24 223t-348 84t-550 -20l281 793h1178l-72 -195h-934l-145 -399q172 12 326 12q435 0 536 -234q57 -133 -10 -319q-134 -365 -773 -365z" />
    <glyph glyph-name="six.lt" horiz-adv-x="1699" 
d="M762 162q186 0 292 59q105 59 150 191q121 342 -342 342q-231 0 -471 -82q-129 -510 371 -510zM1198 1499q287 0 541 -102l-66 -195q-223 102 -497 102t-456 -98q-183 -100 -265 -344q213 76 479 76q332 0 467 -158t43 -413q-76 -211 -250 -301t-461 -91q-401 0 -544 244
q-142 244 4 639q127 350 373 496q247 145 632 145z" />
    <glyph glyph-name="seven.lt" horiz-adv-x="1699" 
d="M530 0h-260l58 174q57 168 165 303t355 354l506 449h-971l72 195h1314l-38 -107q-18 -51 -93 -113l-594 -522q-242 -211 -328 -323t-141 -273z" />
    <glyph glyph-name="eight.lt" horiz-adv-x="1699" 
d="M664 168q236 0 352 45q117 45 164 174t-43 203q-91 74 -329 74t-356 -46t-155 -157q-51 -143 40 -218t327 -75zM902 815q218 0 324 47q105 47 151 178t-36 200t-300 69t-324 -46t-152 -169q-47 -141 36 -210t301 -69zM668 -23q-406 1 -558 135t-67 367q45 117 161 196
t275 95q-113 43 -153 152t2 221q43 112 109 181q123 126 362 160q106 15 243 15q376 0 522 -131t64 -350q-47 -123 -148 -204t-241 -103q133 -39 180 -150t-4 -239q-74 -193 -257 -269t-490 -76z" />
    <glyph glyph-name="nine.lt" horiz-adv-x="1699" 
d="M506 -25q-287 0 -541 103l66 192q215 -100 487 -100q435 0 618 227q71 88 113 215q-217 -76 -477 -75q-334 1 -469 159t-43 412q76 209 251 300t460 91q401 0 543 -244t-3 -639q-127 -350 -373 -496t-632 -145zM842 721q231 0 471 82q131 510 -371 510q-186 -1 -292 -61
t-150 -189q-121 -342 342 -342z" />
    <glyph glyph-name="zero.numr" horiz-adv-x="1110" 
d="M758 1346q-142 0 -226 -72t-146 -241t-16 -260t189 -91t226 71t145 241t16 260q-46 92 -188 92zM557 537q-272 0 -362 148q-89 147 -7 373t214 330t356 103q270 2 361 -148q91 -151 8 -375t-215 -328t-355 -103z" />
    <glyph glyph-name="one.numr" horiz-adv-x="696" 
d="M475 553h-207l269 745l-344 -145l59 166l373 156h184z" />
    <glyph glyph-name="two.numr" horiz-adv-x="983" 
d="M602 1348q-144 0 -307 -43l55 147q145 39 305 39q233 0 327 -88t38 -242q-23 -63 -82 -117q-58 -54 -110 -85q-52 -30 -160 -87l-324 -174h563l-53 -145h-836l37 98q23 63 78 90l428 236q71 36 87 46q15 11 42 27t37 23q10 8 42 33t48 72q29 80 -21 125t-194 45z" />
    <glyph glyph-name="three.numr" horiz-adv-x="1028" 
d="M460 537q-220 0 -399 84l54 143q175 -86 335 -86t236 27t100 95t-12 116q-37 48 -156 49h-294l45 120l493 246h-547l54 142h831l-29 -80q-27 -66 -73 -88l-445 -224h31q196 0 270 -92t26 -221t-174 -180t-346 -51z" />
    <glyph glyph-name="four.numr" horiz-adv-x="1046" 
d="M1032 799h-162l-88 -246h-200l90 246h-576l56 155l596 469q57 51 116 52h252l-194 -537h161zM723 938l156 432l-539 -432h383z" />
    <glyph glyph-name="five.numr" horiz-adv-x="1007" 
d="M477 537q-233 0 -403 81l55 142q168 -82 342 -82q268 0 313 125q29 78 -13 126q-43 48 -193 48t-351 -12l181 510h753l-51 -144h-569l-82 -223q127 8 186 8q233 0 309 -99t23 -253q-90 -227 -500 -227z" />
    <glyph glyph-name="six.numr" horiz-adv-x="1032" 
d="M561 672q199 0 252 145q68 195 -195 195q-131 0 -260 -45q-78 -295 203 -295zM541 537q-260 0 -352 152q-91 153 -5 387t242 325q156 90 374 90t382 -64l-49 -141q-135 64 -305 64t-275 -56q-104 -56 -152 -192q127 41 277 41q210 -1 296 -99t27 -260q-47 -135 -157 -191
t-303 -56z" />
    <glyph glyph-name="seven.numr" horiz-adv-x="917" 
d="M342 553h-207l45 127q40 108 102 188t205 193l340 270h-579l53 144h846l-29 -80q-16 -37 -74 -90l-393 -310q-137 -106 -187 -171t-85 -167z" />
    <glyph glyph-name="eight.numr" horiz-adv-x="1093" 
d="M536 676q130 0 196 26t87 93q63 170 -199 170q-132 0 -198 -27q-64 -28 -90 -102t24 -117t180 -43zM677 1065q122 0 181 29t88 102q54 160 -186 160q-121 0 -180 -28t-87 -104t17 -118q45 -41 167 -41zM539 537q-264 0 -363 85q-98 85 -45 228q29 76 101 125
q73 49 178 59q-74 24 -101 92t2 150q47 123 158 169t323 46t306 -82t45 -217q-63 -168 -246 -197q86 -23 116 -93t-3 -150q-44 -119 -158 -167t-313 -48z" />
    <glyph glyph-name="nine.numr" horiz-adv-x="1032" 
d="M437 537q-217 0 -384 63l47 141q132 -63 306 -63t277 56t153 194q-129 -43 -279 -43q-209 0 -295 99t-26 259q47 133 157 191q111 57 301 57q262 0 352 -153t4 -387q-88 -234 -242 -324t-371 -90zM616 1016q127 0 263 43q78 297 -205 297q-199 0 -250 -146
q-68 -194 192 -194z" />
    <glyph glyph-name="zero.dnom" horiz-adv-x="1110" 
d="M558 793q-142 0 -226 -72t-146 -241t-17 -260t189 -91t227 71q83 70 144 240t15 262q-44 92 -186 91zM356 -16q-272 0 -362 148t-7 374t215 328q132 104 355 104q270 2 362 -147q91 -150 8 -375t-215 -329q-133 -103 -356 -103z" />
    <glyph glyph-name="one.dnom" horiz-adv-x="696" 
d="M274 0h-206l268 745l-344 -145l59 166l373 156h184z" />
    <glyph glyph-name="two.dnom" horiz-adv-x="983" 
d="M400 795q-144 0 -306 -43l56 147q145 39 305 39q233 0 326 -88t38 -242q-23 -64 -82 -118t-110 -84t-160 -87l-324 -174h564l-54 -145h-835l37 98q23 63 77 90l428 236q63 31 83 44q21 12 47 28t36 24t42 33t48 72q29 80 -21 125q-51 45 -195 45z" />
    <glyph glyph-name="three.dnom" horiz-adv-x="1028" 
d="M259 -16q-220 0 -398 84l53 143q176 -86 336 -86t235 27q76 26 101 94q26 68 -12 116t-156 50h-295l45 120l494 246h-547l53 142h831l-28 -80q-27 -66 -74 -88l-444 -224h30q195 0 270 -92t27 -221t-175 -180q-126 -51 -346 -51z" />
    <glyph glyph-name="four.dnom" horiz-adv-x="1046" 
d="M831 246h-161l-88 -246h-201l90 246h-575l55 155l596 469q57 51 117 52h251l-194 -537h162zM522 385l156 432l-539 -432h383z" />
    <glyph glyph-name="five.dnom" horiz-adv-x="1007" 
d="M276 -16q-233 0 -403 82l55 141q168 -82 342 -82q268 0 314 125q28 78 -14 126t-192 48t-351 -12l180 510h754l-52 -144h-569l-82 -223q127 8 186 8q234 0 310 -99t22 -253q-90 -227 -500 -227z" />
    <glyph glyph-name="six.dnom" horiz-adv-x="1032" 
d="M360 119q199 0 252 145q68 195 -194 195q-131 0 -260 -45q-79 -295 202 -295zM340 -16q-260 0 -351 152t-5 388q86 234 241 324q156 90 375 90t381 -64l-49 -141q-135 63 -305 63q-171 0 -275 -56t-151 -191q127 41 276 41q209 0 296 -98t28 -261q-47 -135 -158 -191
t-303 -56z" />
    <glyph glyph-name="seven.dnom" horiz-adv-x="917" 
d="M141 0h-207l46 127q39 109 101 189t206 192l340 270h-580l53 144h846l-28 -80q-16 -37 -74 -90l-393 -310q-137 -106 -187 -171t-86 -167z" />
    <glyph glyph-name="eight.dnom" horiz-adv-x="1093" 
d="M335 123q129 0 195 27q66 28 92 102t-22 117q-49 43 -181 43t-197 -27q-66 -27 -92 -101t24 -118q50 -43 181 -43zM476 512q122 0 181 29t88 102q54 160 -186 160q-121 0 -180 -28q-59 -29 -87 -105t17 -117t167 -41zM338 -16q-264 0 -363 85q-98 85 -45 228
q29 76 102 125t177 59q-75 25 -101 93t3 149q47 123 157 169q111 46 323 46t306 -82t45 -217q-63 -168 -246 -197q86 -22 116 -92t-3 -151q-45 -119 -159 -167t-312 -48z" />
    <glyph glyph-name="nine.dnom" horiz-adv-x="1032" 
d="M236 -16q-217 0 -383 63l47 141q133 -63 306 -63t276 56t153 194q-129 -43 -279 -43q-209 0 -295 99t-26 259q47 132 158 190t301 58q262 0 352 -153t3 -387t-241 -324t-372 -90zM416 463q127 0 262 43q78 297 -205 297q-199 0 -250 -146q-67 -194 193 -194z" />
    <glyph glyph-name="numero" horiz-adv-x="3096" 
d="M2720 233h-813l49 146h813zM741 1475q125 0 146 -99l403 -1183l467 1282h246l-537 -1475h-364l-422 1276l-465 -1276h-242l537 1475h231zM2674 1346q-142 0 -225 -72q-84 -72 -146 -241t-16 -260t189 -91t226 71q82 71 144 241t16 260q-46 92 -188 92zM2474 537
q-272 0 -363 148q-90 147 -7 373t215 330t356 103q270 2 361 -148q91 -151 8 -375t-215 -328t-355 -103z" />
    <glyph glyph-name="bar.alt" horiz-adv-x="0" 
d="M-10 -530v2457h20v-2457h-20z" />
    <glyph glyph-name="space.alt" horiz-adv-x="446" 
 />
    </font>
</defs>
</svg>
