<?xml version="1.0" standalone="no"?>
<!DOCTYPE svg PUBLIC "-//W3C//DTD SVG 1.1//EN" "http://www.w3.org/Graphics/SVG/1.1/DTD/svg11.dtd" >
<svg xmlns="http://www.w3.org/2000/svg">
<metadata>
Created by FontPrep 20130207 at Thu May 10 15:01:13 2018
 By Mauricio Duran
Mathieu Reguer for Michelin
</metadata>
<defs>
<font id="1c9c993be0973d75d53fc665f2706f98" horiz-adv-x='1024' >
  <font-face 
    font-family="Michelin-Light"
    font-weight="300"
    font-style="italic"
    font-stretch="semi-condensed"
    units-per-em="2048"
    panose-1="2 0 0 0 0 0 0 0 0 0"
    ascent="1536"
    descent="-512"
    x-height="1475"
    cap-height="1475"
    bbox="-428 -532 3660.36 1927.01"
    underline-thickness="135"
    underline-position="-309"
    slope="-20"
    unicode-range="U+0020-F6C3"
  />
<missing-glyph horiz-adv-x="923" 
d="M418 313q-74 -1 -119 -45t-45 -117t45 -119t119 -46t118 45t44 119t-44 118t-118 45zM457 1061q-418 0 -418 -359l289 -20q0 78 27 109q28 31 85 30q102 0 103 -73v-13q0 -49 -58 -69l-43 -19q-94 -37 -125 -97t-20 -202h244q0 58 14 76t80 49l72 31q158 74 157 264v12
q0 127 -102 204t-305 77zM-51 -348v1843h1026v-1843h-1026z" />
    <glyph glyph-name=".notdef" horiz-adv-x="923" 
d="M418 313q-74 -1 -119 -45t-45 -117t45 -119t119 -46t118 45t44 119t-44 118t-118 45zM457 1061q-418 0 -418 -359l289 -20q0 78 27 109q28 31 85 30q102 0 103 -73v-13q0 -49 -58 -69l-43 -19q-94 -37 -125 -97t-20 -202h244q0 58 14 76t80 49l72 31q158 74 157 264v12
q0 127 -102 204t-305 77zM-51 -348v1843h1026v-1843h-1026z" />
    <glyph glyph-name=".null" horiz-adv-x="0" 
 />
    <glyph glyph-name="nonmarkingreturn" horiz-adv-x="681" 
 />
    <glyph glyph-name="space" unicode=" " horiz-adv-x="614" 
 />
    <glyph glyph-name="exclam" unicode="!" horiz-adv-x="790" 
d="M250 0h-240l78 219h242zM342 414h-139l282 866l70 195h221l-69 -195z" />
    <glyph glyph-name="quotedbl" unicode="&#x22;" horiz-adv-x="1196" 
d="M592 975h-119l125 452l16 48h201l-16 -48zM899 975h-119l125 452l17 48h200l-16 -48z" />
    <glyph glyph-name="numbersign" unicode="#" horiz-adv-x="1699" 
d="M799 -2l145 397h-434l-145 -397h-160l145 397h-327l49 135h327l150 412h-301l49 135h301l145 398h160l-145 -398h434l145 398h160l-145 -398h327l-49 -135h-327l-150 -412h301l-49 -135h-301l-146 -397h-159zM993 530l150 412h-434l-150 -412h434z" />
    <glyph glyph-name="dollar" unicode="$" horiz-adv-x="1699" 
d="M680 -20h-16l-76 -205h-160l76 211q-303 20 -518 123l61 172q250 -121 512 -144l211 578l-92 20q-410 92 -285 443q55 154 209 236t440 81h33l68 184h160l-72 -196q211 -29 432 -115l-55 -162q-209 98 -432 125l-185 -510l53 -12q219 -49 291 -175t4 -311t-230 -265
q-163 -78 -429 -78zM952 674l-32 8l-201 -549q377 8 457 229q51 119 2 196q-50 77 -226 116zM1008 1343q-197 0 -301 -49t-142 -149q-47 -102 -7 -168t200 -103l84 -18l178 487h-12z" />
    <glyph glyph-name="percent" unicode="%" horiz-adv-x="2701" 
d="M1944 109q160 -1 252 75t158 254q64 178 11 276t-211 99q-158 0 -253 -77q-93 -77 -159 -254t-12 -275t214 -98zM1946 -14q-268 0 -356 147q-87 147 -5 369t214 328q132 105 351 106q136 0 228 -41t130 -112t42 -165t-37 -196q-84 -228 -216 -332t-351 -104zM553 662
q160 0 253 76q94 76 158 253q64 179 11 277t-211 98t-254 -77q-94 -77 -160 -254t-11 -275q54 -98 214 -98zM1817 1475h188l-1116 -1473h-189zM555 539q-268 0 -355 147q-87 148 -5 370t214 327t351 106q135 0 227 -41t130 -112t42 -165t-37 -196q-84 -227 -216 -331
t-351 -105z" />
    <glyph glyph-name="ampersand" unicode="&#x26;" horiz-adv-x="1835" 
d="M530 -20q-301 0 -431 140t-44 369q82 223 430 314q-87 107 -109 205t21 229q96 256 482 256q245 0 353 -124t50 -292q-43 -127 -171 -206t-349 -134l360 -329l314 329h182l-393 -424l344 -313h-226l-223 205q-121 -117 -258 -171t-332 -54zM528 123q174 0 276 38t212 140
l-377 344q-11 9 -29 27t-28 26q-178 -45 -258 -97t-115 -161q-55 -162 45 -240t274 -77zM879 1350q-141 0 -213 -34t-103 -118q-66 -178 94 -358q223 49 321 108q97 59 135 162q38 104 -28 172t-206 68z" />
    <glyph glyph-name="quotesingle" unicode="'" horiz-adv-x="786" 
d="M541 975h-119l125 452l16 48h201l-16 -48z" />
    <glyph glyph-name="parenleft" unicode="(" horiz-adv-x="901" 
d="M395 -307h-151q-150 211 -171 523q-22 312 85 609q90 265 296 525t507 432h200q-606 -352 -844 -1000q-127 -358 -59 -736q37 -199 137 -353z" />
    <glyph glyph-name="parenright" unicode=")" horiz-adv-x="901" 
d="M510 1782h152q150 -212 172 -524t-86 -609q-122 -360 -431 -669q-168 -170 -372 -287h-201q606 352 844 999q128 361 59 736q-37 200 -137 354z" />
    <glyph glyph-name="asterisk" unicode="*" horiz-adv-x="1024" 
d="M829 633l-188 309l-190 -309l-138 98l238 277l-354 84l51 159l336 -139l-29 363h168l-29 -363l336 139l51 -159l-352 -84l236 -277z" />
    <glyph glyph-name="plus" unicode="+" horiz-adv-x="1697" 
d="M1415 664h-516l-188 -517h-150l189 517h-517l54 149h516l188 516h150l-189 -516h516z" />
    <glyph glyph-name="comma" unicode="," horiz-adv-x="792" 
d="M6 -281h-149l325 500h234z" />
    <glyph glyph-name="hyphen" unicode="-" horiz-adv-x="788" 
d="M100 659l58 156h534l-57 -156h-535z" />
    <glyph glyph-name="period" unicode="." horiz-adv-x="790" 
d="M250 0h-240l78 219h242z" />
    <glyph glyph-name="slash" unicode="/" horiz-adv-x="1007" 
d="M1202 1782h189l-1581 -2089h-189z" />
    <glyph glyph-name="zero" unicode="0" horiz-adv-x="1697" 
d="M1010 1339q-266 0 -434 -131t-283 -448q-109 -287 -7 -456t406 -169q266 0 434 131t283 449q109 287 7 455t-406 169zM682 -20q-496 0 -599 339q-63 200 38 469q131 360 345 534t554 173q170 0 297 -43q236 -80 302 -297q61 -196 -38 -469q-131 -360 -344 -533t-555 -173
z" />
    <glyph glyph-name="one" unicode="1" horiz-adv-x="980" 
d="M459 0h-180l466 1282l-602 -250l64 180l631 263h157z" />
    <glyph glyph-name="two" unicode="2" horiz-adv-x="1495" 
d="M805 1337q-219 0 -467 -69l61 170q186 57 455 57q340 0 484 -141t59 -381q-54 -159 -277 -302q-127 -81 -272 -157l-668 -358h1010l-57 -156h-1274l43 121q20 55 82 90l737 405q31 18 107 58q204 109 274 168q71 58 93 94q21 37 34 70q57 162 -39 246t-385 85z" />
    <glyph glyph-name="three" unicode="3" horiz-adv-x="1566" 
d="M550 -20q-328 0 -616 143l62 166q307 -154 577 -154q506 0 588 232q56 118 -13 233q-30 49 -113 80t-208 31h-460l47 135l895 471h-938l57 156h1274l-29 -80q-20 -57 -69 -84l-854 -447h86q317 0 445 -152t51 -361q-77 -208 -265 -289q-189 -80 -517 -80z" />
    <glyph glyph-name="four" unicode="4" horiz-adv-x="1587" 
d="M1307 1475h213l-322 -883h285l-58 -156h-282l-160 -436h-180l160 436h-973l55 156l1120 838q59 45 142 45zM1018 592l274 756l-1013 -756h739z" />
    <glyph glyph-name="five" unicode="5" horiz-adv-x="1525" 
d="M588 -20q-350 0 -615 137l62 159q287 -141 557 -141q487 0 575 252q55 154 -25 249q-81 95 -364 95t-563 -20l270 764h1141l-57 -156h-961l-162 -445q190 12 354 12q305 1 443 -110q187 -151 86 -438q-129 -358 -741 -358z" />
    <glyph glyph-name="six" unicode="6" horiz-adv-x="1533" 
d="M680 133q207 -1 325 63t166 203q63 182 -26 279q-89 96 -345 96t-536 -92q-63 -262 36 -406t380 -143zM653 -20q-383 0 -520 242t6 636q123 346 369 492t618 145q266 0 514 -102l-53 -158q-227 104 -501 104t-477 -110q-202 -110 -294 -383q238 84 519 84q332 0 464 -159
t39 -409q-75 -206 -245 -294t-439 -88z" />
    <glyph glyph-name="seven" unicode="7" horiz-adv-x="1345" 
d="M322 0h-181l60 174q59 178 178 326t389 387l485 432h-1009l57 156h1274l-29 -80q-12 -35 -69 -84l-588 -516q-269 -238 -365 -360t-157 -302z" />
    <glyph glyph-name="eight" unicode="8" horiz-adv-x="1677" 
d="M644 137q267 0 399 49t176 172q53 150 -49 229t-374 79q-270 0 -401 -48t-172 -167q-55 -154 49 -234t372 -80zM894 811q247 0 367 50q121 49 169 191t-45 215t-341 73t-368 -50q-120 -49 -166 -180q-51 -152 43 -226t341 -73zM649 -18q-385 0 -535 133t-61 366
q43 115 159 194t269 95q-109 43 -147 153q-39 110 8 226q74 197 248 271t448 75q362 0 504 -131t60 -348q-48 -119 -148 -200t-237 -105q129 -41 174 -152t-5 -231q-74 -198 -259 -272t-478 -74z" />
    <glyph glyph-name="nine" unicode="9" horiz-adv-x="1531" 
d="M412 -20q-266 0 -514 102l51 156q223 -102 501 -102t479 109q202 110 294 384q-238 -84 -518 -84q-332 1 -464 159t-40 408q74 205 244 294q171 89 440 89q383 0 520 -242t-6 -637q-123 -346 -369 -491t-618 -145zM739 700q255 0 535 93q63 262 -36 405t-380 143
q-206 0 -324 -63t-167 -203q-130 -375 372 -375z" />
    <glyph glyph-name="colon" unicode=":" horiz-adv-x="892" 
d="M299 0h-240l78 219h242zM545 672h-240l78 219h242z" />
    <glyph glyph-name="semicolon" unicode=";" horiz-adv-x="892" 
d="M57 -281h-149l325 500h234zM547 672h-240l78 219h242z" />
    <glyph glyph-name="less" unicode="&#x3c;" horiz-adv-x="1697" 
d="M1253 225l-1036 398l86 239l1327 398l-59 -170l-1194 -359l932 -356z" />
    <glyph glyph-name="equal" unicode="=" horiz-adv-x="1697" 
d="M143 418l56 149h1181l-55 -149h-1182zM322 909l55 150h1182l-56 -150h-1181z" />
    <glyph glyph-name="greater" unicode="&#x3e;" horiz-adv-x="1699" 
d="M74 225l59 170l1194 359l-932 356l56 150l1036 -398l-86 -239z" />
    <glyph glyph-name="question" unicode="?" horiz-adv-x="1228" 
d="M293 0h-240l80 219h240zM698 1354q-154 0 -403 -70l61 170q206 57 388 57q182 1 294 -31t172 -84q173 -152 73 -427q-65 -178 -219 -262t-413 -105l-205 -16l-61 -172h-160l117 321l225 17q125 10 202 22q191 30 272 116q45 48 69 112t30 106q5 43 -10 91q-14 48 -57 80
q-43 31 -132 53t-243 22z" />
    <glyph glyph-name="at" unicode="@" horiz-adv-x="2113" 
d="M895 465q170 0 317 178l129 352h-202q-141 0 -231 -57q-90 -56 -138 -200t-18 -208t143 -65zM883 -41q-479 0 -677 248t-52 637q133 362 398 517t687 155q213 0 374 -46q295 -85 390 -306q87 -199 -4 -445q-72 -195 -208 -303t-308 -109q-219 0 -260 172
q-88 -84 -173 -125t-196 -41q-186 1 -256 139t2 314q143 385 602 385h375l-180 -498q-72 -197 119 -196q108 0 198 77t141 232q27 96 32 186q10 174 -155 308q-75 59 -207 93t-304 33q-351 0 -573 -131t-340 -447t35 -518q153 -200 560 -200q287 0 586 98l-55 -151
q-254 -78 -551 -78z" />
    <glyph glyph-name="A" unicode="A" horiz-adv-x="1579" 
d="M1016 1475h174l123 -1475h-174l-31 393h-815l-297 -393h-201l1084 1405q53 70 137 70zM1098 549l-64 823l-622 -823h686z" />
    <glyph glyph-name="B" unicode="B" horiz-adv-x="1779" 
d="M1223 1475q283 0 391 -124t31 -329q-84 -225 -357 -287q148 -43 200 -160t-3 -258q-121 -317 -594 -317h-901l536 1475h697zM963 662h-551l-185 -506h613q227 0 331 43t146 157q53 152 -36 229t-318 77zM1171 1319h-522l-182 -502h459q240 0 370 49q130 48 178 190
q50 142 -21 202t-282 61z" />
    <glyph glyph-name="C" unicode="C" horiz-adv-x="1603" 
d="M1106 1339q-590 0 -774 -561q-104 -313 18 -478t449 -165q274 0 467 60l-58 -158q-162 -57 -454 -57q-393 0 -560 231t-28 608q250 676 960 676q262 0 508 -96l-57 -158q-215 98 -471 98z" />
    <glyph glyph-name="D" unicode="D" horiz-adv-x="1783" 
d="M1114 1475q304 0 447 -156t127 -393q-8 -117 -54 -240q-131 -356 -351 -521t-611 -165h-682l536 1475h588zM1104 1319h-455l-422 -1163h455q319 0 495 124q175 124 285 435q100 274 6 439t-364 165z" />
    <glyph glyph-name="E" unicode="E" 
d="M-10 0l536 1475h1176l-57 -156h-996l-182 -504h893l-57 -156h-893l-183 -503h996l-58 -156h-1175z" />
    <glyph glyph-name="F" unicode="F" horiz-adv-x="1482" 
d="M1282 578h-901l-211 -578h-180l536 1475h1176l-57 -156h-996l-213 -586h901z" />
    <glyph glyph-name="G" unicode="G" horiz-adv-x="1691" 
d="M801 -20q-424 0 -600 228t-35 611q248 676 1001 676q262 0 508 -96l-57 -158q-215 98 -471 98q-631 0 -815 -561q-106 -317 26 -480t488 -163q143 0 274 21l168 471h180l-213 -590q-162 -57 -454 -57z" />
    <glyph glyph-name="H" unicode="H" horiz-adv-x="1853" 
d="M1151 0l240 659h-981l-240 -659h-180l536 1475h181l-240 -660h981l240 660h180l-537 -1475h-180z" />
    <glyph glyph-name="I" unicode="I" horiz-adv-x="692" 
d="M170 0h-180l536 1475h181z" />
    <glyph glyph-name="J" unicode="J" horiz-adv-x="1175" 
d="M204 -20q-249 0 -417 83l55 152q162 -80 379 -80q317 1 432 316l373 1024h178l-370 -1035q-88 -248 -234 -354t-396 -106z" />
    <glyph glyph-name="K" unicode="K" horiz-adv-x="1675" 
d="M1147 0l-508 659h-229l-240 -659h-180l536 1475h181l-240 -660h215l946 660h232l-1061 -754l549 -721h-201z" />
    <glyph glyph-name="L" unicode="L" horiz-adv-x="1482" 
d="M-10 0l536 1475h181l-480 -1319h996l-58 -156h-1175z" />
    <glyph glyph-name="M" unicode="M" horiz-adv-x="2334" 
d="M676 1475q76 0 108 -26t39 -99l123 -1207l1088 1332h315l-537 -1475h-180l484 1327l-1096 -1327h-223l-144 1333l-487 -1333h-176l536 1475h150z" />
    <glyph glyph-name="N" unicode="N" horiz-adv-x="1953" 
d="M659 1475q55 -1 86 -13t48 -55l481 -1264l483 1332h180l-536 -1475h-248l-504 1319l-483 -1319h-176l536 1475h133z" />
    <glyph glyph-name="O" unicode="O" horiz-adv-x="1845" 
d="M762 135q285 0 465 131t297 449q68 197 50 335q-17 138 -141 214t-350 75q-285 0 -463 -131t-294 -448q-114 -293 -6 -459t442 -166zM756 -20q-227 0 -380 66q-154 66 -218 178q-130 228 -1 576q128 348 353 522t584 173q530 0 639 -339q64 -200 -37 -470
q-134 -360 -358 -533t-582 -173z" />
    <glyph glyph-name="P" unicode="P" horiz-adv-x="1599" 
d="M776 451h-442l-164 -451h-180l536 1475h486q397 0 524 -163t30 -421q-96 -258 -268 -349t-522 -91zM981 1319h-332l-258 -713h416q276 0 396 62t186 239q81 223 -9 317t-399 95z" />
    <glyph glyph-name="Q" unicode="Q" horiz-adv-x="1845" 
d="M889 -512q-238 0 -341 126t1 382q-164 30 -270 104q-107 74 -149 180q-86 215 24 508q131 360 356 534t584 173q530 0 639 -339q64 -200 -37 -470q-134 -360 -358 -533t-582 -173h-35q-85 -191 -21 -263q64 -73 246 -73q104 0 201 18l-49 -154q-90 -20 -209 -20zM762 135
q285 0 465 131t297 449q68 197 50 335q-17 138 -141 214t-350 75q-285 0 -463 -131t-294 -448q-114 -293 -6 -459t442 -166z" />
    <glyph glyph-name="R" unicode="R" horiz-adv-x="1685" 
d="M1053 1475q367 -1 491 -149t29 -406q-125 -338 -518 -367l211 -553h-185l-192 532h-524l-195 -532h-180l536 1475h527zM1014 1319h-365l-229 -631h399q279 0 404 53t178 207q74 207 -8 289t-379 82z" />
    <glyph glyph-name="S" unicode="S" 
d="M602 -20q-422 0 -694 129l61 172q305 -147 635 -148q410 0 494 229q51 119 2 194t-226 114l-274 61q-410 92 -285 447q55 154 209 236t440 81q286 0 621 -127l-55 -162q-291 137 -600 137q-197 0 -301 -49t-142 -149q-47 -101 -7 -165t200 -101l287 -66q217 -49 289 -177
t6 -313q-68 -185 -231 -264t-429 -79z" />
    <glyph glyph-name="T" unicode="T" horiz-adv-x="1509" 
d="M1671 1319h-612l-479 -1319h-181l480 1319h-615l58 156h1407z" />
    <glyph glyph-name="U" unicode="U" horiz-adv-x="1775" 
d="M690 -20q-366 0 -492 170t-30 440l317 885h181l-320 -881q-88 -240 1 -350t368 -109q113 1 193 17t160 63q152 88 261 379l320 881h178l-320 -891q-125 -348 -310 -476t-507 -128z" />
    <glyph glyph-name="V" unicode="V" horiz-adv-x="1564" 
d="M573 0h-180l-123 1475h174l103 -1336l1009 1336h218l-1084 -1405q-53 -70 -117 -70z" />
    <glyph glyph-name="W" unicode="W" horiz-adv-x="2576" 
d="M1675 0h-188l-12 1317l-865 -1247q-49 -70 -127 -70h-172l-20 1475h174l10 -1332l909 1332h263l4 -1325l903 1325h211l-973 -1405q-49 -70 -117 -70z" />
    <glyph glyph-name="X" unicode="X" horiz-adv-x="1675" 
d="M1135 0l-326 635l-782 -635h-238l940 762l-371 713h191l325 -635l787 635h229l-940 -762l371 -713h-186z" />
    <glyph glyph-name="Y" unicode="Y" horiz-adv-x="1597" 
d="M612 0h-180l244 666l-406 809h183l338 -684l849 684h228l-1016 -822z" />
    <glyph glyph-name="Z" unicode="Z" horiz-adv-x="1601" 
d="M1233 0h-1335l28 80q14 41 70 84l1436 1155h-1031l58 156h1294l-45 -125l-1487 -1194h1067z" />
    <glyph glyph-name="bracketleft" unicode="[" horiz-adv-x="819" 
d="M-172 -305l762 2085h584l-50 -135h-424l-663 -1815h424l-49 -135h-584z" />
    <glyph glyph-name="backslash" unicode="\" horiz-adv-x="911" 
d="M532 1782v-2089h-149v2089h149z" />
    <glyph glyph-name="bracketright" unicode="]" horiz-adv-x="819" 
d="M-350 -305l49 135h424l663 1815h-424l50 135h583l-762 -2085h-583z" />
    <glyph glyph-name="asciicircum" unicode="^" horiz-adv-x="1701" 
d="M1108 150l-64 1081l-847 -1081h-177l930 1175h240l70 -1175h-152z" />
    <glyph glyph-name="underscore" unicode="_" horiz-adv-x="1431" 
d="M-428 -512l49 135h1383l-50 -135h-1382z" />
    <glyph glyph-name="grave" unicode="`" horiz-adv-x="1701" 
d="M1286 1577l-297 330h199l260 -330h-162z" />
    <glyph glyph-name="a" unicode="a" horiz-adv-x="1579" 
d="M1016 1475h174l123 -1475h-174l-31 393h-815l-297 -393h-201l1084 1405q53 70 137 70zM1098 549l-64 823l-622 -823h686z" />
    <glyph glyph-name="b" unicode="b" horiz-adv-x="1779" 
d="M1223 1475q283 0 391 -124t31 -329q-84 -225 -357 -287q148 -43 200 -160t-3 -258q-121 -317 -594 -317h-901l536 1475h697zM963 662h-551l-185 -506h613q227 0 331 43t146 157q53 152 -36 229t-318 77zM1171 1319h-522l-182 -502h459q240 0 370 49q130 48 178 190
q50 142 -21 202t-282 61z" />
    <glyph glyph-name="c" unicode="c" horiz-adv-x="1603" 
d="M1106 1339q-590 0 -774 -561q-104 -313 18 -478t449 -165q274 0 467 60l-58 -158q-162 -57 -454 -57q-393 0 -560 231t-28 608q250 676 960 676q262 0 508 -96l-57 -158q-215 98 -471 98z" />
    <glyph glyph-name="d" unicode="d" horiz-adv-x="1783" 
d="M1114 1475q304 0 447 -156t127 -393q-8 -117 -54 -240q-131 -356 -351 -521t-611 -165h-682l536 1475h588zM1104 1319h-455l-422 -1163h455q319 0 495 124q175 124 285 435q100 274 6 439t-364 165z" />
    <glyph glyph-name="e" unicode="e" 
d="M-10 0l536 1475h1176l-57 -156h-996l-182 -504h893l-57 -156h-893l-183 -503h996l-58 -156h-1175z" />
    <glyph glyph-name="f" unicode="f" horiz-adv-x="1482" 
d="M1282 578h-901l-211 -578h-180l536 1475h1176l-57 -156h-996l-213 -586h901z" />
    <glyph glyph-name="g" unicode="g" horiz-adv-x="1691" 
d="M801 -20q-424 0 -600 228t-35 611q248 676 1001 676q262 0 508 -96l-57 -158q-215 98 -471 98q-631 0 -815 -561q-106 -317 26 -480t488 -163q143 0 274 21l168 471h180l-213 -590q-162 -57 -454 -57z" />
    <glyph glyph-name="h" unicode="h" horiz-adv-x="1853" 
d="M1151 0l240 659h-981l-240 -659h-180l536 1475h181l-240 -660h981l240 660h180l-537 -1475h-180z" />
    <glyph glyph-name="i" unicode="i" horiz-adv-x="692" 
d="M170 0h-180l536 1475h181z" />
    <glyph glyph-name="j" unicode="j" horiz-adv-x="1175" 
d="M204 -20q-249 0 -417 83l55 152q162 -80 379 -80q317 1 432 316l373 1024h178l-370 -1035q-88 -248 -234 -354t-396 -106z" />
    <glyph glyph-name="k" unicode="k" horiz-adv-x="1675" 
d="M1147 0l-508 659h-229l-240 -659h-180l536 1475h181l-240 -660h215l946 660h232l-1061 -754l549 -721h-201z" />
    <glyph glyph-name="l" unicode="l" horiz-adv-x="1462" 
d="M-10 0l536 1475h181l-480 -1319h996l-58 -156h-1175z" />
    <glyph glyph-name="m" unicode="m" horiz-adv-x="2334" 
d="M676 1475q76 0 108 -26t39 -99l123 -1207l1088 1332h315l-537 -1475h-180l484 1327l-1096 -1327h-223l-144 1333l-487 -1333h-176l536 1475h150z" />
    <glyph glyph-name="n" unicode="n" horiz-adv-x="1953" 
d="M659 1475q55 -1 86 -13t48 -55l481 -1264l483 1332h180l-536 -1475h-248l-504 1319l-483 -1319h-176l536 1475h133z" />
    <glyph glyph-name="o" unicode="o" horiz-adv-x="1845" 
d="M762 135q285 0 465 131t297 449q68 197 50 335q-17 138 -141 214t-350 75q-285 0 -463 -131t-294 -448q-114 -293 -6 -459t442 -166zM756 -20q-227 0 -380 66q-154 66 -218 178q-130 228 -1 576q128 348 353 522t584 173q530 0 639 -339q64 -200 -37 -470
q-134 -360 -358 -533t-582 -173z" />
    <glyph glyph-name="p" unicode="p" horiz-adv-x="1599" 
d="M776 451h-442l-164 -451h-180l536 1475h486q397 0 524 -163t30 -421q-96 -258 -268 -349t-522 -91zM981 1319h-332l-258 -713h416q276 0 396 62t186 239q81 223 -9 317t-399 95z" />
    <glyph glyph-name="q" unicode="q" horiz-adv-x="1845" 
d="M889 -512q-238 0 -341 126t1 382q-164 30 -270 104q-107 74 -149 180q-86 215 24 508q131 360 356 534t584 173q530 0 639 -339q64 -200 -37 -470q-134 -360 -358 -533t-582 -173h-35q-85 -191 -21 -263q64 -73 246 -73q104 0 201 18l-49 -154q-90 -20 -209 -20zM762 135
q285 0 465 131t297 449q68 197 50 335q-17 138 -141 214t-350 75q-285 0 -463 -131t-294 -448q-114 -293 -6 -459t442 -166z" />
    <glyph glyph-name="r" unicode="r" horiz-adv-x="1685" 
d="M1053 1475q367 -1 491 -149t29 -406q-125 -338 -518 -367l211 -553h-185l-192 532h-524l-195 -532h-180l536 1475h527zM1014 1319h-365l-229 -631h399q279 0 404 53t178 207q74 207 -8 289t-379 82z" />
    <glyph glyph-name="s" unicode="s" 
d="M602 -20q-422 0 -694 129l61 172q305 -147 635 -148q410 0 494 229q51 119 2 194t-226 114l-274 61q-410 92 -285 447q55 154 209 236t440 81q286 0 621 -127l-55 -162q-291 137 -600 137q-197 0 -301 -49t-142 -149q-47 -101 -7 -165t200 -101l287 -66q217 -49 289 -177
t6 -313q-68 -185 -231 -264t-429 -79z" />
    <glyph glyph-name="t" unicode="t" horiz-adv-x="1468" 
d="M1671 1319h-612l-479 -1319h-181l480 1319h-615l58 156h1407z" />
    <glyph glyph-name="u" unicode="u" horiz-adv-x="1775" 
d="M690 -20q-366 0 -492 170t-30 440l317 885h181l-320 -881q-88 -240 1 -350t368 -109q113 1 193 17t160 63q152 88 261 379l320 881h178l-320 -891q-125 -348 -310 -476t-507 -128z" />
    <glyph glyph-name="v" unicode="v" horiz-adv-x="1564" 
d="M573 0h-180l-123 1475h174l103 -1336l1009 1336h218l-1084 -1405q-53 -70 -117 -70z" />
    <glyph glyph-name="w" unicode="w" horiz-adv-x="2576" 
d="M1675 0h-188l-12 1317l-865 -1247q-49 -70 -127 -70h-172l-20 1475h174l10 -1332l909 1332h263l4 -1325l903 1325h211l-973 -1405q-49 -70 -117 -70z" />
    <glyph glyph-name="x" unicode="x" horiz-adv-x="1675" 
d="M1135 0l-326 635l-782 -635h-238l940 762l-371 713h191l325 -635l787 635h229l-940 -762l371 -713h-186z" />
    <glyph glyph-name="y" unicode="y" horiz-adv-x="1597" 
d="M612 0h-180l244 666l-406 809h183l338 -684l849 684h228l-1016 -822z" />
    <glyph glyph-name="z" unicode="z" horiz-adv-x="1601" 
d="M1233 0h-1335l28 80q14 41 70 84l1436 1155h-1031l58 156h1294l-45 -125l-1487 -1194h1067z" />
    <glyph glyph-name="braceleft" unicode="{" horiz-adv-x="884" 
d="M982 1780q138 0 228 -39l-34 -119q-88 25 -180 25t-144 -31t-88 -133l-127 -350q-70 -193 -130 -261t-181 -86q168 -53 84 -276l-193 -522q-37 -82 -8 -127t145 -45t168 6l-45 -111q-66 -16 -186 -16q-160 0 -217 83t2 255l194 524q31 94 5 129t-111 35h-66l58 156h30
q199 0 275 206l160 437q53 140 139 200q84 60 222 60z" />
    <glyph glyph-name="bar" unicode="|" horiz-adv-x="942" 
d="M774 1782h160l-762 -2089h-160z" />
    <glyph glyph-name="braceright" unicode="}" horiz-adv-x="880" 
d="M-98 -305q-138 0 -228 39l35 119q90 -25 181 -25t143 31q51 31 88 133l127 350q70 192 130 260t181 86q-168 53 -84 277l193 522q37 82 8 127t-146 45t-168 -6l46 110q66 17 206 17t197 -83t-2 -255l-195 -524q-31 -94 -5 -130t112 -34h65l-57 -156h-31q-199 0 -274 -207
l-160 -436q-53 -147 -138 -203q-86 -56 -224 -57z" />
    <glyph glyph-name="asciitilde" unicode="~" horiz-adv-x="1699" 
d="M1066 545q-93 0 -176 41t-153 81t-134 40q-63 0 -117 -27t-138 -107l-67 107q172 176 317 176q104 0 187 -41t153 -81t134 -40t118 27t139 106l68 -106q-90 -90 -164 -133t-167 -43z" />
    <glyph glyph-name="exclamdown" unicode="&#xa1;" horiz-adv-x="790" 
d="M444 1061h140l-283 -866l-70 -195h-221l70 195zM537 1475h239l-78 -220h-241z" />
    <glyph glyph-name="cent" unicode="&#xa2;" horiz-adv-x="1701" 
d="M817 61q-57 0 -84 2l-106 -288h-160l113 311q-260 60 -352 252t12 481q205 563 823 592l98 268h160l-98 -268q221 -16 415 -94l-57 -158q-193 88 -414 96l-379 -1036q25 -2 74 -2q274 0 467 59l-57 -157q-162 -58 -455 -58zM406 778q-152 -446 231 -538l369 1013
q-461 -45 -600 -475z" />
    <glyph glyph-name="sterling" unicode="&#xa3;" horiz-adv-x="1699" 
d="M1331 1350q-420 0 -534 -316l-19 -53h662l-56 -156h-663l-64 -176h662l-55 -155h-664l-41 -113q-57 -160 -209 -225h955l-58 -156h-1327l55 147l88 19q256 51 328 252l27 76h-283l55 155h285l64 176h-283l55 156h283l22 63q88 244 268 353t448 109q266 0 433 -85
l-55 -151q-162 80 -379 80z" />
    <glyph glyph-name="currency" unicode="&#xa4;" horiz-adv-x="1699" 
d="M778 391q164 0 266 76t170 260q133 369 -247 369q-165 0 -267 -76t-170 -260q-133 -369 248 -369zM738 268q-176 0 -285 78l-265 -194l-77 120l249 183q-59 131 10 318t169 288l-117 182l129 86l113 -176q132 66 326 66t304 -78l254 186l78 -121l-240 -176
q59 -133 -12 -323q-86 -223 -219 -326l86 -137l-125 -92l-98 155q-104 -39 -280 -39z" />
    <glyph glyph-name="yen" unicode="&#xa5;" horiz-adv-x="1697" 
d="M1296 494h-446l-180 -494h-181l181 494h-441l56 155h442l64 176h-441l56 156h352l-391 494h208l359 -463l682 463h256l-748 -494h349l-56 -156h-446l-64 -176h445z" />
    <glyph glyph-name="brokenbar" unicode="&#xa6;" horiz-adv-x="1024" 
d="M311 516h160l-299 -823h-160zM934 1782l-299 -821h-160l299 821h160z" />
    <glyph glyph-name="section" unicode="&#xa7;" horiz-adv-x="1372" 
d="M449 -16q-223 0 -418 73l57 156q160 -78 395 -78q152 0 227 29t97 92q43 115 -98 150l-310 75q-139 35 -190 115t-15 173t88 140t158 90q-111 92 -47 265q84 229 529 229q225 0 417 -74l-57 -155q-160 78 -395 77q-152 -1 -227 -29t-97 -91q-43 -115 99 -150l309 -76
q139 -35 190 -115t15 -172q-36 -94 -87 -141q-52 -47 -159 -90q111 -92 47 -264q-84 -229 -528 -229zM772 547q6 -2 20 -5t19 -5q100 45 143 81t62 89q37 111 -96 143l-322 80q-6 2 -19 5t-20 5q-100 -45 -143 -81t-62 -89q-37 -111 97 -143z" />
    <glyph glyph-name="dieresis" unicode="&#xa8;" horiz-adv-x="1699" 
d="M1094 1659h-181l60 166h180zM1462 1659h-180l59 166h181z" />
    <glyph glyph-name="copyright" unicode="&#xa9;" horiz-adv-x="2113" 
d="M1210 1087q-354 0 -462 -327q-59 -184 13 -279q73 -94 254 -94t304 37l-45 -127q-106 -35 -289 -35q-263 0 -369 146t-18 385q152 420 621 419q172 0 329 -59l-47 -125q-137 59 -291 59zM903 88q371 0 580 127t329 434q154 406 -75 600q-164 139 -529 138
q-364 -1 -573 -127t-328 -435q-69 -158 -63 -293t70 -233q64 -99 216 -155q150 -56 373 -56zM883 -41q-494 0 -685 247t-44 638q135 368 388 520t697 152q246 0 423 -67t263 -185t101 -279q15 -162 -60 -352q-137 -369 -389 -521t-694 -153z" />
    <glyph glyph-name="ordfeminine" unicode="&#xaa;" horiz-adv-x="1079" 
d="M803 246h-795l41 125h795zM819 553l-12 227h-492l-168 -227h-174l656 864q45 57 112 58h172l62 -922h-156zM799 905l-29 490l-362 -490h391z" />
    <glyph glyph-name="guillemotleft" unicode="&#xab;" horiz-adv-x="1277" 
d="M1182 1262h190l-594 -529l219 -520h-166l-241 535zM690 1262h191l-594 -529l219 -520h-166l-242 535z" />
    <glyph glyph-name="logicalnot" unicode="&#xac;" horiz-adv-x="1697" 
d="M1227 147h-150l187 517h-1031l54 149h1181z" />
    <glyph glyph-name="registered" unicode="&#xae;" horiz-adv-x="2113" 
d="M1212 1229q238 0 319 -94t19 -258q-76 -205 -319 -230l133 -340h-168l-115 320h-284l-117 -320h-164l336 922h360zM1174 1108h-203l-131 -360h219q161 0 231 30t103 119q41 117 -5 164t-214 47zM903 88q371 0 580 127t329 434q154 406 -75 600q-164 139 -529 138
q-364 -1 -573 -127t-328 -435q-69 -158 -63 -293t70 -233q64 -99 216 -155q150 -56 373 -56zM883 -41q-494 0 -685 247t-44 638q135 368 388 520t697 152q246 0 423 -67t263 -185t101 -279q15 -162 -60 -352q-137 -369 -389 -521t-694 -153z" />
    <glyph glyph-name="macron" unicode="&#xaf;" horiz-adv-x="1699" 
d="M1602 1700h-795l41 125h794z" />
    <glyph glyph-name="degree" unicode="&#xb0;" horiz-adv-x="1218" 
d="M614 653q164 0 267 76q102 76 170 260q133 369 -248 369q-164 0 -266 -76t-170 -260q-134 -369 247 -369zM602 530q-289 0 -382 146t-11 369t227 329t379 107q289 1 383 -145t10 -370t-228 -330t-378 -106z" />
    <glyph glyph-name="plusminus" unicode="&#xb1;" horiz-adv-x="1697" 
d="M45 147l55 150h1182l-55 -150h-1182zM1466 807h-516l-135 -373h-149l135 373h-516l55 149h516l135 373h150l-135 -373h516z" />
    <glyph glyph-name="twosuperior" unicode="&#xb2;" horiz-adv-x="983" 
d="M724 1642q-150 0 -310 -43l47 130q135 37 297 36q223 0 315 -88t37 -239q-31 -92 -133 -161q-102 -70 -215 -128l-367 -197h594l-45 -123h-817l33 89q18 51 65 73l443 244q20 10 59 33t77 42t87 63q48 44 61 83q33 90 -22 138q-56 48 -206 48z" />
    <glyph glyph-name="threesuperior" unicode="&#xb3;" horiz-adv-x="1028" 
d="M564 815q-214 0 -392 86l47 125q184 -90 354 -90q295 0 342 129q29 80 -12 135t-174 55h-291l37 105l524 268h-565l45 121h815l-22 -66q-20 -53 -62 -71l-487 -250h45q196 0 272 -93t29 -223t-169 -180q-122 -51 -336 -51z" />
    <glyph glyph-name="acute" unicode="&#xb4;" horiz-adv-x="1697" 
d="M1073 1577h-192l428 330h243z" />
    <glyph glyph-name="paragraph" unicode="&#xb6;" horiz-adv-x="1411" 
d="M627 760q-518 0 -373 414q111 301 504 301h340l-537 -1475h-160l277 760h-51zM889 0h-160l537 1475h159z" />
    <glyph glyph-name="periodcentered" unicode="&#xb7;" horiz-adv-x="790" 
d="M479 631h-239l77 219h242z" />
    <glyph glyph-name="cedilla" unicode="&#xb8;" horiz-adv-x="1699" 
d="M568 -330q100 0 128 76q20 58 -2 118t-102 154h156q71 -99 92 -150q20 -52 17 -89t-19 -80q-55 -152 -267 -152q-157 1 -247 52l34 112q110 -41 210 -41z" />
    <glyph glyph-name="onesuperior" unicode="&#xb9;" horiz-adv-x="679" 
d="M547 829h-164l279 770l-359 -149l49 141l383 160h146z" />
    <glyph glyph-name="ordmasculine" unicode="&#xba;" horiz-adv-x="1218" 
d="M844 246h-795l41 125h795zM614 653q164 0 267 76q102 76 170 260q133 369 -248 369q-164 0 -266 -76t-170 -260q-134 -369 247 -369zM602 530q-289 0 -382 146t-11 369t227 329t379 107q289 1 383 -145t10 -370t-228 -330t-378 -106z" />
    <glyph glyph-name="guillemotright" unicode="&#xbb;" horiz-adv-x="1277" 
d="M100 213h-190l594 528l-219 521h166l241 -535zM592 213h-191l594 528l-219 521h166l242 -535z" />
    <glyph glyph-name="onequarter" unicode="&#xbc;" horiz-adv-x="2203" 
d="M1860 922h198l-198 -543h170l-45 -121h-168l-95 -258h-159l94 258h-590l45 129l645 494q47 41 103 41zM1700 379l164 446l-576 -446h412zM446 553h-163l278 770l-358 -149l49 141l383 160h145zM1468 1475h189l-1116 -1473h-189z" />
    <glyph glyph-name="onehalf" unicode="&#xbd;" horiz-adv-x="2144" 
d="M1584 813q-150 0 -310 -43l47 129q135 37 297 37q223 0 315 -88t37 -240q-31 -92 -129 -159t-219 -130l-367 -196h594l-45 -123h-817l33 88q18 51 65 74l443 244q20 10 59 32t57 32t46 28q102 65 122 129q33 90 -22 138q-56 48 -206 48zM446 553h-163l278 770l-358 -149
l49 141l383 160h145zM1386 1475h189l-1116 -1473h-189z" />
    <glyph glyph-name="threequarters" unicode="&#xbe;" horiz-adv-x="2551" 
d="M2208 922h198l-198 -543h170l-45 -121h-168l-94 -258h-160l94 258h-590l45 129l645 494q47 41 103 41zM464 539q-214 0 -392 86l47 125q184 -90 354 -91q295 0 342 129q29 80 -12 136t-174 55h-291l37 104l524 269h-565l45 121h815l-23 -66q-20 -53 -61 -72l-487 -250h45
q196 0 272 -93t29 -222t-169 -180t-336 -51zM2048 379l164 446l-576 -446h412zM1796 1475h189l-1117 -1473h-188z" />
    <glyph glyph-name="questiondown" unicode="&#xbf;" horiz-adv-x="1228" 
d="M628 -37q-182 0 -294 32t-172 84q-173 152 -73 427q65 178 218 262q154 84 414 104l205 17l61 172h160l-117 -322l-225 -16q-237 -19 -332 -55q-96 -36 -142 -84q-45 -48 -69 -110q-24 -64 -30 -107t10 -91q47 -157 409 -155q178 0 426 69l-61 -170q-206 -57 -388 -57z
M1079 1475h240l-80 -220h-240z" />
    <glyph glyph-name="Agrave" unicode="&#xc0;" horiz-adv-x="1579" 
d="M1016 1475h174l123 -1475h-174l-31 393h-815l-297 -393h-201l1084 1405q53 70 137 70zM1098 549l-64 823l-622 -823h686zM1012 1577l-297 330h198l261 -330h-162z" />
    <glyph glyph-name="Aacute" unicode="&#xc1;" horiz-adv-x="1579" 
d="M1016 1475h174l123 -1475h-174l-31 393h-815l-297 -393h-201l1084 1405q53 70 137 70zM1098 549l-64 823l-622 -823h686zM1184 1577h-193l428 330h244z" />
    <glyph glyph-name="Acircumflex" unicode="&#xc2;" horiz-adv-x="1579" 
d="M1016 1475h174l123 -1475h-174l-31 393h-815l-297 -393h-201l1084 1405q53 70 137 70zM1098 549l-64 823l-622 -823h686zM1321 1577l-139 252l-273 -252h-170l328 330h238l151 -330h-135z" />
    <glyph glyph-name="Atilde" unicode="&#xc3;" horiz-adv-x="1579" 
d="M1016 1475h174l123 -1475h-174l-31 393h-815l-297 -393h-201l1084 1405q53 70 137 70zM1098 549l-64 823l-622 -823h686zM1462 1626q-51 -62 -156 -61q-105 0 -174 84q-30 35 -57 69q-68 84 -118 83q-51 -1 -77 -41t-77 -183h-129q80 219 130 281t152 61q102 0 178 -83
q30 -34 56 -69q64 -84 117 -84t79 41t76 183h129q-78 -219 -129 -281z" />
    <glyph glyph-name="Adieresis" unicode="&#xc4;" horiz-adv-x="1579" 
d="M1016 1475h174l123 -1475h-174l-31 393h-815l-297 -393h-201l1084 1405q53 70 137 70zM1098 549l-64 823l-622 -823h686zM1028 1659h-180l59 166h180zM1397 1659h-180l59 166h180z" />
    <glyph glyph-name="Aring" unicode="&#xc5;" horiz-adv-x="1579" 
d="M1016 1475h174l123 -1475h-174l-31 393h-815l-297 -393h-201l1084 1405q53 70 137 70zM1098 549l-64 823l-622 -823h686zM1106 1655q129 0 160 80q18 49 -13 71t-116 21q-135 0 -166 -80q-16 -51 14 -72q31 -20 121 -20zM1077 1556q-160 0 -220 56t-23 160
q55 156 325 155q158 0 219 -56t27 -155q-60 -160 -328 -160z" />
    <glyph glyph-name="AE" unicode="&#xc6;" horiz-adv-x="2582" 
d="M1030 0l172 475h-686l-551 -475h-231l1638 1405q33 29 58 49t79 21h1233l-57 -156h-995l-183 -504h893l-57 -156h-893l-182 -503h995l-57 -156h-1176zM1260 631l258 706l-822 -706h564z" />
    <glyph glyph-name="Ccedilla" unicode="&#xc7;" horiz-adv-x="1603" 
d="M526 -453q-158 0 -247 52l34 112q109 -41 209 -41t129 76q20 50 1 108t-87 142q-297 55 -407 273t8 550q250 676 960 676q262 0 508 -96l-57 -158q-215 98 -471 98q-590 0 -774 -561q-104 -313 18 -478t449 -165q274 0 467 60l-58 -158q-162 -57 -454 -57h-25
q61 -88 75 -142t-11 -139q-56 -152 -267 -152z" />
    <glyph glyph-name="Egrave" unicode="&#xc8;" 
d="M-10 0l536 1475h1176l-57 -156h-996l-182 -504h893l-57 -156h-893l-183 -503h996l-58 -156h-1175zM1071 1577l-297 330h199l260 -330h-162z" />
    <glyph glyph-name="Eacute" unicode="&#xc9;" 
d="M-10 0l536 1475h1176l-57 -156h-996l-182 -504h893l-57 -156h-893l-183 -503h996l-58 -156h-1175zM1243 1577h-192l428 330h243z" />
    <glyph glyph-name="Ecircumflex" unicode="&#xca;" 
d="M-10 0l536 1475h1176l-57 -156h-996l-182 -504h893l-57 -156h-893l-183 -503h996l-58 -156h-1175zM1380 1577l-139 252l-272 -252h-170l327 330h238l152 -330h-136z" />
    <glyph glyph-name="Edieresis" unicode="&#xcb;" 
d="M-10 0l536 1475h1176l-57 -156h-996l-182 -504h893l-57 -156h-893l-183 -503h996l-58 -156h-1175zM1087 1659h-180l60 166h180zM1456 1659h-180l59 166h181z" />
    <glyph glyph-name="Igrave" unicode="&#xcc;" horiz-adv-x="692" 
d="M170 0h-180l536 1475h181zM573 1577l-297 330h199l260 -330h-162z" />
    <glyph glyph-name="Iacute" unicode="&#xcd;" horiz-adv-x="692" 
d="M170 0h-180l536 1475h181zM745 1577h-192l428 330h244z" />
    <glyph glyph-name="Icircumflex" unicode="&#xce;" horiz-adv-x="692" 
d="M170 0h-180l536 1475h181zM883 1577l-140 252l-272 -252h-170l328 330h237l152 -330h-135z" />
    <glyph glyph-name="Idieresis" unicode="&#xcf;" horiz-adv-x="692" 
d="M170 0h-180l536 1475h181zM590 1659h-180l59 166h180zM958 1659h-180l60 166h180z" />
    <glyph glyph-name="Eth" unicode="&#xd0;" horiz-adv-x="1783" 
d="M1114 1475q304 0 447 -156t127 -393q-8 -117 -54 -240q-131 -356 -351 -521t-611 -165h-682l250 686h-254l45 125h254l241 664h588zM682 156q319 0 495 124q175 124 285 435q100 274 6 439t-364 165h-455l-184 -508h401l-45 -125h-401l-193 -530h455z" />
    <glyph glyph-name="Ntilde" unicode="&#xd1;" horiz-adv-x="1953" 
d="M659 1475q55 -1 86 -13t48 -55l481 -1264l483 1332h180l-536 -1475h-248l-504 1319l-483 -1319h-176l536 1475h133zM1655 1626q-51 -62 -155 -61q-104 0 -176 84q-30 35 -56 69q-67 84 -118 83q-50 -1 -77 -41t-78 -183h-129q80 219 130 281t152 61q102 0 178 -83
q30 -34 56 -69q64 -84 117 -84t80 41t76 183h129q-78 -219 -129 -281z" />
    <glyph glyph-name="Ograve" unicode="&#xd2;" horiz-adv-x="1845" 
d="M762 135q285 0 465 131t297 449q68 197 50 335q-17 138 -141 214t-350 75q-285 0 -463 -131t-294 -448q-114 -293 -6 -459t442 -166zM756 -20q-227 0 -380 66q-154 66 -218 178q-130 228 -1 576q128 348 353 522t584 173q530 0 639 -339q64 -200 -37 -470
q-134 -360 -358 -533t-582 -173zM1130 1577l-296 330h198l260 -330h-162z" />
    <glyph glyph-name="Oacute" unicode="&#xd3;" horiz-adv-x="1845" 
d="M762 135q285 0 465 131t297 449q68 197 50 335q-17 138 -141 214t-350 75q-285 0 -463 -131t-294 -448q-114 -293 -6 -459t442 -166zM756 -20q-227 0 -380 66q-154 66 -218 178q-130 228 -1 576q128 348 353 522t584 173q530 0 639 -339q64 -200 -37 -470
q-134 -360 -358 -533t-582 -173zM1303 1577h-193l428 330h244z" />
    <glyph glyph-name="Ocircumflex" unicode="&#xd4;" horiz-adv-x="1845" 
d="M762 135q285 0 465 131t297 449q68 197 50 335q-17 138 -141 214t-350 75q-285 0 -463 -131t-294 -448q-114 -293 -6 -459t442 -166zM756 -20q-227 0 -380 66q-154 66 -218 178q-130 228 -1 576q128 348 353 522t584 173q530 0 639 -339q64 -200 -37 -470
q-134 -360 -358 -533t-582 -173zM1440 1577l-140 252l-272 -252h-170l328 330h237l152 -330h-135z" />
    <glyph glyph-name="Otilde" unicode="&#xd5;" horiz-adv-x="1845" 
d="M762 135q285 0 465 131t297 449q68 197 50 335q-17 138 -141 214t-350 75q-285 0 -463 -131t-294 -448q-114 -293 -6 -459t442 -166zM756 -20q-227 0 -380 66q-154 66 -218 178q-130 228 -1 576q128 348 353 522t584 173q530 0 639 -339q64 -200 -37 -470
q-134 -360 -358 -533t-582 -173zM1426 1683q52 0 79 41t76 183h129q-78 -219 -129 -281t-155 -61q-104 0 -176 84q-30 35 -56 69q-67 84 -118 83q-50 -1 -77 -41t-77 -183h-129q80 219 130 281t153 61q103 0 176 -83q30 -34 57 -69q65 -84 117 -84z" />
    <glyph glyph-name="Odieresis" unicode="&#xd6;" horiz-adv-x="1845" 
d="M762 135q285 0 465 131t297 449q68 197 50 335q-17 138 -141 214t-350 75q-285 0 -463 -131t-294 -448q-114 -293 -6 -459t442 -166zM756 -20q-227 0 -380 66q-154 66 -218 178q-130 228 -1 576q128 348 353 522t584 173q530 0 639 -339q64 -200 -37 -470
q-134 -360 -358 -533t-582 -173zM1147 1659h-180l59 166h180zM1516 1659h-181l60 166h180z" />
    <glyph glyph-name="multiply" unicode="&#xd7;" horiz-adv-x="1697" 
d="M1116 152l-295 464l-633 -464l-77 120l632 465l-321 506l129 86l317 -500l680 498l78 -121l-680 -499l295 -463z" />
    <glyph glyph-name="Oslash" unicode="&#xd8;" horiz-adv-x="1845" 
d="M759 135q288 0 468 131t297 449q88 240 37 389l-1211 -842q121 -127 409 -127zM1087 1339q-289 0 -467 -131t-294 -448q-88 -242 -37 -389l1208 841q-121 127 -410 127zM744 -20q-370 0 -537 182l-234 -162l-69 102l233 162q-98 213 17 524q131 360 356 534t595 173
q370 0 540 -182l231 162l68 -105l-232 -160q98 -213 -16 -524q-134 -360 -358 -533t-594 -173z" />
    <glyph glyph-name="Ugrave" unicode="&#xd9;" horiz-adv-x="1775" 
d="M690 -20q-366 0 -492 170t-30 440l317 885h181l-320 -881q-88 -240 1 -350t368 -109q113 1 193 17t160 63q152 88 261 379l320 881h178l-320 -891q-125 -348 -310 -476t-507 -128zM1116 1577l-297 330h199l260 -330h-162z" />
    <glyph glyph-name="Uacute" unicode="&#xda;" horiz-adv-x="1775" 
d="M690 -20q-366 0 -492 170t-30 440l317 885h181l-320 -881q-88 -240 1 -350t368 -109q113 1 193 17t160 63q152 88 261 379l320 881h178l-320 -891q-125 -348 -310 -476t-507 -128zM1288 1577h-192l428 330h243z" />
    <glyph glyph-name="Ucircumflex" unicode="&#xdb;" horiz-adv-x="1775" 
d="M690 -20q-366 0 -492 170t-30 440l317 885h181l-320 -881q-88 -240 1 -350t368 -109q113 1 193 17t160 63q152 88 261 379l320 881h178l-320 -891q-125 -348 -310 -476t-507 -128zM1425 1577l-139 252l-272 -252h-170l327 330h238l152 -330h-136z" />
    <glyph glyph-name="Udieresis" unicode="&#xdc;" horiz-adv-x="1775" 
d="M690 -20q-366 0 -492 170t-30 440l317 885h181l-320 -881q-88 -240 1 -350t368 -109q113 1 193 17t160 63q152 88 261 379l320 881h178l-320 -891q-125 -348 -310 -476t-507 -128zM1133 1659h-181l60 166h180zM1501 1659h-180l59 166h181z" />
    <glyph glyph-name="Yacute" unicode="&#xdd;" horiz-adv-x="1597" 
d="M612 0h-180l244 666l-406 809h183l338 -684l849 684h228l-1016 -822zM1178 1577h-193l428 330h244z" />
    <glyph glyph-name="Thorn" unicode="&#xde;" horiz-adv-x="1599" 
d="M694 229h-440l-84 -229h-180l536 1475h181l-80 -222h303q397 -1 522 -161t27 -435q-89 -246 -261 -337t-524 -91zM899 1098h-330l-260 -713h416q279 0 399 61t183 240q81 224 -9 318t-399 94z" />
    <glyph glyph-name="germandbls" unicode="&#xdf;" horiz-adv-x="3088" 
d="M602 -20q-422 0 -694 129l61 172q305 -147 635 -148q410 0 494 229q51 119 2 194t-226 114l-274 61q-410 92 -285 447q55 154 209 236t440 81q286 0 621 -127l-55 -162q-291 137 -600 137q-197 0 -301 -49t-142 -149q-47 -101 -7 -165t200 -101l287 -66q217 -49 289 -177
t6 -313q-68 -185 -231 -264t-429 -79zM2146 -20q-422 0 -694 129l61 172q305 -147 635 -148q410 0 494 229q51 119 2 194t-225 114l-275 61q-410 92 -284 447q54 154 208 236t440 81q286 0 621 -127l-55 -162q-291 137 -600 137q-197 0 -301 -49t-141 -149q-47 -102 -8 -166
q40 -63 200 -100l287 -66q217 -49 290 -177t5 -313t-231 -264t-429 -79z" />
    <glyph glyph-name="agrave" unicode="&#xe0;" horiz-adv-x="1579" 
d="M1016 1475h174l123 -1475h-174l-31 393h-815l-297 -393h-201l1084 1405q53 70 137 70zM1098 549l-64 823l-622 -823h686zM1012 1577l-297 330h198l261 -330h-162z" />
    <glyph glyph-name="aacute" unicode="&#xe1;" horiz-adv-x="1579" 
d="M1016 1475h174l123 -1475h-174l-31 393h-815l-297 -393h-201l1084 1405q53 70 137 70zM1098 549l-64 823l-622 -823h686zM1184 1577h-193l428 330h244z" />
    <glyph glyph-name="acircumflex" unicode="&#xe2;" horiz-adv-x="1579" 
d="M1016 1475h174l123 -1475h-174l-31 393h-815l-297 -393h-201l1084 1405q53 70 137 70zM1098 549l-64 823l-622 -823h686zM1321 1577l-139 252l-273 -252h-170l328 330h238l151 -330h-135z" />
    <glyph glyph-name="atilde" unicode="&#xe3;" horiz-adv-x="1579" 
d="M1016 1475h174l123 -1475h-174l-31 393h-815l-297 -393h-201l1084 1405q53 70 137 70zM1098 549l-64 823l-622 -823h686zM1462 1626q-51 -62 -156 -61q-105 0 -174 84q-30 35 -57 69q-68 84 -118 83q-51 -1 -77 -41t-77 -183h-129q80 219 130 281t152 61q102 0 178 -83
q30 -34 56 -69q64 -84 117 -84t79 41t76 183h129q-78 -219 -129 -281z" />
    <glyph glyph-name="adieresis" unicode="&#xe4;" horiz-adv-x="1579" 
d="M1016 1475h174l123 -1475h-174l-31 393h-815l-297 -393h-201l1084 1405q53 70 137 70zM1098 549l-64 823l-622 -823h686zM1028 1659h-180l59 166h180zM1397 1659h-180l59 166h180z" />
    <glyph glyph-name="aring" unicode="&#xe5;" horiz-adv-x="1579" 
d="M1016 1475h174l123 -1475h-174l-31 393h-815l-297 -393h-201l1084 1405q53 70 137 70zM1098 549l-64 823l-622 -823h686zM1106 1655q129 0 160 80q18 49 -13 71t-116 21q-135 0 -166 -80q-16 -51 14 -72q31 -20 121 -20zM1077 1556q-160 0 -220 56t-23 160
q55 156 325 155q158 0 219 -56t27 -155q-60 -160 -328 -160z" />
    <glyph glyph-name="ae" unicode="&#xe6;" horiz-adv-x="2582" 
d="M1030 0l172 475h-686l-551 -475h-231l1638 1405q33 29 58 49t79 21h1233l-57 -156h-995l-183 -504h893l-57 -156h-893l-182 -503h995l-57 -156h-1176zM1260 631l258 706l-822 -706h564z" />
    <glyph glyph-name="ccedilla" unicode="&#xe7;" horiz-adv-x="1603" 
d="M526 -453q-158 0 -247 52l34 112q109 -41 209 -41t129 76q20 50 1 108t-87 142q-297 55 -407 273t8 550q250 676 960 676q262 0 508 -96l-57 -158q-215 98 -471 98q-590 0 -774 -561q-104 -313 18 -478t449 -165q274 0 467 60l-58 -158q-162 -57 -454 -57h-25
q61 -88 75 -142t-11 -139q-56 -152 -267 -152z" />
    <glyph glyph-name="egrave" unicode="&#xe8;" 
d="M-10 0l536 1475h1176l-57 -156h-996l-182 -504h893l-57 -156h-893l-183 -503h996l-58 -156h-1175zM1071 1577l-297 330h199l260 -330h-162z" />
    <glyph glyph-name="eacute" unicode="&#xe9;" 
d="M-10 0l536 1475h1176l-57 -156h-996l-182 -504h893l-57 -156h-893l-183 -503h996l-58 -156h-1175zM1243 1577h-192l428 330h243z" />
    <glyph glyph-name="ecircumflex" unicode="&#xea;" 
d="M-10 0l536 1475h1176l-57 -156h-996l-182 -504h893l-57 -156h-893l-183 -503h996l-58 -156h-1175zM1380 1577l-139 252l-272 -252h-170l327 330h238l152 -330h-136z" />
    <glyph glyph-name="edieresis" unicode="&#xeb;" 
d="M-10 0l536 1475h1176l-57 -156h-996l-182 -504h893l-57 -156h-893l-183 -503h996l-58 -156h-1175zM1087 1659h-180l60 166h180zM1456 1659h-180l59 166h181z" />
    <glyph glyph-name="igrave" unicode="&#xec;" horiz-adv-x="692" 
d="M170 0h-180l536 1475h181zM573 1577l-297 330h199l260 -330h-162z" />
    <glyph glyph-name="iacute" unicode="&#xed;" horiz-adv-x="692" 
d="M170 0h-180l536 1475h181zM745 1577h-192l428 330h244z" />
    <glyph glyph-name="icircumflex" unicode="&#xee;" horiz-adv-x="692" 
d="M170 0h-180l536 1475h181zM883 1577l-140 252l-272 -252h-170l328 330h237l152 -330h-135z" />
    <glyph glyph-name="idieresis" unicode="&#xef;" horiz-adv-x="692" 
d="M170 0h-180l536 1475h181zM590 1659h-180l59 166h180zM958 1659h-180l60 166h180z" />
    <glyph glyph-name="eth" unicode="&#xf0;" horiz-adv-x="1783" 
d="M1114 1475q304 0 447 -156t127 -393q-8 -117 -54 -240q-131 -356 -351 -521t-611 -165h-682l250 686h-254l45 125h254l241 664h588zM682 156q319 0 495 124q175 124 285 435q100 274 6 439t-364 165h-455l-184 -508h401l-45 -125h-401l-193 -530h455z" />
    <glyph glyph-name="ntilde" unicode="&#xf1;" horiz-adv-x="1953" 
d="M659 1475q55 -1 86 -13t48 -55l481 -1264l483 1332h180l-536 -1475h-248l-504 1319l-483 -1319h-176l536 1475h133zM1655 1626q-51 -62 -155 -61q-104 0 -176 84q-30 35 -56 69q-67 84 -118 83q-50 -1 -77 -41t-78 -183h-129q80 219 130 281t152 61q102 0 178 -83
q30 -34 56 -69q64 -84 117 -84t80 41t76 183h129q-78 -219 -129 -281z" />
    <glyph glyph-name="ograve" unicode="&#xf2;" horiz-adv-x="1845" 
d="M762 135q285 0 465 131t297 449q68 197 50 335q-17 138 -141 214t-350 75q-285 0 -463 -131t-294 -448q-114 -293 -6 -459t442 -166zM756 -20q-227 0 -380 66q-154 66 -218 178q-130 228 -1 576q128 348 353 522t584 173q530 0 639 -339q64 -200 -37 -470
q-134 -360 -358 -533t-582 -173zM1130 1577l-296 330h198l260 -330h-162z" />
    <glyph glyph-name="oacute" unicode="&#xf3;" horiz-adv-x="1845" 
d="M762 135q285 0 465 131t297 449q68 197 50 335q-17 138 -141 214t-350 75q-285 0 -463 -131t-294 -448q-114 -293 -6 -459t442 -166zM756 -20q-227 0 -380 66q-154 66 -218 178q-130 228 -1 576q128 348 353 522t584 173q530 0 639 -339q64 -200 -37 -470
q-134 -360 -358 -533t-582 -173zM1303 1577h-193l428 330h244z" />
    <glyph glyph-name="ocircumflex" unicode="&#xf4;" horiz-adv-x="1845" 
d="M762 135q285 0 465 131t297 449q68 197 50 335q-17 138 -141 214t-350 75q-285 0 -463 -131t-294 -448q-114 -293 -6 -459t442 -166zM756 -20q-227 0 -380 66q-154 66 -218 178q-130 228 -1 576q128 348 353 522t584 173q530 0 639 -339q64 -200 -37 -470
q-134 -360 -358 -533t-582 -173zM1440 1577l-140 252l-272 -252h-170l328 330h237l152 -330h-135z" />
    <glyph glyph-name="otilde" unicode="&#xf5;" horiz-adv-x="1845" 
d="M762 135q285 0 465 131t297 449q68 197 50 335q-17 138 -141 214t-350 75q-285 0 -463 -131t-294 -448q-114 -293 -6 -459t442 -166zM756 -20q-227 0 -380 66q-154 66 -218 178q-130 228 -1 576q128 348 353 522t584 173q530 0 639 -339q64 -200 -37 -470
q-134 -360 -358 -533t-582 -173zM1426 1683q52 0 79 41t76 183h129q-78 -219 -129 -281t-155 -61q-104 0 -176 84q-30 35 -56 69q-67 84 -118 83q-50 -1 -77 -41t-77 -183h-129q80 219 130 281t153 61q103 0 176 -83q30 -34 57 -69q65 -84 117 -84z" />
    <glyph glyph-name="odieresis" unicode="&#xf6;" horiz-adv-x="1845" 
d="M762 135q285 0 465 131t297 449q68 197 50 335q-17 138 -141 214t-350 75q-285 0 -463 -131t-294 -448q-114 -293 -6 -459t442 -166zM756 -20q-227 0 -380 66q-154 66 -218 178q-130 228 -1 576q128 348 353 522t584 173q530 0 639 -339q64 -200 -37 -470
q-134 -360 -358 -533t-582 -173zM1147 1659h-180l59 166h180zM1516 1659h-181l60 166h180z" />
    <glyph glyph-name="divide" unicode="&#xf7;" horiz-adv-x="1697" 
d="M604 324h191l-64 -177h-190zM233 664l54 149h1181l-53 -149h-1182zM971 1329h190l-63 -176h-191z" />
    <glyph glyph-name="oslash" unicode="&#xf8;" horiz-adv-x="1845" 
d="M759 135q288 0 468 131t297 449q88 240 37 389l-1211 -842q121 -127 409 -127zM1087 1339q-289 0 -467 -131t-294 -448q-88 -242 -37 -389l1208 841q-121 127 -410 127zM744 -20q-370 0 -537 182l-234 -162l-69 102l233 162q-98 213 17 524q131 360 356 534t595 173
q370 0 540 -182l231 162l68 -105l-232 -160q98 -213 -16 -524q-134 -360 -358 -533t-594 -173z" />
    <glyph glyph-name="ugrave" unicode="&#xf9;" horiz-adv-x="1775" 
d="M690 -20q-366 0 -492 170t-30 440l317 885h181l-320 -881q-88 -240 1 -350t368 -109q113 1 193 17t160 63q152 88 261 379l320 881h178l-320 -891q-125 -348 -310 -476t-507 -128zM1116 1577l-297 330h199l260 -330h-162z" />
    <glyph glyph-name="uacute" unicode="&#xfa;" horiz-adv-x="1775" 
d="M690 -20q-366 0 -492 170t-30 440l317 885h181l-320 -881q-88 -240 1 -350t368 -109q113 1 193 17t160 63q152 88 261 379l320 881h178l-320 -891q-125 -348 -310 -476t-507 -128zM1288 1577h-192l428 330h243z" />
    <glyph glyph-name="ucircumflex" unicode="&#xfb;" horiz-adv-x="1775" 
d="M690 -20q-366 0 -492 170t-30 440l317 885h181l-320 -881q-88 -240 1 -350t368 -109q113 1 193 17t160 63q152 88 261 379l320 881h178l-320 -891q-125 -348 -310 -476t-507 -128zM1425 1577l-139 252l-272 -252h-170l327 330h238l152 -330h-136z" />
    <glyph glyph-name="udieresis" unicode="&#xfc;" horiz-adv-x="1775" 
d="M690 -20q-366 0 -492 170t-30 440l317 885h181l-320 -881q-88 -240 1 -350t368 -109q113 1 193 17t160 63q152 88 261 379l320 881h178l-320 -891q-125 -348 -310 -476t-507 -128zM1133 1659h-181l60 166h180zM1501 1659h-180l59 166h181z" />
    <glyph glyph-name="yacute" unicode="&#xfd;" horiz-adv-x="1597" 
d="M612 0h-180l244 666l-406 809h183l338 -684l849 684h228l-1016 -822zM1178 1577h-193l428 330h244z" />
    <glyph glyph-name="thorn" unicode="&#xfe;" horiz-adv-x="1599" 
d="M694 229h-440l-84 -229h-180l536 1475h181l-80 -222h303q397 -1 522 -161t27 -435q-89 -246 -261 -337t-524 -91zM899 1098h-330l-260 -713h416q279 0 399 61t183 240q81 224 -9 318t-399 94z" />
    <glyph glyph-name="ydieresis" unicode="&#xff;" horiz-adv-x="1597" 
d="M612 0h-180l244 666l-406 809h183l338 -684l849 684h228l-1016 -822zM1022 1659h-180l59 166h180zM1391 1659h-181l60 166h180z" />
    <glyph glyph-name="Amacron" unicode="&#x100;" horiz-adv-x="1579" 
d="M1016 1475h174l123 -1475h-174l-31 393h-815l-297 -393h-201l1084 1405q53 70 137 70zM1098 549l-64 823l-622 -823h686zM1536 1700h-795l41 125h795z" />
    <glyph glyph-name="amacron" unicode="&#x101;" horiz-adv-x="1579" 
d="M1016 1475h174l123 -1475h-174l-31 393h-815l-297 -393h-201l1084 1405q53 70 137 70zM1098 549l-64 823l-622 -823h686zM1536 1700h-795l41 125h795z" />
    <glyph glyph-name="Abreve" unicode="&#x102;" horiz-adv-x="1579" 
d="M1016 1475h174l123 -1475h-174l-31 393h-815l-297 -393h-201l1084 1405q53 70 137 70zM1098 549l-64 823l-622 -823h686zM1126 1667q184 0 273 240h141q-70 -191 -169 -271t-255 -80t-226 92t-7 259h139q-41 -119 -11 -179t115 -61z" />
    <glyph glyph-name="abreve" unicode="&#x103;" horiz-adv-x="1579" 
d="M1016 1475h174l123 -1475h-174l-31 393h-815l-297 -393h-201l1084 1405q53 70 137 70zM1098 549l-64 823l-622 -823h686zM1126 1667q184 0 273 240h141q-70 -191 -169 -271t-255 -80t-226 92t-7 259h139q-41 -119 -11 -179t115 -61z" />
    <glyph glyph-name="Aogonek" unicode="&#x104;" horiz-adv-x="1579" 
d="M1202 -453q-152 0 -222 74t-28 190q41 116 187 197l-31 385h-815l-297 -393h-201l1084 1405q53 70 137 70h174l123 -1475h-37q-147 -98 -174 -203q-33 -127 125 -127q92 0 182 29l-45 -125q-76 -27 -162 -27zM1098 549l-64 823l-622 -823h686z" />
    <glyph glyph-name="aogonek" unicode="&#x105;" horiz-adv-x="1579" 
d="M1202 -453q-152 0 -222 74t-28 190q41 116 187 197l-31 385h-815l-297 -393h-201l1084 1405q53 70 137 70h174l123 -1475h-37q-147 -98 -174 -203q-33 -127 125 -127q92 0 182 29l-45 -125q-76 -27 -162 -27zM1098 549l-64 823l-622 -823h686z" />
    <glyph glyph-name="Cacute" unicode="&#x106;" horiz-adv-x="1603" 
d="M1106 1339q-590 0 -774 -561q-104 -313 18 -478t449 -165q274 0 467 60l-58 -158q-162 -57 -454 -57q-393 0 -560 231t-28 608q250 676 960 676q262 0 508 -96l-57 -158q-215 98 -471 98zM1284 1577h-192l428 330h243z" />
    <glyph glyph-name="cacute" unicode="&#x107;" horiz-adv-x="1603" 
d="M1106 1339q-590 0 -774 -561q-104 -313 18 -478t449 -165q274 0 467 60l-58 -158q-162 -57 -454 -57q-393 0 -560 231t-28 608q250 676 960 676q262 0 508 -96l-57 -158q-215 98 -471 98zM1284 1577h-192l428 330h243z" />
    <glyph glyph-name="Ccircumflex" unicode="&#x108;" horiz-adv-x="1603" 
d="M1106 1339q-590 0 -774 -561q-104 -313 18 -478t449 -165q274 0 467 60l-58 -158q-162 -57 -454 -57q-393 0 -560 231t-28 608q250 676 960 676q262 0 508 -96l-57 -158q-215 98 -471 98zM1421 1577l-139 252l-272 -252h-170l327 330h238l151 -330h-135z" />
    <glyph glyph-name="ccircumflex" unicode="&#x109;" horiz-adv-x="1603" 
d="M1106 1339q-590 0 -774 -561q-104 -313 18 -478t449 -165q274 0 467 60l-58 -158q-162 -57 -454 -57q-393 0 -560 231t-28 608q250 676 960 676q262 0 508 -96l-57 -158q-215 98 -471 98zM1421 1577l-139 252l-272 -252h-170l327 330h238l151 -330h-135z" />
    <glyph glyph-name="Cdotaccent" unicode="&#x10a;" horiz-adv-x="1603" 
d="M1106 1339q-590 0 -774 -561q-104 -313 18 -478t449 -165q274 0 467 60l-58 -158q-162 -57 -454 -57q-393 0 -560 231t-28 608q250 676 960 676q262 0 508 -96l-57 -158q-215 98 -471 98zM1313 1659h-180l59 166h180z" />
    <glyph glyph-name="cdotaccent" unicode="&#x10b;" horiz-adv-x="1603" 
d="M1106 1339q-590 0 -774 -561q-104 -313 18 -478t449 -165q274 0 467 60l-58 -158q-162 -57 -454 -57q-393 0 -560 231t-28 608q250 676 960 676q262 0 508 -96l-57 -158q-215 98 -471 98zM1313 1659h-180l59 166h180z" />
    <glyph glyph-name="Ccaron" unicode="&#x10c;" horiz-adv-x="1603" 
d="M1106 1339q-590 0 -774 -561q-104 -313 18 -478t449 -165q274 0 467 60l-58 -158q-162 -57 -454 -57q-393 0 -560 231t-28 608q250 676 960 676q262 0 508 -96l-57 -158q-215 98 -471 98zM1096 1577l-152 330h137l140 -252l272 252h168l-328 -330h-237z" />
    <glyph glyph-name="ccaron" unicode="&#x10d;" horiz-adv-x="1603" 
d="M1106 1339q-590 0 -774 -561q-104 -313 18 -478t449 -165q274 0 467 60l-58 -158q-162 -57 -454 -57q-393 0 -560 231t-28 608q250 676 960 676q262 0 508 -96l-57 -158q-215 98 -471 98zM1096 1577l-152 330h137l140 -252l272 252h168l-328 -330h-237z" />
    <glyph glyph-name="Dcaron" unicode="&#x10e;" horiz-adv-x="1783" 
d="M1114 1475q304 0 447 -156t127 -393q-8 -117 -54 -240q-131 -356 -351 -521t-611 -165h-682l536 1475h588zM1104 1319h-455l-422 -1163h455q319 0 495 124q175 124 285 435q100 274 6 439t-364 165zM1055 1577l-152 330h137l140 -252l272 252h168l-328 -330h-237z" />
    <glyph glyph-name="dcaron" unicode="&#x10f;" horiz-adv-x="1783" 
d="M1114 1475q304 0 447 -156t127 -393q-8 -117 -54 -240q-131 -356 -351 -521t-611 -165h-682l536 1475h588zM1104 1319h-455l-422 -1163h455q319 0 495 124q175 124 285 435q100 274 6 439t-364 165zM1055 1577l-152 330h137l140 -252l272 252h168l-328 -330h-237z" />
    <glyph glyph-name="Dcroat" unicode="&#x110;" horiz-adv-x="1783" 
d="M1114 1475q304 0 447 -156t127 -393q-8 -117 -54 -240q-131 -356 -351 -521t-611 -165h-682l250 686h-254l45 125h254l241 664h588zM682 156q319 0 495 124q175 124 285 435q100 274 6 439t-364 165h-455l-184 -508h401l-45 -125h-401l-193 -530h455z" />
    <glyph glyph-name="dcroat" unicode="&#x111;" horiz-adv-x="1783" 
d="M1114 1475q304 0 447 -156t127 -393q-8 -117 -54 -240q-131 -356 -351 -521t-611 -165h-682l250 686h-254l45 125h254l241 664h588zM682 156q319 0 495 124q175 124 285 435q100 274 6 439t-364 165h-455l-184 -508h401l-45 -125h-401l-193 -530h455z" />
    <glyph glyph-name="Emacron" unicode="&#x112;" 
d="M-10 0l536 1475h1176l-57 -156h-996l-182 -504h893l-57 -156h-893l-183 -503h996l-58 -156h-1175zM1595 1700h-794l41 125h794z" />
    <glyph glyph-name="emacron" unicode="&#x113;" 
d="M-10 0l536 1475h1176l-57 -156h-996l-182 -504h893l-57 -156h-893l-183 -503h996l-58 -156h-1175zM1595 1700h-794l41 125h794z" />
    <glyph glyph-name="Ebreve" unicode="&#x114;" 
d="M-10 0l536 1475h1176l-57 -156h-996l-182 -504h893l-57 -156h-893l-183 -503h996l-58 -156h-1175zM1186 1667q184 0 272 240h141q-70 -190 -168 -271q-99 -80 -255 -80t-226 92t-8 259h139q-41 -119 -11 -179t116 -61z" />
    <glyph glyph-name="ebreve" unicode="&#x115;" 
d="M-10 0l536 1475h1176l-57 -156h-996l-182 -504h893l-57 -156h-893l-183 -503h996l-58 -156h-1175zM1186 1667q184 0 272 240h141q-70 -190 -168 -271q-99 -80 -255 -80t-226 92t-8 259h139q-41 -119 -11 -179t116 -61z" />
    <glyph glyph-name="Edotaccent" unicode="&#x116;" 
d="M-10 0l536 1475h1176l-57 -156h-996l-182 -504h893l-57 -156h-893l-183 -503h996l-58 -156h-1175zM1272 1659h-180l59 166h180z" />
    <glyph glyph-name="edotaccent" unicode="&#x117;" 
d="M-10 0l536 1475h1176l-57 -156h-996l-182 -504h893l-57 -156h-893l-183 -503h996l-58 -156h-1175zM1272 1659h-180l59 166h180z" />
    <glyph glyph-name="Eogonek" unicode="&#x118;" 
d="M852 -453q-152 0 -222 74t-28 188q41 114 170 191h-782l536 1475h1176l-57 -156h-996l-182 -504h893l-57 -156h-893l-183 -503h996l-58 -156h-239q-147 -98 -174 -203q-33 -127 125 -127q92 0 182 29l-45 -125q-76 -27 -162 -27z" />
    <glyph glyph-name="eogonek" unicode="&#x119;" 
d="M852 -453q-152 0 -222 74t-28 188q41 114 170 191h-782l536 1475h1176l-57 -156h-996l-182 -504h893l-57 -156h-893l-183 -503h996l-58 -156h-239q-147 -98 -174 -203q-33 -127 125 -127q92 0 182 29l-45 -125q-76 -27 -162 -27z" />
    <glyph glyph-name="Ecaron" unicode="&#x11a;" 
d="M-10 0l536 1475h1176l-57 -156h-996l-182 -504h893l-57 -156h-893l-183 -503h996l-58 -156h-1175zM1055 1577l-152 330h137l140 -252l272 252h168l-328 -330h-237z" />
    <glyph glyph-name="ecaron" unicode="&#x11b;" 
d="M-10 0l536 1475h1176l-57 -156h-996l-182 -504h893l-57 -156h-893l-183 -503h996l-58 -156h-1175zM1055 1577l-152 330h137l140 -252l272 252h168l-328 -330h-237z" />
    <glyph glyph-name="Gcircumflex" unicode="&#x11c;" horiz-adv-x="1691" 
d="M801 -20q-424 0 -600 228t-35 611q248 676 1001 676q262 0 508 -96l-57 -158q-215 98 -471 98q-631 0 -815 -561q-106 -317 26 -480t488 -163q143 0 274 21l168 471h180l-213 -590q-162 -57 -454 -57zM1423 1577l-139 252l-272 -252h-170l327 330h238l152 -330h-136z" />
    <glyph glyph-name="gcircumflex" unicode="&#x11d;" horiz-adv-x="1691" 
d="M801 -20q-424 0 -600 228t-35 611q248 676 1001 676q262 0 508 -96l-57 -158q-215 98 -471 98q-631 0 -815 -561q-106 -317 26 -480t488 -163q143 0 274 21l168 471h180l-213 -590q-162 -57 -454 -57zM1423 1577l-139 252l-272 -252h-170l327 330h238l152 -330h-136z" />
    <glyph glyph-name="Gbreve" unicode="&#x11e;" horiz-adv-x="1691" 
d="M801 -20q-424 0 -600 228t-35 611q248 676 1001 676q262 0 508 -96l-57 -158q-215 98 -471 98q-631 0 -815 -561q-106 -317 26 -480t488 -163q143 0 274 21l168 471h180l-213 -590q-162 -57 -454 -57zM1229 1667q184 0 272 240h141q-70 -190 -168 -271q-99 -80 -255 -80
t-226 92t-8 259h139q-41 -119 -11 -179t116 -61z" />
    <glyph glyph-name="gbreve" unicode="&#x11f;" horiz-adv-x="1691" 
d="M801 -20q-424 0 -600 228t-35 611q248 676 1001 676q262 0 508 -96l-57 -158q-215 98 -471 98q-631 0 -815 -561q-106 -317 26 -480t488 -163q143 0 274 21l168 471h180l-213 -590q-162 -57 -454 -57zM1229 1667q184 0 272 240h141q-70 -190 -168 -271q-99 -80 -255 -80
t-226 92t-8 259h139q-41 -119 -11 -179t116 -61z" />
    <glyph glyph-name="Gdotaccent" unicode="&#x120;" horiz-adv-x="1691" 
d="M801 -20q-424 0 -600 228t-35 611q248 676 1001 676q262 0 508 -96l-57 -158q-215 98 -471 98q-631 0 -815 -561q-106 -317 26 -480t488 -163q143 0 274 21l168 471h180l-213 -590q-162 -57 -454 -57zM1315 1659h-180l59 166h180z" />
    <glyph glyph-name="gdotaccent" unicode="&#x121;" horiz-adv-x="1691" 
d="M801 -20q-424 0 -600 228t-35 611q248 676 1001 676q262 0 508 -96l-57 -158q-215 98 -471 98q-631 0 -815 -561q-106 -317 26 -480t488 -163q143 0 274 21l168 471h180l-213 -590q-162 -57 -454 -57zM1315 1659h-180l59 166h180z" />
    <glyph glyph-name="Gcommaaccent" unicode="&#x122;" horiz-adv-x="1691" 
d="M428 -432h-192l432 330h243zM801 -20q-424 0 -600 228t-35 611q248 676 1001 676q262 0 508 -96l-57 -158q-215 98 -471 98q-631 0 -815 -561q-106 -317 26 -480t488 -163q143 0 274 21l168 471h180l-213 -590q-162 -57 -454 -57z" />
    <glyph glyph-name="gcommaaccent" unicode="&#x123;" horiz-adv-x="1691" 
d="M428 -432h-192l432 330h243zM801 -20q-424 0 -600 228t-35 611q248 676 1001 676q262 0 508 -96l-57 -158q-215 98 -471 98q-631 0 -815 -561q-106 -317 26 -480t488 -163q143 0 274 21l168 471h180l-213 -590q-162 -57 -454 -57z" />
    <glyph glyph-name="Hcircumflex" unicode="&#x124;" horiz-adv-x="1853" 
d="M1151 0l240 659h-981l-240 -659h-180l536 1475h181l-240 -660h981l240 660h180l-537 -1475h-180zM1464 1577l-139 252l-272 -252h-170l327 330h238l151 -330h-135z" />
    <glyph glyph-name="hcircumflex" unicode="&#x125;" horiz-adv-x="1853" 
d="M1151 0l240 659h-981l-240 -659h-180l536 1475h181l-240 -660h981l240 660h180l-537 -1475h-180zM1464 1577l-139 252l-272 -252h-170l327 330h238l151 -330h-135z" />
    <glyph glyph-name="Hbar" unicode="&#x126;" horiz-adv-x="1853" 
d="M1151 0l240 659h-981l-240 -659h-180l422 1157h-256l45 125h256l69 193h181l-70 -193h981l70 193h180l-70 -193h254l-45 -125h-254l-422 -1157h-180zM1448 815l125 342h-981l-125 -342h981z" />
    <glyph glyph-name="hbar" unicode="&#x127;" horiz-adv-x="1853" 
d="M1151 0l240 659h-981l-240 -659h-180l422 1157h-256l45 125h256l69 193h181l-70 -193h981l70 193h180l-70 -193h254l-45 -125h-254l-422 -1157h-180zM1448 815l125 342h-981l-125 -342h981z" />
    <glyph glyph-name="Itilde" unicode="&#x128;" horiz-adv-x="692" 
d="M170 0h-180l536 1475h181zM869 1683q52 0 79 41t76 183h129q-78 -219 -129 -281t-155 -61q-104 0 -176 84q-31 35 -57 69q-67 84 -117 83t-77 -41t-77 -183h-129q80 219 130 281t153 61q103 0 176 -83q30 -34 57 -69q65 -84 117 -84z" />
    <glyph glyph-name="itilde" unicode="&#x129;" horiz-adv-x="692" 
d="M170 0h-180l536 1475h181zM869 1683q52 0 79 41t76 183h129q-78 -219 -129 -281t-155 -61q-104 0 -176 84q-31 35 -57 69q-67 84 -117 83t-77 -41t-77 -183h-129q80 219 130 281t153 61q103 0 176 -83q30 -34 57 -69q65 -84 117 -84z" />
    <glyph glyph-name="Imacron" unicode="&#x12a;" horiz-adv-x="692" 
d="M170 0h-180l536 1475h181zM1098 1700h-795l41 125h795z" />
    <glyph glyph-name="imacron" unicode="&#x12b;" horiz-adv-x="692" 
d="M170 0h-180l536 1475h181zM1098 1700h-795l41 125h795z" />
    <glyph glyph-name="Ibreve" unicode="&#x12c;" horiz-adv-x="692" 
d="M170 0h-180l536 1475h181zM688 1667q184 0 273 240h141q-70 -191 -169 -271t-255 -80t-226 92t-8 259h140q-41 -119 -12 -180q30 -60 116 -60z" />
    <glyph glyph-name="ibreve" unicode="&#x12d;" horiz-adv-x="692" 
d="M170 0h-180l536 1475h181zM688 1667q184 0 273 240h141q-70 -191 -169 -271t-255 -80t-226 92t-8 259h140q-41 -119 -12 -180q30 -60 116 -60z" />
    <glyph glyph-name="Iogonek" unicode="&#x12e;" horiz-adv-x="692" 
d="M59 -453q-151 0 -221 74t-28 190t182 197l534 1467h181l-537 -1475h-37q-147 -98 -174 -203q-33 -127 125 -127q92 0 182 29l-45 -125q-76 -27 -162 -27z" />
    <glyph glyph-name="iogonek" unicode="&#x12f;" horiz-adv-x="692" 
d="M59 -453q-151 0 -221 74t-28 190t182 197l534 1467h181l-537 -1475h-37q-147 -98 -174 -203q-33 -127 125 -127q92 0 182 29l-45 -125q-76 -27 -162 -27z" />
    <glyph glyph-name="Idotaccent" unicode="&#x130;" horiz-adv-x="692" 
d="M170 0h-180l536 1475h181zM774 1659h-180l59 166h181z" />
    <glyph glyph-name="dotlessi" unicode="&#x131;" horiz-adv-x="692" 
d="M170 0h-180l536 1475h181z" />
    <glyph glyph-name="IJ" unicode="&#x132;" horiz-adv-x="1867" 
d="M896 -20q-249 0 -417 83l56 152q162 -80 378 -80q318 1 433 316l372 1024h178l-370 -1035q-88 -248 -234 -354t-396 -106zM170 0h-180l536 1475h181z" />
    <glyph glyph-name="ij" unicode="&#x133;" horiz-adv-x="1867" 
d="M896 -20q-249 0 -417 83l56 152q162 -80 378 -80q318 1 433 316l372 1024h178l-370 -1035q-88 -248 -234 -354t-396 -106zM170 0h-180l536 1475h181z" />
    <glyph glyph-name="Jcircumflex" unicode="&#x134;" horiz-adv-x="1175" 
d="M204 -20q-249 0 -417 83l55 152q162 -80 379 -80q317 1 432 316l373 1024h178l-370 -1035q-88 -248 -234 -354t-396 -106zM1380 1577l-139 252l-272 -252h-170l327 330h238l152 -330h-136z" />
    <glyph glyph-name="jcircumflex" unicode="&#x135;" horiz-adv-x="1175" 
d="M204 -20q-249 0 -417 83l55 152q162 -80 379 -80q317 1 432 316l373 1024h178l-370 -1035q-88 -248 -234 -354t-396 -106zM1380 1577l-139 252l-272 -252h-170l327 330h238l152 -330h-136z" />
    <glyph glyph-name="Kcommaaccent" unicode="&#x136;" horiz-adv-x="1675" 
d="M264 -432h-192l432 330h244zM1147 0l-508 659h-229l-240 -659h-180l536 1475h181l-240 -660h215l946 660h232l-1061 -754l549 -721h-201z" />
    <glyph glyph-name="kcommaaccent" unicode="&#x137;" horiz-adv-x="1675" 
d="M264 -432h-192l432 330h244zM1147 0l-508 659h-229l-240 -659h-180l536 1475h181l-240 -660h215l946 660h232l-1061 -754l549 -721h-201z" />
    <glyph glyph-name="Lacute" unicode="&#x139;" horiz-adv-x="1462" 
d="M-10 0l536 1475h181l-480 -1319h996l-58 -156h-1175zM752 1577h-193l428 330h244z" />
    <glyph glyph-name="lacute" unicode="&#x13a;" horiz-adv-x="1462" 
d="M-10 0l536 1475h181l-480 -1319h996l-58 -156h-1175zM752 1577h-193l428 330h244z" />
    <glyph glyph-name="Lcommaaccent" unicode="&#x13b;" horiz-adv-x="1462" 
d="M258 -432h-192l432 330h243zM-10 0l536 1475h181l-480 -1319h996l-58 -156h-1175z" />
    <glyph glyph-name="lcommaaccent" unicode="&#x13c;" horiz-adv-x="1462" 
d="M258 -432h-192l432 330h243zM-10 0l536 1475h181l-480 -1319h996l-58 -156h-1175z" />
    <glyph glyph-name="Lcaron" unicode="&#x13d;" horiz-adv-x="1462" 
d="M-10 0l536 1475h181l-480 -1319h996l-58 -156h-1175zM889 975h-139l325 500h193z" />
    <glyph glyph-name="lcaron" unicode="&#x13e;" horiz-adv-x="1462" 
d="M-10 0l536 1475h181l-480 -1319h996l-58 -156h-1175zM889 975h-139l325 500h193z" />
    <glyph glyph-name="Ldot" unicode="&#x13f;" horiz-adv-x="1462" 
d="M-10 0l536 1475h181l-480 -1319h996l-58 -156h-1175zM1163 676h-239l77 219h242z" />
    <glyph glyph-name="ldot" unicode="&#x140;" horiz-adv-x="1462" 
d="M-10 0l536 1475h181l-480 -1319h996l-58 -156h-1175zM1163 676h-239l77 219h242z" />
    <glyph glyph-name="Lslash" unicode="&#x141;" horiz-adv-x="1462" 
d="M-10 0l223 614l-287 -92l51 148l289 92l260 713h181l-236 -648l467 150l-51 -148l-469 -149l-191 -524h996l-58 -156h-1175z" />
    <glyph glyph-name="lslash" unicode="&#x142;" horiz-adv-x="1462" 
d="M-10 0l223 614l-287 -92l51 148l289 92l260 713h181l-236 -648l467 150l-51 -148l-469 -149l-191 -524h996l-58 -156h-1175z" />
    <glyph glyph-name="Nacute" unicode="&#x143;" horiz-adv-x="1953" 
d="M659 1475q55 -1 86 -13t48 -55l481 -1264l483 1332h180l-536 -1475h-248l-504 1319l-483 -1319h-176l536 1475h133zM1376 1577h-192l428 330h243z" />
    <glyph glyph-name="nacute" unicode="&#x144;" horiz-adv-x="1953" 
d="M659 1475q55 -1 86 -13t48 -55l481 -1264l483 1332h180l-536 -1475h-248l-504 1319l-483 -1319h-176l536 1475h133zM1376 1577h-192l428 330h243z" />
    <glyph glyph-name="Ncommaaccent" unicode="&#x145;" horiz-adv-x="1953" 
d="M346 -432h-192l432 330h243zM659 1475q55 -1 86 -13t48 -55l481 -1264l483 1332h180l-536 -1475h-248l-504 1319l-483 -1319h-176l536 1475h133z" />
    <glyph glyph-name="ncommaaccent" unicode="&#x146;" horiz-adv-x="1953" 
d="M346 -432h-192l432 330h243zM659 1475q55 -1 86 -13t48 -55l481 -1264l483 1332h180l-536 -1475h-248l-504 1319l-483 -1319h-176l536 1475h133z" />
    <glyph glyph-name="Ncaron" unicode="&#x147;" horiz-adv-x="1953" 
d="M659 1475q55 -1 86 -13t48 -55l481 -1264l483 1332h180l-536 -1475h-248l-504 1319l-483 -1319h-176l536 1475h133zM1188 1577l-152 330h138l139 -252l272 252h168l-328 -330h-237z" />
    <glyph glyph-name="ncaron" unicode="&#x148;" horiz-adv-x="1953" 
d="M659 1475q55 -1 86 -13t48 -55l481 -1264l483 1332h180l-536 -1475h-248l-504 1319l-483 -1319h-176l536 1475h133zM1188 1577l-152 330h138l139 -252l272 252h168l-328 -330h-237z" />
    <glyph glyph-name="Eng" unicode="&#x14a;" horiz-adv-x="1953" 
d="M908 -532q-175 0 -304 63l55 152q119 -59 269 -60q78 0 136 52t87 130l72 199l-574 1319l-483 -1323h-176l536 1475h133q109 0 140 -68l510 -1171l450 1239h178l-608 -1684q-55 -155 -151 -239t-270 -84z" />
    <glyph glyph-name="eng" unicode="&#x14b;" horiz-adv-x="1953" 
d="M908 -532q-175 0 -304 63l55 152q119 -59 269 -60q78 0 136 52t87 130l72 199l-574 1319l-483 -1323h-176l536 1475h133q109 0 140 -68l510 -1171l450 1239h178l-608 -1684q-55 -155 -151 -239t-270 -84z" />
    <glyph glyph-name="Omacron" unicode="&#x14c;" horiz-adv-x="1845" 
d="M762 135q285 0 465 131t297 449q68 197 50 335q-17 138 -141 214t-350 75q-285 0 -463 -131t-294 -448q-114 -293 -6 -459t442 -166zM756 -20q-227 0 -380 66q-154 66 -218 178q-130 228 -1 576q128 348 353 522t584 173q530 0 639 -339q64 -200 -37 -470
q-134 -360 -358 -533t-582 -173zM1655 1700h-795l41 125h795z" />
    <glyph glyph-name="omacron" unicode="&#x14d;" horiz-adv-x="1845" 
d="M762 135q285 0 465 131t297 449q68 197 50 335q-17 138 -141 214t-350 75q-285 0 -463 -131t-294 -448q-114 -293 -6 -459t442 -166zM756 -20q-227 0 -380 66q-154 66 -218 178q-130 228 -1 576q128 348 353 522t584 173q530 0 639 -339q64 -200 -37 -470
q-134 -360 -358 -533t-582 -173zM1655 1700h-795l41 125h795z" />
    <glyph glyph-name="Obreve" unicode="&#x14e;" horiz-adv-x="1845" 
d="M762 135q285 0 465 131t297 449q68 197 50 335q-17 138 -141 214t-350 75q-285 0 -463 -131t-294 -448q-114 -293 -6 -459t442 -166zM756 -20q-227 0 -380 66q-154 66 -218 178q-130 228 -1 576q128 348 353 522t584 173q530 0 639 -339q64 -200 -37 -470
q-134 -360 -358 -533t-582 -173zM1245 1667q184 0 273 240h141q-70 -191 -169 -271t-255 -80q-155 0 -225 92t-9 259h140q-41 -119 -12 -180q30 -60 116 -60z" />
    <glyph glyph-name="obreve" unicode="&#x14f;" horiz-adv-x="1845" 
d="M762 135q285 0 465 131t297 449q68 197 50 335q-17 138 -141 214t-350 75q-285 0 -463 -131t-294 -448q-114 -293 -6 -459t442 -166zM756 -20q-227 0 -380 66q-154 66 -218 178q-130 228 -1 576q128 348 353 522t584 173q530 0 639 -339q64 -200 -37 -470
q-134 -360 -358 -533t-582 -173zM1245 1667q184 0 273 240h141q-70 -191 -169 -271t-255 -80q-155 0 -225 92t-9 259h140q-41 -119 -12 -180q30 -60 116 -60z" />
    <glyph glyph-name="Ohungarumlaut" unicode="&#x150;" horiz-adv-x="1845" 
d="M762 135q285 0 465 131t297 449q68 197 50 335q-17 138 -141 214t-350 75q-285 0 -463 -131t-294 -448q-114 -293 -6 -459t442 -166zM756 -20q-227 0 -380 66q-154 66 -218 178q-130 228 -1 576q128 348 353 522t584 173q530 0 639 -339q64 -200 -37 -470
q-134 -360 -358 -533t-582 -173zM1036 1577h-192l428 330h244zM1507 1577h-192l428 330h244z" />
    <glyph glyph-name="ohungarumlaut" unicode="&#x151;" horiz-adv-x="1845" 
d="M762 135q285 0 465 131t297 449q68 197 50 335q-17 138 -141 214t-350 75q-285 0 -463 -131t-294 -448q-114 -293 -6 -459t442 -166zM756 -20q-227 0 -380 66q-154 66 -218 178q-130 228 -1 576q128 348 353 522t584 173q530 0 639 -339q64 -200 -37 -470
q-134 -360 -358 -533t-582 -173zM1036 1577h-192l428 330h244zM1507 1577h-192l428 330h244z" />
    <glyph glyph-name="OE" unicode="&#x152;" horiz-adv-x="2613" 
d="M651 0q-304 0 -448 157q-143 157 -125 392q8 117 53 239q131 356 351 522t612 165h1677l-57 -156h-996l-182 -504h893l-57 -156h-893l-183 -503h996l-58 -156h-1583zM662 156h454l422 1163h-455q-319 0 -494 -124q-175 -125 -281 -417t-10 -457q94 -165 364 -165z" />
    <glyph glyph-name="oe" unicode="&#x153;" horiz-adv-x="2613" 
d="M651 0q-304 0 -448 157q-143 157 -125 392q8 117 53 239q131 356 351 522t612 165h1677l-57 -156h-996l-182 -504h893l-57 -156h-893l-183 -503h996l-58 -156h-1583zM662 156h454l422 1163h-455q-319 0 -494 -124q-175 -125 -281 -417t-10 -457q94 -165 364 -165z" />
    <glyph glyph-name="Racute" unicode="&#x154;" horiz-adv-x="1685" 
d="M1053 1475q367 -1 491 -149t29 -406q-125 -338 -518 -367l211 -553h-185l-192 532h-524l-195 -532h-180l536 1475h527zM1014 1319h-365l-229 -631h399q279 0 404 53t178 207q74 207 -8 289t-379 82zM1161 1577h-192l428 330h243z" />
    <glyph glyph-name="racute" unicode="&#x155;" horiz-adv-x="1685" 
d="M1053 1475q367 -1 491 -149t29 -406q-125 -338 -518 -367l211 -553h-185l-192 532h-524l-195 -532h-180l536 1475h527zM1014 1319h-365l-229 -631h399q279 0 404 53t178 207q74 207 -8 289t-379 82zM1161 1577h-192l428 330h243z" />
    <glyph glyph-name="Rcommaaccent" unicode="&#x156;" horiz-adv-x="1685" 
d="M244 -432h-193l432 330h244zM1053 1475q367 -1 491 -149t29 -406q-125 -338 -518 -367l211 -553h-185l-192 532h-524l-195 -532h-180l536 1475h527zM1014 1319h-365l-229 -631h399q279 0 404 53t178 207q74 207 -8 289t-379 82z" />
    <glyph glyph-name="rcommaaccent" unicode="&#x157;" horiz-adv-x="1685" 
d="M244 -432h-193l432 330h244zM1053 1475q367 -1 491 -149t29 -406q-125 -338 -518 -367l211 -553h-185l-192 532h-524l-195 -532h-180l536 1475h527zM1014 1319h-365l-229 -631h399q279 0 404 53t178 207q74 207 -8 289t-379 82z" />
    <glyph glyph-name="Rcaron" unicode="&#x158;" horiz-adv-x="1685" 
d="M1053 1475q367 -1 491 -149t29 -406q-125 -338 -518 -367l211 -553h-185l-192 532h-524l-195 -532h-180l536 1475h527zM1014 1319h-365l-229 -631h399q279 0 404 53t178 207q74 207 -8 289t-379 82zM973 1577l-152 330h137l140 -252l272 252h168l-328 -330h-237z" />
    <glyph glyph-name="rcaron" unicode="&#x159;" horiz-adv-x="1685" 
d="M1053 1475q367 -1 491 -149t29 -406q-125 -338 -518 -367l211 -553h-185l-192 532h-524l-195 -532h-180l536 1475h527zM1014 1319h-365l-229 -631h399q279 0 404 53t178 207q74 207 -8 289t-379 82zM973 1577l-152 330h137l140 -252l272 252h168l-328 -330h-237z" />
    <glyph glyph-name="Sacute" unicode="&#x15a;" 
d="M602 -20q-422 0 -694 129l61 172q305 -147 635 -148q410 0 494 229q51 119 2 194t-226 114l-274 61q-410 92 -285 447q55 154 209 236t440 81q286 0 621 -127l-55 -162q-291 137 -600 137q-197 0 -301 -49t-142 -149q-47 -101 -7 -165t200 -101l287 -66q217 -49 289 -177
t6 -313q-68 -185 -231 -264t-429 -79zM1100 1577h-193l428 330h244z" />
    <glyph glyph-name="sacute" unicode="&#x15b;" 
d="M602 -20q-422 0 -694 129l61 172q305 -147 635 -148q410 0 494 229q51 119 2 194t-226 114l-274 61q-410 92 -285 447q55 154 209 236t440 81q286 0 621 -127l-55 -162q-291 137 -600 137q-197 0 -301 -49t-142 -149q-47 -101 -7 -165t200 -101l287 -66q217 -49 289 -177
t6 -313q-68 -185 -231 -264t-429 -79zM1100 1577h-193l428 330h244z" />
    <glyph glyph-name="Scircumflex" unicode="&#x15c;" 
d="M602 -20q-422 0 -694 129l61 172q305 -147 635 -148q410 0 494 229q51 119 2 194t-226 114l-274 61q-410 92 -285 447q55 154 209 236t440 81q286 0 621 -127l-55 -162q-291 137 -600 137q-197 0 -301 -49t-142 -149q-47 -101 -7 -165t200 -101l287 -66q217 -49 289 -177
t6 -313q-68 -185 -231 -264t-429 -79zM1237 1577l-139 252l-273 -252h-170l328 330h238l151 -330h-135z" />
    <glyph glyph-name="scircumflex" unicode="&#x15d;" 
d="M602 -20q-422 0 -694 129l61 172q305 -147 635 -148q410 0 494 229q51 119 2 194t-226 114l-274 61q-410 92 -285 447q55 154 209 236t440 81q286 0 621 -127l-55 -162q-291 137 -600 137q-197 0 -301 -49t-142 -149q-47 -101 -7 -165t200 -101l287 -66q217 -49 289 -177
t6 -313q-68 -185 -231 -264t-429 -79zM1237 1577l-139 252l-273 -252h-170l328 330h238l151 -330h-135z" />
    <glyph glyph-name="Scedilla" unicode="&#x15e;" 
d="M348 -453q-158 0 -248 52l35 112q109 -41 209 -41t129 76q20 49 3 104t-83 138q-279 25 -485 121l61 172q305 -147 635 -148q410 0 494 229q51 119 2 194t-226 114l-274 61q-410 92 -285 447q55 154 209 236t440 81q286 0 621 -127l-55 -162q-291 137 -600 137
q-197 0 -301 -49t-142 -149q-47 -101 -7 -165t200 -101l287 -66q217 -49 289 -177t6 -313q-68 -185 -231 -265t-429 -78h-51q61 -88 75 -142t-12 -139q-55 -152 -266 -152z" />
    <glyph glyph-name="scedilla" unicode="&#x15f;" 
d="M348 -453q-158 0 -248 52l35 112q109 -41 209 -41t129 76q20 49 3 104t-83 138q-279 25 -485 121l61 172q305 -147 635 -148q410 0 494 229q51 119 2 194t-226 114l-274 61q-410 92 -285 447q55 154 209 236t440 81q286 0 621 -127l-55 -162q-291 137 -600 137
q-197 0 -301 -49t-142 -149q-47 -101 -7 -165t200 -101l287 -66q217 -49 289 -177t6 -313q-68 -185 -231 -265t-429 -78h-51q61 -88 75 -142t-12 -139q-55 -152 -266 -152z" />
    <glyph glyph-name="Scaron" unicode="&#x160;" 
d="M602 -20q-422 0 -694 129l61 172q305 -147 635 -148q410 0 494 229q51 119 2 194t-226 114l-274 61q-410 92 -285 447q55 154 209 236t440 81q286 0 621 -127l-55 -162q-291 137 -600 137q-197 0 -301 -49t-142 -149q-47 -101 -7 -165t200 -101l287 -66q217 -49 289 -177
t6 -313q-68 -185 -231 -264t-429 -79zM911 1577l-151 330h137l139 -252l273 252h168l-328 -330h-238z" />
    <glyph glyph-name="scaron" unicode="&#x161;" 
d="M602 -20q-422 0 -694 129l61 172q305 -147 635 -148q410 0 494 229q51 119 2 194t-226 114l-274 61q-410 92 -285 447q55 154 209 236t440 81q286 0 621 -127l-55 -162q-291 137 -600 137q-197 0 -301 -49t-142 -149q-47 -101 -7 -165t200 -101l287 -66q217 -49 289 -177
t6 -313q-68 -185 -231 -264t-429 -79zM911 1577l-151 330h137l139 -252l273 252h168l-328 -330h-238z" />
    <glyph glyph-name="Tcommaaccent" unicode="&#x162;" horiz-adv-x="1468" 
d="M72 -432h-193l432 330h244zM1671 1319h-612l-479 -1319h-181l480 1319h-615l58 156h1407z" />
    <glyph glyph-name="tcommaaccent" unicode="&#x163;" horiz-adv-x="1468" 
d="M72 -432h-193l432 330h244zM1671 1319h-612l-479 -1319h-181l480 1319h-615l58 156h1407z" />
    <glyph glyph-name="Tcaron" unicode="&#x164;" horiz-adv-x="1468" 
d="M1671 1319h-612l-479 -1319h-181l480 1319h-615l58 156h1407zM946 1577l-151 330h137l139 -252l272 252h168l-327 -330h-238z" />
    <glyph glyph-name="tcaron" unicode="&#x165;" horiz-adv-x="1468" 
d="M1671 1319h-612l-479 -1319h-181l480 1319h-615l58 156h1407zM946 1577l-151 330h137l139 -252l272 252h168l-327 -330h-238z" />
    <glyph glyph-name="Tbar" unicode="&#x166;" horiz-adv-x="1468" 
d="M1149 686h-320l-249 -686h-181l250 686h-360l45 125h360l185 508h-615l58 156h1407l-58 -156h-612l-185 -508h320z" />
    <glyph glyph-name="tbar" unicode="&#x167;" horiz-adv-x="1468" 
d="M1149 686h-320l-249 -686h-181l250 686h-360l45 125h360l185 508h-615l58 156h1407l-58 -156h-612l-185 -508h320z" />
    <glyph glyph-name="Utilde" unicode="&#x168;" horiz-adv-x="1775" 
d="M690 -20q-366 0 -492 170t-30 440l317 885h181l-320 -881q-88 -240 1 -350t368 -109q113 1 193 17t160 63q152 88 261 379l320 881h178l-320 -891q-125 -348 -310 -476t-507 -128zM1567 1626q-51 -62 -155 -61q-104 0 -176 84q-30 35 -56 69q-67 84 -118 83
q-50 -1 -77 -41t-78 -183h-129q80 219 130 281t152 61q102 0 178 -83q30 -34 56 -69q64 -84 117 -84t80 41t76 183h129q-78 -219 -129 -281z" />
    <glyph glyph-name="utilde" unicode="&#x169;" horiz-adv-x="1775" 
d="M690 -20q-366 0 -492 170t-30 440l317 885h181l-320 -881q-88 -240 1 -350t368 -109q113 1 193 17t160 63q152 88 261 379l320 881h178l-320 -891q-125 -348 -310 -476t-507 -128zM1567 1626q-51 -62 -155 -61q-104 0 -176 84q-30 35 -56 69q-67 84 -118 83
q-50 -1 -77 -41t-78 -183h-129q80 219 130 281t152 61q102 0 178 -83q30 -34 56 -69q64 -84 117 -84t80 41t76 183h129q-78 -219 -129 -281z" />
    <glyph glyph-name="Umacron" unicode="&#x16a;" horiz-adv-x="1775" 
d="M690 -20q-366 0 -492 170t-30 440l317 885h181l-320 -881q-88 -240 1 -350t368 -109q113 1 193 17t160 63q152 88 261 379l320 881h178l-320 -891q-125 -348 -310 -476t-507 -128zM1640 1700h-794l41 125h794z" />
    <glyph glyph-name="umacron" unicode="&#x16b;" horiz-adv-x="1775" 
d="M690 -20q-366 0 -492 170t-30 440l317 885h181l-320 -881q-88 -240 1 -350t368 -109q113 1 193 17t160 63q152 88 261 379l320 881h178l-320 -891q-125 -348 -310 -476t-507 -128zM1640 1700h-794l41 125h794z" />
    <glyph glyph-name="Ubreve" unicode="&#x16c;" horiz-adv-x="1775" 
d="M690 -20q-366 0 -492 170t-30 440l317 885h181l-320 -881q-88 -240 1 -350t368 -109q113 1 193 17t160 63q152 88 261 379l320 881h178l-320 -891q-125 -348 -310 -476t-507 -128zM1231 1667q184 0 272 240h142q-70 -191 -169 -271t-255 -80t-226 92t-8 259h139
q-41 -119 -11 -179t116 -61z" />
    <glyph glyph-name="ubreve" unicode="&#x16d;" horiz-adv-x="1775" 
d="M690 -20q-366 0 -492 170t-30 440l317 885h181l-320 -881q-88 -240 1 -350t368 -109q113 1 193 17t160 63q152 88 261 379l320 881h178l-320 -891q-125 -348 -310 -476t-507 -128zM1231 1667q184 0 272 240h142q-70 -191 -169 -271t-255 -80t-226 92t-8 259h139
q-41 -119 -11 -179t116 -61z" />
    <glyph glyph-name="Uring" unicode="&#x16e;" horiz-adv-x="1775" 
d="M690 -20q-366 0 -492 170t-30 440l317 885h181l-320 -881q-88 -240 1 -350t368 -109q113 1 193 17t160 63q152 88 261 379l320 881h178l-320 -891q-125 -348 -310 -476t-507 -128zM1210 1655q129 0 160 80q18 49 -12 71t-117 21q-135 0 -166 -80q-15 -51 15 -71t120 -21z
M1182 1556q-160 0 -220 56t-24 160q55 156 326 155q158 0 219 -56t26 -155q-59 -160 -327 -160z" />
    <glyph glyph-name="uring" unicode="&#x16f;" horiz-adv-x="1775" 
d="M690 -20q-366 0 -492 170t-30 440l317 885h181l-320 -881q-88 -240 1 -350t368 -109q113 1 193 17t160 63q152 88 261 379l320 881h178l-320 -891q-125 -348 -310 -476t-507 -128zM1210 1655q129 0 160 80q18 49 -12 71t-117 21q-135 0 -166 -80q-15 -51 15 -71t120 -21z
M1182 1556q-160 0 -220 56t-24 160q55 156 326 155q158 0 219 -56t26 -155q-59 -160 -327 -160z" />
    <glyph glyph-name="Uhungarumlaut" unicode="&#x170;" horiz-adv-x="1775" 
d="M690 -20q-366 0 -492 170t-30 440l317 885h181l-320 -881q-88 -240 1 -350t368 -109q113 1 193 17t160 63q152 88 261 379l320 881h178l-320 -891q-125 -348 -310 -476t-507 -128zM1022 1577h-193l428 330h244zM1493 1577h-193l429 330h243z" />
    <glyph glyph-name="uhungarumlaut" unicode="&#x171;" horiz-adv-x="1775" 
d="M690 -20q-366 0 -492 170t-30 440l317 885h181l-320 -881q-88 -240 1 -350t368 -109q113 1 193 17t160 63q152 88 261 379l320 881h178l-320 -891q-125 -348 -310 -476t-507 -128zM1022 1577h-193l428 330h244zM1493 1577h-193l429 330h243z" />
    <glyph glyph-name="Uogonek" unicode="&#x172;" horiz-adv-x="1775" 
d="M694 -453q-152 0 -222 74q-70 75 -30 181q39 106 146 182q-307 25 -409 190q-101 166 -11 416l317 885h181l-320 -881q-88 -240 1 -350t368 -109q113 1 193 17t160 63q152 88 261 379l320 881h178l-320 -891q-121 -334 -297 -465t-471 -139q-123 -90 -145 -183
q-33 -127 125 -127q92 0 182 29l-45 -125q-76 -27 -162 -27z" />
    <glyph glyph-name="uogonek" unicode="&#x173;" horiz-adv-x="1775" 
d="M694 -453q-152 0 -222 74q-70 75 -30 181q39 106 146 182q-307 25 -409 190q-101 166 -11 416l317 885h181l-320 -881q-88 -240 1 -350t368 -109q113 1 193 17t160 63q152 88 261 379l320 881h178l-320 -891q-121 -334 -297 -465t-471 -139q-123 -90 -145 -183
q-33 -127 125 -127q92 0 182 29l-45 -125q-76 -27 -162 -27z" />
    <glyph glyph-name="Wcircumflex" unicode="&#x174;" horiz-adv-x="2576" 
d="M1675 0h-188l-12 1317l-865 -1247q-49 -70 -127 -70h-172l-20 1475h174l10 -1332l909 1332h263l4 -1325l903 1325h211l-973 -1405q-49 -70 -117 -70zM1767 1577l-139 252l-272 -252h-170l327 330h238l152 -330h-136z" />
    <glyph glyph-name="wcircumflex" unicode="&#x175;" horiz-adv-x="2576" 
d="M1675 0h-188l-12 1317l-865 -1247q-49 -70 -127 -70h-172l-20 1475h174l10 -1332l909 1332h263l4 -1325l903 1325h211l-973 -1405q-49 -70 -117 -70zM1767 1577l-139 252l-272 -252h-170l327 330h238l152 -330h-136z" />
    <glyph glyph-name="Ycircumflex" unicode="&#x176;" horiz-adv-x="1597" 
d="M612 0h-180l244 666l-406 809h183l338 -684l849 684h228l-1016 -822zM1315 1577l-139 252l-273 -252h-170l328 330h237l152 -330h-135z" />
    <glyph glyph-name="ycircumflex" unicode="&#x177;" horiz-adv-x="1597" 
d="M612 0h-180l244 666l-406 809h183l338 -684l849 684h228l-1016 -822zM1315 1577l-139 252l-273 -252h-170l328 330h237l152 -330h-135z" />
    <glyph glyph-name="Ydieresis" unicode="&#x178;" horiz-adv-x="1597" 
d="M612 0h-180l244 666l-406 809h183l338 -684l849 684h228l-1016 -822zM1022 1659h-180l59 166h180zM1391 1659h-181l60 166h180z" />
    <glyph glyph-name="Zacute" unicode="&#x179;" horiz-adv-x="1601" 
d="M1233 0h-1335l28 80q14 41 70 84l1436 1155h-1031l58 156h1294l-45 -125l-1487 -1194h1067zM1223 1577h-193l428 330h244z" />
    <glyph glyph-name="zacute" unicode="&#x17a;" horiz-adv-x="1601" 
d="M1233 0h-1335l28 80q14 41 70 84l1436 1155h-1031l58 156h1294l-45 -125l-1487 -1194h1067zM1223 1577h-193l428 330h244z" />
    <glyph glyph-name="Zdotaccent" unicode="&#x17b;" horiz-adv-x="1601" 
d="M1233 0h-1335l28 80q14 41 70 84l1436 1155h-1031l58 156h1294l-45 -125l-1487 -1194h1067zM1251 1659h-180l59 166h181z" />
    <glyph glyph-name="zdotaccent" unicode="&#x17c;" horiz-adv-x="1601" 
d="M1233 0h-1335l28 80q14 41 70 84l1436 1155h-1031l58 156h1294l-45 -125l-1487 -1194h1067zM1251 1659h-180l59 166h181z" />
    <glyph glyph-name="Zcaron" unicode="&#x17d;" horiz-adv-x="1601" 
d="M1233 0h-1335l28 80q14 41 70 84l1436 1155h-1031l58 156h1294l-45 -125l-1487 -1194h1067zM1034 1577l-151 330h137l139 -252l273 252h167l-327 -330h-238z" />
    <glyph glyph-name="zcaron" unicode="&#x17e;" horiz-adv-x="1601" 
d="M1233 0h-1335l28 80q14 41 70 84l1436 1155h-1031l58 156h1294l-45 -125l-1487 -1194h1067zM1034 1577l-151 330h137l139 -252l273 252h167l-327 -330h-238z" />
    <glyph glyph-name="Scommaaccent" unicode="&#x218;" 
d="M141 -432h-192l432 330h244zM602 -20q-422 0 -694 129l61 172q305 -147 635 -148q410 0 494 229q51 119 2 194t-226 114l-274 61q-410 92 -285 447q55 154 209 236t440 81q286 0 621 -127l-55 -162q-291 137 -600 137q-197 0 -301 -49t-142 -149q-47 -101 -7 -165
t200 -101l287 -66q217 -49 289 -177t6 -313q-68 -185 -231 -264t-429 -79z" />
    <glyph glyph-name="scommaaccent" unicode="&#x219;" 
d="M141 -432h-192l432 330h244zM602 -20q-422 0 -694 129l61 172q305 -147 635 -148q410 0 494 229q51 119 2 194t-226 114l-274 61q-410 92 -285 447q55 154 209 236t440 81q286 0 621 -127l-55 -162q-291 137 -600 137q-197 0 -301 -49t-142 -149q-47 -101 -7 -165
t200 -101l287 -66q217 -49 289 -177t6 -313q-68 -185 -231 -264t-429 -79z" />
    <glyph glyph-name="circumflex" unicode="&#x2c6;" horiz-adv-x="1699" 
d="M1380 1577l-139 252l-272 -252h-170l327 330h238l152 -330h-136z" />
    <glyph glyph-name="caron" unicode="&#x2c7;" horiz-adv-x="1699" 
d="M1071 1577l-151 330h137l139 -252l272 252h168l-327 -330h-238z" />
    <glyph glyph-name="breve" unicode="&#x2d8;" horiz-adv-x="1697" 
d="M1192 1667q184 0 272 240h142q-70 -191 -169 -271t-255 -80t-226 92t-8 259h139q-41 -119 -11 -179t116 -61z" />
    <glyph glyph-name="dotaccent" unicode="&#x2d9;" horiz-adv-x="1699" 
d="M1278 1659h-180l59 166h180z" />
    <glyph glyph-name="ring" unicode="&#x2da;" horiz-adv-x="1701" 
d="M1206 1655q129 0 160 80q18 49 -12 71t-117 21q-135 0 -166 -80q-16 -51 14 -72q31 -20 121 -20zM1178 1556q-160 0 -220 56t-24 160q55 156 326 155q158 0 219 -56t26 -155q-59 -160 -327 -160z" />
    <glyph glyph-name="ogonek" unicode="&#x2db;" horiz-adv-x="1777" 
d="M684 -453q-152 0 -222 74t-27 194q42 120 202 203h149q-174 -111 -202 -221q-33 -127 125 -127q92 0 182 29l-45 -125q-76 -27 -162 -27z" />
    <glyph glyph-name="tilde" unicode="&#x2dc;" horiz-adv-x="1779" 
d="M1432 1683q54 0 80 41t75 183h129q-78 -219 -129 -281t-155 -61q-104 0 -176 84q-30 35 -56 69q-67 84 -118 83q-50 -1 -76 -41t-78 -183h-129q80 219 130 281t153 61q103 0 176 -83q30 -34 57 -69q64 -84 117 -84z" />
    <glyph glyph-name="hungarumlaut" unicode="&#x2dd;" horiz-adv-x="1697" 
d="M817 1577h-192l428 330h243zM1288 1577h-192l428 330h243z" />
    <glyph glyph-name="Delta" unicode="&#x394;" horiz-adv-x="1579" 
d="M1016 1475h174l123 -1475h-1518l1084 1405q53 70 137 70zM1126 156l-92 1222l-925 -1222h1017z" />
    <glyph glyph-name="Omega" unicode="&#x3a9;" horiz-adv-x="1845" 
d="M1094 1495q532 0 641 -339q63 -197 -39 -470q-141 -373 -451 -530h326l-58 -156h-657l49 135q219 55 372 195t247 385q68 190 50 328q-17 137 -142 217t-349 79q-545 0 -710 -456q-74 -193 -57 -345q33 -294 284 -403l-49 -135h-596l57 156h316q-143 116 -177 324t48 431
q217 584 895 584z" />
    <glyph glyph-name="mu" unicode="&#x3bc;" horiz-adv-x="2334" 
d="M676 1475q76 0 108 -26t39 -99l123 -1207l1088 1332h315l-537 -1475h-180l484 1327l-1096 -1327h-223l-144 1333l-487 -1333h-176l536 1475h150z" />
    <glyph glyph-name="pi" unicode="&#x3c0;" horiz-adv-x="1853" 
d="M1151 0l479 1319h-981l-479 -1319h-180l536 1475h1342l-537 -1475h-180z" />
    <glyph glyph-name="uni2009" unicode="&#x2009;" horiz-adv-x="61" 
 />
    <glyph glyph-name="endash" unicode="&#x2013;" horiz-adv-x="1433" 
d="M2 670l49 135h1383l-50 -135h-1382z" />
    <glyph glyph-name="emdash" unicode="&#x2014;" horiz-adv-x="2867" 
d="M2 670l49 135h2816l-49 -135h-2816z" />
    <glyph glyph-name="quoteleft" unicode="&#x2018;" horiz-adv-x="790" 
d="M705 1475h149l-326 -500h-233z" />
    <glyph glyph-name="quoteright" unicode="&#x2019;" horiz-adv-x="790" 
d="M444 975h-149l326 500h233z" />
    <glyph glyph-name="quotesinglbase" unicode="&#x201a;" horiz-adv-x="892" 
d="M57 -281h-149l325 500h234z" />
    <glyph glyph-name="quotedblleft" unicode="&#x201c;" horiz-adv-x="1302" 
d="M756 1475h149l-325 -500h-234zM1165 1475h150l-326 -500h-233z" />
    <glyph glyph-name="quotedblright" unicode="&#x201d;" horiz-adv-x="1302" 
d="M496 975h-150l326 500h233zM905 975h-149l325 500h234z" />
    <glyph glyph-name="quotedblbase" unicode="&#x201e;" horiz-adv-x="1302" 
d="M57 -281h-149l325 500h234zM467 -281h-150l326 500h234z" />
    <glyph glyph-name="dagger" unicode="&#x2020;" horiz-adv-x="942" 
d="M1077 952h-385l-346 -952h-160l346 952h-387l50 135h387l141 388h160l-142 -388h385z" />
    <glyph glyph-name="daggerdbl" unicode="&#x2021;" horiz-adv-x="942" 
d="M872 387h-387l-141 -387h-160l142 387h-385l49 135h385l155 430h-385l50 135h385l141 388h160l-142 -388h387l-49 -135h-387l-155 -430h387z" />
    <glyph glyph-name="bullet" unicode="&#x2022;" horiz-adv-x="962" 
d="M419 506q-140 0 -192 75q-51 75 -7 193t120 167q76 48 216 48t192 -75q52 -76 7 -194q-44 -118 -120 -166t-216 -48z" />
    <glyph glyph-name="ellipsis" unicode="&#x2026;" horiz-adv-x="2490" 
d="M301 0h-240l78 219h242zM1100 0h-240l78 219h242zM1898 0h-239l78 219h241z" />
    <glyph glyph-name="perthousand" unicode="&#x2030;" horiz-adv-x="3811" 
d="M1944 109q160 -1 252 75t158 254q64 178 11 276t-211 99q-158 0 -253 -77q-93 -77 -159 -254t-12 -275t214 -98zM3054 109q160 -1 252 75t158 254q64 178 11 276t-211 99q-158 0 -253 -77q-93 -77 -159 -254t-12 -275t214 -98zM1946 -14q-268 0 -356 147q-87 147 -5 369
t214 328q132 105 351 106q136 0 228 -41t130 -112t42 -165t-37 -196q-84 -228 -216 -332t-351 -104zM3056 -14q-268 0 -356 147q-87 147 -5 369t214 328q132 105 351 106q136 0 228 -41t130 -112t42 -165t-37 -196q-84 -228 -216 -332t-351 -104zM553 662q160 0 253 76
q94 76 158 253q64 179 11 277t-211 98t-254 -77q-94 -77 -160 -254t-11 -275q54 -98 214 -98zM1817 1475h188l-1116 -1473h-189zM555 539q-268 0 -355 147q-87 148 -5 370t214 327t351 106q135 0 227 -41t130 -112t42 -165t-37 -196q-84 -227 -216 -331t-351 -105z" />
    <glyph glyph-name="guilsinglleft" unicode="&#x2039;" horiz-adv-x="786" 
d="M690 1262h191l-594 -529l219 -520h-166l-242 535z" />
    <glyph glyph-name="guilsinglright" unicode="&#x203a;" horiz-adv-x="786" 
d="M100 213h-190l594 528l-219 521h166l241 -535z" />
    <glyph glyph-name="fraction" unicode="&#x2044;" horiz-adv-x="481" 
d="M707 1475h188l-1116 -1473h-189z" />
    <glyph glyph-name="zerosuperior" unicode="&#x2070;" horiz-adv-x="1110" 
d="M864 1642q-158 0 -254 -76q-94 -77 -159 -254t-12 -276q55 -98 215 -98t252 76t158 254q64 178 11 276t-211 98zM655 815q-268 -1 -355 147t-5 370t214 328t351 105q135 0 227 -41t131 -111q38 -71 42 -165t-37 -197q-85 -227 -217 -331t-351 -105z" />
    <glyph glyph-name="foursuperior" unicode="&#x2074;" horiz-adv-x="1042" 
d="M999 1751h199l-199 -543h170l-45 -121h-168l-94 -258h-160l95 258h-590l45 130l645 493q47 41 102 41zM840 1208l164 447l-576 -447h412z" />
    <glyph glyph-name="fivesuperior" unicode="&#x2075;" horiz-adv-x="1005" 
d="M584 815q-229 0 -394 84l48 121q176 -84 344 -84q285 0 333 139q33 86 -13 139q-72 82 -560 41l174 496h735l-43 -123h-583l-93 -248q143 8 209 9q227 1 303 -99t23 -250q-86 -225 -483 -225z" />
    <glyph glyph-name="sixsuperior" unicode="&#x2076;" horiz-adv-x="1019" 
d="M657 932q221 0 277 155q37 101 -14 157q-52 56 -196 56t-298 -53q-82 -315 231 -315zM637 815q-250 0 -339 152t-3 385t240 323q155 90 365 90t368 -63l-43 -121q-137 63 -308 63t-285 -60q-114 -62 -165 -214q129 45 317 45t272 -98q84 -97 32 -243t-161 -203
q-110 -56 -290 -56z" />
    <glyph glyph-name="sevensuperior" unicode="&#x2077;" horiz-adv-x="905" 
d="M412 829h-164l47 132q41 115 109 201t225 208l334 258h-603l48 123h823l-25 -65q-12 -31 -59 -74l-393 -303q-156 -119 -210 -190t-93 -183z" />
    <glyph glyph-name="eightsuperior" unicode="&#x2078;" horiz-adv-x="1095" 
d="M635 936q145 0 218 29t101 107t-28 125q-56 46 -204 46t-221 -28t-98 -97q-65 -182 232 -182zM779 1339q136 0 203 30q68 30 96 112q58 166 -212 166q-134 0 -200 -29t-95 -105q-29 -88 21 -131t187 -43zM635 815q-252 0 -349 85t-42 228q29 74 102 124q74 50 174 59
q-72 27 -98 95t3 148q30 80 97 129q68 49 149 65t197 17q234 0 326 -82t41 -217q-63 -164 -242 -192q82 -24 111 -94t-2 -150q-45 -119 -161 -167t-306 -48z" />
    <glyph glyph-name="ninesuperior" unicode="&#x2079;" horiz-adv-x="1019" 
d="M496 815q-180 0 -338 64l39 120q137 -63 310 -63t288 62t168 214q-137 -47 -301 -47q-209 -1 -293 99t-32 244t161 201q109 56 288 56q252 1 341 -151t3 -386t-239 -323q-153 -90 -395 -90zM706 1280q146 0 291 51q86 317 -229 318q-221 0 -276 -156q-35 -102 16 -158
q52 -55 198 -55z" />
    <glyph glyph-name="zeroinferior" unicode="&#x2080;" horiz-adv-x="1110" 
d="M462 537q-158 0 -252 -77t-160 -254q-66 -178 -12 -276t214 -98t253 76t157 254t12 276q-54 98 -212 99zM254 -291q-268 -1 -355 147t-5 370t214 328t351 105q135 0 227 -41q92 -42 130 -112t42 -164t-37 -197q-84 -227 -216 -331t-351 -105z" />
    <glyph glyph-name="oneinferior" unicode="&#x2081;" horiz-adv-x="679" 
d="M145 -276h-163l278 770l-358 -150l49 141l383 160h145z" />
    <glyph glyph-name="twoinferior" unicode="&#x2082;" horiz-adv-x="983" 
d="M543 -276h-817l32 88q18 51 66 73l442 244q20 10 60 33t56 32q144 76 169 156q33 90 -23 138t-206 48t-310 -42l47 129q135 37 297 36q224 0 316 -88t37 -239q-31 -91 -129 -158t-220 -131l-366 -197h594z" />
    <glyph glyph-name="threeinferior" unicode="&#x2083;" horiz-adv-x="1028" 
d="M163 -291q-214 0 -392 86l47 125q184 -90 354 -90q295 0 342 129q29 80 -12 135t-174 56h-291l37 104l524 268h-565l45 121h815l-23 -65q-20 -53 -61 -72l-487 -250h45q197 0 273 -93t28 -223q-47 -130 -169 -180q-122 -51 -336 -51z" />
    <glyph glyph-name="fourinferior" unicode="&#x2084;" horiz-adv-x="1042" 
d="M598 645h199l-199 -543h170l-45 -120h-168l-94 -258h-160l94 258h-590l45 129l646 493q47 41 102 41zM438 102l164 447l-575 -447h411z" />
    <glyph glyph-name="fiveinferior" unicode="&#x2085;" horiz-adv-x="1005" 
d="M182 -291q-229 0 -393 84l47 121q176 -84 344 -84q285 0 334 139q33 85 -13 139q-47 54 -227 54t-333 -12l174 495h735l-43 -123h-584l-92 -248q143 8 209 9q227 1 303 -99t23 -250q-87 -225 -484 -225z" />
    <glyph glyph-name="sixinferior" unicode="&#x2086;" horiz-adv-x="1019" 
d="M256 -174q221 0 276 156q76 212 -210 212q-144 0 -297 -53q-82 -315 231 -315zM498 659q210 0 368 -63l-43 -121q-137 63 -308 63t-285 -60q-114 -62 -164 -214q129 45 317 45t272 -98q84 -97 32 -243t-162 -202t-289 -57q-250 0 -339 152t-3 385t239 323q155 90 365 90z
" />
    <glyph glyph-name="seveninferior" unicode="&#x2087;" horiz-adv-x="905" 
d="M10 -276h-164l48 131q42 115 110 201t223 208l334 258h-602l47 123h823l-24 -65q-12 -31 -60 -74l-393 -303q-156 -119 -210 -190t-93 -183z" />
    <glyph glyph-name="eightinferior" unicode="&#x2088;" horiz-adv-x="1095" 
d="M233 -170q145 0 219 29q72 29 100 107t-28 125q-56 46 -204 46q-148 1 -221 -27t-97 -98q-66 -182 231 -182zM378 233q136 0 203 30t95 112q58 166 -211 166q-133 0 -200 -29q-67 -28 -95 -110t21 -126q51 -43 187 -43zM233 -291q-252 0 -349 85t-42 229q29 73 103 123
t174 59q-72 27 -99 95q-26 68 4 148t97 130q69 49 149 65t197 16q233 0 326 -81q92 -82 41 -218q-63 -164 -242 -192q82 -24 110 -94t-2 -150q-45 -119 -161 -167t-306 -48z" />
    <glyph glyph-name="nineinferior" unicode="&#x2089;" horiz-adv-x="1019" 
d="M94 -291q-180 0 -338 64l39 121q137 -64 310 -64t288 62t168 214q-137 -47 -301 -47q-209 -1 -293 99q-83 100 -31 244t160 201q109 56 289 56q252 1 341 -151t3 -385q-85 -233 -239 -323t-396 -91zM304 174q146 0 292 51q86 317 -229 318q-221 0 -277 -156
q-35 -102 16 -158q52 -55 198 -55z" />
    <glyph glyph-name="Euro" unicode="&#x20ac;" horiz-adv-x="1697" 
d="M963 -20q-303 0 -465 135t-158 379h-336l55 155h299q9 48 52 176h-285l55 156h297q137 274 346 394t473 120t510 -96l-57 -158q-219 98 -443 98t-382 -81q-156 -81 -265 -277h711l-55 -156h-725q-14 -29 -53 -176h712l-55 -155h-676q-4 -359 488 -359q213 0 405 60
l-55 -158q-164 -57 -393 -57z" />
    <glyph glyph-name="litre" unicode="&#x2113;" horiz-adv-x="1118" 
d="M846 1339q-40 0 -69 -10q-164 -55 -390 -670q-8 -23 -22 -65t-23 -62q418 188 559 576q35 96 34 149t-25 67t-64 15zM418 -31q-92 1 -143 13q-50 12 -95 54q-142 133 37 623q216 602 431 753q71 50 122 64t115 13q147 0 198 -98t-14 -273q-98 -250 -276 -440t-498 -320
q-27 -133 11 -181t148 -48t212 45l-58 -164q-98 -41 -190 -41z" />
    <glyph glyph-name="trademark" unicode="&#x2122;" horiz-adv-x="2504" 
d="M1178 1350h-363l-289 -797h-164l289 797h-362l45 125h889zM1538 1475q51 -1 74 -21t24 -72l64 -682l618 775h273l-336 -922h-164l291 795l-643 -795h-176l-70 809l-293 -809h-151l335 922h154z" />
    <glyph glyph-name="estimated" unicode="&#x212e;" horiz-adv-x="1673" 
d="M834 -29q-303 0 -519 220q-215 219 -215 529t214 527t518 217t517 -218q214 -218 214 -525q0 -20 -2 -33h-1211v-328q84 -118 211 -188t289 -70t304 92t208 246h149q-82 -207 -267 -338t-410 -131zM833 1333q-145 -1 -273 -67t-210 -183v-268h963v270q-82 115 -208 181
t-272 67z" />
    <glyph glyph-name="partialdiff" unicode="&#x2202;" horiz-adv-x="1523" 
d="M547 133q302 0 457 149q78 74 126 156t95 201q-158 75 -281 105q-124 30 -308 30t-296 -47t-160 -172q-70 -174 28 -298t339 -124zM682 930q283 0 596 -146q186 567 -465 568q-270 0 -491 -56l57 146q221 53 475 53q379 0 541 -201t45 -534q-54 -162 -104 -270t-125 -212
t-165 -164q-201 -135 -528 -134q-326 0 -463 174t-45 432q123 344 672 344z" />
    <glyph glyph-name="product" unicode="&#x220f;" horiz-adv-x="1853" 
d="M995 -430l635 1749h-981l-635 -1749h-180l692 1905h1342l-692 -1905h-181z" />
    <glyph glyph-name="summation" unicode="&#x2211;" horiz-adv-x="1601" 
d="M1077 -430h-1335l29 80q14 41 69 84l973 788l-426 828l45 125h1294l-57 -156h-1071l373 -727q23 -43 8 -84l-23 -64l-890 -718h1067z" />
    <glyph glyph-name="minus" unicode="&#x2212;" horiz-adv-x="1697" 
d="M233 664l54 149h1181l-53 -149h-1182z" />
    <glyph glyph-name="radical" unicode="&#x221a;" horiz-adv-x="1288" 
d="M217 0l25 913h164l-21 -763l920 1325h176l-1024 -1475h-240z" />
    <glyph glyph-name="infinity" unicode="&#x221e;" horiz-adv-x="1660" 
d="M387 502q63 0 134 44t117 91t130 141q-25 113 -66 171q-42 59 -142 59q-205 1 -302 -267q-46 -125 -14 -182t143 -57zM1120 512q206 0 303 266q45 125 14 183q-32 57 -143 57q-63 0 -134 -44t-117 -91t-128 -142q25 -113 65 -171t140 -58zM1075 371q-123 -1 -183 65
t-91 182q-236 -248 -457 -247q-124 0 -190 51t-70 137t33 199q63 178 187 284t302 107q126 0 186 -66t89 -182q240 248 456 248q123 0 190 -51t71 -137t-33 -199q-63 -178 -187 -284t-303 -107z" />
    <glyph glyph-name="integral" unicode="&#x222b;" horiz-adv-x="1024" 
d="M-136 -432q-176 0 -290 59l55 152q115 -55 223 -55t183 72q74 72 135 243l358 993q90 250 201 356t286 105q175 0 290 -59l-56 -152q-115 55 -223 55q-108 1 -182 -71t-135 -244l-359 -993q-90 -250 -200 -356q-110 -105 -286 -105z" />
    <glyph glyph-name="approxequal" unicode="&#x2248;" horiz-adv-x="1701" 
d="M1027 348q-93 0 -176 41t-153 81t-134 40t-118 -27t-137 -106l-67 106q172 176 317 176q104 0 187 -41q83 -40 153 -80t134 -40q65 0 119 26t138 107l68 -107q-90 -90 -164 -133t-167 -43zM1198 819q-92 0 -176 41t-154 81t-134 40t-118 -27t-137 -106l-67 106
q172 176 317 176q102 0 186 -40t154 -81q70 -40 134 -40q65 1 119 27t138 106l68 -107q-90 -90 -164 -133t-166 -43z" />
    <glyph glyph-name="notequal" unicode="&#x2260;" horiz-adv-x="1697" 
d="M1325 418h-723l-280 -268h-181l281 268h-279l56 149h379l358 342h-614l55 150h715l280 268h180l-280 -268h287l-56 -150h-387l-358 -342h622z" />
    <glyph glyph-name="lessequal" unicode="&#x2264;" horiz-adv-x="1697" 
d="M31 123l55 149h1182l-56 -149h-1181zM1294 346l-1036 397l86 240l1327 397l-59 -170l-1194 -358l932 -356z" />
    <glyph glyph-name="greaterequal" unicode="&#x2265;" horiz-adv-x="1699" 
d="M1212 123h-1181l55 149h1182zM115 346l59 170l1194 358l-932 357l56 149l1036 -397l-86 -240z" />
    <glyph glyph-name="lozenge" unicode="&#x25ca;" horiz-adv-x="1165" 
d="M377 764l6 -623l418 570l-6 622zM217 0l-6 782l510 693h240l6 -783l-510 -692h-240z" />
    <glyph glyph-name="dotlessj" unicode="&#xf6be;" horiz-adv-x="1175" 
d="M204 -20q-249 0 -417 83l55 152q162 -80 379 -80q317 1 432 316l373 1024h178l-370 -1035q-88 -248 -234 -354t-396 -106z" />
    <glyph glyph-name="commaaccent" unicode="&#xf6c3;" horiz-adv-x="1699" 
d="M311 -432h-192l432 330h244z" />
    <glyph glyph-name="caron.alt" horiz-adv-x="1699" 
d="M889 975h-139l325 500h193z" />
    <glyph glyph-name="germandbls.cap" horiz-adv-x="3088" 
d="M602 -20q-422 0 -694 129l61 172q305 -147 635 -148q410 0 494 229q51 119 2 194t-226 114l-274 61q-410 92 -285 447q55 154 209 236t440 81q286 0 621 -127l-55 -162q-291 137 -600 137q-197 0 -301 -49t-142 -149q-47 -101 -7 -165t200 -101l287 -66q217 -49 289 -177
t6 -313q-68 -185 -231 -264t-429 -79zM2146 -20q-422 0 -694 129l61 172q305 -147 635 -148q410 0 494 229q51 119 2 194t-225 114l-275 61q-410 92 -284 447q54 154 208 236t440 81q286 0 621 -127l-55 -162q-291 137 -600 137q-197 0 -301 -49t-141 -149q-47 -102 -8 -166
q40 -63 200 -100l287 -66q217 -49 290 -177t5 -313t-231 -264t-429 -79z" />
    <glyph glyph-name="i.trk" horiz-adv-x="692" 
d="M170 0h-180l536 1475h181zM774 1659h-180l59 166h181z" />
    <glyph glyph-name="dollar.lt" horiz-adv-x="1699" 
d="M680 -20h-16l-76 -205h-160l76 211q-303 20 -518 123l61 172q250 -121 512 -144l211 578l-92 20q-410 92 -285 443q55 154 209 236t440 81h33l68 184h160l-72 -196q211 -29 432 -115l-55 -162q-209 98 -432 125l-185 -510l53 -12q219 -49 291 -175t4 -311t-230 -265
q-163 -78 -429 -78zM952 674l-32 8l-201 -549q377 8 457 229q51 119 2 196q-50 77 -226 116zM1008 1343q-197 0 -301 -49t-142 -149q-47 -102 -7 -168t200 -103l84 -18l178 487h-12z" />
    <glyph glyph-name="Euro.lt" horiz-adv-x="1699" 
d="M963 -20q-303 0 -465 135t-158 379h-336l55 155h299q9 48 52 176h-285l55 156h297q137 274 346 394t473 120t510 -96l-57 -158q-219 98 -443 98t-382 -81q-156 -81 -265 -277h711l-55 -156h-725q-14 -29 -53 -176h712l-55 -155h-676q-4 -359 488 -359q213 0 405 60
l-55 -158q-164 -57 -393 -57z" />
    <glyph glyph-name="cent.lt" horiz-adv-x="1699" 
d="M817 61q-57 0 -84 2l-106 -288h-160l113 311q-260 60 -352 252t12 481q205 563 823 592l98 268h160l-98 -268q221 -16 415 -94l-57 -158q-193 88 -414 96l-379 -1036q25 -2 74 -2q274 0 467 59l-57 -157q-162 -58 -455 -58zM406 778q-152 -446 231 -538l369 1013
q-461 -45 -600 -475z" />
    <glyph glyph-name="sterling.lt" horiz-adv-x="1699" 
d="M1331 1350q-420 0 -534 -316l-19 -53h662l-56 -156h-663l-64 -176h662l-55 -155h-664l-41 -113q-57 -160 -209 -225h955l-58 -156h-1327l55 147l88 19q256 51 328 252l27 76h-283l55 155h285l64 176h-283l55 156h283l22 63q88 244 268 353t448 109q266 0 433 -85
l-55 -151q-162 80 -379 80z" />
    <glyph glyph-name="yen.lt" horiz-adv-x="1699" 
d="M1296 494h-446l-180 -494h-181l181 494h-441l56 155h442l64 176h-441l56 156h352l-391 494h208l359 -463l682 463h256l-748 -494h349l-56 -156h-446l-64 -176h445z" />
    <glyph glyph-name="zero.lt" horiz-adv-x="1699" 
d="M1010 1339q-266 0 -434 -131t-283 -448q-109 -287 -7 -456t406 -169q266 0 434 131t283 449q109 287 7 455t-406 169zM1020 1495q170 0 297 -43q236 -80 302 -297q61 -196 -38 -469q-131 -360 -344 -533t-555 -173q-496 0 -599 339q-63 200 38 469q131 360 345 534
t554 173z" />
    <glyph glyph-name="one.lt" horiz-adv-x="1699" 
d="M817 0h-180l467 1282l-723 -301l63 180l752 314h158z" />
    <glyph glyph-name="two.lt" horiz-adv-x="1699" 
d="M907 1337q-219 0 -467 -69l62 170q186 57 454 57q340 0 484 -141t59 -381q-54 -160 -276 -302q-129 -83 -273 -157l-667 -358h1009l-57 -156h-1274l43 121q20 55 82 90l737 405q31 18 107 58t102 57q26 16 91 54q64 38 112 84q49 45 67 75t29 62q57 162 -39 246t-385 85z
" />
    <glyph glyph-name="three.lt" horiz-adv-x="1699" 
d="M616 -20q-328 0 -616 143l61 166q307 -154 578 -154q506 0 588 232q56 117 -14 233q-31 49 -113 80t-207 31h-461l47 135l895 471h-938l58 156h1273l-28 -80q-20 -57 -70 -84l-854 -447h86q317 0 446 -152q128 -153 51 -361t-265 -289q-189 -80 -517 -80z" />
    <glyph glyph-name="four.lt" horiz-adv-x="1699" 
d="M1362 1475h213l-322 -883h285l-57 -156h-283l-160 -436h-180l160 436h-973l55 156l1121 838q59 45 141 45zM1073 592l275 756l-1014 -756h739z" />
    <glyph glyph-name="five.lt" horiz-adv-x="1699" 
d="M674 -20q-350 0 -615 137l62 159q287 -141 557 -141q487 0 575 252q55 154 -25 249q-81 95 -364 95t-563 -20l270 764h1141l-57 -156h-961l-162 -445q190 12 354 12q305 1 443 -110q187 -151 86 -438q-129 -358 -741 -358z" />
    <glyph glyph-name="six.lt" horiz-adv-x="1699" 
d="M762 133q206 -1 324 63t167 203q63 182 -26 279q-89 96 -345 96t-536 -92q-63 -262 36 -406t380 -143zM735 -20q-383 0 -520 242t6 636q123 346 369 492t618 145q266 0 514 -102l-53 -158q-227 104 -501 104t-477 -110q-202 -110 -294 -383q238 84 518 84q332 0 464 -159
t40 -409q-75 -206 -245 -294t-439 -88z" />
    <glyph glyph-name="seven.lt" horiz-adv-x="1699" 
d="M498 0h-181l60 174q59 178 178 326t389 387l486 432h-1010l57 156h1274l-29 -80q-12 -35 -69 -84l-588 -516q-269 -238 -365 -360t-157 -302z" />
    <glyph glyph-name="eight.lt" horiz-adv-x="1699" 
d="M654 137q268 0 400 49t175 172q53 150 -49 229t-372 79t-402 -48q-131 -48 -173 -167q-55 -154 49 -234t372 -80zM904 811q247 0 367 50q120 49 169 191t-44 215t-341 73t-368 -50q-120 -49 -167 -180q-51 -152 43 -226t341 -73zM659 -18q-385 0 -535 133t-61 366
q43 115 159 194t270 95q-109 43 -148 153t8 226q74 197 248 271t449 75q362 0 503 -131t60 -348q-48 -119 -148 -200t-237 -105q129 -41 174 -152t-4 -231q-74 -197 -259 -272q-186 -74 -479 -74z" />
    <glyph glyph-name="nine.lt" horiz-adv-x="1699" 
d="M496 -20q-266 0 -514 102l51 156q223 -102 501 -102t479 109q202 110 294 384q-238 -84 -519 -84q-332 1 -464 159t-39 408q74 205 244 294q171 89 440 89q383 0 520 -242t-6 -637q-123 -346 -369 -491t-618 -145zM823 700q255 0 535 93q63 262 -36 405t-380 143
q-207 0 -325 -63t-166 -203q-130 -375 372 -375z" />
    <glyph glyph-name="zero.numr" horiz-adv-x="1110" 
d="M553 662q160 0 253 76q94 76 158 253q64 179 11 277t-211 98t-254 -77q-94 -77 -160 -254t-11 -275q54 -98 214 -98zM555 539q-268 0 -355 147q-87 148 -5 370t214 327t351 106q135 0 227 -41t130 -112t42 -165t-37 -196q-84 -227 -216 -331t-351 -105z" />
    <glyph glyph-name="one.numr" horiz-adv-x="679" 
d="M446 553h-163l278 770l-358 -149l49 141l383 160h145z" />
    <glyph glyph-name="two.numr" horiz-adv-x="983" 
d="M624 1366q-150 0 -311 -43l47 129q135 37 297 37q223 0 315 -88t38 -240q-31 -92 -129 -158q-97 -66 -219 -131l-367 -196h594l-45 -123h-817l32 88q18 51 66 74l442 243q19 10 59 33t57 32q143 76 169 157q34 90 -22 138t-206 48z" />
    <glyph glyph-name="three.numr" horiz-adv-x="1028" 
d="M464 539q-214 0 -392 86l47 125q184 -90 354 -91q295 0 342 129q29 80 -12 136t-174 55h-291l37 104l524 269h-565l45 121h815l-23 -66q-20 -53 -61 -72l-487 -250h45q196 0 272 -93t29 -222t-169 -180t-336 -51z" />
    <glyph glyph-name="four.numr" horiz-adv-x="1042" 
d="M899 1475h199l-199 -543h170l-45 -121h-168l-94 -258h-160l94 258h-590l46 129l645 494q47 41 102 41zM739 932l164 446l-575 -446h411z" />
    <glyph glyph-name="five.numr" horiz-adv-x="1005" 
d="M483 539q-229 0 -393 84l47 120q176 -84 344 -84q285 0 334 140q33 86 -13 139t-226 53t-334 -12l174 496h735l-43 -123h-584l-92 -248q143 8 209 8q227 0 303 -99t23 -249q-87 -225 -484 -225z" />
    <glyph glyph-name="six.numr" horiz-adv-x="1019" 
d="M557 655q221 0 277 156q38 101 -14 157t-196 56t-298 -53q-82 -316 231 -316zM537 539q-250 -1 -339 151t-3 386t239 323q154 90 395 90q178 0 338 -64l-43 -120q-137 63 -308 63t-285 -61t-164 -213q129 45 317 45q188 -1 272 -99t32 -244t-162 -201q-110 -56 -289 -56z
" />
    <glyph glyph-name="seven.numr" horiz-adv-x="905" 
d="M311 553h-164l48 131q41 115 109 202q69 87 224 208l334 258h-602l47 123h823l-24 -66q-12 -31 -59 -74l-394 -303q-156 -120 -210 -190t-93 -183z" />
    <glyph glyph-name="eight.numr" horiz-adv-x="1095" 
d="M535 659q145 0 218 29q73 30 101 108t-28 124t-204 47q-148 0 -222 -28q-73 -28 -97 -97q-65 -183 232 -183zM679 1063q136 0 203 30q68 29 96 111q58 166 -212 166q-133 0 -200 -29q-68 -29 -96 -111t22 -124q50 -43 187 -43zM535 539q-252 0 -350 85q-97 85 -42 228
q29 74 103 124t174 58q-72 26 -98 94t3 149q30 81 97 130q68 49 148 65t198 17q234 0 326 -82t41 -217q-63 -164 -242 -193q82 -25 111 -95t-3 -148q-45 -119 -161 -167t-305 -48z" />
    <glyph glyph-name="nine.numr" horiz-adv-x="1019" 
d="M395 539q-178 0 -338 63l39 121q137 -63 310 -63t288 62t168 214q-137 -47 -301 -47q-209 0 -293 99q-84 100 -32 244t161 201q109 56 289 56q252 0 341 -152t3 -385t-240 -323t-395 -90zM605 1004q146 0 292 51q86 317 -229 317q-221 0 -277 -155q-35 -101 17 -157
t197 -56z" />
    <glyph glyph-name="zero.dnom" horiz-adv-x="1110" 
d="M352 109q160 -1 253 75t157 254t12 276q-54 98 -212 99q-158 0 -252 -77t-160 -254t-12 -275t214 -98zM354 -14q-268 0 -355 147t-5 369t214 328q132 105 351 106q135 0 227 -41t130 -112t42 -165t-36 -196q-84 -227 -216 -332q-133 -104 -352 -104z" />
    <glyph glyph-name="one.dnom" horiz-adv-x="679" 
d="M246 0h-164l278 770l-358 -149l49 141l383 160h146z" />
    <glyph glyph-name="two.dnom" horiz-adv-x="983" 
d="M424 813q-150 0 -311 -43l47 129q135 37 297 37q223 0 315 -88t37 -240q-31 -92 -129 -159t-219 -130l-367 -196h594l-45 -123h-817l33 88q18 51 65 74l443 244q20 10 59 32t56 32q143 76 169 157q33 90 -22 138t-205 48z" />
    <glyph glyph-name="three.dnom" horiz-adv-x="1028" 
d="M263 -14q-214 0 -392 86l47 125q184 -90 354 -91q295 0 342 130q29 80 -12 135t-174 55h-291l37 104l524 269h-565l45 121h815l-22 -66q-20 -53 -62 -72l-487 -250h45q197 0 273 -93t28 -222q-47 -129 -169 -180t-336 -51z" />
    <glyph glyph-name="four.dnom" horiz-adv-x="1042" 
d="M698 922h199l-199 -543h170l-45 -121h-168l-94 -258h-160l95 258h-590l45 129l645 494q47 41 102 41zM539 379l163 446l-575 -446h412z" />
    <glyph glyph-name="five.dnom" horiz-adv-x="1005" 
d="M283 -14q-229 0 -394 84l48 120q176 -84 344 -84q285 0 333 140q33 86 -13 139q-47 53 -227 53t-333 -12l174 496h735l-43 -123h-583l-93 -248q143 8 209 8q227 0 303 -99t23 -249q-86 -225 -483 -225z" />
    <glyph glyph-name="six.dnom" horiz-adv-x="1019" 
d="M356 102q221 0 277 156q37 102 -15 158t-195 55q-144 0 -298 -53q-82 -316 231 -316zM336 -14q-250 0 -339 152t-3 384q86 234 239 324q154 90 396 90q178 0 338 -64l-43 -120q-137 63 -308 63t-285 -61t-165 -213q130 45 318 45t272 -98t31 -244q-51 -146 -161 -202
t-290 -56z" />
    <glyph glyph-name="seven.dnom" horiz-adv-x="905" 
d="M111 0h-164l47 131q41 115 109 202q69 87 225 208l334 258h-603l47 123h824l-25 -66q-12 -31 -59 -74l-393 -303q-156 -119 -210 -189t-93 -184z" />
    <glyph glyph-name="eight.dnom" horiz-adv-x="1095" 
d="M334 106q145 0 218 29q72 29 100 107t-27 126q-55 46 -203 46t-222 -28q-73 -28 -98 -97q-65 -183 232 -183zM478 510q136 0 203 30t95 112q58 166 -211 165q-133 0 -199 -29t-96 -104q-28 -88 22 -131t186 -43zM334 -14q-252 0 -349 85t-42 228q29 74 102 124
q74 50 174 58q-73 27 -99 95t4 148q30 81 97 130q68 50 149 66t197 16q233 0 325 -82t42 -217q-63 -164 -242 -193q82 -24 111 -94t-2 -149q-45 -119 -161 -167t-306 -48z" />
    <glyph glyph-name="nine.dnom" horiz-adv-x="1019" 
d="M195 -14q-178 0 -338 63l39 121q137 -64 310 -64t288 62t168 215q-137 -47 -324 -47q-186 0 -270 99t-32 243t161 202q109 56 288 56q252 0 341 -152t3 -385t-239 -323t-395 -90zM405 451q146 0 291 51q86 317 -229 317q-221 0 -277 -155q-35 -102 17 -158t198 -55z" />
    <glyph glyph-name="numero" horiz-adv-x="3055" 
d="M2666 246h-794l41 125h794zM659 1475q55 -1 86 -13t48 -55l481 -1264l483 1332h180l-536 -1475h-248l-504 1319l-483 -1319h-176l536 1475h133zM2626 1366q-158 0 -252 -77t-160 -254t-11 -275q54 -98 214 -98t253 76t157 253q64 178 12 277q-55 98 -213 98zM2419 539
q-268 0 -356 147q-87 148 -5 370t214 327t351 106q135 0 227 -41t131 -112q38 -71 42 -165t-37 -196q-84 -227 -216 -331t-351 -105z" />
    <glyph glyph-name="bar.alt" horiz-adv-x="0" 
d="M-10 -530v2457h20v-2457h-20z" />
    <glyph glyph-name="space.alt" horiz-adv-x="446" 
 />
    </font>
</defs>
</svg>
