<?xml version="1.0" standalone="no"?>
<!DOCTYPE svg PUBLIC "-//W3C//DTD SVG 1.1//EN" "http://www.w3.org/Graphics/SVG/1.1/DTD/svg11.dtd" >
<svg xmlns="http://www.w3.org/2000/svg">
<metadata>
Created by FontPrep 20130207 at Thu May 10 15:01:12 2018
 By Mauricio Duran
Mathieu Reguer for Michelin
</metadata>
<defs>
<font id="f49887e077cd472d4e9cf26b345853c6" horiz-adv-x='1024' >
  <font-face 
    font-family="Michelin-Bold"
    font-weight="700"
    font-style="italic"
    font-stretch="semi-condensed"
    units-per-em="2048"
    panose-1="2 0 0 0 0 0 0 0 0 0"
    ascent="1536"
    descent="-512"
    x-height="1475"
    cap-height="1475"
    bbox="-457 -532 3801.19 1927"
    underline-thickness="305"
    underline-position="-57"
    slope="-20"
    unicode-range="U+0020-F6C3"
  />
<missing-glyph horiz-adv-x="940" 
d="M426 313q-74 -1 -119 -45t-45 -117t45 -119t119 -46t118 45t44 119t-44 118t-118 45zM465 1061q-418 0 -418 -359l289 -20q0 78 28 109t85 30q102 0 102 -73v-13q0 -49 -57 -69l-43 -19q-94 -37 -125 -97t-21 -202h244q0 58 14 76t80 49l72 31q158 74 157 264v12
q0 127 -102 204t-305 77zM-43 -348v1843h1026v-1843h-1026z" />
    <glyph glyph-name=".notdef" horiz-adv-x="940" 
d="M426 313q-74 -1 -119 -45t-45 -117t45 -119t119 -46t118 45t44 119t-44 118t-118 45zM465 1061q-418 0 -418 -359l289 -20q0 78 28 109t85 30q102 0 102 -73v-13q0 -49 -57 -69l-43 -19q-94 -37 -125 -97t-21 -202h244q0 58 14 76t80 49l72 31q158 74 157 264v12
q0 127 -102 204t-305 77zM-43 -348v1843h1026v-1843h-1026z" />
    <glyph glyph-name=".null" horiz-adv-x="0" 
 />
    <glyph glyph-name="nonmarkingreturn" horiz-adv-x="681" 
 />
    <glyph glyph-name="space" unicode=" " horiz-adv-x="614" 
 />
    <glyph glyph-name="exclam" unicode="!" horiz-adv-x="804" 
d="M381 0h-490l129 352h488zM494 514h-357l182 696l97 265h512l-94 -265z" />
    <glyph glyph-name="quotedbl" unicode="&#x22;" horiz-adv-x="1474" 
d="M690 903h-381l105 397l61 175h477l-61 -175zM1274 903h-381l104 397l62 175h477l-61 -175z" />
    <glyph glyph-name="numbersign" unicode="#" 
d="M729 -2l119 326h-293l-119 -326h-375l119 326h-256l99 272h258l100 281h-250l98 272h252l119 326h375l-119 -326h293l119 326h374l-118 -326h256l-99 -272h-258l-100 -281h250l-98 -272h-252l-119 -326h-375zM948 596l101 281h-293l-101 -281h293z" />
    <glyph glyph-name="dollar" unicode="$" horiz-adv-x="1701" 
d="M588 309h4l102 277l-88 12q-270 33 -353 168t-7 345t280 305q205 95 541 95h16l62 168h178l-63 -176q254 -20 479 -102l-121 -338q-215 92 -481 100l-90 -243l57 -9q186 -25 288 -102q101 -78 112 -191t-38 -251q-86 -221 -286 -313q-201 -91 -533 -91l-69 -188h-181
l70 192q-311 16 -559 113l125 340q109 -47 261 -79t294 -32zM905 559l-39 4l-90 -248q182 16 219 103q45 116 -90 141zM803 950l71 -8l80 221q-108 -5 -162 -27t-72 -70t2 -76q18 -28 81 -40z" />
    <glyph glyph-name="percent" unicode="%" horiz-adv-x="2803" 
d="M2222 711q-72 -1 -115 -51t-92 -184t-35 -200t90 -66t120 52q42 51 94 189q90 260 -62 260zM2058 -25q-295 0 -396 155t-12 389q89 235 219 331t372 96q293 0 393 -154t12 -397q-90 -227 -219 -323t-369 -97zM733 1264q-72 0 -115 -50t-92 -185q-48 -134 -34 -200
q14 -65 90 -65t118 51t95 189q90 260 -62 260zM1767 1475h381l-1108 -1475h-383zM569 528q-295 0 -396 155t-12 389t219 330t372 97q293 1 393 -153t12 -398q-90 -228 -219 -324t-369 -96z" />
    <glyph glyph-name="ampersand" unicode="&#x26;" horiz-adv-x="2019" 
d="M932 1509q297 0 425 -130t68 -312q-45 -137 -150 -213t-263 -123l153 -151l156 157h473l-387 -395l346 -342h-545l-116 111q-218 -147 -568 -147t-487 140q-137 141 -51 375q41 113 148 191q108 78 276 108q-86 114 -100 222t34 237q100 272 588 272zM628 270
q108 0 224 70l-250 238q-59 -20 -89 -48t-48 -77q-33 -87 11 -135t152 -48zM901 1208q-113 0 -143 -80q-42 -111 67 -213l9 -6q84 31 124 65t63 94q22 60 -10 100t-110 40z" />
    <glyph glyph-name="quotesingle" unicode="'" horiz-adv-x="802" 
d="M647 903h-381l105 397l61 175h477l-61 -175z" />
    <glyph glyph-name="parenleft" unicode="(" horiz-adv-x="1054" 
d="M590 -307h-326q-162 225 -192 526q-31 301 78 629q207 598 772 934h430q-270 -182 -465 -458t-294 -552t-100 -581t97 -498z" />
    <glyph glyph-name="parenright" unicode=")" horiz-adv-x="1054" 
d="M471 1782h326q163 -224 193 -526q44 -430 -182 -865q-225 -434 -669 -698h-430q270 183 465 459t294 552t100 580q1 305 -97 498z" />
    <glyph glyph-name="asterisk" unicode="*" horiz-adv-x="1118" 
d="M815 520l-160 271l-159 -271l-244 174l211 240l-309 67l92 285l291 -127l-31 316h301l-31 -316l289 127l94 -285l-309 -69l209 -238z" />
    <glyph glyph-name="plus" unicode="+" 
d="M1386 584h-436l-159 -437h-308l160 437h-436l110 307h437l159 436h308l-160 -436h436z" />
    <glyph glyph-name="comma" unicode="," horiz-adv-x="806" 
d="M115 -219h-361l326 571h483z" />
    <glyph glyph-name="hyphen" unicode="-" horiz-adv-x="804" 
d="M-14 553l133 371h704l-135 -371h-702z" />
    <glyph glyph-name="period" unicode="." horiz-adv-x="804" 
d="M381 0h-490l129 352h488z" />
    <glyph glyph-name="slash" unicode="/" horiz-adv-x="1263" 
d="M1202 1782h445l-1581 -2089h-445z" />
    <glyph glyph-name="zero" unicode="0" horiz-adv-x="1763" 
d="M1011 1147q-132 0 -207 -83t-157 -312q-161 -424 121 -424q121 0 195 84t159 311q153 424 -111 424zM737 -37q-557 0 -681 355q-75 216 38 520q137 366 346 520t590 153q236 1 398 -67t233 -186q72 -118 79 -278t-67 -343q-139 -365 -347 -519t-589 -155z" />
    <glyph glyph-name="one" unicode="1" horiz-adv-x="1193" 
d="M756 0h-580l381 1044l-477 -198l147 405l539 224h526z" />
    <glyph glyph-name="two" unicode="2" horiz-adv-x="1556" 
d="M659 1163q-201 0 -462 -73l129 352q285 70 542 69q426 0 586 -143t64 -393q-25 -69 -97 -162q-71 -93 -255 -189q-72 -38 -106 -56t-128 -62l-289 -150h737l-129 -356h-1439l84 219q35 94 76 147q42 52 118 91l606 323q66 37 104 61q38 23 79 63t55 81q30 84 -22 131
t-253 47z" />
    <glyph glyph-name="three" unicode="3" horiz-adv-x="1632" 
d="M550 -37q-386 0 -687 121l125 338q248 -111 542 -111q190 0 274 23t109 86q29 68 -10 108t-149 41h-482l103 293l602 256h-750l129 357h1424l-80 -209q-37 -98 -79 -152t-112 -84l-467 -215q294 -6 392 -143t16 -359q-72 -188 -293 -269t-607 -81z" />
    <glyph glyph-name="four" unicode="4" horiz-adv-x="1697" 
d="M1522 330h-207l-121 -330h-549l121 330h-848l148 399l679 608q145 137 265 138h721l-299 -822h208zM883 653l223 613l-655 -613h432z" />
    <glyph glyph-name="five" unicode="5" horiz-adv-x="1607" 
d="M537 -37q-385 0 -678 119l123 336q244 -106 538 -107q186 0 270 24t111 89q31 80 -16 123t-189 43q-270 0 -594 -21l326 906h1317l-129 -355h-828l-73 -209q263 28 477 -25q214 -54 273 -206q56 -138 -21 -334q-80 -209 -301 -296t-606 -87z" />
    <glyph glyph-name="six" unicode="6" horiz-adv-x="1697" 
d="M758 281q104 0 163 44q58 44 91 136q72 211 -187 211q-119 0 -250 -39q-57 -186 -13 -269t196 -83zM723 -37q-475 0 -632 242t-15 631t396 532t654 143t678 -102l-118 -336q-209 92 -510 92q-219 0 -332 -55t-166 -182q168 41 326 41q336 0 486 -160t50 -426
q-84 -229 -269 -325t-548 -95z" />
    <glyph glyph-name="seven" unicode="7" horiz-adv-x="1525" 
d="M573 0h-579l57 170q45 135 108 220q62 85 218 222l573 508h-800l129 355h1484l-80 -209q-32 -80 -61 -113t-39 -43t-47 -42t-43 -38l-619 -547q-123 -106 -172 -172t-79 -159z" />
    <glyph glyph-name="eight" unicode="8" horiz-adv-x="1720" 
d="M719 289q104 0 162 35q57 35 90 120q76 207 -162 207q-105 0 -163 -36t-87 -117q-78 -209 160 -209zM900 834q106 0 159 34q51 35 86 125q33 91 -4 141t-143 50t-159 -35q-52 -35 -86 -125q-35 -90 3 -140t144 -50zM691 -35q-383 0 -566 95t-181 248q1 75 25 159
q100 272 484 299q-135 33 -190 143q-54 111 -3 256q70 195 256 271t508 75q422 0 589 -130t91 -353q-47 -137 -158 -219t-266 -98q158 -27 216 -145t-1 -269q-63 -174 -242 -253t-562 -79z" />
    <glyph glyph-name="nine" unicode="9" horiz-adv-x="1697" 
d="M543 -37q-362 0 -645 103l118 335q203 -90 512 -90q219 1 330 55t166 181q-168 -41 -324 -41q-338 0 -488 159t-50 427q86 229 271 324t548 95q475 1 632 -241t7 -649q-135 -371 -389 -515t-688 -143zM877 803q121 0 251 39q57 186 14 269q-44 83 -198 83
q-102 0 -162 -44t-92 -136q-71 -211 187 -211z" />
    <glyph glyph-name="colon" unicode=":" horiz-adv-x="890" 
d="M424 0h-490l129 352h488zM670 672h-490l129 352h488z" />
    <glyph glyph-name="semicolon" unicode=";" horiz-adv-x="890" 
d="M158 -219h-361l326 571h483zM670 672h-490l129 352h488z" />
    <glyph glyph-name="less" unicode="&#x3c;" 
d="M1235 170l-1057 340l166 455l1303 340l-117 -328l-965 -242l789 -241z" />
    <glyph glyph-name="equal" unicode="=" 
d="M111 324l112 307h1180l-111 -307h-1181zM301 846l111 307h1181l-112 -307h-1180z" />
    <glyph glyph-name="greater" unicode="&#x3e;" 
d="M55 170l119 328l963 241l-787 242l117 324l1057 -340l-164 -455z" />
    <glyph glyph-name="question" unicode="?" horiz-adv-x="1429" 
d="M514 0h-487l129 352h485zM634 1182q-208 0 -413 -58l123 338q219 53 535 54q369 0 507 -159t46 -405q-123 -328 -605 -364l-174 -15l-32 -88h-392l123 349l289 24q129 10 189 40t88 106q28 78 -24 128t-260 50z" />
    <glyph glyph-name="at" unicode="@" horiz-adv-x="2113" 
d="M950 539q82 0 180 90l113 305h-119q-92 0 -150 -45t-96 -152t-24 -153t96 -45zM894 -41q-286 0 -478 67q-190 67 -277 184q-86 118 -97 280t67 354q135 368 402 520t728 152q227 0 396 -46t267 -123q97 -77 145 -181q90 -196 -1 -447q-78 -207 -203 -309t-351 -102
t-280 149q-96 -76 -178 -110t-194 -34q-221 0 -297 129t-2 332t226 290q153 87 372 87h530l-182 -500q-27 -83 -9 -113t87 -30q68 0 131 66t101 170q38 106 41 183t-29 153t-101 129q-70 54 -200 88t-308 34q-342 0 -541 -117t-301 -399q-114 -300 3 -485t561 -187
q287 0 585 99l-73 -205q-254 -78 -540 -78z" />
    <glyph glyph-name="A" unicode="A" horiz-adv-x="1964" 
d="M1026 1475h672v-1475h-543l6 256h-612l-170 -256h-600l913 1286q70 102 147 146t187 43zM1169 610l15 604l-402 -604h387z" />
    <glyph glyph-name="B" unicode="B" horiz-adv-x="1945" 
d="M1473 1475q275 0 383 -128t40 -317q-48 -131 -156 -207t-263 -92q161 -27 227 -145t6 -280t-209 -234q-150 -72 -428 -72h-1167l536 1475h1031zM1028 604h-323l-97 -264h348q100 0 151 22q50 23 73 82q55 160 -152 160zM1176 1135h-277l-92 -252h262q104 0 158 26
q53 27 76 90q49 136 -127 136z" />
    <glyph glyph-name="C" unicode="C" horiz-adv-x="1722" 
d="M1028 342q252 0 459 53l-139 -381q-197 -51 -486 -51q-520 0 -710 237t-37 652q136 373 441 523q280 138 679 136q322 0 602 -100l-131 -367q-206 90 -444 90t-382 -84t-220 -300t20 -312t348 -96z" />
    <glyph glyph-name="D" unicode="D" horiz-adv-x="1966" 
d="M1157 1475q613 0 737 -335q76 -204 -32 -499q-125 -345 -377 -493t-643 -148h-936l536 1475h715zM1112 1120h-219l-279 -764h232q180 0 286 82q105 82 179 281q75 199 27 300t-226 101z" />
    <glyph glyph-name="E" unicode="E" horiz-adv-x="1695" 
d="M-94 0l536 1475h1420l-123 -340h-840l-82 -226h756l-127 -340h-754l-84 -229h840l-123 -340h-1419z" />
    <glyph glyph-name="F" unicode="F" horiz-adv-x="1634" 
d="M1417 487h-753l-179 -487h-579l536 1475h1420l-129 -355h-840l-100 -278h757z" />
    <glyph glyph-name="G" unicode="G" horiz-adv-x="1886" 
d="M995 328q49 0 76 2l131 364h547l-242 -667q-258 -63 -633 -64q-528 0 -720 236t-39 653q136 373 445 523q285 138 685 136q326 0 633 -110l-131 -367q-227 100 -472 100t-392 -84q-147 -86 -223 -304t10 -318t325 -100z" />
    <glyph glyph-name="H" unicode="H" horiz-adv-x="2007" 
d="M989 0l201 553h-504l-201 -553h-579l536 1475h580l-201 -551h504l201 551h579l-536 -1475h-580z" />
    <glyph glyph-name="I" unicode="I" horiz-adv-x="923" 
d="M485 0h-579l536 1475h580z" />
    <glyph glyph-name="J" unicode="J" horiz-adv-x="1339" 
d="M256 356q198 0 272 205l334 914h580l-373 -1029q-100 -274 -268 -378t-470 -104t-524 89l136 369q150 -66 313 -66z" />
    <glyph glyph-name="K" unicode="K" horiz-adv-x="2000" 
d="M1120 0l-268 553h-166l-201 -553h-579l536 1475h580l-201 -551h148l620 551h604l-850 -773l377 -702h-600z" />
    <glyph glyph-name="L" unicode="L" horiz-adv-x="1570" 
d="M-94 0l536 1475h580l-401 -1104h759l-135 -371h-1339z" />
    <glyph glyph-name="M" unicode="M" horiz-adv-x="2695" 
d="M1067 1475q117 -1 163 -59t44 -183l10 -645l612 887h897l-534 -1475h-586l389 1065l-762 -1065h-499l4 1090l-397 -1090h-502l536 1475h625z" />
    <glyph glyph-name="N" unicode="N" horiz-adv-x="2168" 
d="M1069 1475q199 0 199 -224l92 -868l397 1092h504l-537 -1475h-831l-92 1079l-393 -1079h-502l536 1475h627z" />
    <glyph glyph-name="O" unicode="O" horiz-adv-x="2031" 
d="M901 328q174 0 282 81q109 81 187 295t23 328q-55 115 -243 115t-297 -81q-108 -81 -183 -290q-162 -448 231 -448zM844 -37q-272 0 -454 67q-182 66 -262 182q-79 116 -87 274t68 343q135 367 391 525t696 157q633 0 767 -348q81 -209 -34 -516q-137 -369 -392 -527
t-693 -157z" />
    <glyph glyph-name="P" unicode="P" horiz-adv-x="1835" 
d="M1186 1475q550 0 657 -270q67 -162 -20 -402q-102 -274 -330 -371q-207 -88 -541 -88h-342l-125 -344h-579l536 1475h744zM1065 1135h-166l-164 -451h154q178 0 254 42t119 161q51 127 8 187t-205 61z" />
    <glyph glyph-name="Q" unicode="Q" horiz-adv-x="2031" 
d="M901 328q174 0 282 81q109 81 187 295t23 328q-55 115 -243 115t-297 -81q-108 -81 -183 -290q-162 -448 231 -448zM1012 -514q-313 0 -426 117t-31 383q-532 96 -512 546q6 137 66 297q135 367 391 525t696 157q633 0 767 -348q81 -209 -40 -535q-121 -325 -351 -485
t-611 -178q-25 -88 17 -126t149 -38t204 19l-110 -314q-90 -20 -209 -20z" />
    <glyph glyph-name="R" unicode="R" horiz-adv-x="1896" 
d="M1231 1475q422 0 568 -159t42 -448q-59 -164 -179 -246t-310 -110l225 -512h-596l-156 426h-184l-156 -426h-579l536 1475h789zM1073 1135h-174l-135 -369h164q168 0 238 29t106 133q45 98 2 152t-201 55z" />
    <glyph glyph-name="S" unicode="S" horiz-adv-x="1638" 
d="M616 -37q-449 0 -741 117l125 340q110 -47 262 -79t304 -32t222 24q72 24 99 85q45 113 -90 139l-224 39q-512 86 -358 514q76 211 280 306t556 95t655 -110l-121 -338q-242 102 -534 102q-137 0 -199 -20q-62 -19 -84 -73q-20 -54 -3 -81t83 -41l225 -39
q535 -88 361 -544q-84 -221 -285 -313t-533 -91z" />
    <glyph glyph-name="T" unicode="T" horiz-adv-x="1589" 
d="M1665 1104h-438l-402 -1104h-579l401 1104h-452l135 371h1470z" />
    <glyph glyph-name="U" unicode="U" horiz-adv-x="1929" 
d="M846 336q118 0 194 55t134 215l315 869h579l-309 -852q-133 -371 -362 -515t-655 -144t-594 177q-167 178 -54 486l309 848h580l-313 -867q-102 -272 176 -272z" />
    <glyph glyph-name="V" unicode="V" horiz-adv-x="1974" 
d="M270 0v1475h572l-13 -1135l752 1135h619l-914 -1287q-72 -102 -146 -145t-182 -43h-688z" />
    <glyph glyph-name="W" unicode="W" horiz-adv-x="3016" 
d="M2101 0h-633l136 1102l-498 -914q-92 -188 -330 -188h-571l86 1475h571l-92 -1137l614 1137h779l-154 -1145l657 1145h556l-779 -1287q-109 -188 -342 -188z" />
    <glyph glyph-name="X" unicode="X" horiz-adv-x="1935" 
d="M1047 0l-148 496l-481 -496h-656l801 772l-246 703h576l147 -498l484 498h653l-803 -775l248 -700h-575z" />
    <glyph glyph-name="Y" unicode="Y" horiz-adv-x="1937" 
d="M983 0h-580l199 543l-332 932h543l188 -541l555 541h652l-1041 -969z" />
    <glyph glyph-name="Z" unicode="Z" horiz-adv-x="1751" 
d="M1397 0h-1547l74 195q31 80 71 130t109 99l947 696h-756l129 355h1474l-124 -332l-1090 -787h842z" />
    <glyph glyph-name="bracketleft" unicode="[" horiz-adv-x="1081" 
d="M-156 -305l760 2085h744l-111 -303h-336l-539 -1479h332l-110 -303h-740z" />
    <glyph glyph-name="backslash" unicode="\" horiz-adv-x="1148" 
d="M770 1782v-2089h-387v2089h387z" />
    <glyph glyph-name="bracketright" unicode="]" horiz-adv-x="1081" 
d="M-262 -305l110 303h338l537 1479h-332l111 303h739l-758 -2085h-745z" />
    <glyph glyph-name="asciicircum" unicode="^" horiz-adv-x="1579" 
d="M932 150l61 935l-717 -935h-352l918 1175h452l-61 -1175h-301z" />
    <glyph glyph-name="underscore" unicode="_" horiz-adv-x="1433" 
d="M-430 -512l111 303h1384l-111 -303h-1384z" />
    <glyph glyph-name="grave" unicode="`" horiz-adv-x="1761" 
d="M1143 1577l-264 330h538l201 -330h-475z" />
    <glyph glyph-name="a" unicode="a" horiz-adv-x="1964" 
d="M1026 1475h672v-1475h-543l6 256h-612l-170 -256h-600l913 1286q70 102 147 146t187 43zM1169 610l15 604l-402 -604h387z" />
    <glyph glyph-name="b" unicode="b" horiz-adv-x="1945" 
d="M1473 1475q275 0 383 -128t40 -317q-48 -131 -156 -207t-263 -92q161 -27 227 -145t6 -280t-209 -234q-150 -72 -428 -72h-1167l536 1475h1031zM1028 604h-323l-97 -264h348q100 0 151 22q50 23 73 82q55 160 -152 160zM1176 1135h-277l-92 -252h262q104 0 158 26
q53 27 76 90q49 136 -127 136z" />
    <glyph glyph-name="c" unicode="c" horiz-adv-x="1722" 
d="M1028 342q252 0 459 53l-139 -381q-197 -51 -486 -51q-520 0 -710 237t-37 652q136 373 441 523q280 138 679 136q322 0 602 -100l-131 -367q-206 90 -444 90t-382 -84t-220 -300t20 -312t348 -96z" />
    <glyph glyph-name="d" unicode="d" horiz-adv-x="1966" 
d="M1157 1475q613 0 737 -335q76 -204 -32 -499q-125 -345 -377 -493t-643 -148h-936l536 1475h715zM1112 1120h-219l-279 -764h232q180 0 286 82q105 82 179 281q75 199 27 300t-226 101z" />
    <glyph glyph-name="e" unicode="e" horiz-adv-x="1695" 
d="M-94 0l536 1475h1420l-123 -340h-840l-82 -226h756l-127 -340h-754l-84 -229h840l-123 -340h-1419z" />
    <glyph glyph-name="f" unicode="f" horiz-adv-x="1634" 
d="M1417 487h-753l-179 -487h-579l536 1475h1420l-129 -355h-840l-100 -278h757z" />
    <glyph glyph-name="g" unicode="g" horiz-adv-x="1886" 
d="M995 328q49 0 76 2l131 364h547l-242 -667q-258 -63 -633 -64q-528 0 -720 236t-39 653q136 373 445 523q285 138 685 136q326 0 633 -110l-131 -367q-227 100 -472 100t-392 -84q-147 -86 -223 -304t10 -318t325 -100z" />
    <glyph glyph-name="h" unicode="h" horiz-adv-x="2007" 
d="M989 0l201 553h-504l-201 -553h-579l536 1475h580l-201 -551h504l201 551h579l-536 -1475h-580z" />
    <glyph glyph-name="i" unicode="i" horiz-adv-x="923" 
d="M485 0h-579l536 1475h580z" />
    <glyph glyph-name="j" unicode="j" horiz-adv-x="1339" 
d="M256 356q198 0 272 205l334 914h580l-373 -1029q-100 -274 -268 -378t-470 -104t-524 89l136 369q150 -66 313 -66z" />
    <glyph glyph-name="k" unicode="k" horiz-adv-x="2000" 
d="M1120 0l-268 553h-166l-201 -553h-579l536 1475h580l-201 -551h148l620 551h604l-850 -773l377 -702h-600z" />
    <glyph glyph-name="l" unicode="l" horiz-adv-x="1564" 
d="M-94 0l536 1475h580l-401 -1104h759l-135 -371h-1339z" />
    <glyph glyph-name="m" unicode="m" horiz-adv-x="2695" 
d="M1067 1475q117 -1 163 -59t44 -183l10 -645l612 887h897l-534 -1475h-586l389 1065l-762 -1065h-499l4 1090l-397 -1090h-502l536 1475h625z" />
    <glyph glyph-name="n" unicode="n" horiz-adv-x="2168" 
d="M1069 1475q199 0 199 -224l92 -868l397 1092h504l-537 -1475h-831l-92 1079l-393 -1079h-502l536 1475h627z" />
    <glyph glyph-name="o" unicode="o" horiz-adv-x="2031" 
d="M901 328q174 0 282 81q109 81 187 295t23 328q-55 115 -243 115t-297 -81q-108 -81 -183 -290q-162 -448 231 -448zM844 -37q-272 0 -454 67q-182 66 -262 182q-79 116 -87 274t68 343q135 367 391 525t696 157q633 0 767 -348q81 -209 -34 -516q-137 -369 -392 -527
t-693 -157z" />
    <glyph glyph-name="p" unicode="p" horiz-adv-x="1835" 
d="M1186 1475q550 0 657 -270q67 -162 -20 -402q-102 -274 -330 -371q-207 -88 -541 -88h-342l-125 -344h-579l536 1475h744zM1065 1135h-166l-164 -451h154q178 0 254 42t119 161q51 127 8 187t-205 61z" />
    <glyph glyph-name="q" unicode="q" horiz-adv-x="2031" 
d="M901 328q174 0 282 81q109 81 187 295t23 328q-55 115 -243 115t-297 -81q-108 -81 -183 -290q-162 -448 231 -448zM1012 -514q-313 0 -426 117t-31 383q-532 96 -512 546q6 137 66 297q135 367 391 525t696 157q633 0 767 -348q81 -209 -40 -535q-121 -325 -351 -485
t-611 -178q-25 -88 17 -126t149 -38t204 19l-110 -314q-90 -20 -209 -20z" />
    <glyph glyph-name="r" unicode="r" horiz-adv-x="1896" 
d="M1231 1475q422 0 568 -159t42 -448q-59 -164 -179 -246t-310 -110l225 -512h-596l-156 426h-184l-156 -426h-579l536 1475h789zM1073 1135h-174l-135 -369h164q168 0 238 29t106 133q45 98 2 152t-201 55z" />
    <glyph glyph-name="s" unicode="s" horiz-adv-x="1638" 
d="M616 -37q-449 0 -741 117l125 340q110 -47 262 -79t304 -32t222 24q72 24 99 85q45 113 -90 139l-224 39q-512 86 -358 514q76 211 280 306t556 95t655 -110l-121 -338q-242 102 -534 102q-137 0 -199 -20q-62 -19 -84 -73q-20 -54 -3 -81t83 -41l225 -39
q535 -88 361 -544q-84 -221 -285 -313t-533 -91z" />
    <glyph glyph-name="t" unicode="t" horiz-adv-x="1579" 
d="M1665 1104h-438l-402 -1104h-579l401 1104h-452l135 371h1470z" />
    <glyph glyph-name="u" unicode="u" horiz-adv-x="1929" 
d="M846 336q118 0 194 55t134 215l315 869h579l-309 -852q-133 -371 -362 -515t-655 -144t-594 177q-167 178 -54 486l309 848h580l-313 -867q-102 -272 176 -272z" />
    <glyph glyph-name="v" unicode="v" horiz-adv-x="1974" 
d="M270 0v1475h572l-13 -1135l752 1135h619l-914 -1287q-72 -102 -146 -145t-182 -43h-688z" />
    <glyph glyph-name="w" unicode="w" horiz-adv-x="3016" 
d="M2101 0h-633l136 1102l-498 -914q-92 -188 -330 -188h-571l86 1475h571l-92 -1137l614 1137h779l-154 -1145l657 1145h556l-779 -1287q-109 -188 -342 -188z" />
    <glyph glyph-name="x" unicode="x" horiz-adv-x="1935" 
d="M1047 0l-148 496l-481 -496h-656l801 772l-246 703h576l147 -498l484 498h653l-803 -775l248 -700h-575z" />
    <glyph glyph-name="y" unicode="y" horiz-adv-x="1937" 
d="M983 0h-580l199 543l-332 932h543l188 -541l555 541h652l-1041 -969z" />
    <glyph glyph-name="z" unicode="z" horiz-adv-x="1751" 
d="M1397 0h-1547l74 195q31 80 71 130t109 99l947 696h-756l129 355h1474l-124 -332l-1090 -787h842z" />
    <glyph glyph-name="braceleft" unicode="{" horiz-adv-x="1206" 
d="M1120 1786q194 0 328 -47l-90 -262q-76 20 -166 20t-130 -36t-75 -132l-84 -231q-61 -164 -126 -224t-214 -79q197 -100 94 -379l-104 -281q-73 -164 90 -164q63 0 174 6l-100 -264q-143 -16 -293 -16q-204 0 -274 129t10 340l135 371q27 69 7 97t-93 28h-115l113 309h96
q84 -1 125 23t66 87l137 375q63 170 179 250t310 80z" />
    <glyph glyph-name="bar" unicode="|" horiz-adv-x="942" 
d="M651 1782h406l-762 -2089h-406z" />
    <glyph glyph-name="braceright" unicode="}" horiz-adv-x="1208" 
d="M98 -303q-188 0 -334 47l91 264q76 -20 167 -20t130 36t75 132l84 231q59 162 124 221t214 82q-195 100 -92 377l102 283q76 161 -88 161q-63 0 -174 -6l101 264q115 17 305 17t260 -128t-10 -341l-133 -371q-27 -70 -9 -96t95 -27h114l-112 -309h-97q-84 0 -126 -24
t-64 -87l-139 -376q-61 -170 -178 -250q-118 -80 -306 -80z" />
    <glyph glyph-name="asciitilde" unicode="~" horiz-adv-x="1503" 
d="M958 487q-134 0 -249 82t-209 81t-217 -136l-129 221q178 203 378 203q92 0 171 -41t147 -81t131 -40q100 0 227 135l127 -223q-178 -201 -377 -201z" />
    <glyph glyph-name="exclamdown" unicode="&#xa1;" horiz-adv-x="804" 
d="M311 961h357l-183 -697l-96 -264h-512l94 264zM424 1475h489l-129 -353h-487z" />
    <glyph glyph-name="cent" unicode="&#xa2;" 
d="M1075 1030q-125 -14 -207 -74t-130 -199q-48 -138 -18 -210t144 -94zM1092 1413q104 0 122 -2l99 268h178l-105 -284q158 -25 312 -80l-131 -367q-168 68 -312 84l-217 -592q221 4 400 52l-140 -381q-184 -45 -397 -50l-104 -286h-181l107 293q-346 36 -485 238t-24 530
t376 460q125 63 261 90q137 27 241 27z" />
    <glyph glyph-name="sterling" unicode="&#xa3;" 
d="M1299 1516q325 0 550 -91l-135 -366q-143 63 -342 63q-116 0 -188 -39t-111 -127h402l-62 -170h-403l-37 -100h405l-63 -170h-410q-55 -104 -151 -160h694l-129 -356h-1438l105 287l131 37q90 24 136 64t75 120l2 8h-236l64 170h233l37 100h-235l61 170h233l23 62
q90 244 277 371t512 127z" />
    <glyph glyph-name="currency" unicode="&#xa4;" 
d="M795 526q88 0 140 42t91 153q72 233 -119 233q-88 0 -141 -42t-90 -152q-71 -234 119 -234zM736 305q-107 0 -191 33l-254 -186l-152 237l215 158q-18 109 27 242t106 212l-79 127l266 193l100 -160q70 15 184 15t207 -35l256 188l150 -237l-223 -164q18 -104 -27 -242
q-47 -129 -113 -211l86 -135l-274 -190l-105 167q-72 -12 -179 -12z" />
    <glyph glyph-name="yen" unicode="&#xa5;" 
d="M1436 516h-396l-188 -516h-580l189 516h-400l64 170h399l37 100h-401l65 170h299l-202 519h509l130 -345l327 345h602l-569 -519h278l-65 -170h-393l-37 -100h395z" />
    <glyph glyph-name="brokenbar" unicode="&#xa6;" horiz-adv-x="962" 
d="M190 516h406l-301 -823h-406zM1057 1782l-301 -824h-406l301 824h406z" />
    <glyph glyph-name="section" unicode="&#xa7;" horiz-adv-x="1372" 
d="M432 -37q-284 0 -479 76l96 270q65 -29 183 -49t220 -20t144 12q41 12 53 45q18 53 -51 68l-188 34q-205 33 -272 128t-17 223q31 80 89 126t157 78q-129 104 -58 295q47 133 195 197t434 63q285 0 481 -73l-96 -271q-67 29 -185 49t-220 20t-142 -11q-41 -12 -53 -45
q-18 -53 51 -68l189 -37q205 -33 271 -127t17 -221q-31 -82 -88 -127t-155 -80q125 -104 55 -295q-47 -133 -197 -197t-434 -63zM588 641l203 -37q72 41 90 117q23 92 -97 113l-200 36q-72 -39 -92 -116q-23 -93 96 -113z" />
    <glyph glyph-name="dieresis" unicode="&#xa8;" horiz-adv-x="1761" 
d="M1141 1597h-426l104 289h426zM1677 1597h-426l107 289h426z" />
    <glyph glyph-name="copyright" unicode="&#xa9;" horiz-adv-x="2113" 
d="M1279 952q-146 0 -228 -46t-124 -166t13 -168q54 -48 200 -48t287 31l-100 -272q-131 -31 -307 -31q-344 0 -467 148t-25 415q81 231 282 324q177 82 414 83q238 1 418 -61l-92 -262q-125 53 -271 53zM922 143q344 0 540 116t301 398q254 674 -565 674q-346 0 -541 -116
t-301 -398q-255 -674 566 -674zM883 -41q-524 0 -724 245t-50 640q135 368 399 520t731 152q520 0 720 -245q199 -245 57 -627t-406 -534t-727 -151z" />
    <glyph glyph-name="ordfeminine" unicode="&#xaa;" horiz-adv-x="1249" 
d="M924 180h-977l84 232h977zM735 1475h441l-7 -922h-352l4 154h-375l-102 -154h-389l565 801q82 121 215 121zM827 938l13 365l-242 -365h229z" />
    <glyph glyph-name="guillemotleft" unicode="&#xab;" horiz-adv-x="1601" 
d="M1260 1262h417l-487 -541l106 -508h-378l-150 535zM614 1262h418l-487 -541l106 -508h-379l-149 535z" />
    <glyph glyph-name="logicalnot" unicode="&#xac;" 
d="M1227 147h-307l157 437h-870l110 307h1180z" />
    <glyph glyph-name="registered" unicode="&#xae;" horiz-adv-x="2113" 
d="M1290 1231q238 0 332 -115t29 -285q-39 -100 -114 -149t-200 -66l144 -307h-391l-91 248h-94l-90 -248h-395l336 922h534zM1171 1006h-102l-82 -224h103q82 0 118 20t60 83q40 121 -97 121zM922 143q344 0 540 116t301 398q254 674 -565 674q-346 0 -541 -116t-301 -398
q-255 -674 566 -674zM883 -41q-524 0 -724 245t-50 640q135 368 399 520t731 152q520 0 720 -245q199 -245 57 -627t-406 -534t-727 -151z" />
    <glyph glyph-name="macron" unicode="&#xaf;" horiz-adv-x="1761" 
d="M1720 1630h-1040l84 234h1040z" />
    <glyph glyph-name="degree" unicode="&#xb0;" horiz-adv-x="1425" 
d="M750 778q110 0 176 48t112 178q94 272 -145 272q-111 0 -177 -48t-112 -177q-98 -273 146 -273zM711 543q-342 -1 -456 149t-25 388t253 335q164 96 449 96q342 1 456 -149t24 -387t-254 -335t-447 -97z" />
    <glyph glyph-name="plusminus" unicode="&#xb1;" 
d="M47 147l113 308h1179l-112 -308h-1180zM1456 778h-436l-88 -241h-307l88 241h-437l113 307h436l88 242h308l-88 -242h436z" />
    <glyph glyph-name="twosuperior" unicode="&#xb2;" horiz-adv-x="985" 
d="M750 1776q270 0 370 -89t39 -247q-49 -131 -198 -210q-76 -40 -168 -85l-162 -84h446l-84 -232h-907l53 142q25 61 51 95q27 34 76 58l375 201q113 59 134 113t-10 83q-32 27 -160 27t-281 -45l84 230q186 43 342 43z" />
    <glyph glyph-name="threesuperior" unicode="&#xb3;" horiz-adv-x="1032" 
d="M557 805q-250 0 -438 76l80 217q150 -66 338 -66q119 0 167 12t62 50q16 38 -6 62t-84 24h-305l69 190l367 152h-467l86 229h895l-51 -137q-25 -63 -52 -100q-28 -36 -73 -52l-277 -125q180 -4 240 -89t8 -224q-82 -219 -559 -219z" />
    <glyph glyph-name="acute" unicode="&#xb4;" horiz-adv-x="1761" 
d="M1266 1577h-484l383 330h549z" />
    <glyph glyph-name="paragraph" unicode="&#xb6;" horiz-adv-x="1525" 
d="M786 1475h420l-536 -1475h-269l224 612q-625 0 -447 498q74 199 226 282q153 83 382 83zM1090 0h-269l537 1475h268z" />
    <glyph glyph-name="periodcentered" unicode="&#xb7;" horiz-adv-x="804" 
d="M586 563h-490l129 352h488z" />
    <glyph glyph-name="cedilla" unicode="&#xb8;" horiz-adv-x="1759" 
d="M465 -205q84 0 102 47q29 78 -82 176h308q80 -82 98 -156t-25 -173q-66 -141 -356 -142q-92 -1 -184 19t-140 47l74 217q121 -35 205 -35z" />
    <glyph glyph-name="onesuperior" unicode="&#xb9;" horiz-adv-x="763" 
d="M692 829h-381l236 646l-293 -125l94 264l334 137h344z" />
    <glyph glyph-name="ordmasculine" unicode="&#xba;" horiz-adv-x="1296" 
d="M936 180h-977l84 232h977zM678 756q110 0 176 49t113 176q94 274 -146 274q-111 0 -177 -48t-112 -177q-98 -274 146 -274zM639 522q-342 0 -456 150q-115 150 -25 387t254 335t448 97q342 0 455 -150t23 -387q-90 -236 -252 -334q-164 -98 -447 -98z" />
    <glyph glyph-name="guillemotright" unicode="&#xbb;" horiz-adv-x="1599" 
d="M348 213h-416l488 541l-109 508h381l150 -535zM993 213h-415l487 541l-109 508h381l150 -535z" />
    <glyph glyph-name="onequarter" unicode="&#xbc;" horiz-adv-x="2398" 
d="M2200 201h-129l-72 -201h-359l74 201h-522l94 260l408 370q94 90 170 91h469l-185 -510h129zM1790 412l135 370l-389 -370h254zM592 553h-381l235 645l-292 -125l94 264l334 138h344zM1468 1475h381l-1108 -1475h-383z" />
    <glyph glyph-name="onehalf" unicode="&#xbd;" horiz-adv-x="2324" 
d="M1643 719q-128 0 -281 -45l84 229q186 43 342 43q270 0 370 -89t40 -247q-25 -66 -92 -137q-39 -41 -275 -158l-162 -84h447l-84 -231h-908l54 141q25 61 51 96q27 34 76 58l374 201q113 59 135 113t-11 82q-32 28 -160 28zM592 553h-381l235 645l-292 -125l94 264
l334 138h344zM1417 1475h381l-1108 -1475h-383z" />
    <glyph glyph-name="threequarters" unicode="&#xbe;" horiz-adv-x="2666" 
d="M2468 201h-129l-72 -201h-358l73 201h-522l94 260l408 370q94 90 170 91h469l-184 -510h129zM2058 412l135 370l-389 -370h254zM457 528q-250 0 -439 76l80 217q150 -66 338 -65q119 0 167 12q47 12 63 50t-6 62t-85 23h-305l70 191l367 151h-467l86 230h895l-52 -138
q-25 -63 -53 -99t-72 -52l-276 -125q180 -4 240 -89t8 -224q-82 -220 -559 -220zM1733 1475h381l-1108 -1475h-383z" />
    <glyph glyph-name="questiondown" unicode="&#xbf;" horiz-adv-x="1429" 
d="M834 293q208 0 413 57l-123 -338q-219 -53 -534 -53q-369 0 -508 159t-45 404q123 328 604 365l174 14l33 88h391l-123 -348l-289 -25q-129 -10 -189 -40t-88 -106q-28 -77 24 -127t260 -50zM954 1475h488l-129 -353h-486z" />
    <glyph glyph-name="Agrave" unicode="&#xc0;" horiz-adv-x="1964" 
d="M1026 1475h672v-1475h-543l6 256h-612l-170 -256h-600l913 1286q70 102 147 146t187 43zM1169 610l15 604l-402 -604h387zM1083 1577l-264 330h539l201 -330h-476z" />
    <glyph glyph-name="Aacute" unicode="&#xc1;" horiz-adv-x="1964" 
d="M1026 1475h672v-1475h-543l6 256h-612l-170 -256h-600l913 1286q70 102 147 146t187 43zM1169 610l15 604l-402 -604h387zM1532 1577h-483l383 330h548z" />
    <glyph glyph-name="Acircumflex" unicode="&#xc2;" horiz-adv-x="1964" 
d="M1026 1475h672v-1475h-543l6 256h-612l-170 -256h-600l913 1286q70 102 147 146t187 43zM1169 610l15 604l-402 -604h387zM1417 1577l-33 221l-196 -221h-455l332 330h694l88 -330h-430z" />
    <glyph glyph-name="Atilde" unicode="&#xc3;" horiz-adv-x="1964" 
d="M1026 1475h672v-1475h-543l6 256h-612l-170 -256h-600l913 1286q70 102 147 146t187 43zM1169 610l15 604l-402 -604h387zM1531 1792q36 0 54 23t45 92h328q-72 -211 -149 -280t-225 -69t-327 102q-59 34 -95 34t-55 -23t-46 -94h-328q72 211 149 280t225 69
q147 0 327 -100q60 -34 97 -34z" />
    <glyph glyph-name="Adieresis" unicode="&#xc4;" horiz-adv-x="1964" 
d="M1026 1475h672v-1475h-543l6 256h-612l-170 -256h-600l913 1286q70 102 147 146t187 43zM1169 610l15 604l-402 -604h387zM1255 1597h-426l105 289h426zM1792 1597h-426l107 289h425z" />
    <glyph glyph-name="Aring" unicode="&#xc5;" horiz-adv-x="1964" 
d="M1026 1475h672v-1475h-543l6 256h-612l-170 -256h-600l913 1286q70 102 147 146t187 43zM1169 610l15 604l-402 -604h387zM1321 1667q88 0 113 66q31 86 -72 86q-88 0 -115 -68q-28 -84 74 -84zM1269 1556q-253 0 -343 48t-52 161q35 92 161 127t377 35t343 -48t51 -159
q-35 -94 -160 -129t-377 -35z" />
    <glyph glyph-name="AE" unicode="&#xc6;" horiz-adv-x="2924" 
d="M1378 1475h1712l-124 -340h-840l-82 -226h756l-127 -340h-754l-84 -229h842l-123 -340h-1421l122 338h-528l-317 -338h-676l1267 1286q91 100 175 144t202 45zM1384 692l205 561l-528 -561h323z" />
    <glyph glyph-name="Ccedilla" unicode="&#xc7;" horiz-adv-x="1722" 
d="M547 -453q-93 -1 -185 19t-139 47l74 217q121 -35 205 -35t102 47q25 70 -53 148q-342 68 -454 295t18 567q136 373 441 523q280 138 679 136q322 0 602 -100l-131 -367q-206 90 -444 90t-382 -84t-220 -300t20 -312t348 -96t459 53l-139 -381q-203 -51 -471 -51
q96 -131 26 -274q-65 -142 -356 -142z" />
    <glyph glyph-name="Egrave" unicode="&#xc8;" horiz-adv-x="1695" 
d="M-94 0l536 1475h1420l-123 -340h-840l-82 -226h756l-127 -340h-754l-84 -229h840l-123 -340h-1419zM954 1577l-264 330h539l201 -330h-476z" />
    <glyph glyph-name="Eacute" unicode="&#xc9;" horiz-adv-x="1695" 
d="M-94 0l536 1475h1420l-123 -340h-840l-82 -226h756l-127 -340h-754l-84 -229h840l-123 -340h-1419zM1403 1577h-483l383 330h548z" />
    <glyph glyph-name="Ecircumflex" unicode="&#xca;" horiz-adv-x="1695" 
d="M-94 0l536 1475h1420l-123 -340h-840l-82 -226h756l-127 -340h-754l-84 -229h840l-123 -340h-1419zM1286 1577l-33 221l-196 -221h-455l332 330h694l88 -330h-430z" />
    <glyph glyph-name="Edieresis" unicode="&#xcb;" horiz-adv-x="1695" 
d="M-94 0l536 1475h1420l-123 -340h-840l-82 -226h756l-127 -340h-754l-84 -229h840l-123 -340h-1419zM1126 1597h-426l105 289h426zM1663 1597h-426l106 289h426z" />
    <glyph glyph-name="Igrave" unicode="&#xcc;" horiz-adv-x="923" 
d="M485 0h-579l536 1475h580zM549 1577l-264 330h538l201 -330h-475z" />
    <glyph glyph-name="Iacute" unicode="&#xcd;" horiz-adv-x="923" 
d="M485 0h-579l536 1475h580zM995 1577h-483l383 330h549z" />
    <glyph glyph-name="Icircumflex" unicode="&#xce;" horiz-adv-x="923" 
d="M485 0h-579l536 1475h580zM881 1577l-33 221l-197 -221h-454l331 330h695l88 -330h-430z" />
    <glyph glyph-name="Idieresis" unicode="&#xcf;" horiz-adv-x="923" 
d="M485 0h-579l536 1475h580zM721 1597h-426l104 289h426zM1257 1597h-426l107 289h426z" />
    <glyph glyph-name="Eth" unicode="&#xd0;" horiz-adv-x="1966" 
d="M1157 1475q613 0 737 -335q76 -204 -32 -499q-125 -345 -377 -493t-643 -148h-936l229 629h-172l84 231h172l223 615h715zM846 356q180 0 286 82q105 82 179 281q75 199 27 300t-226 101h-219l-94 -260h284l-86 -231h-282l-101 -273h232z" />
    <glyph glyph-name="Ntilde" unicode="&#xd1;" horiz-adv-x="2168" 
d="M1069 1475q199 0 199 -224l92 -868l397 1092h504l-537 -1475h-831l-92 1079l-393 -1079h-502l536 1475h627zM1619 1792q36 0 54 23t45 92h328q-72 -211 -149 -280t-226 -69t-325 102q-60 34 -96 34t-55 -23t-46 -94h-328q72 211 149 280t225 69q147 0 327 -100
q60 -34 97 -34z" />
    <glyph glyph-name="Ograve" unicode="&#xd2;" horiz-adv-x="2031" 
d="M901 328q174 0 282 81q109 81 187 295t23 328q-55 115 -243 115t-297 -81q-108 -81 -183 -290q-162 -448 231 -448zM844 -37q-272 0 -454 67q-182 66 -262 182q-79 116 -87 274t68 343q135 367 391 525t696 157q633 0 767 -348q81 -209 -34 -516q-137 -369 -392 -527
t-693 -157zM1069 1577l-264 330h538l201 -330h-475z" />
    <glyph glyph-name="Oacute" unicode="&#xd3;" horiz-adv-x="2031" 
d="M901 328q174 0 282 81q109 81 187 295t23 328q-55 115 -243 115t-297 -81q-108 -81 -183 -290q-162 -448 231 -448zM844 -37q-272 0 -454 67q-182 66 -262 182q-79 116 -87 274t68 343q135 367 391 525t696 157q633 0 767 -348q81 -209 -34 -516q-137 -369 -392 -527
t-693 -157zM1518 1577h-484l383 330h549z" />
    <glyph glyph-name="Ocircumflex" unicode="&#xd4;" horiz-adv-x="2031" 
d="M901 328q174 0 282 81q109 81 187 295t23 328q-55 115 -243 115t-297 -81q-108 -81 -183 -290q-162 -448 231 -448zM844 -37q-272 0 -454 67q-182 66 -262 182q-79 116 -87 274t68 343q135 367 391 525t696 157q633 0 767 -348q81 -209 -34 -516q-137 -369 -392 -527
t-693 -157zM1403 1577l-33 221l-196 -221h-455l332 330h694l88 -330h-430z" />
    <glyph glyph-name="Otilde" unicode="&#xd5;" horiz-adv-x="2031" 
d="M901 328q174 0 282 81q109 81 187 295t23 328q-55 115 -243 115t-297 -81q-108 -81 -183 -290q-162 -448 231 -448zM844 -37q-272 0 -454 67q-182 66 -262 182q-79 116 -87 274t68 343q135 367 391 525t696 157q633 0 767 -348q81 -209 -34 -516q-137 -369 -392 -527
t-693 -157zM1514 1792q36 0 55 23q18 23 45 92h328q-72 -211 -149 -280t-227 -69t-325 102q-59 34 -95 34t-55 -23t-47 -94h-327q72 211 148 280q77 69 226 69t327 -100q60 -34 96 -34z" />
    <glyph glyph-name="Odieresis" unicode="&#xd6;" horiz-adv-x="2031" 
d="M901 328q174 0 282 81q109 81 187 295t23 328q-55 115 -243 115t-297 -81q-108 -81 -183 -290q-162 -448 231 -448zM844 -37q-272 0 -454 67q-182 66 -262 182q-79 116 -87 274t68 343q135 367 391 525t696 157q633 0 767 -348q81 -209 -34 -516q-137 -369 -392 -527
t-693 -157zM1241 1597h-426l105 289h426zM1778 1597h-426l106 289h426z" />
    <glyph glyph-name="multiply" unicode="&#xd7;" horiz-adv-x="1697" 
d="M1034 150l-229 366l-498 -364l-153 237l501 367l-233 372l268 193l234 -369l512 377l151 -237l-514 -377l238 -375z" />
    <glyph glyph-name="Oslash" unicode="&#xd8;" horiz-adv-x="2031" 
d="M908 328q167 0 275 81t185 291q25 76 37 134l-731 -435q67 -71 234 -71zM1128 1147q-168 0 -274 -81q-108 -81 -184 -290q-25 -68 -39 -135l731 434q-66 72 -234 72zM850 -37q-432 0 -637 162l-211 -125l-127 193l199 118q-80 209 35 518q135 367 391 525t688 158
t637 -162l209 125l125 -193l-197 -117q82 -213 -33 -518q-137 -369 -392 -527t-687 -157z" />
    <glyph glyph-name="Ugrave" unicode="&#xd9;" horiz-adv-x="1929" 
d="M846 336q118 0 194 55t134 215l315 869h579l-309 -852q-133 -371 -362 -515t-655 -144t-594 177q-167 178 -54 486l309 848h580l-313 -867q-102 -272 176 -272zM1051 1577l-265 330h539l201 -330h-475z" />
    <glyph glyph-name="Uacute" unicode="&#xda;" horiz-adv-x="1929" 
d="M846 336q118 0 194 55t134 215l315 869h579l-309 -852q-133 -371 -362 -515t-655 -144t-594 177q-167 178 -54 486l309 848h580l-313 -867q-102 -272 176 -272zM1499 1577h-483l383 330h549z" />
    <glyph glyph-name="Ucircumflex" unicode="&#xdb;" horiz-adv-x="1929" 
d="M846 336q118 0 194 55t134 215l315 869h579l-309 -852q-133 -371 -362 -515t-655 -144t-594 177q-167 178 -54 486l309 848h580l-313 -867q-102 -272 176 -272zM1384 1577l-32 221l-197 -221h-455l332 330h694l89 -330h-431z" />
    <glyph glyph-name="Udieresis" unicode="&#xdc;" horiz-adv-x="1929" 
d="M846 336q118 0 194 55t134 215l315 869h579l-309 -852q-133 -371 -362 -515t-655 -144t-594 177q-167 178 -54 486l309 848h580l-313 -867q-102 -272 176 -272zM1225 1597h-426l104 289h426zM1761 1597h-426l107 289h426z" />
    <glyph glyph-name="Yacute" unicode="&#xdd;" horiz-adv-x="1937" 
d="M983 0h-580l199 543l-332 932h543l188 -541l555 541h652l-1041 -969zM1462 1577h-483l383 330h549z" />
    <glyph glyph-name="Thorn" unicode="&#xde;" horiz-adv-x="1835" 
d="M885 166h-340l-60 -166h-579l536 1475h580l-66 -179h162q545 0 659 -269q67 -157 -29 -417q-95 -260 -321 -356q-115 -48 -241 -68t-301 -20zM997 956h-163l-164 -450h151q178 0 255 42t118 161q51 127 8 187t-205 60z" />
    <glyph glyph-name="germandbls" unicode="&#xdf;" horiz-adv-x="3276" 
d="M616 -37q-449 0 -741 117l125 340q110 -47 262 -79t304 -32t222 24q72 24 99 85q45 113 -90 139l-224 39q-512 86 -358 514q76 211 280 306t556 95t655 -110l-121 -338q-242 102 -534 102q-137 0 -199 -20q-62 -19 -84 -73q-20 -54 -3 -81t83 -41l225 -39
q535 -88 361 -544q-84 -221 -285 -313t-533 -91zM2255 -37q-449 0 -742 117l125 340q109 -47 262 -79t304 -32t223 24t98 85q45 113 -90 139l-223 39q-512 86 -359 514q76 211 280 306q205 95 557 95t654 -110l-120 -338q-242 102 -535 102q-137 0 -199 -20q-62 -19 -84 -73
q-20 -54 -3 -81t83 -41l226 -39q535 -88 360 -544q-84 -221 -284 -313t-533 -91z" />
    <glyph glyph-name="agrave" unicode="&#xe0;" horiz-adv-x="1964" 
d="M1026 1475h672v-1475h-543l6 256h-612l-170 -256h-600l913 1286q70 102 147 146t187 43zM1169 610l15 604l-402 -604h387zM1083 1577l-264 330h539l201 -330h-476z" />
    <glyph glyph-name="aacute" unicode="&#xe1;" horiz-adv-x="1964" 
d="M1026 1475h672v-1475h-543l6 256h-612l-170 -256h-600l913 1286q70 102 147 146t187 43zM1169 610l15 604l-402 -604h387zM1532 1577h-483l383 330h548z" />
    <glyph glyph-name="acircumflex" unicode="&#xe2;" horiz-adv-x="1964" 
d="M1026 1475h672v-1475h-543l6 256h-612l-170 -256h-600l913 1286q70 102 147 146t187 43zM1169 610l15 604l-402 -604h387zM1417 1577l-33 221l-196 -221h-455l332 330h694l88 -330h-430z" />
    <glyph glyph-name="atilde" unicode="&#xe3;" horiz-adv-x="1964" 
d="M1026 1475h672v-1475h-543l6 256h-612l-170 -256h-600l913 1286q70 102 147 146t187 43zM1169 610l15 604l-402 -604h387zM1531 1792q36 0 54 23t45 92h328q-72 -211 -149 -280t-225 -69t-327 102q-59 34 -95 34t-55 -23t-46 -94h-328q72 211 149 280t225 69
q147 0 327 -100q60 -34 97 -34z" />
    <glyph glyph-name="adieresis" unicode="&#xe4;" horiz-adv-x="1964" 
d="M1026 1475h672v-1475h-543l6 256h-612l-170 -256h-600l913 1286q70 102 147 146t187 43zM1169 610l15 604l-402 -604h387zM1255 1597h-426l105 289h426zM1792 1597h-426l107 289h425z" />
    <glyph glyph-name="aring" unicode="&#xe5;" horiz-adv-x="1964" 
d="M1026 1475h672v-1475h-543l6 256h-612l-170 -256h-600l913 1286q70 102 147 146t187 43zM1169 610l15 604l-402 -604h387zM1321 1667q88 0 113 66q31 86 -72 86q-88 0 -115 -68q-28 -84 74 -84zM1269 1556q-253 0 -343 48t-52 161q35 92 161 127t377 35t343 -48t51 -159
q-35 -94 -160 -129t-377 -35z" />
    <glyph glyph-name="ae" unicode="&#xe6;" horiz-adv-x="2924" 
d="M1378 1475h1712l-124 -340h-840l-82 -226h756l-127 -340h-754l-84 -229h842l-123 -340h-1421l122 338h-528l-317 -338h-676l1267 1286q91 100 175 144t202 45zM1384 692l205 561l-528 -561h323z" />
    <glyph glyph-name="ccedilla" unicode="&#xe7;" horiz-adv-x="1722" 
d="M547 -453q-93 -1 -185 19t-139 47l74 217q121 -35 205 -35t102 47q25 70 -53 148q-342 68 -454 295t18 567q136 373 441 523q280 138 679 136q322 0 602 -100l-131 -367q-206 90 -444 90t-382 -84t-220 -300t20 -312t348 -96t459 53l-139 -381q-203 -51 -471 -51
q96 -131 26 -274q-65 -142 -356 -142z" />
    <glyph glyph-name="egrave" unicode="&#xe8;" horiz-adv-x="1695" 
d="M-94 0l536 1475h1420l-123 -340h-840l-82 -226h756l-127 -340h-754l-84 -229h840l-123 -340h-1419zM954 1577l-264 330h539l201 -330h-476z" />
    <glyph glyph-name="eacute" unicode="&#xe9;" horiz-adv-x="1695" 
d="M-94 0l536 1475h1420l-123 -340h-840l-82 -226h756l-127 -340h-754l-84 -229h840l-123 -340h-1419zM1403 1577h-483l383 330h548z" />
    <glyph glyph-name="ecircumflex" unicode="&#xea;" horiz-adv-x="1695" 
d="M-94 0l536 1475h1420l-123 -340h-840l-82 -226h756l-127 -340h-754l-84 -229h840l-123 -340h-1419zM1286 1577l-33 221l-196 -221h-455l332 330h694l88 -330h-430z" />
    <glyph glyph-name="edieresis" unicode="&#xeb;" horiz-adv-x="1695" 
d="M-94 0l536 1475h1420l-123 -340h-840l-82 -226h756l-127 -340h-754l-84 -229h840l-123 -340h-1419zM1126 1597h-426l105 289h426zM1663 1597h-426l106 289h426z" />
    <glyph glyph-name="igrave" unicode="&#xec;" horiz-adv-x="923" 
d="M485 0h-579l536 1475h580zM549 1577l-264 330h538l201 -330h-475z" />
    <glyph glyph-name="iacute" unicode="&#xed;" horiz-adv-x="923" 
d="M485 0h-579l536 1475h580zM995 1577h-483l383 330h549z" />
    <glyph glyph-name="icircumflex" unicode="&#xee;" horiz-adv-x="923" 
d="M485 0h-579l536 1475h580zM881 1577l-33 221l-197 -221h-454l331 330h695l88 -330h-430z" />
    <glyph glyph-name="idieresis" unicode="&#xef;" horiz-adv-x="923" 
d="M485 0h-579l536 1475h580zM721 1597h-426l104 289h426zM1257 1597h-426l107 289h426z" />
    <glyph glyph-name="eth" unicode="&#xf0;" horiz-adv-x="1966" 
d="M1157 1475q613 0 737 -335q76 -204 -32 -499q-125 -345 -377 -493t-643 -148h-936l229 629h-172l84 231h172l223 615h715zM846 356q180 0 286 82q105 82 179 281q75 199 27 300t-226 101h-219l-94 -260h284l-86 -231h-282l-101 -273h232z" />
    <glyph glyph-name="ntilde" unicode="&#xf1;" horiz-adv-x="2168" 
d="M1069 1475q199 0 199 -224l92 -868l397 1092h504l-537 -1475h-831l-92 1079l-393 -1079h-502l536 1475h627zM1619 1792q36 0 54 23t45 92h328q-72 -211 -149 -280t-226 -69t-325 102q-60 34 -96 34t-55 -23t-46 -94h-328q72 211 149 280t225 69q147 0 327 -100
q60 -34 97 -34z" />
    <glyph glyph-name="ograve" unicode="&#xf2;" horiz-adv-x="2031" 
d="M901 328q174 0 282 81q109 81 187 295t23 328q-55 115 -243 115t-297 -81q-108 -81 -183 -290q-162 -448 231 -448zM844 -37q-272 0 -454 67q-182 66 -262 182q-79 116 -87 274t68 343q135 367 391 525t696 157q633 0 767 -348q81 -209 -34 -516q-137 -369 -392 -527
t-693 -157zM1069 1577l-264 330h538l201 -330h-475z" />
    <glyph glyph-name="oacute" unicode="&#xf3;" horiz-adv-x="2031" 
d="M901 328q174 0 282 81q109 81 187 295t23 328q-55 115 -243 115t-297 -81q-108 -81 -183 -290q-162 -448 231 -448zM844 -37q-272 0 -454 67q-182 66 -262 182q-79 116 -87 274t68 343q135 367 391 525t696 157q633 0 767 -348q81 -209 -34 -516q-137 -369 -392 -527
t-693 -157zM1518 1577h-484l383 330h549z" />
    <glyph glyph-name="ocircumflex" unicode="&#xf4;" horiz-adv-x="2031" 
d="M901 328q174 0 282 81q109 81 187 295t23 328q-55 115 -243 115t-297 -81q-108 -81 -183 -290q-162 -448 231 -448zM844 -37q-272 0 -454 67q-182 66 -262 182q-79 116 -87 274t68 343q135 367 391 525t696 157q633 0 767 -348q81 -209 -34 -516q-137 -369 -392 -527
t-693 -157zM1403 1577l-33 221l-196 -221h-455l332 330h694l88 -330h-430z" />
    <glyph glyph-name="otilde" unicode="&#xf5;" horiz-adv-x="2031" 
d="M901 328q174 0 282 81q109 81 187 295t23 328q-55 115 -243 115t-297 -81q-108 -81 -183 -290q-162 -448 231 -448zM844 -37q-272 0 -454 67q-182 66 -262 182q-79 116 -87 274t68 343q135 367 391 525t696 157q633 0 767 -348q81 -209 -34 -516q-137 -369 -392 -527
t-693 -157zM1514 1792q36 0 55 23q18 23 45 92h328q-72 -211 -149 -280t-227 -69t-325 102q-59 34 -95 34t-55 -23t-47 -94h-327q72 211 148 280q77 69 226 69t327 -100q60 -34 96 -34z" />
    <glyph glyph-name="odieresis" unicode="&#xf6;" horiz-adv-x="2031" 
d="M901 328q174 0 282 81q109 81 187 295t23 328q-55 115 -243 115t-297 -81q-108 -81 -183 -290q-162 -448 231 -448zM844 -37q-272 0 -454 67q-182 66 -262 182q-79 116 -87 274t68 343q135 367 391 525t696 157q633 0 767 -348q81 -209 -34 -516q-137 -369 -392 -527
t-693 -157zM1241 1597h-426l105 289h426zM1778 1597h-426l106 289h426z" />
    <glyph glyph-name="divide" unicode="&#xf7;" 
d="M578 420h317l-98 -273h-320zM207 584l110 307h1180l-111 -307h-1179zM907 1327h320l-101 -270h-317z" />
    <glyph glyph-name="oslash" unicode="&#xf8;" horiz-adv-x="2031" 
d="M908 328q167 0 275 81t185 291q25 76 37 134l-731 -435q67 -71 234 -71zM1128 1147q-168 0 -274 -81q-108 -81 -184 -290q-25 -68 -39 -135l731 434q-66 72 -234 72zM850 -37q-432 0 -637 162l-211 -125l-127 193l199 118q-80 209 35 518q135 367 391 525t688 158
t637 -162l209 125l125 -193l-197 -117q82 -213 -33 -518q-137 -369 -392 -527t-687 -157z" />
    <glyph glyph-name="ugrave" unicode="&#xf9;" horiz-adv-x="1929" 
d="M846 336q118 0 194 55t134 215l315 869h579l-309 -852q-133 -371 -362 -515t-655 -144t-594 177q-167 178 -54 486l309 848h580l-313 -867q-102 -272 176 -272zM1051 1577l-265 330h539l201 -330h-475z" />
    <glyph glyph-name="uacute" unicode="&#xfa;" horiz-adv-x="1929" 
d="M846 336q118 0 194 55t134 215l315 869h579l-309 -852q-133 -371 -362 -515t-655 -144t-594 177q-167 178 -54 486l309 848h580l-313 -867q-102 -272 176 -272zM1499 1577h-483l383 330h549z" />
    <glyph glyph-name="ucircumflex" unicode="&#xfb;" horiz-adv-x="1929" 
d="M846 336q118 0 194 55t134 215l315 869h579l-309 -852q-133 -371 -362 -515t-655 -144t-594 177q-167 178 -54 486l309 848h580l-313 -867q-102 -272 176 -272zM1384 1577l-32 221l-197 -221h-455l332 330h694l89 -330h-431z" />
    <glyph glyph-name="udieresis" unicode="&#xfc;" horiz-adv-x="1929" 
d="M846 336q118 0 194 55t134 215l315 869h579l-309 -852q-133 -371 -362 -515t-655 -144t-594 177q-167 178 -54 486l309 848h580l-313 -867q-102 -272 176 -272zM1225 1597h-426l104 289h426zM1761 1597h-426l107 289h426z" />
    <glyph glyph-name="yacute" unicode="&#xfd;" horiz-adv-x="1937" 
d="M983 0h-580l199 543l-332 932h543l188 -541l555 541h652l-1041 -969zM1462 1577h-483l383 330h549z" />
    <glyph glyph-name="thorn" unicode="&#xfe;" horiz-adv-x="1835" 
d="M885 166h-340l-60 -166h-579l536 1475h580l-66 -179h162q545 0 659 -269q67 -157 -29 -417q-95 -260 -321 -356q-115 -48 -241 -68t-301 -20zM997 956h-163l-164 -450h151q178 0 255 42t118 161q51 127 8 187t-205 60z" />
    <glyph glyph-name="ydieresis" unicode="&#xff;" horiz-adv-x="1937" 
d="M983 0h-580l199 543l-332 932h543l188 -541l555 541h652l-1041 -969zM1188 1597h-426l104 289h426zM1724 1597h-426l107 289h426z" />
    <glyph glyph-name="Amacron" unicode="&#x100;" horiz-adv-x="1964" 
d="M1026 1475h672v-1475h-543l6 256h-612l-170 -256h-600l913 1286q70 102 147 146t187 43zM1169 610l15 604l-402 -604h387zM1837 1630h-1040l84 234h1040z" />
    <glyph glyph-name="amacron" unicode="&#x101;" horiz-adv-x="1964" 
d="M1026 1475h672v-1475h-543l6 256h-612l-170 -256h-600l913 1286q70 102 147 146t187 43zM1169 610l15 604l-402 -604h387zM1837 1630h-1040l84 234h1040z" />
    <glyph glyph-name="Abreve" unicode="&#x102;" horiz-adv-x="1964" 
d="M1026 1475h672v-1475h-543l6 256h-612l-170 -256h-600l913 1286q70 102 147 146t187 43zM1169 610l15 604l-402 -604h387zM1373 1745q105 0 165 162h377q-72 -195 -213 -273t-393 -78t-337 85t-22 266h375q-57 -162 48 -162z" />
    <glyph glyph-name="abreve" unicode="&#x103;" horiz-adv-x="1964" 
d="M1026 1475h672v-1475h-543l6 256h-612l-170 -256h-600l913 1286q70 102 147 146t187 43zM1169 610l15 604l-402 -604h387zM1373 1745q105 0 165 162h377q-72 -195 -213 -273t-393 -78t-337 85t-22 266h375q-57 -162 48 -162z" />
    <glyph glyph-name="Aogonek" unicode="&#x104;" horiz-adv-x="1964" 
d="M1260 -453q-211 0 -294 67q-83 68 -40 184t229 204l6 254h-612l-170 -256h-600l913 1286q70 102 147 146t187 43h672v-1475h-207q-119 -78 -135 -131t12 -75q45 -36 248 -7l-76 -203q-137 -37 -280 -37zM1169 610l15 604l-402 -604h387z" />
    <glyph glyph-name="aogonek" unicode="&#x105;" horiz-adv-x="1964" 
d="M1260 -453q-211 0 -294 67q-83 68 -40 184t229 204l6 254h-612l-170 -256h-600l913 1286q70 102 147 146t187 43h672v-1475h-207q-119 -78 -135 -131t12 -75q45 -36 248 -7l-76 -203q-137 -37 -280 -37zM1169 610l15 604l-402 -604h387z" />
    <glyph glyph-name="Cacute" unicode="&#x106;" horiz-adv-x="1722" 
d="M1028 342q252 0 459 53l-139 -381q-197 -51 -486 -51q-520 0 -710 237t-37 652q136 373 441 523q280 138 679 136q322 0 602 -100l-131 -367q-206 90 -444 90t-382 -84t-220 -300t20 -312t348 -96zM1432 1577h-484l383 330h549z" />
    <glyph glyph-name="cacute" unicode="&#x107;" horiz-adv-x="1722" 
d="M1028 342q252 0 459 53l-139 -381q-197 -51 -486 -51q-520 0 -710 237t-37 652q136 373 441 523q280 138 679 136q322 0 602 -100l-131 -367q-206 90 -444 90t-382 -84t-220 -300t20 -312t348 -96zM1432 1577h-484l383 330h549z" />
    <glyph glyph-name="Ccircumflex" unicode="&#x108;" horiz-adv-x="1722" 
d="M1028 342q252 0 459 53l-139 -381q-197 -51 -486 -51q-520 0 -710 237t-37 652q136 373 441 523q280 138 679 136q322 0 602 -100l-131 -367q-206 90 -444 90t-382 -84t-220 -300t20 -312t348 -96zM1317 1577l-33 221l-197 -221h-454l332 330h694l88 -330h-430z" />
    <glyph glyph-name="ccircumflex" unicode="&#x109;" horiz-adv-x="1722" 
d="M1028 342q252 0 459 53l-139 -381q-197 -51 -486 -51q-520 0 -710 237t-37 652q136 373 441 523q280 138 679 136q322 0 602 -100l-131 -367q-206 90 -444 90t-382 -84t-220 -300t20 -312t348 -96zM1317 1577l-33 221l-197 -221h-454l332 330h694l88 -330h-430z" />
    <glyph glyph-name="Cdotaccent" unicode="&#x10a;" horiz-adv-x="1722" 
d="M1028 342q252 0 459 53l-139 -381q-197 -51 -486 -51q-520 0 -710 237t-37 652q136 373 441 523q280 138 679 136q322 0 602 -100l-131 -367q-206 90 -444 90t-382 -84t-220 -300t20 -312t348 -96zM1534 1597h-580l107 289h579z" />
    <glyph glyph-name="cdotaccent" unicode="&#x10b;" horiz-adv-x="1722" 
d="M1028 342q252 0 459 53l-139 -381q-197 -51 -486 -51q-520 0 -710 237t-37 652q136 373 441 523q280 138 679 136q322 0 602 -100l-131 -367q-206 90 -444 90t-382 -84t-220 -300t20 -312t348 -96zM1534 1597h-580l107 289h579z" />
    <glyph glyph-name="Ccaron" unicode="&#x10c;" horiz-adv-x="1722" 
d="M1028 342q252 0 459 53l-139 -381q-197 -51 -486 -51q-520 0 -710 237t-37 652q136 373 441 523q280 138 679 136q322 0 602 -100l-131 -367q-206 90 -444 90t-382 -84t-220 -300t20 -312t348 -96zM862 1577l-88 330h432l31 -221l197 221h454l-332 -330h-694z" />
    <glyph glyph-name="ccaron" unicode="&#x10d;" horiz-adv-x="1722" 
d="M1028 342q252 0 459 53l-139 -381q-197 -51 -486 -51q-520 0 -710 237t-37 652q136 373 441 523q280 138 679 136q322 0 602 -100l-131 -367q-206 90 -444 90t-382 -84t-220 -300t20 -312t348 -96zM862 1577l-88 330h432l31 -221l197 221h454l-332 -330h-694z" />
    <glyph glyph-name="Dcaron" unicode="&#x10e;" horiz-adv-x="1966" 
d="M1157 1475q613 0 737 -335q76 -204 -32 -499q-125 -345 -377 -493t-643 -148h-936l536 1475h715zM1112 1120h-219l-279 -764h232q180 0 286 82q105 82 179 281q75 199 27 300t-226 101zM891 1577l-88 330h432l31 -221l196 221h455l-332 -330h-694z" />
    <glyph glyph-name="dcaron" unicode="&#x10f;" horiz-adv-x="1966" 
d="M1157 1475q613 0 737 -335q76 -204 -32 -499q-125 -345 -377 -493t-643 -148h-936l536 1475h715zM1112 1120h-219l-279 -764h232q180 0 286 82q105 82 179 281q75 199 27 300t-226 101zM891 1577l-88 330h432l31 -221l196 221h455l-332 -330h-694z" />
    <glyph glyph-name="Dcroat" unicode="&#x110;" horiz-adv-x="1966" 
d="M1157 1475q613 0 737 -335q76 -204 -32 -499q-125 -345 -377 -493t-643 -148h-936l229 629h-172l84 231h172l223 615h715zM846 356q180 0 286 82q105 82 179 281q75 199 27 300t-226 101h-219l-94 -260h284l-86 -231h-282l-101 -273h232z" />
    <glyph glyph-name="dcroat" unicode="&#x111;" horiz-adv-x="1966" 
d="M1157 1475q613 0 737 -335q76 -204 -32 -499q-125 -345 -377 -493t-643 -148h-936l229 629h-172l84 231h172l223 615h715zM846 356q180 0 286 82q105 82 179 281q75 199 27 300t-226 101h-219l-94 -260h284l-86 -231h-282l-101 -273h232z" />
    <glyph glyph-name="Emacron" unicode="&#x112;" horiz-adv-x="1695" 
d="M-94 0l536 1475h1420l-123 -340h-840l-82 -226h756l-127 -340h-754l-84 -229h840l-123 -340h-1419zM1706 1630h-1040l84 234h1040z" />
    <glyph glyph-name="emacron" unicode="&#x113;" horiz-adv-x="1695" 
d="M-94 0l536 1475h1420l-123 -340h-840l-82 -226h756l-127 -340h-754l-84 -229h840l-123 -340h-1419zM1706 1630h-1040l84 234h1040z" />
    <glyph glyph-name="Ebreve" unicode="&#x114;" horiz-adv-x="1695" 
d="M-94 0l536 1475h1420l-123 -340h-840l-82 -226h756l-127 -340h-754l-84 -229h840l-123 -340h-1419zM1244 1745q105 0 165 162h377q-72 -195 -213 -273t-393 -78t-337 85t-22 266h375q-57 -162 48 -162z" />
    <glyph glyph-name="ebreve" unicode="&#x115;" horiz-adv-x="1695" 
d="M-94 0l536 1475h1420l-123 -340h-840l-82 -226h756l-127 -340h-754l-84 -229h840l-123 -340h-1419zM1244 1745q105 0 165 162h377q-72 -195 -213 -273t-393 -78t-337 85t-22 266h375q-57 -162 48 -162z" />
    <glyph glyph-name="Edotaccent" unicode="&#x116;" horiz-adv-x="1695" 
d="M-94 0l536 1475h1420l-123 -340h-840l-82 -226h756l-127 -340h-754l-84 -229h840l-123 -340h-1419zM1470 1597h-579l106 289h580z" />
    <glyph glyph-name="edotaccent" unicode="&#x117;" horiz-adv-x="1695" 
d="M-94 0l536 1475h1420l-123 -340h-840l-82 -226h756l-127 -340h-754l-84 -229h840l-123 -340h-1419zM1470 1597h-579l106 289h580z" />
    <glyph glyph-name="Eogonek" unicode="&#x118;" horiz-adv-x="1695" 
d="M905 -453q-211 0 -294 67t-42 179q41 117 228 207h-891l536 1475h1420l-123 -340h-840l-82 -226h756l-127 -340h-754l-84 -229h840l-123 -340h-188q-119 -78 -138 -135q-14 -49 14 -71q46 -36 249 -7l-76 -203q-137 -37 -281 -37z" />
    <glyph glyph-name="eogonek" unicode="&#x119;" horiz-adv-x="1695" 
d="M905 -453q-211 0 -294 67t-42 179q41 117 228 207h-891l536 1475h1420l-123 -340h-840l-82 -226h756l-127 -340h-754l-84 -229h840l-123 -340h-188q-119 -78 -138 -135q-14 -49 14 -71q46 -36 249 -7l-76 -203q-137 -37 -281 -37z" />
    <glyph glyph-name="Ecaron" unicode="&#x11a;" horiz-adv-x="1695" 
d="M-94 0l536 1475h1420l-123 -340h-840l-82 -226h756l-127 -340h-754l-84 -229h840l-123 -340h-1419zM831 1577l-88 330h433l30 -221l197 221h455l-332 -330h-695z" />
    <glyph glyph-name="ecaron" unicode="&#x11b;" horiz-adv-x="1695" 
d="M-94 0l536 1475h1420l-123 -340h-840l-82 -226h756l-127 -340h-754l-84 -229h840l-123 -340h-1419zM831 1577l-88 330h433l30 -221l197 221h455l-332 -330h-695z" />
    <glyph glyph-name="Gcircumflex" unicode="&#x11c;" horiz-adv-x="1886" 
d="M995 328q49 0 76 2l131 364h547l-242 -667q-258 -63 -633 -64q-528 0 -720 236t-39 653q136 373 445 523q285 138 685 136q326 0 633 -110l-131 -367q-227 100 -472 100t-392 -84q-147 -86 -223 -304t10 -318t325 -100zM1366 1577l-33 221l-196 -221h-455l332 330h694
l88 -330h-430z" />
    <glyph glyph-name="gcircumflex" unicode="&#x11d;" horiz-adv-x="1886" 
d="M995 328q49 0 76 2l131 364h547l-242 -667q-258 -63 -633 -64q-528 0 -720 236t-39 653q136 373 445 523q285 138 685 136q326 0 633 -110l-131 -367q-227 100 -472 100t-392 -84q-147 -86 -223 -304t10 -318t325 -100zM1366 1577l-33 221l-196 -221h-455l332 330h694
l88 -330h-430z" />
    <glyph glyph-name="Gbreve" unicode="&#x11e;" horiz-adv-x="1886" 
d="M995 328q49 0 76 2l131 364h547l-242 -667q-258 -63 -633 -64q-528 0 -720 236t-39 653q136 373 445 523q285 138 685 136q326 0 633 -110l-131 -367q-227 100 -472 100t-392 -84q-147 -86 -223 -304t10 -318t325 -100zM1322 1745q105 0 165 162h377q-72 -195 -213 -273
t-393 -78t-338 85q-84 85 -21 266h375q-57 -162 48 -162z" />
    <glyph glyph-name="gbreve" unicode="&#x11f;" horiz-adv-x="1886" 
d="M995 328q49 0 76 2l131 364h547l-242 -667q-258 -63 -633 -64q-528 0 -720 236t-39 653q136 373 445 523q285 138 685 136q326 0 633 -110l-131 -367q-227 100 -472 100t-392 -84q-147 -86 -223 -304t10 -318t325 -100zM1322 1745q105 0 165 162h377q-72 -195 -213 -273
t-393 -78t-338 85q-84 85 -21 266h375q-57 -162 48 -162z" />
    <glyph glyph-name="Gdotaccent" unicode="&#x120;" horiz-adv-x="1886" 
d="M995 328q49 0 76 2l131 364h547l-242 -667q-258 -63 -633 -64q-528 0 -720 236t-39 653q136 373 445 523q285 138 685 136q326 0 633 -110l-131 -367q-227 100 -472 100t-392 -84q-147 -86 -223 -304t10 -318t325 -100zM1548 1597h-579l106 289h580z" />
    <glyph glyph-name="gdotaccent" unicode="&#x121;" horiz-adv-x="1886" 
d="M995 328q49 0 76 2l131 364h547l-242 -667q-258 -63 -633 -64q-528 0 -720 236t-39 653q136 373 445 523q285 138 685 136q326 0 633 -110l-131 -367q-227 100 -472 100t-392 -84q-147 -86 -223 -304t10 -318t325 -100zM1548 1597h-579l106 289h580z" />
    <glyph glyph-name="Gcommaaccent" unicode="&#x122;" horiz-adv-x="1886" 
d="M709 -432h-476l340 330h549zM995 328q49 0 76 2l131 364h547l-242 -667q-258 -63 -633 -64q-528 0 -720 236t-39 653q136 373 445 523q285 138 685 136q326 0 633 -110l-131 -367q-227 100 -472 100t-392 -84q-147 -86 -223 -304t10 -318t325 -100z" />
    <glyph glyph-name="gcommaaccent" unicode="&#x123;" horiz-adv-x="1886" 
d="M709 -432h-476l340 330h549zM995 328q49 0 76 2l131 364h547l-242 -667q-258 -63 -633 -64q-528 0 -720 236t-39 653q136 373 445 523q285 138 685 136q326 0 633 -110l-131 -367q-227 100 -472 100t-392 -84q-147 -86 -223 -304t10 -318t325 -100z" />
    <glyph glyph-name="Hcircumflex" unicode="&#x124;" horiz-adv-x="2007" 
d="M989 0l201 553h-504l-201 -553h-579l536 1475h580l-201 -551h504l201 551h579l-536 -1475h-580zM1425 1577l-32 221l-197 -221h-455l332 330h694l88 -330h-430z" />
    <glyph glyph-name="hcircumflex" unicode="&#x125;" horiz-adv-x="2007" 
d="M989 0l201 553h-504l-201 -553h-579l536 1475h580l-201 -551h504l201 551h579l-536 -1475h-580zM1425 1577l-32 221l-197 -221h-455l332 330h694l88 -330h-430z" />
    <glyph glyph-name="Hbar" unicode="&#x126;" horiz-adv-x="2007" 
d="M989 0l201 553h-504l-201 -553h-579l397 1094h-170l84 233h172l53 148h580l-53 -148h504l53 148h579l-53 -148h172l-84 -233h-174l-397 -1094h-580zM1325 924l61 170h-503l-62 -170h504z" />
    <glyph glyph-name="hbar" unicode="&#x127;" horiz-adv-x="2007" 
d="M989 0l201 553h-504l-201 -553h-579l397 1094h-170l84 233h172l53 148h580l-53 -148h504l53 148h579l-53 -148h172l-84 -233h-174l-397 -1094h-580zM1325 924l61 170h-503l-62 -170h504z" />
    <glyph glyph-name="Itilde" unicode="&#x128;" horiz-adv-x="923" 
d="M485 0h-579l536 1475h580zM994 1792q36 0 55 23q18 23 45 92h327q-73 -211 -149 -280t-226 -69t-325 102q-59 34 -95 34t-56 -23t-46 -94h-327q72 211 148 280q77 69 226 69t327 -100q60 -34 96 -34z" />
    <glyph glyph-name="itilde" unicode="&#x129;" horiz-adv-x="923" 
d="M485 0h-579l536 1475h580zM994 1792q36 0 55 23q18 23 45 92h327q-73 -211 -149 -280t-226 -69t-325 102q-59 34 -95 34t-56 -23t-46 -94h-327q72 211 148 280q77 69 226 69t327 -100q60 -34 96 -34z" />
    <glyph glyph-name="Imacron" unicode="&#x12a;" horiz-adv-x="923" 
d="M485 0h-579l536 1475h580zM1300 1630h-1040l84 234h1040z" />
    <glyph glyph-name="imacron" unicode="&#x12b;" horiz-adv-x="923" 
d="M485 0h-579l536 1475h580zM1300 1630h-1040l84 234h1040z" />
    <glyph glyph-name="Ibreve" unicode="&#x12c;" horiz-adv-x="923" 
d="M485 0h-579l536 1475h580zM839 1745q105 0 165 162h376q-72 -195 -213 -273t-393 -78t-337 85t-21 266h375q-57 -162 48 -162z" />
    <glyph glyph-name="ibreve" unicode="&#x12d;" horiz-adv-x="923" 
d="M485 0h-579l536 1475h580zM839 1745q105 0 165 162h376q-72 -195 -213 -273t-393 -78t-337 85t-21 266h375q-57 -162 48 -162z" />
    <glyph glyph-name="Iogonek" unicode="&#x12e;" horiz-adv-x="923" 
d="M147 -453q-211 0 -293 67t-42 179q41 117 227 207h-133l536 1475h580l-537 -1475h-106q-119 -78 -135 -131t12 -75q45 -36 248 -7l-76 -203q-137 -37 -281 -37z" />
    <glyph glyph-name="iogonek" unicode="&#x12f;" horiz-adv-x="923" 
d="M147 -453q-211 0 -293 67t-42 179q41 117 227 207h-133l536 1475h580l-537 -1475h-106q-119 -78 -135 -131t12 -75q45 -36 248 -7l-76 -203q-137 -37 -281 -37z" />
    <glyph glyph-name="Idotaccent" unicode="&#x130;" horiz-adv-x="923" 
d="M485 0h-579l536 1475h580zM1065 1597h-580l107 289h579z" />
    <glyph glyph-name="dotlessi" unicode="&#x131;" horiz-adv-x="923" 
d="M485 0h-579l536 1475h580z" />
    <glyph glyph-name="IJ" unicode="&#x132;" horiz-adv-x="2260" 
d="M1180 356q198 0 272 205l334 914h579l-372 -1029q-101 -274 -269 -378t-470 -104t-523 89l135 369q150 -66 314 -66zM485 0h-579l536 1475h580z" />
    <glyph glyph-name="ij" unicode="&#x133;" horiz-adv-x="2260" 
d="M1180 356q198 0 272 205l334 914h579l-372 -1029q-101 -274 -269 -378t-470 -104t-523 89l135 369q150 -66 314 -66zM485 0h-579l536 1475h580z" />
    <glyph glyph-name="Jcircumflex" unicode="&#x134;" horiz-adv-x="1339" 
d="M256 356q198 0 272 205l334 914h580l-373 -1029q-100 -274 -268 -378t-470 -104t-524 89l136 369q150 -66 313 -66zM1305 1577l-33 221l-197 -221h-454l331 330h695l88 -330h-430z" />
    <glyph glyph-name="jcircumflex" unicode="&#x135;" horiz-adv-x="1339" 
d="M256 356q198 0 272 205l334 914h580l-373 -1029q-100 -274 -268 -378t-470 -104t-524 89l136 369q150 -66 313 -66zM1305 1577l-33 221l-197 -221h-454l331 330h695l88 -330h-430z" />
    <glyph glyph-name="Kcommaaccent" unicode="&#x136;" horiz-adv-x="2000" 
d="M639 -432h-475l340 330h549zM1120 0l-268 553h-166l-201 -553h-579l536 1475h580l-201 -551h148l620 551h604l-850 -773l377 -702h-600z" />
    <glyph glyph-name="kcommaaccent" unicode="&#x137;" horiz-adv-x="2000" 
d="M639 -432h-475l340 330h549zM1120 0l-268 553h-166l-201 -553h-579l536 1475h580l-201 -551h148l620 551h604l-850 -773l377 -702h-600z" />
    <glyph glyph-name="Lacute" unicode="&#x139;" horiz-adv-x="1564" 
d="M-94 0l536 1475h580l-401 -1104h759l-135 -371h-1339zM1022 1577h-483l383 330h548z" />
    <glyph glyph-name="lacute" unicode="&#x13a;" horiz-adv-x="1564" 
d="M-94 0l536 1475h580l-401 -1104h759l-135 -371h-1339zM1022 1577h-483l383 330h548z" />
    <glyph glyph-name="Lcommaaccent" unicode="&#x13b;" horiz-adv-x="1564" 
d="M481 -432h-475l340 330h549zM-94 0l536 1475h580l-401 -1104h759l-135 -371h-1339z" />
    <glyph glyph-name="lcommaaccent" unicode="&#x13c;" horiz-adv-x="1564" 
d="M481 -432h-475l340 330h549zM-94 0l536 1475h580l-401 -1104h759l-135 -371h-1339z" />
    <glyph glyph-name="Lcaron" unicode="&#x13d;" horiz-adv-x="1564" 
d="M-94 0l536 1475h580l-401 -1104h759l-135 -371h-1339zM1272 903h-357l324 572h473z" />
    <glyph glyph-name="lcaron" unicode="&#x13e;" horiz-adv-x="1564" 
d="M-94 0l536 1475h580l-401 -1104h759l-135 -371h-1339zM1272 903h-357l324 572h473z" />
    <glyph glyph-name="Ldot" unicode="&#x13f;" horiz-adv-x="1564" 
d="M-94 0l536 1475h580l-401 -1104h759l-135 -371h-1339zM1479 700h-490l129 353h488z" />
    <glyph glyph-name="ldot" unicode="&#x140;" horiz-adv-x="1564" 
d="M-94 0l536 1475h580l-401 -1104h759l-135 -371h-1339zM1479 700h-490l129 353h488z" />
    <glyph glyph-name="Lslash" unicode="&#x141;" horiz-adv-x="1564" 
d="M-94 0l207 567l-238 -84l102 285l238 82l227 625h580l-160 -443l369 131l-101 -282l-372 -129l-137 -381h759l-135 -371h-1339z" />
    <glyph glyph-name="lslash" unicode="&#x142;" horiz-adv-x="1564" 
d="M-94 0l207 567l-238 -84l102 285l238 82l227 625h580l-160 -443l369 131l-101 -282l-372 -129l-137 -381h759l-135 -371h-1339z" />
    <glyph glyph-name="Nacute" unicode="&#x143;" horiz-adv-x="2168" 
d="M1069 1475q199 0 199 -224l92 -868l397 1092h504l-537 -1475h-831l-92 1079l-393 -1079h-502l536 1475h627zM1620 1577h-483l383 330h548z" />
    <glyph glyph-name="nacute" unicode="&#x144;" horiz-adv-x="2168" 
d="M1069 1475q199 0 199 -224l92 -868l397 1092h504l-537 -1475h-831l-92 1079l-393 -1079h-502l536 1475h627zM1620 1577h-483l383 330h548z" />
    <glyph glyph-name="Ncommaaccent" unicode="&#x145;" horiz-adv-x="2168" 
d="M735 -432h-475l340 330h549zM1069 1475q199 0 199 -224l92 -868l397 1092h504l-537 -1475h-831l-92 1079l-393 -1079h-502l536 1475h627z" />
    <glyph glyph-name="ncommaaccent" unicode="&#x146;" horiz-adv-x="2168" 
d="M735 -432h-475l340 330h549zM1069 1475q199 0 199 -224l92 -868l397 1092h504l-537 -1475h-831l-92 1079l-393 -1079h-502l536 1475h627z" />
    <glyph glyph-name="Ncaron" unicode="&#x147;" horiz-adv-x="2168" 
d="M1069 1475q199 0 199 -224l92 -868l397 1092h504l-537 -1475h-831l-92 1079l-393 -1079h-502l536 1475h627zM1051 1577l-88 330h432l30 -221l197 221h455l-332 -330h-694z" />
    <glyph glyph-name="ncaron" unicode="&#x148;" horiz-adv-x="2168" 
d="M1069 1475q199 0 199 -224l92 -868l397 1092h504l-537 -1475h-831l-92 1079l-393 -1079h-502l536 1475h627zM1051 1577l-88 330h432l30 -221l197 221h455l-332 -330h-694z" />
    <glyph glyph-name="Eng" unicode="&#x14a;" horiz-adv-x="2168" 
d="M1059 -532q-242 0 -410 69l135 369q141 -47 230 -47q158 0 190 94l17 47l-408 1110l-405 -1110h-502l536 1475h545q105 0 157 -44t95 -180l219 -600l299 824h504l-588 -1614q-139 -393 -614 -393z" />
    <glyph glyph-name="eng" unicode="&#x14b;" horiz-adv-x="2168" 
d="M1059 -532q-242 0 -410 69l135 369q141 -47 230 -47q158 0 190 94l17 47l-408 1110l-405 -1110h-502l536 1475h545q105 0 157 -44t95 -180l219 -600l299 824h504l-588 -1614q-139 -393 -614 -393z" />
    <glyph glyph-name="Omacron" unicode="&#x14c;" horiz-adv-x="2031" 
d="M901 328q174 0 282 81q109 81 187 295t23 328q-55 115 -243 115t-297 -81q-108 -81 -183 -290q-162 -448 231 -448zM844 -37q-272 0 -454 67q-182 66 -262 182q-79 116 -87 274t68 343q135 367 391 525t696 157q633 0 767 -348q81 -209 -34 -516q-137 -369 -392 -527
t-693 -157zM1821 1630h-1041l84 234h1041z" />
    <glyph glyph-name="omacron" unicode="&#x14d;" horiz-adv-x="2031" 
d="M901 328q174 0 282 81q109 81 187 295t23 328q-55 115 -243 115t-297 -81q-108 -81 -183 -290q-162 -448 231 -448zM844 -37q-272 0 -454 67q-182 66 -262 182q-79 116 -87 274t68 343q135 367 391 525t696 157q633 0 767 -348q81 -209 -34 -516q-137 -369 -392 -527
t-693 -157zM1821 1630h-1041l84 234h1041z" />
    <glyph glyph-name="Obreve" unicode="&#x14e;" horiz-adv-x="2031" 
d="M901 328q174 0 282 81q109 81 187 295t23 328q-55 115 -243 115t-297 -81q-108 -81 -183 -290q-162 -448 231 -448zM844 -37q-272 0 -454 67q-182 66 -262 182q-79 116 -87 274t68 343q135 367 391 525t696 157q633 0 767 -348q81 -209 -34 -516q-137 -369 -392 -527
t-693 -157zM1359 1745q105 0 165 162h377q-72 -195 -213 -273q-142 -78 -394 -78t-337 85t-21 266h375q-57 -162 48 -162z" />
    <glyph glyph-name="obreve" unicode="&#x14f;" horiz-adv-x="2031" 
d="M901 328q174 0 282 81q109 81 187 295t23 328q-55 115 -243 115t-297 -81q-108 -81 -183 -290q-162 -448 231 -448zM844 -37q-272 0 -454 67q-182 66 -262 182q-79 116 -87 274t68 343q135 367 391 525t696 157q633 0 767 -348q81 -209 -34 -516q-137 -369 -392 -527
t-693 -157zM1359 1745q105 0 165 162h377q-72 -195 -213 -273q-142 -78 -394 -78t-337 85t-21 266h375q-57 -162 48 -162z" />
    <glyph glyph-name="Ohungarumlaut" unicode="&#x150;" horiz-adv-x="2031" 
d="M901 328q174 0 282 81q109 81 187 295t23 328q-55 115 -243 115t-297 -81q-108 -81 -183 -290q-162 -448 231 -448zM844 -37q-272 0 -454 67q-182 66 -262 182q-79 116 -87 274t68 343q135 367 391 525t696 157q633 0 767 -348q81 -209 -34 -516q-137 -369 -392 -527
t-693 -157zM1184 1577h-436l380 330h504zM1823 1577h-437l383 330h502z" />
    <glyph glyph-name="ohungarumlaut" unicode="&#x151;" horiz-adv-x="2031" 
d="M901 328q174 0 282 81q109 81 187 295t23 328q-55 115 -243 115t-297 -81q-108 -81 -183 -290q-162 -448 231 -448zM844 -37q-272 0 -454 67q-182 66 -262 182q-79 116 -87 274t68 343q135 367 391 525t696 157q633 0 767 -348q81 -209 -34 -516q-137 -369 -392 -527
t-693 -157zM1184 1577h-436l380 330h504zM1823 1577h-437l383 330h502z" />
    <glyph glyph-name="OE" unicode="&#x152;" horiz-adv-x="2736" 
d="M809 0q-613 0 -737 335q-76 204 32 501q125 342 377 490t643 149h1780l-125 -340h-840l-81 -226h755l-127 -340h-753l-84 -229h841l-123 -340h-1558zM854 356h221l279 764h-234q-182 0 -287 -82t-177 -282t-26 -300t224 -100z" />
    <glyph glyph-name="oe" unicode="&#x153;" horiz-adv-x="2736" 
d="M809 0q-613 0 -737 335q-76 204 32 501q125 342 377 490t643 149h1780l-125 -340h-840l-81 -226h755l-127 -340h-753l-84 -229h841l-123 -340h-1558zM854 356h221l279 764h-234q-182 0 -287 -82t-177 -282t-26 -300t224 -100z" />
    <glyph glyph-name="Racute" unicode="&#x154;" horiz-adv-x="1896" 
d="M1231 1475q422 0 568 -159t42 -448q-59 -164 -179 -246t-310 -110l225 -512h-596l-156 426h-184l-156 -426h-579l536 1475h789zM1073 1135h-174l-135 -369h164q168 0 238 29t106 133q45 98 2 152t-201 55zM1419 1577h-483l383 330h549z" />
    <glyph glyph-name="racute" unicode="&#x155;" horiz-adv-x="1896" 
d="M1231 1475q422 0 568 -159t42 -448q-59 -164 -179 -246t-310 -110l225 -512h-596l-156 426h-184l-156 -426h-579l536 1475h789zM1073 1135h-174l-135 -369h164q168 0 238 29t106 133q45 98 2 152t-201 55zM1419 1577h-483l383 330h549z" />
    <glyph glyph-name="Rcommaaccent" unicode="&#x156;" horiz-adv-x="1896" 
d="M571 -432h-475l340 330h549zM1231 1475q422 0 568 -159t42 -448q-59 -164 -179 -246t-310 -110l225 -512h-596l-156 426h-184l-156 -426h-579l536 1475h789zM1073 1135h-174l-135 -369h164q168 0 238 29t106 133q45 98 2 152t-201 55z" />
    <glyph glyph-name="rcommaaccent" unicode="&#x157;" horiz-adv-x="1896" 
d="M571 -432h-475l340 330h549zM1231 1475q422 0 568 -159t42 -448q-59 -164 -179 -246t-310 -110l225 -512h-596l-156 426h-184l-156 -426h-579l536 1475h789zM1073 1135h-174l-135 -369h164q168 0 238 29t106 133q45 98 2 152t-201 55z" />
    <glyph glyph-name="Rcaron" unicode="&#x158;" horiz-adv-x="1896" 
d="M1231 1475q422 0 568 -159t42 -448q-59 -164 -179 -246t-310 -110l225 -512h-596l-156 426h-184l-156 -426h-579l536 1475h789zM1073 1135h-174l-135 -369h164q168 0 238 29t106 133q45 98 2 152t-201 55zM850 1577l-88 330h432l31 -221l196 221h455l-332 -330h-694z" />
    <glyph glyph-name="rcaron" unicode="&#x159;" horiz-adv-x="1896" 
d="M1231 1475q422 0 568 -159t42 -448q-59 -164 -179 -246t-310 -110l225 -512h-596l-156 426h-184l-156 -426h-579l536 1475h789zM1073 1135h-174l-135 -369h164q168 0 238 29t106 133q45 98 2 152t-201 55zM850 1577l-88 330h432l31 -221l196 221h455l-332 -330h-694z" />
    <glyph glyph-name="Sacute" unicode="&#x15a;" horiz-adv-x="1638" 
d="M616 -37q-449 0 -741 117l125 340q110 -47 262 -79t304 -32t222 24q72 24 99 85q45 113 -90 139l-224 39q-512 86 -358 514q76 211 280 306t556 95t655 -110l-121 -338q-242 102 -534 102q-137 0 -199 -20q-62 -19 -84 -73q-20 -54 -3 -81t83 -41l225 -39
q535 -88 361 -544q-84 -221 -285 -313t-533 -91zM1333 1577h-483l383 330h549z" />
    <glyph glyph-name="sacute" unicode="&#x15b;" horiz-adv-x="1638" 
d="M616 -37q-449 0 -741 117l125 340q110 -47 262 -79t304 -32t222 24q72 24 99 85q45 113 -90 139l-224 39q-512 86 -358 514q76 211 280 306t556 95t655 -110l-121 -338q-242 102 -534 102q-137 0 -199 -20q-62 -19 -84 -73q-20 -54 -3 -81t83 -41l225 -39
q535 -88 361 -544q-84 -221 -285 -313t-533 -91zM1333 1577h-483l383 330h549z" />
    <glyph glyph-name="Scircumflex" unicode="&#x15c;" horiz-adv-x="1638" 
d="M616 -37q-449 0 -741 117l125 340q110 -47 262 -79t304 -32t222 24q72 24 99 85q45 113 -90 139l-224 39q-512 86 -358 514q76 211 280 306t556 95t655 -110l-121 -338q-242 102 -534 102q-137 0 -199 -20q-62 -19 -84 -73q-20 -54 -3 -81t83 -41l225 -39
q535 -88 361 -544q-84 -221 -285 -313t-533 -91zM1219 1577l-33 221l-197 -221h-454l331 330h695l88 -330h-430z" />
    <glyph glyph-name="scircumflex" unicode="&#x15d;" horiz-adv-x="1638" 
d="M616 -37q-449 0 -741 117l125 340q110 -47 262 -79t304 -32t222 24q72 24 99 85q45 113 -90 139l-224 39q-512 86 -358 514q76 211 280 306t556 95t655 -110l-121 -338q-242 102 -534 102q-137 0 -199 -20q-62 -19 -84 -73q-20 -54 -3 -81t83 -41l225 -39
q535 -88 361 -544q-84 -221 -285 -313t-533 -91zM1219 1577l-33 221l-197 -221h-454l331 330h695l88 -330h-430z" />
    <glyph glyph-name="Scedilla" unicode="&#x15e;" horiz-adv-x="1638" 
d="M383 -453q-92 -1 -184 19t-140 47l74 217q121 -35 205 -35t102 47q20 59 -32 127q-307 20 -533 111l125 340q110 -47 262 -79t304 -32t222 24q72 24 99 85q45 113 -90 139l-224 39q-512 86 -358 514q76 211 280 306t556 95t655 -110l-121 -338q-242 102 -534 102
q-137 0 -199 -20q-62 -19 -84 -73q-20 -54 -3 -81t83 -41l225 -39q535 -88 361 -544q-78 -205 -257 -297t-466 -105q100 -131 28 -276q-65 -142 -356 -142z" />
    <glyph glyph-name="scedilla" unicode="&#x15f;" horiz-adv-x="1638" 
d="M383 -453q-92 -1 -184 19t-140 47l74 217q121 -35 205 -35t102 47q20 59 -32 127q-307 20 -533 111l125 340q110 -47 262 -79t304 -32t222 24q72 24 99 85q45 113 -90 139l-224 39q-512 86 -358 514q76 211 280 306t556 95t655 -110l-121 -338q-242 102 -534 102
q-137 0 -199 -20q-62 -19 -84 -73q-20 -54 -3 -81t83 -41l225 -39q535 -88 361 -544q-78 -205 -257 -297t-466 -105q100 -131 28 -276q-65 -142 -356 -142z" />
    <glyph glyph-name="Scaron" unicode="&#x160;" horiz-adv-x="1638" 
d="M616 -37q-449 0 -741 117l125 340q110 -47 262 -79t304 -32t222 24q72 24 99 85q45 113 -90 139l-224 39q-512 86 -358 514q76 211 280 306t556 95t655 -110l-121 -338q-242 102 -534 102q-137 0 -199 -20q-62 -19 -84 -73q-20 -54 -3 -81t83 -41l225 -39
q535 -88 361 -544q-84 -221 -285 -313t-533 -91zM764 1577l-88 330h432l31 -221l196 221h455l-332 -330h-694z" />
    <glyph glyph-name="scaron" unicode="&#x161;" horiz-adv-x="1638" 
d="M616 -37q-449 0 -741 117l125 340q110 -47 262 -79t304 -32t222 24q72 24 99 85q45 113 -90 139l-224 39q-512 86 -358 514q76 211 280 306t556 95t655 -110l-121 -338q-242 102 -534 102q-137 0 -199 -20q-62 -19 -84 -73q-20 -54 -3 -81t83 -41l225 -39
q535 -88 361 -544q-84 -221 -285 -313t-533 -91zM764 1577l-88 330h432l31 -221l196 221h455l-332 -330h-694z" />
    <glyph glyph-name="Tcommaaccent" unicode="&#x162;" horiz-adv-x="1579" 
d="M371 -432h-475l340 330h548zM1665 1104h-438l-402 -1104h-579l401 1104h-452l135 371h1470z" />
    <glyph glyph-name="tcommaaccent" unicode="&#x163;" horiz-adv-x="1579" 
d="M371 -432h-475l340 330h548zM1665 1104h-438l-402 -1104h-579l401 1104h-452l135 371h1470z" />
    <glyph glyph-name="Tcaron" unicode="&#x164;" horiz-adv-x="1579" 
d="M1665 1104h-438l-402 -1104h-579l401 1104h-452l135 371h1470zM754 1577l-88 330h432l30 -221l197 221h455l-332 -330h-694z" />
    <glyph glyph-name="tcaron" unicode="&#x165;" horiz-adv-x="1579" 
d="M1665 1104h-438l-402 -1104h-579l401 1104h-452l135 371h1470zM754 1577l-88 330h432l30 -221l197 221h455l-332 -330h-694z" />
    <glyph glyph-name="Tbar" unicode="&#x166;" horiz-adv-x="1579" 
d="M1257 506h-247l-185 -506h-579l184 506h-260l86 231h258l133 367h-452l135 371h1470l-135 -371h-438l-133 -367h249z" />
    <glyph glyph-name="tbar" unicode="&#x167;" horiz-adv-x="1579" 
d="M1257 506h-247l-185 -506h-579l184 506h-260l86 231h258l133 367h-452l135 371h1470l-135 -371h-438l-133 -367h249z" />
    <glyph glyph-name="Utilde" unicode="&#x168;" horiz-adv-x="1929" 
d="M846 336q118 0 194 55t134 215l315 869h579l-309 -852q-133 -371 -362 -515t-655 -144t-594 177q-167 178 -54 486l309 848h580l-313 -867q-102 -272 176 -272zM1498 1792q36 0 54 23t45 92h328q-73 -211 -149 -280t-226 -69t-325 102q-59 34 -95 34t-56 -23
q-19 -23 -46 -94h-328q72 211 149 280t225 69t328 -100q60 -34 96 -34z" />
    <glyph glyph-name="utilde" unicode="&#x169;" horiz-adv-x="1929" 
d="M846 336q118 0 194 55t134 215l315 869h579l-309 -852q-133 -371 -362 -515t-655 -144t-594 177q-167 178 -54 486l309 848h580l-313 -867q-102 -272 176 -272zM1498 1792q36 0 54 23t45 92h328q-73 -211 -149 -280t-226 -69t-325 102q-59 34 -95 34t-56 -23
q-19 -23 -46 -94h-328q72 211 149 280t225 69t328 -100q60 -34 96 -34z" />
    <glyph glyph-name="Umacron" unicode="&#x16a;" horiz-adv-x="1929" 
d="M846 336q118 0 194 55t134 215l315 869h579l-309 -852q-133 -371 -362 -515t-655 -144t-594 177q-167 178 -54 486l309 848h580l-313 -867q-102 -272 176 -272zM1804 1630h-1040l84 234h1040z" />
    <glyph glyph-name="umacron" unicode="&#x16b;" horiz-adv-x="1929" 
d="M846 336q118 0 194 55t134 215l315 869h579l-309 -852q-133 -371 -362 -515t-655 -144t-594 177q-167 178 -54 486l309 848h580l-313 -867q-102 -272 176 -272zM1804 1630h-1040l84 234h1040z" />
    <glyph glyph-name="Ubreve" unicode="&#x16c;" horiz-adv-x="1929" 
d="M846 336q118 0 194 55t134 215l315 869h579l-309 -852q-133 -371 -362 -515t-655 -144t-594 177q-167 178 -54 486l309 848h580l-313 -867q-102 -272 176 -272zM1340 1745q105 0 165 162h377q-72 -195 -213 -273t-393 -78t-337 85t-21 266h374q-57 -162 48 -162z" />
    <glyph glyph-name="ubreve" unicode="&#x16d;" horiz-adv-x="1929" 
d="M846 336q118 0 194 55t134 215l315 869h579l-309 -852q-133 -371 -362 -515t-655 -144t-594 177q-167 178 -54 486l309 848h580l-313 -867q-102 -272 176 -272zM1340 1745q105 0 165 162h377q-72 -195 -213 -273t-393 -78t-337 85t-21 266h374q-57 -162 48 -162z" />
    <glyph glyph-name="Uring" unicode="&#x16e;" horiz-adv-x="1929" 
d="M846 336q118 0 194 55t134 215l315 869h579l-309 -852q-133 -371 -362 -515t-655 -144t-594 177q-167 178 -54 486l309 848h580l-313 -867q-102 -272 176 -272zM1288 1667q88 0 113 66q31 86 -72 86q-88 0 -115 -68q-28 -84 74 -84zM1237 1556q-252 0 -343 48t-52 161
q34 92 160 127t378 35t342 -48q92 -48 52 -159q-35 -94 -160 -129t-377 -35z" />
    <glyph glyph-name="uring" unicode="&#x16f;" horiz-adv-x="1929" 
d="M846 336q118 0 194 55t134 215l315 869h579l-309 -852q-133 -371 -362 -515t-655 -144t-594 177q-167 178 -54 486l309 848h580l-313 -867q-102 -272 176 -272zM1288 1667q88 0 113 66q31 86 -72 86q-88 0 -115 -68q-28 -84 74 -84zM1237 1556q-252 0 -343 48t-52 161
q34 92 160 127t378 35t342 -48q92 -48 52 -159q-35 -94 -160 -129t-377 -35z" />
    <glyph glyph-name="Uhungarumlaut" unicode="&#x170;" horiz-adv-x="1929" 
d="M846 336q118 0 194 55t134 215l315 869h579l-309 -852q-133 -371 -362 -515t-655 -144t-594 177q-167 178 -54 486l309 848h580l-313 -867q-102 -272 176 -272zM1165 1577h-436l381 330h504zM1804 1577h-436l383 330h502z" />
    <glyph glyph-name="uhungarumlaut" unicode="&#x171;" horiz-adv-x="1929" 
d="M846 336q118 0 194 55t134 215l315 869h579l-309 -852q-133 -371 -362 -515t-655 -144t-594 177q-167 178 -54 486l309 848h580l-313 -867q-102 -272 176 -272zM1165 1577h-436l381 330h504zM1804 1577h-436l383 330h502z" />
    <glyph glyph-name="Uogonek" unicode="&#x172;" horiz-adv-x="1929" 
d="M711 -453q-211 0 -294 67t-44 175t180 186q-327 39 -441 211t-18 441l309 848h580l-313 -867q-102 -272 176 -272q118 0 194 55t134 215l315 869h579l-309 -852q-123 -338 -322 -487q-200 -148 -542 -169q-74 -55 -89 -103q-16 -48 12 -70q46 -37 249 -7l-76 -203
q-137 -37 -280 -37z" />
    <glyph glyph-name="uogonek" unicode="&#x173;" horiz-adv-x="1929" 
d="M711 -453q-211 0 -294 67t-44 175t180 186q-327 39 -441 211t-18 441l309 848h580l-313 -867q-102 -272 176 -272q118 0 194 55t134 215l315 869h579l-309 -852q-123 -338 -322 -487q-200 -148 -542 -169q-74 -55 -89 -103q-16 -48 12 -70q46 -37 249 -7l-76 -203
q-137 -37 -280 -37z" />
    <glyph glyph-name="Wcircumflex" unicode="&#x174;" horiz-adv-x="3016" 
d="M2101 0h-633l136 1102l-498 -914q-92 -188 -330 -188h-571l86 1475h571l-92 -1137l614 1137h779l-154 -1145l657 1145h556l-779 -1287q-109 -188 -342 -188zM1929 1577l-33 221l-196 -221h-455l332 330h694l88 -330h-430z" />
    <glyph glyph-name="wcircumflex" unicode="&#x175;" horiz-adv-x="3016" 
d="M2101 0h-633l136 1102l-498 -914q-92 -188 -330 -188h-571l86 1475h571l-92 -1137l614 1137h779l-154 -1145l657 1145h556l-779 -1287q-109 -188 -342 -188zM1929 1577l-33 221l-196 -221h-455l332 330h694l88 -330h-430z" />
    <glyph glyph-name="Ycircumflex" unicode="&#x176;" horiz-adv-x="1937" 
d="M983 0h-580l199 543l-332 932h543l188 -541l555 541h652l-1041 -969zM1348 1577l-33 221l-197 -221h-454l331 330h695l88 -330h-430z" />
    <glyph glyph-name="ycircumflex" unicode="&#x177;" horiz-adv-x="1937" 
d="M983 0h-580l199 543l-332 932h543l188 -541l555 541h652l-1041 -969zM1348 1577l-33 221l-197 -221h-454l331 330h695l88 -330h-430z" />
    <glyph glyph-name="Ydieresis" unicode="&#x178;" horiz-adv-x="1937" 
d="M983 0h-580l199 543l-332 932h543l188 -541l555 541h652l-1041 -969zM1188 1597h-426l104 289h426zM1724 1597h-426l107 289h426z" />
    <glyph glyph-name="Zacute" unicode="&#x179;" horiz-adv-x="1751" 
d="M1397 0h-1547l74 195q31 80 71 130t109 99l947 696h-756l129 355h1474l-124 -332l-1090 -787h842zM1417 1577h-483l383 330h549z" />
    <glyph glyph-name="zacute" unicode="&#x17a;" horiz-adv-x="1751" 
d="M1397 0h-1547l74 195q31 80 71 130t109 99l947 696h-756l129 355h1474l-124 -332l-1090 -787h842zM1417 1577h-483l383 330h549z" />
    <glyph glyph-name="Zdotaccent" unicode="&#x17b;" horiz-adv-x="1751" 
d="M1397 0h-1547l74 195q31 80 71 130t109 99l947 696h-756l129 355h1474l-124 -332l-1090 -787h842zM1485 1597h-580l107 289h579z" />
    <glyph glyph-name="zdotaccent" unicode="&#x17c;" horiz-adv-x="1751" 
d="M1397 0h-1547l74 195q31 80 71 130t109 99l947 696h-756l129 355h1474l-124 -332l-1090 -787h842zM1485 1597h-580l107 289h579z" />
    <glyph glyph-name="Zcaron" unicode="&#x17d;" horiz-adv-x="1751" 
d="M1397 0h-1547l74 195q31 80 71 130t109 99l947 696h-756l129 355h1474l-124 -332l-1090 -787h842zM848 1577l-88 330h432l31 -221l196 221h455l-332 -330h-694z" />
    <glyph glyph-name="zcaron" unicode="&#x17e;" horiz-adv-x="1751" 
d="M1397 0h-1547l74 195q31 80 71 130t109 99l947 696h-756l129 355h1474l-124 -332l-1090 -787h842zM848 1577l-88 330h432l31 -221l196 221h455l-332 -330h-694z" />
    <glyph glyph-name="Scommaaccent" unicode="&#x218;" horiz-adv-x="1638" 
d="M461 -432h-475l340 330h548zM616 -37q-449 0 -741 117l125 340q110 -47 262 -79t304 -32t222 24q72 24 99 85q45 113 -90 139l-224 39q-512 86 -358 514q76 211 280 306t556 95t655 -110l-121 -338q-242 102 -534 102q-137 0 -199 -20q-62 -19 -84 -73q-20 -54 -3 -81
t83 -41l225 -39q535 -88 361 -544q-84 -221 -285 -313t-533 -91z" />
    <glyph glyph-name="scommaaccent" unicode="&#x219;" horiz-adv-x="1638" 
d="M461 -432h-475l340 330h548zM616 -37q-449 0 -741 117l125 340q110 -47 262 -79t304 -32t222 24q72 24 99 85q45 113 -90 139l-224 39q-512 86 -358 514q76 211 280 306t556 95t655 -110l-121 -338q-242 102 -534 102q-137 0 -199 -20q-62 -19 -84 -73q-20 -54 -3 -81
t83 -41l225 -39q535 -88 361 -544q-84 -221 -285 -313t-533 -91z" />
    <glyph glyph-name="circumflex" unicode="&#x2c6;" horiz-adv-x="1761" 
d="M1315 1577l-33 221l-197 -221h-454l332 330h694l88 -330h-430z" />
    <glyph glyph-name="caron" unicode="&#x2c7;" horiz-adv-x="1761" 
d="M840 1577l-88 330h432l30 -221l197 221h455l-332 -330h-694z" />
    <glyph glyph-name="breve" unicode="&#x2d8;" horiz-adv-x="1759" 
d="M1246 1745q105 0 165 162h377q-72 -195 -213 -273t-393 -78t-337 85t-22 266h375q-57 -162 48 -162z" />
    <glyph glyph-name="dotaccent" unicode="&#x2d9;" horiz-adv-x="1761" 
d="M1485 1597h-580l107 289h579z" />
    <glyph glyph-name="ring" unicode="&#x2da;" horiz-adv-x="1759" 
d="M1229 1667q88 0 112 66q31 86 -71 86q-88 0 -115 -68q-28 -84 74 -84zM1177 1556q-253 0 -343 48t-52 161q35 92 161 127t377 35t343 -48t51 -159q-35 -94 -160 -129t-377 -35z" />
    <glyph glyph-name="ogonek" unicode="&#x2db;" horiz-adv-x="1777" 
d="M569 -453q-211 0 -294 67t-42 179q27 70 89 122t178 103h329q-147 -94 -163 -148t12 -76q45 -36 248 -7l-76 -203q-137 -37 -281 -37z" />
    <glyph glyph-name="tilde" unicode="&#x2dc;" horiz-adv-x="1779" 
d="M1443 1792q36 0 54 23t45 92h328q-72 -211 -149 -280t-225 -69t-327 102q-59 34 -95 34t-55 -23t-46 -94h-328q72 211 149 280t225 69q147 0 327 -100q60 -34 97 -34z" />
    <glyph glyph-name="hungarumlaut" unicode="&#x2dd;" horiz-adv-x="1761" 
d="M918 1577h-437l381 330h504zM1556 1577h-436l383 330h502z" />
    <glyph glyph-name="Delta" unicode="&#x394;" horiz-adv-x="1964" 
d="M1026 1475h672v-1475h-1919l913 1286q70 102 147 146t187 43zM1163 356l21 858l-570 -858h549z" />
    <glyph glyph-name="Omega" unicode="&#x3a9;" horiz-adv-x="2031" 
d="M1137 1147q-171 0 -277 -73t-174 -249q-43 -111 -43 -199q1 -88 35 -156q34 -66 106 -138l-112 -332h-785l129 356h330q-139 86 -189 249t19 374q196 532 986 532q392 0 578 -110q187 -110 231 -260t-13 -315q-58 -166 -156 -277t-307 -193h350l-131 -356h-815l127 332
q141 72 224 169t136 261q121 385 -249 385z" />
    <glyph glyph-name="mu" unicode="&#x3bc;" horiz-adv-x="2695" 
d="M1067 1475q117 -1 163 -59t44 -183l10 -645l612 887h897l-534 -1475h-586l389 1065l-762 -1065h-499l4 1090l-397 -1090h-502l536 1475h625z" />
    <glyph glyph-name="pi" unicode="&#x3c0;" horiz-adv-x="2007" 
d="M989 0l402 1104h-504l-402 -1104h-579l536 1475h1663l-536 -1475h-580z" />
    <glyph glyph-name="uni2009" unicode="&#x2009;" horiz-adv-x="61" 
 />
    <glyph glyph-name="endash" unicode="&#x2013;" horiz-adv-x="1433" 
d="M-29 586l111 303h1384l-110 -303h-1385z" />
    <glyph glyph-name="emdash" unicode="&#x2014;" horiz-adv-x="2867" 
d="M-29 586l113 303h2818l-113 -303h-2818z" />
    <glyph glyph-name="quoteleft" unicode="&#x2018;" horiz-adv-x="806" 
d="M621 1475h360l-326 -572h-483z" />
    <glyph glyph-name="quoteright" unicode="&#x2019;" horiz-adv-x="806" 
d="M532 903h-360l324 572h485z" />
    <glyph glyph-name="quotesinglbase" unicode="&#x201a;" horiz-adv-x="892" 
d="M158 -219h-361l326 571h483z" />
    <glyph glyph-name="quotedblleft" unicode="&#x201c;" horiz-adv-x="1501" 
d="M664 1475h360l-326 -572h-483zM1274 1475h360l-325 -572h-484z" />
    <glyph glyph-name="quotedblright" unicode="&#x201d;" horiz-adv-x="1501" 
d="M575 903h-360l324 572h485zM1186 903h-361l324 572h485z" />
    <glyph glyph-name="quotedblbase" unicode="&#x201e;" horiz-adv-x="1503" 
d="M158 -219h-361l326 571h483zM768 -219h-360l325 571h484z" />
    <glyph glyph-name="dagger" unicode="&#x2020;" horiz-adv-x="1148" 
d="M1174 889h-357l-321 -889h-344l321 889h-354l92 258h356l119 328h344l-119 -328h355z" />
    <glyph glyph-name="daggerdbl" unicode="&#x2021;" horiz-adv-x="1148" 
d="M969 328h-355l-118 -328h-344l118 328h-356l94 258h357l108 303h-354l92 258h356l119 328h344l-119 -328h355l-92 -258h-357l-108 -303h354z" />
    <glyph glyph-name="bullet" unicode="&#x2022;" horiz-adv-x="1054" 
d="M434 403q-200 0 -272 108t-8 277q64 168 171 236t307 68t272 -106t10 -276q-64 -169 -172 -238t-308 -69z" />
    <glyph glyph-name="ellipsis" unicode="&#x2026;" horiz-adv-x="2611" 
d="M424 0h-490l129 352h488zM1284 0h-489l129 352h487zM2144 0h-489l129 352h487z" />
    <glyph glyph-name="perthousand" unicode="&#x2030;" horiz-adv-x="3917" 
d="M2222 711q-72 -1 -115 -51t-92 -184t-35 -200t90 -66t120 52q42 51 94 189q90 260 -62 260zM3336 711q-72 -1 -114 -51t-92 -184t-36 -200t91 -66t119 52q42 51 94 189q90 260 -62 260zM2058 -25q-295 0 -396 155t-12 389q89 235 219 331t372 96q293 0 393 -154t12 -397
q-90 -227 -219 -323t-369 -97zM3172 -25q-295 0 -396 155t-12 389q89 235 219 331t372 96q293 0 393 -154t12 -397q-90 -227 -219 -323t-369 -97zM733 1264q-72 0 -115 -50t-92 -185q-48 -134 -34 -200q14 -65 90 -65t118 51t95 189q90 260 -62 260zM1767 1475h381
l-1108 -1475h-383zM569 528q-295 0 -396 155t-12 389t219 330t372 97q293 1 393 -153t12 -398q-90 -228 -219 -324t-369 -96z" />
    <glyph glyph-name="guilsinglleft" unicode="&#x2039;" horiz-adv-x="958" 
d="M614 1262h418l-487 -541l106 -508h-379l-149 535z" />
    <glyph glyph-name="guilsinglright" unicode="&#x203a;" horiz-adv-x="958" 
d="M350 213h-416l488 541l-109 508h381l150 -535z" />
    <glyph glyph-name="fraction" unicode="&#x2044;" horiz-adv-x="575" 
d="M653 1475h381l-1108 -1475h-383z" />
    <glyph glyph-name="zerosuperior" unicode="&#x2070;" horiz-adv-x="1114" 
d="M834 1540q-72 0 -115 -50t-92 -184t-35 -200t90 -66t119 52t94 188q91 260 -61 260zM670 805q-295 0 -397 154q-101 155 -12 389t219 331q130 96 372 97q293 0 393 -154t12 -397q-91 -227 -219 -323t-368 -97z" />
    <glyph glyph-name="foursuperior" unicode="&#x2074;" horiz-adv-x="1058" 
d="M825 1751h469l-184 -510h129l-78 -211h-129l-71 -201h-359l74 201h-522l94 260l407 371q94 90 170 90zM752 1241l135 371l-389 -371h254z" />
    <glyph glyph-name="fivesuperior" unicode="&#x2075;" horiz-adv-x="1019" 
d="M544 805q-238 0 -431 74l80 219q145 -66 335 -66q115 0 164 14t66 50q18 48 -10 72t-111 24q-172 0 -373 -12l207 571h829l-81 -229h-514l-41 -121q33 4 96 4q260 0 337 -99t17 -262q-48 -129 -190 -184t-380 -55z" />
    <glyph glyph-name="sixsuperior" unicode="&#x2076;" horiz-adv-x="1079" 
d="M682 1012q111 0 152 108q41 123 -111 123q-57 0 -133 -16q-70 -215 92 -215zM659 805q-299 -1 -398 151t-7 408q88 232 247 322t411 90t429 -64l-77 -219q-131 57 -289 57q-157 0 -223 -32t-97 -105q94 23 185 23q211 0 305 -100t37 -256t-175 -216t-348 -59z" />
    <glyph glyph-name="sevensuperior" unicode="&#x2077;" horiz-adv-x="970" 
d="M565 829h-381l39 111q29 86 67 138t130 128l368 316h-493l86 229h934l-49 -135q-26 -59 -52 -86t-48 -44q-21 -17 -27 -24l-394 -338q-69 -57 -99 -97t-48 -97z" />
    <glyph glyph-name="eightsuperior" unicode="&#x2078;" horiz-adv-x="1087" 
d="M657 1014q111 0 144 90q45 127 -90 127q-59 0 -93 -22t-51 -72q-45 -123 90 -123zM774 1352q59 0 91 22t55 78q41 121 -93 121q-61 0 -93 -23t-54 -77q-41 -121 94 -121zM651 805q-307 0 -412 87t-57 228q63 174 307 189q-89 20 -123 90t-1 162q43 121 160 168
q119 47 353 47t340 -82t58 -221q-61 -178 -270 -199q100 -14 138 -87t0 -177t-150 -155q-112 -50 -343 -50z" />
    <glyph glyph-name="ninesuperior" unicode="&#x2079;" horiz-adv-x="1079" 
d="M576 805q-248 0 -435 65l76 217q131 -55 291 -55t224 32t95 103q-90 -23 -184 -22q-211 0 -305 100q-94 99 -36 255t175 216t346 60q299 0 397 -152t11 -395q-88 -243 -248 -333q-159 -90 -407 -91zM760 1337q57 0 133 17q70 215 -92 215q-113 0 -150 -109
q-43 -123 109 -123z" />
    <glyph glyph-name="zeroinferior" unicode="&#x2080;" horiz-adv-x="1114" 
d="M432 434q-72 0 -115 -50t-92 -184t-35 -200t90 -66t120 52q42 52 94 188q90 260 -62 260zM268 -301q-295 0 -396 155t-12 389t219 330t372 97q293 0 393 -154t12 -397q-90 -227 -219 -323t-369 -97z" />
    <glyph glyph-name="oneinferior" unicode="&#x2081;" horiz-adv-x="763" 
d="M291 -276h-381l235 645l-292 -125l94 264l334 137h344z" />
    <glyph glyph-name="twoinferior" unicode="&#x2082;" horiz-adv-x="985" 
d="M348 670q270 0 370 -89t40 -247q-49 -131 -198 -210q-76 -40 -169 -85l-162 -84h447l-84 -231h-907l53 141q25 61 51 95q27 34 76 58l375 201q113 59 134 113t-10 83q-32 27 -160 27t-282 -45l84 230q186 43 342 43z" />
    <glyph glyph-name="threeinferior" unicode="&#x2083;" horiz-adv-x="1032" 
d="M156 -301q-250 0 -439 76l80 217q150 -66 338 -66q119 0 167 12t64 51q16 37 -7 61q-22 24 -85 24h-305l70 190l367 152h-467l86 229h895l-52 -137q-24 -63 -52 -99t-73 -53l-276 -125q179 -4 239 -89t9 -224q-82 -219 -559 -219z" />
    <glyph glyph-name="fourinferior" unicode="&#x2084;" horiz-adv-x="1058" 
d="M424 645h469l-184 -510h129l-78 -211h-129l-72 -200h-358l73 200h-522l94 260l408 371q94 90 170 90zM350 135l135 371l-389 -371h254z" />
    <glyph glyph-name="fiveinferior" unicode="&#x2085;" horiz-adv-x="1019" 
d="M142 -301q-238 0 -431 74l80 219q145 -66 336 -66q115 0 164 14t65 50q18 48 -10 72t-110 24q-172 0 -373 -12l207 571h829l-82 -229h-514l-41 -121q33 4 96 4q260 0 337 -99t18 -261q-49 -129 -191 -185t-380 -55z" />
    <glyph glyph-name="sixinferior" unicode="&#x2086;" horiz-adv-x="1079" 
d="M281 -94q111 0 151 108q41 123 -110 123q-57 0 -134 -16q-69 -215 93 -215zM258 -301q-299 -1 -398 151t-7 408q88 233 246 323q159 89 411 89t430 -64l-78 -219q-130 57 -288 57t-224 -32t-96 -105q94 23 184 23q211 0 305 -100t37 -256t-175 -216t-347 -59z" />
    <glyph glyph-name="seveninferior" unicode="&#x2087;" horiz-adv-x="970" 
d="M164 -276h-381l39 110q29 86 66 138q38 52 130 128l369 316h-493l86 229h933l-49 -135q-32 -71 -77 -111q-7 -6 -25 -21t-25 -22l-393 -338q-70 -57 -100 -97t-47 -97z" />
    <glyph glyph-name="eightinferior" unicode="&#x2088;" horiz-adv-x="1087" 
d="M256 -92q59 0 92 20t51 70q45 127 -90 127q-59 0 -92 -22t-51 -72q-45 -123 90 -123zM373 246q59 0 91 22t54 78q41 121 -92 121q-61 0 -93 -23t-54 -77q-41 -121 94 -121zM250 -301q-307 0 -413 87q-105 87 -56 228q63 174 307 189q-88 20 -123 90t-2 162
q43 121 161 168t352 47t340 -82t58 -221q-61 -178 -270 -199q100 -14 138 -87t0 -177t-150 -155q-112 -50 -342 -50z" />
    <glyph glyph-name="nineinferior" unicode="&#x2089;" horiz-adv-x="1079" 
d="M174 -301q-248 0 -434 65l76 218q130 -56 290 -56t225 32t95 103q-90 -23 -184 -22q-211 0 -305 100t-36 256t175 215t346 60q299 0 397 -152t10 -395t-247 -334q-160 -90 -408 -90zM358 231q57 0 134 17q70 215 -93 215q-113 0 -149 -109q-44 -123 108 -123z" />
    <glyph glyph-name="Euro" unicode="&#x20ac;" 
d="M911 -37q-340 0 -520 142t-176 411h-223l63 170h181q8 47 24 100h-170l64 170h165q131 299 368 427t579 128q254 0 538 -100l-131 -367q-217 90 -365 90t-235 -39q-88 -40 -151 -139h544l-63 -170h-563q-20 -40 -33 -100h561l-63 -170h-519q8 -92 80 -133t236 -41t373 53
l-140 -381q-197 -51 -424 -51z" />
    <glyph glyph-name="litre" unicode="&#x2113;" horiz-adv-x="1202" 
d="M541 713l-6 -19q268 135 364 396q53 156 -33 155q-45 -1 -81 -29q-86 -68 -244 -503zM494 -41q-130 0 -208 15q-78 16 -140 62q-195 143 -5 658q171 477 369 655q98 89 196 126t216 36q428 0 282 -389q-172 -471 -747 -719q-5 -79 33 -107t144 -28t214 51l-113 -311
q-111 -49 -241 -49z" />
    <glyph glyph-name="trademark" unicode="&#x2122;" horiz-adv-x="2824" 
d="M1855 1475q78 0 109 -42t27 -128l-9 -308l306 478h653l-336 -922h-428l225 616l-420 -616h-358l27 643l-232 -643h-366l336 922h466zM1167 1208h-247l-240 -655h-424l238 655h-256l94 267h932z" />
    <glyph glyph-name="estimated" unicode="&#x212e;" 
d="M852 -39q-313 0 -535 228q-221 229 -221 547t221 542t533 225q312 0 534 -224q221 -224 222 -542q0 -23 -2 -35h-1080v-401q144 -119 312 -119t288 70t172 194h256q-82 -213 -274 -349t-426 -136zM852 1282q-184 0 -328 -111v-282h654v280q-142 113 -326 113z" />
    <glyph glyph-name="partialdiff" unicode="&#x2202;" horiz-adv-x="1695" 
d="M676 281q129 -1 214 79t159 265q-131 47 -254 47t-190 -41t-103 -135t4 -154q41 -60 170 -61zM618 -37q-410 0 -580 165q-171 165 -67 443q80 213 256 305t508 93q227 0 418 -64q39 133 -31 198t-340 65t-516 -66l131 350q287 59 617 59q442 0 603 -218t30 -584
q-147 -420 -383 -583t-646 -163z" />
    <glyph glyph-name="product" unicode="&#x220f;" horiz-adv-x="2007" 
d="M834 -430l557 1534h-504l-557 -1534h-580l692 1905h1663l-692 -1905h-579z" />
    <glyph glyph-name="summation" unicode="&#x2211;" horiz-adv-x="1748" 
d="M1241 -430h-1546l74 192q31 80 69 132q39 51 109 100l762 567l-428 621l106 295h1475l-129 -357h-799l256 -405q63 -92 24 -215l-36 -107l-654 -469h846z" />
    <glyph glyph-name="minus" unicode="&#x2212;" 
d="M207 584l110 307h1180l-111 -307h-1179z" />
    <glyph glyph-name="radical" unicode="&#x221a;" horiz-adv-x="1378" 
d="M86 0l66 913h372l-51 -571l725 1131h391l-958 -1473h-545z" />
    <glyph glyph-name="infinity" unicode="&#x221e;" horiz-adv-x="1689" 
d="M465 592q86 0 235 156q-43 147 -125 147q-141 1 -195 -151t85 -152zM1135 625q143 0 194 153q57 152 -84 152q-84 0 -235 -156q22 -74 50 -112t75 -37zM1040 326q-195 0 -272 202q-221 -203 -412 -202q-132 0 -200 58t-68 154t43 220q70 198 207 318t332 120t272 -203
q221 203 412 203q130 0 198 -58t69 -154t-42 -222q-72 -200 -208 -318t-331 -118z" />
    <glyph glyph-name="integral" unicode="&#x222b;" horiz-adv-x="1177" 
d="M-88 -430q-154 0 -270 47l106 297q96 -29 176 -29t137 48t97 157l340 938q90 244 240 363q151 119 388 118q152 0 271 -47l-107 -297q-96 29 -176 29t-137 -48t-96 -157l-340 -938q-91 -245 -241 -363t-388 -118z" />
    <glyph glyph-name="approxequal" unicode="&#x2248;" horiz-adv-x="1759" 
d="M1006 254q-92 0 -171 41t-148 81t-132 40q-100 0 -223 -135l-129 221q174 203 379 203q92 0 171 -41t147 -81t130 -40q98 0 227 135l127 -223q-182 -201 -378 -201zM1196 770q-92 0 -172 41t-148 81t-131 40q-102 0 -225 -135l-129 223q176 201 379 201q92 0 172 -41
t148 -81t131 -40q96 0 225 135l129 -221q-184 -203 -379 -203z" />
    <glyph glyph-name="notequal" unicode="&#x2260;" 
d="M1292 324h-776l-184 -174h-215l184 174h-190l112 307h406l229 215h-557l111 307h774l184 174h213l-184 -174h194l-112 -307h-410l-227 -215h559z" />
    <glyph glyph-name="lessequal" unicode="&#x2264;" 
d="M4 31l111 307h1181l-112 -307h-1180zM1313 385l-1075 291l178 483l1284 293l-119 -330l-965 -207l814 -206z" />
    <glyph glyph-name="greaterequal" unicode="&#x2265;" 
d="M1184 31h-1180l111 307h1181zM1419 676l-1286 -291l119 328l962 209l-811 206l117 324l1075 -293z" />
    <glyph glyph-name="lozenge" unicode="&#x25ca;" horiz-adv-x="1259" 
d="M451 743l-11 -540l375 528l10 541zM111 -2l18 752l510 725h516l-18 -748l-510 -729h-516z" />
    <glyph glyph-name="dotlessj" unicode="&#xf6be;" horiz-adv-x="1339" 
d="M256 356q198 0 272 205l334 914h580l-373 -1029q-100 -274 -268 -378t-470 -104t-524 89l136 369q150 -66 313 -66z" />
    <glyph glyph-name="commaaccent" unicode="&#xf6c3;" horiz-adv-x="1759" 
d="M537 -432h-476l340 330h549z" />
    <glyph glyph-name="caron.alt" horiz-adv-x="1759" 
d="M999 903h-356l324 572h473z" />
    <glyph glyph-name="germandbls.cap" horiz-adv-x="3276" 
d="M616 -37q-449 0 -741 117l125 340q110 -47 262 -79t304 -32t222 24q72 24 99 85q45 113 -90 139l-224 39q-512 86 -358 514q76 211 280 306t556 95t655 -110l-121 -338q-242 102 -534 102q-137 0 -199 -20q-62 -19 -84 -73q-20 -54 -3 -81t83 -41l225 -39
q535 -88 361 -544q-84 -221 -285 -313t-533 -91zM2255 -37q-449 0 -742 117l125 340q109 -47 262 -79t304 -32t223 24t98 85q45 113 -90 139l-223 39q-512 86 -359 514q76 211 280 306q205 95 557 95t654 -110l-120 -338q-242 102 -535 102q-137 0 -199 -20q-62 -19 -84 -73
q-20 -54 -3 -81t83 -41l226 -39q535 -88 360 -544q-84 -221 -284 -313t-533 -91z" />
    <glyph glyph-name="i.trk" horiz-adv-x="923" 
d="M485 0h-579l536 1475h580zM1065 1597h-580l107 289h579z" />
    <glyph glyph-name="dollar.lt" 
d="M588 309h4l102 277l-88 12q-270 33 -353 168t-7 345t280 305q205 95 541 95h16l62 168h178l-63 -176q254 -20 479 -102l-121 -338q-215 92 -481 100l-90 -243l57 -9q186 -25 288 -102q101 -78 112 -191t-38 -251q-86 -221 -286 -313q-201 -91 -533 -91l-69 -188h-181
l70 192q-311 16 -559 113l125 340q109 -47 261 -79t294 -32zM905 559l-39 4l-90 -248q182 16 219 103q45 116 -90 141zM803 950l71 -8l80 221q-108 -5 -162 -27t-72 -70t2 -76q18 -28 81 -40z" />
    <glyph glyph-name="Euro.lt" 
d="M911 -37q-340 0 -520 142t-176 411h-223l63 170h181q8 47 24 100h-170l64 170h165q131 299 368 427t579 128q254 0 538 -100l-131 -367q-217 90 -365 90t-235 -39q-88 -40 -151 -139h544l-63 -170h-563q-20 -40 -33 -100h561l-63 -170h-519q8 -92 80 -133t236 -41t373 53
l-140 -381q-197 -51 -424 -51z" />
    <glyph glyph-name="cent.lt" 
d="M1075 1030q-125 -14 -207 -74t-130 -199q-48 -138 -18 -210t144 -94zM1092 1413q104 0 122 -2l99 268h178l-105 -284q158 -25 312 -80l-131 -367q-168 68 -312 84l-217 -592q221 4 400 52l-140 -381q-184 -45 -397 -50l-104 -286h-181l107 293q-346 36 -485 238t-24 530
t376 460q125 63 261 90q137 27 241 27z" />
    <glyph glyph-name="sterling.lt" 
d="M1299 1516q325 0 550 -91l-135 -366q-143 63 -342 63q-116 0 -188 -39t-111 -127h402l-62 -170h-403l-37 -100h405l-63 -170h-410q-55 -104 -151 -160h694l-129 -356h-1438l105 287l131 37q90 24 136 64t75 120l2 8h-236l64 170h233l37 100h-235l61 170h233l23 62
q90 244 277 371t512 127z" />
    <glyph glyph-name="yen.lt" 
d="M1436 516h-396l-188 -516h-580l189 516h-400l64 170h399l37 100h-401l65 170h299l-202 519h509l130 -345l327 345h602l-569 -519h278l-65 -170h-393l-37 -100h395z" />
    <glyph glyph-name="zero.lt" 
d="M973 1147q-113 0 -181 -79t-147 -316q-76 -248 -50 -336q27 -88 139 -88t180 79t149 316q75 248 49 336t-139 88zM986 1511q238 1 395 -67t226 -187t75 -279t-68 -341q-139 -367 -338 -521t-567 -153q-535 0 -656 355q-72 215 41 520q92 246 204 388t280 214
q170 72 408 71z" />
    <glyph glyph-name="one.lt" 
d="M1008 0h-580l381 1044l-584 -241l148 405l645 267h526z" />
    <glyph glyph-name="two.lt" 
d="M731 1163q-201 0 -463 -73l129 352q285 70 543 69q426 0 586 -143t63 -393q-26 -71 -96 -162q-69 -91 -255 -189q-72 -38 -106 -56t-128 -62l-289 -150h737l-129 -356h-1440l84 219q35 95 77 147t118 91l606 323q66 37 104 61q38 23 78 63q41 40 56 81q30 84 -22 131
t-253 47z" />
    <glyph glyph-name="three.lt" 
d="M583 -37q-386 0 -687 121l124 338q248 -111 543 -111q191 0 275 23t108 86q29 68 -10 108t-150 41h-481l103 293l602 256h-750l129 357h1423l-79 -209q-37 -98 -79 -152t-112 -84l-467 -215q293 -6 391 -143t17 -359q-72 -188 -293 -269t-607 -81z" />
    <glyph glyph-name="four.lt" 
d="M1536 330h-207l-121 -330h-549l121 330h-848l148 399l680 608q145 137 264 138h721l-299 -822h209zM897 653l223 613l-655 -613h432z" />
    <glyph glyph-name="five.lt" 
d="M584 -37q-385 0 -678 119l123 336q244 -106 538 -107q187 0 271 24t110 89q31 80 -16 123t-189 43q-270 0 -593 -21l325 906h1317l-129 -355h-827l-74 -209q263 28 477 -25q214 -54 273 -206q56 -138 -21 -334q-80 -209 -301 -296t-606 -87z" />
    <glyph glyph-name="six.lt" 
d="M758 281q104 0 163 44q58 44 91 136q72 211 -187 211q-119 0 -250 -39q-57 -186 -13 -269t196 -83zM723 -37q-475 0 -632 242t-15 631t396 532t654 143t678 -102l-118 -336q-209 92 -510 92q-219 0 -332 -55t-166 -182q168 41 326 41q336 0 486 -160t50 -426
q-84 -229 -269 -325t-548 -95z" />
    <glyph glyph-name="seven.lt" 
d="M662 0h-580l57 170q45 135 108 220q62 85 218 222l573 508h-800l129 355h1484l-79 -209q-31 -78 -61 -112t-40 -44t-47 -42t-43 -38l-618 -547q-123 -106 -172 -172t-80 -159z" />
    <glyph glyph-name="eight.lt" 
d="M709 289q104 0 161 35t91 120q76 207 -162 207q-105 0 -163 -36t-87 -117q-78 -209 160 -209zM890 834q106 0 159 34q51 35 86 125q33 91 -5 141t-143 50q-107 0 -159 -35t-86 -125t4 -140t144 -50zM698 -35q-567 0 -718 205q-47 63 -47 138q1 75 26 159q100 272 483 299
q-135 34 -189 144t-3 255q70 195 256 271t508 75q422 0 589 -130t91 -353q-47 -137 -158 -219t-266 -98q158 -27 216 -145t-1 -269q-63 -174 -243 -253t-544 -79z" />
    <glyph glyph-name="nine.lt" 
d="M545 -37q-362 0 -645 103l118 335q203 -90 512 -90q219 1 330 55t166 181q-168 -41 -324 -41q-338 0 -488 159t-50 427q86 229 271 324t548 95q475 1 632 -241t7 -649q-135 -371 -389 -515t-688 -143zM879 803q121 0 251 39q57 186 14 269q-44 83 -198 83
q-102 0 -162 -44t-92 -136q-71 -211 187 -211z" />
    <glyph glyph-name="zero.numr" horiz-adv-x="1114" 
d="M733 1264q-72 0 -115 -50t-92 -185q-48 -134 -34 -200q14 -65 90 -65t118 51t95 189q90 260 -62 260zM569 528q-295 0 -396 155t-12 389t219 330t372 97q293 1 393 -153t12 -398q-90 -228 -219 -324t-369 -96z" />
    <glyph glyph-name="one.numr" horiz-adv-x="763" 
d="M592 553h-381l235 645l-292 -125l94 264l334 138h344z" />
    <glyph glyph-name="two.numr" horiz-adv-x="985" 
d="M505 1272q-128 0 -282 -45l84 229q186 43 342 43q271 0 371 -89t39 -247q-25 -68 -91 -137q-30 -31 -106 -72q-77 -40 -170 -86l-162 -84h447l-84 -231h-907l53 141q25 61 51 96q27 34 76 58l375 201q113 59 134 113t-10 82q-32 28 -160 28z" />
    <glyph glyph-name="three.numr" horiz-adv-x="1032" 
d="M457 528q-250 0 -439 76l80 217q150 -66 338 -65q119 0 167 12q47 12 63 50t-6 62t-85 23h-305l70 191l367 151h-467l86 230h895l-52 -138q-25 -63 -53 -99t-72 -52l-276 -125q180 -4 240 -89t8 -224q-82 -220 -559 -220z" />
    <glyph glyph-name="four.numr" horiz-adv-x="1058" 
d="M1061 754h-129l-72 -201h-358l73 201h-522l94 260l408 370q94 90 170 91h469l-184 -510h129zM651 965l135 370l-389 -370h254z" />
    <glyph glyph-name="five.numr" horiz-adv-x="1019" 
d="M444 528q-238 0 -432 74l80 219q145 -66 336 -65q115 0 164 13t65 50q37 98 -120 96q-172 0 -373 -12l207 572h829l-82 -230h-514l-41 -121q33 4 96 4q260 0 337 -99t18 -261q-48 -128 -190 -184t-380 -56z" />
    <glyph glyph-name="six.numr" horiz-adv-x="1079" 
d="M582 735q111 0 151 109q41 123 -110 123q-57 0 -134 -17q-69 -215 93 -215zM812 1499q253 0 429 -63l-78 -219q-131 57 -289 57t-223 -33q-66 -33 -96 -104q94 23 184 22q211 0 305 -99q94 -100 37 -256t-175 -216t-347 -60q-299 0 -398 152t-7 407q88 233 246 323
q159 89 412 89z" />
    <glyph glyph-name="seven.numr" horiz-adv-x="970" 
d="M465 553h-381l39 111q29 86 66 138q38 52 130 128l369 315h-493l86 230h933l-49 -136q-32 -72 -76 -110q-7 -5 -25 -21t-26 -22l-393 -338q-69 -57 -99 -97t-48 -98z" />
    <glyph glyph-name="eight.numr" horiz-adv-x="1087" 
d="M557 737q111 0 143 90q45 127 -90 127q-59 0 -92 -22t-51 -72q-45 -123 90 -123zM674 1075q59 0 91 22t54 79q41 121 -92 120q-61 0 -93 -22t-54 -78q-41 -121 94 -121zM551 528q-307 0 -413 87q-105 87 -56 229q63 174 307 188q-88 20 -123 90t-2 162q43 121 161 168
t352 47q233 0 339 -82t60 -221q-61 -178 -271 -199q100 -14 138 -87q39 -74 1 -178t-150 -154t-343 -50z" />
    <glyph glyph-name="nine.numr" horiz-adv-x="1079" 
d="M476 528q-248 0 -435 66l76 217q131 -55 291 -55t224 32q65 32 95 103q-90 -23 -184 -23q-211 0 -305 100t-36 256t175 216t346 59q299 1 397 -151t10 -396t-247 -334t-407 -90zM659 1061q57 0 134 16q70 215 -93 215q-113 0 -149 -108q-44 -123 108 -123z" />
    <glyph glyph-name="zero.dnom" horiz-adv-x="1114" 
d="M532 711q-72 -1 -114 -51t-92 -184q-49 -134 -35 -200t90 -66t119 52q43 51 94 189q90 260 -62 260zM369 -25q-295 0 -397 155q-101 155 -12 389q89 235 219 331t372 96q293 0 393 -154t12 -397q-90 -227 -218 -323t-369 -97z" />
    <glyph glyph-name="one.dnom" horiz-adv-x="763" 
d="M391 0h-381l236 645l-293 -125l94 264l334 138h344z" />
    <glyph glyph-name="two.dnom" horiz-adv-x="985" 
d="M304 719q-128 0 -281 -45l83 229q186 43 343 43q270 0 370 -89t39 -247q-25 -68 -91 -137q-30 -31 -106 -72q-77 -40 -169 -86l-162 -84h446l-84 -231h-907l53 141q25 61 51 96q27 34 76 58l375 201q113 59 134 113t-10 82q-32 28 -160 28z" />
    <glyph glyph-name="three.dnom" horiz-adv-x="1032" 
d="M256 -25q-250 0 -438 76l80 217q150 -66 338 -65q118 0 166 12t64 50t-6 62t-85 23h-305l69 191l367 151h-467l86 230h895l-51 -138q-25 -63 -53 -99t-72 -52l-277 -125q179 -4 239 -89t9 -224q-82 -220 -559 -220z" />
    <glyph glyph-name="four.dnom" horiz-adv-x="1058" 
d="M860 201h-129l-72 -201h-358l74 201h-522l94 260l407 370q94 90 170 91h469l-184 -510h129zM451 412l135 370l-389 -370h254z" />
    <glyph glyph-name="five.dnom" horiz-adv-x="1019" 
d="M242 -25q-238 0 -430 74l79 219q145 -66 336 -65q115 0 164 13t66 50q18 47 -10 72q-27 24 -155 24t-329 -12l207 572h829l-81 -230h-515l-41 -121q33 4 97 4q260 0 337 -99t17 -261q-49 -129 -191 -185t-380 -55z" />
    <glyph glyph-name="six.dnom" horiz-adv-x="1079" 
d="M381 182q111 0 151 109q41 123 -110 123q-57 0 -133 -17q-70 -215 92 -215zM612 946q252 0 428 -63l-77 -219q-131 57 -289 57t-224 -33t-96 -104q94 23 185 22q211 0 305 -99t37 -255t-175 -216t-348 -61q-299 0 -398 152t-7 408q88 233 247 322q160 89 412 89z" />
    <glyph glyph-name="seven.dnom" horiz-adv-x="970" 
d="M264 0h-381l39 111q29 86 67 138t130 128l368 315h-493l86 230h934l-49 -136q-32 -71 -77 -110q-8 -6 -26 -22t-24 -21l-394 -338q-70 -57 -100 -97t-47 -98z" />
    <glyph glyph-name="eight.dnom" horiz-adv-x="1087" 
d="M356 184q111 0 144 90q45 127 -90 127q-59 0 -93 -21q-33 -22 -51 -73q-45 -123 90 -123zM473 522q59 0 91 22t54 79q41 121 -92 120q-61 -1 -93 -23t-54 -77q-41 -121 94 -121zM350 -25q-307 0 -412 87t-57 229q63 174 307 188q-88 20 -122 90t-3 162q43 121 161 168
t352 47t340 -82q105 -82 59 -221q-61 -178 -270 -199q100 -14 138 -87t0 -177t-150 -155q-112 -50 -343 -50z" />
    <glyph glyph-name="nine.dnom" horiz-adv-x="1079" 
d="M274 -25q-248 0 -434 66l76 217q131 -55 291 -55q161 -1 225 31t94 104q-90 -23 -184 -23q-211 1 -305 101t-36 256t175 214q117 60 346 60q299 0 398 -151q98 -151 10 -395t-248 -334t-408 -91zM459 508q57 0 133 16q70 215 -92 215q-113 0 -150 -108q-43 -123 109 -123
z" />
    <glyph glyph-name="numero" horiz-adv-x="3260" 
d="M2935 180h-887l84 232h887zM1069 1475q199 0 199 -224l92 -868l397 1092h504l-537 -1475h-831l-92 1079l-393 -1079h-502l536 1475h627zM2859 1264q-72 0 -115 -50t-92 -185q-49 -134 -35 -200q15 -65 91 -65t118 51t94 189q91 260 -61 260zM2695 528q-295 0 -396 155
t-12 389t219 330t371 97q293 0 394 -153q100 -154 12 -398q-90 -228 -219 -324t-369 -96z" />
    <glyph glyph-name="bar.alt" horiz-adv-x="0" 
d="M-10 -530v2457h20v-2457h-20z" />
    <glyph glyph-name="space.alt" horiz-adv-x="446" 
 />
    </font>
</defs>
</svg>
