<?xml version="1.0" standalone="no"?>
<!DOCTYPE svg PUBLIC "-//W3C//DTD SVG 1.1//EN" "http://www.w3.org/Graphics/SVG/1.1/DTD/svg11.dtd" >
<svg xmlns="http://www.w3.org/2000/svg">
<metadata>
Created by FontPrep 20130207 at Thu May 10 15:01:10 2018
 By Mauricio Duran
Mathieu Reguer for Michelin
</metadata>
<defs>
<font id="496feeb7cd323cb93249cbb1fa453cfc" horiz-adv-x='1024' >
  <font-face 
    font-family="Michelin-Black"
    font-weight="900"
    font-style="italic"
    font-stretch="semi-condensed"
    units-per-em="2048"
    panose-1="2 0 0 0 0 0 0 0 0 0"
    ascent="1536"
    descent="-512"
    x-height="1475"
    cap-height="1475"
    bbox="-471 -532 3847.96 1928"
    underline-thickness="360"
    underline-position="29"
    slope="-20"
    unicode-range="U+0020-F6C3"
  />
<missing-glyph horiz-adv-x="944" 
d="M428 313q-74 -1 -119 -45t-45 -117t45 -119t119 -46t118 45t44 119t-44 118t-118 45zM467 1061q-418 0 -418 -359l289 -20q0 78 28 109t85 30q102 0 102 -73v-13q0 -49 -57 -69l-43 -19q-94 -37 -125 -97t-21 -202h244q0 58 14 76t80 49l72 31q158 74 157 264v12
q0 127 -102 204t-305 77zM-41 -348v1843h1026v-1843h-1026z" />
    <glyph glyph-name=".notdef" horiz-adv-x="944" 
d="M428 313q-74 -1 -119 -45t-45 -117t45 -119t119 -46t118 45t44 119t-44 118t-118 45zM467 1061q-418 0 -418 -359l289 -20q0 78 28 109t85 30q102 0 102 -73v-13q0 -49 -57 -69l-43 -19q-94 -37 -125 -97t-21 -202h244q0 58 14 76t80 49l72 31q158 74 157 264v12
q0 127 -102 204t-305 77zM-41 -348v1843h1026v-1843h-1026z" />
    <glyph glyph-name=".null" horiz-adv-x="0" 
 />
    <glyph glyph-name="nonmarkingreturn" horiz-adv-x="681" 
 />
    <glyph glyph-name="space" unicode=" " horiz-adv-x="614" 
 />
    <glyph glyph-name="exclam" unicode="!" horiz-adv-x="808" 
d="M424 0h-571l145 397h569zM543 547h-428l149 639l105 289h610l-105 -289z" />
    <glyph glyph-name="quotedbl" unicode="&#x22;" horiz-adv-x="1566" 
d="M723 879h-469l98 378l78 218h569l-77 -218zM1399 879h-469l98 378l78 218h569l-78 -218z" />
    <glyph glyph-name="numbersign" unicode="#" 
d="M705 -2l110 301h-244l-110 -301h-447l111 301h-234l115 319h236l84 236h-234l115 320h235l111 301h446l-110 -301h244l110 301h447l-111 -301h233l-114 -320h-236l-84 -236h234l-115 -319h-235l-111 -301h-446zM932 618l84 236h-244l-84 -236h244z" />
    <glyph glyph-name="dollar" unicode="$" horiz-adv-x="1701" 
d="M1075 1516h10l60 163h184l-61 -170q274 -16 495 -98l-143 -395q-213 86 -500 90l-55 -156l59 -6q150 -14 248 -64t139 -126q82 -152 -6 -379t-301 -321t-563 -95l-68 -184h-186l70 188q-326 14 -576 107l146 395q97 -39 249 -68t281 -28h47l64 174l-86 8
q-289 29 -377 172t-8 364q55 156 180 252q125 97 295 137t403 40zM889 520l-41 4l-55 -149q119 12 141 61q27 75 -45 84zM817 975l68 -6l49 133q-141 -6 -158 -55q-25 -66 41 -72z" />
    <glyph glyph-name="percent" unicode="%" horiz-adv-x="2838" 
d="M2250 676q-48 0 -74 -39t-70 -161t-43 -176q2 -54 57 -54q42 0 66 39t69 161t44 176t-49 54zM2095 -27q-303 0 -408 156q-105 155 -15 395t219 332q128 92 378 92q301 0 407 -155q105 -156 13 -406q-90 -229 -218 -321t-376 -93zM728 1229q-48 0 -74 -39t-59 -133
q-55 -156 -53 -207t56 -51q43 0 67 39q25 39 69 161t43 176t-49 54zM1751 1475h447l-1106 -1475h-447zM573 526q-303 0 -408 156t-14 395t219 331t378 93q301 1 406 -155t13 -406q-90 -230 -218 -322t-376 -92z" />
    <glyph glyph-name="ampersand" unicode="&#x26;" horiz-adv-x="2080" 
d="M510 -41q-354 0 -494 140q-139 140 -52 379t421 292q-88 116 -99 228t40 239q100 279 624 279q316 0 450 -132t73 -321q-47 -139 -145 -215t-236 -119l90 -92l100 100h569l-385 -387l349 -350h-652l-86 82q-213 -123 -567 -123zM644 319q70 0 147 39l-179 174
q-41 -23 -61 -75q-46 -138 93 -138zM904 1161q-60 0 -81 -55q-28 -75 33 -141l29 -29q79 43 101 102t0 91t-82 32z" />
    <glyph glyph-name="quotesingle" unicode="'" horiz-adv-x="808" 
d="M682 879h-469l98 378l78 218h569l-77 -218z" />
    <glyph glyph-name="parenleft" unicode="(" horiz-adv-x="1105" 
d="M655 -307h-385q-164 231 -198 527q-35 296 75 634q201 592 760 928h508q-252 -180 -442 -462q-189 -282 -289 -558t-106 -588q-6 -313 77 -481z" />
    <glyph glyph-name="parenright" unicode=")" horiz-adv-x="1105" 
d="M457 1782h385q164 -232 198 -528t-75 -633q-201 -592 -760 -928h-508q252 180 442 462q189 282 289 557q100 274 106 588t-77 482z" />
    <glyph glyph-name="asterisk" unicode="*" horiz-adv-x="1148" 
d="M811 481l-149 258l-152 -258l-279 201l201 225l-293 64l107 325l274 -120l-31 299h345l-31 -299l274 120l107 -325l-293 -64l199 -225z" />
    <glyph glyph-name="plus" unicode="+" 
d="M1376 557h-409l-150 -410h-360l149 410h-409l131 361h409l150 409h360l-149 -409h409z" />
    <glyph glyph-name="comma" unicode="," horiz-adv-x="811" 
d="M152 -199h-431l324 596h567z" />
    <glyph glyph-name="hyphen" unicode="-" horiz-adv-x="808" 
d="M-53 516l159 442h760l-159 -442h-760z" />
    <glyph glyph-name="period" unicode="." horiz-adv-x="808" 
d="M424 0h-571l145 397h569z" />
    <glyph glyph-name="slash" unicode="/" horiz-adv-x="1347" 
d="M1202 1782h529l-1581 -2089h-529z" />
    <glyph glyph-name="zero" unicode="0" horiz-adv-x="1785" 
d="M1001 1083q-77 0 -119 -63t-104 -230t-74 -244q-27 -155 89 -155q73 -1 113 63t120 271q65 188 62 253q-3 64 -23 85q-21 20 -64 20zM756 -41q-246 0 -414 68q-168 67 -244 187t-83 284t71 356q139 367 345 514t603 148q244 0 412 -68t243 -188t83 -283q8 -164 -68 -356
q-143 -367 -348 -515t-600 -147z" />
    <glyph glyph-name="one" unicode="1" horiz-adv-x="1263" 
d="M854 0h-713l351 965l-435 -181l176 480l508 211h650z" />
    <glyph glyph-name="two" unicode="2" horiz-adv-x="1576" 
d="M657 1104q-236 0 -507 -74l151 414q315 72 571 72q455 0 620 -142t64 -399q-44 -113 -126 -194t-154 -122t-186 -95t-129 -62l-166 -80h649l-154 -422h-1493l97 252q43 117 93 178t138 109l563 297q119 61 148 143q20 55 -17 90t-162 35z" />
    <glyph glyph-name="three" unicode="3" horiz-adv-x="1654" 
d="M548 -41q-406 0 -708 111l146 395q96 -39 248 -68t304 -29q150 0 212 13q62 12 81 55q20 43 -6 65q-27 22 -96 21h-489l122 346l508 185h-692l154 422h1472l-96 -252q-47 -123 -95 -187t-136 -100l-336 -139q178 -8 276 -75q97 -67 109 -173t-37 -246q-71 -182 -303 -263
t-638 -81z" />
    <glyph glyph-name="four" unicode="4" horiz-adv-x="1734" 
d="M909 1475h891l-291 -801h185l-142 -381h-182l-106 -293h-672l106 293h-802l176 481l534 533q172 168 303 168zM838 674l196 545l-526 -545h330z" />
    <glyph glyph-name="five" unicode="5" horiz-adv-x="1634" 
d="M530 -41q-408 0 -710 111l145 395q96 -39 249 -68q154 -29 304 -29t212 13q62 12 84 61t-13 75t-133 26q-209 0 -602 -21l344 953h1374l-154 -422h-782l-45 -127q33 4 157 4t251 -31q446 -108 270 -551q-83 -213 -313 -301t-638 -88z" />
    <glyph glyph-name="six" unicode="6" horiz-adv-x="1753" 
d="M784 330q70 0 109 37t65 114q51 156 -120 156q-76 0 -160 -23q-51 -166 -27 -225t133 -59zM745 -41q-507 0 -669 242t-16 640t416 540q140 75 304 105t391 30q401 0 689 -101l-142 -395q-201 86 -520 86q-186 0 -274 -37t-125 -117q137 29 260 29q339 0 495 -159t54 -433
q-88 -238 -278 -334t-585 -96z" />
    <glyph glyph-name="seven" unicode="7" horiz-adv-x="1585" 
d="M657 0h-712l55 168q39 122 85 186t161 166l604 533h-733l153 422h1555l-96 -252q-34 -92 -72 -134q-37 -43 -57 -65t-103 -88l-629 -557q-72 -63 -106 -109t-53 -112z" />
    <glyph glyph-name="eight" unicode="8" horiz-adv-x="1734" 
d="M743 340q53 0 85 30t61 103q63 172 -74 172q-53 0 -86 -31t-59 -102q-64 -172 73 -172zM903 840q59 0 89 28t59 103q29 74 9 118t-78 44q-60 0 -90 -29t-58 -104q-28 -76 -10 -118q20 -42 79 -42zM770 -41q-410 0 -597 70t-233 183q-46 112 3 249q98 285 514 305
q-154 24 -216 136t-8 269q69 195 259 270t526 75q442 0 617 -130t102 -354q-94 -291 -439 -321q168 -23 232 -141t2 -283q-41 -111 -121 -179t-249 -108q-169 -41 -392 -41z" />
    <glyph glyph-name="nine" unicode="9" horiz-adv-x="1753" 
d="M586 -41q-401 0 -688 100l141 396q201 -86 520 -86q187 0 275 37t124 116q-137 -29 -260 -28q-338 0 -494 158t-54 433q88 238 278 334t584 97q506 0 668 -242t14 -651q-72 -195 -172 -325q-189 -246 -545 -309q-164 -30 -391 -30zM920 838q76 0 159 22q51 166 27 225
q-25 59 -133 60q-70 0 -109 -37t-65 -115q-51 -155 121 -155z" />
    <glyph glyph-name="colon" unicode=":" horiz-adv-x="888" 
d="M465 0h-571l145 397h569zM711 672h-572l146 397h569z" />
    <glyph glyph-name="semicolon" unicode=";" horiz-adv-x="890" 
d="M193 -199h-431l324 596h567zM711 672h-572l146 397h569z" />
    <glyph glyph-name="less" unicode="&#x3c;" 
d="M1229 152l-1063 321l190 524l1297 322l-137 -381l-869 -203l721 -203z" />
    <glyph glyph-name="equal" unicode="=" 
d="M100 291l131 360h1180l-131 -360h-1180zM293 823l131 361h1180l-131 -361h-1180z" />
    <glyph glyph-name="greater" unicode="&#x3e;" 
d="M49 152l139 380l869 203l-721 203l137 381l1063 -322l-190 -524z" />
    <glyph glyph-name="question" unicode="?" horiz-adv-x="1495" 
d="M588 0h-572l146 397h569zM666 893q88 9 128 31t60 78t-28 89q-46 34 -183 33q-248 0 -446 -53l143 393q222 52 582 52t508 -159t51 -415q-125 -324 -596 -360l-162 -13l-25 -61h-469l125 358z" />
    <glyph glyph-name="at" unicode="@" horiz-adv-x="2113" 
d="M962 563q64 0 142 64l104 286h-90q-76 0 -124 -40t-82 -135t-24 -135t74 -40zM915 -41q-711 0 -856 351q-86 215 33 534q138 368 406 520t741 152q231 0 403 -46t272 -123q99 -77 147 -181q92 -201 -1 -447q-78 -211 -200 -311t-354 -100q-234 0 -296 138
q-100 -72 -181 -102t-195 -31q-231 0 -310 127q-78 127 -4 333t224 292q151 86 374 86h582l-182 -500q-25 -75 -11 -101t68 -26q123 0 211 242q61 170 10 299q-29 74 -96 127q-68 53 -197 87t-311 34q-338 0 -528 -112t-291 -386q-55 -149 -59 -263t50 -204
q113 -186 564 -186q287 0 585 98l-79 -223q-254 -78 -519 -78z" />
    <glyph glyph-name="A" unicode="A" horiz-adv-x="2091" 
d="M1161 0l13 209h-537l-131 -209h-731l856 1247q84 123 175 175t222 53h838l-41 -1475h-664zM1196 631l29 506l-320 -506h291z" />
    <glyph glyph-name="B" unicode="B" horiz-adv-x="2000" 
d="M1554 1475q272 0 381 -130t45 -313q-50 -135 -162 -212t-276 -91q164 -23 234 -141t10 -281t-206 -235t-445 -72h-1258l537 1475h1140zM1051 584h-248l-68 -183h260q111 0 138 72q37 111 -82 111zM1178 1073h-197l-63 -170h198q59 1 87 19t42 59q37 92 -67 92z" />
    <glyph glyph-name="C" unicode="C" horiz-adv-x="1761" 
d="M1294 1065q-210 0 -334 -71t-188 -254t20 -256q85 -72 315 -72t454 49l-166 -455q-203 -47 -496 -47q-563 0 -761 238t-40 665q137 375 457 520q294 134 680 134q385 0 670 -101l-156 -436q-82 37 -212 61t-243 25z" />
    <glyph glyph-name="D" unicode="D" horiz-adv-x="2027" 
d="M1171 1475q289 -1 477 -63t269 -175q80 -113 87 -269t-67 -343q-125 -348 -404 -493q-253 -132 -636 -132h-1020l537 1475h757zM1114 1053h-141l-230 -631h156q135 0 218 68t143 235q63 168 32 248t-178 80z" />
    <glyph glyph-name="E" unicode="E" horiz-adv-x="1746" 
d="M-123 0l537 1475h1501l-146 -402h-788l-49 -133h710l-149 -401h-707l-51 -138h789l-146 -401h-1501z" />
    <glyph glyph-name="F" unicode="F" horiz-adv-x="1685" 
d="M1462 457h-706l-166 -457h-713l537 1475h1501l-154 -422h-788l-64 -174h711z" />
    <glyph glyph-name="G" unicode="G" horiz-adv-x="1951" 
d="M1272 1516q344 0 674 -115l-156 -436q-94 41 -236 71t-260 29q-210 0 -334 -71t-191 -257t4 -266t271 -80h11l119 326h669l-252 -694q-289 -63 -692 -64q-563 0 -761 238t-40 665q137 375 457 520q294 134 717 134z" />
    <glyph glyph-name="H" unicode="H" horiz-adv-x="2058" 
d="M936 0l188 516h-346l-188 -516h-713l537 1475h712l-188 -517h346l189 517h712l-536 -1475h-713z" />
    <glyph glyph-name="I" unicode="I" horiz-adv-x="999" 
d="M590 0h-713l537 1475h712z" />
    <glyph glyph-name="J" unicode="J" horiz-adv-x="1392" 
d="M375 -41q-319 0 -561 90l161 440q145 -59 291 -59q86 0 137 41t84 127l320 877h713l-373 -1026q-105 -285 -279 -387t-493 -103z" />
    <glyph glyph-name="K" unicode="K" horiz-adv-x="2109" 
d="M1110 0l-195 516h-137l-188 -516h-713l537 1475h712l-188 -517h113l524 517h729l-786 -773l325 -702h-733z" />
    <glyph glyph-name="L" unicode="L" horiz-adv-x="1599" 
d="M-123 0l537 1475h712l-374 -1033h682l-162 -442h-1395z" />
    <glyph glyph-name="M" unicode="M" horiz-adv-x="2816" 
d="M1198 1475q131 0 180 -69t45 -212l-20 -440l446 721h1092l-535 -1475h-718l354 971l-647 -971h-594l49 999l-363 -999h-610l537 1475h784z" />
    <glyph glyph-name="N" unicode="N" horiz-adv-x="2240" 
d="M1204 1475q236 0 221 -275l-34 -735l366 1010h610l-536 -1475h-1026l43 991l-361 -991h-610l537 1475h790z" />
    <glyph glyph-name="O" unicode="O" horiz-adv-x="2093" 
d="M1162 1083q-148 -1 -231 -65t-147 -238q-144 -389 152 -389q148 0 231 65q84 65 150 238q136 389 -155 389zM872 -41q-668 0 -813 351q-86 215 33 534q136 368 402 520t735 152q666 0 811 -351q86 -212 -33 -532q-139 -371 -405 -523t-730 -151z" />
    <glyph glyph-name="P" unicode="P" horiz-adv-x="1912" 
d="M1243 1475q477 -1 630 -189t36 -508q-104 -281 -348 -383q-217 -88 -551 -88h-308l-112 -307h-713l537 1475h829zM1092 1073h-111l-133 -364h67q145 0 206 35q60 36 98 135q41 96 13 145t-140 49z" />
    <glyph glyph-name="Q" unicode="Q" horiz-adv-x="2093" 
d="M1162 1083q-148 -1 -231 -65t-147 -238q-144 -389 152 -389q148 0 231 65q84 65 150 238q136 389 -155 389zM1053 -514q-336 0 -453 115t-41 383q-252 43 -387 166q-135 124 -146 298t66 396q136 368 402 520t735 152q666 0 811 -351q86 -212 -36 -540t-350 -483
t-607 -177q-7 -59 27 -85t128 -26t191 19l-131 -367q-90 -20 -209 -20z" />
    <glyph glyph-name="R" unicode="R" horiz-adv-x="1966" 
d="M1290 1475q440 0 595 -162t46 -463q-57 -160 -174 -242t-307 -112l229 -496h-733l-141 389h-74l-141 -389h-713l537 1475h876zM1092 1073h-111l-104 -282h88q129 -1 181 21t83 108q33 63 5 108t-142 45z" />
    <glyph glyph-name="S" unicode="S" horiz-adv-x="1669" 
d="M621 -41q-455 0 -756 111l145 395q96 -39 249 -68t291 -29t191 13q53 12 74 55q31 72 -45 84l-205 31q-291 45 -377 182t-8 354q55 156 180 252q125 97 295 137t404 40q401 0 688 -105l-143 -395q-225 90 -512 90q-121 0 -169 -11t-61 -48q-23 -61 41 -72l205 -31
q567 -84 383 -563q-90 -233 -303 -327t-567 -95z" />
    <glyph glyph-name="T" unicode="T" horiz-adv-x="1615" 
d="M1663 1032h-381l-375 -1032h-712l374 1032h-399l162 443h1493z" />
    <glyph glyph-name="U" unicode="U" horiz-adv-x="1980" 
d="M889 401q80 0 134 44t99 165l314 865h712l-305 -840q-137 -379 -381 -527t-698 -148t-632 179q-179 180 -62 500l307 836h713l-314 -863q-78 -211 113 -211z" />
    <glyph glyph-name="V" unicode="V" horiz-adv-x="2111" 
d="M1087 0h-858l41 1475h705l-43 -1041l657 1041h752l-856 -1248q-84 -123 -175 -175t-223 -52z" />
    <glyph glyph-name="W" unicode="W" horiz-adv-x="3164" 
d="M2243 0h-781l158 942l-350 -715q-62 -129 -158 -178t-240 -49h-704l123 1475h704l-112 -1018l501 1018h951l-187 -1029l555 1029h670l-713 -1248q-129 -227 -417 -227z" />
    <glyph glyph-name="X" unicode="X" horiz-adv-x="2021" 
d="M1018 0l-96 424l-375 -424h-793l754 774l-205 701h705l96 -426l375 426h792l-755 -777l206 -698h-704z" />
    <glyph glyph-name="Y" unicode="Y" horiz-adv-x="2050" 
d="M1106 0h-713l185 508l-308 967h664l137 -494l457 494h792l-1048 -1016z" />
    <glyph glyph-name="Z" unicode="Z" horiz-adv-x="1800" 
d="M1452 0h-1616l88 231q37 99 83 159t132 120l785 543h-666l154 422h1534l-150 -402l-965 -651h775z" />
    <glyph glyph-name="bracketleft" unicode="[" horiz-adv-x="1169" 
d="M-150 -305l758 2085h797l-131 -361h-307l-496 -1364h301l-131 -360h-791z" />
    <glyph glyph-name="backslash" unicode="\" horiz-adv-x="1228" 
d="M850 1782v-2089h-467v2089h467z" />
    <glyph glyph-name="bracketright" unicode="]" horiz-adv-x="1169" 
d="M-231 -305l131 360h307l495 1364h-301l131 361h791l-758 -2085h-796z" />
    <glyph glyph-name="asciicircum" unicode="^" horiz-adv-x="1536" 
d="M872 150l95 874l-664 -874h-412l914 1175h524l-106 -1175h-351z" />
    <glyph glyph-name="underscore" unicode="_" horiz-adv-x="1433" 
d="M-430 -512l131 360h1384l-131 -360h-1384z" />
    <glyph glyph-name="grave" unicode="`" horiz-adv-x="1781" 
d="M1096 1577l-254 330h651l182 -330h-579z" />
    <glyph glyph-name="a" unicode="a" horiz-adv-x="2091" 
d="M1161 0l13 209h-537l-131 -209h-731l856 1247q84 123 175 175t222 53h838l-41 -1475h-664zM1196 631l29 506l-320 -506h291z" />
    <glyph glyph-name="b" unicode="b" horiz-adv-x="2000" 
d="M1554 1475q272 0 381 -130t45 -313q-50 -135 -162 -212t-276 -91q164 -23 234 -141t10 -281t-206 -235t-445 -72h-1258l537 1475h1140zM1051 584h-248l-68 -183h260q111 0 138 72q37 111 -82 111zM1178 1073h-197l-63 -170h198q59 1 87 19t42 59q37 92 -67 92z" />
    <glyph glyph-name="c" unicode="c" horiz-adv-x="1761" 
d="M1294 1065q-210 0 -334 -71t-188 -254t20 -256q85 -72 315 -72t454 49l-166 -455q-203 -47 -496 -47q-563 0 -761 238t-40 665q137 375 457 520q294 134 680 134q385 0 670 -101l-156 -436q-82 37 -212 61t-243 25z" />
    <glyph glyph-name="d" unicode="d" horiz-adv-x="2027" 
d="M1171 1475q289 -1 477 -63t269 -175q80 -113 87 -269t-67 -343q-125 -348 -404 -493q-253 -132 -636 -132h-1020l537 1475h757zM1114 1053h-141l-230 -631h156q135 0 218 68t143 235q63 168 32 248t-178 80z" />
    <glyph glyph-name="e" unicode="e" horiz-adv-x="1746" 
d="M-123 0l537 1475h1501l-146 -402h-788l-49 -133h710l-149 -401h-707l-51 -138h789l-146 -401h-1501z" />
    <glyph glyph-name="f" unicode="f" horiz-adv-x="1685" 
d="M1462 457h-706l-166 -457h-713l537 1475h1501l-154 -422h-788l-64 -174h711z" />
    <glyph glyph-name="g" unicode="g" horiz-adv-x="1951" 
d="M1272 1516q344 0 674 -115l-156 -436q-94 41 -236 71t-260 29q-210 0 -334 -71t-191 -257t4 -266t271 -80h11l119 326h669l-252 -694q-289 -63 -692 -64q-563 0 -761 238t-40 665q137 375 457 520q294 134 717 134z" />
    <glyph glyph-name="h" unicode="h" horiz-adv-x="2058" 
d="M936 0l188 516h-346l-188 -516h-713l537 1475h712l-188 -517h346l189 517h712l-536 -1475h-713z" />
    <glyph glyph-name="i" unicode="i" horiz-adv-x="999" 
d="M590 0h-713l537 1475h712z" />
    <glyph glyph-name="j" unicode="j" horiz-adv-x="1392" 
d="M375 -41q-319 0 -561 90l161 440q145 -59 291 -59q86 0 137 41t84 127l320 877h713l-373 -1026q-105 -285 -279 -387t-493 -103z" />
    <glyph glyph-name="k" unicode="k" horiz-adv-x="2109" 
d="M1110 0l-195 516h-137l-188 -516h-713l537 1475h712l-188 -517h113l524 517h729l-786 -773l325 -702h-733z" />
    <glyph glyph-name="l" unicode="l" horiz-adv-x="1599" 
d="M-123 0l537 1475h712l-374 -1033h682l-162 -442h-1395z" />
    <glyph glyph-name="m" unicode="m" horiz-adv-x="2816" 
d="M1198 1475q131 0 180 -69t45 -212l-20 -440l446 721h1092l-535 -1475h-718l354 971l-647 -971h-594l49 999l-363 -999h-610l537 1475h784z" />
    <glyph glyph-name="n" unicode="n" horiz-adv-x="2240" 
d="M1204 1475q236 0 221 -275l-34 -735l366 1010h610l-536 -1475h-1026l43 991l-361 -991h-610l537 1475h790z" />
    <glyph glyph-name="o" unicode="o" horiz-adv-x="2093" 
d="M1162 1083q-148 -1 -231 -65t-147 -238q-144 -389 152 -389q148 0 231 65q84 65 150 238q136 389 -155 389zM872 -41q-668 0 -813 351q-86 215 33 534q136 368 402 520t735 152q666 0 811 -351q86 -212 -33 -532q-139 -371 -405 -523t-730 -151z" />
    <glyph glyph-name="p" unicode="p" horiz-adv-x="1912" 
d="M1243 1475q477 -1 630 -189t36 -508q-104 -281 -348 -383q-217 -88 -551 -88h-308l-112 -307h-713l537 1475h829zM1092 1073h-111l-133 -364h67q145 0 206 35q60 36 98 135q41 96 13 145t-140 49z" />
    <glyph glyph-name="q" unicode="q" horiz-adv-x="2093" 
d="M1162 1083q-148 -1 -231 -65t-147 -238q-144 -389 152 -389q148 0 231 65q84 65 150 238q136 389 -155 389zM1053 -514q-336 0 -453 115t-41 383q-252 43 -387 166q-135 124 -146 298t66 396q136 368 402 520t735 152q666 0 811 -351q86 -212 -36 -540t-350 -483
t-607 -177q-7 -59 27 -85t128 -26t191 19l-131 -367q-90 -20 -209 -20z" />
    <glyph glyph-name="r" unicode="r" horiz-adv-x="1966" 
d="M1290 1475q440 0 595 -162t46 -463q-57 -160 -174 -242t-307 -112l229 -496h-733l-141 389h-74l-141 -389h-713l537 1475h876zM1092 1073h-111l-104 -282h88q129 -1 181 21t83 108q33 63 5 108t-142 45z" />
    <glyph glyph-name="s" unicode="s" horiz-adv-x="1669" 
d="M621 -41q-455 0 -756 111l145 395q96 -39 249 -68t291 -29t191 13q53 12 74 55q31 72 -45 84l-205 31q-291 45 -377 182t-8 354q55 156 180 252q125 97 295 137t404 40q401 0 688 -105l-143 -395q-225 90 -512 90q-121 0 -169 -11t-61 -48q-23 -61 41 -72l205 -31
q567 -84 383 -563q-90 -233 -303 -327t-567 -95z" />
    <glyph glyph-name="t" unicode="t" horiz-adv-x="1615" 
d="M1663 1032h-381l-375 -1032h-712l374 1032h-399l162 443h1493z" />
    <glyph glyph-name="u" unicode="u" horiz-adv-x="1980" 
d="M889 401q80 0 134 44t99 165l314 865h712l-305 -840q-137 -379 -381 -527t-698 -148t-632 179q-179 180 -62 500l307 836h713l-314 -863q-78 -211 113 -211z" />
    <glyph glyph-name="v" unicode="v" horiz-adv-x="2111" 
d="M1087 0h-858l41 1475h705l-43 -1041l657 1041h752l-856 -1248q-84 -123 -175 -175t-223 -52z" />
    <glyph glyph-name="w" unicode="w" horiz-adv-x="3164" 
d="M2243 0h-781l158 942l-350 -715q-62 -129 -158 -178t-240 -49h-704l123 1475h704l-112 -1018l501 1018h951l-187 -1029l555 1029h670l-713 -1248q-129 -227 -417 -227z" />
    <glyph glyph-name="x" unicode="x" horiz-adv-x="2021" 
d="M1018 0l-96 424l-375 -424h-793l754 774l-205 701h705l96 -426l375 426h792l-755 -777l206 -698h-704z" />
    <glyph glyph-name="y" unicode="y" horiz-adv-x="2050" 
d="M1106 0h-713l185 508l-308 967h664l137 -494l457 494h792l-1048 -1016z" />
    <glyph glyph-name="z" unicode="z" horiz-adv-x="1800" 
d="M1452 0h-1616l88 231q37 99 83 159t132 120l785 543h-666l154 422h1534l-150 -402l-965 -651h775z" />
    <glyph glyph-name="braceleft" unicode="{" horiz-adv-x="1312" 
d="M1160 1788q208 0 368 -49l-109 -312q-74 19 -164 19t-125 -36t-69 -132l-70 -193q-55 -153 -122 -209t-226 -79q203 -119 96 -412l-73 -201q-75 -159 71 -159q61 0 178 6l-118 -316q-137 -16 -342 -16t-279 143t12 369l115 319q25 63 9 87t-89 24h-131l131 360h119
q78 1 111 15t51 63l131 357q66 178 191 265q126 87 334 87z" />
    <glyph glyph-name="bar" unicode="|" horiz-adv-x="942" 
d="M610 1782h488l-762 -2089h-488z" />
    <glyph glyph-name="braceright" unicode="}" horiz-adv-x="1316" 
d="M162 -301q-208 0 -367 49l109 311q74 -18 164 -18t125 36t69 132l70 192q55 154 122 210t226 79q-203 119 -96 412l73 201q75 159 -71 159q-61 0 -178 -6l118 316q137 16 342 16t279 -143t-12 -369l-115 -320q-24 -63 -8 -87t88 -23h131l-131 -361h-119q-78 0 -111 -14
t-51 -63l-131 -357q-66 -178 -192 -265t-334 -87z" />
    <glyph glyph-name="asciitilde" unicode="~" horiz-adv-x="1437" 
d="M918 467q-88 0 -167 41t-146 81t-128 40q-100 0 -217 -135l-149 260q176 211 399 211q88 0 166 -40t144 -81t128 -41q96 0 219 135l148 -260q-182 -211 -397 -211z" />
    <glyph glyph-name="exclamdown" unicode="&#xa1;" horiz-adv-x="808" 
d="M268 928h428l-149 -639l-105 -289h-610l105 289zM387 1475h571l-145 -398h-569z" />
    <glyph glyph-name="cent" unicode="&#xa2;" 
d="M1098 956q-94 -12 -152 -57t-96 -153q-39 -108 -21 -158q18 -51 109 -66zM1307 109q-162 -39 -351 -46l-104 -288h-186l106 291q-374 24 -530 230t-38 543t381 461q241 115 578 113q35 0 101 -4l98 270h184l-106 -293q135 -25 278 -73l-155 -436q-150 61 -281 79
l-160 -442q174 8 351 49z" />
    <glyph glyph-name="sterling" unicode="&#xa3;" horiz-adv-x="1697" 
d="M1495 422l-154 -422h-1472l121 334l145 43q74 23 107 51t57 94h-219l65 176h220l26 74h-221l66 176h219l20 60q87 244 277 376t537 134q347 0 589 -91l-162 -440q-51 19 -150 39t-180 21q-154 0 -212 -99h313l-66 -176h-317l-27 -74h320l-66 -176h-336q-41 -63 -106 -100
h606z" />
    <glyph glyph-name="currency" unicode="&#xa4;" 
d="M801 571q61 0 97 32t65 116q53 188 -76 188q-63 0 -100 -30q-36 -31 -62 -117q-55 -189 76 -189zM951 1161q83 0 167 -22l260 190l174 -276l-221 -162q8 -92 -28 -211q-37 -106 -80 -166l90 -141l-326 -223l-108 174q-167 -18 -299 14l-254 -186l-179 276l209 152
q-12 96 25 210t90 189l-70 111l314 227l100 -162q53 6 136 6z" />
    <glyph glyph-name="yen" unicode="&#xa5;" 
d="M1483 522h-379l-191 -522h-712l190 522h-385l66 176h383l26 74h-385l68 176h272l-131 527h610l56 -299l207 299h718l-505 -527h249l-67 -176h-379l-27 -74h381z" />
    <glyph glyph-name="brokenbar" unicode="&#xa6;" horiz-adv-x="942" 
d="M150 516h487l-301 -823h-488zM1098 1782l-301 -824h-488l301 824h488z" />
    <glyph glyph-name="section" unicode="&#xa7;" horiz-adv-x="1372" 
d="M428 -43q-302 0 -502 76l111 307q63 -27 185 -46q122 -20 214 -20t122 6t38 29q12 35 -35 41l-149 23q-225 33 -297 131t-21 235q31 80 90 126t154 75q-127 113 -57 305q51 141 207 206t456 65q302 0 502 -76l-111 -307q-63 27 -185 46t-214 19t-122 -6t-38 -29
q-12 -35 35 -41l150 -22q225 -33 297 -131t20 -236q-31 -80 -90 -126t-154 -75q127 -113 58 -305q-50 -141 -206 -205t-458 -65zM633 645l143 -20q45 31 60 100q16 86 -97 102l-143 21q-45 -31 -59 -100q-17 -87 96 -103z" />
    <glyph glyph-name="dieresis" unicode="&#xa8;" horiz-adv-x="1781" 
d="M1155 1577h-508l121 330h508zM1749 1577h-508l121 330h508z" />
    <glyph glyph-name="copyright" unicode="&#xa9;" horiz-adv-x="2113" 
d="M1300 907q-140 0 -208 -37t-104 -136t12 -132t178 -33t284 29l-116 -322q-141 -29 -316 -28q-371 0 -499 150t-27 423q82 225 275 316q194 90 452 90t442 -64l-106 -307q-127 51 -267 51zM928 162q336 0 526 112t296 396q106 285 4 455q-112 188 -562 188
q-338 0 -528 -112t-291 -386q-55 -149 -59 -263q-10 -255 246 -342q143 -48 368 -48zM883 -41q-535 0 -738 244t-53 641q138 368 406 520t741 152q530 0 733 -244t60 -627q-142 -383 -410 -535t-739 -151z" />
    <glyph glyph-name="ordfeminine" unicode="&#xaa;" horiz-adv-x="1306" 
d="M965 158h-1039l99 268h1038zM733 1475h529l-27 -922h-420l8 129h-331l-82 -129h-461l534 778q51 78 109 111t141 33zM838 948l18 309l-197 -309h179z" />
    <glyph glyph-name="guillemotleft" unicode="&#xab;" horiz-adv-x="1710" 
d="M1286 1262h492l-451 -545l70 -504h-451l-119 535zM590 1262h491l-450 -545l69 -504h-450l-119 535z" />
    <glyph glyph-name="logicalnot" unicode="&#xac;" 
d="M1507 918l-280 -771h-361l150 410h-819l131 361h1179z" />
    <glyph glyph-name="registered" unicode="&#xae;" horiz-adv-x="2113" 
d="M924 162q387 0 583 147h-452l-84 226h-29l-82 -226h-465q142 -147 529 -147zM1171 971h-69l-66 -176h64q55 0 81 16t44 70q28 90 -54 90zM1317 1231q238 0 336 -121t30 -295q-37 -98 -111 -145t-198 -64l142 -291q147 121 231 344q109 296 7 466q-112 188 -562 188
q-338 0 -528 -112t-291 -386q-129 -342 16 -500l334 916h594zM883 -41q-535 0 -738 244t-53 641q138 368 406 520t741 152q530 0 733 -244t60 -627q-142 -383 -410 -535t-739 -151z" />
    <glyph glyph-name="macron" unicode="&#xaf;" horiz-adv-x="1781" 
d="M1759 1608h-1122l98 268h1123z" />
    <glyph glyph-name="degree" unicode="&#xb0;" horiz-adv-x="1495" 
d="M789 819q96 0 150 40t95 149q83 241 -107 241q-97 0 -151 -40q-54 -39 -95 -153q-42 -114 -15 -176t123 -61zM748 547q-360 0 -482 151q-120 152 -28 394t262 335q170 94 471 95q358 0 478 -151t29 -393t-261 -336t-469 -95z" />
    <glyph glyph-name="plusminus" unicode="&#xb1;" 
d="M47 147l131 361h1180l-131 -361h-1180zM1452 768h-410l-71 -199h-361l72 199h-410l134 360h409l72 199h360l-71 -199h409z" />
    <glyph glyph-name="twosuperior" unicode="&#xb2;" horiz-adv-x="985" 
d="M610 1518q-160 0 -317 -48l96 263q207 45 356 45q285 0 389 -89t42 -249q-39 -98 -107 -150q-102 -77 -266 -147l-98 -47h401l-96 -267h-936l59 160q29 72 60 111t88 69l350 185q68 33 88 88q15 32 -9 54t-100 22z" />
    <glyph glyph-name="threesuperior" unicode="&#xb3;" horiz-adv-x="1034" 
d="M551 803q-260 0 -451 69l93 250q141 -59 331 -59q106 0 144 7t50 33q11 26 -4 38t-57 12h-309l80 219l311 113h-430l99 266h921l-61 -160q-29 -77 -60 -117t-86 -63l-204 -82q166 -8 218 -94t-3 -215q-82 -217 -582 -217z" />
    <glyph glyph-name="acute" unicode="&#xb4;" horiz-adv-x="1781" 
d="M1329 1577h-579l366 330h651z" />
    <glyph glyph-name="paragraph" unicode="&#xb6;" horiz-adv-x="1564" 
d="M705 0h-304l205 563q-635 8 -454 527q78 208 240 296t403 89h446zM1155 0h-303l537 1475h303z" />
    <glyph glyph-name="periodcentered" unicode="&#xb7;" horiz-adv-x="808" 
d="M621 541h-572l146 397h569z" />
    <glyph glyph-name="cedilla" unicode="&#xb8;" horiz-adv-x="1779" 
d="M429 -164q79 0 95 39q25 70 -75 143h358q164 -150 70 -331q-72 -140 -342 -140t-396 72l88 252q123 -35 202 -35z" />
    <glyph glyph-name="onesuperior" unicode="&#xb9;" horiz-adv-x="792" 
d="M739 829h-452l219 601l-268 -113l108 303l318 131h409z" />
    <glyph glyph-name="ordmasculine" unicode="&#xba;" horiz-adv-x="1323" 
d="M967 158h-1039l99 268h1038zM588 1032q-91 -241 104 -241q96 0 151 39q54 40 95 154q85 235 -111 237q-94 0 -147 -40t-92 -149zM651 518q-360 0 -481 152t-29 393t262 335t471 95q358 0 478 -151t30 -393q-92 -243 -262 -337t-469 -94z" />
    <glyph glyph-name="guillemotright" unicode="&#xbb;" horiz-adv-x="1708" 
d="M432 213h-491l450 545l-69 504h450l119 -535zM1128 213h-491l450 545l-69 504h450l119 -535z" />
    <glyph glyph-name="onequarter" unicode="&#xbc;" horiz-adv-x="2463" 
d="M2271 180h-114l-66 -180h-424l66 180h-500l110 305l328 330q111 106 193 107h561l-180 -500h114zM1821 422l121 336l-324 -336h203zM639 553h-453l220 600l-269 -113l109 303l317 132h410zM1468 1475h447l-1106 -1475h-447z" />
    <glyph glyph-name="onehalf" unicode="&#xbd;" horiz-adv-x="2383" 
d="M1843 948q285 0 388 -89t42 -249q-39 -98 -107 -149t-160 -96t-105 -52l-99 -47h402l-97 -266h-936l60 160q29 72 59 110t88 70l351 184q68 33 88 88q14 33 -10 55t-99 21q-160 0 -317 -47l96 262q207 45 356 45zM639 553h-453l220 600l-269 -113l109 303l317 132h410z
M1427 1475h447l-1106 -1475h-446z" />
    <glyph glyph-name="threequarters" unicode="&#xbe;" horiz-adv-x="2705" 
d="M2513 180h-115l-65 -180h-424l65 180h-499l110 305l328 330q111 106 192 107h561l-180 -500h115zM2062 422l121 336l-323 -336h202zM451 526q-260 0 -451 70l92 250q141 -59 332 -60q106 0 144 8t49 32q11 26 -4 38t-56 13h-309l80 219l311 112h-430l98 267h922l-62 -160
q-29 -76 -59 -117t-86 -63l-205 -82q166 -9 218 -95t-3 -215q-81 -217 -581 -217zM1710 1475h447l-1106 -1475h-447z" />
    <glyph glyph-name="questiondown" unicode="&#xbf;" horiz-adv-x="1495" 
d="M856 350q248 0 447 53l-144 -393q-221 -51 -581 -51t-509 159q-148 159 -51 414q125 324 596 361l162 12l25 62h469l-125 -359l-311 -26q-88 -8 -128 -31t-60 -79t26 -88q46 -34 184 -34zM911 1475h572l-146 -398h-569z" />
    <glyph glyph-name="Agrave" unicode="&#xc0;" horiz-adv-x="2091" 
d="M1161 0l13 209h-537l-131 -209h-731l856 1247q84 123 175 175t222 53h838l-41 -1475h-664zM1196 631l29 506l-320 -506h291zM1108 1577l-254 330h651l183 -330h-580z" />
    <glyph glyph-name="Aacute" unicode="&#xc1;" horiz-adv-x="2091" 
d="M1161 0l13 209h-537l-131 -209h-731l856 1247q84 123 175 175t222 53h838l-41 -1475h-664zM1196 631l29 506l-320 -506h291zM1647 1577h-580l367 330h651z" />
    <glyph glyph-name="Acircumflex" unicode="&#xc2;" horiz-adv-x="2091" 
d="M1161 0l13 209h-537l-131 -209h-731l856 1247q84 123 175 175t222 53h838l-41 -1475h-664zM1196 631l29 506l-320 -506h291zM1448 1577l-2 203l-166 -203h-549l332 330h848l65 -330h-528z" />
    <glyph glyph-name="Atilde" unicode="&#xc3;" horiz-adv-x="2091" 
d="M1161 0l13 209h-537l-131 -209h-731l856 1247q84 123 175 175t222 53h838l-41 -1475h-664zM1196 631l29 506l-320 -506h291zM1605 1827q28 0 45 16t36 64h393q-70 -209 -155 -280q-86 -71 -236 -71t-292 50t-170 51q-28 -1 -45 -17t-36 -63h-393q70 209 154 280
q86 71 236 71t292 -51q142 -50 171 -50z" />
    <glyph glyph-name="Adieresis" unicode="&#xc4;" horiz-adv-x="2091" 
d="M1161 0l13 209h-537l-131 -209h-731l856 1247q84 123 175 175t222 53h838l-41 -1475h-664zM1196 631l29 506l-320 -506h291zM1331 1577h-508l121 330h508zM1925 1577h-508l121 330h508z" />
    <glyph glyph-name="Aring" unicode="&#xc5;" horiz-adv-x="2091" 
d="M1161 0l13 209h-537l-131 -209h-731l856 1247q84 123 175 175t222 53h838l-41 -1475h-664zM1196 631l29 506l-320 -506h291zM1393 1671q74 0 96 62q29 82 -53 82q-74 0 -99 -64q-26 -80 56 -80zM1338 1556q-288 0 -390 46t-61 161q37 98 175 131t428 33t391 -46
q101 -47 62 -153t-178 -139t-427 -33z" />
    <glyph glyph-name="AE" unicode="&#xc6;" horiz-adv-x="3037" 
d="M1167 0l107 291h-465l-252 -291h-823l1143 1247q111 121 212 174t246 54h1870l-145 -402h-789l-49 -133h711l-150 -401h-706l-52 -138h789l-145 -401h-1502zM1427 713l181 497l-432 -497h251z" />
    <glyph glyph-name="Ccedilla" unicode="&#xc7;" horiz-adv-x="1761" 
d="M493 -164q79 0 95 39q20 55 -41 115q-356 72 -469 300t20 572q137 375 457 520q294 134 680 134q385 0 670 -101l-156 -436q-82 37 -212 61t-243 25q-210 0 -334 -71t-188 -254t20 -256q85 -72 315 -72t454 49l-166 -455q-205 -47 -471 -47q92 -127 18 -270t-341 -142
q-267 0 -398 72l88 252q123 -35 202 -35z" />
    <glyph glyph-name="Egrave" unicode="&#xc8;" horiz-adv-x="1746" 
d="M-123 0l537 1475h1501l-146 -402h-788l-49 -133h710l-149 -401h-707l-51 -138h789l-146 -401h-1501zM915 1577l-253 330h651l182 -330h-580z" />
    <glyph glyph-name="Eacute" unicode="&#xc9;" horiz-adv-x="1746" 
d="M-123 0l537 1475h1501l-146 -402h-788l-49 -133h710l-149 -401h-707l-51 -138h789l-146 -401h-1501zM1454 1577h-580l367 330h651z" />
    <glyph glyph-name="Ecircumflex" unicode="&#xca;" horiz-adv-x="1746" 
d="M-123 0l537 1475h1501l-146 -402h-788l-49 -133h710l-149 -401h-707l-51 -138h789l-146 -401h-1501zM1255 1577l-2 203l-166 -203h-548l331 330h848l66 -330h-529z" />
    <glyph glyph-name="Edieresis" unicode="&#xcb;" horiz-adv-x="1746" 
d="M-123 0l537 1475h1501l-146 -402h-788l-49 -133h710l-149 -401h-707l-51 -138h789l-146 -401h-1501zM1139 1577h-508l121 330h508zM1733 1577h-508l121 330h507z" />
    <glyph glyph-name="Igrave" unicode="&#xcc;" horiz-adv-x="999" 
d="M590 0h-713l537 1475h712zM541 1577l-254 330h651l182 -330h-579z" />
    <glyph glyph-name="Iacute" unicode="&#xcd;" horiz-adv-x="999" 
d="M590 0h-713l537 1475h712zM1079 1577h-579l366 330h652z" />
    <glyph glyph-name="Icircumflex" unicode="&#xce;" horiz-adv-x="999" 
d="M590 0h-713l537 1475h712zM881 1577l-2 203l-166 -203h-549l332 330h847l66 -330h-528z" />
    <glyph glyph-name="Idieresis" unicode="&#xcf;" horiz-adv-x="999" 
d="M590 0h-713l537 1475h712zM764 1577h-508l121 330h508zM1358 1577h-508l121 330h508z" />
    <glyph glyph-name="Eth" unicode="&#xd0;" horiz-adv-x="2027" 
d="M1171 1475q289 -1 477 -63t269 -175q80 -113 87 -269t-67 -343q-125 -348 -404 -493q-253 -132 -636 -132h-1020l221 608h-143l98 269h144l217 598h757zM899 422q135 0 218 68t143 235q63 168 32 248t-178 80h-141l-64 -176h246l-98 -269h-246l-68 -186h156z" />
    <glyph glyph-name="Ntilde" unicode="&#xd1;" horiz-adv-x="2240" 
d="M1204 1475q236 0 221 -275l-34 -735l366 1010h610l-536 -1475h-1026l43 991l-361 -991h-610l537 1475h790zM1658 1827q28 0 45 16t36 64h393q-70 -209 -155 -280t-235 -71t-293 50q-142 50 -170 51q-28 -1 -45 -17t-36 -63h-393q70 209 154 280q85 71 236 71t293 -51
q142 -50 170 -50z" />
    <glyph glyph-name="Ograve" unicode="&#xd2;" horiz-adv-x="2093" 
d="M1162 1083q-148 -1 -231 -65t-147 -238q-144 -389 152 -389q148 0 231 65q84 65 150 238q136 389 -155 389zM872 -41q-668 0 -813 351q-86 215 33 534q136 368 402 520t735 152q666 0 811 -351q86 -212 -33 -532q-139 -371 -405 -523t-730 -151zM1049 1577l-254 330h651
l182 -330h-579z" />
    <glyph glyph-name="Oacute" unicode="&#xd3;" horiz-adv-x="2093" 
d="M1162 1083q-148 -1 -231 -65t-147 -238q-144 -389 152 -389q148 0 231 65q84 65 150 238q136 389 -155 389zM872 -41q-668 0 -813 351q-86 215 33 534q136 368 402 520t735 152q666 0 811 -351q86 -212 -33 -532q-139 -371 -405 -523t-730 -151zM1587 1577h-579l366 330
h651z" />
    <glyph glyph-name="Ocircumflex" unicode="&#xd4;" horiz-adv-x="2093" 
d="M1162 1083q-148 -1 -231 -65t-147 -238q-144 -389 152 -389q148 0 231 65q84 65 150 238q136 389 -155 389zM872 -41q-668 0 -813 351q-86 215 33 534q136 368 402 520t735 152q666 0 811 -351q86 -212 -33 -532q-139 -371 -405 -523t-730 -151zM1389 1577l-3 203
l-165 -203h-549l332 330h847l66 -330h-528z" />
    <glyph glyph-name="Otilde" unicode="&#xd5;" horiz-adv-x="2093" 
d="M1162 1083q-148 -1 -231 -65t-147 -238q-144 -389 152 -389q148 0 231 65q84 65 150 238q136 389 -155 389zM872 -41q-668 0 -813 351q-86 215 33 534q136 368 402 520t735 152q666 0 811 -351q86 -212 -33 -532q-139 -371 -405 -523t-730 -151zM1545 1827q28 0 45 16
t36 64h393q-71 -209 -155 -280t-234 -71t-294 50q-142 50 -170 51q-28 -1 -45 -17t-36 -63h-393q70 209 155 280t235 71t293 -51q142 -50 170 -50z" />
    <glyph glyph-name="Odieresis" unicode="&#xd6;" horiz-adv-x="2093" 
d="M1162 1083q-148 -1 -231 -65t-147 -238q-144 -389 152 -389q148 0 231 65q84 65 150 238q136 389 -155 389zM872 -41q-668 0 -813 351q-86 215 33 534q136 368 402 520t735 152q666 0 811 -351q86 -212 -33 -532q-139 -371 -405 -523t-730 -151zM1272 1577h-508l121 330
h508zM1866 1577h-508l121 330h508z" />
    <glyph glyph-name="multiply" unicode="&#xd7;" horiz-adv-x="1697" 
d="M1008 150l-209 333l-453 -331l-178 276l457 336l-203 326l313 227l205 -324l459 336l174 -276l-457 -336l217 -344z" />
    <glyph glyph-name="Oslash" unicode="&#xd8;" horiz-adv-x="2093" 
d="M962 391q122 0 205 65q84 65 150 238q14 43 16 51l-547 -307q54 -47 176 -47zM1139 1083q-125 0 -214 -69t-148 -256q-5 -16 -9 -25l543 305q-47 45 -172 45zM884 -41q-452 0 -669 156l-205 -115l-145 223l186 105q-74 209 41 516q136 368 402 520t720 152t668 -156
l203 115l145 -224l-184 -104q76 -209 -39 -514q-139 -371 -405 -523t-718 -151z" />
    <glyph glyph-name="Ugrave" unicode="&#xd9;" horiz-adv-x="1980" 
d="M889 401q80 0 134 44t99 165l314 865h712l-305 -840q-137 -379 -381 -527t-698 -148t-632 179q-179 180 -62 500l307 836h713l-314 -863q-78 -211 113 -211zM1030 1577l-254 330h651l183 -330h-580z" />
    <glyph glyph-name="Uacute" unicode="&#xda;" horiz-adv-x="1980" 
d="M889 401q80 0 134 44t99 165l314 865h712l-305 -840q-137 -379 -381 -527t-698 -148t-632 179q-179 180 -62 500l307 836h713l-314 -863q-78 -211 113 -211zM1569 1577h-580l367 330h651z" />
    <glyph glyph-name="Ucircumflex" unicode="&#xdb;" horiz-adv-x="1980" 
d="M889 401q80 0 134 44t99 165l314 865h712l-305 -840q-137 -379 -381 -527t-698 -148t-632 179q-179 180 -62 500l307 836h713l-314 -863q-78 -211 113 -211zM1370 1577l-2 203l-166 -203h-549l332 330h848l65 -330h-528z" />
    <glyph glyph-name="Udieresis" unicode="&#xdc;" horiz-adv-x="1980" 
d="M889 401q80 0 134 44t99 165l314 865h712l-305 -840q-137 -379 -381 -527t-698 -148t-632 179q-179 180 -62 500l307 836h713l-314 -863q-78 -211 113 -211zM1253 1577h-508l121 330h508zM1847 1577h-508l121 330h508z" />
    <glyph glyph-name="Yacute" unicode="&#xdd;" horiz-adv-x="2050" 
d="M1106 0h-713l185 508l-308 967h664l137 -494l457 494h792l-1048 -1016zM1556 1577h-579l366 330h652z" />
    <glyph glyph-name="Thorn" unicode="&#xde;" horiz-adv-x="1912" 
d="M1182 1311q478 -1 630 -189t35 -508q-105 -282 -348 -383q-217 -88 -551 -88h-307l-51 -143h-713l537 1475h712l-59 -164h115zM1030 909h-108l-134 -364h66q145 0 206 36q60 36 97 134q41 96 13 145t-140 49z" />
    <glyph glyph-name="germandbls" unicode="&#xdf;" horiz-adv-x="3338" 
d="M621 -41q-455 0 -756 111l145 395q96 -39 249 -68t291 -29t191 13q53 12 74 55q31 72 -45 84l-205 31q-291 45 -377 182t-8 354q55 156 180 252q125 97 295 137t404 40q401 0 688 -105l-143 -395q-225 90 -512 90q-121 0 -169 -11t-61 -48q-23 -61 41 -72l205 -31
q567 -84 383 -563q-90 -233 -303 -327t-567 -95zM2290 -41q-455 0 -756 111l145 395q96 -39 249 -68t291 -29t191 13q53 12 74 55q31 72 -45 84l-205 31q-290 45 -376 182t-9 354q55 156 181 252q126 97 294 137q170 40 404 40q401 0 688 -105l-143 -395q-225 90 -512 90
q-121 0 -169 -11t-61 -48q-23 -61 41 -72l205 -31q567 -84 383 -563q-90 -233 -303 -327t-567 -95z" />
    <glyph glyph-name="agrave" unicode="&#xe0;" horiz-adv-x="2091" 
d="M1161 0l13 209h-537l-131 -209h-731l856 1247q84 123 175 175t222 53h838l-41 -1475h-664zM1196 631l29 506l-320 -506h291zM1108 1577l-254 330h651l183 -330h-580z" />
    <glyph glyph-name="aacute" unicode="&#xe1;" horiz-adv-x="2091" 
d="M1161 0l13 209h-537l-131 -209h-731l856 1247q84 123 175 175t222 53h838l-41 -1475h-664zM1196 631l29 506l-320 -506h291zM1647 1577h-580l367 330h651z" />
    <glyph glyph-name="acircumflex" unicode="&#xe2;" horiz-adv-x="2091" 
d="M1161 0l13 209h-537l-131 -209h-731l856 1247q84 123 175 175t222 53h838l-41 -1475h-664zM1196 631l29 506l-320 -506h291zM1448 1577l-2 203l-166 -203h-549l332 330h848l65 -330h-528z" />
    <glyph glyph-name="atilde" unicode="&#xe3;" horiz-adv-x="2091" 
d="M1161 0l13 209h-537l-131 -209h-731l856 1247q84 123 175 175t222 53h838l-41 -1475h-664zM1196 631l29 506l-320 -506h291zM1605 1827q28 0 45 16t36 64h393q-70 -209 -155 -280q-86 -71 -236 -71t-292 50t-170 51q-28 -1 -45 -17t-36 -63h-393q70 209 154 280
q86 71 236 71t292 -51q142 -50 171 -50z" />
    <glyph glyph-name="adieresis" unicode="&#xe4;" horiz-adv-x="2091" 
d="M1161 0l13 209h-537l-131 -209h-731l856 1247q84 123 175 175t222 53h838l-41 -1475h-664zM1196 631l29 506l-320 -506h291zM1331 1577h-508l121 330h508zM1925 1577h-508l121 330h508z" />
    <glyph glyph-name="aring" unicode="&#xe5;" horiz-adv-x="2091" 
d="M1161 0l13 209h-537l-131 -209h-731l856 1247q84 123 175 175t222 53h838l-41 -1475h-664zM1196 631l29 506l-320 -506h291zM1393 1671q74 0 96 62q29 82 -53 82q-74 0 -99 -64q-26 -80 56 -80zM1338 1556q-288 0 -390 46t-61 161q37 98 175 131t428 33t391 -46
q101 -47 62 -153t-178 -139t-427 -33z" />
    <glyph glyph-name="ae" unicode="&#xe6;" horiz-adv-x="3037" 
d="M1167 0l107 291h-465l-252 -291h-823l1143 1247q111 121 212 174t246 54h1870l-145 -402h-789l-49 -133h711l-150 -401h-706l-52 -138h789l-145 -401h-1502zM1427 713l181 497l-432 -497h251z" />
    <glyph glyph-name="ccedilla" unicode="&#xe7;" horiz-adv-x="1761" 
d="M493 -164q79 0 95 39q20 55 -41 115q-356 72 -469 300t20 572q137 375 457 520q294 134 680 134q385 0 670 -101l-156 -436q-82 37 -212 61t-243 25q-210 0 -334 -71t-188 -254t20 -256q85 -72 315 -72t454 49l-166 -455q-205 -47 -471 -47q92 -127 18 -270t-341 -142
q-267 0 -398 72l88 252q123 -35 202 -35z" />
    <glyph glyph-name="egrave" unicode="&#xe8;" horiz-adv-x="1746" 
d="M-123 0l537 1475h1501l-146 -402h-788l-49 -133h710l-149 -401h-707l-51 -138h789l-146 -401h-1501zM915 1577l-253 330h651l182 -330h-580z" />
    <glyph glyph-name="eacute" unicode="&#xe9;" horiz-adv-x="1746" 
d="M-123 0l537 1475h1501l-146 -402h-788l-49 -133h710l-149 -401h-707l-51 -138h789l-146 -401h-1501zM1454 1577h-580l367 330h651z" />
    <glyph glyph-name="ecircumflex" unicode="&#xea;" horiz-adv-x="1746" 
d="M-123 0l537 1475h1501l-146 -402h-788l-49 -133h710l-149 -401h-707l-51 -138h789l-146 -401h-1501zM1255 1577l-2 203l-166 -203h-548l331 330h848l66 -330h-529z" />
    <glyph glyph-name="edieresis" unicode="&#xeb;" horiz-adv-x="1746" 
d="M-123 0l537 1475h1501l-146 -402h-788l-49 -133h710l-149 -401h-707l-51 -138h789l-146 -401h-1501zM1139 1577h-508l121 330h508zM1733 1577h-508l121 330h507z" />
    <glyph glyph-name="igrave" unicode="&#xec;" horiz-adv-x="999" 
d="M590 0h-713l537 1475h712zM541 1577l-254 330h651l182 -330h-579z" />
    <glyph glyph-name="iacute" unicode="&#xed;" horiz-adv-x="999" 
d="M590 0h-713l537 1475h712zM1079 1577h-579l366 330h652z" />
    <glyph glyph-name="icircumflex" unicode="&#xee;" horiz-adv-x="999" 
d="M590 0h-713l537 1475h712zM881 1577l-2 203l-166 -203h-549l332 330h847l66 -330h-528z" />
    <glyph glyph-name="idieresis" unicode="&#xef;" horiz-adv-x="999" 
d="M590 0h-713l537 1475h712zM764 1577h-508l121 330h508zM1358 1577h-508l121 330h508z" />
    <glyph glyph-name="eth" unicode="&#xf0;" horiz-adv-x="2027" 
d="M1171 1475q289 -1 477 -63t269 -175q80 -113 87 -269t-67 -343q-125 -348 -404 -493q-253 -132 -636 -132h-1020l221 608h-143l98 269h144l217 598h757zM899 422q135 0 218 68t143 235q63 168 32 248t-178 80h-141l-64 -176h246l-98 -269h-246l-68 -186h156z" />
    <glyph glyph-name="ntilde" unicode="&#xf1;" horiz-adv-x="2240" 
d="M1204 1475q236 0 221 -275l-34 -735l366 1010h610l-536 -1475h-1026l43 991l-361 -991h-610l537 1475h790zM1658 1827q28 0 45 16t36 64h393q-70 -209 -155 -280t-235 -71t-293 50q-142 50 -170 51q-28 -1 -45 -17t-36 -63h-393q70 209 154 280q85 71 236 71t293 -51
q142 -50 170 -50z" />
    <glyph glyph-name="ograve" unicode="&#xf2;" horiz-adv-x="2093" 
d="M1162 1083q-148 -1 -231 -65t-147 -238q-144 -389 152 -389q148 0 231 65q84 65 150 238q136 389 -155 389zM872 -41q-668 0 -813 351q-86 215 33 534q136 368 402 520t735 152q666 0 811 -351q86 -212 -33 -532q-139 -371 -405 -523t-730 -151zM1049 1577l-254 330h651
l182 -330h-579z" />
    <glyph glyph-name="oacute" unicode="&#xf3;" horiz-adv-x="2093" 
d="M1162 1083q-148 -1 -231 -65t-147 -238q-144 -389 152 -389q148 0 231 65q84 65 150 238q136 389 -155 389zM872 -41q-668 0 -813 351q-86 215 33 534q136 368 402 520t735 152q666 0 811 -351q86 -212 -33 -532q-139 -371 -405 -523t-730 -151zM1587 1577h-579l366 330
h651z" />
    <glyph glyph-name="ocircumflex" unicode="&#xf4;" horiz-adv-x="2093" 
d="M1162 1083q-148 -1 -231 -65t-147 -238q-144 -389 152 -389q148 0 231 65q84 65 150 238q136 389 -155 389zM872 -41q-668 0 -813 351q-86 215 33 534q136 368 402 520t735 152q666 0 811 -351q86 -212 -33 -532q-139 -371 -405 -523t-730 -151zM1389 1577l-3 203
l-165 -203h-549l332 330h847l66 -330h-528z" />
    <glyph glyph-name="otilde" unicode="&#xf5;" horiz-adv-x="2093" 
d="M1162 1083q-148 -1 -231 -65t-147 -238q-144 -389 152 -389q148 0 231 65q84 65 150 238q136 389 -155 389zM872 -41q-668 0 -813 351q-86 215 33 534q136 368 402 520t735 152q666 0 811 -351q86 -212 -33 -532q-139 -371 -405 -523t-730 -151zM1545 1827q28 0 45 16
t36 64h393q-71 -209 -155 -280t-234 -71t-294 50q-142 50 -170 51q-28 -1 -45 -17t-36 -63h-393q70 209 155 280t235 71t293 -51q142 -50 170 -50z" />
    <glyph glyph-name="odieresis" unicode="&#xf6;" horiz-adv-x="2093" 
d="M1162 1083q-148 -1 -231 -65t-147 -238q-144 -389 152 -389q148 0 231 65q84 65 150 238q136 389 -155 389zM872 -41q-668 0 -813 351q-86 215 33 534q136 368 402 520t735 152q666 0 811 -351q86 -212 -33 -532q-139 -371 -405 -523t-730 -151zM1272 1577h-508l121 330
h508zM1866 1577h-508l121 330h508z" />
    <glyph glyph-name="divide" unicode="&#xf7;" 
d="M567 451h361l-111 -304h-360zM197 557l131 361h1179l-131 -361h-1179zM887 1327h360l-110 -303h-361z" />
    <glyph glyph-name="oslash" unicode="&#xf8;" horiz-adv-x="2093" 
d="M962 391q122 0 205 65q84 65 150 238q14 43 16 51l-547 -307q54 -47 176 -47zM1139 1083q-125 0 -214 -69t-148 -256q-5 -16 -9 -25l543 305q-47 45 -172 45zM884 -41q-452 0 -669 156l-205 -115l-145 223l186 105q-74 209 41 516q136 368 402 520t720 152t668 -156
l203 115l145 -224l-184 -104q76 -209 -39 -514q-139 -371 -405 -523t-718 -151z" />
    <glyph glyph-name="ugrave" unicode="&#xf9;" horiz-adv-x="1980" 
d="M889 401q80 0 134 44t99 165l314 865h712l-305 -840q-137 -379 -381 -527t-698 -148t-632 179q-179 180 -62 500l307 836h713l-314 -863q-78 -211 113 -211zM1030 1577l-254 330h651l183 -330h-580z" />
    <glyph glyph-name="uacute" unicode="&#xfa;" horiz-adv-x="1980" 
d="M889 401q80 0 134 44t99 165l314 865h712l-305 -840q-137 -379 -381 -527t-698 -148t-632 179q-179 180 -62 500l307 836h713l-314 -863q-78 -211 113 -211zM1569 1577h-580l367 330h651z" />
    <glyph glyph-name="ucircumflex" unicode="&#xfb;" horiz-adv-x="1980" 
d="M889 401q80 0 134 44t99 165l314 865h712l-305 -840q-137 -379 -381 -527t-698 -148t-632 179q-179 180 -62 500l307 836h713l-314 -863q-78 -211 113 -211zM1370 1577l-2 203l-166 -203h-549l332 330h848l65 -330h-528z" />
    <glyph glyph-name="udieresis" unicode="&#xfc;" horiz-adv-x="1980" 
d="M889 401q80 0 134 44t99 165l314 865h712l-305 -840q-137 -379 -381 -527t-698 -148t-632 179q-179 180 -62 500l307 836h713l-314 -863q-78 -211 113 -211zM1253 1577h-508l121 330h508zM1847 1577h-508l121 330h508z" />
    <glyph glyph-name="yacute" unicode="&#xfd;" horiz-adv-x="2050" 
d="M1106 0h-713l185 508l-308 967h664l137 -494l457 494h792l-1048 -1016zM1556 1577h-579l366 330h652z" />
    <glyph glyph-name="thorn" unicode="&#xfe;" horiz-adv-x="1912" 
d="M1182 1311q478 -1 630 -189t35 -508q-105 -282 -348 -383q-217 -88 -551 -88h-307l-51 -143h-713l537 1475h712l-59 -164h115zM1030 909h-108l-134 -364h66q145 0 206 36q60 36 97 134q41 96 13 145t-140 49z" />
    <glyph glyph-name="ydieresis" unicode="&#xff;" horiz-adv-x="2050" 
d="M1106 0h-713l185 508l-308 967h664l137 -494l457 494h792l-1048 -1016zM1241 1577h-508l121 330h508zM1835 1577h-508l121 330h508z" />
    <glyph glyph-name="Amacron" unicode="&#x100;" horiz-adv-x="2091" 
d="M1161 0l13 209h-537l-131 -209h-731l856 1247q84 123 175 175t222 53h838l-41 -1475h-664zM1196 631l29 506l-320 -506h291zM1935 1608h-1122l98 268h1123z" />
    <glyph glyph-name="amacron" unicode="&#x101;" horiz-adv-x="2091" 
d="M1161 0l13 209h-537l-131 -209h-731l856 1247q84 123 175 175t222 53h838l-41 -1475h-664zM1196 631l29 506l-320 -506h291zM1935 1608h-1122l98 268h1123z" />
    <glyph glyph-name="Abreve" unicode="&#x102;" horiz-adv-x="2091" 
d="M1161 0l13 209h-537l-131 -209h-731l856 1247q84 123 175 175t222 53h838l-41 -1475h-664zM1196 631l29 506l-320 -506h291zM1454 1769q41 0 71 31t58 107h455q-72 -197 -227 -274t-438 -77t-376 83q-92 83 -26 268h454q-25 -76 -19 -107t48 -31z" />
    <glyph glyph-name="abreve" unicode="&#x103;" horiz-adv-x="2091" 
d="M1161 0l13 209h-537l-131 -209h-731l856 1247q84 123 175 175t222 53h838l-41 -1475h-664zM1196 631l29 506l-320 -506h291zM1454 1769q41 0 71 31t58 107h455q-72 -197 -227 -274t-438 -77t-376 83q-92 83 -26 268h454q-25 -76 -19 -107t48 -31z" />
    <glyph glyph-name="Aogonek" unicode="&#x104;" horiz-adv-x="2091" 
d="M1243 -453q-196 0 -284 65q-87 65 -46 175q25 68 83 116t165 97l13 209h-537l-131 -209h-731l856 1247q84 123 175 175t222 53h838l-41 -1475h-262q-111 -70 -125 -113t14 -61t80 -18q53 0 151 10l-84 -230q-160 -41 -356 -41zM1196 631l29 506l-320 -506h291z" />
    <glyph glyph-name="aogonek" unicode="&#x105;" horiz-adv-x="2091" 
d="M1243 -453q-196 0 -284 65q-87 65 -46 175q25 68 83 116t165 97l13 209h-537l-131 -209h-731l856 1247q84 123 175 175t222 53h838l-41 -1475h-262q-111 -70 -125 -113t14 -61t80 -18q53 0 151 10l-84 -230q-160 -41 -356 -41zM1196 631l29 506l-320 -506h291z" />
    <glyph glyph-name="Cacute" unicode="&#x106;" horiz-adv-x="1761" 
d="M1294 1065q-210 0 -334 -71t-188 -254t20 -256q85 -72 315 -72t454 49l-166 -455q-203 -47 -496 -47q-563 0 -761 238t-40 665q137 375 457 520q294 134 680 134q385 0 670 -101l-156 -436q-82 37 -212 61t-243 25zM1481 1577h-580l367 330h651z" />
    <glyph glyph-name="cacute" unicode="&#x107;" horiz-adv-x="1761" 
d="M1294 1065q-210 0 -334 -71t-188 -254t20 -256q85 -72 315 -72t454 49l-166 -455q-203 -47 -496 -47q-563 0 -761 238t-40 665q137 375 457 520q294 134 680 134q385 0 670 -101l-156 -436q-82 37 -212 61t-243 25zM1481 1577h-580l367 330h651z" />
    <glyph glyph-name="Ccircumflex" unicode="&#x108;" horiz-adv-x="1761" 
d="M1294 1065q-210 0 -334 -71t-188 -254t20 -256q85 -72 315 -72t454 49l-166 -455q-203 -47 -496 -47q-563 0 -761 238t-40 665q137 375 457 520q294 134 680 134q385 0 670 -101l-156 -436q-82 37 -212 61t-243 25zM1282 1577l-2 203l-166 -203h-549l332 330h848l65 -330
h-528z" />
    <glyph glyph-name="ccircumflex" unicode="&#x109;" horiz-adv-x="1761" 
d="M1294 1065q-210 0 -334 -71t-188 -254t20 -256q85 -72 315 -72t454 49l-166 -455q-203 -47 -496 -47q-563 0 -761 238t-40 665q137 375 457 520q294 134 680 134q385 0 670 -101l-156 -436q-82 37 -212 61t-243 25zM1282 1577l-2 203l-166 -203h-549l332 330h848l65 -330
h-528z" />
    <glyph glyph-name="Cdotaccent" unicode="&#x10a;" horiz-adv-x="1761" 
d="M1294 1065q-210 0 -334 -71t-188 -254t20 -256q85 -72 315 -72t454 49l-166 -455q-203 -47 -496 -47q-563 0 -761 238t-40 665q137 375 457 520q294 134 680 134q385 0 670 -101l-156 -436q-82 37 -212 61t-243 25zM1608 1577h-713l121 330h713z" />
    <glyph glyph-name="cdotaccent" unicode="&#x10b;" horiz-adv-x="1761" 
d="M1294 1065q-210 0 -334 -71t-188 -254t20 -256q85 -72 315 -72t454 49l-166 -455q-203 -47 -496 -47q-563 0 -761 238t-40 665q137 375 457 520q294 134 680 134q385 0 670 -101l-156 -436q-82 37 -212 61t-243 25zM1608 1577h-713l121 330h713z" />
    <glyph glyph-name="Ccaron" unicode="&#x10c;" horiz-adv-x="1761" 
d="M1294 1065q-210 0 -334 -71t-188 -254t20 -256q85 -72 315 -72t454 49l-166 -455q-203 -47 -496 -47q-563 0 -761 238t-40 665q137 375 457 520q294 134 680 134q385 0 670 -101l-156 -436q-82 37 -212 61t-243 25zM784 1577l-65 330h528l2 -203l166 203h549l-332 -330
h-848z" />
    <glyph glyph-name="ccaron" unicode="&#x10d;" horiz-adv-x="1761" 
d="M1294 1065q-210 0 -334 -71t-188 -254t20 -256q85 -72 315 -72t454 49l-166 -455q-203 -47 -496 -47q-563 0 -761 238t-40 665q137 375 457 520q294 134 680 134q385 0 670 -101l-156 -436q-82 37 -212 61t-243 25zM784 1577l-65 330h528l2 -203l166 203h549l-332 -330
h-848z" />
    <glyph glyph-name="Dcaron" unicode="&#x10e;" horiz-adv-x="2027" 
d="M1171 1475q289 -1 477 -63t269 -175q80 -113 87 -269t-67 -343q-125 -348 -404 -493q-253 -132 -636 -132h-1020l537 1475h757zM1114 1053h-141l-230 -631h156q135 0 218 68t143 235q63 168 32 248t-178 80zM836 1577l-66 330h528l2 -203l166 203h549l-332 -330h-847z
" />
    <glyph glyph-name="dcaron" unicode="&#x10f;" horiz-adv-x="2027" 
d="M1171 1475q289 -1 477 -63t269 -175q80 -113 87 -269t-67 -343q-125 -348 -404 -493q-253 -132 -636 -132h-1020l537 1475h757zM1114 1053h-141l-230 -631h156q135 0 218 68t143 235q63 168 32 248t-178 80zM836 1577l-66 330h528l2 -203l166 203h549l-332 -330h-847z
" />
    <glyph glyph-name="Dcroat" unicode="&#x110;" horiz-adv-x="2027" 
d="M1171 1475q289 -1 477 -63t269 -175q80 -113 87 -269t-67 -343q-125 -348 -404 -493q-253 -132 -636 -132h-1020l221 608h-143l98 269h144l217 598h757zM899 422q135 0 218 68t143 235q63 168 32 248t-178 80h-141l-64 -176h246l-98 -269h-246l-68 -186h156z" />
    <glyph glyph-name="dcroat" unicode="&#x111;" horiz-adv-x="2027" 
d="M1171 1475q289 -1 477 -63t269 -175q80 -113 87 -269t-67 -343q-125 -348 -404 -493q-253 -132 -636 -132h-1020l221 608h-143l98 269h144l217 598h757zM899 422q135 0 218 68t143 235q63 168 32 248t-178 80h-141l-64 -176h246l-98 -269h-246l-68 -186h156z" />
    <glyph glyph-name="Emacron" unicode="&#x112;" horiz-adv-x="1746" 
d="M-123 0l537 1475h1501l-146 -402h-788l-49 -133h710l-149 -401h-707l-51 -138h789l-146 -401h-1501zM1743 1608h-1122l98 268h1122z" />
    <glyph glyph-name="emacron" unicode="&#x113;" horiz-adv-x="1746" 
d="M-123 0l537 1475h1501l-146 -402h-788l-49 -133h710l-149 -401h-707l-51 -138h789l-146 -401h-1501zM1743 1608h-1122l98 268h1122z" />
    <glyph glyph-name="Ebreve" unicode="&#x114;" horiz-adv-x="1746" 
d="M-123 0l537 1475h1501l-146 -402h-788l-49 -133h710l-149 -401h-707l-51 -138h789l-146 -401h-1501zM1262 1769q42 0 70 31q30 31 59 107h454q-73 -197 -227 -274t-437 -77t-376 83q-92 83 -27 268h455q-25 -76 -19 -107t48 -31z" />
    <glyph glyph-name="ebreve" unicode="&#x115;" horiz-adv-x="1746" 
d="M-123 0l537 1475h1501l-146 -402h-788l-49 -133h710l-149 -401h-707l-51 -138h789l-146 -401h-1501zM1262 1769q42 0 70 31q30 31 59 107h454q-73 -197 -227 -274t-437 -77t-376 83q-92 83 -27 268h455q-25 -76 -19 -107t48 -31z" />
    <glyph glyph-name="Edotaccent" unicode="&#x116;" horiz-adv-x="1746" 
d="M-123 0l537 1475h1501l-146 -402h-788l-49 -133h710l-149 -401h-707l-51 -138h789l-146 -401h-1501zM1538 1577h-713l121 330h713z" />
    <glyph glyph-name="edotaccent" unicode="&#x117;" horiz-adv-x="1746" 
d="M-123 0l537 1475h1501l-146 -402h-788l-49 -133h710l-149 -401h-707l-51 -138h789l-146 -401h-1501zM1538 1577h-713l121 330h713z" />
    <glyph glyph-name="Eogonek" unicode="&#x118;" horiz-adv-x="1746" 
d="M887 -453q-196 0 -284 65q-87 65 -46 175q25 66 82 115t164 98h-926l537 1475h1501l-146 -402h-788l-49 -133h710l-149 -401h-707l-51 -138h789l-146 -401h-172q-111 -70 -125 -113t14 -61t81 -18t151 10l-84 -230q-160 -41 -356 -41z" />
    <glyph glyph-name="eogonek" unicode="&#x119;" horiz-adv-x="1746" 
d="M887 -453q-196 0 -284 65q-87 65 -46 175q25 66 82 115t164 98h-926l537 1475h1501l-146 -402h-788l-49 -133h710l-149 -401h-707l-51 -138h789l-146 -401h-172q-111 -70 -125 -113t14 -61t81 -18t151 10l-84 -230q-160 -41 -356 -41z" />
    <glyph glyph-name="Ecaron" unicode="&#x11a;" horiz-adv-x="1746" 
d="M-123 0l537 1475h1501l-146 -402h-788l-49 -133h710l-149 -401h-707l-51 -138h789l-146 -401h-1501zM758 1577l-66 330h529l2 -203l166 203h548l-331 -330h-848z" />
    <glyph glyph-name="ecaron" unicode="&#x11b;" horiz-adv-x="1746" 
d="M-123 0l537 1475h1501l-146 -402h-788l-49 -133h710l-149 -401h-707l-51 -138h789l-146 -401h-1501zM758 1577l-66 330h529l2 -203l166 203h548l-331 -330h-848z" />
    <glyph glyph-name="Gcircumflex" unicode="&#x11c;" horiz-adv-x="1951" 
d="M1272 1516q344 0 674 -115l-156 -436q-94 41 -236 71t-260 29q-210 0 -334 -71t-191 -257t4 -266t271 -80h11l119 326h669l-252 -694q-289 -63 -692 -64q-563 0 -761 238t-40 665q137 375 457 520q294 134 717 134zM1346 1577l-3 203l-165 -203h-549l332 330h847l66 -330
h-528z" />
    <glyph glyph-name="gcircumflex" unicode="&#x11d;" horiz-adv-x="1951" 
d="M1272 1516q344 0 674 -115l-156 -436q-94 41 -236 71t-260 29q-210 0 -334 -71t-191 -257t4 -266t271 -80h11l119 326h669l-252 -694q-289 -63 -692 -64q-563 0 -761 238t-40 665q137 375 457 520q294 134 717 134zM1346 1577l-3 203l-165 -203h-549l332 330h847l66 -330
h-528z" />
    <glyph glyph-name="Gbreve" unicode="&#x11e;" horiz-adv-x="1951" 
d="M1272 1516q344 0 674 -115l-156 -436q-94 41 -236 71t-260 29q-210 0 -334 -71t-191 -257t4 -266t271 -80h11l119 326h669l-252 -694q-289 -63 -692 -64q-563 0 -761 238t-40 665q137 375 457 520q294 134 717 134zM1352 1769q40 0 70 31t59 107h454q-73 -197 -227 -274
t-437 -77t-376 83q-92 83 -27 268h455q-25 -76 -19 -107t48 -31z" />
    <glyph glyph-name="gbreve" unicode="&#x11f;" horiz-adv-x="1951" 
d="M1272 1516q344 0 674 -115l-156 -436q-94 41 -236 71t-260 29q-210 0 -334 -71t-191 -257t4 -266t271 -80h11l119 326h669l-252 -694q-289 -63 -692 -64q-563 0 -761 238t-40 665q137 375 457 520q294 134 717 134zM1352 1769q40 0 70 31t59 107h454q-73 -197 -227 -274
t-437 -77t-376 83q-92 83 -27 268h455q-25 -76 -19 -107t48 -31z" />
    <glyph glyph-name="Gdotaccent" unicode="&#x120;" horiz-adv-x="1951" 
d="M1272 1516q344 0 674 -115l-156 -436q-94 41 -236 71t-260 29q-210 0 -334 -71t-191 -257t4 -266t271 -80h11l119 326h669l-252 -694q-289 -63 -692 -64q-563 0 -761 238t-40 665q137 375 457 520q294 134 717 134zM1628 1577h-713l121 330h713z" />
    <glyph glyph-name="gdotaccent" unicode="&#x121;" horiz-adv-x="1951" 
d="M1272 1516q344 0 674 -115l-156 -436q-94 41 -236 71t-260 29q-210 0 -334 -71t-191 -257t4 -266t271 -80h11l119 326h669l-252 -694q-289 -63 -692 -64q-563 0 -761 238t-40 665q137 375 457 520q294 134 717 134zM1628 1577h-713l121 330h713z" />
    <glyph glyph-name="Gcommaaccent" unicode="&#x122;" horiz-adv-x="1951" 
d="M801 -432h-570l310 330h651zM1272 1516q344 0 674 -115l-156 -436q-94 41 -236 71t-260 29q-210 0 -334 -71t-191 -257t4 -266t271 -80h11l119 326h669l-252 -694q-289 -63 -692 -64q-563 0 -761 238t-40 665q137 375 457 520q294 134 717 134z" />
    <glyph glyph-name="gcommaaccent" unicode="&#x123;" horiz-adv-x="1951" 
d="M801 -432h-570l310 330h651zM1272 1516q344 0 674 -115l-156 -436q-94 41 -236 71t-260 29q-210 0 -334 -71t-191 -257t4 -266t271 -80h11l119 326h669l-252 -694q-289 -63 -692 -64q-563 0 -761 238t-40 665q137 375 457 520q294 134 717 134z" />
    <glyph glyph-name="Hcircumflex" unicode="&#x124;" horiz-adv-x="2058" 
d="M936 0l188 516h-346l-188 -516h-713l537 1475h712l-188 -517h346l189 517h712l-536 -1475h-713zM1411 1577l-2 203l-166 -203h-549l332 330h848l65 -330h-528z" />
    <glyph glyph-name="hcircumflex" unicode="&#x125;" horiz-adv-x="2058" 
d="M936 0l188 516h-346l-188 -516h-713l537 1475h712l-188 -517h346l189 517h712l-536 -1475h-713zM1411 1577l-2 203l-166 -203h-549l332 330h848l65 -330h-528z" />
    <glyph glyph-name="Hbar" unicode="&#x126;" horiz-adv-x="2058" 
d="M936 0l188 516h-346l-188 -516h-713l391 1073h-143l98 268h142l49 134h712l-49 -134h346l50 134h712l-49 -134h145l-98 -268h-143l-391 -1073h-713zM1284 958l43 115h-346l-43 -115h346z" />
    <glyph glyph-name="hbar" unicode="&#x127;" horiz-adv-x="2058" 
d="M936 0l188 516h-346l-188 -516h-713l391 1073h-143l98 268h142l49 134h712l-49 -134h346l50 134h712l-49 -134h145l-98 -268h-143l-391 -1073h-713zM1284 958l43 115h-346l-43 -115h346z" />
    <glyph glyph-name="Itilde" unicode="&#x128;" horiz-adv-x="999" 
d="M590 0h-713l537 1475h712zM1037 1827q28 0 45 16t36 64h393q-71 -209 -155 -280t-234 -71t-294 50q-142 50 -170 51q-28 -1 -45 -17t-35 -63h-394q70 209 155 280t235 71t293 -51q142 -50 170 -50z" />
    <glyph glyph-name="itilde" unicode="&#x129;" horiz-adv-x="999" 
d="M590 0h-713l537 1475h712zM1037 1827q28 0 45 16t36 64h393q-71 -209 -155 -280t-234 -71t-294 50q-142 50 -170 51q-28 -1 -45 -17t-35 -63h-394q70 209 155 280t235 71t293 -51q142 -50 170 -50z" />
    <glyph glyph-name="Imacron" unicode="&#x12a;" horiz-adv-x="999" 
d="M590 0h-713l537 1475h712zM1368 1608h-1122l98 268h1122z" />
    <glyph glyph-name="imacron" unicode="&#x12b;" horiz-adv-x="999" 
d="M590 0h-713l537 1475h712zM1368 1608h-1122l98 268h1122z" />
    <glyph glyph-name="Ibreve" unicode="&#x12c;" horiz-adv-x="999" 
d="M590 0h-713l537 1475h712zM887 1769q41 0 71 31t58 107h454q-72 -197 -226 -274t-438 -77q-283 0 -376 83q-92 83 -27 268h455q-24 -76 -18 -107t47 -31z" />
    <glyph glyph-name="ibreve" unicode="&#x12d;" horiz-adv-x="999" 
d="M590 0h-713l537 1475h712zM887 1769q41 0 71 31t58 107h454q-72 -197 -226 -274t-438 -77q-283 0 -376 83q-92 83 -27 268h455q-24 -76 -18 -107t47 -31z" />
    <glyph glyph-name="Iogonek" unicode="&#x12e;" horiz-adv-x="999" 
d="M142 -453q-196 0 -284 65q-87 65 -46 175q25 66 82 115t163 98h-180l537 1475h712l-536 -1475h-129q-111 -70 -125 -113t14 -61t80 -18q53 0 152 10l-84 -230q-160 -41 -356 -41z" />
    <glyph glyph-name="iogonek" unicode="&#x12f;" horiz-adv-x="999" 
d="M142 -453q-196 0 -284 65q-87 65 -46 175q25 66 82 115t163 98h-180l537 1475h712l-536 -1475h-129q-111 -70 -125 -113t14 -61t80 -18q53 0 152 10l-84 -230q-160 -41 -356 -41z" />
    <glyph glyph-name="Idotaccent" unicode="&#x130;" horiz-adv-x="999" 
d="M590 0h-713l537 1475h712zM1163 1577h-712l120 330h713z" />
    <glyph glyph-name="dotlessi" unicode="&#x131;" horiz-adv-x="999" 
d="M590 0h-713l537 1475h712z" />
    <glyph glyph-name="IJ" unicode="&#x132;" horiz-adv-x="2392" 
d="M1374 -41q-320 0 -561 90l162 440q145 -59 291 -59q86 0 137 41t84 127l319 877h713l-373 -1026q-104 -285 -278 -387t-494 -103zM590 0h-713l537 1475h712z" />
    <glyph glyph-name="ij" unicode="&#x133;" horiz-adv-x="2392" 
d="M1374 -41q-320 0 -561 90l162 440q145 -59 291 -59q86 0 137 41t84 127l319 877h713l-373 -1026q-104 -285 -278 -387t-494 -103zM590 0h-713l537 1475h712z" />
    <glyph glyph-name="Jcircumflex" unicode="&#x134;" horiz-adv-x="1392" 
d="M375 -41q-319 0 -561 90l161 440q145 -59 291 -59q86 0 137 41t84 127l320 877h713l-373 -1026q-105 -285 -279 -387t-493 -103zM1278 1577l-2 203l-166 -203h-549l332 330h848l65 -330h-528z" />
    <glyph glyph-name="jcircumflex" unicode="&#x135;" horiz-adv-x="1392" 
d="M375 -41q-319 0 -561 90l161 440q145 -59 291 -59q86 0 137 41t84 127l320 877h713l-373 -1026q-105 -285 -279 -387t-493 -103zM1278 1577l-2 203l-166 -203h-549l332 330h848l65 -330h-528z" />
    <glyph glyph-name="Kcommaaccent" unicode="&#x136;" horiz-adv-x="2109" 
d="M762 -432h-569l309 330h651zM1110 0l-195 516h-137l-188 -516h-713l537 1475h712l-188 -517h113l524 517h729l-786 -773l325 -702h-733z" />
    <glyph glyph-name="kcommaaccent" unicode="&#x137;" horiz-adv-x="2109" 
d="M762 -432h-569l309 330h651zM1110 0l-195 516h-137l-188 -516h-713l537 1475h712l-188 -517h113l524 517h729l-786 -773l325 -702h-733z" />
    <glyph glyph-name="Lacute" unicode="&#x139;" horiz-adv-x="1599" 
d="M-123 0l537 1475h712l-374 -1033h682l-162 -442h-1395zM1112 1577h-580l367 330h651z" />
    <glyph glyph-name="lacute" unicode="&#x13a;" horiz-adv-x="1599" 
d="M-123 0l537 1475h712l-374 -1033h682l-162 -442h-1395zM1112 1577h-580l367 330h651z" />
    <glyph glyph-name="Lcommaaccent" unicode="&#x13b;" horiz-adv-x="1599" 
d="M555 -432h-569l309 330h651zM-123 0l537 1475h712l-374 -1033h682l-162 -442h-1395z" />
    <glyph glyph-name="lcommaaccent" unicode="&#x13c;" horiz-adv-x="1599" 
d="M555 -432h-569l309 330h651zM-123 0l537 1475h712l-374 -1033h682l-162 -442h-1395z" />
    <glyph glyph-name="Lcaron" unicode="&#x13d;" horiz-adv-x="1599" 
d="M-123 0l537 1475h712l-374 -1033h682l-162 -442h-1395zM1399 879h-430l323 596h568z" />
    <glyph glyph-name="lcaron" unicode="&#x13e;" horiz-adv-x="1599" 
d="M-123 0l537 1475h712l-374 -1033h682l-162 -442h-1395zM1399 879h-430l323 596h568z" />
    <glyph glyph-name="Ldot" unicode="&#x13f;" horiz-adv-x="1599" 
d="M-123 0l537 1475h712l-374 -1033h682l-162 -442h-1395zM1583 709h-571l145 397h569z" />
    <glyph glyph-name="ldot" unicode="&#x140;" horiz-adv-x="1599" 
d="M-123 0l537 1475h712l-374 -1033h682l-162 -442h-1395zM1583 709h-571l145 397h569z" />
    <glyph glyph-name="Lslash" unicode="&#x141;" horiz-adv-x="1599" 
d="M-123 0l199 549l-217 -78l118 330l220 78l217 596h712l-135 -371l338 121l-119 -328l-338 -123l-120 -332h682l-162 -442h-1395z" />
    <glyph glyph-name="lslash" unicode="&#x142;" horiz-adv-x="1599" 
d="M-123 0l199 549l-217 -78l118 330l220 78l217 596h712l-135 -371l338 121l-119 -328l-338 -123l-120 -332h682l-162 -442h-1395z" />
    <glyph glyph-name="Nacute" unicode="&#x143;" horiz-adv-x="2240" 
d="M1204 1475q236 0 221 -275l-34 -735l366 1010h610l-536 -1475h-1026l43 991l-361 -991h-610l537 1475h790zM1700 1577h-580l367 330h651z" />
    <glyph glyph-name="nacute" unicode="&#x144;" horiz-adv-x="2240" 
d="M1204 1475q236 0 221 -275l-34 -735l366 1010h610l-536 -1475h-1026l43 991l-361 -991h-610l537 1475h790zM1700 1577h-580l367 330h651z" />
    <glyph glyph-name="Ncommaaccent" unicode="&#x145;" horiz-adv-x="2240" 
d="M862 -432h-569l309 330h651zM1204 1475q236 0 221 -275l-34 -735l366 1010h610l-536 -1475h-1026l43 991l-361 -991h-610l537 1475h790z" />
    <glyph glyph-name="ncommaaccent" unicode="&#x146;" horiz-adv-x="2240" 
d="M862 -432h-569l309 330h651zM1204 1475q236 0 221 -275l-34 -735l366 1010h610l-536 -1475h-1026l43 991l-361 -991h-610l537 1475h790z" />
    <glyph glyph-name="Ncaron" unicode="&#x147;" horiz-adv-x="2240" 
d="M1204 1475q236 0 221 -275l-34 -735l366 1010h610l-536 -1475h-1026l43 991l-361 -991h-610l537 1475h790zM1004 1577l-66 330h528l2 -203l166 203h549l-332 -330h-847z" />
    <glyph glyph-name="ncaron" unicode="&#x148;" horiz-adv-x="2240" 
d="M1204 1475q236 0 221 -275l-34 -735l366 1010h610l-536 -1475h-1026l43 991l-361 -991h-610l537 1475h790zM1004 1577l-66 330h528l2 -203l166 203h549l-332 -330h-847z" />
    <glyph glyph-name="Eng" unicode="&#x14a;" horiz-adv-x="2240" 
d="M1106 -532q-256 0 -442 71l161 441q160 -41 217 -41q156 0 179 63l-355 1038l-379 -1040h-610l537 1475h682q125 1 181 -53t107 -222l125 -405l248 680h610l-579 -1592q-150 -415 -682 -415z" />
    <glyph glyph-name="eng" unicode="&#x14b;" horiz-adv-x="2240" 
d="M1106 -532q-256 0 -442 71l161 441q160 -41 217 -41q156 0 179 63l-355 1038l-379 -1040h-610l537 1475h682q125 1 181 -53t107 -222l125 -405l248 680h610l-579 -1592q-150 -415 -682 -415z" />
    <glyph glyph-name="Omacron" unicode="&#x14c;" horiz-adv-x="2093" 
d="M1162 1083q-148 -1 -231 -65t-147 -238q-144 -389 152 -389q148 0 231 65q84 65 150 238q136 389 -155 389zM872 -41q-668 0 -813 351q-86 215 33 534q136 368 402 520t735 152q666 0 811 -351q86 -212 -33 -532q-139 -371 -405 -523t-730 -151zM1876 1608h-1122l98 268
h1122z" />
    <glyph glyph-name="omacron" unicode="&#x14d;" horiz-adv-x="2093" 
d="M1162 1083q-148 -1 -231 -65t-147 -238q-144 -389 152 -389q148 0 231 65q84 65 150 238q136 389 -155 389zM872 -41q-668 0 -813 351q-86 215 33 534q136 368 402 520t735 152q666 0 811 -351q86 -212 -33 -532q-139 -371 -405 -523t-730 -151zM1876 1608h-1122l98 268
h1122z" />
    <glyph glyph-name="Obreve" unicode="&#x14e;" horiz-adv-x="2093" 
d="M1162 1083q-148 -1 -231 -65t-147 -238q-144 -389 152 -389q148 0 231 65q84 65 150 238q136 389 -155 389zM872 -41q-668 0 -813 351q-86 215 33 534q136 368 402 520t735 152q666 0 811 -351q86 -212 -33 -532q-139 -371 -405 -523t-730 -151zM1395 1769q41 0 71 31
t58 107h454q-72 -197 -226 -274t-438 -77q-283 0 -376 83q-92 83 -27 268h455q-24 -76 -18 -107t47 -31z" />
    <glyph glyph-name="obreve" unicode="&#x14f;" horiz-adv-x="2093" 
d="M1162 1083q-148 -1 -231 -65t-147 -238q-144 -389 152 -389q148 0 231 65q84 65 150 238q136 389 -155 389zM872 -41q-668 0 -813 351q-86 215 33 534q136 368 402 520t735 152q666 0 811 -351q86 -212 -33 -532q-139 -371 -405 -523t-730 -151zM1395 1769q41 0 71 31
t58 107h454q-72 -197 -226 -274t-438 -77q-283 0 -376 83q-92 83 -27 268h455q-24 -76 -18 -107t47 -31z" />
    <glyph glyph-name="Ohungarumlaut" unicode="&#x150;" horiz-adv-x="2093" 
d="M1162 1083q-148 -1 -231 -65t-147 -238q-144 -389 152 -389q148 0 231 65q84 65 150 238q136 389 -155 389zM872 -41q-668 0 -813 351q-86 215 33 534q136 368 402 520t735 152q666 0 811 -351q86 -212 -33 -532q-139 -371 -405 -523t-730 -151zM1231 1577h-518l366 330
h590zM1927 1577h-518l367 330h589z" />
    <glyph glyph-name="ohungarumlaut" unicode="&#x151;" horiz-adv-x="2093" 
d="M1162 1083q-148 -1 -231 -65t-147 -238q-144 -389 152 -389q148 0 231 65q84 65 150 238q136 389 -155 389zM872 -41q-668 0 -813 351q-86 215 33 534q136 368 402 520t735 152q666 0 811 -351q86 -212 -33 -532q-139 -371 -405 -523t-730 -151zM1231 1577h-518l366 330
h590zM1927 1577h-518l367 330h589z" />
    <glyph glyph-name="OE" unicode="&#x152;" horiz-adv-x="2777" 
d="M860 0q-289 0 -477 62t-268 176t-87 270t66 342q125 349 405 492q255 133 636 133h1812l-145 -402h-791l-49 -133h713l-150 -401h-708l-52 -138h791l-146 -401h-1550zM918 422h143l229 631h-157q-135 0 -219 -68q-84 -67 -144 -235q-61 -168 -30 -248t178 -80z" />
    <glyph glyph-name="oe" unicode="&#x153;" horiz-adv-x="2777" 
d="M860 0q-289 0 -477 62t-268 176t-87 270t66 342q125 349 405 492q255 133 636 133h1812l-145 -402h-791l-49 -133h713l-150 -401h-708l-52 -138h791l-146 -401h-1550zM918 422h143l229 631h-157q-135 0 -219 -68q-84 -67 -144 -235q-61 -168 -30 -248t178 -80z" />
    <glyph glyph-name="Racute" unicode="&#x154;" horiz-adv-x="1966" 
d="M1290 1475q440 0 595 -162t46 -463q-57 -160 -174 -242t-307 -112l229 -496h-733l-141 389h-74l-141 -389h-713l537 1475h876zM1092 1073h-111l-104 -282h88q129 -1 181 21t83 108q33 63 5 108t-142 45zM1503 1577h-579l366 330h652z" />
    <glyph glyph-name="racute" unicode="&#x155;" horiz-adv-x="1966" 
d="M1290 1475q440 0 595 -162t46 -463q-57 -160 -174 -242t-307 -112l229 -496h-733l-141 389h-74l-141 -389h-713l537 1475h876zM1092 1073h-111l-104 -282h88q129 -1 181 21t83 108q33 63 5 108t-142 45zM1503 1577h-579l366 330h652z" />
    <glyph glyph-name="Rcommaaccent" unicode="&#x156;" horiz-adv-x="1966" 
d="M678 -432h-569l309 330h651zM1290 1475q440 0 595 -162t46 -463q-57 -160 -174 -242t-307 -112l229 -496h-733l-141 389h-74l-141 -389h-713l537 1475h876zM1092 1073h-111l-104 -282h88q129 -1 181 21t83 108q33 63 5 108t-142 45z" />
    <glyph glyph-name="rcommaaccent" unicode="&#x157;" horiz-adv-x="1966" 
d="M678 -432h-569l309 330h651zM1290 1475q440 0 595 -162t46 -463q-57 -160 -174 -242t-307 -112l229 -496h-733l-141 389h-74l-141 -389h-713l537 1475h876zM1092 1073h-111l-104 -282h88q129 -1 181 21t83 108q33 63 5 108t-142 45z" />
    <glyph glyph-name="Rcaron" unicode="&#x158;" horiz-adv-x="1966" 
d="M1290 1475q440 0 595 -162t46 -463q-57 -160 -174 -242t-307 -112l229 -496h-733l-141 389h-74l-141 -389h-713l537 1475h876zM1092 1073h-111l-104 -282h88q129 -1 181 21t83 108q33 63 5 108t-142 45zM807 1577l-66 330h529l2 -203l166 203h549l-332 -330h-848z" />
    <glyph glyph-name="rcaron" unicode="&#x159;" horiz-adv-x="1966" 
d="M1290 1475q440 0 595 -162t46 -463q-57 -160 -174 -242t-307 -112l229 -496h-733l-141 389h-74l-141 -389h-713l537 1475h876zM1092 1073h-111l-104 -282h88q129 -1 181 21t83 108q33 63 5 108t-142 45zM807 1577l-66 330h529l2 -203l166 203h549l-332 -330h-848z" />
    <glyph glyph-name="Sacute" unicode="&#x15a;" horiz-adv-x="1669" 
d="M621 -41q-455 0 -756 111l145 395q96 -39 249 -68t291 -29t191 13q53 12 74 55q31 72 -45 84l-205 31q-291 45 -377 182t-8 354q55 156 180 252q125 97 295 137t404 40q401 0 688 -105l-143 -395q-225 90 -512 90q-121 0 -169 -11t-61 -48q-23 -61 41 -72l205 -31
q567 -84 383 -563q-90 -233 -303 -327t-567 -95zM1411 1577h-580l367 330h651z" />
    <glyph glyph-name="sacute" unicode="&#x15b;" horiz-adv-x="1669" 
d="M621 -41q-455 0 -756 111l145 395q96 -39 249 -68t291 -29t191 13q53 12 74 55q31 72 -45 84l-205 31q-291 45 -377 182t-8 354q55 156 180 252q125 97 295 137t404 40q401 0 688 -105l-143 -395q-225 90 -512 90q-121 0 -169 -11t-61 -48q-23 -61 41 -72l205 -31
q567 -84 383 -563q-90 -233 -303 -327t-567 -95zM1411 1577h-580l367 330h651z" />
    <glyph glyph-name="Scircumflex" unicode="&#x15c;" horiz-adv-x="1669" 
d="M621 -41q-455 0 -756 111l145 395q96 -39 249 -68t291 -29t191 13q53 12 74 55q31 72 -45 84l-205 31q-291 45 -377 182t-8 354q55 156 180 252q125 97 295 137t404 40q401 0 688 -105l-143 -395q-225 90 -512 90q-121 0 -169 -11t-61 -48q-23 -61 41 -72l205 -31
q567 -84 383 -563q-90 -233 -303 -327t-567 -95zM1212 1577l-2 203l-166 -203h-548l331 330h848l66 -330h-529z" />
    <glyph glyph-name="scircumflex" unicode="&#x15d;" horiz-adv-x="1669" 
d="M621 -41q-455 0 -756 111l145 395q96 -39 249 -68t291 -29t191 13q53 12 74 55q31 72 -45 84l-205 31q-291 45 -377 182t-8 354q55 156 180 252q125 97 295 137t404 40q401 0 688 -105l-143 -395q-225 90 -512 90q-121 0 -169 -11t-61 -48q-23 -61 41 -72l205 -31
q567 -84 383 -563q-90 -233 -303 -327t-567 -95zM1212 1577l-2 203l-166 -203h-548l331 330h848l66 -330h-529z" />
    <glyph glyph-name="Scedilla" unicode="&#x15e;" horiz-adv-x="1669" 
d="M335 -164q79 0 95 39q16 47 -18 90q-313 18 -547 105l145 395q96 -39 249 -68t291 -29t191 13q53 12 74 55q31 72 -45 84l-205 31q-291 45 -377 182t-8 354q55 156 180 252q125 97 295 137t404 40q401 0 688 -105l-143 -395q-225 90 -512 90q-121 0 -169 -11t-61 -48
q-23 -61 41 -72l205 -31q567 -84 383 -563q-80 -209 -259 -305t-468 -113q96 -127 21 -272t-341 -144q-266 0 -399 72l88 252q123 -35 202 -35z" />
    <glyph glyph-name="scedilla" unicode="&#x15f;" horiz-adv-x="1669" 
d="M335 -164q79 0 95 39q16 47 -18 90q-313 18 -547 105l145 395q96 -39 249 -68t291 -29t191 13q53 12 74 55q31 72 -45 84l-205 31q-291 45 -377 182t-8 354q55 156 180 252q125 97 295 137t404 40q401 0 688 -105l-143 -395q-225 90 -512 90q-121 0 -169 -11t-61 -48
q-23 -61 41 -72l205 -31q567 -84 383 -563q-80 -209 -259 -305t-468 -113q96 -127 21 -272t-341 -144q-266 0 -399 72l88 252q123 -35 202 -35z" />
    <glyph glyph-name="Scaron" unicode="&#x160;" horiz-adv-x="1669" 
d="M621 -41q-455 0 -756 111l145 395q96 -39 249 -68t291 -29t191 13q53 12 74 55q31 72 -45 84l-205 31q-291 45 -377 182t-8 354q55 156 180 252q125 97 295 137t404 40q401 0 688 -105l-143 -395q-225 90 -512 90q-121 0 -169 -11t-61 -48q-23 -61 41 -72l205 -31
q567 -84 383 -563q-90 -233 -303 -327t-567 -95zM715 1577l-66 330h529l2 -203l166 203h548l-331 -330h-848z" />
    <glyph glyph-name="scaron" unicode="&#x161;" horiz-adv-x="1669" 
d="M621 -41q-455 0 -756 111l145 395q96 -39 249 -68t291 -29t191 13q53 12 74 55q31 72 -45 84l-205 31q-291 45 -377 182t-8 354q55 156 180 252q125 97 295 137t404 40q401 0 688 -105l-143 -395q-225 90 -512 90q-121 0 -169 -11t-61 -48q-23 -61 41 -72l205 -31
q567 -84 383 -563q-90 -233 -303 -327t-567 -95zM715 1577l-66 330h529l2 -203l166 203h548l-331 -330h-848z" />
    <glyph glyph-name="Tcommaaccent" unicode="&#x162;" horiz-adv-x="1615" 
d="M469 -432h-569l309 330h651zM1663 1032h-381l-375 -1032h-712l374 1032h-399l162 443h1493z" />
    <glyph glyph-name="tcommaaccent" unicode="&#x163;" horiz-adv-x="1615" 
d="M469 -432h-569l309 330h651zM1663 1032h-381l-375 -1032h-712l374 1032h-399l162 443h1493z" />
    <glyph glyph-name="Tcaron" unicode="&#x164;" horiz-adv-x="1615" 
d="M1663 1032h-381l-375 -1032h-712l374 1032h-399l162 443h1493zM690 1577l-65 330h528l2 -203l166 203h549l-332 -330h-848z" />
    <glyph glyph-name="tcaron" unicode="&#x165;" horiz-adv-x="1615" 
d="M1663 1032h-381l-375 -1032h-712l374 1032h-399l162 443h1493zM690 1577l-65 330h528l2 -203l166 203h549l-332 -330h-848z" />
    <glyph glyph-name="Tbar" unicode="&#x166;" horiz-adv-x="1615" 
d="M1294 444h-225l-162 -444h-712l161 444h-225l98 269h226l114 319h-399l162 443h1493l-162 -443h-381l-115 -319h226z" />
    <glyph glyph-name="tbar" unicode="&#x167;" horiz-adv-x="1615" 
d="M1294 444h-225l-162 -444h-712l161 444h-225l98 269h226l114 319h-399l162 443h1493l-162 -443h-381l-115 -319h226z" />
    <glyph glyph-name="Utilde" unicode="&#x168;" horiz-adv-x="1980" 
d="M889 401q80 0 134 44t99 165l314 865h712l-305 -840q-137 -379 -381 -527t-698 -148t-632 179q-179 180 -62 500l307 836h713l-314 -863q-78 -211 113 -211zM1527 1827q28 0 45 16t36 64h393q-70 -209 -155 -280q-86 -71 -236 -71t-292 50t-170 51q-28 -1 -45 -17
t-36 -63h-393q70 209 154 280q86 71 236 71t292 -51q142 -50 171 -50z" />
    <glyph glyph-name="utilde" unicode="&#x169;" horiz-adv-x="1980" 
d="M889 401q80 0 134 44t99 165l314 865h712l-305 -840q-137 -379 -381 -527t-698 -148t-632 179q-179 180 -62 500l307 836h713l-314 -863q-78 -211 113 -211zM1527 1827q28 0 45 16t36 64h393q-70 -209 -155 -280q-86 -71 -236 -71t-292 50t-170 51q-28 -1 -45 -17
t-36 -63h-393q70 209 154 280q86 71 236 71t292 -51q142 -50 171 -50z" />
    <glyph glyph-name="Umacron" unicode="&#x16a;" horiz-adv-x="1980" 
d="M889 401q80 0 134 44t99 165l314 865h712l-305 -840q-137 -379 -381 -527t-698 -148t-632 179q-179 180 -62 500l307 836h713l-314 -863q-78 -211 113 -211zM1858 1608h-1123l99 268h1122z" />
    <glyph glyph-name="umacron" unicode="&#x16b;" horiz-adv-x="1980" 
d="M889 401q80 0 134 44t99 165l314 865h712l-305 -840q-137 -379 -381 -527t-698 -148t-632 179q-179 180 -62 500l307 836h713l-314 -863q-78 -211 113 -211zM1858 1608h-1123l99 268h1122z" />
    <glyph glyph-name="Ubreve" unicode="&#x16c;" horiz-adv-x="1980" 
d="M889 401q80 0 134 44t99 165l314 865h712l-305 -840q-137 -379 -381 -527t-698 -148t-632 179q-179 180 -62 500l307 836h713l-314 -863q-78 -211 113 -211zM1376 1769q41 0 71 31t58 107h455q-72 -197 -226 -274t-438 -77t-376 83t-27 268h455q-25 -76 -19 -107t47 -31z
" />
    <glyph glyph-name="ubreve" unicode="&#x16d;" horiz-adv-x="1980" 
d="M889 401q80 0 134 44t99 165l314 865h712l-305 -840q-137 -379 -381 -527t-698 -148t-632 179q-179 180 -62 500l307 836h713l-314 -863q-78 -211 113 -211zM1376 1769q41 0 71 31t58 107h455q-72 -197 -226 -274t-438 -77t-376 83t-27 268h455q-25 -76 -19 -107t47 -31z
" />
    <glyph glyph-name="Uring" unicode="&#x16e;" horiz-adv-x="1980" 
d="M889 401q80 0 134 44t99 165l314 865h712l-305 -840q-137 -379 -381 -527t-698 -148t-632 179q-179 180 -62 500l307 836h713l-314 -863q-78 -211 113 -211zM1315 1671q74 0 96 62q29 82 -53 82q-74 0 -98 -64q-27 -80 55 -80zM1260 1556q-288 0 -390 46t-61 161
q37 98 175 131t428 33t391 -46t59 -161q-34 -98 -174 -131t-428 -33z" />
    <glyph glyph-name="uring" unicode="&#x16f;" horiz-adv-x="1980" 
d="M889 401q80 0 134 44t99 165l314 865h712l-305 -840q-137 -379 -381 -527t-698 -148t-632 179q-179 180 -62 500l307 836h713l-314 -863q-78 -211 113 -211zM1315 1671q74 0 96 62q29 82 -53 82q-74 0 -98 -64q-27 -80 55 -80zM1260 1556q-288 0 -390 46t-61 161
q37 98 175 131t428 33t391 -46t59 -161q-34 -98 -174 -131t-428 -33z" />
    <glyph glyph-name="Uhungarumlaut" unicode="&#x170;" horiz-adv-x="1980" 
d="M889 401q80 0 134 44t99 165l314 865h712l-305 -840q-137 -379 -381 -527t-698 -148t-632 179q-179 180 -62 500l307 836h713l-314 -863q-78 -211 113 -211zM1212 1577h-518l367 330h590zM1909 1577h-518l366 330h590z" />
    <glyph glyph-name="uhungarumlaut" unicode="&#x171;" horiz-adv-x="1980" 
d="M889 401q80 0 134 44t99 165l314 865h712l-305 -840q-137 -379 -381 -527t-698 -148t-632 179q-179 180 -62 500l307 836h713l-314 -863q-78 -211 113 -211zM1212 1577h-518l367 330h590zM1909 1577h-518l366 330h590z" />
    <glyph glyph-name="Uogonek" unicode="&#x172;" horiz-adv-x="1980" 
d="M680 -453q-196 0 -284 65q-87 65 -47 172t192 189q-334 45 -453 218t-18 448l307 836h713l-314 -863q-78 -211 113 -211q80 0 134 44t99 165l314 865h712l-305 -840q-125 -342 -332 -495t-565 -175q-62 -45 -74 -83t16 -56q46 -29 232 -8l-84 -230q-160 -41 -356 -41z
" />
    <glyph glyph-name="uogonek" unicode="&#x173;" horiz-adv-x="1980" 
d="M680 -453q-196 0 -284 65q-87 65 -47 172t192 189q-334 45 -453 218t-18 448l307 836h713l-314 -863q-78 -211 113 -211q80 0 134 44t99 165l314 865h712l-305 -840q-125 -342 -332 -495t-565 -175q-62 -45 -74 -83t16 -56q46 -29 232 -8l-84 -230q-160 -41 -356 -41z
" />
    <glyph glyph-name="Wcircumflex" unicode="&#x174;" horiz-adv-x="3164" 
d="M2243 0h-781l158 942l-350 -715q-62 -129 -158 -178t-240 -49h-704l123 1475h704l-112 -1018l501 1018h951l-187 -1029l555 1029h670l-713 -1248q-129 -227 -417 -227zM1982 1577l-2 203l-165 -203h-549l331 330h848l66 -330h-529z" />
    <glyph glyph-name="wcircumflex" unicode="&#x175;" horiz-adv-x="3164" 
d="M2243 0h-781l158 942l-350 -715q-62 -129 -158 -178t-240 -49h-704l123 1475h704l-112 -1018l501 1018h951l-187 -1029l555 1029h670l-713 -1248q-129 -227 -417 -227zM1982 1577l-2 203l-165 -203h-549l331 330h848l66 -330h-529z" />
    <glyph glyph-name="Ycircumflex" unicode="&#x176;" horiz-adv-x="2050" 
d="M1106 0h-713l185 508l-308 967h664l137 -494l457 494h792l-1048 -1016zM1358 1577l-2 203l-166 -203h-549l332 330h848l65 -330h-528z" />
    <glyph glyph-name="ycircumflex" unicode="&#x177;" horiz-adv-x="2050" 
d="M1106 0h-713l185 508l-308 967h664l137 -494l457 494h792l-1048 -1016zM1358 1577l-2 203l-166 -203h-549l332 330h848l65 -330h-528z" />
    <glyph glyph-name="Ydieresis" unicode="&#x178;" horiz-adv-x="2050" 
d="M1106 0h-713l185 508l-308 967h664l137 -494l457 494h792l-1048 -1016zM1241 1577h-508l121 330h508zM1835 1577h-508l121 330h508z" />
    <glyph glyph-name="Zacute" unicode="&#x179;" horiz-adv-x="1800" 
d="M1452 0h-1616l88 231q37 99 83 159t132 120l785 543h-666l154 422h1534l-150 -402l-965 -651h775zM1481 1577h-580l367 330h651z" />
    <glyph glyph-name="zacute" unicode="&#x17a;" horiz-adv-x="1800" 
d="M1452 0h-1616l88 231q37 99 83 159t132 120l785 543h-666l154 422h1534l-150 -402l-965 -651h775zM1481 1577h-580l367 330h651z" />
    <glyph glyph-name="Zdotaccent" unicode="&#x17b;" horiz-adv-x="1800" 
d="M1452 0h-1616l88 231q37 99 83 159t132 120l785 543h-666l154 422h1534l-150 -402l-965 -651h775zM1565 1577h-713l121 330h713z" />
    <glyph glyph-name="zdotaccent" unicode="&#x17c;" horiz-adv-x="1800" 
d="M1452 0h-1616l88 231q37 99 83 159t132 120l785 543h-666l154 422h1534l-150 -402l-965 -651h775zM1565 1577h-713l121 330h713z" />
    <glyph glyph-name="Zcaron" unicode="&#x17d;" horiz-adv-x="1800" 
d="M1452 0h-1616l88 231q37 99 83 159t132 120l785 543h-666l154 422h1534l-150 -402l-965 -651h775zM784 1577l-65 330h528l2 -203l166 203h549l-332 -330h-848z" />
    <glyph glyph-name="zcaron" unicode="&#x17e;" horiz-adv-x="1800" 
d="M1452 0h-1616l88 231q37 99 83 159t132 120l785 543h-666l154 422h1534l-150 -402l-965 -651h775zM784 1577l-65 330h528l2 -203l166 203h549l-332 -330h-848z" />
    <glyph glyph-name="Scommaaccent" unicode="&#x218;" horiz-adv-x="1669" 
d="M567 -432h-569l309 330h651zM621 -41q-455 0 -756 111l145 395q96 -39 249 -68t291 -29t191 13q53 12 74 55q31 72 -45 84l-205 31q-291 45 -377 182t-8 354q55 156 180 252q125 97 295 137t404 40q401 0 688 -105l-143 -395q-225 90 -512 90q-121 0 -169 -11t-61 -48
q-23 -61 41 -72l205 -31q567 -84 383 -563q-90 -233 -303 -327t-567 -95z" />
    <glyph glyph-name="scommaaccent" unicode="&#x219;" horiz-adv-x="1669" 
d="M567 -432h-569l309 330h651zM621 -41q-455 0 -756 111l145 395q96 -39 249 -68t291 -29t191 13q53 12 74 55q31 72 -45 84l-205 31q-291 45 -377 182t-8 354q55 156 180 252q125 97 295 137t404 40q401 0 688 -105l-143 -395q-225 90 -512 90q-121 0 -169 -11t-61 -48
q-23 -61 41 -72l205 -31q567 -84 383 -563q-90 -233 -303 -327t-567 -95z" />
    <glyph glyph-name="circumflex" unicode="&#x2c6;" horiz-adv-x="1781" 
d="M1292 1577l-2 203l-166 -203h-549l332 330h848l66 -330h-529z" />
    <glyph glyph-name="caron" unicode="&#x2c7;" horiz-adv-x="1781" 
d="M762 1577l-66 330h529l2 -203l166 203h549l-332 -330h-848z" />
    <glyph glyph-name="breve" unicode="&#x2d8;" horiz-adv-x="1779" 
d="M1264 1769q40 0 70 31t59 107h454q-73 -197 -227 -274t-437 -77t-376 83q-92 83 -27 268h455q-25 -76 -19 -107t48 -31z" />
    <glyph glyph-name="dotaccent" unicode="&#x2d9;" horiz-adv-x="1781" 
d="M1554 1577h-712l121 330h712z" />
    <glyph glyph-name="ring" unicode="&#x2da;" horiz-adv-x="1779" 
d="M1237 1671q74 0 96 62q29 82 -53 82q-74 0 -98 -64q-27 -80 55 -80zM1182 1556q-288 0 -390 46q-101 46 -61 161q37 98 175 131t428 33t392 -46q100 -46 58 -161q-34 -98 -174 -131t-428 -33z" />
    <glyph glyph-name="ogonek" unicode="&#x2db;" horiz-adv-x="1777" 
d="M496 -453q-196 0 -284 65q-87 65 -46 175q27 72 92 123q66 51 195 108h391q-95 -59 -122 -85q-26 -25 -36 -57t18 -50q45 -29 232 -8l-84 -230q-160 -41 -356 -41z" />
    <glyph glyph-name="tilde" unicode="&#x2dc;" horiz-adv-x="1779" 
d="M1447 1827q28 0 45 16t36 64h393q-70 -209 -155 -280q-86 -71 -236 -71t-292 50t-170 51q-28 -1 -45 -17t-36 -63h-393q70 209 155 280t235 71t293 -51q142 -50 170 -50z" />
    <glyph glyph-name="hungarumlaut" unicode="&#x2dd;" horiz-adv-x="1781" 
d="M950 1577h-518l367 330h590zM1647 1577h-519l367 330h590z" />
    <glyph glyph-name="Delta" unicode="&#x394;" horiz-adv-x="2091" 
d="M-225 0l856 1247q84 123 175 175t222 53h838l-41 -1475h-2050zM1184 422l41 715l-453 -715h412z" />
    <glyph glyph-name="Omega" unicode="&#x3a9;" horiz-adv-x="2093" 
d="M1223 1516q447 0 677 -171q117 -87 152 -212t0 -232q-58 -189 -154 -293t-323 -186h360l-153 -422h-869l154 397q115 78 175 161t97 218q45 148 1 228t-184 80t-221 -60t-137 -206t-44 -227t92 -194l-133 -397h-848l153 422h338q-141 74 -197 224t9 355q98 263 353 389
t702 126z" />
    <glyph glyph-name="mu" unicode="&#x3bc;" horiz-adv-x="2816" 
d="M1198 1475q131 0 180 -69t45 -212l-20 -440l446 721h1092l-535 -1475h-718l354 971l-647 -971h-594l49 999l-363 -999h-610l537 1475h784z" />
    <glyph glyph-name="pi" unicode="&#x3c0;" horiz-adv-x="2058" 
d="M936 0l375 1032h-346l-375 -1032h-713l537 1475h1771l-536 -1475h-713z" />
    <glyph glyph-name="uni2009" unicode="&#x2009;" horiz-adv-x="61" 
 />
    <glyph glyph-name="endash" unicode="&#x2013;" horiz-adv-x="1433" 
d="M-39 557l131 361h1385l-131 -361h-1385z" />
    <glyph glyph-name="emdash" unicode="&#x2014;" horiz-adv-x="2867" 
d="M-39 557l133 361h2818l-133 -361h-2818z" />
    <glyph glyph-name="quoteleft" unicode="&#x2018;" horiz-adv-x="811" 
d="M592 1475h430l-324 -596h-567z" />
    <glyph glyph-name="quoteright" unicode="&#x2019;" horiz-adv-x="811" 
d="M561 879h-430l324 596h567z" />
    <glyph glyph-name="quotesinglbase" unicode="&#x201a;" horiz-adv-x="892" 
d="M193 -199h-431l324 596h567z" />
    <glyph glyph-name="quotedblleft" unicode="&#x201c;" horiz-adv-x="1568" 
d="M633 1475h430l-324 -596h-567zM1309 1475h430l-324 -596h-567z" />
    <glyph glyph-name="quotedblright" unicode="&#x201d;" horiz-adv-x="1568" 
d="M602 879h-430l324 596h567zM1278 879h-430l323 596h568z" />
    <glyph glyph-name="quotedblbase" unicode="&#x201e;" horiz-adv-x="1568" 
d="M193 -199h-431l324 596h567zM868 -199h-430l324 596h567z" />
    <glyph glyph-name="dagger" unicode="&#x2020;" horiz-adv-x="1216" 
d="M1204 868h-344l-315 -868h-406l316 868h-346l108 299h346l111 308h405l-110 -308h344z" />
    <glyph glyph-name="daggerdbl" unicode="&#x2021;" horiz-adv-x="1216" 
d="M1001 307h-346l-110 -307h-406l111 307h-344l108 299h344l97 262h-346l108 299h346l111 308h405l-110 -308h344l-109 -299h-344l-96 -262h346z" />
    <glyph glyph-name="bullet" unicode="&#x2022;" horiz-adv-x="1085" 
d="M441 369q-219 0 -300 118q-80 119 -10 305t188 260q119 74 338 74t299 -118t10 -304q-70 -184 -188 -260t-337 -75z" />
    <glyph glyph-name="ellipsis" unicode="&#x2026;" horiz-adv-x="2650" 
d="M465 0h-571l145 397h569zM1346 0h-572l146 397h569zM2226 0h-571l145 397h570z" />
    <glyph glyph-name="perthousand" unicode="&#x2030;" horiz-adv-x="3954" 
d="M2250 676q-48 0 -74 -39t-70 -161t-43 -176q2 -54 57 -54q42 0 66 39t69 161t44 176t-49 54zM3366 676q-48 0 -74 -39t-60 -133q-54 -152 -52 -205t56 -53q42 0 66 39t69 161t44 176t-49 54zM2095 -27q-303 0 -408 156q-105 155 -15 395t219 332q128 92 378 92
q301 0 407 -155q105 -156 13 -406q-90 -229 -218 -321t-376 -93zM3211 -27q-303 0 -408 156q-105 155 -15 395t219 332q128 92 378 92q301 0 407 -155q105 -156 13 -406q-90 -229 -218 -321t-376 -93zM728 1229q-48 0 -74 -39t-59 -133q-55 -156 -53 -207t56 -51q43 0 67 39
q25 39 69 161t43 176t-49 54zM1751 1475h447l-1106 -1475h-447zM573 526q-303 0 -408 156t-14 395t219 331t378 93q301 1 406 -155t13 -406q-90 -230 -218 -322t-376 -92z" />
    <glyph glyph-name="guilsinglleft" unicode="&#x2039;" horiz-adv-x="1015" 
d="M590 1262h491l-450 -545l69 -504h-450l-119 535z" />
    <glyph glyph-name="guilsinglright" unicode="&#x203a;" horiz-adv-x="1015" 
d="M434 213h-491l450 545l-69 504h450l119 -535z" />
    <glyph glyph-name="fraction" unicode="&#x2044;" horiz-adv-x="606" 
d="M635 1475h446l-1106 -1475h-446z" />
    <glyph glyph-name="zerosuperior" unicode="&#x2070;" horiz-adv-x="1116" 
d="M828 1505q-48 0 -74 -39t-58 -133q-34 -94 -50 -157t11 -87q14 -13 49 -13t59 38q24 39 69 161t44 176q-2 54 -50 54zM674 803q-303 0 -409 155q-105 156 -14 396t219 332t378 92q301 0 406 -156t14 -405q-90 -229 -218 -321t-376 -93z" />
    <glyph glyph-name="foursuperior" unicode="&#x2074;" horiz-adv-x="1064" 
d="M766 1751h561l-180 -500h115l-88 -241h-115l-66 -181h-424l66 181h-500l111 305l327 330q111 106 193 106zM723 1251l121 336l-324 -336h203z" />
    <glyph glyph-name="fivesuperior" unicode="&#x2075;" horiz-adv-x="1024" 
d="M534 803q-253 0 -448 69l92 250q145 -59 332 -59q106 0 143 7t52 32q14 35 -8 50t-125 15t-332 -14l217 598h860l-96 -266h-488l-26 -76q18 2 59 2q270 0 348 -100t14 -264q-51 -133 -196 -189t-398 -55z" />
    <glyph glyph-name="sixsuperior" unicode="&#x2076;" horiz-adv-x="1097" 
d="M690 1038q76 0 109 92q31 94 -74 95q-41 0 -82 -8q-59 -179 47 -179zM668 803q-317 0 -420 151q-102 152 -11 399t251 336q162 89 428 89t450 -64l-90 -250q-127 55 -326 56q-106 0 -157 -23t-74 -70q70 14 145 15q213 0 310 -98t38 -260q-59 -161 -179 -221t-365 -60z
" />
    <glyph glyph-name="sevensuperior" unicode="&#x2077;" horiz-adv-x="993" 
d="M616 829h-452l35 105q25 76 52 116q28 40 99 101l377 334h-455l99 266h972l-59 -160q-21 -56 -46 -84t-59 -58t-42 -38l-394 -348q-76 -72 -96 -135z" />
    <glyph glyph-name="eightsuperior" unicode="&#x2078;" horiz-adv-x="1083" 
d="M664 1038q57 0 86 80q41 109 -41 109q-57 -1 -91 -95t46 -94zM770 1356q37 0 56 18t40 70q35 104 -51 104q-37 0 -57 -19t-41 -71q-35 -102 53 -102zM655 803q-325 0 -433 87t-60 228q63 176 327 191q-96 14 -138 84t-7 170q43 121 163 168q119 47 363 47t355 -81
t63 -222q-59 -184 -278 -201q108 -14 148 -87t2 -178t-148 -156q-111 -50 -357 -50z" />
    <glyph glyph-name="ninesuperior" unicode="&#x2079;" horiz-adv-x="1097" 
d="M588 803q-266 0 -451 63l88 250q127 -53 328 -53q107 -1 157 21t74 69q-90 -14 -147 -14q-211 0 -309 99t-33 269q53 150 173 210t368 61q315 0 417 -152q103 -152 13 -398t-251 -336q-161 -89 -427 -89zM778 1356q39 0 82 8q57 178 -49 178q-43 0 -67 -22t-39 -70
q-31 -94 73 -94z" />
    <glyph glyph-name="zeroinferior" unicode="&#x2080;" horiz-adv-x="1116" 
d="M427 399q-48 0 -74 -39t-70 -163t-42 -163q1 -38 15 -51t49 -13t59 38q24 39 68 161t44 176q-1 54 -49 54zM272 -303q-303 0 -408 156t-14 395q91 240 219 332t377 92q300 0 406 -156t14 -405q-90 -229 -218 -321t-376 -93z" />
    <glyph glyph-name="oneinferior" unicode="&#x2081;" horiz-adv-x="792" 
d="M338 -276h-453l219 600l-268 -113l109 303l317 131h410z" />
    <glyph glyph-name="twoinferior" unicode="&#x2082;" horiz-adv-x="985" 
d="M166 412q-118 0 -275 -47l97 262q207 45 356 45q285 0 388 -89t42 -249q-39 -98 -106 -150q-101 -76 -267 -147l-98 -47h402l-97 -266h-936l60 159q29 72 59 111q31 39 88 69l350 185q68 33 88 88q15 32 -9 54t-142 22z" />
    <glyph glyph-name="threeinferior" unicode="&#x2083;" horiz-adv-x="1034" 
d="M150 -303q-260 0 -451 70l92 249q141 -59 332 -59q106 0 144 7t49 33t-4 38t-56 12h-309l80 219l311 113h-430l98 266h922l-62 -160q-30 -77 -60 -117t-85 -63l-205 -82q166 -8 218 -94t-3 -215q-81 -217 -581 -217z" />
    <glyph glyph-name="fourinferior" unicode="&#x2084;" horiz-adv-x="1064" 
d="M365 645h561l-181 -500h115l-88 -241h-115l-65 -180h-424l65 180h-499l110 305l328 330q111 106 193 106zM322 145l120 336l-323 -336h203z" />
    <glyph glyph-name="fiveinferior" unicode="&#x2085;" horiz-adv-x="1024" 
d="M132 -303q-253 0 -447 70l92 249q145 -59 332 -59q106 0 143 7t51 32q14 35 -7 50q-22 15 -125 15t-333 -14l217 598h860l-96 -266h-487l-27 -76q18 2 60 2q270 0 348 -100t14 -264q-51 -133 -197 -189t-398 -55z" />
    <glyph glyph-name="sixinferior" unicode="&#x2086;" horiz-adv-x="1097" 
d="M289 -68q76 0 108 93q31 94 -73 94q-41 0 -82 -8q-59 -179 47 -179zM266 -303q-317 0 -420 151q-102 152 -11 399t252 336t427 89t451 -64l-91 -250q-127 55 -325 56q-105 0 -157 -23t-75 -69q70 14 146 14q213 0 310 -98t38 -260q-59 -161 -179 -221t-366 -60z" />
    <glyph glyph-name="seveninferior" unicode="&#x2087;" horiz-adv-x="993" 
d="M215 -276h-453l35 104q25 76 52 116q28 40 100 101l377 334h-455l98 266h973l-59 -160q-22 -61 -62 -101q-10 -11 -44 -41t-42 -38l-393 -348q-76 -72 -96 -135z" />
    <glyph glyph-name="eightinferior" unicode="&#x2088;" horiz-adv-x="1083" 
d="M262 -68q57 0 86 80q41 109 -41 109q-57 -1 -91 -95t46 -94zM369 250q37 0 56 18t40 70q35 104 -51 104q-38 0 -58 -19t-41 -71q-34 -102 54 -102zM254 -303q-324 0 -432 87t-62 228q63 176 328 191q-96 14 -138 84t-7 170q43 121 162 168t363 47t355 -81t64 -222
q-59 -184 -279 -201q109 -14 149 -87t2 -178q-39 -105 -149 -155t-356 -51z" />
    <glyph glyph-name="nineinferior" unicode="&#x2089;" horiz-adv-x="1097" 
d="M186 -303q-266 0 -450 63l88 250q127 -53 328 -53q106 -1 156 21t75 69q-90 -14 -147 -14q-211 0 -310 99q-98 99 -32 269q53 150 173 210t367 61q316 0 418 -152t12 -398t-250 -336q-162 -89 -428 -89zM377 250q39 0 82 8q57 178 -49 178q-43 0 -67 -22t-40 -70
q-30 -94 74 -94z" />
    <glyph glyph-name="Euro" unicode="&#x20ac;" 
d="M895 -41q-354 0 -541 143q-186 143 -180 420h-186l65 176h142q4 25 16 74h-133l65 176h125q123 307 371 437t608 131q262 0 555 -101l-155 -436q-205 86 -357 86q-193 0 -280 -117h487l-65 -176h-510q-7 -19 -25 -74h510l-66 -176h-464q12 -61 66 -86q55 -24 195 -24
t357 49l-166 -455q-203 -47 -434 -47z" />
    <glyph glyph-name="litre" unicode="&#x2113;" horiz-adv-x="1230" 
d="M874 1214q-40 0 -70 -26q-67 -60 -206 -438q221 119 299 333q45 131 -23 131zM522 -43q-148 0 -233 16q-86 15 -156 63t-94 130q-54 175 78 541q162 446 357 628q196 183 442 183t327 -94q82 -94 6 -300q-164 -451 -735 -704q2 -61 39 -84t139 -23t215 54l-131 -361
q-106 -49 -254 -49z" />
    <glyph glyph-name="trademark" unicode="&#x2122;" horiz-adv-x="2930" 
d="M1960 1475q88 1 121 -49t28 -148l-22 -152l190 349h781l-336 -922h-516l200 551l-342 -551h-419l53 573l-207 -573h-438l336 922h571zM1163 1161h-211l-221 -608h-512l221 608h-221l113 314h944z" />
    <glyph glyph-name="estimated" unicode="&#x212e;" horiz-adv-x="1708" 
d="M858 -41q-315 0 -540 229q-224 229 -224 552t223 549q223 227 539 227t540 -226t224 -549q0 -23 -2 -34h-1036v-412q129 -86 274 -86t258 62t160 178h293q-84 -217 -279 -353t-430 -137zM858 1266q-150 0 -276 -78v-275h551v273q-125 80 -275 80z" />
    <glyph glyph-name="partialdiff" unicode="&#x2202;" horiz-adv-x="1751" 
d="M705 330q87 0 153 62t129 222q-67 23 -155 23t-138 -38t-82 -118q-63 -151 93 -151zM614 -41q-401 0 -581 161t-74 445q86 229 264 323t529 93q188 0 360 -41q22 86 -34 126t-251 40q-326 0 -579 -70l155 418q307 61 664 62q463 0 624 -224t25 -602q-122 -341 -303 -504
t-483 -208q-136 -19 -316 -19z" />
    <glyph glyph-name="product" unicode="&#x220f;" horiz-adv-x="2058" 
d="M780 -430l531 1462h-346l-531 -1462h-713l693 1905h1771l-692 -1905h-713z" />
    <glyph glyph-name="summation" unicode="&#x2211;" horiz-adv-x="1798" 
d="M1296 -430h-1615l88 231q37 99 84 159t131 120l690 493l-428 551l127 353h1534l-154 -422h-706l215 -299q80 -109 30 -258l-41 -123l-573 -383h772z" />
    <glyph glyph-name="minus" unicode="&#x2212;" 
d="M197 557l131 361h1179l-131 -361h-1179z" />
    <glyph glyph-name="radical" unicode="&#x221a;" horiz-adv-x="1409" 
d="M41 0l80 913h442l-53 -489l651 1049h463l-936 -1473h-647z" />
    <glyph glyph-name="infinity" unicode="&#x221e;" 
d="M489 621q63 0 187 116q-39 121 -98 121q-117 0 -158 -117q-46 -120 69 -120zM1143 662q115 0 155 116q45 121 -69 121q-66 0 -187 -117q44 -120 101 -120zM1038 309q-192 0 -282 189q-215 -188 -396 -189q-134 1 -202 61t-67 159t44 229q74 204 214 328q139 124 331 124
t283 -188q215 188 395 188q135 0 204 -59q70 -59 68 -159t-47 -230q-74 -205 -214 -329q-139 -124 -331 -124z" />
    <glyph glyph-name="integral" unicode="&#x222b;" horiz-adv-x="1228" 
d="M-66 -430q-152 0 -270 45l125 344q97 -20 163 -20q138 0 202 167l333 920q180 489 670 490q147 0 270 -46l-124 -344q-96 20 -163 20q-137 1 -202 -167l-334 -920q-181 -489 -670 -489z" />
    <glyph glyph-name="approxequal" unicode="&#x2248;" horiz-adv-x="1777" 
d="M995 221q-88 0 -167 41q-80 41 -146 81t-127 40q-100 0 -217 -135l-150 260q176 211 400 211q88 0 166 -40t144 -81t128 -41q96 0 219 135l148 -260q-182 -211 -398 -211zM1192 754q-88 0 -167 41t-145 81t-128 39q-100 0 -217 -135l-150 260q176 211 399 211
q88 0 166 -40t145 -81t128 -40q96 0 219 135l147 -260q-182 -211 -397 -211z" />
    <glyph glyph-name="notequal" unicode="&#x2260;" 
d="M1280 291h-793l-151 -141h-227l151 141h-160l131 360h414l184 172h-536l131 361h790l154 143h225l-153 -143h164l-131 -361h-418l-183 -172h539z" />
    <glyph glyph-name="lessequal" unicode="&#x2264;" 
d="M-6 0l131 360h1180l-131 -360h-1180zM1319 397l-1088 256l131 361h3l73 205l1272 256l-139 -381l-846 -158l731 -158z" />
    <glyph glyph-name="greaterequal" unicode="&#x2265;" 
d="M1174 0h-1180l131 360h1180zM1411 653l-1272 -256l137 381l848 158l-733 158l139 381l1088 -256l-131 -361h-2z" />
    <glyph glyph-name="lozenge" unicode="&#x25ca;" horiz-adv-x="1290" 
d="M475 737l-14 -514l358 514l15 512zM76 -2l26 739l510 738h607l-27 -738l-510 -739h-606z" />
    <glyph glyph-name="dotlessj" unicode="&#xf6be;" horiz-adv-x="1392" 
d="M375 -41q-319 0 -561 90l161 440q145 -59 291 -59q86 0 137 41t84 127l320 877h713l-373 -1026q-105 -285 -279 -387t-493 -103z" />
    <glyph glyph-name="commaaccent" unicode="&#xf6c3;" horiz-adv-x="1779" 
d="M610 -432h-569l309 330h651z" />
    <glyph glyph-name="caron.alt" horiz-adv-x="1779" 
d="M1036 879h-430l324 596h567z" />
    <glyph glyph-name="germandbls.cap" horiz-adv-x="3338" 
d="M621 -41q-455 0 -756 111l145 395q96 -39 249 -68t291 -29t191 13q53 12 74 55q31 72 -45 84l-205 31q-291 45 -377 182t-8 354q55 156 180 252q125 97 295 137t404 40q401 0 688 -105l-143 -395q-225 90 -512 90q-121 0 -169 -11t-61 -48q-23 -61 41 -72l205 -31
q567 -84 383 -563q-90 -233 -303 -327t-567 -95zM2290 -41q-455 0 -756 111l145 395q96 -39 249 -68t291 -29t191 13q53 12 74 55q31 72 -45 84l-205 31q-290 45 -376 182t-9 354q55 156 181 252q126 97 294 137q170 40 404 40q401 0 688 -105l-143 -395q-225 90 -512 90
q-121 0 -169 -11t-61 -48q-23 -61 41 -72l205 -31q567 -84 383 -563q-90 -233 -303 -327t-567 -95z" />
    <glyph glyph-name="i.trk" horiz-adv-x="999" 
d="M590 0h-713l537 1475h712zM1163 1577h-712l120 330h713z" />
    <glyph glyph-name="dollar.lt" 
d="M1075 1516h10l60 163h184l-61 -170q274 -16 495 -98l-143 -395q-213 86 -500 90l-55 -156l59 -6q150 -14 248 -64t139 -126q82 -152 -6 -379t-301 -321t-563 -95l-68 -184h-186l70 188q-326 14 -576 107l146 395q97 -39 249 -68t281 -28h47l64 174l-86 8
q-289 29 -377 172t-8 364q55 156 180 252q125 97 295 137t403 40zM889 520l-41 4l-55 -149q119 12 141 61q27 75 -45 84zM817 975l68 -6l49 133q-141 -6 -158 -55q-25 -66 41 -72z" />
    <glyph glyph-name="Euro.lt" 
d="M895 -41q-354 0 -541 143q-186 143 -180 420h-186l65 176h142q4 25 16 74h-133l65 176h125q123 307 371 437t608 131q262 0 555 -101l-155 -436q-205 86 -357 86q-193 0 -280 -117h487l-65 -176h-510q-7 -19 -25 -74h510l-66 -176h-464q12 -61 66 -86q55 -24 195 -24
t357 49l-166 -455q-203 -47 -434 -47z" />
    <glyph glyph-name="cent.lt" 
d="M1098 956q-94 -12 -152 -57t-96 -153q-39 -108 -21 -158q18 -51 109 -66zM1307 109q-162 -39 -351 -46l-104 -288h-186l106 291q-374 24 -530 230t-38 543t381 461q241 115 578 113q35 0 101 -4l98 270h184l-106 -293q135 -25 278 -73l-155 -436q-150 61 -281 79
l-160 -442q174 8 351 49z" />
    <glyph glyph-name="sterling.lt" 
d="M1495 422l-154 -422h-1472l121 334l145 43q74 23 107 51t57 94h-219l65 176h220l26 74h-221l66 176h219l20 60q87 244 277 376t537 134q347 0 589 -91l-162 -440q-51 19 -150 39t-180 21q-154 0 -212 -99h313l-66 -176h-317l-27 -74h320l-66 -176h-336q-41 -63 -106 -100
h606z" />
    <glyph glyph-name="yen.lt" 
d="M1483 522h-379l-191 -522h-712l190 522h-385l66 176h383l26 74h-385l68 176h272l-131 527h610l56 -299l207 299h718l-505 -527h249l-67 -176h-379l-27 -74h381z" />
    <glyph glyph-name="zero.lt" 
d="M958 1083q-57 0 -91 -59t-98 -255q-110 -335 -47 -371q11 -7 28 -7q57 -1 91 59t98 255q111 339 47 371q-12 7 -28 7zM991 1516q231 0 392 -69t233 -189t78 -284t-70 -353q-139 -367 -334 -515t-573 -147q-231 0 -392 69q-161 68 -233 188t-78 284t70 354
q140 366 334 514t573 148z" />
    <glyph glyph-name="one.lt" 
d="M1071 0h-713l351 965l-537 -222l176 480l610 252h650z" />
    <glyph glyph-name="two.lt" 
d="M719 1104q-236 0 -508 -74l151 414q315 72 572 72q456 0 620 -142t64 -399q-45 -113 -127 -194t-154 -122q-71 -41 -185 -95t-130 -62l-166 -80h649l-153 -422h-1493l96 252q43 117 93 178t138 109l564 297q119 61 147 143q20 55 -16 90q-37 35 -162 35z" />
    <glyph glyph-name="three.lt" 
d="M570 -41q-406 0 -707 111l145 395q96 -39 249 -68t303 -29t213 13q61 12 81 55t-6 65q-27 22 -96 21h-490l123 346l508 185h-692l153 422h1473l-96 -252q-47 -123 -95 -187t-137 -100l-336 -139q179 -8 277 -75t109 -173t-38 -246q-70 -182 -302 -263q-233 -81 -639 -81z
" />
    <glyph glyph-name="four.lt" 
d="M909 1475h891l-291 -801h185l-142 -381h-182l-106 -293h-672l106 293h-802l176 481l534 533q172 168 303 168zM838 674l196 545l-526 -545h330z" />
    <glyph glyph-name="five.lt" 
d="M562 -41q-408 0 -709 111l145 395q96 -39 249 -68t303 -29t212 13q62 12 85 61q22 49 -13 75t-134 26q-209 0 -602 -21l344 953h1375l-154 -422h-782l-45 -127q32 4 156 4t252 -31q345 -83 317 -370q-8 -83 -48 -181q-83 -213 -313 -301t-638 -88z" />
    <glyph glyph-name="six.lt" 
d="M758 330q70 0 108 37t66 114q51 156 -121 156q-76 0 -160 -23q-51 -166 -27 -225t134 -59zM719 -41q-506 0 -669 242t-13 651q72 195 172 325q101 131 241 205t304 104t391 30q401 0 688 -101l-141 -395q-201 86 -521 86q-186 0 -274 -37t-125 -117q137 29 260 29
q338 0 494 -159t55 -433q-88 -238 -278 -334t-584 -96z" />
    <glyph glyph-name="seven.lt" 
d="M715 0h-713l55 168q39 122 85 186t161 166l604 533h-733l154 422h1554l-96 -252q-34 -92 -72 -134q-37 -43 -49 -56t-56 -51t-55 -46l-628 -557q-72 -63 -106 -109t-54 -112z" />
    <glyph glyph-name="eight.lt" 
d="M727 340q53 0 85 30t60 103q63 172 -73 172q-53 0 -86 -31t-60 -102q-63 -172 74 -172zM887 840q59 0 89 28t58 103q28 74 10 118q-20 44 -79 44t-89 -29t-59 -104q-29 -76 -9 -118t79 -42zM754 -41q-412 0 -599 71q-186 71 -231 180q-46 110 2 251q98 285 514 305
q-154 24 -216 136t-7 269q70 195 259 270t525 75q441 0 617 -130t102 -354q-94 -291 -438 -321q168 -23 231 -141t3 -283q-41 -111 -121 -179t-249 -108q-169 -41 -392 -41z" />
    <glyph glyph-name="nine.lt" 
d="M559 -41q-401 0 -688 100l141 396q201 -86 520 -86q186 0 274 37t126 116q-137 -29 -260 -28q-338 0 -495 158t-54 433q88 238 278 334t584 97q506 0 669 -242t13 -651q-72 -195 -172 -325q-189 -246 -545 -309q-164 -30 -391 -30zM893 838q76 0 160 22q51 166 26 225
t-133 60q-70 0 -108 -37t-66 -115q-51 -155 121 -155z" />
    <glyph glyph-name="zero.numr" horiz-adv-x="1116" 
d="M728 1229q-48 0 -74 -39t-59 -133q-55 -156 -53 -207t56 -51q43 0 67 39q25 39 69 161t43 176t-49 54zM573 526q-303 0 -408 156t-14 395t219 331t378 93q301 1 406 -155t13 -406q-90 -230 -218 -322t-376 -92z" />
    <glyph glyph-name="one.numr" horiz-adv-x="792" 
d="M639 553h-453l220 600l-269 -113l109 303l317 132h410z" />
    <glyph glyph-name="two.numr" horiz-adv-x="985" 
d="M645 1501q285 0 388 -89t42 -249q-39 -98 -107 -149t-160 -96t-106 -52l-98 -47h402l-97 -266h-936l60 160q29 73 59 111t88 69l350 184q68 33 88 88q14 33 -9 55q-24 22 -99 21q-160 0 -317 -47l96 262q207 45 356 45z" />
    <glyph glyph-name="three.numr" horiz-adv-x="1034" 
d="M451 526q-260 0 -451 70l92 250q141 -59 332 -60q106 0 144 8t49 32q11 26 -4 38t-56 13h-309l80 219l311 112h-430l98 267h922l-62 -160q-29 -76 -59 -117t-86 -63l-205 -82q166 -9 218 -95t-3 -215q-81 -217 -581 -217z" />
    <glyph glyph-name="four.numr" horiz-adv-x="1064" 
d="M1073 733h-115l-65 -180h-424l66 180h-500l110 305l328 330q111 106 193 107h561l-180 -500h114zM623 975l120 336l-323 -336h203z" />
    <glyph glyph-name="five.numr" horiz-adv-x="1024" 
d="M433 526q-253 0 -447 70l92 250q145 -59 332 -60q106 0 143 8t51 31q14 35 -7 51q-22 15 -125 15t-333 -14l217 598h861l-97 -267h-487l-27 -75q18 2 60 2q270 -1 348 -101t14 -264q-50 -132 -196 -188t-399 -56z" />
    <glyph glyph-name="six.numr" horiz-adv-x="1097" 
d="M590 762q76 0 108 92q31 94 -73 94q-41 0 -82 -8q-59 -178 47 -178zM816 1501q266 0 450 -63l-90 -250q-127 55 -326 55q-106 -1 -158 -23t-74 -69q70 14 146 14q213 0 310 -98t38 -259t-179 -221t-366 -61q-317 0 -420 152q-102 152 -11 398t252 336q162 89 428 89z" />
    <glyph glyph-name="seven.numr" horiz-adv-x="993" 
d="M516 553h-453l35 104q25 76 53 116t99 101l377 334h-455l98 267h973l-59 -160q-23 -63 -62 -102q-12 -13 -86 -78l-393 -349q-76 -72 -96 -135z" />
    <glyph glyph-name="eight.numr" horiz-adv-x="1083" 
d="M563 762q57 0 86 80q41 109 -41 108q-57 0 -91 -94t46 -94zM670 1079q39 1 57 19t39 69q35 104 -51 105q-39 0 -59 -20t-40 -70q-34 -103 54 -103zM555 526q-325 0 -433 87t-61 229q63 176 328 190q-96 14 -138 84t-7 170q43 121 163 168t363 47t354 -81t64 -222
q-59 -184 -279 -201q109 -14 149 -87t2 -178q-38 -106 -148 -156t-357 -50z" />
    <glyph glyph-name="nine.numr" horiz-adv-x="1097" 
d="M488 526q-266 0 -451 64l88 250q127 -53 328 -54q106 0 156 22t75 69q-90 -14 -147 -15q-211 0 -309 100t-33 269q53 150 173 210t367 60q315 0 418 -151q102 -152 12 -399q-91 -247 -251 -336t-426 -89zM678 1079q39 0 82 8q57 178 -49 179q-43 0 -67 -23t-40 -69
q-30 -95 74 -95z" />
    <glyph glyph-name="zero.dnom" horiz-adv-x="1116" 
d="M527 676q-47 0 -73 -39t-60 -133q-55 -155 -53 -207q2 -51 56 -51q43 0 67 39t69 161t44 176q-2 54 -50 54zM373 -27q-303 0 -409 156q-105 155 -14 395t219 332t378 92q301 0 406 -156t14 -405q-90 -229 -218 -321t-376 -93z" />
    <glyph glyph-name="one.dnom" horiz-adv-x="792" 
d="M438 0h-452l219 600l-268 -113l108 304l317 131h410z" />
    <glyph glyph-name="two.dnom" horiz-adv-x="985" 
d="M444 948q284 0 388 -89t42 -249q-38 -98 -106 -149t-160 -96t-106 -52l-99 -47h402l-96 -266h-936l59 160q30 72 60 110t88 70l350 184q68 33 88 88q14 33 -9 55q-24 22 -100 21q-160 0 -317 -47l96 262q207 45 356 45z" />
    <glyph glyph-name="three.dnom" horiz-adv-x="1034" 
d="M250 -27q-260 0 -451 70l92 250q141 -59 332 -60q107 -1 145 7t49 34t-4 37q-15 12 -57 13h-309l80 219l311 112h-430l98 267h922l-61 -160q-29 -76 -60 -117t-86 -63l-205 -82q166 -8 218 -94t-3 -216q-81 -217 -581 -217z" />
    <glyph glyph-name="four.dnom" horiz-adv-x="1064" 
d="M872 180h-114l-66 -180h-424l66 180h-500l111 305l327 330q111 106 193 107h561l-180 -500h115zM422 422l121 336l-324 -336h203z" />
    <glyph glyph-name="five.dnom" horiz-adv-x="1024" 
d="M233 -27q-253 0 -448 70l92 250q145 -59 332 -60q106 -1 143 7t51 32q14 35 -7 51q-22 15 -125 15t-332 -14l217 598h860l-96 -267h-488l-26 -75q18 2 59 2q270 0 348 -100t14 -265q-51 -133 -196 -189t-398 -55z" />
    <glyph glyph-name="six.dnom" horiz-adv-x="1097" 
d="M389 209q76 0 109 92q31 94 -74 94q-41 0 -82 -8q-59 -178 47 -178zM614 948q266 0 451 -63l-90 -250q-127 55 -326 55q-106 0 -157 -22t-74 -70q70 14 145 14q213 0 310 -98t38 -259t-179 -221t-365 -61q-317 0 -420 152q-102 153 -11 399t251 335q161 89 427 89z" />
    <glyph glyph-name="seven.dnom" horiz-adv-x="993" 
d="M315 0h-452l35 104q25 76 52 116q28 40 99 102l377 333h-455l99 267h972l-59 -160q-21 -58 -46 -86q-25 -26 -59 -56t-42 -38l-394 -349q-76 -72 -96 -135z" />
    <glyph glyph-name="eight.dnom" horiz-adv-x="1083" 
d="M362 209q57 0 87 80q41 109 -41 108q-58 0 -92 -94t46 -94zM469 526q39 0 57 18t39 70q35 104 -51 105q-39 1 -58 -19t-40 -71q-35 -103 53 -103zM354 -27q-324 0 -432 87t-61 229q63 176 327 190q-96 14 -138 84t-7 170q43 121 163 168t364 47t354 -81q111 -81 63 -222
q-59 -184 -278 -201q109 -14 149 -87t1 -178t-149 -155t-356 -51z" />
    <glyph glyph-name="nine.dnom" horiz-adv-x="1097" 
d="M286 -27q-266 0 -450 64l88 250q127 -53 328 -54q106 0 156 22t75 69q-90 -14 -147 -15q-211 -1 -309 99t-33 270q53 150 173 210t368 60q315 0 417 -152t12 -398q-90 -247 -250 -336q-162 -89 -428 -89zM477 526q39 0 82 9q57 178 -49 178q-43 0 -67 -23t-40 -69
q-30 -95 74 -95z" />
    <glyph glyph-name="numero" horiz-adv-x="3328" 
d="M3023 158h-916l99 268h915zM1204 1475q236 0 221 -275l-34 -735l366 1010h610l-536 -1475h-1026l43 991l-361 -991h-610l537 1475h790zM2940 1229q-48 0 -74 -39t-60 -133q-54 -152 -52 -205t56 -53q42 0 66 39t69 161t44 176t-49 54zM2785 526q-303 0 -408 156t-15 395
t220 331q128 92 377 93q301 0 407 -155q105 -156 13 -406q-90 -230 -218 -322t-376 -92z" />
    <glyph glyph-name="bar.alt" horiz-adv-x="0" 
d="M-10 -530v2457h20v-2457h-20z" />
    <glyph glyph-name="space.alt" horiz-adv-x="446" 
 />
    </font>
</defs>
</svg>
