<?xml version="1.0" standalone="no"?>
<!DOCTYPE svg PUBLIC "-//W3C//DTD SVG 1.1//EN" "http://www.w3.org/Graphics/SVG/1.1/DTD/svg11.dtd" >
<svg xmlns="http://www.w3.org/2000/svg">
<metadata></metadata>
<defs>
<font id="myriad_proregular" horiz-adv-x="1050" >
<font-face units-per-em="2048" ascent="1536" descent="-512" />
<missing-glyph horiz-adv-x="434" />
<glyph horiz-adv-x="2048" />
<glyph horiz-adv-x="2048" />
<glyph unicode="&#xd;" horiz-adv-x="2048" />
<glyph unicode=" "  horiz-adv-x="434" />
<glyph unicode="&#x09;" horiz-adv-x="434" />
<glyph unicode="&#xa0;" horiz-adv-x="434" />
<glyph unicode="!" horiz-adv-x="471" d="M115 104q0 55 33.5 91t87.5 36q55 0 87.5 -35.5t32.5 -91.5q0 -55 -32.5 -91t-87.5 -36h-3q-51 0 -84.5 37t-33.5 90zM137 1380h197l-29 -985h-139z" />
<glyph unicode="&#x22;" horiz-adv-x="690" d="M104 1417h177l-33 -491h-111zM410 1417h176l-33 -491h-111z" />
<glyph unicode="#" horiz-adv-x="1017" d="M76 401v121h188l39 297h-178v121h194l54 391h121l-54 -391h215l52 391h120l-51 -391h168v-121h-186l-37 -297h176v-121h-195l-53 -401h-123l54 401h-213l-52 -401h-122l53 401h-170zM385 522h213l39 297h-213z" />
<glyph unicode="$" d="M135 121l49 137q129 -88 291 -88q111 0 178.5 56.5t67.5 144.5q0 82 -56.5 139t-175.5 104q-170 66 -253.5 148t-83.5 209t83.5 217t223.5 112v205h129v-198q154 -4 266 -72l-51 -135q-125 72 -258 71q-109 0 -163 -53t-54 -125q0 -76 56 -125t198 -108 q164 -68 240.5 -154t76.5 -219q0 -129 -85 -227.5t-239 -122.5v-213h-129v207q-88 2 -172 26.5t-139 63.5z" />
<glyph unicode="%" horiz-adv-x="1622" d="M61 938q0 129 43 223t116 143.5t163 49.5h2q139 0 222 -104.5t83 -293.5q0 -135 -43 -229t-114.5 -141t-159.5 -47q-133 0 -221.5 104.5t-90.5 294.5zM203 930q0 -125 47 -204t127 -79q86 0 129 82t43 219q0 131 -42 214t-130 83h-2q-82 0 -127 -89t-45 -226zM358 -25 l785 1381h114l-784 -1381h-115zM930 387q0 131 42 224.5t115.5 142.5t163.5 49h2q142 0 224 -103.5t82 -291.5q0 -137 -42 -231.5t-115 -142.5t-161 -48q-86 0 -156.5 46t-112.5 136t-42 219zM1071 381q0 -125 47 -206t127 -81q86 0 129 83t43 222q0 131 -42 213t-130 82h-2 q-82 0 -127 -88t-45 -225z" />
<glyph unicode="&#x26;" horiz-adv-x="1239" d="M63 365q0 256 271 403v6q-117 152 -117 289q0 86 41 165t121 127t190 48q131 0 218 -80t87 -213q0 -111 -70.5 -200t-232.5 -169v-6q242 -281 336 -385q92 141 133 404h164q-59 -344 -198 -510l227 -244h-213l-129 133q-170 -156 -404 -156q-129 0 -225 52.5 t-147.5 141.5t-51.5 194zM238 391q0 -119 78.5 -198.5t201.5 -79.5h2q168 0 283 125q-180 193 -387 434q-178 -111 -178 -281zM383 1079q0 -113 104 -248q117 66 173.5 127.5t56.5 143.5q0 72 -41 125t-119 53h-2q-80 0 -126 -58.5t-46 -142.5z" />
<glyph unicode="'" horiz-adv-x="385" d="M104 1417h177l-33 -491h-111z" />
<glyph unicode="(" horiz-adv-x="581" d="M131 584q2 483 268 837h140q-256 -347 -256 -839q0 -463 256 -830h-140q-268 354 -268 832z" />
<glyph unicode=")" horiz-adv-x="581" d="M41 -248q256 363 256 836t-256 833h139q268 -350 269 -833q-2 -477 -269 -836h-139z" />
<glyph unicode="*" horiz-adv-x="849" d="M61 975v139l301 -39v4l-192 252l125 70l127 -285h4l125 287l123 -72l-195 -254v-4l309 41v-139l-309 37v-4l197 -248l-129 -72l-125 287h-4l-131 -289l-117 74l195 250v4z" />
<glyph unicode="+" horiz-adv-x="1220" d="M82 485v123h463v482h131v-482h463v-123h-463v-485h-131v485h-463z" />
<glyph unicode="," horiz-adv-x="423" d="M33 -254q35 92 70.5 236.5t52.5 255.5l200 20q-37 -131 -95 -278.5t-101 -219.5z" />
<glyph unicode="-" horiz-adv-x="628" d="M61 487v131h506v-131h-506z" />
<glyph unicode="." horiz-adv-x="423" d="M106 106q0 55 35 92.5t88 37.5t87 -36t34 -94q0 -55 -33.5 -92t-89.5 -37h-2q-51 0 -85 37t-34 92z" />
<glyph unicode="/" horiz-adv-x="702" d="M-2 -82l569 1485h142l-574 -1485h-137z" />
<glyph unicode="0" d="M74 662q0 219 59.5 374.5t163.5 236.5t242 81q209 0 324.5 -178.5t115.5 -495.5q0 -338 -121 -520.5t-340 -182.5h-2q-131 0 -230.5 80t-154.5 233.5t-57 371.5zM256 653q0 -250 72.5 -393t195.5 -143h2q133 0 202 146.5t69 408.5q0 256 -66.5 399t-204.5 143 q-125 0 -197.5 -151.5t-72.5 -409.5z" />
<glyph unicode="1" d="M213 1176l291 155h153v-1331h-174v1163h-4l-231 -125z" />
<glyph unicode="2" d="M92 0v111l141 137q188 180 291 291.5t154 209t51 195.5q0 115 -61.5 187.5t-200.5 72.5q-147 0 -283 -112l-57 127q160 135 377 135q135 0 226 -55.5t135 -143.5t44 -188q0 -119 -54 -229.5t-149.5 -221t-254.5 -264.5l-105 -98v-4h596v-150h-850z" />
<glyph unicode="3" d="M86 68l49 137q51 -31 131 -56.5t164 -25.5q154 0 227.5 76.5t73.5 177.5q0 133 -100.5 201.5t-243.5 68.5h-100v135h100q70 0 138.5 24.5t113.5 76t45 125.5q0 86 -58.5 143t-174.5 57q-74 0 -146 -26.5t-121 -61.5l-49 131q59 43 154.5 73t195.5 30q125 0 211 -44 t128 -117t42 -157q0 -106 -63.5 -189t-181.5 -126v-4q129 -25 213 -115t84 -225q0 -109 -56.5 -200t-166 -145.5t-263.5 -54.5q-104 0 -197.5 27t-148.5 64z" />
<glyph unicode="4" d="M31 365v116l594 850h194v-827h187v-139h-187v-365h-170v365h-618zM213 504h436v444q0 104 6 209h-6q-53 -100 -110 -196l-326 -453v-4z" />
<glyph unicode="5" d="M86 59l45 138q49 -29 126 -51.5t161 -22.5t155.5 35t114.5 100.5t43 151.5q0 135 -94 216t-287 81q-100 0 -186 -15l86 639h637v-151h-508l-51 -342q61 8 108 8q168 0 287 -72q84 -47 137 -135t53 -207q0 -129 -63.5 -232.5t-177 -163t-254.5 -59.5q-102 0 -189.5 24 t-142.5 58z" />
<glyph unicode="6" d="M70 545q0 190 60 343.5t165 256.5q168 166 426 196q68 10 131 11v-148q-53 2 -135 -10q-203 -33 -320.5 -163t-142.5 -308h4q51 70 135 113t189 43q117 0 208 -54.5t142 -152t51 -223.5q0 -125 -54.5 -232.5t-154.5 -173.5t-235 -66q-139 0 -246 70t-165 198t-58 300z M248 500q2 -170 78.5 -276.5t214.5 -106.5h2q114 0 186 88t72 231q0 141 -75 223t-200 82q-82 0 -152.5 -45t-107.5 -118q-18 -37 -18 -78z" />
<glyph unicode="7" d="M117 1182v149h839v-119l-579 -1212h-184l575 1178v4h-651z" />
<glyph unicode="8" d="M76 336q0 123 68.5 214t193.5 144v6q-106 49 -159.5 129t-53.5 170q0 104 54 184.5t147.5 125.5t210.5 45h2q123 0 211 -46t133 -121t45 -161q0 -92 -53.5 -175t-167.5 -136v-6q127 -51 197.5 -139.5t70.5 -204.5q0 -115 -59.5 -203t-163 -136.5t-230.5 -48.5 q-135 0 -236.5 48.5t-155.5 130.5t-54 180zM260 360q-4 -68 27.5 -125t93 -91.5t143.5 -34.5h2q121 0 194 66.5t73 170.5q0 115 -75 182.5t-218 108.5q-115 -33 -177.5 -106.5t-62.5 -170.5zM297 1008q0 -172 254 -242q92 31 147.5 93.5t55.5 148.5q0 90 -56.5 153.5 t-167.5 63.5h-2q-108 0 -169.5 -62.5t-61.5 -154.5z" />
<glyph unicode="9" d="M82 883q0 125 58.5 233.5t162 173t236.5 64.5q135 0 234 -68.5t152.5 -195.5t53.5 -297q0 -401 -229 -625q-158 -152 -388 -178q-106 -12 -165 -10v147q59 -4 145 8q164 18 279 127q141 131 176 354h-6q-117 -143 -316 -143q-117 0 -206 54.5t-138 147.5t-49 208z M262 893q0 -125 69.5 -204t186.5 -79q88 0 156.5 38t107.5 102q14 33 15 73q0 178 -69 286t-204 108h-2q-112 0 -186 -91.5t-74 -232.5z" />
<glyph unicode=":" horiz-adv-x="423" d="M109 104q0 57 33.5 93t86.5 36q55 0 88 -35.5t33 -93.5q0 -55 -32.5 -91t-88.5 -36h-2q-51 0 -84.5 37t-33.5 90zM109 827q0 57 33.5 93t86.5 36q55 0 88 -35.5t33 -93.5q0 -55 -32.5 -91t-88.5 -36h-2q-51 0 -84.5 37t-33.5 90z" />
<glyph unicode=";" horiz-adv-x="423" d="M35 -252q35 90 70.5 233.5t52.5 256.5l198 20q-37 -131 -95 -278.5t-101 -219.5zM123 827q0 57 33.5 93t87.5 36q55 0 88 -35.5t33 -93.5q0 -55 -33 -91t-88 -36h-2q-52 0 -85.5 37t-33.5 90z" />
<glyph unicode="&#x3c;" horiz-adv-x="1220" d="M135 489v111l950 490v-142l-800 -401v-4l800 -402v-141z" />
<glyph unicode="=" horiz-adv-x="1220" d="M82 289v123h1057v-123h-1057zM82 690v123h1057v-123h-1057z" />
<glyph unicode="&#x3e;" horiz-adv-x="1220" d="M135 0v141l807 402v4l-807 401v142l950 -486v-117z" />
<glyph unicode="?" horiz-adv-x="831" d="M104 1321q51 39 131 61.5t162 22.5q166 0 254 -88t88 -215q0 -94 -44 -173t-132 -181q-68 -80 -94.5 -152t-22.5 -152l3 -51h-160l-4 51q-2 14 -2 41q0 158 129 314q76 90 109.5 152.5t33.5 127.5q0 80 -50 128t-145 48q-127 0 -206 -63zM246 104q0 57 33.5 93t87.5 36 q55 0 87.5 -35.5t32.5 -93.5q0 -55 -32.5 -91t-87.5 -36h-2q-52 0 -85.5 37t-33.5 90z" />
<glyph unicode="@" horiz-adv-x="1509" d="M88 426q0 211 93 391t263 287.5t392 107.5q176 0 310 -75.5t209 -210.5t75 -305q0 -150 -49.5 -260.5t-132.5 -169t-181 -58.5q-68 0 -111 45t-41 135h-6q-111 -180 -291 -180q-92 0 -156.5 70.5t-64.5 187.5q0 127 62.5 238.5t174 179.5t249.5 68q129 0 219 -43 l-68 -371q-14 -78 -14 -117q0 -113 78 -113q53 0 103 46.5t82 131.5t32 195q0 150 -58.5 266.5t-170 181t-267.5 64.5q-168 0 -308 -84t-223 -238.5t-83 -357.5q0 -168 67.5 -294t187.5 -193.5t271 -67.5q178 0 309 72l33 -88q-155 -82 -364 -82q-170 0 -311.5 79 t-225.5 224t-84 338zM532 399q0 -70 35 -112.5t101 -42.5q57 0 110 42t91 106.5t51 129.5l43 230q-42 16 -103 16q-90 0 -164.5 -50t-119 -135t-44.5 -184z" />
<glyph unicode="A" horiz-adv-x="1253" d="M51 0l469 1380h215l471 -1380h-190l-148 434h-489l-143 -434h-185zM416 573h415l-137 398q-27 82 -69 252h-7q-31 -135 -67 -250z" />
<glyph unicode="B" horiz-adv-x="1110" d="M156 4v1356q128 31 325 31q256 0 377 -101q117 -86 117 -243q0 -100 -62.5 -182.5t-171.5 -121.5v-6q115 -27 200 -114.5t85 -229.5q0 -164 -119 -276q-137 -129 -475 -129q-158 0 -276 16zM334 135q49 -8 149 -8q154 0 254.5 64.5t100.5 203.5q0 133 -100.5 200 t-256.5 67h-147v-527zM334 795h162q137 0 217 65.5t80 167.5q0 225 -301 225q-100 0 -158 -12v-446z" />
<glyph unicode="C" horiz-adv-x="1187" d="M74 678q0 213 91 378t255 255t375 90q203 0 327 -60l-45 -147q-115 57 -276 57q-162 0 -284 -66.5t-188.5 -194.5t-66.5 -306q0 -256 140.5 -404.5t388.5 -148.5q174 0 292 57l35 -143q-53 -27 -149.5 -46t-214.5 -19q-197 0 -350.5 80.5t-241.5 238.5t-88 379z" />
<glyph unicode="D" horiz-adv-x="1363" d="M154 4v1358q193 29 381 29q375 0 559 -172q197 -178 196 -496q0 -338 -198 -537q-202 -198 -609 -198h-4q-203 0 -325 16zM334 139q47 -8 186 -8q283 0 432.5 154.5t149.5 437.5q0 248 -142.5 387t-416.5 139q-125 0 -209 -18v-1092z" />
<glyph unicode="E" horiz-adv-x="1007" d="M154 0v1380h747v-149h-567v-436h534v-148h-534v-497h598v-150h-778z" />
<glyph unicode="F" horiz-adv-x="997" d="M154 0v1380h743v-149h-563v-459h520v-147h-520v-625h-180z" />
<glyph unicode="G" horiz-adv-x="1323" d="M74 682q0 207 91 368.5t260 253t396 91.5q111 0 203 -19.5t143 -44.5l-45 -145q-125 59 -305 59q-168 0 -293 -66.5t-193.5 -192.5t-68.5 -296q0 -172 65.5 -298t185.5 -192.5t282 -66.5q164 0 237 37v412h-278v143h454v-664q-197 -75 -426 -75q-326 0 -516 182 q-90 88 -141 221t-51 293z" />
<glyph unicode="H" horiz-adv-x="1335" d="M154 0v1380h180v-577h667v577h181v-1380h-181v647h-667v-647h-180z" />
<glyph unicode="I" horiz-adv-x="489" d="M154 0v1380h180v-1380h-180z" />
<glyph unicode="J" horiz-adv-x="757" d="M8 10l25 146q68 -27 151 -27q127 0 189.5 75t62.5 267v909h180v-923q0 -479 -417 -480q-115 0 -191 33z" />
<glyph unicode="K" horiz-adv-x="1110" d="M156 0v1380h178v-665h6q47 68 109 147l421 518h222l-500 -585l538 -795h-210l-453 678l-133 -152v-526h-178z" />
<glyph unicode="L" horiz-adv-x="966" d="M154 0v1380h180v-1230h590v-150h-770z" />
<glyph unicode="M" horiz-adv-x="1646" d="M119 0l96 1380h227l236 -667q80 -240 139 -467h4q51 197 148 467l245 667h228l86 -1380h-176l-33 606q-23 420 -23 596h-4q-98 -317 -174 -524l-244 -670h-135l-225 658q-102 305 -158 536h-4q-6 -270 -26 -610l-37 -592h-170z" />
<glyph unicode="N" horiz-adv-x="1347" d="M156 0v1380h196l441 -698q160 -258 245 -449l6 3q-20 231 -20 565v579h168v-1380h-180l-439 700q-172 272 -256 461l-6 -2q12 -209 13 -569v-590h-168z" />
<glyph unicode="O" horiz-adv-x="1411" d="M74 678q0 215 82 380t227 255t330 90q186 0 327.5 -89t218 -248t76.5 -361q0 -229 -85 -393.5t-230.5 -249.5t-323.5 -85h-2q-182 0 -322.5 88.5t-219 247t-78.5 365.5zM262 682q0 -147 52.5 -275t152.5 -206t235 -78h3q137 0 237 76.5t152.5 207t52.5 289.5 q0 143 -50 272.5t-149.5 209t-240.5 79.5q-143 0 -244 -78.5t-151 -210.5t-50 -286z" />
<glyph unicode="P" horiz-adv-x="1089" d="M156 0v1362q152 29 342 29q260 0 387 -115q123 -106 123 -287q0 -186 -109 -295q-70 -74 -179.5 -112.5t-242.5 -38.5q-94 0 -143 12v-555h-178zM334 700q55 -14 147 -14q162 0 254 77t92 216q0 133 -87 201.5t-238 68.5q-115 0 -168 -14v-535z" />
<glyph unicode="Q" horiz-adv-x="1411" d="M74 676q0 217 82 382t227 255t332 90q186 0 326.5 -89t217 -248t76.5 -361q0 -256 -106.5 -427.5t-286.5 -234.5v-8q221 -55 404 -88l-52 -148q-229 58 -528 158q-61 20 -84 20q-168 6 -306 89.5t-220 239t-82 370.5zM262 680q0 -150 52.5 -277t152.5 -203.5t235 -76.5h3 q137 0 237 76.5t152.5 207t52.5 289.5q0 143 -49 272.5t-148.5 209t-238.5 79.5q-143 0 -244.5 -79.5t-153 -211.5t-51.5 -286z" />
<glyph unicode="R" horiz-adv-x="1101" d="M156 0v1360q149 31 342 31q274 0 401 -115q109 -96 109 -262q0 -129 -73 -220.5t-187 -129.5v-7q147 -51 202 -278q76 -319 105 -379h-185q-33 57 -90 330q-31 143 -94 203.5t-184 64.5h-168v-598h-178zM334 733h182q141 0 226 72t85 190q0 129 -85 192.5t-232 63.5 q-115 0 -176 -16v-502z" />
<glyph unicode="S" horiz-adv-x="1009" d="M86 70l47 147q144 -88 318 -88q135 0 211.5 63.5t76.5 169.5q0 96 -59 159t-201 116q-364 125 -364 388q0 107 56 193.5t157.5 134.5t232.5 48q184 0 303 -66l-49 -147q-104 65 -255 65h-5q-129 0 -194.5 -62.5t-65.5 -143.5q0 -92 62.5 -149.5t211.5 -115.5 q182 -72 266.5 -165t84.5 -240q0 -109 -54.5 -199t-163 -144t-264.5 -54q-98 0 -196.5 25.5t-155.5 64.5z" />
<glyph unicode="T" horiz-adv-x="1017" d="M-2 1229v151h1022v-151h-422v-1229h-180v1229h-420z" />
<glyph unicode="U" horiz-adv-x="1325" d="M154 567v813h180v-819q0 -221 88 -329.5t233 -108.5q158 0 247 108.5t89 329.5v819h180v-807q0 -303 -142 -449.5t-380 -146.5q-227 0 -361 142.5t-134 447.5z" />
<glyph unicode="V" horiz-adv-x="1142" d="M6 1380h195l215 -680q104 -340 147 -516h4q53 215 158 514l233 682h191l-494 -1380h-196z" />
<glyph unicode="W" horiz-adv-x="1732" d="M31 1380h188l164 -698q66 -283 102 -477h4q23 139 113 479l184 696h187l168 -700q74 -315 96 -473h4q27 143 111 477l182 696h182l-391 -1380h-186l-174 717q-68 276 -91 452h-4q-29 -182 -106 -450l-197 -719h-186z" />
<glyph unicode="X" horiz-adv-x="1169" d="M51 0l422 698l-405 682h206l183 -323q86 -150 127 -234h6q49 102 125 234l186 323h207l-420 -671l430 -709h-207l-178 305q-90 145 -158 273h-4q-47 -96 -149 -275l-166 -303h-205z" />
<glyph unicode="Y" horiz-adv-x="1107" d="M25 1380h204l195 -381l35 -71q70 -139 102 -213h4q29 70 107 219l33 65l198 381h201l-461 -792v-588h-180v586z" />
<glyph unicode="Z" horiz-adv-x="1132" d="M61 0v104l766 1121v6h-700v149h932v-108l-762 -1116v-6h772v-150h-1008z" />
<glyph unicode="[" horiz-adv-x="581" d="M166 -229v1634h375v-113h-234v-1409h234v-112h-375z" />
<glyph unicode="\" horiz-adv-x="698" d="M4 1403h139l557 -1485h-139z" />
<glyph unicode="]" horiz-adv-x="581" d="M41 -117h233v1409h-233v113h375v-1634h-375v112z" />
<glyph unicode="^" horiz-adv-x="1220" d="M125 387l422 944h129l422 -944h-144l-342 795h-4l-342 -795h-141z" />
<glyph unicode="_" horiz-adv-x="1024" d="M0 -154h1024v-102h-1024v102z" />
<glyph unicode="`" horiz-adv-x="614" d="M45 1419h197l180 -293h-127z" />
<glyph unicode="a" horiz-adv-x="987" d="M72 262q0 180 154 276q151 94 430 93h12v20q0 229 -222 230q-156 0 -264 -74l-41 121q137 86 328 86q209 0 294 -115t85 -291v-370q0 -144 14 -238h-162l-16 125h-6q-43 -63 -123 -105.5t-180 -42.5q-96 0 -165 40t-103.5 105.5t-34.5 139.5zM252 283q0 -84 48 -128 t120 -44q92 0 155.5 48t88.5 117q8 25 8 58v172h-28q-392 0 -392 -223z" />
<glyph unicode="b" horiz-adv-x="1165" d="M141 0q8 90 9 256v1198h180v-620h4q104 180 338 180q121 0 216 -63.5t148.5 -178.5t53.5 -262q0 -170 -63.5 -291t-166 -181.5t-217.5 -60.5q-223 0 -332 187h-4l-10 -164h-156zM330 397q0 -34 6 -65q27 -94 100.5 -152.5t169.5 -58.5q141 0 221 104.5t80 276.5 q0 158 -77.5 264t-217.5 106q-94 0 -169.5 -60t-102.5 -161q-10 -37 -10 -76v-178z" />
<glyph unicode="c" horiz-adv-x="917" d="M78 485q0 152 65.5 273t186.5 188.5t280 67.5q152 0 250 -53l-41 -138q-90 47 -209 47q-164 0 -257 -107.5t-93 -266.5q0 -113 45 -197t123 -129t176 -45q115 0 221 47l31 -135q-121 -57 -285 -57q-147 0 -258.5 63t-173 178t-61.5 264z" />
<glyph unicode="d" horiz-adv-x="1155" d="M78 485q0 160 60.5 280t161.5 184.5t222 64.5q109 0 186.5 -43t112.5 -107h4v590h181v-1198q0 -166 8 -256h-162l-8 172h-4q-43 -86 -131 -140.5t-205 -54.5q-121 0 -218.5 64.5t-152.5 179.5t-55 264zM260 492q0 -160 77 -264.5t216 -104.5q92 0 166 58.5t98 158.5 q8 31 8 76v172q0 45 -8 78q-20 88 -91 147t-169 59q-137 0 -217 -107.5t-80 -272.5z" />
<glyph unicode="e" horiz-adv-x="1026" d="M78 479q0 150 57.5 271.5t162.5 192.5t247 71q150 0 241 -74t128.5 -180.5t37.5 -212.5q0 -53 -6 -84h-694q2 -172 97 -257t241 -85q158 0 274 51l33 -129q-141 -63 -332 -63q-150 0 -259 62t-168.5 176t-59.5 261zM254 592h524v7q0 107 -55 195q-57 92 -193 91 q-125 0 -194.5 -90t-81.5 -203z" />
<glyph unicode="f" horiz-adv-x="598" d="M29 854v137h137v47q0 236 117 346q94 92 239 93q84 0 154 -29l-23 -139q-51 22 -111 22h-5q-193 0 -193 -287v-53h240v-137h-238v-854h-180v854h-137z" />
<glyph unicode="g" horiz-adv-x="1144" d="M78 489q0 162 62.5 281t166 181.5t219.5 62.5q217 0 310 -172h4l6 149h160q-8 -92 -9 -270v-576q0 -323 -141 -454q-133 -119 -362 -119q-92 0 -182.5 21.5t-147.5 60.5l45 139q121 -80 291 -80q147 0 233 84t86 264v109h-4q-43 -74 -124 -120t-191 -46 q-121 0 -217.5 63.5t-150.5 174t-54 247.5zM260 498q0 -152 77 -254.5t216 -102.5q86 0 154.5 50.5t95.5 136.5q14 41 14 96v178q0 49 -10 80q-27 84 -91.5 138t-160.5 54q-131 0 -213 -102t-82 -274z" />
<glyph unicode="h" horiz-adv-x="1136" d="M150 0v1454h180v-618h4q47 84 129 127q84 51 184 51q78 0 157 -38t134 -133t55 -253v-590h-180v571q0 131 -55.5 212t-173.5 81q-84 0 -149.5 -51t-92.5 -129q-12 -29 -12 -86v-598h-180z" />
<glyph unicode="i" horiz-adv-x="479" d="M127 1270q0 49 31.5 80.5t81.5 31.5q49 0 79.5 -31.5t30.5 -80.5q0 -47 -30.5 -79t-81.5 -32h-2q-48 0 -78.5 33t-30.5 78zM150 0v991h180v-991h-180z" />
<glyph unicode="j" horiz-adv-x="497" d="M-94 -291q137 10 196 76q39 43 54.5 122t15.5 251v833h180v-903q0 -147 -26.5 -244.5t-92.5 -162.5q-55 -55 -141 -84t-166 -29zM150 1270q0 49 31.5 80.5t80.5 31.5t80 -31.5t31 -80.5q0 -47 -31 -79t-82 -32h-2q-47 0 -77.5 33t-30.5 78z" />
<glyph unicode="k" horiz-adv-x="960" d="M150 0v1454h180v-917h4q41 57 86 112l293 342h215l-383 -407l436 -584h-219l-340 475l-92 -102v-373h-180z" />
<glyph unicode="l" horiz-adv-x="483" d="M150 0v1454h180v-1454h-180z" />
<glyph unicode="m" horiz-adv-x="1708" d="M141 991h158l8 -160h6q106 182 314 183q98 0 171.5 -54.5t106.5 -144.5h4q39 74 113 129q92 70 217 70q78 0 151.5 -39t125 -135.5t51.5 -255.5v-584h-176v561q0 147 -54.5 226t-160.5 79q-74 0 -131.5 -46t-83.5 -115q-14 -47 -15 -91v-614h-176v596q0 123 -53 196.5 t-154 73.5q-78 0 -139.5 -53t-83.5 -127q-14 -37 -14 -88v-598h-176v723q-1 104 -9 268z" />
<glyph unicode="n" horiz-adv-x="1136" d="M141 991h160l10 -162h4q41 78 127 131.5t201 53.5q80 0 160 -38t135 -132t55 -252v-592h-180v571q0 131 -55.5 213t-173.5 82q-84 0 -149.5 -53t-92.5 -131q-12 -33 -12 -84v-598h-180v723q-1 159 -9 268z" />
<glyph unicode="o" horiz-adv-x="1124" d="M78 487q0 162 65.5 281t177 182.5t248.5 63.5q141 0 250 -64.5t168.5 -179.5t59.5 -264q0 -174 -71 -294t-183.5 -177.5t-237.5 -57.5h-2q-133 0 -241.5 62.5t-171 178.5t-62.5 269zM262 494q0 -109 38 -195t105.5 -136t153.5 -50h2q86 0 154.5 50t107.5 138t39 199 q0 90 -31.5 177t-98 144.5t-167.5 57.5q-100 0 -168.5 -55.5t-101.5 -143.5t-33 -186z" />
<glyph unicode="p" horiz-adv-x="1165" d="M141 991h162l10 -170h4q113 193 351 193q121 0 217 -63.5t150.5 -178.5t54.5 -262q0 -170 -62.5 -291t-166 -181.5t-222.5 -60.5q-100 0 -180 41t-125 115h-4v-539h-180v1074q-1 198 -9 323zM330 403q0 -42 8 -73q23 -94 97.5 -152.5t170.5 -58.5q141 0 221 104.5 t80 278.5q0 156 -77.5 262t-215.5 106q-94 0 -170.5 -61t-103.5 -162q-10 -55 -10 -72v-172z" />
<glyph unicode="q" horiz-adv-x="1153" d="M78 479q0 176 65.5 297t169 179.5t213.5 58.5q111 0 189 -47t116 -125h5l6 149h172q-8 -109 -8 -272v-1125h-181v558h-4q-43 -78 -126 -126.5t-197 -48.5q-117 0 -212.5 62.5t-151.5 177.5t-56 262zM260 489q0 -158 76 -263t217 -105q88 0 157.5 52t100.5 144 q14 43 14 86v187q0 45 -8 76q-23 88 -92.5 146t-165.5 58q-137 0 -218 -105.5t-81 -275.5z" />
<glyph unicode="r" horiz-adv-x="669" d="M141 991h158l8 -194h6q33 98 109 157.5t168 59.5q16 0 49 -4v-170q-37 4 -61 4q-94 0 -159 -63.5t-83 -166.5q-6 -39 -6 -84v-530h-180v682q-1 186 -9 309z" />
<glyph unicode="s" horiz-adv-x="811" d="M82 49l43 135q117 -69 240 -69q92 0 141 41t49 106q0 63 -41 103.5t-141 76.5q-264 96 -264 281q0 80 42 146.5t119.5 105.5t180.5 39q147 0 241 -62l-43 -129q-98 57 -203 58q-78 0 -120.5 -39t-42.5 -97q0 -59 42 -94t144 -76q131 -49 195.5 -119.5t64.5 -176.5 q0 -135 -98.5 -217t-270.5 -82q-160 0 -278 69z" />
<glyph unicode="t" horiz-adv-x="677" d="M37 854v137h153v183l177 55v-238h258v-137h-258v-532q0 -96 31.5 -144.5t103.5 -48.5q66 0 104 12l8 -137q-67 -24 -152 -24h-7q-125 0 -195 75q-70 78 -70 260v539h-153z" />
<glyph unicode="u" horiz-adv-x="1128" d="M143 412v579h181v-547q0 -317 221 -317q84 0 147.5 49t89.5 117q16 39 17 92v606h180v-719q0 -168 8 -272h-160l-10 162h-4q-41 -74 -125 -129.5t-203 -55.5q-141 0 -241.5 99.5t-100.5 335.5z" />
<glyph unicode="v" horiz-adv-x="985" d="M27 991h192l195 -555q53 -150 80 -256h6q25 88 84 256l192 555h189l-390 -991h-172z" />
<glyph unicode="w" horiz-adv-x="1507" d="M37 991h184l133 -502l13 -53q41 -168 59 -264h6q20 92 88 315l162 504h152l153 -495q53 -168 88 -324h6q20 123 76 322l141 497h179l-320 -991h-164l-151 473q-59 195 -88 328h-4q-31 -147 -91 -330l-159 -471h-164z" />
<glyph unicode="x" horiz-adv-x="948" d="M16 0l353 506l-336 485h200l142 -213q55 -82 100 -162h6q37 66 101 164l137 211h196l-337 -479l346 -512h-205l-146 223q-41 61 -106 172h-4q-33 -61 -80 -131l-25 -41l-143 -223h-199z" />
<glyph unicode="y" horiz-adv-x="964" d="M18 991h197l215 -585q37 -96 66 -203h4q16 53 20 65q23 82 43 142l197 581h190l-270 -706q-100 -262 -175 -401.5t-165 -219.5q-113 -94 -221 -115l-45 150q86 27 157 88q92 72 152 201q14 33 14 43q0 16 -14 47z" />
<glyph unicode="z" horiz-adv-x="876" d="M37 0v104l448 584q78 94 131 156v4h-538v143h756v-112l-445 -578q-72 -94 -127 -154v-4h580v-143h-805z" />
<glyph unicode="{" horiz-adv-x="581" d="M57 539v104q99 0 132.5 42t33.5 110q0 57 -16 172t-17 170q0 135 81 201.5t218 66.5h41v-113h-34q-88 -2 -126 -46t-38 -130q0 -31 14 -145q16 -102 16 -156q2 -180 -147 -221v-4q147 -37 147 -217q0 -57 -16 -164q-14 -115 -14 -148q0 -176 164 -178h34v-112h-43 q-135 0 -216 66.5t-81 213.5q0 68 19 168q14 133 14 166q0 154 -166 154z" />
<glyph unicode="|" horiz-adv-x="489" d="M176 -512v2048h137v-2048h-137z" />
<glyph unicode="}" horiz-adv-x="581" d="M51 -117h35q164 2 164 178q0 33 -14 148q-16 106 -17 164q0 180 148 217v4q-147 41 -148 215q0 55 17 162q14 115 14 145q0 86 -38 130t-126 46h-35v113h41q137 0 218 -66.5t81 -201.5q0 -55 -16 -170t-17 -172q0 -68 34 -110t132 -42v-104q-166 0 -166 -154 q0 -51 17 -166q16 -111 16 -168q0 -147 -81 -213.5t-216 -66.5h-43v112z" />
<glyph unicode="~" horiz-adv-x="1220" d="M100 432q-4 148 64.5 227.5t179.5 79.5q61 0 119.5 -19.5t171.5 -72.5q96 -47 149.5 -66.5t104.5 -19.5q106 0 110 172h121q6 -160 -60.5 -234.5t-172.5 -74.5q-59 0 -124 20.5t-173 69.5q-18 8 -73.5 36t-96.5 41t-76 13q-119 0 -121 -172h-123z" />
<glyph unicode="&#xa1;" horiz-adv-x="471" d="M115 872q0 55 33.5 91t87.5 36h2q53 0 85.5 -35.5t32.5 -91.5q0 -55 -32.5 -91t-87.5 -36q-53 0 -87 36t-34 91zM137 -399l29 979h139l29 -979h-197z" />
<glyph unicode="&#xa2;" d="M137 668q0 199 112.5 337t299.5 169v206h129v-202q127 -2 223 -52l-41 -137q-90 51 -215 51q-98 0 -172 -49t-115 -132t-41 -185q0 -164 91.5 -261.5t230.5 -97.5q131 0 233 52l31 -131q-88 -51 -225 -60v-207h-129v209q-180 20 -295 144q-117 127 -117 346z" />
<glyph unicode="&#xa3;" d="M113 0v102q106 53 169.5 149.5t63.5 209.5q0 78 -10 143h-209v129h190q-23 135 -22 221q0 119 50 210t140 140.5t203 49.5q141 0 223 -51l-39 -136q-74 41 -184 41q-115 0 -169 -69.5t-54 -186.5q0 -98 22 -219h293v-129h-276q6 -104 6 -106q0 -66 -14 -123 q-33 -129 -142 -221v-4h611v-150h-852z" />
<glyph unicode="&#xa4;" d="M57 1071l93 94l139 -155q98 84 235 84h2q144 0 236 -82l145 153l92 -94l-161 -145q72 -96 71 -242q0 -156 -71 -250l153 -151l-90 -90l-141 155q-45 -41 -109.5 -63.5t-130.5 -22.5q-63 0 -127.5 22.5t-105.5 59.5l-137 -151l-89 90l148 143q-76 102 -76 248 q0 150 80 252zM279 676q0 -94 36.5 -157.5t92 -95.5t112.5 -32q98 0 171 73t73 218q0 115 -64.5 199t-177.5 84h-2q-108 0 -174.5 -83t-66.5 -206z" />
<glyph unicode="&#xa5;" d="M33 1331h192l213 -422q49 -104 82 -186h6q33 92 82 190l221 418h189l-367 -620h267v-101h-320v-149h320v-101h-320v-360h-170v360h-317v101h317v149h-317v101h268z" />
<glyph unicode="&#xa6;" horiz-adv-x="489" d="M176 356h137v-716h-137v716zM176 664v716h137v-716h-137z" />
<glyph unicode="&#xa7;" horiz-adv-x="1062" d="M121 696q0 63 37 127t114 115q-33 23 -54 71t-21 99q0 133 107.5 212t268.5 79q162 0 283 -68l-45 -117q-103 66 -244 66q-92 0 -152.5 -42t-60.5 -110q0 -72 60.5 -111.5t195.5 -84.5q164 -53 248 -124t84 -198q0 -143 -131 -248q31 -29 54.5 -76.5t23.5 -105.5 q0 -100 -55.5 -169.5t-144.5 -103.5t-189 -34q-205 0 -322 86l49 117q45 -33 117 -57.5t156 -24.5q100 0 163.5 44t63.5 122q0 72 -53 118t-197 97q-180 61 -268 130.5t-88 190.5zM268 719q0 -57 49.5 -104.5t165.5 -88.5q186 -70 234 -100q78 61 78 158q0 127 -183 190 l-55 21q-152 57 -197 84q-92 -63 -92 -158v-2z" />
<glyph unicode="&#xa8;" horiz-adv-x="614" d="M14 1272q0 43 30 73.5t75 30.5q41 0 69.5 -29.5t28.5 -74.5q0 -43 -28.5 -74t-71.5 -31h-2q-43 0 -72 31t-29 74zM395 1272q0 43 30 73.5t73 30.5t71.5 -29.5t28.5 -74.5q0 -43 -28.5 -74t-71.5 -31h-2q-43 0 -72 31t-29 74z" />
<glyph unicode="&#xa9;" horiz-adv-x="1386" d="M74 696q0 172 83 316.5t225 229.5t314 85h2q170 0 310.5 -85t222.5 -229.5t82 -316.5q0 -174 -82 -319.5t-223.5 -230.5t-311.5 -85q-172 0 -314 85t-225 230.5t-83 319.5zM176 690q0 -152 69.5 -276.5t190.5 -196.5t269 -72q139 0 255.5 73t183 200t66.5 278 q0 150 -68.5 276t-186 198.5t-259.5 72.5h-2q-143 0 -262 -72.5t-187.5 -199.5t-68.5 -281zM354 684q0 113 53.5 200t143.5 134t194 47q74 0 137.5 -17.5t88.5 -37.5l-25 -80q-87 47 -198 47q-139 0 -213 -79t-74 -208q0 -125 75.5 -207t213.5 -82q125 0 206 54l25 -78 q-96 -63 -252 -64q-115 0 -200 49.5t-130 133.5t-45 188z" />
<glyph unicode="&#xaa;" horiz-adv-x="708" d="M68 731q0 111 108.5 173.5t302.5 58.5v20q0 43 -32.5 85t-120.5 42q-102 0 -174 -53l-33 86q94 68 233 67q260 0 260 -286v-217q0 -78 11 -160h-121l-10 86h-5q-84 -96 -208 -96q-98 0 -154.5 55t-56.5 139zM203 739q0 -49 34.5 -76.5t84.5 -27.5q43 0 80.5 21.5 t58.5 52.5q20 29 20 55v110q-116 5 -197 -26t-81 -109z" />
<glyph unicode="&#xab;" horiz-adv-x="858" d="M59 516l271 377h145l-272 -377l274 -377h-145zM395 516l271 377h145l-272 -377l274 -377h-145z" />
<glyph unicode="&#xac;" horiz-adv-x="1220" d="M82 694v123h1057v-569h-131v446h-926z" />
<glyph unicode="&#xad;" horiz-adv-x="628" d="M61 487v131h506v-131h-506z" />
<glyph unicode="&#xae;" horiz-adv-x="858" d="M84 1063q0 92 46 169t126 122t174 45h2q94 0 172 -45t124 -122t46 -169t-46 -170t-125 -123t-173 -45t-174 45t-126 123t-46 170zM170 1063q0 -115 77 -191.5t189 -76.5q106 0 179 77.5t73 188.5q0 113 -73.5 191.5t-184.5 78.5h-2q-109 0 -183.5 -78.5t-74.5 -189.5z M299 889v336q78 10 129 10q78 0 115 -27q35 -25 35 -71q0 -57 -70 -80v-4q43 -14 59 -82q10 -55 25 -82h-82q-8 10 -27 82q-8 51 -69 51h-37v-133h-78zM379 1077h37q78 0 78 49q0 51 -72 52q-27 0 -43 -4v-97z" />
<glyph unicode="&#xaf;" horiz-adv-x="614" d="M78 1200v117h461v-117h-461z" />
<glyph unicode="&#xb0;" horiz-adv-x="651" d="M59 1128q0 76 36 139.5t98.5 99.5t138.5 36h2q121 0 194.5 -79t73.5 -187q0 -80 -39 -141.5t-101.5 -96.5t-133.5 -35q-117 0 -193 77t-76 187zM170 1128q0 -72 45 -119.5t115 -47.5t116 49t46 125q0 66 -41 119t-121 53h-2q-74 0 -116 -54.5t-42 -124.5z" />
<glyph unicode="&#xb1;" horiz-adv-x="1220" d="M82 0v123h1057v-123h-1057zM82 649v123h463v397h131v-397h463v-123h-463v-409h-131v409h-463z" />
<glyph unicode="&#xb2;" horiz-adv-x="636" d="M25 909v76l129 119q139 127 198.5 204.5t59.5 151.5q0 61 -40 101.5t-116 40.5q-86 0 -172 -64l-43 94q102 84 252 84q133 0 201.5 -68.5t68.5 -160.5q0 -104 -65.5 -192.5t-206.5 -211.5l-62 -57v-4h349v-113h-553z" />
<glyph unicode="&#xb3;" horiz-adv-x="624" d="M16 956l37 103q29 -18 83 -35.5t108 -17.5q86 0 133 40.5t47 92.5q0 74 -62.5 110.5t-154.5 36.5h-55v94h57q70 0 128 33t58 96q0 41 -32.5 71t-96.5 30q-88 0 -174 -54l-35 97q99 63 236 63q125 0 187.5 -55t62.5 -137q0 -61 -42 -109.5t-116 -75.5v-4q84 -10 137 -65.5 t53 -130.5q0 -100 -87 -170t-236 -70q-70 0 -134.5 16.5t-101.5 40.5z" />
<glyph unicode="&#xb4;" horiz-adv-x="614" d="M207 1126l180 293h197l-250 -293h-127z" />
<glyph unicode="&#xb5;" horiz-adv-x="1132" d="M29 854v137h137v35q0 211 119 330q96 96 256 96q88 0 174 -43l-51 -133q-57 35 -123 35q-82 0 -129 -54q-68 -68 -68 -231v-35h420v56q0 199 113.5 314.5t320.5 115.5q66 0 135.5 -18.5t110.5 -45.5l-53 -135q-84 53 -201 53q-248 0 -248 -291v-49h578v-903 q0 -147 -27 -244.5t-92 -162.5q-55 -55 -141 -84t-166 -29l-19 141q137 10 195 76q39 43 54 122t15 251v696h-395v-854h-180v854h-418v-854h-180v854h-137z" />
<glyph unicode="&#xb6;" horiz-adv-x="1048" d="M70 938q0 188 130 317t433 129q158 0 239 -16v-1466h-127v1360h-145v-1360h-127v641h-14q-88 0 -178.5 45t-150.5 134t-60 216z" />
<glyph unicode="&#xb7;" horiz-adv-x="423" d="M90 537q0 57 35 93t88 36t87 -36t34 -93q0 -55 -34 -91t-89 -36h-2q-51 0 -85 36.5t-34 90.5z" />
<glyph unicode="&#xb8;" horiz-adv-x="614" d="M111 -373l30 86q53 -29 111 -28q39 0 64.5 15t23.5 48q0 72 -160 86l96 172h113l-67 -108q59 -6 101 -45t42 -97q0 -86 -60.5 -126t-154.5 -40q-82 0 -139 37z" />
<glyph unicode="&#xb9;" horiz-adv-x="499" d="M45 1616l193 90h124v-797h-143v672h-4l-147 -72z" />
<glyph unicode="&#xba;" horiz-adv-x="727" d="M37 868q0 102 45 180t121 120t164 42h2q145 0 233 -93t88 -238q0 -113 -48 -190t-123 -114.5t-157 -37.5q-90 0 -164.5 40.5t-117.5 116.5t-43 174zM174 870q0 -98 56.5 -164.5t134.5 -66.5q82 0 135 65.5t53 169.5q0 88 -49 161t-142 73h-2q-90 0 -138 -71.5t-48 -166.5 z" />
<glyph unicode="&#xbb;" horiz-adv-x="858" d="M47 893h146l272 -377l-272 -377h-144l273 377zM381 893h145l273 -377l-273 -377h-143l272 377z" />
<glyph unicode="&#xbc;" horiz-adv-x="1554" d="M88 1253l193 90h125v-796h-144v672h-4l-147 -72zM283 -23l778 1377h115l-777 -1377h-116zM813 211v80l395 518h150v-498h123v-100h-123v-211h-135v211h-410zM961 313l2 -2h260v244q0 16 6 127h-4l-29 -47q-20 -35 -39 -64z" />
<glyph unicode="&#xbd;" horiz-adv-x="1554" d="M59 1253l193 90h125v-796h-144v672h-4l-147 -72zM244 -23l776 1377h115l-777 -1377h-114zM901 0v76l129 121q139 127 198.5 204.5t59.5 151.5q0 61 -40 101t-115 40q-86 0 -172 -63l-43 94q102 84 251 84q133 0 202 -68.5t69 -160.5q0 -104 -65.5 -191.5t-207.5 -214.5 l-61 -57v-4h348v-113h-553z" />
<glyph unicode="&#xbe;" horiz-adv-x="1554" d="M61 594l37 100q29 -18 84.5 -34.5t106.5 -16.5q88 0 134 40t46 91q0 76 -63.5 113t-155.5 37h-55v94h57q70 0 128 32.5t58 96.5q0 41 -32.5 70.5t-98.5 29.5q-90 0 -170 -53l-37 94q95 66 234 66q125 0 188.5 -55.5t63.5 -137.5q0 -61 -41 -109t-115 -75v-4 q84 -10 137.5 -65.5t53.5 -133.5q0 -63 -38 -117.5t-112 -87t-174 -32.5q-70 0 -134.5 16t-101.5 41zM358 -23l779 1377h114l-776 -1377h-117zM836 211v80l395 518h149v-498h123v-100h-123v-211h-135v211h-409zM981 313l2 -2h262v244q0 16 6 127h-4l-28 -47q-20 -35 -39 -64 z" />
<glyph unicode="&#xbf;" horiz-adv-x="831" d="M113 -125q0 94 44 173t132 181q68 80 94.5 152t22.5 151l-3 54h160l4 -54q2 -14 2 -40q0 -158 -129 -314q-76 -90 -109.5 -152.5t-33.5 -127.5q0 -80 50 -128.5t145 -48.5q123 0 208 64l48 -129q-51 -37 -132 -60.5t-161 -23.5q-166 0 -254 88t-88 215zM365 870 q0 57 33.5 93t86.5 36h2q54 0 86.5 -35.5t32.5 -93.5q0 -55 -32.5 -91t-88.5 -36q-53 0 -86.5 36t-33.5 91z" />
<glyph unicode="&#xc0;" horiz-adv-x="1253" d="M51 0l469 1380h215l471 -1380h-190l-148 434h-489l-143 -434h-185zM328 1694h217l190 -238h-145zM416 573h415l-137 398q-27 82 -69 252h-7q-31 -135 -67 -250z" />
<glyph unicode="&#xc1;" horiz-adv-x="1253" d="M51 0l469 1380h215l471 -1380h-190l-148 434h-489l-143 -434h-185zM416 573h415l-137 398q-27 82 -69 252h-7q-31 -135 -67 -250zM522 1454l191 240h217l-262 -240h-146z" />
<glyph unicode="&#xc2;" horiz-adv-x="1253" d="M51 0l469 1380h215l471 -1380h-190l-148 434h-489l-143 -434h-185zM356 1454l209 234h137l216 -234h-152l-129 141h-4l-131 -141h-146zM416 573h415l-137 398q-27 82 -69 252h-7q-31 -135 -67 -250z" />
<glyph unicode="&#xc3;" horiz-adv-x="1253" d="M51 0l469 1380h215l471 -1380h-190l-148 434h-489l-143 -434h-185zM379 1464q-2 95 36 152t103 57q43 0 121 -41q66 -37 98 -37q25 0 38 16.5t18 63.5h94q4 -199 -137 -198q-47 0 -125 39q-10 6 -31 17t-36 16t-30 5q-43 0 -53 -90h-96zM416 573h415l-137 398 q-27 82 -69 252h-7q-31 -135 -67 -250z" />
<glyph unicode="&#xc4;" horiz-adv-x="1253" d="M51 0l469 1380h215l471 -1380h-190l-148 434h-489l-143 -434h-185zM344 1577q0 43 28.5 72.5t71.5 29.5t71 -29.5t28 -72.5q0 -45 -28 -74.5t-71 -29.5h-2q-43 0 -70.5 30.5t-27.5 73.5zM416 573h415l-137 398q-27 82 -69 252h-7q-31 -135 -67 -250zM723 1577 q0 43 29.5 72.5t72.5 29.5t71 -29.5t28 -72.5q0 -45 -28 -74.5t-73 -29.5h-2q-43 0 -70.5 30.5t-27.5 73.5z" />
<glyph unicode="&#xc5;" horiz-adv-x="1253" d="M51 0l469 1380h215l471 -1380h-190l-148 434h-489l-143 -434h-185zM416 573h415l-137 398q-27 82 -69 252h-7q-31 -135 -67 -250zM424 1614q0 80 56.5 133t148.5 53h2q92 0 147.5 -53t55.5 -133q0 -78 -57.5 -129t-147.5 -51t-147.5 52t-57.5 128zM528 1614q0 -41 28 -73 t71 -32q45 0 72.5 31t27.5 78q0 45 -27.5 76.5t-72.5 31.5h-2q-43 0 -70 -32.5t-27 -79.5z" />
<glyph unicode="&#xc6;" horiz-adv-x="1613" d="M-2 0l631 1380h862v-149h-586l53 -440h515v-148h-492l61 -493h504v-150h-659l-62 485h-422l-221 -485h-184zM463 631h344l-45 397q-20 164 -25 223h-8q-35 -92 -88 -217z" />
<glyph unicode="&#xc7;" horiz-adv-x="1198" d="M74 678q0 213 91 378t255 255t377 90q207 0 325 -60l-43 -147q-119 57 -278 57q-162 0 -284 -67.5t-188.5 -195.5t-66.5 -306q0 -256 140.5 -404.5t390.5 -148.5q172 0 292 57l35 -141q-116 -63 -358 -65l-51 -82q61 -12 102 -53.5t41 -100.5q0 -84 -60.5 -125 t-150.5 -41q-82 0 -145 35l28 92q47 -29 113 -29q37 0 62.5 16.5t25.5 47.5q0 72 -160 88l86 158q-172 20 -302 105t-203.5 234.5t-73.5 352.5z" />
<glyph unicode="&#xc8;" horiz-adv-x="1007" d="M154 0v1380h747v-149h-567v-436h534v-148h-534v-497h598v-150h-778zM246 1694h217l190 -238h-145z" />
<glyph unicode="&#xc9;" horiz-adv-x="1007" d="M154 0v1380h747v-149h-567v-436h534v-148h-534v-497h598v-150h-778zM430 1454l191 240h217l-263 -240h-145z" />
<glyph unicode="&#xca;" horiz-adv-x="1007" d="M154 0v1380h747v-149h-567v-436h534v-148h-534v-497h598v-150h-778zM248 1454l209 234h137l215 -234h-152l-129 141h-4l-131 -141h-145z" />
<glyph unicode="&#xcb;" horiz-adv-x="1007" d="M154 0v1380h747v-149h-567v-436h534v-148h-534v-497h598v-150h-778zM233 1581q0 43 29 72.5t72 29.5t70.5 -29.5t27.5 -72.5q0 -45 -27.5 -74.5t-70.5 -29.5h-2q-43 0 -71 30.5t-28 73.5zM612 1581q0 43 30 72.5t73 29.5t70.5 -29.5t27.5 -72.5q0 -45 -27.5 -74.5 t-72.5 -29.5h-2q-43 0 -71 30.5t-28 73.5z" />
<glyph unicode="&#xcc;" horiz-adv-x="489" d="M-53 1694h217l190 -238h-145zM154 0v1380h180v-1380h-180z" />
<glyph unicode="&#xcd;" horiz-adv-x="489" d="M135 1454l191 240h217l-262 -240h-146zM154 0v1380h180v-1380h-180z" />
<glyph unicode="&#xce;" horiz-adv-x="489" d="M-35 1454l209 234h137l215 -234h-151l-129 141h-4l-131 -141h-146zM154 0v1380h180v-1380h-180z" />
<glyph unicode="&#xcf;" horiz-adv-x="489" d="M-43 1581q0 43 28.5 72.5t71.5 29.5t71 -29.5t28 -72.5q0 -45 -28 -74.5t-71 -29.5h-2q-43 0 -70.5 30.5t-27.5 73.5zM154 0v1380h180v-1380h-180zM336 1581q0 43 29.5 72.5t72.5 29.5t71 -29.5t28 -72.5q0 -45 -28 -74.5t-73 -29.5h-2q-43 0 -70.5 30.5t-27.5 73.5z" />
<glyph unicode="&#xd0;" horiz-adv-x="1374" d="M-4 629v143h168v596q193 29 381 29q377 0 557 -170q197 -178 196 -504q0 -340 -198 -539q-203 -199 -611 -198q-197 0 -325 14v629h-168zM344 137q45 -8 178 -8q287 0 437.5 154.5t150.5 443.5q0 250 -141.5 389t-415.5 139q-125 0 -209 -18v-465h369v-143h-369v-492z " />
<glyph unicode="&#xd1;" horiz-adv-x="1347" d="M156 0v1380h196l441 -698q160 -258 245 -449l6 3q-20 231 -20 565v579h168v-1380h-180l-439 700q-172 272 -256 461l-6 -2q12 -209 13 -569v-590h-168zM430 1464q-2 95 36 152t103 57q43 0 121 -41q66 -37 98 -37q25 0 38.5 16.5t17.5 63.5h94q4 -199 -137 -198 q-47 0 -125 39q-10 6 -30.5 17t-36 16t-29.5 5q-43 0 -54 -90h-96z" />
<glyph unicode="&#xd2;" horiz-adv-x="1411" d="M74 678q0 215 82 380t227 255t330 90q186 0 327.5 -89t218 -248t76.5 -361q0 -229 -85 -393.5t-230.5 -249.5t-323.5 -85h-2q-182 0 -322.5 88.5t-219 247t-78.5 365.5zM262 682q0 -147 52.5 -275t152.5 -206t235 -78h3q137 0 237 76.5t152.5 207t52.5 289.5 q0 143 -50 272.5t-149.5 209t-240.5 79.5q-143 0 -244 -78.5t-151 -210.5t-50 -286zM410 1700h217l190 -238h-145z" />
<glyph unicode="&#xd3;" horiz-adv-x="1411" d="M74 678q0 215 82 380t227 255t330 90q186 0 327.5 -89t218 -248t76.5 -361q0 -229 -85 -393.5t-230.5 -249.5t-323.5 -85h-2q-182 0 -322.5 88.5t-219 247t-78.5 365.5zM262 682q0 -147 52.5 -275t152.5 -206t235 -78h3q137 0 237 76.5t152.5 207t52.5 289.5 q0 143 -50 272.5t-149.5 209t-240.5 79.5q-143 0 -244 -78.5t-151 -210.5t-50 -286zM598 1460l190 240h218l-263 -240h-145z" />
<glyph unicode="&#xd4;" horiz-adv-x="1411" d="M74 678q0 215 82 380t227 255t330 90q186 0 327.5 -89t218 -248t76.5 -361q0 -229 -85 -393.5t-230.5 -249.5t-323.5 -85h-2q-182 0 -322.5 88.5t-219 247t-78.5 365.5zM262 682q0 -147 52.5 -275t152.5 -206t235 -78h3q137 0 237 76.5t152.5 207t52.5 289.5 q0 143 -50 272.5t-149.5 209t-240.5 79.5q-143 0 -244 -78.5t-151 -210.5t-50 -286zM426 1460l209 234h137l215 -234h-151l-129 142h-5l-131 -142h-145z" />
<glyph unicode="&#xd5;" horiz-adv-x="1411" d="M74 678q0 215 82 380t227 255t330 90q186 0 327.5 -89t218 -248t76.5 -361q0 -229 -85 -393.5t-230.5 -249.5t-323.5 -85h-2q-182 0 -322.5 88.5t-219 247t-78.5 365.5zM262 682q0 -147 52.5 -275t152.5 -206t235 -78h3q137 0 237 76.5t152.5 207t52.5 289.5 q0 143 -50 272.5t-149.5 209t-240.5 79.5q-143 0 -244 -78.5t-151 -210.5t-50 -286zM453 1468q-2 95 35.5 152t103.5 57q43 0 121 -41q66 -37 98 -37q25 0 38 16.5t17 63.5h95q4 -199 -138 -198q-47 0 -125 39q-10 6 -30.5 17t-36 16.5t-29.5 5.5q-43 0 -53 -91h-96z" />
<glyph unicode="&#xd6;" horiz-adv-x="1411" d="M74 678q0 215 82 380t227 255t330 90q186 0 327.5 -89t218 -248t76.5 -361q0 -229 -85 -393.5t-230.5 -249.5t-323.5 -85h-2q-182 0 -322.5 88.5t-219 247t-78.5 365.5zM262 682q0 -147 52.5 -275t152.5 -206t235 -78h3q137 0 237 76.5t152.5 207t52.5 289.5 q0 143 -50 272.5t-149.5 209t-240.5 79.5q-143 0 -244 -78.5t-151 -210.5t-50 -286zM418 1581q0 43 28.5 72.5t71.5 29.5t70.5 -29.5t27.5 -72.5q0 -45 -27.5 -74.5t-70.5 -29.5h-2q-43 0 -70.5 30.5t-27.5 73.5zM797 1581q0 43 29.5 72.5t72.5 29.5t70.5 -29.5t27.5 -72.5 q0 -45 -27.5 -74.5t-72.5 -29.5h-2q-43 0 -70.5 30.5t-27.5 73.5z" />
<glyph unicode="&#xd7;" horiz-adv-x="1220" d="M82 90l440 451l-440 448l90 90l438 -448l439 448l90 -90l-439 -448l439 -451l-90 -90l-439 449l-438 -449z" />
<glyph unicode="&#xd8;" horiz-adv-x="1411" d="M74 682q0 213 83 377t228 254t326 90q195 0 344 -109l121 166l108 -74l-127 -176q86 -94 132 -225t46 -283q0 -231 -86 -395t-229 -247t-313 -83q-197 0 -349 111l-129 -176l-100 80l127 178q-88 94 -135 226t-47 286zM256 690q0 -199 100 -368l4 2l607 839 q-113 97 -260 97q-143 0 -245 -80t-154 -210t-52 -280zM446 219q105 -98 259 -98q139 0 240.5 77.5t154.5 209t53 288.5q0 201 -96 359h-6z" />
<glyph unicode="&#xd9;" horiz-adv-x="1325" d="M154 567v813h180v-819q0 -221 88 -329.5t233 -108.5q158 0 247 108.5t89 329.5v819h180v-807q0 -303 -142 -449.5t-380 -146.5q-227 0 -361 142.5t-134 447.5zM377 1694h217l190 -238h-145z" />
<glyph unicode="&#xda;" horiz-adv-x="1325" d="M154 567v813h180v-819q0 -221 88 -329.5t233 -108.5q158 0 247 108.5t89 329.5v819h180v-807q0 -303 -142 -449.5t-380 -146.5q-227 0 -361 142.5t-134 447.5zM561 1454l191 240h217l-262 -240h-146z" />
<glyph unicode="&#xdb;" horiz-adv-x="1325" d="M154 567v813h180v-819q0 -221 88 -329.5t233 -108.5q158 0 247 108.5t89 329.5v819h180v-807q0 -303 -142 -449.5t-380 -146.5q-227 0 -361 142.5t-134 447.5zM395 1454l209 234h137l215 -234h-151l-129 141h-4l-131 -141h-146z" />
<glyph unicode="&#xdc;" horiz-adv-x="1325" d="M154 567v813h180v-819q0 -221 88 -329.5t233 -108.5q158 0 247 108.5t89 329.5v819h180v-807q0 -303 -142 -449.5t-380 -146.5q-227 0 -361 142.5t-134 447.5zM379 1581q0 43 28.5 72.5t71.5 29.5t71 -29.5t28 -72.5q0 -45 -28 -74.5t-71 -29.5h-2q-43 0 -70.5 30.5 t-27.5 73.5zM758 1581q0 43 29.5 72.5t72.5 29.5t70.5 -29.5t27.5 -72.5q0 -45 -27.5 -74.5t-72.5 -29.5h-2q-43 0 -70.5 30.5t-27.5 73.5z" />
<glyph unicode="&#xdd;" horiz-adv-x="1107" d="M25 1380h204l195 -381l35 -71q70 -139 102 -213h4q29 70 107 219l33 65l198 381h201l-461 -792v-588h-180v586zM467 1444l190 239h217l-262 -239h-145z" />
<glyph unicode="&#xde;" horiz-adv-x="1087" d="M156 0v1380h176v-268q78 14 196 14q240 0 365 -112q113 -102 113 -266q0 -213 -142.5 -326t-376.5 -113q-84 0 -155 10v-319h-176zM332 465q57 -12 153 -12q164 0 253 73.5t89 200.5q0 129 -85 193.5t-230 64.5q-115 0 -180 -16v-504z" />
<glyph unicode="&#xdf;" horiz-adv-x="1122" d="M150 0v926q0 315 147 446q113 104 297 105q100 0 184 -40t133.5 -119t49.5 -188q0 -94 -48 -167q-147 -61 -147 -166q0 -47 23.5 -83t80.5 -96q82 -82 124 -149.5t42 -165.5q0 -145 -99 -235.5t-267 -90.5q-133 0 -217 43l32 138q82 -41 172 -41q94 0 147.5 49t53.5 123 q0 61 -26.5 109t-83.5 102q-80 76 -120 136t-40 136q0 164 182 252q18 37 18 88q0 104 -58 163.5t-155 59.5q-123 0 -184 -94t-61 -307v-934h-180z" />
<glyph unicode="&#xe0;" horiz-adv-x="987" d="M72 262q0 180 154.5 275.5t441.5 93.5v20q0 229 -222 230q-156 0 -264 -74l-41 121q137 86 328 86q209 0 294 -115t85 -291v-370q0 -144 14 -238h-162l-16 125h-6q-43 -63 -123 -105.5t-180 -42.5q-96 0 -165 40t-103.5 105.5t-34.5 139.5zM195 1419h196l180 -293h-127z M252 283q0 -84 48 -128t120 -44q92 0 155.5 48t88.5 117q8 25 8 58v172q-420 8 -420 -223z" />
<glyph unicode="&#xe1;" horiz-adv-x="987" d="M72 262q0 180 154.5 275.5t441.5 93.5v20q0 229 -222 230q-156 0 -264 -74l-41 121q137 86 328 86q209 0 294 -115t85 -291v-370q0 -144 14 -238h-162l-16 125h-6q-43 -63 -123 -105.5t-180 -42.5q-96 0 -165 40t-103.5 105.5t-34.5 139.5zM252 283q0 -84 48 -128 t120 -44q92 0 155.5 48t88.5 117q8 25 8 58v172q-420 8 -420 -223zM383 1126l180 293h197l-250 -293h-127z" />
<glyph unicode="&#xe2;" horiz-adv-x="987" d="M72 262q0 180 154.5 275.5t441.5 93.5v20q0 229 -222 230q-156 0 -264 -74l-41 121q137 86 328 86q209 0 294 -115t85 -291v-370q0 -144 14 -238h-162l-16 125h-6q-43 -63 -123 -105.5t-180 -42.5q-96 0 -165 40t-103.5 105.5t-34.5 139.5zM229 1126l193 293h125 l196 -293h-137l-119 193h-4l-118 -193h-136zM252 283q0 -84 48 -128t120 -44q92 0 155.5 48t88.5 117q8 25 8 58v172q-420 8 -420 -223z" />
<glyph unicode="&#xe3;" horiz-adv-x="987" d="M72 262q0 180 154.5 275.5t441.5 93.5v20q0 229 -222 230q-156 0 -264 -74l-41 121q137 86 328 86q209 0 294 -115t85 -291v-370q0 -144 14 -238h-162l-16 125h-6q-43 -63 -123 -105.5t-180 -42.5q-96 0 -165 40t-103.5 105.5t-34.5 139.5zM236 1161q-3 99 34 156t105 57 q31 0 54.5 -10t72.5 -35q61 -35 88 -35q49 0 55 86h96q4 -207 -139 -206q-45 0 -127 43q-61 37 -88 36q-47 0 -53 -92h-98zM252 283q0 -84 48 -128t120 -44q92 0 155.5 48t88.5 117q8 25 8 58v172q-420 8 -420 -223z" />
<glyph unicode="&#xe4;" horiz-adv-x="987" d="M72 262q0 180 154.5 275.5t441.5 93.5v20q0 229 -222 230q-156 0 -264 -74l-41 121q137 86 328 86q209 0 294 -115t85 -291v-370q0 -144 14 -238h-162l-16 125h-6q-43 -63 -123 -105.5t-180 -42.5q-96 0 -165 40t-103.5 105.5t-34.5 139.5zM201 1272q0 43 29.5 73.5 t74.5 30.5q41 0 69.5 -29.5t28.5 -74.5q0 -43 -28.5 -74t-71.5 -31h-2q-43 0 -71.5 31t-28.5 74zM252 283q0 -84 48 -128t120 -44q92 0 155.5 48t88.5 117q8 25 8 58v172q-420 8 -420 -223zM582 1272q0 43 29.5 73.5t72.5 30.5t71.5 -29.5t28.5 -74.5q0 -43 -28.5 -74 t-71.5 -31h-2q-43 0 -71.5 31t-28.5 74z" />
<glyph unicode="&#xe5;" horiz-adv-x="987" d="M72 262q0 180 154.5 275.5t441.5 93.5v20q0 229 -222 230q-156 0 -264 -74l-41 121q137 86 328 86q209 0 294 -115t85 -291v-370q0 -144 14 -238h-162l-16 125h-6q-43 -63 -123 -105.5t-180 -42.5q-96 0 -165 40t-103.5 105.5t-34.5 139.5zM252 283q0 -84 48 -128 t120 -44q92 0 155.5 48t88.5 117q8 25 8 58v172q-420 8 -420 -223zM283 1288q0 82 57 137.5t152 55.5h2q90 0 146 -55.5t56 -137.5q0 -80 -58 -134t-146 -54q-90 0 -149.5 54t-59.5 134zM387 1288q0 -43 28.5 -76.5t73.5 -33.5q47 0 77 32.5t30 79.5t-29.5 80t-77.5 33h-2 q-45 0 -72.5 -34t-27.5 -81z" />
<glyph unicode="&#xe6;" horiz-adv-x="1583" d="M74 260q0 174 155.5 268.5t440.5 89.5v41q0 37 -18.5 88.5t-70 92.5t-141.5 41q-68 0 -137.5 -20.5t-116.5 -53.5l-43 119q66 41 150 64.5t160 23.5q252 0 319 -209h4q49 98 139.5 153.5t206.5 55.5q139 0 226.5 -75t124 -180.5t36.5 -201.5q0 -51 -6 -80h-665 q-4 -172 84 -266t233 -94q152 0 270 55l33 -127q-129 -68 -325 -68q-131 0 -232.5 57.5t-144.5 162.5h-6q-47 -102 -143.5 -161t-223.5 -59q-147 0 -228 83t-81 200zM252 274q0 -78 50 -120.5t126 -42.5q90 0 151.5 48t84.5 122q10 37 10 71v146q-422 7 -422 -224zM838 606 h499q2 58 -20.5 123.5t-75.5 111.5t-137 46t-143.5 -44t-89 -108.5t-33.5 -128.5z" />
<glyph unicode="&#xe7;" horiz-adv-x="915" d="M78 485q0 152 65.5 273t186.5 188.5t280 67.5q152 0 250 -53l-41 -138q-90 47 -209 47q-164 0 -257 -107.5t-93 -268.5q0 -113 45 -197t123 -129t176 -45q109 0 221 47l31 -133q-100 -55 -258 -57l-51 -82q61 -12 102 -51.5t41 -98.5q0 -86 -60.5 -128t-152.5 -42 q-84 0 -143 35l31 92q47 -29 112 -29q88 0 88 66q-2 70 -159 86l86 158q-188 23 -301 159t-113 340z" />
<glyph unicode="&#xe8;" horiz-adv-x="1026" d="M78 479q0 150 57.5 271.5t162.5 192.5t247 71q150 0 241 -74t128.5 -180.5t37.5 -212.5q0 -53 -6 -84h-694q2 -172 97 -257t241 -85q158 0 274 51l33 -129q-141 -63 -332 -63q-150 0 -259 62t-168.5 176t-59.5 261zM254 592h524q2 110 -55 201.5t-193 91.5 q-125 0 -194.5 -90t-81.5 -203zM279 1419h196l180 -293h-127z" />
<glyph unicode="&#xe9;" horiz-adv-x="1026" d="M78 479q0 150 57.5 271.5t162.5 192.5t247 71q150 0 241 -74t128.5 -180.5t37.5 -212.5q0 -53 -6 -84h-694q2 -172 97 -257t241 -85q158 0 274 51l33 -129q-141 -63 -332 -63q-150 0 -259 62t-168.5 176t-59.5 261zM254 592h524q2 110 -55 201.5t-193 91.5 q-125 0 -194.5 -90t-81.5 -203zM442 1126l181 293h196l-250 -293h-127z" />
<glyph unicode="&#xea;" horiz-adv-x="1026" d="M78 479q0 150 57.5 271.5t162.5 192.5t247 71q150 0 241 -74t128.5 -180.5t37.5 -212.5q0 -53 -6 -84h-694q2 -172 97 -257t241 -85q158 0 274 51l33 -129q-141 -63 -332 -63q-150 0 -259 62t-168.5 176t-59.5 261zM254 592h524q2 110 -55 201.5t-193 91.5 q-125 0 -194.5 -90t-81.5 -203zM285 1126l192 293h125l197 -293h-137l-119 193h-4l-119 -193h-135z" />
<glyph unicode="&#xeb;" horiz-adv-x="1026" d="M78 479q0 150 57.5 271.5t162.5 192.5t247 71q150 0 241 -74t128.5 -180.5t37.5 -212.5q0 -53 -6 -84h-694q2 -172 97 -257t241 -85q158 0 274 51l33 -129q-141 -63 -332 -63q-150 0 -259 62t-168.5 176t-59.5 261zM254 592h524q2 110 -55 201.5t-193 91.5 q-125 0 -194.5 -90t-81.5 -203zM258 1272q0 43 29.5 73.5t74.5 30.5q41 0 70 -29.5t29 -74.5q0 -43 -29 -74t-72 -31h-2q-43 0 -71.5 31t-28.5 74zM639 1272q0 43 29.5 73.5t72.5 30.5t72 -29.5t29 -74.5q0 -43 -29 -74t-72 -31h-2q-43 0 -71.5 31t-28.5 74z" />
<glyph unicode="&#xec;" horiz-adv-x="479" d="M-57 1419h196l180 -293h-126zM150 0v991h180v-991h-180z" />
<glyph unicode="&#xed;" horiz-adv-x="479" d="M137 1126l180 293h197l-250 -293h-127zM150 0v991h180v-991h-180z" />
<glyph unicode="&#xee;" horiz-adv-x="479" d="M-16 1126l192 293h125l197 -293h-138l-118 193h-4l-119 -193h-135zM150 0v991h180v-991h-180z" />
<glyph unicode="&#xef;" horiz-adv-x="479" d="M-53 1272q0 43 29.5 73.5t74.5 30.5q41 0 70 -29.5t29 -74.5q0 -43 -29 -74t-72 -31h-2q-43 0 -71.5 31t-28.5 74zM150 0v991h180v-991h-180zM328 1272q0 43 29.5 73.5t72.5 30.5t71.5 -29.5t28.5 -74.5q0 -43 -28.5 -74t-71.5 -31h-2q-43 0 -71.5 31t-28.5 74z" />
<glyph unicode="&#xf0;" horiz-adv-x="1107" d="M78 483q0 154 64.5 268.5t169 176t223.5 63.5q133 0 231 -88l4 6q-92 150 -242 265l-290 -136l-39 88l237 113q-72 53 -213 123l80 113q162 -76 287 -166l260 125l45 -91l-217 -102q168 -137 260 -326q88 -176 88 -399q0 -180 -68.5 -301t-177 -179.5t-233.5 -58.5 q-133 0 -240.5 62.5t-168 177.5t-60.5 266zM262 485q0 -102 37 -188t102.5 -135t145.5 -49h2q133 0 213 107.5t80 277.5q0 188 -70 274q-84 96 -217 96q-100 0 -165.5 -58t-96.5 -146.5t-31 -178.5z" />
<glyph unicode="&#xf1;" horiz-adv-x="1136" d="M141 991h160l10 -162h4q41 78 127 131.5t201 53.5q80 0 160 -38t135 -132t55 -252v-592h-180v571q0 131 -55.5 213t-173.5 82q-84 0 -149.5 -53t-92.5 -131q-12 -33 -12 -84v-598h-180v723q-1 159 -9 268zM317 1161q-2 99 35 156t105 57q31 0 54.5 -10t72.5 -35 q61 -35 88 -35q49 0 55 86h96q4 -207 -139 -206q-45 0 -127 43q-61 37 -88 36q-47 0 -53 -92h-99z" />
<glyph unicode="&#xf2;" horiz-adv-x="1124" d="M78 487q0 162 65.5 281t177 182.5t248.5 63.5q141 0 250 -64.5t168.5 -179.5t59.5 -264q0 -174 -71 -294t-183.5 -177.5t-237.5 -57.5h-2q-133 0 -241.5 62.5t-171 178.5t-62.5 269zM262 494q0 -109 38 -195t105.5 -136t153.5 -50h2q86 0 154.5 50t107.5 138t39 199 q0 90 -31.5 177t-98 144.5t-167.5 57.5q-100 0 -168.5 -55.5t-101.5 -143.5t-33 -186zM299 1419h197l180 -293h-127z" />
<glyph unicode="&#xf3;" horiz-adv-x="1124" d="M78 487q0 162 65.5 281t177 182.5t248.5 63.5q141 0 250 -64.5t168.5 -179.5t59.5 -264q0 -174 -71 -294t-183.5 -177.5t-237.5 -57.5h-2q-133 0 -241.5 62.5t-171 178.5t-62.5 269zM262 494q0 -109 38 -195t105.5 -136t153.5 -50h2q86 0 154.5 50t107.5 138t39 199 q0 90 -31.5 177t-98 144.5t-167.5 57.5q-100 0 -168.5 -55.5t-101.5 -143.5t-33 -186zM455 1126l180 293h196l-249 -293h-127z" />
<glyph unicode="&#xf4;" horiz-adv-x="1124" d="M78 487q0 162 65.5 281t177 182.5t248.5 63.5q141 0 250 -64.5t168.5 -179.5t59.5 -264q0 -174 -71 -294t-183.5 -177.5t-237.5 -57.5h-2q-133 0 -241.5 62.5t-171 178.5t-62.5 269zM262 494q0 -109 38 -195t105.5 -136t153.5 -50h2q86 0 154.5 50t107.5 138t39 199 q0 90 -31.5 177t-98 144.5t-167.5 57.5q-100 0 -168.5 -55.5t-101.5 -143.5t-33 -186zM307 1126l193 293h125l196 -293h-137l-119 193h-4l-119 -193h-135z" />
<glyph unicode="&#xf5;" horiz-adv-x="1124" d="M78 487q0 162 65.5 281t177 182.5t248.5 63.5q141 0 250 -64.5t168.5 -179.5t59.5 -264q0 -174 -71 -294t-183.5 -177.5t-237.5 -57.5h-2q-133 0 -241.5 62.5t-171 178.5t-62.5 269zM262 494q0 -109 38 -195t105.5 -136t153.5 -50h2q86 0 154.5 50t107.5 138t39 199 q0 90 -31.5 177t-98 144.5t-167.5 57.5q-100 0 -168.5 -55.5t-101.5 -143.5t-33 -186zM311 1161q-2 99 35 156t105 57q31 0 54 -10t73 -35q61 -35 88 -35q49 0 55 86h96q4 -207 -139 -206q-45 0 -127 43q-61 37 -88 36q-47 0 -53 -92h-99z" />
<glyph unicode="&#xf6;" horiz-adv-x="1124" d="M78 487q0 162 65.5 281t177 182.5t248.5 63.5q141 0 250 -64.5t168.5 -179.5t59.5 -264q0 -174 -71 -294t-183.5 -177.5t-237.5 -57.5h-2q-133 0 -241.5 62.5t-171 178.5t-62.5 269zM262 494q0 -109 38 -195t105.5 -136t153.5 -50h2q86 0 154.5 50t107.5 138t39 199 q0 90 -31.5 177t-98 144.5t-167.5 57.5q-100 0 -168.5 -55.5t-101.5 -143.5t-33 -186zM270 1272q0 43 30 73.5t75 30.5q41 0 69.5 -29.5t28.5 -74.5q0 -43 -28.5 -74t-71.5 -31h-2q-43 0 -72 31t-29 74zM651 1272q0 43 30 73.5t73 30.5t71.5 -29.5t28.5 -74.5 q0 -43 -28.5 -74t-71.5 -31h-2q-43 0 -72 31t-29 74z" />
<glyph unicode="&#xf7;" horiz-adv-x="1220" d="M82 485v123h1057v-123h-1057zM502 186q0 51 30.5 83t77.5 32q49 0 79 -31.5t30 -83.5q0 -49 -30 -80.5t-79 -31.5h-2q-47 0 -76.5 31.5t-29.5 80.5zM502 905q0 51 30.5 83t77.5 32q49 0 79 -32t30 -83q0 -49 -30 -80.5t-79 -31.5h-2q-47 0 -76.5 31.5t-29.5 80.5z" />
<glyph unicode="&#xf8;" horiz-adv-x="1124" d="M78 489q0 160 64.5 279t175 182.5t247.5 63.5h2q141 0 250 -70l86 123l80 -55l-88 -127q152 -147 152 -381q0 -172 -70 -291t-180.5 -177.5t-233.5 -58.5q-145 0 -252 70l-90 -125l-76 62l86 122q-154 143 -153 383zM254 494q0 -147 72 -248l4 -2l405 575q-70 60 -174 60 t-173 -56.5t-101.5 -144.5t-32.5 -184zM391 170q70 -57 166 -57q139 0 226 108.5t87 276.5q0 139 -69 241l-4 2z" />
<glyph unicode="&#xf9;" horiz-adv-x="1128" d="M143 412v579h181v-547q0 -317 221 -317q84 0 147.5 49t89.5 117q16 39 17 92v606h180v-719q0 -168 8 -272h-160l-10 162h-4q-41 -74 -125 -129.5t-203 -55.5q-141 0 -241.5 99.5t-100.5 335.5zM289 1419h196l181 -293h-127z" />
<glyph unicode="&#xfa;" horiz-adv-x="1128" d="M143 412v579h181v-547q0 -317 221 -317q84 0 147.5 49t89.5 117q16 39 17 92v606h180v-719q0 -168 8 -272h-160l-10 162h-4q-41 -74 -125 -129.5t-203 -55.5q-141 0 -241.5 99.5t-100.5 335.5zM479 1126l180 293h197l-250 -293h-127z" />
<glyph unicode="&#xfb;" horiz-adv-x="1128" d="M143 412v579h181v-547q0 -317 221 -317q84 0 147.5 49t89.5 117q16 39 17 92v606h180v-719q0 -168 8 -272h-160l-10 162h-4q-41 -74 -125 -129.5t-203 -55.5q-141 0 -241.5 99.5t-100.5 335.5zM309 1126l193 293h125l196 -293h-137l-119 193h-4l-119 -193h-135z" />
<glyph unicode="&#xfc;" horiz-adv-x="1128" d="M143 412v579h181v-547q0 -317 221 -317q84 0 147.5 49t89.5 117q16 39 17 92v606h180v-719q0 -168 8 -272h-160l-10 162h-4q-41 -74 -125 -129.5t-203 -55.5q-141 0 -241.5 99.5t-100.5 335.5zM279 1272q0 43 29.5 73.5t74.5 30.5q41 0 69.5 -29.5t28.5 -74.5 q0 -43 -28.5 -74t-71.5 -31h-2q-43 0 -71.5 31t-28.5 74zM659 1272q0 43 30 73.5t73 30.5t71.5 -29.5t28.5 -74.5q0 -43 -28.5 -74t-71.5 -31h-2q-43 0 -72 31t-29 74z" />
<glyph unicode="&#xfd;" horiz-adv-x="964" d="M18 991h197l215 -585q37 -96 66 -203h4q16 53 20 65q23 82 43 142l197 581h190l-270 -706q-100 -262 -175 -401.5t-165 -219.5q-113 -94 -221 -115l-45 150q86 27 157 88q92 72 152 201q14 33 14 43q0 16 -14 47zM403 1126l181 293h196l-250 -293h-127z" />
<glyph unicode="&#xfe;" horiz-adv-x="1165" d="M150 -406v1778h180v-536h4q111 178 340 178q117 0 211 -62.5t149.5 -178.5t55.5 -265q0 -172 -63.5 -292t-167 -179.5t-220.5 -59.5q-98 0 -178 41t-127 115h-4v-539h-180zM330 391q0 -51 18 -90q31 -84 102.5 -133t161.5 -49q133 0 214 105.5t81 281.5q0 154 -78.5 259 t-212.5 105q-88 0 -161.5 -52t-106.5 -142q-18 -63 -18 -101v-184z" />
<glyph unicode="&#xff;" horiz-adv-x="964" d="M18 991h197l215 -585q37 -96 66 -203h4q16 53 20 65q23 82 43 142l197 581h190l-270 -706q-100 -262 -175 -401.5t-165 -219.5q-113 -94 -221 -115l-45 150q86 27 157 88q92 72 152 201q14 33 14 43q0 16 -14 47zM215 1272q0 43 29.5 73.5t74.5 30.5q41 0 70 -29.5 t29 -74.5q0 -43 -29 -74t-72 -31h-2q-43 0 -71.5 31t-28.5 74zM596 1272q0 43 29.5 73.5t72.5 30.5t72 -29.5t29 -74.5q0 -43 -29 -74t-72 -31h-2q-43 0 -71.5 31t-28.5 74z" />
<glyph unicode="&#x152;" horiz-adv-x="1830" d="M74 680q0 221 86 385t240.5 251t353.5 87q53 0 180 -10q102 -12 131 -13h659v-149h-567v-438h535v-148h-535v-495h598v-150h-706q-37 0 -136 -12q-127 -10 -170 -11q-209 0 -360.5 92.5t-230 251t-78.5 359.5zM262 688q0 -168 61.5 -296t177 -198.5t275.5 -70.5 q131 0 201 29v1075q-88 30 -219 30q-152 0 -263.5 -71.5t-172 -200.5t-60.5 -297z" />
<glyph unicode="&#x153;" horiz-adv-x="1767" d="M78 489q0 158 62.5 277t171 183.5t241.5 64.5q127 0 227.5 -62.5t145.5 -175.5h4q53 117 148.5 177.5t213.5 60.5q147 0 237.5 -75t127.5 -180.5t37 -209.5q0 -55 -6 -84h-674q0 -164 91 -255t238 -91q135 0 267 55l32 -129q-57 -33 -146 -50.5t-175 -17.5 q-281 0 -393 234h-4q-53 -115 -157.5 -174.5t-225.5 -59.5q-131 0 -236.5 63.5t-166 179.5t-60.5 269zM262 494q0 -106 38 -193.5t104.5 -137.5t150.5 -50q131 0 211 106.5t80 276.5q0 156 -75 269.5t-216 113.5h-2q-100 0 -165.5 -58.5t-95.5 -145.5t-30 -181zM1012 594 h508q2 108 -53.5 199.5t-188.5 91.5q-121 0 -188.5 -89t-77.5 -202z" />
<glyph unicode="&#x178;" horiz-adv-x="1107" d="M25 1380h204l195 -381l35 -71q70 -139 102 -213h4q29 70 107 219l33 65l198 381h201l-461 -792v-588h-180v586zM285 1567q0 43 28.5 72.5t71.5 29.5t70.5 -29.5t27.5 -72.5q0 -45 -27.5 -75t-70.5 -30h-2q-43 0 -70.5 31t-27.5 74zM664 1567q0 43 29.5 72.5t72.5 29.5 t70.5 -29.5t27.5 -72.5q0 -45 -27.5 -75t-72.5 -30h-2q-43 0 -70.5 31t-27.5 74z" />
<glyph unicode="&#x2c6;" horiz-adv-x="614" d="M51 1126l193 293h125l196 -293h-137l-119 193h-4l-119 -193h-135z" />
<glyph unicode="&#x2dc;" horiz-adv-x="614" d="M55 1161q-2 99 35 156t105 57q31 0 54 -10t73 -35q61 -35 88 -35q49 0 55 86h96q4 -207 -139 -206q-45 0 -127 43q-61 37 -88 36q-47 0 -53 -92h-99z" />
<glyph unicode="&#x2000;" horiz-adv-x="900" />
<glyph unicode="&#x2001;" horiz-adv-x="1800" />
<glyph unicode="&#x2002;" horiz-adv-x="900" />
<glyph unicode="&#x2003;" horiz-adv-x="1800" />
<glyph unicode="&#x2004;" horiz-adv-x="600" />
<glyph unicode="&#x2005;" horiz-adv-x="450" />
<glyph unicode="&#x2006;" horiz-adv-x="300" />
<glyph unicode="&#x2007;" horiz-adv-x="300" />
<glyph unicode="&#x2008;" horiz-adv-x="225" />
<glyph unicode="&#x2009;" horiz-adv-x="360" />
<glyph unicode="&#x200a;" horiz-adv-x="100" />
<glyph unicode="&#x2010;" horiz-adv-x="628" d="M61 487v131h506v-131h-506z" />
<glyph unicode="&#x2011;" horiz-adv-x="628" d="M61 487v131h506v-131h-506z" />
<glyph unicode="&#x2012;" horiz-adv-x="628" d="M61 487v131h506v-131h-506z" />
<glyph unicode="&#x2013;" horiz-adv-x="1024" d="M61 459v123h902v-123h-902z" />
<glyph unicode="&#x2014;" horiz-adv-x="2048" d="M61 459v123h1926v-123h-1926z" />
<glyph unicode="&#x2018;" horiz-adv-x="423" d="M72 918q34 126 90.5 270.5t99.5 216.5l115 12q-33 -94 -69 -233.5t-52 -245.5z" />
<glyph unicode="&#x2019;" horiz-adv-x="423" d="M70 918q33 94 68.5 233t51.5 246l185 20q-35 -127 -91.5 -271.5t-99.5 -215.5z" />
<glyph unicode="&#x201a;" horiz-adv-x="423" d="M43 -240q33 95 68.5 234t52.5 246l184 20q-35 -127 -91 -271.5t-99 -215.5z" />
<glyph unicode="&#x201c;" horiz-adv-x="724" d="M72 918q34 126 90.5 270.5t99.5 216.5l115 12q-33 -94 -69 -233.5t-52 -245.5zM375 918q35 126 91 270.5t99 216.5l115 12q-35 -90 -70 -229t-51 -250z" />
<glyph unicode="&#x201d;" horiz-adv-x="724" d="M70 918q35 90 69.5 229t50.5 250l185 20q-35 -127 -91.5 -271.5t-99.5 -215.5zM373 918q33 94 68.5 233t52.5 246l184 20q-35 -127 -91.5 -271.5t-99.5 -215.5z" />
<glyph unicode="&#x201e;" horiz-adv-x="729" d="M41 -240q35 90 69.5 229.5t51.5 250.5l184 20q-35 -127 -91 -271.5t-99 -215.5zM344 -240q33 95 69 234t52 246l184 20q-35 -127 -91 -271.5t-99 -215.5z" />
<glyph unicode="&#x2022;" horiz-adv-x="577" d="M74 541q0 88 63.5 149.5t151.5 61.5q90 0 152.5 -62.5t62.5 -152.5q0 -88 -62.5 -151.5t-152.5 -63.5h-2q-90 0 -151.5 63.5t-61.5 155.5z" />
<glyph unicode="&#x2026;" horiz-adv-x="2048" d="M219 106q0 55 35 92.5t88 37.5t87 -36t34 -94q0 -55 -34 -92t-89 -37h-2q-51 0 -85 37t-34 92zM901 106q0 55 35 92.5t88 37.5t87 -36t34 -94q0 -55 -34 -92t-89 -37h-2q-51 0 -85 37t-34 92zM1583 106q0 55 35 92.5t88 37.5t87 -36t34 -94q0 -55 -34 -92t-89 -37h-2 q-51 0 -85 37t-34 92z" />
<glyph unicode="&#x202f;" horiz-adv-x="360" />
<glyph unicode="&#x2039;" horiz-adv-x="522" d="M59 516l271 377h145l-272 -377l274 -377h-145z" />
<glyph unicode="&#x203a;" horiz-adv-x="522" d="M47 893h146l272 -377l-272 -377h-144l273 377z" />
<glyph unicode="&#x205f;" horiz-adv-x="450" />
<glyph unicode="&#x20ac;" d="M72 444q0 57 6 84h694q-2 174 -94 259t-242 85q-152 0 -276 -53l-33 129q150 66 334 66q147 0 257.5 -63.5t169 -177.5t58.5 -261q0 -150 -56 -271.5t-161.5 -191t-247.5 -69.5q-150 0 -242 73.5t-129.5 179t-37.5 211.5zM246 399q-2 -108 56 -199t194 -91 q125 0 193.5 89t80.5 201h-524z" />
<glyph unicode="&#x2122;" horiz-adv-x="1267" d="M63 1288v92h465v-92h-178v-465h-110v465h-177zM561 823l41 557h168l94 -272q18 -55 37 -141h4l37 137l96 276h162l41 -557h-111l-20 328l-4 156h-6q-10 -31 -17 -62q-31 -104 -30 -104l-101 -310h-114l-99 318l-41 158h-6q0 -57 -4 -156l-20 -328h-107z" />
<glyph unicode="&#x25fc;" horiz-adv-x="993" d="M0 0v993h993v-993h-993z" />
<glyph unicode="&#xfb01;" horiz-adv-x="1071" d="M29 854v137h137v56q0 199 113.5 314.5t320.5 115.5q70 0 141.5 -18.5t110.5 -47.5l-51 -137q-84 57 -209 57q-248 0 -248 -291v-49h578v-991h-181v854h-395v-854h-180v854h-137z" />
<glyph unicode="&#xfb02;" horiz-adv-x="1071" d="M29 854v137h137v43q0 223 141 342q117 100 318 101q178 0 299 -66v-1411h-181v1311q-49 27 -147 26q-133 0 -192.5 -81.5t-59.5 -213.5v-51h234v-137h-232v-854h-180v854h-137z" />
<glyph unicode="&#xfb03;" horiz-adv-x="1669" d="M29 854v137h137v35q0 211 119 330q96 96 256 96q88 0 174 -43l-51 -133q-57 35 -123 35q-82 0 -129 -54q-68 -68 -68 -231v-35h420v56q0 199 113.5 314.5t320.5 115.5q66 0 135.5 -18.5t110.5 -45.5l-53 -135q-84 53 -201 53q-248 0 -248 -291v-49h578v-991h-181v854 h-395v-854h-180v854h-418v-854h-180v854h-137z" />
<glyph unicode="&#xfb04;" horiz-adv-x="1669" d="M29 854v137h137v23q0 225 117 340q102 98 266 98q86 0 166 -37l-49 -135q-51 31 -123 31q-84 0 -131 -54q-68 -70 -68 -229v-37h420v43q0 223 141 342q117 100 318 101q176 0 297 -66v-1411h-181v1311q-49 27 -147 26q-131 0 -190.5 -81.5t-59.5 -213.5v-51h234v-137 h-232v-854h-180v854h-418v-854h-180v854h-137z" />
</font>
</defs>
</svg>
