<?xml version="1.0" standalone="no"?>
<!DOCTYPE svg PUBLIC "-//W3C//DTD SVG 1.1//EN" "http://www.w3.org/Graphics/SVG/1.1/DTD/svg11.dtd" >
<svg xmlns="http://www.w3.org/2000/svg">
<metadata>
Created by FontPrep 20130207 at Sat Feb 22 11:33:15 2020
 By Mauricio Duran
Copyright (c) 2017 UEFA. All rights reserved.
</metadata>
<defs>
<font id="320abdd6806b0f3b42be735cfb0969c4" horiz-adv-x='1024' >
  <font-face 
    font-family="EuropaTitle-Bold"
    font-weight="700"
    font-stretch="normal"
    units-per-em="2048"
    panose-1="2 2 5 3 6 2 2 2 2 3"
    ascent="1536"
    descent="-512"
    x-height="1411"
    cap-height="1411"
    bbox="-858 -705 2460 2021"
    underline-thickness="178"
    underline-position="-28"
    unicode-range="U+000D-F8FF"
  />
<missing-glyph horiz-adv-x="1341" 
d="M1057 76l-387 567l-385 -567h772zM1100 1280l-387 -571l387 -570v1141zM627 709l-385 571v-1141zM1057 1343h-772l385 -567zM164 1419h1014v-1419h-1014v1419z" />
    <glyph glyph-name=".notdef" horiz-adv-x="1341" 
d="M1057 76l-387 567l-385 -567h772zM1100 1280l-387 -571l387 -570v1141zM627 709l-385 571v-1141zM1057 1343h-772l385 -567zM164 1419h1014v-1419h-1014v1419z" />
    <glyph glyph-name=".null" 
 />
    <glyph glyph-name="nonmarkingreturn" unicode="&#xd;" horiz-adv-x="542" 
 />
    <glyph glyph-name="space" unicode=" " horiz-adv-x="542" 
 />
    <glyph glyph-name="exclam" unicode="!" horiz-adv-x="464" 
d="M375 0h-271v203l271 78v-281zM90 1427l281 25l-21 -1020l-231 -63z" />
    <glyph glyph-name="quotedbl" unicode="&#x22;" horiz-adv-x="798" 
d="M483 1485l250 71l-28 -532l-222 -63v524zM94 1485l250 71l-29 -532l-221 -63v524z" />
    <glyph glyph-name="numbersign" unicode="#" horiz-adv-x="1191" 
d="M668 565l41 244h-195l-41 -244h195zM207 383h-201l25 182h198l41 244h-221l25 182h225l66 420h243l-65 -420h194l66 420h246l-66 -420h203l-27 -182h-205l-41 -244h226l-29 -182h-219l-60 -383h-245l59 383h-194l-60 -383h-244z" />
    <glyph glyph-name="dollar" unicode="$" horiz-adv-x="1241" 
d="M874 393q0 68 -35.5 111t-113.5 67v-378q149 39 149 200zM377 1068q0 -77 31.5 -118t113.5 -67v350q-80 -14 -112.5 -51t-32.5 -114zM129 1052q0 172 94 265.5t299 112.5v182l203 20v-198q182 -6 346 -48v-280l-235 -64v183l-111 12v-408l53 -14q180 -47 263 -142
t83 -275t-96 -283t-303 -127v-174l-203 -21v187q-213 6 -401 53v286l233 64v-190q78 -16 168 -17v449l-33 8q-188 51 -274 149t-86 270z" />
    <glyph glyph-name="percent" unicode="%" horiz-adv-x="1794" 
d="M1411 596q-82 0 -82 -168t19.5 -221t62.5 -53t62.5 53t19.5 221t-82 168zM1090 375q0 205 77.5 300t243.5 95t244 -95t78 -300t-78 -300t-244 -95t-243.5 95t-77.5 300zM383 819q82 0 82 221.5t-82 221.5t-82 -221.5t82 -221.5zM61 1040.5q0 204.5 78 300t244 95.5
t244 -95.5t78 -300t-78 -300t-244 -95.5t-244 95.5t-78 300zM332 84l946 1378l199 -129l-953 -1384z" />
    <glyph glyph-name="ampersand" unicode="&#x26;" horiz-adv-x="1607" 
d="M336 384q0 -91 67.5 -148.5t210.5 -57.5t254 105l-350 362q-182 -83 -182 -261zM764 1108q0 66 -40 101.5t-109.5 35.5t-108.5 -34.5t-39 -88.5q0 -102 137 -231q160 86 160 217zM66 381q0 137 79.5 245.5t223.5 166.5q-82 76 -127 160.5t-45 160.5q0 154 108.5 238
t304.5 84t304 -85t108 -241q0 -115 -74 -211t-207 -158l291 -303q84 104 121 215l-149 193h514v-193h-127q-62 -200 -211 -368l30 -29q85 -76 176 -76t154 29l-29 -197q-76 -32 -162 -32q-167 1 -298 114l-50 43q-161 -157 -416 -157t-387 105t-132 296z" />
    <glyph glyph-name="quotesingle" unicode="'" horiz-adv-x="409" 
d="M94 1485l250 71l-29 -532l-221 -63v524z" />
    <glyph glyph-name="parenleft" unicode="(" horiz-adv-x="749" 
d="M131 742q0 252 82 464q82 213 260 414l207 -117q-152 -187 -222 -373t-69 -398q0 -212 72 -391t227 -359l-215 -101q-178 201 -260 405t-82 456z" />
    <glyph glyph-name="parenright" unicode=")" horiz-adv-x="749" 
d="M70 -18q152 188 221 373t69 397t-71 392q-72 179 -228 359l215 101q178 -201 260 -405q82 -203 82 -455t-82 -465t-260 -414z" />
    <glyph glyph-name="asterisk" unicode="*" horiz-adv-x="755" 
d="M78 901l172 158l-221 22l80 232l186 -109l-62 207h289l-53 -205l178 109l80 -234l-223 -20l174 -160l-211 -143l-86 194l-92 -194z" />
    <glyph glyph-name="plus" unicode="+" horiz-adv-x="1187" 
d="M479 424h-327v217h327v305l238 68v-373h344l-39 -217h-305v-305l-238 -68v373z" />
    <glyph glyph-name="comma" unicode="," horiz-adv-x="473" 
d="M94 -8v217l297 80v-180q0 -145 -49 -246t-184 -203l-92 121q66 51 92 98t30 113h-94z" />
    <glyph glyph-name="hyphen" unicode="-" horiz-adv-x="604" 
d="M70 817h479l-35 -201h-444v201z" />
    <glyph glyph-name="period" unicode="." horiz-adv-x="450" 
d="M360 0h-270v211l270 78v-289z" />
    <glyph glyph-name="slash" unicode="/" horiz-adv-x="768" 
d="M719 1436v-64l-418 -1392h-252v59l424 1397h246z" />
    <glyph glyph-name="zero" unicode="0" horiz-adv-x="1241" 
d="M866 708.5q0 192.5 -23.5 306t-76.5 166t-143.5 52.5t-144.5 -52.5t-78.5 -166t-24.5 -306t24.5 -306t77.5 -165t145 -51.5t144.5 51.5t76 165t23.5 306zM102 708q0 268 51.5 426t165 230t304 72t302 -72t163 -230.5t51.5 -425.5t-51.5 -426t-162.5 -230.5t-303 -71.5
t-304.5 71.5t-164 230t-51.5 426.5z" />
    <glyph glyph-name="one" unicode="1" horiz-adv-x="868" 
d="M170 197h133v968l-180 246h438v-1214h148l-35 -197h-504v197z" />
    <glyph glyph-name="two" unicode="2" horiz-adv-x="1173" 
d="M786 1029q0 202 -241 202q-84 0 -162 -21v-137l-238 -63v368q211 58 433 58t339 -101.5t117 -300.5q0 -271 -313 -594q-100 -102 -252 -235h606l-37 -205h-899l-24 160q246 213 395 372q276 295 276 497z" />
    <glyph glyph-name="three" unicode="3" horiz-adv-x="1200" 
d="M756 1039q0 204 -208 204q-96 0 -165 -18v-152l-238 -63v368q240 57 412 58q240 0 353.5 -90.5t113.5 -278.5q0 -226 -207 -317q244 -96 244 -349q0 -217 -127 -318t-376 -101t-415 59v209q168 -68 342 -68t241 55.5t67 170.5t-74 169t-230 54h-135l35 196h100
q267 0 267 212z" />
    <glyph glyph-name="four" unicode="4" horiz-adv-x="1243" 
d="M733 305h-645l-25 154l500 952h289l-479 -889h360v295l260 72v-367h160l-160 -217v-305h-260v305z" />
    <glyph glyph-name="five" unicode="5" horiz-adv-x="1153" 
d="M508 182q159 0 226 59.5t67 182.5t-60.5 179t-200.5 56t-331 -55l-23 21l47 786h785l-144 -199h-430l-18 -366q86 16 186 16q233 0 344 -106.5t111 -333.5t-124 -334.5t-386 -107.5q-200 -1 -401 79v209q193 -86 352 -86z" />
    <glyph glyph-name="six" unicode="6" horiz-adv-x="1167" 
d="M580 182q110 0 167.5 68.5t57.5 198.5q0 248 -217 247q-87 0 -217 -49q0 -244 49.5 -354.5t159.5 -110.5zM797 1223l2 -6q0 4 -2 6zM688 1436q159 0 301 -45v-269l-239 -63v182q-37 4 -58 4q-131 0 -213 -104.5t-102 -302.5q131 68 282 67q199 0 304.5 -117.5
t105.5 -343.5t-122.5 -345t-368.5 -119t-361 162.5t-115 496.5q0 395 149.5 596t436.5 201z" />
    <glyph glyph-name="seven" unicode="7" horiz-adv-x="1189" 
d="M340 1212v-120l-242 -64v383h998l20 -135l-631 -1276h-274l606 1212h-477z" />
    <glyph glyph-name="eight" unicode="8" horiz-adv-x="1212" 
d="M373 375q-1 -199 233 -199t234 195q0 177 -258 272q-209 -80 -209 -268zM788 1081q0 172 -178 172q-90 0 -137 -46t-47 -128q0 -161 195 -231q167 77 167 233zM1106 367q0 -190 -127 -288.5t-374 -98.5t-373 98t-126 287q0 249 277 376q-109 57 -165 145.5t-56 196.5
q0 174 113.5 263.5t333.5 89.5t332 -88t112 -258q0 -223 -236 -332q289 -123 289 -391z" />
    <glyph glyph-name="nine" unicode="9" horiz-adv-x="1161" 
d="M569 719q110 0 219 51q-12 463 -245 463q-90 0 -138.5 -66.5t-48.5 -195.5t51.5 -190.5t161.5 -61.5zM442 170q299 0 340 408q-122 -68 -266 -68q-205 0 -314.5 112.5t-109.5 336t112.5 350.5t338.5 127q516 0 516 -697q0 -379 -150.5 -569t-445.5 -190q-134 -1 -238 40
l-37 199q130 -49 254 -49z" />
    <glyph glyph-name="colon" unicode=":" horiz-adv-x="434" 
d="M352 205h-270v211l270 78v-289zM352 956h-270v211l270 78v-289z" />
    <glyph glyph-name="semicolon" unicode=";" horiz-adv-x="473" 
d="M94 197v217l297 80v-181q0 -145 -49 -245t-184 -203l-92 121q66 51 92 98q27 47 30 113h-94zM377 956h-271v211l271 78v-289z" />
    <glyph glyph-name="less" unicode="&#x3c;" horiz-adv-x="1187" 
d="M197 485v121l677 414l121 -178l-487 -297l487 -295l-118 -180z" />
    <glyph glyph-name="equal" unicode="=" horiz-adv-x="1187" 
d="M152 451h909l-39 -218h-870v218zM152 889h909l-39 -217h-870v217z" />
    <glyph glyph-name="greater" unicode="&#x3e;" horiz-adv-x="1187" 
d="M193 248l487 297l-487 295l118 180l680 -416v-121l-678 -413z" />
    <glyph glyph-name="question" unicode="?" horiz-adv-x="944" 
d="M496 0h-271v203l271 78v-281zM606 1055q0 188 -190 188q-154 0 -350 -92l26 213q186 72 388 72t306.5 -99.5t104.5 -289.5q0 -129 -54.5 -215.5t-168.5 -149.5l-101 -55q-49 -27 -69.5 -59.5t-22.5 -92.5l-2 -43l-233 -63l-2 139q-2 111 37.5 184.5t123.5 122.5l88 51
q63 37 91 80t28 109z" />
    <glyph glyph-name="at" unicode="@" horiz-adv-x="1683" 
d="M731 584q0 -76 80 -76t127 47v98h-111q-96 0 -96 -69zM1143 639q0 -135 102 -135q66 0 103 68t36 190q0 231 -131 357t-385 126t-398 -143q-144 -142 -144 -402t143 -399t391 -139t451 76l-29 -195q-187 -66 -432 -68q-379 1 -584 188t-205 537t212 543t586 193
q375 0 569 -170t194 -482q0 -214 -98 -330t-279 -116t-260 113q-74 -99 -227 -99q-113 0 -173 60q-61 60 -61 164q0 106 71 161t202 56h141v38q0 47 -31 73t-111 26t-210 -43v172q123 41 263 41t217 -68t77 -190v-203z" />
    <glyph glyph-name="A" unicode="A" horiz-adv-x="1390" 
d="M51 197h82l367 1024l-138 190h455l434 -1214h111l-35 -197h-422v197h84l-80 237h-211l-143 199h289l-51 160q-45 143 -97 333h-12q-55 -195 -102 -333l-199 -596h113l-35 -197h-410v197z" />
    <glyph glyph-name="B" unicode="B" horiz-adv-x="1325" 
d="M692 197q150 0 220.5 52t70.5 163t-70.5 163t-220.5 52h-223v-430h223zM692 829q223 0 223 197q0 98 -54 143t-169 45h-223v-385h223zM1171 1027q0 -202 -165 -271q127 -31 186 -115t59 -231q0 -211 -135 -310.5t-424 -99.5h-569v197h82v1017l-142 197h629
q248 0 363.5 -91t115.5 -293z" />
    <glyph glyph-name="C" unicode="C" horiz-adv-x="1296" 
d="M102 708q0 374 156 551t487 177q197 0 420 -52v-270l-239 -67v167q-86 16 -178 17q-190 0 -280.5 -129t-90.5 -398.5t94 -394.5t295 -125q90 0 178 19v143l240 68v-379q-199 -55 -428 -55q-332 0 -493 177t-161 551z" />
    <glyph glyph-name="D" unicode="D" horiz-adv-x="1460" 
d="M631 197q170 0 268 48t141 157.5t43 301.5t-43 302t-141 159t-268 49h-162v-1017h162zM123 197h82v1017l-142 197h568q274 0 431 -67.5t226.5 -220t69.5 -417.5t-69.5 -418t-226.5 -220.5t-431 -67.5h-508v197z" />
    <glyph glyph-name="E" unicode="E" horiz-adv-x="1210" 
d="M123 197h82v1017l-142 197h1014v-297l-239 -67v167h-369v-395h481l-145 -201h-336v-421h387v149l240 68v-414h-973v197z" />
    <glyph glyph-name="F" unicode="F" horiz-adv-x="1159" 
d="M123 197h82v1017l-142 197h1014v-317l-239 -66v186h-369v-419h424l-145 -201h-279v-397h117l-35 -197h-428v197z" />
    <glyph glyph-name="G" unicode="G" horiz-adv-x="1388" 
d="M102 703.5q0 379.5 167 556t532 176.5q221 0 440 -52v-282l-240 -68v180q-92 16 -196 17q-223 0 -325.5 -128t-102.5 -400.5t97 -395.5t308 -123q135 0 234 39v348h-248l-152 209h662v-708q-256 -92 -498 -92q-354 0 -516 172t-162 551.5z" />
    <glyph glyph-name="H" unicode="H" horiz-adv-x="1517" 
d="M125 197h80v1017h-105l35 197h414v-197h-80v-391h580v391h-103l35 197h412v-197h-80v-1017h104l-35 -197h-413v197h80v426h-580v-426h104l-34 -197h-414v197z" />
    <glyph glyph-name="I" unicode="I" horiz-adv-x="686" 
d="M125 197h86v1017h-109l35 197h420v-197h-82v-1017h107l-35 -197h-422v197z" />
    <glyph glyph-name="J" unicode="J" horiz-adv-x="880" 
d="M251.5 180q106.5 0 155 45t48.5 146v843l-142 197h486v-197h-80v-829q0 -211 -99.5 -308t-312.5 -97q-109 0 -209 20l-37 203q84 -23 190.5 -23z" />
    <glyph glyph-name="K" unicode="K" horiz-adv-x="1400" 
d="M119 197h86v1017h-109l35 197h420v-197h-82v-303q0 -127 -8 -217l4 -2l153 174l328 357l-133 188h490v-197h-91l-360 -378l412 -639h100l-35 -197h-256l-405 643l-199 -207v-239h106l-34 -197h-422v197z" />
    <glyph glyph-name="L" unicode="L" horiz-adv-x="1193" 
d="M123 197h82v1017l-142 197h486v-197h-80v-1017h387v190l240 68v-455h-973v197z" />
    <glyph glyph-name="M" unicode="M" horiz-adv-x="1796" 
d="M90 197h82l41 1017l-131 197h448l252 -635q68 -166 111 -311h8q49 164 109 311l252 635h403v-197h-82l41 -1017h96l-34 -197h-398v197h82l-20 485q0 29 -2 43l-2 145q0 51 4 150l-13 2q-39 -133 -112 -317l-211 -531h-240l-211 531q-90 226 -112 317l-13 -2q4 -45 4 -154
t-4 -184l-20 -485h94l-35 -197h-387v197z" />
    <glyph glyph-name="N" unicode="N" horiz-adv-x="1558" 
d="M127 197h78v1052l-119 162h389l672 -999h8v802l-141 197h459v-197h-78v-1214h-269l-669 977h-8v-780h90l-35 -197h-377v197z" />
    <glyph glyph-name="O" unicode="O" horiz-adv-x="1441" 
d="M1065 707.5q0 273.5 -82 398.5t-262 125t-262 -125t-82 -398t82 -398.5t262 -125.5t262 125t82 398.5zM102 706.5q0 378.5 148.5 554t471.5 175.5t470 -175.5t147 -554t-147.5 -552.5t-469 -174t-471 174t-149.5 552.5z" />
    <glyph glyph-name="P" unicode="P" horiz-adv-x="1245" 
d="M662 713q242 0 241 258q0 125 -59.5 184t-181.5 59h-193v-501h193zM662 516h-193v-319h98l-35 -197h-409v197h82v1017l-131 197h588q510 0 509 -440q0 -455 -509 -455z" />
    <glyph glyph-name="Q" unicode="Q" horiz-adv-x="1441" 
d="M721 184q180 0 262 125t82 398.5t-82 398.5t-262 125t-262 -125t-82 -398.5t82 -398.5t262 -125zM102 714q0 372 148.5 547t471.5 175t470 -175.5t147 -553.5q0 -272 -89 -443.5t-259 -236.5l365 -215l-328 -93l-348 263q-299 10 -438.5 185t-139.5 547z" />
    <glyph glyph-name="R" unicode="R" horiz-adv-x="1288" 
d="M655 760q129 0 190.5 55t61.5 172t-61.5 172t-190.5 55h-186v-454h186zM123 197h82v1017l-142 197h623q252 0 373 -101.5t121 -312.5q0 -156 -73 -253t-224 -146l245 -401h101l-35 -197h-242l-340 571h-143v-374h98l-35 -197h-409v197z" />
    <glyph glyph-name="S" unicode="S" horiz-adv-x="1114" 
d="M606 1239q-246 0 -246 -175q0 -85 48.5 -132t148.5 -74l164 -43q168 -43 247 -140t79 -259q0 -225 -127 -330.5t-400 -105.5q-217 0 -424 53v284l240 68v-192q102 -16 178 -17q135 0 198.5 52.5t63.5 146.5t-44 142t-138 73l-162 43q-176 47 -258 143t-82 252
q0 211 122 309.5t382 98.5q188 0 387 -50v-278l-240 -68v187q-70 12 -137 12z" />
    <glyph glyph-name="T" unicode="T" horiz-adv-x="1349" 
d="M446 197h97v1017h-250v-151l-240 -66v414h1243v-348l-239 -66v217h-250v-1017h113l-35 -197h-439v197z" />
    <glyph glyph-name="U" unicode="U" horiz-adv-x="1462" 
d="M164 518v696l-141 197h487v-197h-82v-696q0 -182 68.5 -258t236.5 -76t236.5 76t68.5 258v696l-141 197h483v-197h-82v-696q0 -199 -55 -315.5t-178 -169.5t-333 -53t-333 53t-179 169.5t-56 315.5z" />
    <glyph glyph-name="V" unicode="V" horiz-adv-x="1349" 
d="M1305 1411v-197h-86l-441 -1214h-241l-533 1411h506l-35 -197h-127l221 -616q47 -129 90 -303h9q27 92 55 177t41 126l199 616l-142 197h484z" />
    <glyph glyph-name="W" unicode="W" horiz-adv-x="1890" 
d="M1845 1411v-197h-88l-360 -1214h-242l-160 608q-49 188 -73 359h-13q-27 -178 -75 -359l-170 -608h-244l-416 1411h479l-34 -197h-115l137 -501q47 -168 80 -348h12q29 182 72 348l162 628h258l157 -665q45 -188 64 -311h12q29 176 66 309l145 540l-143 197h489z" />
    <glyph glyph-name="X" unicode="X" horiz-adv-x="1388" 
d="M86 197h74l387 524l-494 690h547l-35 -197h-102l233 -342l238 342l-139 197h477v-197h-76l-358 -487l528 -727h-510v197h96l-262 383l-268 -383h115l-35 -197h-416v197z" />
    <glyph glyph-name="Y" unicode="Y" horiz-adv-x="1280" 
d="M430 197h70v325l-504 889h508l-35 -197h-98l118 -217q90 -166 142 -276h10q47 109 135 278l113 215l-141 197h487v-197h-98l-373 -684v-333h94l-35 -197h-393v197z" />
    <glyph glyph-name="Z" unicode="Z" horiz-adv-x="1220" 
d="M330 1214v-149l-240 -68v414h1012l22 -154l-725 -1060h508v143l238 68v-408h-1049l-22 147l729 1067h-473z" />
    <glyph glyph-name="bracketleft" unicode="[" horiz-adv-x="694" 
d="M131 1559h465l35 -195h-238v-1341h238l-35 -195h-465v1731z" />
    <glyph glyph-name="backslash" unicode="\" horiz-adv-x="768" 
d="M49 1436h246l424 -1397v-59h-252l-418 1392v64z" />
    <glyph glyph-name="bracketright" unicode="]" horiz-adv-x="694" 
d="M301 23v1341h-238l35 195h465v-1731h-465l-35 195h238z" />
    <glyph glyph-name="asciicircum" unicode="^" horiz-adv-x="1187" 
d="M109 823l403 588h166l401 -588l-170 -114l-311 458l-319 -458z" />
    <glyph glyph-name="underscore" unicode="_" horiz-adv-x="1046" 
d="M-20 -117h1093l-31 -178h-1062v178z" />
    <glyph glyph-name="grave" unicode="`" horiz-adv-x="798" 
d="M96 1769l129 195l471 -311l-86 -140z" />
    <glyph glyph-name="a" unicode="a" horiz-adv-x="1390" 
d="M51 197h82l367 1024l-138 190h455l434 -1214h111l-35 -197h-422v197h84l-80 237h-211l-143 199h289l-51 160q-45 143 -97 333h-12q-55 -195 -102 -333l-199 -596h113l-35 -197h-410v197z" />
    <glyph glyph-name="b" unicode="b" horiz-adv-x="1325" 
d="M692 197q150 0 220.5 52t70.5 163t-70.5 163t-220.5 52h-223v-430h223zM692 829q223 0 223 197q0 98 -54 143t-169 45h-223v-385h223zM1171 1027q0 -202 -165 -271q127 -31 186 -115t59 -231q0 -211 -135 -310.5t-424 -99.5h-569v197h82v1017l-142 197h629
q248 0 363.5 -91t115.5 -293z" />
    <glyph glyph-name="c" unicode="c" horiz-adv-x="1296" 
d="M102 708q0 374 156 551t487 177q197 0 420 -52v-270l-239 -67v167q-86 16 -178 17q-190 0 -280.5 -129t-90.5 -398.5t94 -394.5t295 -125q90 0 178 19v143l240 68v-379q-199 -55 -428 -55q-332 0 -493 177t-161 551z" />
    <glyph glyph-name="d" unicode="d" horiz-adv-x="1460" 
d="M631 197q170 0 268 48t141 157.5t43 301.5t-43 302t-141 159t-268 49h-162v-1017h162zM123 197h82v1017l-142 197h568q274 0 431 -67.5t226.5 -220t69.5 -417.5t-69.5 -418t-226.5 -220.5t-431 -67.5h-508v197zM-217 1735h2v-2h-2v2z" />
    <glyph glyph-name="e" unicode="e" horiz-adv-x="1210" 
d="M123 197h82v1017l-142 197h1014v-297l-239 -67v167h-369v-395h481l-145 -201h-336v-421h387v149l240 68v-414h-973v197z" />
    <glyph glyph-name="f" unicode="f" horiz-adv-x="1159" 
d="M123 197h82v1017l-142 197h1014v-317l-239 -66v186h-369v-419h424l-145 -201h-279v-397h117l-35 -197h-428v197z" />
    <glyph glyph-name="g" unicode="g" horiz-adv-x="1388" 
d="M102 703.5q0 379.5 167 556t532 176.5q221 0 440 -52v-282l-240 -68v180q-92 16 -196 17q-223 0 -325.5 -128t-102.5 -400.5t97 -395.5t308 -123q135 0 234 39v348h-248l-152 209h662v-708q-256 -92 -498 -92q-354 0 -516 172t-162 551.5z" />
    <glyph glyph-name="h" unicode="h" horiz-adv-x="1517" 
d="M125 197h80v1017h-105l35 197h414v-197h-80v-391h580v391h-103l35 197h412v-197h-80v-1017h104l-35 -197h-413v197h80v426h-580v-426h104l-34 -197h-414v197z" />
    <glyph glyph-name="i" unicode="i" horiz-adv-x="686" 
d="M125 197h86v1017h-109l35 197h420v-197h-82v-1017h107l-35 -197h-422v197z" />
    <glyph glyph-name="j" unicode="j" horiz-adv-x="880" 
d="M251.5 180q106.5 0 155 45t48.5 146v843l-142 197h486v-197h-80v-829q0 -211 -99.5 -308t-312.5 -97q-109 0 -209 20l-37 203q84 -23 190.5 -23z" />
    <glyph glyph-name="k" unicode="k" horiz-adv-x="1400" 
d="M119 197h86v1017h-109l35 197h420v-197h-82v-303q0 -127 -8 -217l4 -2l153 174l328 357l-133 188h490v-197h-91l-360 -378l412 -639h100l-35 -197h-256l-405 643l-199 -207v-239h106l-34 -197h-422v197z" />
    <glyph glyph-name="l" unicode="l" horiz-adv-x="1193" 
d="M123 197h82v1017l-142 197h486v-197h-80v-1017h387v190l240 68v-455h-973v197z" />
    <glyph glyph-name="m" unicode="m" horiz-adv-x="1796" 
d="M90 197h82l41 1017l-131 197h448l252 -635q68 -166 111 -311h8q49 164 109 311l252 635h403v-197h-82l41 -1017h96l-34 -197h-398v197h82l-20 485q0 29 -2 43l-2 145q0 51 4 150l-13 2q-39 -133 -112 -317l-211 -531h-240l-211 531q-90 226 -112 317l-13 -2q4 -45 4 -154
t-4 -184l-20 -485h94l-35 -197h-387v197z" />
    <glyph glyph-name="n" unicode="n" horiz-adv-x="1558" 
d="M127 197h78v1052l-119 162h389l672 -999h8v802l-141 197h459v-197h-78v-1214h-269l-669 977h-8v-780h90l-35 -197h-377v197z" />
    <glyph glyph-name="o" unicode="o" horiz-adv-x="1441" 
d="M1065 707.5q0 273.5 -82 398.5t-262 125t-262 -125t-82 -398t82 -398.5t262 -125.5t262 125t82 398.5zM102 706.5q0 378.5 148.5 554t471.5 175.5t470 -175.5t147 -554t-147.5 -552.5t-469 -174t-471 174t-149.5 552.5z" />
    <glyph glyph-name="p" unicode="p" horiz-adv-x="1245" 
d="M662 713q242 0 241 258q0 125 -59.5 184t-181.5 59h-193v-501h193zM662 516h-193v-319h98l-35 -197h-409v197h82v1017l-131 197h588q510 0 509 -440q0 -455 -509 -455z" />
    <glyph glyph-name="q" unicode="q" horiz-adv-x="1441" 
d="M721 184q180 0 262 125t82 398.5t-82 398.5t-262 125t-262 -125t-82 -398.5t82 -398.5t262 -125zM102 714q0 372 148.5 547t471.5 175t470 -175.5t147 -553.5q0 -272 -89 -443.5t-259 -236.5l365 -215l-328 -93l-348 263q-299 10 -438.5 185t-139.5 547z" />
    <glyph glyph-name="r" unicode="r" horiz-adv-x="1288" 
d="M655 760q129 0 190.5 55t61.5 172t-61.5 172t-190.5 55h-186v-454h186zM123 197h82v1017l-142 197h623q252 0 373 -101.5t121 -312.5q0 -156 -73 -253t-224 -146l245 -401h101l-35 -197h-242l-340 571h-143v-374h98l-35 -197h-409v197z" />
    <glyph glyph-name="s" unicode="s" horiz-adv-x="1114" 
d="M606 1239q-246 0 -246 -175q0 -85 48.5 -132t148.5 -74l164 -43q168 -43 247 -140t79 -259q0 -225 -127 -330.5t-400 -105.5q-217 0 -424 53v284l240 68v-192q102 -16 178 -17q135 0 198.5 52.5t63.5 146.5t-44 142t-138 73l-162 43q-176 47 -258 143t-82 252
q0 211 122 309.5t382 98.5q188 0 387 -50v-278l-240 -68v187q-70 12 -137 12z" />
    <glyph glyph-name="t" unicode="t" horiz-adv-x="1349" 
d="M446 197h97v1017h-250v-151l-240 -66v414h1243v-348l-239 -66v217h-250v-1017h113l-35 -197h-439v197z" />
    <glyph glyph-name="u" unicode="u" horiz-adv-x="1462" 
d="M164 518v696l-141 197h487v-197h-82v-696q0 -182 68.5 -258t236.5 -76t236.5 76t68.5 258v696l-141 197h483v-197h-82v-696q0 -199 -55 -315.5t-178 -169.5t-333 -53t-333 53t-179 169.5t-56 315.5z" />
    <glyph glyph-name="v" unicode="v" horiz-adv-x="1349" 
d="M1305 1411v-197h-86l-441 -1214h-241l-533 1411h506l-35 -197h-127l221 -616q47 -129 90 -303h9q27 92 55 177t41 126l199 616l-142 197h484z" />
    <glyph glyph-name="w" unicode="w" horiz-adv-x="1890" 
d="M1845 1411v-197h-88l-360 -1214h-242l-160 608q-49 188 -73 359h-13q-27 -178 -75 -359l-170 -608h-244l-416 1411h479l-34 -197h-115l137 -501q47 -168 80 -348h12q29 182 72 348l162 628h258l157 -665q45 -188 64 -311h12q29 176 66 309l145 540l-143 197h489z" />
    <glyph glyph-name="x" unicode="x" horiz-adv-x="1388" 
d="M86 197h74l387 524l-494 690h547l-35 -197h-102l233 -342l238 342l-139 197h477v-197h-76l-358 -487l528 -727h-510v197h96l-262 383l-268 -383h115l-35 -197h-416v197z" />
    <glyph glyph-name="y" unicode="y" horiz-adv-x="1280" 
d="M430 197h70v325l-504 889h508l-35 -197h-98l118 -217q90 -166 142 -276h10q47 109 135 278l113 215l-141 197h487v-197h-98l-373 -684v-333h94l-35 -197h-393v197z" />
    <glyph glyph-name="z" unicode="z" horiz-adv-x="1220" 
d="M330 1214v-149l-240 -68v414h1012l22 -154l-725 -1060h508v143l238 68v-408h-1049l-22 147l729 1067h-473z" />
    <glyph glyph-name="braceleft" unicode="{" horiz-adv-x="776" 
d="M223 174v272q0 80 -29 114q-30 34 -112 44v209q82 6 112 36t29 103v289q0 129 31 200q32 71 102 101t199 29h147l35 -193h-145q-57 0 -80 -32t-25 -121v-240q1 -117 -27 -176t-102 -98v-4q74 -35 102 -97t27 -198v-222q0 -88 24 -120t87 -33h139l-35 -193h-147
q-129 0 -200 30t-101 100t-31 200z" />
    <glyph glyph-name="bar" unicode="|" horiz-adv-x="516" 
d="M131 1413l254 64v-1483l-254 -64v1483z" />
    <glyph glyph-name="braceright" unicode="}" horiz-adv-x="776" 
d="M178 37q63 0 87 33t24 120v222q0 135 27 197q28 62 102 98v4q-74 39 -102 98t-27 176v240q-2 88 -25 121t-80 32h-139l35 193h141q129 0 200 -30q71 -31 101 -101t31 -199v-289q0 -74 30 -104t111 -35v-209q-82 -10 -112 -44t-29 -114v-272q0 -129 -31 -200
q-32 -70 -102 -100t-199 -30h-147l-35 193h139z" />
    <glyph glyph-name="asciitilde" unicode="~" horiz-adv-x="1187" 
d="M823 612q87 0 133 152l158 -121q-88 -238 -295 -237q-94 0 -209 61l-57 31q-93 51 -145 51q-111 0 -177 -148l-157 125q68 125 147.5 178.5t183.5 53.5t224 -64l55 -28q100 -54 139 -54z" />
    <glyph glyph-name="uni00A0" unicode="&#xa0;" horiz-adv-x="542" 
 />
    <glyph glyph-name="exclamdown" unicode="&#xa1;" horiz-adv-x="464" 
d="M115 979l231 63l29 -1058l-281 -25zM90 1411h270v-203l-270 -78v281z" />
    <glyph glyph-name="cent" unicode="&#xa2;" horiz-adv-x="1079" 
d="M365 495q0 -132 31.5 -208t101.5 -105v625q-70 -29 -101.5 -104.5t-31.5 -207.5zM102 494q0 248 93.5 370.5t302.5 143.5v174l184 20v-192q131 -6 276 -41v-273l-210 -59v182l-66 6v-661q151 7 301 69l-29 -196q-119 -45 -272 -55v-166l-184 -21v189q-209 18 -302.5 140
t-93.5 370z" />
    <glyph glyph-name="sterling" unicode="&#xa3;" horiz-adv-x="1282" 
d="M573 410q0 -139 -88 -205v-8h410v170l235 67v-434h-983l-24 164q100 45 144 108.5t44 159.5v193l-131 182h131v192q0 226 117 333q61 56 139 80t209 24t275 -50v-202q-152 53 -265 53q-113 1 -163 -51t-50 -191v-188h383l-133 -182h-250v-215z" />
    <glyph glyph-name="currency" unicode="&#xa4;" horiz-adv-x="1191" 
d="M772 709q0 84 -49 137t-125 53t-125 -53t-49 -137t49 -137.5t125 -53.5t125 53.5t49 137.5zM164 708q0 116 53 205l-156 152l175 162l157 -158q95 43 201 43t203 -43l159 158l174 -162l-155 -152q53 -89 53 -205t-53 -204l155 -154l-169 -164l-164 160q-92 -41 -203 -41
t-199 41l-164 -160l-170 164l156 154q-53 88 -53 204z" />
    <glyph glyph-name="yen" unicode="&#xa5;" horiz-adv-x="1388" 
d="M422 197h119v98h-260v158h243v73h-243v166h165l-405 719h467v-197h-96l118 -217q87 -157 134 -305h26q48 156 127 307l113 215l-142 197h488v-197h-98l-285 -522h172l-29 -166h-231v-73h227l-28 -158h-199v-98h141l-35 -197h-489v197z" />
    <glyph glyph-name="brokenbar" unicode="&#xa6;" horiz-adv-x="458" 
d="M102 512l254 63v-581l-254 -64v582zM102 1413l254 64v-588l-254 -64v588z" />
    <glyph glyph-name="section" unicode="&#xa7;" horiz-adv-x="966" 
d="M635 721q0 78 -121 113l-135 34q-51 -41 -51 -110q0 -80 129 -115l127 -33q51 41 51 111zM72 737q0 145 127 226q-84 67 -84 193t100.5 203t260.5 77t286 -50l29 -196q-156 66 -278 66t-122 -87q0 -68 84 -90l131 -32q279 -68 279 -285q0 -162 -113 -240q92 -63 92 -239
q0 -141 -102.5 -222t-280.5 -81t-311 55l-31 207q156 -82 314 -82t157 123q0 90 -106 112l-133 29q-299 67 -299 313z" />
    <glyph glyph-name="dieresis" unicode="&#xa8;" horiz-adv-x="798" 
d="M748 1602h-256v188l256 72v-260zM305 1602h-256v188l256 72v-260z" />
    <glyph glyph-name="copyright" unicode="&#xa9;" horiz-adv-x="1716" 
d="M883 926q-133 0 -133 -211q0 -109 34.5 -160t106.5 -51q41 0 67 6v94l179 49v-256q-135 -45 -290 -45t-240 89t-85 275t86 275.5t264 89.5q117 0 258 -34v-199l-178 -49v121q-35 6 -69 6zM1366 708.5q0 155.5 -63.5 274.5t-178 183.5t-266 64.5t-266.5 -64.5
t-178.5 -183.5t-63.5 -274.5t63.5 -274.5t178.5 -183.5t266.5 -64.5t266 64.5t178 183.5t63.5 274.5zM102 709q0 217 94.5 381.5t265.5 255t396 90.5t396 -90.5t265.5 -255t94.5 -381.5t-94.5 -382t-265.5 -255t-396 -90t-396 90t-265.5 255t-94.5 382z" />
    <glyph glyph-name="ordfeminine" unicode="&#xaa;" horiz-adv-x="768" 
d="M438 1051h-59q-86 0 -86 -59.5t74 -59.5q42 -1 71 24v95zM403 1448q269 0 269 -240v-245h110l-120 -166h-132q-41 27 -61 65q-75 -82 -183 -82t-166.5 49.5t-58.5 145.5q0 205 295 205h82v34q0 70 -89 70t-224 -45v160q164 49 278 49z" />
    <glyph glyph-name="guillemotleft" unicode="&#xab;" horiz-adv-x="1042" 
d="M506 692v43l315 418l166 -111l-227 -329l229 -328l-164 -111zM41 692v43l315 418l166 -111l-227 -329l229 -328l-164 -111z" />
    <glyph glyph-name="logicalnot" unicode="&#xac;" horiz-adv-x="1187" 
d="M817 424h-680v217h918v-387l-238 -68v238z" />
    <glyph glyph-name="uni00AD" unicode="&#xad;" horiz-adv-x="604" 
d="M70 817h479l-35 -201h-444v201z" />
    <glyph glyph-name="registered" unicode="&#xae;" horiz-adv-x="1716" 
d="M889 776q39 0 61.5 21.5t22.5 57.5t-22.5 58.5t-61.5 22.5h-51v-160h51zM557 526h59v445l-79 114h381q121 0 194.5 -59t73.5 -158q0 -61 -36 -113.5t-93 -76.5l112 -152h66l-27 -149h-182l-156 248h-32v-99h57l-27 -149h-311v149zM1366 708.5q0 155.5 -63.5 274.5
t-178 183.5t-266 64.5t-266.5 -64.5t-178.5 -183.5t-63.5 -274.5t63.5 -274.5t178.5 -183.5t266.5 -64.5t266 64.5t178 183.5t63.5 274.5zM102 709q0 217 94.5 381.5t265.5 255t396 90.5t396 -90.5t265.5 -255t94.5 -381.5t-94.5 -382t-265.5 -255t-396 -90t-396 90
t-265.5 255t-94.5 382z" />
    <glyph glyph-name="macron" unicode="&#xaf;" horiz-adv-x="798" 
d="M70 1780h649l-31 -172h-618v172z" />
    <glyph glyph-name="degree" unicode="&#xb0;" horiz-adv-x="778" 
d="M500 1243q0 57 -30 90t-81 33t-80.5 -33t-29.5 -90t29.5 -90t80.5 -33t81 33t30 90zM90 1243q0 133 80 210t219 77t219 -77t80 -210t-80 -210t-219 -77t-219 77t-80 210z" />
    <glyph glyph-name="plusminus" unicode="&#xb1;" horiz-adv-x="1187" 
d="M139 217h910l-39 -217h-871v217zM467 657h-328v217h328v269l238 67v-336h348l-47 -217h-301v-268l-238 -67v335z" />
    <glyph glyph-name="uni00B2" unicode="&#xb2;" horiz-adv-x="737" 
d="M434 1212q0 92 -94 93q-35 0 -68 -7v-102l-196 -53v284q164 41 266 41q334 0 334 -258q0 -213 -260 -362h307l-33 -182h-600l-24 149q368 237 368 397z" />
    <glyph glyph-name="uni00B3" unicode="&#xb3;" horiz-adv-x="737" 
d="M354 1468q310 0 310 -170t-103 -227q127 -51 127 -176q0 -242 -313 -242q-170 1 -324 54v176q152 -57 278 -57t126 76q0 77 -107 77h-110l26 154h80q96 0 96 86t-102 86q-35 0 -70 -7v-69l-186 -49v247q141 41 272 41z" />
    <glyph glyph-name="acute" unicode="&#xb4;" horiz-adv-x="798" 
d="M115 1649l463 321l124 -194l-499 -263z" />
    <glyph glyph-name="uni00B5" unicode="&#xb5;" horiz-adv-x="1167" 
d="M1057 360q0 -196 -87 -288t-268 -92t-274 90v-445l-256 -22v1192l-139 194h395v-639q0 -94 45 -139t141 -45t142 45q45 45 45 139v639h256v-629z" />
    <glyph glyph-name="paragraph" unicode="&#xb6;" horiz-adv-x="1161" 
d="M1001 1231v-1491l-206 -57v1548h-174v-1491l-207 -57v948q-158 23 -249 126t-91 272t122.5 275.5t333.5 106.5h598l-22 -180h-105z" />
    <glyph glyph-name="periodcentered" unicode="&#xb7;" horiz-adv-x="434" 
d="M352 594h-270v211l270 78v-289z" />
    <glyph glyph-name="cedilla" unicode="&#xb8;" horiz-adv-x="798" 
d="M328 -205q-57 0 -123 -20l33 245h155l-16 -106q33 8 78 8q88 0 138 -52t50 -143t-68.5 -149.5t-181.5 -58.5t-213 37l-16 135q100 -39 160 -39q116 0 116 71.5t-112 71.5z" />
    <glyph glyph-name="uni00B9" unicode="&#xb9;" horiz-adv-x="737" 
d="M119 848h137v412l-141 196h374v-608h162l-33 -182h-499v182z" />
    <glyph glyph-name="ordmasculine" unicode="&#xba;" horiz-adv-x="802" 
d="M492 1114q0 176 -90.5 176t-90.5 -176t90.5 -176t90.5 176zM733 1114q0 -334 -250 -334t-331.5 83t-81.5 251t81.5 251t331.5 83t250 -334z" />
    <glyph glyph-name="guillemotright" unicode="&#xbb;" horiz-adv-x="1042" 
d="M518 385l230 328l-228 329l166 111l315 -418v-43l-319 -418zM53 385l230 328l-228 329l166 111l316 -418v-43l-320 -418z" />
    <glyph glyph-name="onequarter" unicode="&#xbc;" horiz-adv-x="1761" 
d="M1427 162h-448l-21 135l308 516h239v-41l-266 -428h188v123l226 61v-184h135l-135 -182v-162h-226v162zM70 848h137v412l-141 196h374v-608h162l-33 -182h-499v182zM319 88l977 1417l191 -129l-977 -1417z" />
    <glyph glyph-name="onehalf" unicode="&#xbd;" horiz-adv-x="1761" 
d="M70 848h137v412l-141 196h374v-608h162l-33 -182h-499v182zM276 88l977 1417l191 -129l-977 -1417zM1460 547q0 92 -94 92q-35 0 -68 -6v-103l-196 -53v285q164 41 266 41q334 0 334 -258q0 -213 -260 -363h307l-33 -182h-600l-24 150q368 237 368 397z" />
    <glyph glyph-name="threequarters" unicode="&#xbe;" horiz-adv-x="1761" 
d="M1427 162h-448l-21 135l308 516h239v-41l-266 -428h188v123l226 61v-184h135l-135 -182v-162h-226v162zM346 1468q297 0 297 -170t-102 -227q127 -51 127 -176q0 -242 -314 -242q-169 1 -323 54v176q151 -57 277 -57t126 76q0 77 -106 77h-111l27 154h80q96 0 96 86
t-103 86q-35 0 -69 -7v-69l-187 -49v247q141 41 285 41zM303 88l977 1417l190 -129l-976 -1417z" />
    <glyph glyph-name="questiondown" unicode="&#xbf;" horiz-adv-x="944" 
d="M338 356q0 -188 190 -188q153 0 351 92l-27 -213q-186 -72 -379 -72q-418 2 -420 390q1 129 55 215t168 149l101 55q49 27 69 60t23 92l2 43l234 63l2 -139q4 -210 -162 -307l-88 -51q-63 -37 -91 -80t-28 -109zM449 1411h270v-203l-270 -78v281z" />
    <glyph glyph-name="Agrave" unicode="&#xc0;" horiz-adv-x="1390" 
d="M51 197h82l367 1024l-138 190h455l434 -1214h111l-35 -197h-422v197h84l-80 237h-211l-143 199h289l-51 160q-45 143 -97 333h-12q-55 -195 -102 -333l-199 -596h113l-35 -197h-410v197zM274 1769l129 195l471 -311l-86 -140z" />
    <glyph glyph-name="Aacute" unicode="&#xc1;" horiz-adv-x="1390" 
d="M51 197h82l367 1024l-138 190h455l434 -1214h111l-35 -197h-422v197h84l-80 237h-211l-143 199h289l-51 160q-45 143 -97 333h-12q-55 -195 -102 -333l-199 -596h113l-35 -197h-410v197zM485 1649l463 321l125 -194l-500 -263z" />
    <glyph glyph-name="Acircumflex" unicode="&#xc2;" horiz-adv-x="1390" 
d="M51 197h82l367 1024l-138 190h455l434 -1214h111l-35 -197h-422v197h84l-80 237h-211l-143 199h289l-51 160q-45 143 -97 333h-12q-55 -195 -102 -333l-199 -596h113l-35 -197h-410v197zM332 1608l274 327h156l274 -327l-135 -111l-215 229l-219 -229z" />
    <glyph glyph-name="Atilde" unicode="&#xc3;" horiz-adv-x="1390" 
d="M51 197h82l367 1024l-138 190h455l434 -1214h111l-35 -197h-422v197h84l-80 237h-211l-143 199h289l-51 160q-45 143 -97 333h-12q-55 -195 -102 -333l-199 -596h113l-35 -197h-410v197zM827 1769q59 0 123 109l125 -88q-76 -219 -239 -219q-50 0 -87.5 16.5t-104.5 56.5
t-102.5 39.5t-64 -29t-59.5 -79.5l-125 88q76 219 239 219q67 0 170 -63q8 -4 48 -27t77 -23z" />
    <glyph glyph-name="Adieresis" unicode="&#xc4;" horiz-adv-x="1390" 
d="M51 197h82l367 1024l-138 190h455l434 -1214h111l-35 -197h-422v197h84l-80 237h-211l-143 199h289l-51 160q-45 143 -97 333h-12q-55 -195 -102 -333l-199 -596h113l-35 -197h-410v197zM1028 1602h-256v188l256 72v-260zM586 1602h-256v188l256 72v-260z" />
    <glyph glyph-name="Aring" unicode="&#xc5;" horiz-adv-x="1390" 
d="M51 197h82l367 1024l-138 190h455l434 -1214h111l-35 -197h-422v197h84l-80 237h-211l-143 199h289l-51 160q-45 143 -97 333h-12q-55 -195 -102 -333l-199 -596h113l-35 -197h-410v197zM764 1726.5q0 36.5 -21.5 61t-58.5 24.5t-58.5 -24.5t-21.5 -61t21.5 -59
t58.5 -22.5t58.5 22.5t21.5 59zM444 1726.5q0 98.5 64.5 162t175.5 63.5t175.5 -63.5t64.5 -162t-64.5 -162t-175.5 -63.5t-175.5 63.5t-64.5 162z" />
    <glyph glyph-name="AE" unicode="&#xc6;" horiz-adv-x="2027" 
d="M37 197h74l637 1017l-144 197h1290v-297l-239 -67v167h-369v-395h486l-150 -201h-336v-421h387v149l240 68v-414h-973v197h82v237h-211l-133 199h344v581h-16l-617 -1017h111l-35 -197h-428v197z" />
    <glyph glyph-name="Ccedilla" unicode="&#xc7;" horiz-adv-x="1296" 
d="M688 -223q-57 0 -123 -21l32 235q-215 34 -334 166q-161 177 -161 551t156 551t487 177q197 0 420 -52v-270l-239 -67v167q-86 16 -178 17q-190 0 -280.5 -129t-90.5 -398.5t94 -394.5t295 -125q90 0 178 19v143l240 68v-379q-199 -55 -428 -55h-6l-13 -84q33 8 78 8
q88 0 138.5 -52.5t50.5 -143.5t-69 -149.5t-181.5 -58.5t-212.5 37l-17 135q100 -39 160 -39q116 0 116.5 72t-112.5 72z" />
    <glyph glyph-name="Egrave" unicode="&#xc8;" horiz-adv-x="1210" 
d="M123 197h82v1017l-142 197h1014v-297l-239 -67v167h-369v-395h481l-145 -201h-336v-421h387v149l240 68v-414h-973v197zM209 1769l129 195l471 -311l-86 -140z" />
    <glyph glyph-name="Eacute" unicode="&#xc9;" horiz-adv-x="1210" 
d="M123 197h82v1017l-142 197h1014v-297l-239 -67v167h-369v-395h481l-145 -201h-336v-421h387v149l240 68v-414h-973v197zM420 1649l463 321l125 -194l-500 -263z" />
    <glyph glyph-name="Ecircumflex" unicode="&#xca;" horiz-adv-x="1210" 
d="M123 197h82v1017l-142 197h1014v-297l-239 -67v167h-369v-395h481l-145 -201h-336v-421h387v149l240 68v-414h-973v197zM266 1608l275 327h155l275 -327l-135 -111l-215 229l-220 -229z" />
    <glyph glyph-name="Edieresis" unicode="&#xcb;" horiz-adv-x="1210" 
d="M123 197h82v1017l-142 197h1014v-297l-239 -67v167h-369v-395h481l-145 -201h-336v-421h387v149l240 68v-414h-973v197zM963 1602h-256v188l256 72v-260zM520 1602h-256v188l256 72v-260z" />
    <glyph glyph-name="Igrave" unicode="&#xcc;" horiz-adv-x="686" 
d="M125 197h86v1017h-109l35 197h420v-197h-82v-1017h107l-35 -197h-422v197zM-68 1769l129 195l471 -311l-86 -140z" />
    <glyph glyph-name="Iacute" unicode="&#xcd;" horiz-adv-x="686" 
d="M125 197h86v1017h-109l35 197h420v-197h-82v-1017h107l-35 -197h-422v197zM143 1649l463 321l125 -194l-500 -263z" />
    <glyph glyph-name="Icircumflex" unicode="&#xce;" horiz-adv-x="686" 
d="M125 197h86v1017h-109l35 197h420v-197h-82v-1017h107l-35 -197h-422v197zM-10 1608l274 327h156l274 -327l-135 -111l-215 229l-219 -229z" />
    <glyph glyph-name="Idieresis" unicode="&#xcf;" horiz-adv-x="686" 
d="M125 197h86v1017h-109l35 197h420v-197h-82v-1017h107l-35 -197h-422v197zM686 1602h-256v188l256 72v-260zM244 1602h-256v188l256 72v-260z" />
    <glyph glyph-name="Eth" unicode="&#xd0;" horiz-adv-x="1460" 
d="M1083 703.5q0 191.5 -43 302t-141 159.5t-268 49h-162v-395h344v-194h-344v-428h162q170 0 268 48t141 157.5t43 301zM1358 706q0 -265 -69.5 -418t-226.5 -220.5t-431 -67.5h-508v197h82v428h-127l24 194h103v395l-142 197h568q274 0 431 -67.5t226.5 -220t69.5 -417.5z
" />
    <glyph glyph-name="Ntilde" unicode="&#xd1;" horiz-adv-x="1558" 
d="M127 197h78v1052l-119 162h389l672 -999h8v802l-141 197h459v-197h-78v-1214h-269l-669 977h-8v-780h90l-35 -197h-377v197zM657 1882q67 0 170 -63q8 -4 48 -27t76 -23t64.5 29t59.5 80l125 -88q-76 -219 -239 -219q-50 0 -87.5 16.5t-104.5 56t-103 39.5
q-59 0 -123 -108l-125 88q76 219 239 219z" />
    <glyph glyph-name="Ograve" unicode="&#xd2;" horiz-adv-x="1441" 
d="M1065 707.5q0 273.5 -82 398.5t-262 125t-262 -125t-82 -398t82 -398.5t262 -125.5t262 125t82 398.5zM102 706.5q0 378.5 148.5 554t471.5 175.5t470 -175.5t147 -554t-147.5 -552.5t-469 -174t-471 174t-149.5 552.5zM311 1769l129 195l471 -311l-86 -140z" />
    <glyph glyph-name="Oacute" unicode="&#xd3;" horiz-adv-x="1441" 
d="M1065 707.5q0 273.5 -82 398.5t-262 125t-262 -125t-82 -398t82 -398.5t262 -125.5t262 125t82 398.5zM102 706.5q0 378.5 148.5 554t471.5 175.5t470 -175.5t147 -554t-147.5 -552.5t-469 -174t-471 174t-149.5 552.5zM522 1649l463 321l125 -194l-500 -263z" />
    <glyph glyph-name="Ocircumflex" unicode="&#xd4;" horiz-adv-x="1441" 
d="M1065 707.5q0 273.5 -82 398.5t-262 125t-262 -125t-82 -398t82 -398.5t262 -125.5t262 125t82 398.5zM102 706.5q0 378.5 148.5 554t471.5 175.5t470 -175.5t147 -554t-147.5 -552.5t-469 -174t-471 174t-149.5 552.5zM369 1608l274 327h156l274 -327l-135 -111
l-215 229l-219 -229z" />
    <glyph glyph-name="Otilde" unicode="&#xd5;" horiz-adv-x="1441" 
d="M1065 707.5q0 273.5 -82 398.5t-262 125t-262 -125t-82 -398t82 -398.5t262 -125.5t262 125t82 398.5zM102 706.5q0 378.5 148.5 554t471.5 175.5t470 -175.5t147 -554t-147.5 -552.5t-469 -174t-471 174t-149.5 552.5zM578 1683q-59 0 -123 -108l-125 88q76 219 239 219
q67 0 170 -63q8 -4 48 -27t76 -23t64.5 29t59.5 80l125 -88q-76 -219 -240 -219q-49 0 -86.5 16.5t-104.5 56t-103 39.5z" />
    <glyph glyph-name="Odieresis" unicode="&#xd6;" horiz-adv-x="1441" 
d="M1065 707.5q0 273.5 -82 398.5t-262 125t-262 -125t-82 -398t82 -398.5t262 -125.5t262 125t82 398.5zM102 706.5q0 378.5 148.5 554t471.5 175.5t470 -175.5t147 -554t-147.5 -552.5t-469 -174t-471 174t-149.5 552.5zM1065 1602h-256v188l256 72v-260zM623 1602h-256
v188l256 72v-260z" />
    <glyph glyph-name="multiply" unicode="&#xd7;" horiz-adv-x="1187" 
d="M178 285l250 241l-254 254l162 158l256 -260l258 260l166 -158l-254 -254l250 -241l-162 -164l-258 260l-256 -260z" />
    <glyph glyph-name="Oslash" unicode="&#xd8;" horiz-adv-x="1441" 
d="M1065 707q0 178 -39 305l-516 -762q78 -66 211 -66q180 0 262 125t82 398zM721 1231q-180 0 -262 -125t-82 -399q0 -168 31 -283l510 750q-76 57 -197 57zM723 1436q199 0 328 -66l141 209l151 -100l-149 -222q145 -176 145 -552.5t-147.5 -550.5t-468.5 -174
q-215 0 -348 73l-146 -215l-151 101l158 233q-133 176 -133.5 545t148 544t472.5 175z" />
    <glyph glyph-name="Ugrave" unicode="&#xd9;" horiz-adv-x="1462" 
d="M164 518v696l-141 197h487v-197h-82v-696q0 -182 68.5 -258t236.5 -76t236.5 76t68.5 258v696l-141 197h483v-197h-82v-696q0 -199 -55 -315.5t-178 -169.5t-333 -53t-333 53t-179 169.5t-56 315.5zM330 1769l129 195l471 -311l-86 -140z" />
    <glyph glyph-name="Uacute" unicode="&#xda;" horiz-adv-x="1462" 
d="M164 518v696l-141 197h487v-197h-82v-696q0 -182 68.5 -258t236.5 -76t236.5 76t68.5 258v696l-141 197h483v-197h-82v-696q0 -199 -55 -315.5t-178 -169.5t-333 -53t-333 53t-179 169.5t-56 315.5zM541 1649l463 321l124 -194l-499 -263z" />
    <glyph glyph-name="Ucircumflex" unicode="&#xdb;" horiz-adv-x="1462" 
d="M164 518v696l-141 197h487v-197h-82v-696q0 -182 68.5 -258t236.5 -76t236.5 76t68.5 258v696l-141 197h483v-197h-82v-696q0 -199 -55 -315.5t-178 -169.5t-333 -53t-333 53t-179 169.5t-56 315.5zM387 1608l275 327h155l275 -327l-136 -111l-215 229l-219 -229z" />
    <glyph glyph-name="Udieresis" unicode="&#xdc;" horiz-adv-x="1462" 
d="M164 518v696l-141 197h487v-197h-82v-696q0 -182 68.5 -258t236.5 -76t236.5 76t68.5 258v696l-141 197h483v-197h-82v-696q0 -199 -55 -315.5t-178 -169.5t-333 -53t-333 53t-179 169.5t-56 315.5zM1083 1602h-256v188l256 72v-260zM641 1602h-256v188l256 72v-260z" />
    <glyph glyph-name="Yacute" unicode="&#xdd;" horiz-adv-x="1280" 
d="M430 197h70v325l-504 889h508l-35 -197h-98l118 -217q90 -166 142 -276h10q47 109 135 278l113 215l-141 197h487v-197h-98l-373 -684v-333h94l-35 -197h-393v197zM428 1649l463 321l125 -194l-500 -263z" />
    <glyph glyph-name="Thorn" unicode="&#xde;" horiz-adv-x="1236" 
d="M688 500q111 0 163 52t52 162t-53 159t-166 49h-215v-422h219zM119 197h86v1017h-109l35 197h420v-197h-82v-96h205q256 0 376.5 -97t120.5 -307t-115.5 -310.5t-361.5 -100.5h-225v-106h106l-34 -197h-422v197z" />
    <glyph glyph-name="germandbls" unicode="&#xdf;" horiz-adv-x="2228" 
d="M606 1239q-246 0 -246 -175q0 -85 48.5 -132t148.5 -74l164 -43q168 -43 247 -140t79 -259q0 -225 -127 -330.5t-400 -105.5q-217 0 -424 53v284l240 68v-192q102 -16 178 -17q135 0 198.5 52.5t63.5 146.5t-44 142t-138 73l-162 43q-176 47 -258 143t-82 252
q0 211 122 309.5t382 98.5q188 0 387 -50v-278l-240 -68v187q-70 12 -137 12zM1720 1239q-245 0 -245 -175q0 -85 48 -132t148 -74l164 -43q168 -43 247 -140t79 -259q0 -225 -127 -330.5t-400 -105.5q-217 0 -424 53v284l240 68v-192q102 -16 178 -17q135 0 198.5 52.5
t63.5 146.5t-44 142t-138 73l-162 43q-176 47 -258 143t-82 252q0 211 122 309.5t382 98.5q188 0 387 -50v-278l-239 -68v187q-70 12 -138 12z" />
    <glyph glyph-name="agrave" unicode="&#xe0;" horiz-adv-x="1390" 
d="M51 197h82l367 1024l-138 190h455l434 -1214h111l-35 -197h-422v197h84l-80 237h-211l-143 199h289l-51 160q-45 143 -97 333h-12q-55 -195 -102 -333l-199 -596h113l-35 -197h-410v197zM274 1769l129 195l471 -311l-86 -140z" />
    <glyph glyph-name="aacute" unicode="&#xe1;" horiz-adv-x="1390" 
d="M51 197h82l367 1024l-138 190h455l434 -1214h111l-35 -197h-422v197h84l-80 237h-211l-143 199h289l-51 160q-45 143 -97 333h-12q-55 -195 -102 -333l-199 -596h113l-35 -197h-410v197zM485 1649l463 321l125 -194l-500 -263z" />
    <glyph glyph-name="acircumflex" unicode="&#xe2;" horiz-adv-x="1390" 
d="M51 197h82l367 1024l-138 190h455l434 -1214h111l-35 -197h-422v197h84l-80 237h-211l-143 199h289l-51 160q-45 143 -97 333h-12q-55 -195 -102 -333l-199 -596h113l-35 -197h-410v197zM332 1608l274 327h156l274 -327l-135 -111l-215 229l-219 -229z" />
    <glyph glyph-name="atilde" unicode="&#xe3;" horiz-adv-x="1390" 
d="M51 197h82l367 1024l-138 190h455l434 -1214h111l-35 -197h-422v197h84l-80 237h-211l-143 199h289l-51 160q-45 143 -97 333h-12q-55 -195 -102 -333l-199 -596h113l-35 -197h-410v197zM827 1769q59 0 123 109l125 -88q-76 -219 -239 -219q-50 0 -87.5 16.5t-104.5 56.5
t-102.5 39.5t-64 -29t-59.5 -79.5l-125 88q76 219 239 219q67 0 170 -63q8 -4 48 -27t77 -23z" />
    <glyph glyph-name="adieresis" unicode="&#xe4;" horiz-adv-x="1390" 
d="M51 197h82l367 1024l-138 190h455l434 -1214h111l-35 -197h-422v197h84l-80 237h-211l-143 199h289l-51 160q-45 143 -97 333h-12q-55 -195 -102 -333l-199 -596h113l-35 -197h-410v197zM1028 1602h-256v188l256 72v-260zM586 1602h-256v188l256 72v-260z" />
    <glyph glyph-name="aring" unicode="&#xe5;" horiz-adv-x="1390" 
d="M51 197h82l367 1024l-138 190h455l434 -1214h111l-35 -197h-422v197h84l-80 237h-211l-143 199h289l-51 160q-45 143 -97 333h-12q-55 -195 -102 -333l-199 -596h113l-35 -197h-410v197zM764 1726.5q0 36.5 -21.5 61t-58.5 24.5t-58.5 -24.5t-21.5 -61t21.5 -59
t58.5 -22.5t58.5 22.5t21.5 59zM444 1726.5q0 98.5 64.5 162t175.5 63.5t175.5 -63.5t64.5 -162t-64.5 -162t-175.5 -63.5t-175.5 63.5t-64.5 162z" />
    <glyph glyph-name="ae" unicode="&#xe6;" horiz-adv-x="2027" 
d="M37 197h74l637 1017l-144 197h1290v-297l-239 -67v167h-369v-395h486l-150 -201h-336v-421h387v149l240 68v-414h-973v197h82v237h-211l-133 199h344v581h-16l-617 -1017h111l-35 -197h-428v197z" />
    <glyph glyph-name="ccedilla" unicode="&#xe7;" horiz-adv-x="1296" 
d="M688 -223q-57 0 -123 -21l32 235q-215 34 -334 166q-161 177 -161 551t156 551t487 177q197 0 420 -52v-270l-239 -67v167q-86 16 -178 17q-190 0 -280.5 -129t-90.5 -398.5t94 -394.5t295 -125q90 0 178 19v143l240 68v-379q-199 -55 -428 -55h-6l-13 -84q33 8 78 8
q88 0 138.5 -52.5t50.5 -143.5t-69 -149.5t-181.5 -58.5t-212.5 37l-17 135q100 -39 160 -39q116 0 116.5 72t-112.5 72z" />
    <glyph glyph-name="egrave" unicode="&#xe8;" horiz-adv-x="1210" 
d="M123 197h82v1017l-142 197h1014v-297l-239 -67v167h-369v-395h481l-145 -201h-336v-421h387v149l240 68v-414h-973v197zM209 1769l129 195l471 -311l-86 -140z" />
    <glyph glyph-name="eacute" unicode="&#xe9;" horiz-adv-x="1210" 
d="M123 197h82v1017l-142 197h1014v-297l-239 -67v167h-369v-395h481l-145 -201h-336v-421h387v149l240 68v-414h-973v197zM420 1649l463 321l125 -194l-500 -263z" />
    <glyph glyph-name="ecircumflex" unicode="&#xea;" horiz-adv-x="1210" 
d="M123 197h82v1017l-142 197h1014v-297l-239 -67v167h-369v-395h481l-145 -201h-336v-421h387v149l240 68v-414h-973v197zM266 1608l275 327h155l275 -327l-135 -111l-215 229l-220 -229z" />
    <glyph glyph-name="edieresis" unicode="&#xeb;" horiz-adv-x="1210" 
d="M123 197h82v1017l-142 197h1014v-297l-239 -67v167h-369v-395h481l-145 -201h-336v-421h387v149l240 68v-414h-973v197zM963 1602h-256v188l256 72v-260zM520 1602h-256v188l256 72v-260z" />
    <glyph glyph-name="igrave" unicode="&#xec;" horiz-adv-x="686" 
d="M125 197h86v1017h-109l35 197h420v-197h-82v-1017h107l-35 -197h-422v197zM-68 1769l129 195l471 -311l-86 -140z" />
    <glyph glyph-name="iacute" unicode="&#xed;" horiz-adv-x="686" 
d="M125 197h86v1017h-109l35 197h420v-197h-82v-1017h107l-35 -197h-422v197zM143 1649l463 321l125 -194l-500 -263z" />
    <glyph glyph-name="icircumflex" unicode="&#xee;" horiz-adv-x="686" 
d="M125 197h86v1017h-109l35 197h420v-197h-82v-1017h107l-35 -197h-422v197zM-10 1608l274 327h156l274 -327l-135 -111l-215 229l-219 -229z" />
    <glyph glyph-name="idieresis" unicode="&#xef;" horiz-adv-x="686" 
d="M125 197h86v1017h-109l35 197h420v-197h-82v-1017h107l-35 -197h-422v197zM686 1602h-256v188l256 72v-260zM244 1602h-256v188l256 72v-260z" />
    <glyph glyph-name="eth" unicode="&#xf0;" horiz-adv-x="1460" 
d="M1083 703.5q0 191.5 -43 302t-141 159.5t-268 49h-162v-395h344v-194h-344v-428h162q170 0 268 48t141 157.5t43 301zM1358 706q0 -265 -69.5 -418t-226.5 -220.5t-431 -67.5h-508v197h82v428h-127l24 194h103v395l-142 197h568q274 0 431 -67.5t226.5 -220t69.5 -417.5z
" />
    <glyph glyph-name="ntilde" unicode="&#xf1;" horiz-adv-x="1558" 
d="M127 197h78v1052l-119 162h389l672 -999h8v802l-141 197h459v-197h-78v-1214h-269l-669 977h-8v-780h90l-35 -197h-377v197zM657 1882q67 0 170 -63q8 -4 48 -27t76 -23t64.5 29t59.5 80l125 -88q-76 -219 -239 -219q-50 0 -87.5 16.5t-104.5 56t-103 39.5
q-59 0 -123 -108l-125 88q76 219 239 219z" />
    <glyph glyph-name="ograve" unicode="&#xf2;" horiz-adv-x="1441" 
d="M1065 707.5q0 273.5 -82 398.5t-262 125t-262 -125t-82 -398t82 -398.5t262 -125.5t262 125t82 398.5zM102 706.5q0 378.5 148.5 554t471.5 175.5t470 -175.5t147 -554t-147.5 -552.5t-469 -174t-471 174t-149.5 552.5zM311 1769l129 195l471 -311l-86 -140z" />
    <glyph glyph-name="oacute" unicode="&#xf3;" horiz-adv-x="1441" 
d="M1065 707.5q0 273.5 -82 398.5t-262 125t-262 -125t-82 -398t82 -398.5t262 -125.5t262 125t82 398.5zM102 706.5q0 378.5 148.5 554t471.5 175.5t470 -175.5t147 -554t-147.5 -552.5t-469 -174t-471 174t-149.5 552.5zM522 1649l463 321l125 -194l-500 -263z" />
    <glyph glyph-name="ocircumflex" unicode="&#xf4;" horiz-adv-x="1441" 
d="M1065 707.5q0 273.5 -82 398.5t-262 125t-262 -125t-82 -398t82 -398.5t262 -125.5t262 125t82 398.5zM102 706.5q0 378.5 148.5 554t471.5 175.5t470 -175.5t147 -554t-147.5 -552.5t-469 -174t-471 174t-149.5 552.5zM369 1608l274 327h156l274 -327l-135 -111
l-215 229l-219 -229z" />
    <glyph glyph-name="otilde" unicode="&#xf5;" horiz-adv-x="1441" 
d="M1065 707.5q0 273.5 -82 398.5t-262 125t-262 -125t-82 -398t82 -398.5t262 -125.5t262 125t82 398.5zM102 706.5q0 378.5 148.5 554t471.5 175.5t470 -175.5t147 -554t-147.5 -552.5t-469 -174t-471 174t-149.5 552.5zM578 1683q-59 0 -123 -108l-125 88q76 219 239 219
q67 0 170 -63q8 -4 48 -27t76 -23t64.5 29t59.5 80l125 -88q-76 -219 -240 -219q-49 0 -86.5 16.5t-104.5 56t-103 39.5z" />
    <glyph glyph-name="odieresis" unicode="&#xf6;" horiz-adv-x="1441" 
d="M1065 707.5q0 273.5 -82 398.5t-262 125t-262 -125t-82 -398t82 -398.5t262 -125.5t262 125t82 398.5zM102 706.5q0 378.5 148.5 554t471.5 175.5t470 -175.5t147 -554t-147.5 -552.5t-469 -174t-471 174t-149.5 552.5zM1065 1602h-256v188l256 72v-260zM623 1602h-256
v188l256 72v-260z" />
    <glyph glyph-name="divide" unicode="&#xf7;" horiz-adv-x="1187" 
d="M711 49h-246v230l246 22v-252zM139 641h910l-39 -217h-871v217zM711 774h-246v230l246 22v-252z" />
    <glyph glyph-name="oslash" unicode="&#xf8;" horiz-adv-x="1441" 
d="M1065 707q0 178 -39 305l-516 -762q78 -66 211 -66q180 0 262 125t82 398zM721 1231q-180 0 -262 -125t-82 -399q0 -168 31 -283l510 750q-76 57 -197 57zM723 1436q199 0 328 -66l141 209l151 -100l-149 -222q145 -176 145 -552.5t-147.5 -550.5t-468.5 -174
q-215 0 -348 73l-146 -215l-151 101l158 233q-133 176 -133.5 545t148 544t472.5 175z" />
    <glyph glyph-name="ugrave" unicode="&#xf9;" horiz-adv-x="1462" 
d="M164 518v696l-141 197h487v-197h-82v-696q0 -182 68.5 -258t236.5 -76t236.5 76t68.5 258v696l-141 197h483v-197h-82v-696q0 -199 -55 -315.5t-178 -169.5t-333 -53t-333 53t-179 169.5t-56 315.5zM330 1769l129 195l471 -311l-86 -140z" />
    <glyph glyph-name="uacute" unicode="&#xfa;" horiz-adv-x="1462" 
d="M164 518v696l-141 197h487v-197h-82v-696q0 -182 68.5 -258t236.5 -76t236.5 76t68.5 258v696l-141 197h483v-197h-82v-696q0 -199 -55 -315.5t-178 -169.5t-333 -53t-333 53t-179 169.5t-56 315.5zM541 1649l463 321l124 -194l-499 -263z" />
    <glyph glyph-name="ucircumflex" unicode="&#xfb;" horiz-adv-x="1462" 
d="M164 518v696l-141 197h487v-197h-82v-696q0 -182 68.5 -258t236.5 -76t236.5 76t68.5 258v696l-141 197h483v-197h-82v-696q0 -199 -55 -315.5t-178 -169.5t-333 -53t-333 53t-179 169.5t-56 315.5zM387 1608l275 327h155l275 -327l-136 -111l-215 229l-219 -229z" />
    <glyph glyph-name="udieresis" unicode="&#xfc;" horiz-adv-x="1462" 
d="M164 518v696l-141 197h487v-197h-82v-696q0 -182 68.5 -258t236.5 -76t236.5 76t68.5 258v696l-141 197h483v-197h-82v-696q0 -199 -55 -315.5t-178 -169.5t-333 -53t-333 53t-179 169.5t-56 315.5zM1083 1602h-256v188l256 72v-260zM641 1602h-256v188l256 72v-260z" />
    <glyph glyph-name="yacute" unicode="&#xfd;" horiz-adv-x="1280" 
d="M430 197h70v325l-504 889h508l-35 -197h-98l118 -217q90 -166 142 -276h10q47 109 135 278l113 215l-141 197h487v-197h-98l-373 -684v-333h94l-35 -197h-393v197zM428 1649l463 321l125 -194l-500 -263z" />
    <glyph glyph-name="thorn" unicode="&#xfe;" horiz-adv-x="1236" 
d="M688 500q111 0 163 52t52 162t-53 158q-53 49 -166 50h-215v-422h219zM119 197h86v1017h-109l35 197h420v-197h-82v-96h205q256 0 377 -97t121 -307t-116 -311q-116 -100 -362 -100h-225v-106h106l-34 -197h-422v197z" />
    <glyph glyph-name="ydieresis" unicode="&#xff;" horiz-adv-x="1280" 
d="M430 197h70v325l-504 889h508l-35 -197h-98l118 -217q90 -166 142 -276h10q47 109 135 278l113 215l-141 197h487v-197h-98l-373 -684v-333h94l-35 -197h-393v197zM971 1602h-256v188l256 72v-260zM528 1602h-256v188l256 72v-260z" />
    <glyph glyph-name="Amacron" unicode="&#x100;" horiz-adv-x="1390" 
d="M51 197h82l367 1024l-138 190h455l434 -1214h111l-35 -197h-422v197h84l-80 237h-211l-143 199h289l-51 160q-45 143 -97 333h-12q-55 -195 -102 -333l-199 -596h113l-35 -197h-410v197zM360 1780h650l-31 -172h-619v172z" />
    <glyph glyph-name="amacron" unicode="&#x101;" horiz-adv-x="1390" 
d="M51 197h82l367 1024l-138 190h455l434 -1214h111l-35 -197h-422v197h84l-80 237h-211l-143 199h289l-51 160q-45 143 -97 333h-12q-55 -195 -102 -333l-199 -596h113l-35 -197h-410v197zM360 1780h650l-31 -172h-619v172z" />
    <glyph glyph-name="Abreve" unicode="&#x102;" horiz-adv-x="1390" 
d="M51 197h82l367 1024l-138 190h455l434 -1214h111l-35 -197h-422v197h84l-80 237h-211l-143 199h289l-51 160q-45 143 -97 333h-12q-55 -195 -102 -333l-199 -596h113l-35 -197h-410v197zM684 1755q59 0 91 33t46 106l185 -24q-8 -139 -92.5 -220t-229.5 -81t-229 81
t-93 220l185 24q14 -74 46 -106.5t91 -32.5z" />
    <glyph glyph-name="abreve" unicode="&#x103;" horiz-adv-x="1390" 
d="M51 197h82l367 1024l-138 190h455l434 -1214h111l-35 -197h-422v197h84l-80 237h-211l-143 199h289l-51 160q-45 143 -97 333h-12q-55 -195 -102 -333l-199 -596h113l-35 -197h-410v197zM684 1755q59 0 91 33t46 106l185 -24q-8 -139 -92.5 -220t-229.5 -81t-229 81
t-93 220l185 24q14 -74 46 -106.5t91 -32.5z" />
    <glyph glyph-name="Aogonek" unicode="&#x104;" horiz-adv-x="1390" 
d="M1120 -207q0 -84 92 -84q76 0 158 39l-29 -158q-89 -39 -204 -39t-185.5 51.5t-70.5 144.5t58.5 155t131.5 98h-166v197h84l-80 237h-211l-143 199h289l-51 160q-45 143 -97 333h-12q-55 -195 -102 -333l-199 -596h113l-35 -197h-410v197h82l367 1024l-138 190h455
l434 -1214h111l-35 -197q-106 -47 -156.5 -102.5t-50.5 -104.5z" />
    <glyph glyph-name="aogonek" unicode="&#x105;" horiz-adv-x="1390" 
d="M1120 -207q0 -84 92 -84q76 0 158 39l-29 -158q-89 -39 -204 -39t-185.5 51.5t-70.5 144.5t58.5 155t131.5 98h-166v197h84l-80 237h-211l-143 199h289l-51 160q-45 143 -97 333h-12q-55 -195 -102 -333l-199 -596h113l-35 -197h-410v197h82l367 1024l-138 190h455
l434 -1214h111l-35 -197q-106 -47 -156.5 -102.5t-50.5 -104.5z" />
    <glyph glyph-name="Cacute" unicode="&#x106;" horiz-adv-x="1296" 
d="M102 708q0 374 156 551t487 177q197 0 420 -52v-270l-239 -67v167q-86 16 -178 17q-190 0 -280.5 -129t-90.5 -398.5t94 -394.5t295 -125q90 0 178 19v143l240 68v-379q-199 -55 -428 -55q-332 0 -493 177t-161 551zM539 1649l462 321l125 -194l-499 -263z" />
    <glyph glyph-name="cacute" unicode="&#x107;" horiz-adv-x="1296" 
d="M102 708q0 374 156 551t487 177q197 0 420 -52v-270l-239 -67v167q-86 16 -178 17q-190 0 -280.5 -129t-90.5 -398.5t94 -394.5t295 -125q90 0 178 19v143l240 68v-379q-199 -55 -428 -55q-332 0 -493 177t-161 551zM539 1649l462 321l125 -194l-499 -263z" />
    <glyph glyph-name="Ccircumflex" unicode="&#x108;" horiz-adv-x="1296" 
d="M102 708q0 374 156 551t487 177q197 0 420 -52v-270l-239 -67v167q-86 16 -178 17q-190 0 -280.5 -129t-90.5 -398.5t94 -394.5t295 -125q90 0 178 19v143l240 68v-379q-199 -55 -428 -55q-332 0 -493 177t-161 551zM385 1608l274 327h156l275 -327l-136 -111l-215 229
l-219 -229z" />
    <glyph glyph-name="ccircumflex" unicode="&#x109;" horiz-adv-x="1296" 
d="M102 708q0 374 156 551t487 177q197 0 420 -52v-270l-239 -67v167q-86 16 -178 17q-190 0 -280.5 -129t-90.5 -398.5t94 -394.5t295 -125q90 0 178 19v143l240 68v-379q-199 -55 -428 -55q-332 0 -493 177t-161 551zM385 1608l274 327h156l275 -327l-136 -111l-215 229
l-219 -229z" />
    <glyph glyph-name="Cdotaccent" unicode="&#x10a;" horiz-adv-x="1296" 
d="M102 708q0 374 156 551t487 177q197 0 420 -52v-270l-239 -67v167q-86 16 -178 17q-190 0 -280.5 -129t-90.5 -398.5t94 -394.5t295 -125q90 0 178 19v143l240 68v-379q-199 -55 -428 -55q-332 0 -493 177t-161 551zM864 1602h-256v186l256 74v-260z" />
    <glyph glyph-name="cdotaccent" unicode="&#x10b;" horiz-adv-x="1296" 
d="M102 708q0 374 156 551t487 177q197 0 420 -52v-270l-239 -67v167q-86 16 -178 17q-190 0 -280.5 -129t-90.5 -398.5t94 -394.5t295 -125q90 0 178 19v143l240 68v-379q-199 -55 -428 -55q-332 0 -493 177t-161 551zM864 1602h-256v186l256 74v-260z" />
    <glyph glyph-name="Ccaron" unicode="&#x10c;" horiz-adv-x="1296" 
d="M102 708q0 374 156 551t487 177q197 0 420 -52v-270l-239 -67v167q-86 16 -178 17q-190 0 -280.5 -129t-90.5 -398.5t94 -394.5t295 -125q90 0 178 19v143l240 68v-379q-199 -55 -428 -55q-332 0 -493 177t-161 551zM387 1862l135 110l215 -229l219 229l136 -110
l-275 -328h-155z" />
    <glyph glyph-name="ccaron" unicode="&#x10d;" horiz-adv-x="1296" 
d="M102 708q0 374 156 551t487 177q197 0 420 -52v-270l-239 -67v167q-86 16 -178 17q-190 0 -280.5 -129t-90.5 -398.5t94 -394.5t295 -125q90 0 178 19v143l240 68v-379q-199 -55 -428 -55q-332 0 -493 177t-161 551zM387 1862l135 110l215 -229l219 229l136 -110
l-275 -328h-155z" />
    <glyph glyph-name="Dcaron" unicode="&#x10e;" horiz-adv-x="1460" 
d="M631 197q170 0 268 48t141 157.5t43 301.5t-43 302t-141 159t-268 49h-162v-1017h162zM123 197h82v1017l-142 197h568q274 0 431 -67.5t226.5 -220t69.5 -417.5t-69.5 -418t-226.5 -220.5t-431 -67.5h-508v197zM367 1862l135 110l215 -229l219 229l135 -110l-274 -328
h-156z" />
    <glyph glyph-name="dcaron" unicode="&#x10f;" horiz-adv-x="1460" 
d="M631 197q170 0 268 48t141 157.5t43 301.5t-43 302t-141 159t-268 49h-162v-1017h162zM123 197h82v1017l-142 197h568q274 0 431 -67.5t226.5 -220t69.5 -417.5t-69.5 -418t-226.5 -220.5t-431 -67.5h-508v197zM367 1862l135 110l215 -229l219 229l135 -110l-274 -328
h-156z" />
    <glyph glyph-name="Dcroat" unicode="&#x110;" horiz-adv-x="1460" 
d="M1083 703.5q0 191.5 -43 302t-141 159.5t-268 49h-162v-395h344v-194h-344v-428h162q170 0 268 48t141 157.5t43 301zM1358 706q0 -265 -69.5 -418t-226.5 -220.5t-431 -67.5h-508v197h82v428h-127l24 194h103v395l-142 197h568q274 0 431 -67.5t226.5 -220t69.5 -417.5z
" />
    <glyph glyph-name="dcroat" unicode="&#x111;" horiz-adv-x="1460" 
d="M1083 703.5q0 191.5 -43 302t-141 159.5t-268 49h-162v-395h344v-194h-344v-428h162q170 0 268 48t141 157.5t43 301zM1358 706q0 -265 -69.5 -418t-226.5 -220.5t-431 -67.5h-508v197h82v428h-127l24 194h103v395l-142 197h568q274 0 431 -67.5t226.5 -220t69.5 -417.5z
" />
    <glyph glyph-name="Emacron" unicode="&#x112;" horiz-adv-x="1210" 
d="M123 197h82v1017l-142 197h1014v-297l-239 -67v167h-369v-395h481l-145 -201h-336v-421h387v149l240 68v-414h-973v197zM295 1780h649l-31 -172h-618v172z" />
    <glyph glyph-name="emacron" unicode="&#x113;" horiz-adv-x="1210" 
d="M123 197h82v1017l-142 197h1014v-297l-239 -67v167h-369v-395h481l-145 -201h-336v-421h387v149l240 68v-414h-973v197zM295 1780h649l-31 -172h-618v172z" />
    <glyph glyph-name="Ebreve" unicode="&#x114;" horiz-adv-x="1210" 
d="M123 197h82v1017l-142 197h1014v-297l-239 -67v167h-369v-395h481l-145 -201h-336v-421h387v149l240 68v-414h-973v197zM618.5 1755q59.5 0 91 33t46.5 106l184 -24q-8 -139 -92 -220t-229.5 -81t-229.5 81t-92 220l184 24q14 -74 46 -106.5t91.5 -32.5z" />
    <glyph glyph-name="ebreve" unicode="&#x115;" horiz-adv-x="1210" 
d="M123 197h82v1017l-142 197h1014v-297l-239 -67v167h-369v-395h481l-145 -201h-336v-421h387v149l240 68v-414h-973v197zM618.5 1755q59.5 0 91 33t46.5 106l184 -24q-8 -139 -92 -220t-229.5 -81t-229.5 81t-92 220l184 24q14 -74 46 -106.5t91.5 -32.5z" />
    <glyph glyph-name="Edotaccent" unicode="&#x116;" horiz-adv-x="1210" 
d="M123 197h82v1017l-142 197h1014v-297l-239 -67v167h-369v-395h481l-145 -201h-336v-421h387v149l240 68v-414h-973v197zM745 1602h-256v186l256 74v-260z" />
    <glyph glyph-name="edotaccent" unicode="&#x117;" horiz-adv-x="1210" 
d="M123 197h82v1017l-142 197h1014v-297l-239 -67v167h-369v-395h481l-145 -201h-336v-421h387v149l240 68v-414h-973v197zM745 1602h-256v186l256 74v-260z" />
    <glyph glyph-name="Eogonek" unicode="&#x118;" horiz-adv-x="1210" 
d="M889 -207q0 -84 92 -84q76 0 158 39l-29 -158q-89 -39 -204.5 -39t-186 51.5t-70.5 144.5q0 159 191 253h-717v197h82v1017l-142 197h1014v-297l-239 -67v167h-369v-395h481l-145 -201h-336v-421h387v149l240 68v-414q-106 -47 -156.5 -102.5t-50.5 -104.5z" />
    <glyph glyph-name="eogonek" unicode="&#x119;" horiz-adv-x="1210" 
d="M889 -207q0 -84 92 -84q76 0 158 39l-29 -158q-89 -39 -204.5 -39t-186 51.5t-70.5 144.5q0 159 191 253h-717v197h82v1017l-142 197h1014v-297l-239 -67v167h-369v-395h481l-145 -201h-336v-421h387v149l240 68v-414q-106 -47 -156.5 -102.5t-50.5 -104.5z" />
    <glyph glyph-name="Ecaron" unicode="&#x11a;" horiz-adv-x="1210" 
d="M123 197h82v1017l-142 197h1014v-297l-239 -67v167h-369v-395h481l-145 -201h-336v-421h387v149l240 68v-414h-973v197zM268 1862l135 110l215 -229l220 229l135 -110l-275 -328h-155z" />
    <glyph glyph-name="ecaron" unicode="&#x11b;" horiz-adv-x="1210" 
d="M123 197h82v1017l-142 197h1014v-297l-239 -67v167h-369v-395h481l-145 -201h-336v-421h387v149l240 68v-414h-973v197zM268 1862l135 110l215 -229l220 229l135 -110l-275 -328h-155z" />
    <glyph glyph-name="Gcircumflex" unicode="&#x11c;" horiz-adv-x="1388" 
d="M102 703.5q0 379.5 167 556t532 176.5q221 0 440 -52v-282l-240 -68v180q-92 16 -196 17q-223 0 -325.5 -128t-102.5 -400.5t97 -395.5t308 -123q135 0 234 39v348h-248l-152 209h662v-708q-256 -92 -498 -92q-354 0 -516 172t-162 551.5zM397 1608l275 327h155l275 -327
l-135 -111l-215 229l-220 -229z" />
    <glyph glyph-name="gcircumflex" unicode="&#x11d;" horiz-adv-x="1388" 
d="M102 703.5q0 379.5 167 556t532 176.5q221 0 440 -52v-282l-240 -68v180q-92 16 -196 17q-223 0 -325.5 -128t-102.5 -400.5t97 -395.5t308 -123q135 0 234 39v348h-248l-152 209h662v-708q-256 -92 -498 -92q-354 0 -516 172t-162 551.5zM397 1608l275 327h155l275 -327
l-135 -111l-215 229l-220 -229z" />
    <glyph glyph-name="Gbreve" unicode="&#x11e;" horiz-adv-x="1388" 
d="M102 703.5q0 379.5 167 556t532 176.5q221 0 440 -52v-282l-240 -68v180q-92 16 -196 17q-223 0 -325.5 -128t-102.5 -400.5t97 -395.5t308 -123q135 0 234 39v348h-248l-152 209h662v-708q-256 -92 -498 -92q-354 0 -516 172t-162 551.5zM749.5 1755q59.5 0 91 33
t46.5 106l184 -24q-8 -139 -92 -220t-229.5 -81t-229.5 81t-92 220l184 24q14 -74 46 -106.5t91.5 -32.5z" />
    <glyph glyph-name="gbreve" unicode="&#x11f;" horiz-adv-x="1388" 
d="M102 703.5q0 379.5 167 556t532 176.5q221 0 440 -52v-282l-240 -68v180q-92 16 -196 17q-223 0 -325.5 -128t-102.5 -400.5t97 -395.5t308 -123q135 0 234 39v348h-248l-152 209h662v-708q-256 -92 -498 -92q-354 0 -516 172t-162 551.5zM749.5 1755q59.5 0 91 33
t46.5 106l184 -24q-8 -139 -92 -220t-229.5 -81t-229.5 81t-92 220l184 24q14 -74 46 -106.5t91.5 -32.5z" />
    <glyph glyph-name="Gdotaccent" unicode="&#x120;" horiz-adv-x="1388" 
d="M102 703.5q0 379.5 167 556t532 176.5q221 0 440 -52v-282l-240 -68v180q-92 16 -196 17q-223 0 -325.5 -128t-102.5 -400.5t97 -395.5t308 -123q135 0 234 39v348h-248l-152 209h662v-708q-256 -92 -498 -92q-354 0 -516 172t-162 551.5zM877 1602h-256v186l256 74v-260
z" />
    <glyph glyph-name="gdotaccent" unicode="&#x121;" horiz-adv-x="1388" 
d="M102 703.5q0 379.5 167 556t532 176.5q221 0 440 -52v-282l-240 -68v180q-92 16 -196 17q-223 0 -325.5 -128t-102.5 -400.5t97 -395.5t308 -123q135 0 234 39v348h-248l-152 209h662v-708q-256 -92 -498 -92q-354 0 -516 172t-162 551.5zM877 1602h-256v186l256 74v-260
z" />
    <glyph glyph-name="Gcommaaccent" unicode="&#x122;" horiz-adv-x="1388" 
d="M102 703.5q0 379.5 167 556t532 176.5q221 0 440 -52v-282l-240 -68v180q-92 16 -196 17q-223 0 -325.5 -128t-102.5 -400.5t97 -395.5t308 -123q135 0 234 39v348h-248l-152 209h662v-708q-256 -92 -498 -92q-354 0 -516 172t-162 551.5zM623 -424v238l297 80v-140
q0 -172 -37 -270t-135 -189l-105 113q66 66 74 168h-94z" />
    <glyph glyph-name="gcommaaccent" unicode="&#x123;" horiz-adv-x="1388" 
d="M102 703.5q0 379.5 167 556t532 176.5q221 0 440 -52v-282l-240 -68v180q-92 16 -196 17q-223 0 -325.5 -128t-102.5 -400.5t97 -395.5t308 -123q135 0 234 39v348h-248l-152 209h662v-708q-256 -92 -498 -92q-354 0 -516 172t-162 551.5zM623 -424v238l297 80v-140
q0 -172 -37 -270t-135 -189l-105 113q66 66 74 168h-94z" />
    <glyph glyph-name="Hcircumflex" unicode="&#x124;" horiz-adv-x="1517" 
d="M125 197h80v1017h-105l35 197h414v-197h-80v-391h580v391h-103l35 197h412v-197h-80v-1017h104l-35 -197h-413v197h80v426h-580v-426h104l-34 -197h-414v197zM403 1608l275 327h156l274 -327l-135 -111l-215 229l-219 -229z" />
    <glyph glyph-name="hcircumflex" unicode="&#x125;" horiz-adv-x="1517" 
d="M125 197h80v1017h-105l35 197h414v-197h-80v-391h580v391h-103l35 197h412v-197h-80v-1017h104l-35 -197h-413v197h80v426h-580v-426h104l-34 -197h-414v197zM403 1608l275 327h156l274 -327l-135 -111l-215 229l-219 -229z" />
    <glyph glyph-name="Hbar" unicode="&#x126;" horiz-adv-x="1550" 
d="M1065 946h-580v-123h580v123zM1329 946v-749h105l-35 -197h-414v197h80v426h-580v-426h105l-35 -197h-414v197h80v749h-190l24 156h166v112h-104l35 197h413v-197h-80v-112h580v112h-102l34 197h412v-197h-80v-112h193v-156h-193z" />
    <glyph glyph-name="hbar" unicode="&#x127;" horiz-adv-x="1550" 
d="M1065 946h-580v-123h580v123zM1329 946v-749h105l-35 -197h-414v197h80v426h-580v-426h105l-35 -197h-414v197h80v749h-190l24 156h166v112h-104l35 197h413v-197h-80v-112h580v112h-102l34 197h412v-197h-80v-112h193v-156h-193z" />
    <glyph glyph-name="Itilde" unicode="&#x128;" horiz-adv-x="686" 
d="M125 197h86v1017h-109l35 197h420v-197h-82v-1017h107l-35 -197h-422v197zM485 1769q59 0 123 109l125 -88q-76 -219 -239 -219q-50 0 -87.5 16.5t-104.5 56.5t-103 39q-59 0 -123 -108l-125 88q76 219 239 219q67 0 170 -63q8 -4 48 -27t77 -23z" />
    <glyph glyph-name="itilde" unicode="&#x129;" horiz-adv-x="686" 
d="M125 197h86v1017h-109l35 197h420v-197h-82v-1017h107l-35 -197h-422v197zM485 1769q59 0 123 109l125 -88q-76 -219 -239 -219q-50 0 -87.5 16.5t-104.5 56.5t-103 39q-59 0 -123 -108l-125 88q76 219 239 219q67 0 170 -63q8 -4 48 -27t77 -23z" />
    <glyph glyph-name="Imacron" unicode="&#x12a;" horiz-adv-x="686" 
d="M125 197h86v1017h-109l35 197h420v-197h-82v-1017h107l-35 -197h-422v197zM18 1780h650l-31 -172h-619v172z" />
    <glyph glyph-name="imacron" unicode="&#x12b;" horiz-adv-x="686" 
d="M125 197h86v1017h-109l35 197h420v-197h-82v-1017h107l-35 -197h-422v197zM18 1780h650l-31 -172h-619v172z" />
    <glyph glyph-name="Ibreve" unicode="&#x12c;" horiz-adv-x="686" 
d="M125 197h86v1017h-109l35 197h420v-197h-82v-1017h107l-35 -197h-422v197zM342 1755q59 0 91 33t46 106l185 -24q-8 -139 -92.5 -220t-229.5 -81t-229 81t-93 220l185 24q14 -74 46 -106.5t91 -32.5z" />
    <glyph glyph-name="ibreve" unicode="&#x12d;" horiz-adv-x="686" 
d="M125 197h86v1017h-109l35 197h420v-197h-82v-1017h107l-35 -197h-422v197zM342 1755q59 0 91 33t46 106l185 -24q-8 -139 -92.5 -220t-229.5 -81t-229 81t-93 220l185 24q14 -74 46 -106.5t91 -32.5z" />
    <glyph glyph-name="Iogonek" unicode="&#x12e;" horiz-adv-x="686" 
d="M342 -207q0 -84 92 -84q76 0 158 39l-29 -158q-89 -39 -204 -39t-186 51.5t-71 144.5q0 159 191 253h-168v197h86v1017h-109l35 197h420v-197h-82v-1017h107l-35 -194l2 -3q-106 -47 -156.5 -102.5t-50.5 -104.5z" />
    <glyph glyph-name="iogonek" unicode="&#x12f;" horiz-adv-x="686" 
d="M342 -207q0 -84 92 -84q76 0 158 39l-29 -158q-89 -39 -204 -39t-186 51.5t-71 144.5q0 159 191 253h-168v197h86v1017h-109l35 197h420v-197h-82v-1017h107l-35 -194l2 -3q-106 -47 -156.5 -102.5t-50.5 -104.5z" />
    <glyph glyph-name="Idotaccent" unicode="&#x130;" horiz-adv-x="686" 
d="M125 197h86v1017h-109l35 197h420v-197h-82v-1017h107l-35 -197h-422v197zM469 1602h-256v186l256 74v-260z" />
    <glyph glyph-name="IJ" unicode="&#x132;" horiz-adv-x="1609" 
d="M125 197h86v1017h-109l35 197h420v-197h-82v-1017h107l-35 -197h-422v197zM981 180q106 0 154.5 45t48.5 146v843l-142 197h486v-197h-80v-829q0 -211 -99.5 -308t-312.5 -97q-109 0 -209 20l-36 203q84 -23 190 -23z" />
    <glyph glyph-name="ij" unicode="&#x133;" horiz-adv-x="1609" 
d="M125 197h86v1017h-109l35 197h420v-197h-82v-1017h107l-35 -197h-422v197zM981 180q106 0 154.5 45t48.5 146v843l-142 197h486v-197h-80v-829q0 -211 -99.5 -308t-312.5 -97q-109 0 -209 20l-36 203q84 -23 190 -23z" />
    <glyph glyph-name="Jcircumflex" unicode="&#x134;" horiz-adv-x="880" 
d="M251.5 180q106.5 0 155 45t48.5 146v843l-142 197h486v-197h-80v-829q0 -211 -99.5 -308t-312.5 -97q-109 0 -209 20l-37 203q84 -23 190.5 -23zM227 1608l275 327h155l275 -327l-135 -111l-215 229l-220 -229z" />
    <glyph glyph-name="jcircumflex" unicode="&#x135;" horiz-adv-x="880" 
d="M251.5 180q106.5 0 155 45t48.5 146v843l-142 197h486v-197h-80v-829q0 -211 -99.5 -308t-312.5 -97q-109 0 -209 20l-37 203q84 -23 190.5 -23zM227 1608l275 327h155l275 -327l-135 -111l-215 229l-220 -229z" />
    <glyph glyph-name="Kcommaaccent" unicode="&#x136;" horiz-adv-x="1400" 
d="M119 197h86v1017h-109l35 197h420v-197h-82v-303q0 -127 -8 -217l4 -2l153 174l328 357l-133 188h490v-197h-91l-360 -378l412 -639h100l-35 -197h-256l-405 643l-199 -207v-239h106l-34 -197h-422v197zM627 -424v238l297 80v-140q0 -172 -37 -270t-135 -189l-105 113
q66 66 74 168h-94z" />
    <glyph glyph-name="kcommaaccent" unicode="&#x137;" horiz-adv-x="1400" 
d="M119 197h86v1017h-109l35 197h420v-197h-82v-303q0 -127 -8 -217l4 -2l153 174l328 357l-133 188h490v-197h-91l-360 -378l412 -639h100l-35 -197h-256l-405 643l-199 -207v-239h106l-34 -197h-422v197zM627 -424v238l297 80v-140q0 -172 -37 -270t-135 -189l-105 113
q66 66 74 168h-94z" />
    <glyph glyph-name="Lacute" unicode="&#x139;" horiz-adv-x="1193" 
d="M123 197h82v1017l-142 197h486v-197h-80v-1017h387v190l240 68v-455h-973v197zM141 1649l463 321l125 -194l-500 -263z" />
    <glyph glyph-name="lacute" unicode="&#x13a;" horiz-adv-x="1193" 
d="M123 197h82v1017l-142 197h486v-197h-80v-1017h387v190l240 68v-455h-973v197zM141 1649l463 321l125 -194l-500 -263z" />
    <glyph glyph-name="Lcommaaccent" unicode="&#x13b;" horiz-adv-x="1193" 
d="M123 197h82v1017l-142 197h486v-197h-80v-1017h387v190l240 68v-455h-973v197zM467 -424v238l297 80v-140q0 -172 -37 -270t-135 -189l-105 113q66 66 74 168h-94z" />
    <glyph glyph-name="lcommaaccent" unicode="&#x13c;" horiz-adv-x="1193" 
d="M123 197h82v1017l-142 197h486v-197h-80v-1017h387v190l240 68v-455h-973v197zM467 -424v238l297 80v-140q0 -172 -37 -270t-135 -189l-105 113q66 66 74 168h-94z" />
    <glyph glyph-name="Lcaron" unicode="&#x13d;" horiz-adv-x="1193" 
d="M123 197h82v1017l-142 197h486v-197h-80v-1017h387v190l240 68v-455h-973v197zM817 1106v237l297 80v-139q0 -172 -37 -270.5t-135 -188.5l-104 113q65 65 73 168h-94z" />
    <glyph glyph-name="lcaron" unicode="&#x13e;" horiz-adv-x="1193" 
d="M123 197h82v1017l-142 197h486v-197h-80v-1017h387v190l240 68v-455h-973v197zM817 1106v237l297 80v-139q0 -172 -37 -270.5t-135 -188.5l-104 113q65 65 73 168h-94z" />
    <glyph glyph-name="Ldot" unicode="&#x13f;" horiz-adv-x="1200" 
d="M123 197h82v1017l-142 197h486v-197h-80v-1017h387v190l240 68v-455h-973v197zM1065 848h-256v186l256 74v-260z" />
    <glyph glyph-name="ldot" unicode="&#x140;" horiz-adv-x="1200" 
d="M123 197h82v1017l-142 197h486v-197h-80v-1017h387v190l240 68v-455h-973v197zM1065 848h-256v186l256 74v-260z" />
    <glyph glyph-name="Lslash" unicode="&#x141;" horiz-adv-x="1239" 
d="M1141 0h-973v197h82v288l-150 -104l-100 143l250 176v514l-141 197h485v-197h-80v-368l221 160l101 -144l-322 -227v-438h387v190l240 68v-455z" />
    <glyph glyph-name="lslash" unicode="&#x142;" horiz-adv-x="1239" 
d="M1141 0h-973v197h82v288l-150 -104l-100 143l250 176v514l-141 197h485v-197h-80v-368l221 160l101 -144l-322 -227v-438h387v190l240 68v-455z" />
    <glyph glyph-name="Nacute" unicode="&#x143;" horiz-adv-x="1558" 
d="M127 197h78v1052l-119 162h389l672 -999h8v802l-141 197h459v-197h-78v-1214h-269l-669 977h-8v-780h90l-35 -197h-377v197zM610 1649l463 321l125 -194l-500 -263z" />
    <glyph glyph-name="nacute" unicode="&#x144;" horiz-adv-x="1558" 
d="M127 197h78v1052l-119 162h389l672 -999h8v802l-141 197h459v-197h-78v-1214h-269l-669 977h-8v-780h90l-35 -197h-377v197zM610 1649l463 321l125 -194l-500 -263z" />
    <glyph glyph-name="Ncommaaccent" unicode="&#x145;" horiz-adv-x="1558" 
d="M127 197h78v1052l-119 162h389l672 -999h8v802l-141 197h459v-197h-78v-1214h-269l-669 977h-8v-780h90l-35 -197h-377v197zM674 -424v238l297 80v-140q0 -172 -37 -270t-135 -189l-105 113q66 66 74 168h-94z" />
    <glyph glyph-name="ncommaaccent" unicode="&#x146;" horiz-adv-x="1558" 
d="M127 197h78v1052l-119 162h389l672 -999h8v802l-141 197h459v-197h-78v-1214h-269l-669 977h-8v-780h90l-35 -197h-377v197zM674 -424v238l297 80v-140q0 -172 -37 -270t-135 -189l-105 113q66 66 74 168h-94z" />
    <glyph glyph-name="Ncaron" unicode="&#x147;" horiz-adv-x="1558" 
d="M127 197h78v1052l-119 162h389l672 -999h8v802l-141 197h459v-197h-78v-1214h-269l-669 977h-8v-780h90l-35 -197h-377v197zM459 1862l135 110l215 -229l219 229l135 -110l-274 -328h-156z" />
    <glyph glyph-name="ncaron" unicode="&#x148;" horiz-adv-x="1558" 
d="M127 197h78v1052l-119 162h389l672 -999h8v802l-141 197h459v-197h-78v-1214h-269l-669 977h-8v-780h90l-35 -197h-377v197zM459 1862l135 110l215 -229l219 229l135 -110l-274 -328h-156z" />
    <glyph glyph-name="Eng" unicode="&#x14a;" horiz-adv-x="1558" 
d="M916 -233q126 0 178 49q53 49 53 184v10l-690 967h-8v-780h90l-35 -197h-377v197h78v1052l-119 162h389l672 -962h8v765l-141 197h459v-197h-78v-1200q-4 -237 -107 -346q-47 -47 -131 -72.5t-178 -25.5t-166 14l-31 201q66 -18 134 -18z" />
    <glyph glyph-name="eng" unicode="&#x14b;" horiz-adv-x="1558" 
d="M916 -233q126 0 178 49q53 49 53 184v10l-690 967h-8v-780h90l-35 -197h-377v197h78v1052l-119 162h389l672 -962h8v765l-141 197h459v-197h-78v-1200q-4 -237 -107 -346q-47 -46 -131 -72t-178 -26t-166 14l-31 201q66 -18 134 -18z" />
    <glyph glyph-name="Omacron" unicode="&#x14c;" horiz-adv-x="1441" 
d="M1065 707.5q0 273.5 -82 398.5t-262 125t-262 -125t-82 -398t82 -398.5t262 -125.5t262 125t82 398.5zM102 706.5q0 378.5 148.5 554t471.5 175.5t470 -175.5t147 -554t-147.5 -552.5t-469 -174t-471 174t-149.5 552.5zM397 1780h650l-31 -172h-619v172z" />
    <glyph glyph-name="omacron" unicode="&#x14d;" horiz-adv-x="1441" 
d="M1065 707.5q0 273.5 -82 398.5t-262 125t-262 -125t-82 -398t82 -398.5t262 -125.5t262 125t82 398.5zM102 706.5q0 378.5 148.5 554t471.5 175.5t470 -175.5t147 -554t-147.5 -552.5t-469 -174t-471 174t-149.5 552.5zM397 1780h650l-31 -172h-619v172z" />
    <glyph glyph-name="Obreve" unicode="&#x14e;" horiz-adv-x="1441" 
d="M1065 707.5q0 273.5 -82 398.5t-262 125t-262 -125t-82 -398t82 -398.5t262 -125.5t262 125t82 398.5zM102 706.5q0 378.5 148.5 554t471.5 175.5t470 -175.5t147 -554t-147.5 -552.5t-469 -174t-471 174t-149.5 552.5zM721 1755q59 0 91 33t46 106l184 -24
q-8 -139 -92 -220t-229.5 -81t-229 81t-92.5 220l185 24q14 -74 46 -106.5t91 -32.5z" />
    <glyph glyph-name="obreve" unicode="&#x14f;" horiz-adv-x="1441" 
d="M1065 707.5q0 273.5 -82 398.5t-262 125t-262 -125t-82 -398t82 -398.5t262 -125.5t262 125t82 398.5zM102 706.5q0 378.5 148.5 554t471.5 175.5t470 -175.5t147 -554t-147.5 -552.5t-469 -174t-471 174t-149.5 552.5zM721 1755q59 0 91 33t46 106l184 -24
q-8 -139 -92 -220t-229.5 -81t-229 81t-92.5 220l185 24q14 -74 46 -106.5t91 -32.5z" />
    <glyph glyph-name="Ohungarumlaut" unicode="&#x150;" horiz-adv-x="1441" 
d="M1065 707.5q0 273.5 -82 398.5t-262 125t-262 -125t-82 -398t82 -398.5t262 -125.5t262 125t82 398.5zM102 706.5q0 378.5 148.5 554t471.5 175.5t470 -175.5t147 -554t-147.5 -552.5t-469 -174t-471 174t-149.5 552.5zM864 1640l371 330l135 -162l-401 -295zM379 1640
l373 330l131 -162l-400 -295z" />
    <glyph glyph-name="ohungarumlaut" unicode="&#x151;" horiz-adv-x="1441" 
d="M1065 707.5q0 273.5 -82 398.5t-262 125t-262 -125t-82 -398t82 -398.5t262 -125.5t262 125t82 398.5zM102 706.5q0 378.5 148.5 554t471.5 175.5t470 -175.5t147 -554t-147.5 -552.5t-469 -174t-471 174t-149.5 552.5zM864 1640l371 330l135 -162l-401 -295zM379 1640
l373 330l131 -162l-400 -295z" />
    <glyph glyph-name="OE" unicode="&#x152;" horiz-adv-x="1947" 
d="M377 702.5q0 -190.5 39 -303t125 -164t213 -51t188 10.5v1019q-113 16 -224.5 16.5t-190 -53t-114.5 -169t-36 -306zM102 705.5q0 259.5 64.5 419t202 235.5t360.5 76q76 0 240 -12.5t252 -12.5h594v-297l-240 -67v167h-369v-395h482l-146 -201h-336v-421h387v149l240 68
v-414h-639l-444 -20q-230 0 -372 74.5t-209 233t-67 418z" />
    <glyph glyph-name="oe" unicode="&#x153;" horiz-adv-x="1947" 
d="M377 702.5q0 -190.5 39 -303t125 -164t213 -51t188 10.5v1019q-113 16 -224.5 16.5t-190 -53t-114.5 -169t-36 -306zM102 705.5q0 259.5 64.5 419t202 235.5t360.5 76q76 0 240 -12.5t252 -12.5h594v-297l-240 -67v167h-369v-395h482l-146 -201h-336v-421h387v149l240 68
v-414h-639l-444 -20q-230 0 -372 74.5t-209 233t-67 418z" />
    <glyph glyph-name="Racute" unicode="&#x154;" horiz-adv-x="1288" 
d="M655 760q129 0 190.5 55t61.5 172t-61.5 172t-190.5 55h-186v-454h186zM123 197h82v1017l-142 197h623q252 0 373 -101.5t121 -312.5q0 -156 -73 -253t-224 -146l245 -401h101l-35 -197h-242l-340 571h-143v-374h98l-35 -197h-409v197zM406 1649l462 321l125 -194
l-499 -263z" />
    <glyph glyph-name="racute" unicode="&#x155;" horiz-adv-x="1288" 
d="M655 760q129 0 190.5 55t61.5 172t-61.5 172t-190.5 55h-186v-454h186zM123 197h82v1017l-142 197h623q252 0 373 -101.5t121 -312.5q0 -156 -73 -253t-224 -146l245 -401h101l-35 -197h-242l-340 571h-143v-374h98l-35 -197h-409v197zM406 1649l462 321l125 -194
l-499 -263z" />
    <glyph glyph-name="Rcommaaccent" unicode="&#x156;" horiz-adv-x="1288" 
d="M655 760q129 0 190.5 55t61.5 172t-61.5 172t-190.5 55h-186v-454h186zM123 197h82v1017l-142 197h623q252 0 373 -101.5t121 -312.5q0 -156 -73 -253t-224 -146l245 -401h101l-35 -197h-242l-340 571h-143v-374h98l-35 -197h-409v197zM516 -424v238l297 80v-140
q0 -172 -37 -270t-135 -189l-104 113q65 65 73 168h-94z" />
    <glyph glyph-name="rcommaaccent" unicode="&#x157;" horiz-adv-x="1288" 
d="M655 760q129 0 190.5 55t61.5 172t-61.5 172t-190.5 55h-186v-454h186zM123 197h82v1017l-142 197h623q252 0 373 -101.5t121 -312.5q0 -156 -73 -253t-224 -146l245 -401h101l-35 -197h-242l-340 571h-143v-374h98l-35 -197h-409v197zM516 -424v238l297 80v-140
q0 -172 -37 -270t-135 -189l-104 113q65 65 73 168h-94z" />
    <glyph glyph-name="Rcaron" unicode="&#x158;" horiz-adv-x="1288" 
d="M655 760q129 0 190.5 55t61.5 172t-61.5 172t-190.5 55h-186v-454h186zM123 197h82v1017l-142 197h623q252 0 373 -101.5t121 -312.5q0 -156 -73 -253t-224 -146l245 -401h101l-35 -197h-242l-340 571h-143v-374h98l-35 -197h-409v197zM254 1862l135 110l215 -229
l219 229l135 -110l-274 -328h-156z" />
    <glyph glyph-name="rcaron" unicode="&#x159;" horiz-adv-x="1288" 
d="M655 760q129 0 190.5 55t61.5 172t-61.5 172t-190.5 55h-186v-454h186zM123 197h82v1017l-142 197h623q252 0 373 -101.5t121 -312.5q0 -156 -73 -253t-224 -146l245 -401h101l-35 -197h-242l-340 571h-143v-374h98l-35 -197h-409v197zM254 1862l135 110l215 -229
l219 229l135 -110l-274 -328h-156z" />
    <glyph glyph-name="Sacute" unicode="&#x15a;" horiz-adv-x="1114" 
d="M606 1239q-246 0 -246 -175q0 -85 48.5 -132t148.5 -74l164 -43q168 -43 247 -140t79 -259q0 -225 -127 -330.5t-400 -105.5q-217 0 -424 53v284l240 68v-192q102 -16 178 -17q135 0 198.5 52.5t63.5 146.5t-44 142t-138 73l-162 43q-176 47 -258 143t-82 252
q0 211 122 309.5t382 98.5q188 0 387 -50v-278l-240 -68v187q-70 12 -137 12zM371 1649l463 321l124 -194l-499 -263z" />
    <glyph glyph-name="sacute" unicode="&#x15b;" horiz-adv-x="1114" 
d="M606 1239q-246 0 -246 -175q0 -85 48.5 -132t148.5 -74l164 -43q168 -43 247 -140t79 -259q0 -225 -127 -330.5t-400 -105.5q-217 0 -424 53v284l240 68v-192q102 -16 178 -17q135 0 198.5 52.5t63.5 146.5t-44 142t-138 73l-162 43q-176 47 -258 143t-82 252
q0 211 122 309.5t382 98.5q188 0 387 -50v-278l-240 -68v187q-70 12 -137 12zM371 1649l463 321l124 -194l-499 -263z" />
    <glyph glyph-name="Scircumflex" unicode="&#x15c;" horiz-adv-x="1114" 
d="M606 1239q-246 0 -246 -175q0 -85 48.5 -132t148.5 -74l164 -43q168 -43 247 -140t79 -259q0 -225 -127 -330.5t-400 -105.5q-217 0 -424 53v284l240 68v-192q102 -16 178 -17q135 0 198.5 52.5t63.5 146.5t-44 142t-138 73l-162 43q-176 47 -258 143t-82 252
q0 211 122 309.5t382 98.5q188 0 387 -50v-278l-240 -68v187q-70 12 -137 12zM217 1608l275 327h155l275 -327l-136 -111l-215 229l-219 -229z" />
    <glyph glyph-name="scircumflex" unicode="&#x15d;" horiz-adv-x="1114" 
d="M606 1239q-246 0 -246 -175q0 -85 48.5 -132t148.5 -74l164 -43q168 -43 247 -140t79 -259q0 -225 -127 -330.5t-400 -105.5q-217 0 -424 53v284l240 68v-192q102 -16 178 -17q135 0 198.5 52.5t63.5 146.5t-44 142t-138 73l-162 43q-176 47 -258 143t-82 252
q0 211 122 309.5t382 98.5q188 0 387 -50v-278l-240 -68v187q-70 12 -137 12zM217 1608l275 327h155l275 -327l-136 -111l-215 229l-219 -229z" />
    <glyph glyph-name="Scedilla" unicode="&#x15e;" horiz-adv-x="1114" 
d="M606 1239q-246 0 -246 -175q0 -85 48.5 -132t148.5 -74l164 -43q168 -43 247 -140t79 -259q0 -225 -122 -326.5t-361 -109.5l-13 -84q33 8 78 8q88 0 138 -52.5t50 -143.5t-68.5 -149.5t-181 -58.5t-213.5 37l-16 135q100 -39 160 -39q116 0 116 72t-112 72
q-57 0 -123 -21l30 227q-159 10 -313 50v284l240 68v-192q102 -16 178 -17q135 0 198.5 52.5t63.5 146.5t-44 142t-138 73l-162 43q-176 47 -258 143t-82 252q0 211 122 309.5t382 98.5q188 0 387 -50v-278l-240 -68v187q-70 12 -137 12z" />
    <glyph glyph-name="scedilla" unicode="&#x15f;" horiz-adv-x="1114" 
d="M606 1239q-246 0 -246 -175q0 -85 48.5 -132t148.5 -74l164 -43q168 -43 247 -140t79 -259q0 -225 -122 -326.5t-361 -109.5l-13 -84q33 8 78 8q88 0 138 -52.5t50 -143.5t-68.5 -149.5t-181 -58.5t-213.5 37l-16 135q100 -39 160 -39q116 0 116 72t-112 72
q-57 0 -123 -21l30 227q-159 10 -313 50v284l240 68v-192q102 -16 178 -17q135 0 198.5 52.5t63.5 146.5t-44 142t-138 73l-162 43q-176 47 -258 143t-82 252q0 211 122 309.5t382 98.5q188 0 387 -50v-278l-240 -68v187q-70 12 -137 12z" />
    <glyph glyph-name="Scaron" unicode="&#x160;" horiz-adv-x="1114" 
d="M606 1239q-246 0 -246 -175q0 -85 48.5 -132t148.5 -74l164 -43q168 -43 247 -140t79 -259q0 -225 -127 -330.5t-400 -105.5q-217 0 -424 53v284l240 68v-192q102 -16 178 -17q135 0 198.5 52.5t63.5 146.5t-44 142t-138 73l-162 43q-176 47 -258 143t-82 252
q0 211 122 309.5t382 98.5q188 0 387 -50v-278l-240 -68v187q-70 12 -137 12zM219 1862l135 110l215 -229l219 229l136 -110l-275 -328h-155z" />
    <glyph glyph-name="scaron" unicode="&#x161;" horiz-adv-x="1114" 
d="M606 1239q-246 0 -246 -175q0 -85 48.5 -132t148.5 -74l164 -43q168 -43 247 -140t79 -259q0 -225 -127 -330.5t-400 -105.5q-217 0 -424 53v284l240 68v-192q102 -16 178 -17q135 0 198.5 52.5t63.5 146.5t-44 142t-138 73l-162 43q-176 47 -258 143t-82 252
q0 211 122 309.5t382 98.5q188 0 387 -50v-278l-240 -68v187q-70 12 -137 12zM219 1862l135 110l215 -229l219 229l136 -110l-275 -328h-155z" />
    <glyph glyph-name="uni0162" unicode="&#x162;" horiz-adv-x="1349" 
d="M446 197h97v1017h-250v-151l-240 -66v414h1243v-348l-239 -66v217h-250v-1017h113l-35 -197h-439v197zM528 -424v238l297 80v-140q0 -172 -36.5 -270t-135.5 -189l-104 113q64 64 74 168h-95z" />
    <glyph glyph-name="uni0163" unicode="&#x163;" horiz-adv-x="1349" 
d="M446 197h97v1017h-250v-151l-240 -66v414h1243v-348l-239 -66v217h-250v-1017h113l-35 -197h-439v197zM528 -424v238l297 80v-140q0 -172 -36.5 -270t-135.5 -189l-104 113q64 64 74 168h-95z" />
    <glyph glyph-name="Tcaron" unicode="&#x164;" horiz-adv-x="1349" 
d="M446 197h97v1017h-250v-151l-240 -66v414h1243v-348l-239 -66v217h-250v-1017h113l-35 -197h-439v197zM326 1862l135 110l215 -229l219 229l135 -110l-274 -328h-156z" />
    <glyph glyph-name="tcaron" unicode="&#x165;" horiz-adv-x="1349" 
d="M446 197h97v1017h-250v-151l-240 -66v414h1243v-348l-239 -66v217h-250v-1017h113l-35 -197h-439v197zM326 1862l135 110l215 -229l219 229l135 -110l-274 -328h-156z" />
    <glyph glyph-name="Tbar" unicode="&#x166;" horiz-adv-x="1349" 
d="M1296 1411v-348l-239 -66v217h-250v-460h246v-181h-246v-376h113l-35 -197h-439v197h97v376h-262l32 181h230v460h-250v-151l-240 -66v414h1243z" />
    <glyph glyph-name="tbar" unicode="&#x167;" horiz-adv-x="1349" 
d="M1296 1411v-348l-239 -66v217h-250v-460h246v-181h-246v-376h113l-35 -197h-439v197h97v376h-262l32 181h230v460h-250v-151l-240 -66v414h1243z" />
    <glyph glyph-name="Utilde" unicode="&#x168;" horiz-adv-x="1462" 
d="M164 518v696l-141 197h487v-197h-82v-696q0 -182 68.5 -258t236.5 -76t236.5 76t68.5 258v696l-141 197h483v-197h-82v-696q0 -199 -55 -315.5t-178 -169.5t-333 -53t-333 53t-179 169.5t-56 315.5zM591 1683q-52 0 -118 -108l-125 88q76 219 240 219q67 0 170 -63
q8 -4 47.5 -27t76 -23t65 29t59.5 80l124 -88q-76 -219 -239 -219q-49 0 -87 16.5t-86 45t-72.5 39.5t-54.5 11z" />
    <glyph glyph-name="utilde" unicode="&#x169;" horiz-adv-x="1462" 
d="M164 518v696l-141 197h487v-197h-82v-696q0 -182 68.5 -258t236.5 -76t236.5 76t68.5 258v696l-141 197h483v-197h-82v-696q0 -199 -55 -315.5t-178 -169.5t-333 -53t-333 53t-179 169.5t-56 315.5zM591 1683q-52 0 -118 -108l-125 88q76 219 240 219q67 0 170 -63
q8 -4 47.5 -27t76 -23t65 29t59.5 80l124 -88q-76 -219 -239 -219q-49 0 -87 16.5t-86 45t-72.5 39.5t-54.5 11z" />
    <glyph glyph-name="Umacron" unicode="&#x16a;" horiz-adv-x="1462" 
d="M164 518v696l-141 197h487v-197h-82v-696q0 -182 68.5 -258t236.5 -76t236.5 76t68.5 258v696l-141 197h483v-197h-82v-696q0 -199 -55 -315.5t-178 -169.5t-333 -53t-333 53t-179 169.5t-56 315.5zM416 1780h649l-31 -172h-618v172z" />
    <glyph glyph-name="umacron" unicode="&#x16b;" horiz-adv-x="1462" 
d="M164 518v696l-141 197h487v-197h-82v-696q0 -182 68.5 -258t236.5 -76t236.5 76t68.5 258v696l-141 197h483v-197h-82v-696q0 -199 -55 -315.5t-178 -169.5t-333 -53t-333 53t-179 169.5t-56 315.5zM416 1780h649l-31 -172h-618v172z" />
    <glyph glyph-name="Ubreve" unicode="&#x16c;" horiz-adv-x="1462" 
d="M164 518v696l-141 197h487v-197h-82v-696q0 -182 68.5 -258t236.5 -76t236.5 76t68.5 258v696l-141 197h483v-197h-82v-696q0 -199 -55 -315.5t-178 -169.5t-333 -53t-333 53t-179 169.5t-56 315.5zM739.5 1755q59.5 0 91 33t46.5 106l184 -24q-8 -139 -92 -220
t-229.5 -81t-229.5 81t-92 220l184 24q14 -74 46 -106.5t91.5 -32.5z" />
    <glyph glyph-name="ubreve" unicode="&#x16d;" horiz-adv-x="1462" 
d="M164 518v696l-141 197h487v-197h-82v-696q0 -182 68.5 -258t236.5 -76t236.5 76t68.5 258v696l-141 197h483v-197h-82v-696q0 -199 -55 -315.5t-178 -169.5t-333 -53t-333 53t-179 169.5t-56 315.5zM739.5 1755q59.5 0 91 33t46.5 106l184 -24q-8 -139 -92 -220
t-229.5 -81t-229.5 81t-92 220l184 24q14 -74 46 -106.5t91.5 -32.5z" />
    <glyph glyph-name="Uring" unicode="&#x16e;" horiz-adv-x="1462" 
d="M164 518v696l-141 197h487v-197h-82v-696q0 -182 68.5 -258t236.5 -76t236.5 76t68.5 258v696l-141 197h483v-197h-82v-696q0 -199 -55 -315.5t-178 -169.5t-333 -53t-333 53t-179 169.5t-56 315.5zM819 1726.5q0 36.5 -21.5 61t-58.5 24.5t-58.5 -24.5t-21.5 -61
t21.5 -59t58.5 -22.5t58.5 22.5t21.5 59zM500 1726.5q0 98.5 64.5 162t175 63.5t175 -63.5t64.5 -162t-64.5 -162t-175 -63.5t-175 63.5t-64.5 162z" />
    <glyph glyph-name="uring" unicode="&#x16f;" horiz-adv-x="1462" 
d="M164 518v696l-141 197h487v-197h-82v-696q0 -182 68.5 -258t236.5 -76t236.5 76t68.5 258v696l-141 197h483v-197h-82v-696q0 -199 -55 -315.5t-178 -169.5t-333 -53t-333 53t-179 169.5t-56 315.5zM819 1726.5q0 36.5 -21.5 61t-58.5 24.5t-58.5 -24.5t-21.5 -61
t21.5 -59t58.5 -22.5t58.5 22.5t21.5 59zM500 1726.5q0 98.5 64.5 162t175 63.5t175 -63.5t64.5 -162t-64.5 -162t-175 -63.5t-175 63.5t-64.5 162z" />
    <glyph glyph-name="Uhungarumlaut" unicode="&#x170;" horiz-adv-x="1462" 
d="M164 518v696l-141 197h487v-197h-82v-696q0 -182 68.5 -258t236.5 -76t236.5 76t68.5 258v696l-141 197h483v-197h-82v-696q0 -199 -55 -315.5t-178 -169.5t-333 -53t-333 53t-179 169.5t-56 315.5zM883 1640l370 330l136 -162l-402 -295zM397 1640l373 330l131 -162
l-399 -295z" />
    <glyph glyph-name="uhungarumlaut" unicode="&#x171;" horiz-adv-x="1462" 
d="M164 518v696l-141 197h487v-197h-82v-696q0 -182 68.5 -258t236.5 -76t236.5 76t68.5 258v696l-141 197h483v-197h-82v-696q0 -199 -55 -315.5t-178 -169.5t-333 -53t-333 53t-179 169.5t-56 315.5zM883 1640l370 330l136 -162l-402 -295zM397 1640l373 330l131 -162
l-399 -295z" />
    <glyph glyph-name="Uogonek" unicode="&#x172;" horiz-adv-x="1460" 
d="M655 -246q0 133 158 228q-20 -2 -92 -2q-207 0 -329 55t-176 177t-54 329v673l-139 197h485v-197h-82v-696q0 -182 68.5 -258t236.5 -76t236.5 77t68.5 259v694l-141 197h483v-197h-82v-673q0 -253 -71 -363q-37 -58 -74 -93.5t-107 -94.5l-55 -47q-94 -83 -94 -138
t24.5 -75.5t82.5 -20.5t143 39l-29 -158q-90 -39 -204 -39t-185.5 50.5t-71.5 152.5z" />
    <glyph glyph-name="uogonek" unicode="&#x173;" horiz-adv-x="1460" 
d="M655 -246q0 133 158 228q-20 -2 -92 -2q-207 0 -329 55t-176 177t-54 329v673l-139 197h485v-197h-82v-696q0 -182 69 -258t237 -76t236 77q69 77 68 259v694l-141 197h483v-197h-82v-673q0 -254 -71 -363q-37 -57 -74 -93t-107 -95l-55 -47q-96 -85 -94 -156
q0 -37 25 -57t84 -21t141 39l-29 -158q-90 -38 -204 -38t-185 50q-72 50 -72 152z" />
    <glyph glyph-name="Wcircumflex" unicode="&#x174;" horiz-adv-x="1890" 
d="M1845 1411v-197h-88l-360 -1214h-242l-160 608q-49 188 -73 359h-13q-27 -178 -75 -359l-170 -608h-244l-416 1411h479l-34 -197h-115l137 -501q47 -168 80 -348h12q29 182 72 348l162 628h258l157 -665q45 -188 64 -311h12q29 176 66 309l145 540l-143 197h489z
M569 1608l275 327h155l275 -327l-135 -111l-215 229l-219 -229z" />
    <glyph glyph-name="wcircumflex" unicode="&#x175;" horiz-adv-x="1890" 
d="M1845 1411v-197h-88l-360 -1214h-242l-160 608q-49 188 -73 359h-13q-27 -178 -75 -359l-170 -608h-244l-416 1411h479l-34 -197h-115l137 -501q47 -168 80 -348h12q29 182 72 348l162 628h258l157 -665q45 -188 64 -311h12q29 176 66 309l145 540l-143 197h489z
M569 1608l275 327h155l275 -327l-135 -111l-215 229l-219 -229z" />
    <glyph glyph-name="Ycircumflex" unicode="&#x176;" horiz-adv-x="1280" 
d="M430 197h70v325l-504 889h508l-35 -197h-98l118 -217q90 -166 142 -276h10q47 109 135 278l113 215l-141 197h487v-197h-98l-373 -684v-333h94l-35 -197h-393v197zM274 1608l275 327h156l274 -327l-135 -111l-215 229l-219 -229z" />
    <glyph glyph-name="ycircumflex" unicode="&#x177;" horiz-adv-x="1280" 
d="M430 197h70v325l-504 889h508l-35 -197h-98l118 -217q90 -166 142 -276h10q47 109 135 278l113 215l-141 197h487v-197h-98l-373 -684v-333h94l-35 -197h-393v197zM274 1608l275 327h156l274 -327l-135 -111l-215 229l-219 -229z" />
    <glyph glyph-name="Ydieresis" unicode="&#x178;" horiz-adv-x="1280" 
d="M430 197h70v325l-504 889h508l-35 -197h-98l118 -217q90 -166 142 -276h10q47 109 135 278l113 215l-141 197h487v-197h-98l-373 -684v-333h94l-35 -197h-393v197zM971 1602h-256v188l256 72v-260zM528 1602h-256v188l256 72v-260z" />
    <glyph glyph-name="Zacute" unicode="&#x179;" horiz-adv-x="1220" 
d="M330 1214v-149l-240 -68v414h1012l22 -154l-725 -1060h508v143l238 68v-408h-1049l-22 147l729 1067h-473zM418 1649l463 321l125 -194l-500 -263z" />
    <glyph glyph-name="zacute" unicode="&#x17a;" horiz-adv-x="1220" 
d="M330 1214v-149l-240 -68v414h1012l22 -154l-725 -1060h508v143l238 68v-408h-1049l-22 147l729 1067h-473zM418 1649l463 321l125 -194l-500 -263z" />
    <glyph glyph-name="Zdotaccent" unicode="&#x17b;" horiz-adv-x="1220" 
d="M330 1214v-149l-240 -68v414h1012l22 -154l-725 -1060h508v143l238 68v-408h-1049l-22 147l729 1067h-473zM743 1602h-256v186l256 74v-260z" />
    <glyph glyph-name="zdotaccent" unicode="&#x17c;" horiz-adv-x="1220" 
d="M330 1214v-149l-240 -68v414h1012l22 -154l-725 -1060h508v143l238 68v-408h-1049l-22 147l729 1067h-473zM743 1602h-256v186l256 74v-260z" />
    <glyph glyph-name="Zcaron" unicode="&#x17d;" horiz-adv-x="1220" 
d="M330 1214v-149l-240 -68v414h1012l22 -154l-725 -1060h508v143l238 68v-408h-1049l-22 147l729 1067h-473zM266 1862l135 110l215 -229l220 229l135 -110l-275 -328h-155z" />
    <glyph glyph-name="zcaron" unicode="&#x17e;" horiz-adv-x="1220" 
d="M330 1214v-149l-240 -68v414h1012l22 -154l-725 -1060h508v143l238 68v-408h-1049l-22 147l729 1067h-473zM266 1862l135 110l215 -229l220 229l135 -110l-275 -328h-155z" />
    <glyph glyph-name="florin" unicode="&#x192;" horiz-adv-x="1042" 
d="M-4 -193q96 0 146.5 57.5t62.5 184.5l61 588h-170l33 180h158l28 270q20 188 108.5 271.5t258.5 83.5t249 -69.5t91 -219.5l-209 -59q-6 86 -32.5 121.5t-80.5 35.5q-107 0 -122 -170l-29 -264h291l-129 -180h-187l-59 -574q-25 -238 -126 -344t-306 -106q-109 0 -195 37
l-28 192q90 -35 186 -35z" />
    <glyph glyph-name="uni01CD" unicode="&#x1cd;" horiz-adv-x="1390" 
d="M51 197h82l367 1024l-138 190h455l434 -1214h111l-35 -197h-422v197h84l-80 237h-211l-143 199h289l-51 160q-45 143 -97 333h-12q-55 -195 -102 -333l-199 -596h113l-35 -197h-410v197zM334 1862l135 110l215 -229l219 229l135 -110l-274 -328h-156z" />
    <glyph glyph-name="uni01CE" unicode="&#x1ce;" horiz-adv-x="1390" 
d="M51 197h82l367 1024l-138 190h455l434 -1214h111l-35 -197h-422v197h84l-80 237h-211l-143 199h289l-51 160q-45 143 -97 333h-12q-55 -195 -102 -333l-199 -596h113l-35 -197h-410v197zM334 1862l135 110l215 -229l219 229l135 -110l-274 -328h-156z" />
    <glyph glyph-name="AEacute" unicode="&#x1fc;" horiz-adv-x="2027" 
d="M37 197h74l637 1017l-144 197h1290v-297l-239 -67v167h-369v-395h486l-150 -201h-336v-421h387v149l240 68v-414h-973v197h82v237h-211l-133 199h344v581h-16l-617 -1017h111l-35 -197h-428v197zM1153 1649l463 321l125 -194l-500 -263z" />
    <glyph glyph-name="aeacute" unicode="&#x1fd;" horiz-adv-x="2027" 
d="M37 197h74l637 1017l-144 197h1290v-297l-239 -67v167h-369v-395h486l-150 -201h-336v-421h387v149l240 68v-414h-973v197h82v237h-211l-133 199h344v581h-16l-617 -1017h111l-35 -197h-428v197zM1153 1649l463 321l125 -194l-500 -263z" />
    <glyph glyph-name="Oslashacute" unicode="&#x1fe;" horiz-adv-x="1441" 
d="M1065 707q0 178 -39 305l-516 -762q78 -66 211 -66q180 0 262 125t82 398zM721 1231q-180 0 -262 -125t-82 -399q0 -168 31 -283l510 750q-76 57 -197 57zM723 1436q199 0 328 -66l141 209l151 -100l-149 -222q145 -176 145 -552.5t-147.5 -550.5t-468.5 -174
q-215 0 -348 73l-146 -215l-151 101l158 233q-133 176 -133.5 545t148 544t472.5 175zM545 1700l463 321l125 -194l-500 -262z" />
    <glyph glyph-name="oslashacute" unicode="&#x1ff;" horiz-adv-x="1441" 
d="M1065 707q0 178 -39 305l-516 -762q78 -66 211 -66q180 0 262 125t82 398zM721 1231q-180 0 -262 -125t-82 -399q0 -168 31 -283l510 750q-76 57 -197 57zM723 1436q199 0 328 -66l141 209l151 -100l-149 -222q145 -176 145 -552.5t-147.5 -550.5t-468.5 -174
q-215 0 -348 73l-146 -215l-151 101l158 233q-133 176 -133.5 545t148 544t472.5 175zM545 1700l463 321l125 -194l-500 -262z" />
    <glyph glyph-name="Scommaaccent" unicode="&#x218;" horiz-adv-x="1114" 
d="M606 1239q-246 0 -246 -175q0 -85 48.5 -132t148.5 -74l164 -43q168 -43 247 -140t79 -259q0 -225 -127 -330.5t-400 -105.5q-217 0 -424 53v284l240 68v-192q102 -16 178 -17q135 0 198.5 52.5t63.5 146.5t-44 142t-138 73l-162 43q-176 47 -258 143t-82 252
q0 211 122 309.5t382 98.5q188 0 387 -50v-278l-240 -68v187q-70 12 -137 12zM444 -424v238l297 80v-140q0 -172 -36.5 -270t-135.5 -189l-104 113q66 66 74 168h-95z" />
    <glyph glyph-name="scommaaccent" unicode="&#x219;" horiz-adv-x="1114" 
d="M606 1239q-246 0 -246 -175q0 -85 48.5 -132t148.5 -74l164 -43q168 -43 247 -140t79 -259q0 -225 -127 -330.5t-400 -105.5q-217 0 -424 53v284l240 68v-192q102 -16 178 -17q135 0 198.5 52.5t63.5 146.5t-44 142t-138 73l-162 43q-176 47 -258 143t-82 252
q0 211 122 309.5t382 98.5q188 0 387 -50v-278l-240 -68v187q-70 12 -137 12zM444 -424v238l297 80v-140q0 -172 -36.5 -270t-135.5 -189l-104 113q66 66 74 168h-95z" />
    <glyph glyph-name="uni021A" unicode="&#x21a;" horiz-adv-x="1349" 
d="M446 197h97v1017h-250v-151l-240 -66v414h1243v-348l-239 -66v217h-250v-1017h113l-35 -197h-439v197zM528 -424v238l297 80v-140q0 -172 -36.5 -270t-135.5 -189l-104 113q64 64 74 168h-95z" />
    <glyph glyph-name="uni021B" unicode="&#x21b;" horiz-adv-x="1349" 
d="M446 197h97v1017h-250v-151l-240 -66v414h1243v-348l-239 -66v217h-250v-1017h113l-35 -197h-439v197zM528 -424v238l297 80v-140q0 -172 -36.5 -270t-135.5 -189l-104 113q64 64 74 168h-95z" />
    <glyph glyph-name="circumflex" unicode="&#x2c6;" horiz-adv-x="798" 
d="M47 1608l275 327h155l275 -327l-136 -111l-215 229l-219 -229z" />
    <glyph glyph-name="caron" unicode="&#x2c7;" horiz-adv-x="798" 
d="M47 1862l135 110l215 -229l219 229l136 -110l-275 -328h-155z" />
    <glyph glyph-name="breve" unicode="&#x2d8;" horiz-adv-x="798" 
d="M399.5 1755q59.5 0 91 33t46.5 106l184 -24q-8 -139 -92 -220t-229.5 -81t-229.5 81t-92 220l184 24q14 -74 46 -106.5t91.5 -32.5z" />
    <glyph glyph-name="dotaccent" unicode="&#x2d9;" horiz-adv-x="798" 
d="M526 1602h-256v186l256 74v-260z" />
    <glyph glyph-name="ring" unicode="&#x2da;" horiz-adv-x="798" 
d="M479 1726.5q0 36.5 -21.5 61t-58.5 24.5t-58.5 -24.5t-21.5 -61t21.5 -59t58.5 -22.5t58.5 22.5t21.5 59zM160 1726.5q0 98.5 64.5 162t175 63.5t175 -63.5t64.5 -162t-64.5 -162t-175 -63.5t-175 63.5t-64.5 162z" />
    <glyph glyph-name="ogonek" unicode="&#x2db;" horiz-adv-x="798" 
d="M401 -207q1 -82 85 -83t165 38l-28 -158q-84 -37 -202 -37q-118 -1 -189 50q-70 51 -70 144t70 168q71 75 202 118h158l16 -33q-106 -47 -156 -102t-51 -105z" />
    <glyph glyph-name="tilde" unicode="&#x2dc;" horiz-adv-x="798" 
d="M251 1683q-52 0 -118 -108l-125 88q76 219 240 219q67 0 170 -63q8 -4 47.5 -27t76 -23t65 29t59.5 80l125 -88q-76 -219 -240 -219q-49 0 -87 16.5t-86 45t-72.5 39.5t-54.5 11z" />
    <glyph glyph-name="hungarumlaut" unicode="&#x2dd;" horiz-adv-x="798" 
d="M426 1640l371 330l135 -162l-402 -295zM-59 1640l372 330l131 -162l-399 -295z" />
    <glyph glyph-name="gravecomb" unicode="&#x300;" 
d="M-702 1769l129 195l471 -311l-86 -140z" />
    <glyph glyph-name="acutecomb" unicode="&#x301;" 
d="M-684 1649l463 321l125 -194l-500 -263z" />
    <glyph glyph-name="uni0302" unicode="&#x302;" 
d="M-752 1608l275 327h155l275 -327l-135 -111l-215 229l-219 -229z" />
    <glyph glyph-name="tildecomb" unicode="&#x303;" 
d="M-548 1683q-52 0 -118 -108l-125 88q76 219 240 219q67 0 170 -63q8 -4 48 -27t76 -23t64.5 29t59.5 80l125 -88q-76 -219 -240 -219q-49 0 -87 16.5t-86 45t-72.5 39.5t-54.5 11z" />
    <glyph glyph-name="uni0304" unicode="&#x304;" 
d="M-729 1780h649l-31 -172h-618v172z" />
    <glyph glyph-name="uni0306" unicode="&#x306;" 
d="M-399.5 1755q59.5 0 91.5 33t46 106l184 -24q-8 -139 -92 -220t-229.5 -81t-229.5 81t-92 220l184 24q14 -74 46 -106.5t91.5 -32.5z" />
    <glyph glyph-name="uni0307" unicode="&#x307;" 
d="M-272 1602h-256v186l256 74v-260z" />
    <glyph glyph-name="uni0308" unicode="&#x308;" 
d="M-51 1602h-256v188l256 72v-260zM-494 1602h-256v188l256 72v-260z" />
    <glyph glyph-name="uni030A" unicode="&#x30a;" 
d="M-319 1726.5q0 36.5 -21.5 61t-58.5 24.5t-58.5 -24.5t-21.5 -61t21.5 -59t58.5 -22.5t58.5 22.5t21.5 59zM-639 1726.5q0 98.5 64.5 162t175 63.5t175 -63.5t64.5 -162t-64.5 -162t-175 -63.5t-175 63.5t-64.5 162z" />
    <glyph glyph-name="uni030B" unicode="&#x30b;" 
d="M-373 1640l371 330l135 -162l-401 -295zM-858 1640l373 330l131 -162l-400 -295z" />
    <glyph glyph-name="uni030C" unicode="&#x30c;" 
d="M-752 1862l136 110l215 -229l219 229l135 -110l-275 -328h-155z" />
    <glyph glyph-name="uni0326" unicode="&#x326;" 
d="M-547 -424v238l297 80v-140q0 -172 -37 -270t-135 -189l-104 113q65 65 73 168h-94z" />
    <glyph glyph-name="uni0327" unicode="&#x327;" 
d="M-471 -205q-57 0 -123 -20l33 245h155l-16 -106q33 8 78 8q88 0 138 -52t50 -143t-68.5 -149.5t-181 -58.5t-212.5 37l-17 135q101 -39 161 -39q116 0 116 71.5t-113 71.5z" />
    <glyph glyph-name="uni0328" unicode="&#x328;" 
d="M-397 -207q0 -84 92 -84q76 0 158 39l-29 -158q-89 -39 -204.5 -39t-186 51.5t-70.5 144.5t70.5 168t201.5 118h158l17 -33q-106 -47 -156.5 -102.5t-50.5 -104.5z" />
    <glyph glyph-name="uni0394" unicode="&#x394;" horiz-adv-x="1445" 
d="M1051 205l-328 954l-328 -954h656zM115 121l430 1233l327 94l459 -1327l-78 -121h-1060z" />
    <glyph glyph-name="uni03A9" unicode="&#x3a9;" horiz-adv-x="1568" 
d="M305 168h182v203q-332 84 -331 495q0 559 628.5 559t628.5 -559q0 -412 -332 -495v-203h183v127l206 55v-350h-596v504q272 49 273 344q0 365 -362.5 364.5t-362.5 -364.5q0 -295 272 -344v-504h-596v295l207 55v-182z" />
    <glyph glyph-name="uni03BC" unicode="&#x3bc;" horiz-adv-x="1167" 
d="M702 -20q-181 0 -274 90v-445l-256 -22v1192l-139 194h395v-639q0 -94 45 -139t141.5 -45t141.5 45t45 139v639h256v-629q0 -195 -87 -287.5t-268 -92.5z" />
    <glyph glyph-name="pi" unicode="&#x3c0;" horiz-adv-x="1284" 
d="M752 258v551h-256v-809h-256v809h-195v180h1210l-129 -180h-118v-557q0 -88 88 -88q51 0 125 20l-27 -184q-76 -20 -168 -20q-139 0 -206.5 68.5t-67.5 209.5z" />
    <glyph glyph-name="uni0401" unicode="&#x401;" horiz-adv-x="1210" 
d="M123 197h82v1017l-142 197h1014v-297l-239 -67v167h-369v-395h481l-145 -201h-336v-421h387v149l240 68v-414h-973v197zM963 1602h-256v188l256 72v-260zM520 1602h-256v188l256 72v-260z" />
    <glyph glyph-name="uni0402" unicode="&#x402;" horiz-adv-x="1673" 
d="M1078 668q-122 0 -265 -45v-426h113l-35 -197h-438v197h96v1017h-256v-131l-240 -65v393h1280v-328l-239 -65v196h-281v-387q137 39 295 39q242 0 381 -114t139 -342q0 -444 -457 -652l-120 166q166 84 237.5 195t71.5 263t-80 219t-202 67z" />
    <glyph glyph-name="uni0403" unicode="&#x403;" horiz-adv-x="1148" 
d="M123 197h82v1017l-142 197h1008v-317l-240 -68v188h-362v-1017h168l-35 -197h-479v197zM467 1649l463 321l125 -194l-500 -263z" />
    <glyph glyph-name="uni0404" unicode="&#x404;" horiz-adv-x="1308" 
d="M768 -20q-338 0 -502 177t-164 550t161 551t495 178q197 0 420 -52v-270l-240 -67v167q-86 16 -178 17q-170 0 -263.5 -100.5t-113.5 -311.5h547l-146 -201h-405q27 -434 399 -434q90 0 178 19v143l240 68v-379q-199 -55 -428 -55z" />
    <glyph glyph-name="uni0405" unicode="&#x405;" horiz-adv-x="1114" 
d="M606 1239q-246 0 -246 -175q0 -85 48.5 -132t148.5 -74l164 -43q168 -43 247 -140t79 -259q0 -225 -127 -330.5t-400 -105.5q-217 0 -424 53v284l240 68v-192q102 -16 178 -17q135 0 198.5 52.5t63.5 146.5t-44 142t-138 73l-162 43q-176 47 -258 143t-82 252
q0 211 122 309.5t382 98.5q188 0 387 -50v-278l-240 -68v187q-70 12 -137 12z" />
    <glyph glyph-name="uni0406" unicode="&#x406;" horiz-adv-x="686" 
d="M125 197h86v1017h-109l35 197h420v-197h-82v-1017h107l-35 -197h-422v197z" />
    <glyph glyph-name="uni0407" unicode="&#x407;" horiz-adv-x="686" 
d="M125 197h86v1017h-109l35 197h420v-197h-82v-1017h107l-35 -197h-422v197zM686 1602h-256v188l256 72v-260zM244 1602h-256v188l256 72v-260z" />
    <glyph glyph-name="uni0408" unicode="&#x408;" horiz-adv-x="880" 
d="M251.5 180q106.5 0 155 45t48.5 146v843l-142 197h486v-197h-80v-829q0 -211 -99.5 -308t-312.5 -97q-109 0 -209 20l-37 203q84 -23 190.5 -23z" />
    <glyph glyph-name="uni0409" unicode="&#x409;" horiz-adv-x="2039" 
d="M1456 197q275 0 275 178t-72 230t-203 52h-192v-460h192zM184 211q68 0 135.5 110.5t67.5 675.5v217h-133l35 197h1054v-197h-79v-360h192q268 0 405.5 -101.5t137.5 -320.5q0 -432 -543 -432h-538v197h81v1017h-387v-233q0 -360 -23.5 -565t-80.5 -299
q-78 -127 -279 -127q-82 0 -133 22l-28 215q48 -16 116 -16z" />
    <glyph glyph-name="uni040A" unicode="&#x40a;" horiz-adv-x="2088" 
d="M1505 197q275 0 275 178t-72 230t-203 52h-192v-460h192zM125 197h80v1017h-105l35 197h414v-197h-80v-391h580v391h-103l35 197h412v-197h-80v-360h192q268 0 405.5 -101.5t137.5 -320.5q0 -432 -543 -432h-536v197h80v426h-580v-426h104l-34 -197h-414v197z" />
    <glyph glyph-name="uni040B" unicode="&#x40b;" horiz-adv-x="1730" 
d="M1212 2v197h97v190q0 150 -55.5 211.5t-189.5 61.5t-251 -33v-432h113l-35 -197h-438v197h96v1017h-256v-131l-240 -65v393h1280v-328l-239 -65v196h-281v-378q135 31 297 30q236 0 349.5 -101t113.5 -341v-225h113l-35 -197h-439z" />
    <glyph glyph-name="uni040C" unicode="&#x40c;" horiz-adv-x="1411" 
d="M119 197h86v1017h-109l35 197h420v-197h-82v-303q0 -86 -12 -237l6 -2q70 90 174 200l324 342l-140 197h490v-197h-78l-369 -378l420 -639h90l-35 -197h-245l-412 643l-213 -217v-229h106l-34 -197h-422v197zM522 1649l463 321l125 -194l-500 -263z" />
    <glyph glyph-name="uni040D" unicode="&#x40d;" horiz-adv-x="1585" 
d="M125 197h80v1017h-105l35 197h414v-197h-80v-813h8l674 1010h309v-197h-80v-1017h105l-35 -197h-414v197h80v780h-8l-651 -977h-332v197zM414 1769l129 195l471 -311l-86 -140z" />
    <glyph glyph-name="uni040E" unicode="&#x40e;" horiz-adv-x="1282" 
d="M1253 1411v-197h-86l-522 -1214h-295l178 356l-538 1055h502l-35 -197h-101l125 -245l178 -361h11q27 59 75 183l74 180l107 243h-107l35 197h399zM651.5 1735q59.5 0 91 37.5t45.5 121.5l205 -24q-8 -139 -97 -220t-244.5 -81t-245 81t-97.5 220l205 24
q14 -84 46 -121.5t91.5 -37.5z" />
    <glyph glyph-name="uni040F" unicode="&#x40f;" horiz-adv-x="1536" 
d="M901 0v-221l-239 -68v289h-537v197h80v1017h-105l35 197h414v-197h-80v-1017h598v1017h-102l34 197h412v-197h-80v-1017h105l-35 -197h-500z" />
    <glyph glyph-name="uni0410" unicode="&#x410;" horiz-adv-x="1390" 
d="M51 197h82l367 1024l-138 190h455l434 -1214h111l-35 -197h-422v197h84l-80 237h-211l-143 199h289l-51 160q-45 143 -97 333h-12q-55 -195 -102 -333l-199 -596h113l-35 -197h-410v197z" />
    <glyph glyph-name="uni0411" unicode="&#x411;" horiz-adv-x="1243" 
d="M934 493.5q0 178.5 -272 178.5h-193v-475h193q129 0 200.5 59t71.5 237.5zM662 0h-539v197h82v1017l-142 197h1098v-295l-239 -69v167h-453v-346h193q541 0 540 -432q0 -436 -540 -436z" />
    <glyph glyph-name="uni0412" unicode="&#x412;" horiz-adv-x="1325" 
d="M692 197q150 0 220.5 52t70.5 163t-70.5 163t-220.5 52h-223v-430h223zM692 829q223 0 223 197q0 98 -54 143t-169 45h-223v-385h223zM1171 1027q0 -202 -165 -271q127 -31 186 -115t59 -231q0 -211 -135 -310.5t-424 -99.5h-569v197h82v1017l-142 197h629
q248 0 363.5 -91t115.5 -293z" />
    <glyph glyph-name="uni0413" unicode="&#x413;" horiz-adv-x="1148" 
d="M123 197h82v1017l-142 197h1008v-317l-240 -68v188h-362v-1017h168l-35 -197h-479v197z" />
    <glyph glyph-name="uni0414" unicode="&#x414;" horiz-adv-x="1564" 
d="M1028 197v1017h-387v-106q0 -614 -162 -911h549zM1446 197v-418l-240 -68v289h-889v-221l-239 -68v486h141q94 147 145.5 392t51.5 541v84h-133l34 197h1055v-197h-80v-1017h154z" />
    <glyph glyph-name="uni0415" unicode="&#x415;" horiz-adv-x="1210" 
d="M123 197h82v1017l-142 197h1014v-297l-239 -67v167h-369v-395h481l-145 -201h-336v-421h387v149l240 68v-414h-973v197z" />
    <glyph glyph-name="uni0416" unicode="&#x416;" horiz-adv-x="2029" 
d="M1163 197h105l-35 -197h-404v197h82v213l-190 213l-359 -623h-280v197h90l371 624l-506 590h600l-35 -197h-123l326 -385l108 -133l7 2q-8 100 -9 228v288h-102l35 197h401v-197h-82v-288q0 -127 -8 -228l6 -2l434 518l-139 197h490v-197h-78l-338 -391l373 -626h90
l-35 -197h-246l-358 625l-191 -215v-213z" />
    <glyph glyph-name="uni0417" unicode="&#x417;" horiz-adv-x="1171" 
d="M1057 1067q0 -225 -207 -317q125 -50 184.5 -135t59.5 -214q0 -215 -129 -317t-387 -102t-472 53v293l240 67v-196q100 -19 225 -19q254 -1 254 230q0 113 -73.5 167t-229.5 54h-157l34 196h123q137 0 201.5 52.5t64.5 164.5q0 199 -243 199q-88 0 -174 -16v-133
l-240 -68v352q250 57 440 58q486 0 486 -369z" />
    <glyph glyph-name="uni0418" unicode="&#x418;" horiz-adv-x="1585" 
d="M125 197h80v1017h-105l35 197h414v-197h-80v-813h8l674 1010h309v-197h-80v-1017h105l-35 -197h-414v197h80v780h-8l-651 -977h-332v197z" />
    <glyph glyph-name="uni0419" unicode="&#x419;" horiz-adv-x="1585" 
d="M125 197h80v1017h-105l35 197h414v-197h-80v-813h8l674 1010h309v-197h-80v-1017h105l-35 -197h-414v197h80v780h-8l-651 -977h-332v197zM823.5 1735q59.5 0 91 37.5t46.5 121.5l204 -24q-8 -139 -97 -220t-244.5 -81t-245 81t-97.5 220l205 24q14 -84 46 -121.5
t91.5 -37.5z" />
    <glyph glyph-name="uni041A" unicode="&#x41a;" horiz-adv-x="1411" 
d="M119 197h86v1017h-109l35 197h420v-197h-82v-303q0 -86 -12 -237l6 -2q70 90 174 200l324 342l-140 197h490v-197h-78l-369 -378l420 -639h90l-35 -197h-245l-412 643l-213 -217v-229h106l-34 -197h-422v197z" />
    <glyph glyph-name="uni041B" unicode="&#x41b;" horiz-adv-x="1464" 
d="M184 211q68 0 135.5 110.5t67.5 675.5v217h-133l35 197h1054v-197h-79v-1017h110l-24 -197h-432v197h81v1017h-387v-233q0 -360 -23.5 -565t-80.5 -299q-78 -127 -279 -127q-82 0 -133 22l-28 215q48 -16 116 -16z" />
    <glyph glyph-name="uni041C" unicode="&#x41c;" horiz-adv-x="1796" 
d="M90 197h82l41 1017l-131 197h448l252 -635q68 -166 111 -311h8q49 164 109 311l252 635h403v-197h-82l41 -1017h96l-34 -197h-398v197h82l-20 485q0 29 -2 43l-2 145q0 51 4 150l-13 2q-39 -133 -112 -317l-211 -531h-240l-211 531q-90 226 -112 317l-13 -2q4 -45 4 -154
t-4 -184l-20 -485h94l-35 -197h-387v197z" />
    <glyph glyph-name="uni041D" unicode="&#x41d;" horiz-adv-x="1517" 
d="M125 197h80v1017h-105l35 197h414v-197h-80v-391h580v391h-103l35 197h412v-197h-80v-1017h104l-35 -197h-413v197h80v426h-580v-426h104l-34 -197h-414v197z" />
    <glyph glyph-name="uni041E" unicode="&#x41e;" horiz-adv-x="1441" 
d="M1065 707.5q0 273.5 -82 398.5t-262 125t-262 -125t-82 -398t82 -398.5t262 -125.5t262 125t82 398.5zM102 706.5q0 378.5 148.5 554t471.5 175.5t470 -175.5t147 -554t-147.5 -552.5t-469 -174t-471 174t-149.5 552.5z" />
    <glyph glyph-name="uni041F" unicode="&#x41f;" horiz-adv-x="1484" 
d="M125 197h80v1017h-105l35 197h1225v-197h-80v-1017h104l-34 -197h-414v197h80v1017h-547v-1017h104l-34 -197h-414v197z" />
    <glyph glyph-name="uni0420" unicode="&#x420;" horiz-adv-x="1245" 
d="M662 713q242 0 241 258q0 125 -59.5 184t-181.5 59h-193v-501h193zM662 516h-193v-319h98l-35 -197h-409v197h82v1017l-131 197h588q510 0 509 -440q0 -455 -509 -455z" />
    <glyph glyph-name="uni0421" unicode="&#x421;" horiz-adv-x="1296" 
d="M102 708q0 374 156 551t487 177q197 0 420 -52v-270l-239 -67v167q-86 16 -178 17q-190 0 -280.5 -129t-90.5 -398.5t94 -394.5t295 -125q90 0 178 19v143l240 68v-379q-199 -55 -428 -55q-332 0 -493 177t-161 551z" />
    <glyph glyph-name="uni0422" unicode="&#x422;" horiz-adv-x="1349" 
d="M446 197h97v1017h-250v-151l-240 -66v414h1243v-348l-239 -66v217h-250v-1017h113l-35 -197h-439v197z" />
    <glyph glyph-name="uni0423" unicode="&#x423;" horiz-adv-x="1282" 
d="M1253 1411v-197h-86l-522 -1214h-295l178 356l-538 1055h502l-35 -197h-101l125 -245l178 -361h11q27 59 75 183l74 180l107 243h-107l35 197h399z" />
    <glyph glyph-name="uni0424" unicode="&#x424;" horiz-adv-x="1585" 
d="M342 710q0 -257 326 -294v588q-326 -37 -326 -294zM1243 709q0 258 -328 295v-588q328 35 328 293zM82 709q0 209 144.5 329.5t441.5 141.5v94h-101l33 180h397v-180h-82v-94q299 -20 443.5 -141t144.5 -330q0 -430 -588 -469v-97h101l-33 -180h-397v180h82v97
q-586 39 -586 469z" />
    <glyph glyph-name="uni0425" unicode="&#x425;" horiz-adv-x="1388" 
d="M86 197h74l387 524l-494 690h547l-35 -197h-102l233 -342l238 342l-139 197h477v-197h-76l-358 -487l528 -727h-510v197h96l-262 383l-268 -383h115l-35 -197h-416v197z" />
    <glyph glyph-name="uni0426" unicode="&#x426;" horiz-adv-x="1556" 
d="M1235 0h-1110v197h80v1017h-105l35 197h414v-197h-80v-1017h588v1017h-103l35 197h412v-197h-80v-1017h154v-418l-240 -68v289z" />
    <glyph glyph-name="uni0427" unicode="&#x427;" horiz-adv-x="1447" 
d="M889 0v197h90v319q-145 -57 -332 -57q-256 0 -374.5 117.5t-118.5 377.5v260h-105l35 197h414v-197h-80v-239q0 -162 63 -236.5t215 -74.5t283 57v493h-102l34 197h412v-197h-80v-1017h105l-35 -197h-424z" />
    <glyph glyph-name="uni0428" unicode="&#x428;" horiz-adv-x="2091" 
d="M125 0v197h80v1017h-105l35 197h414v-197h-80v-1017h444v1017h-108l35 197h420v-197h-82v-1017h444v1017h-102l34 197h412v-197h-80v-1017h105l-35 -197h-1831z" />
    <glyph glyph-name="uni0429" unicode="&#x429;" horiz-adv-x="2121" 
d="M2040 197v-418l-240 -68v289h-1675v197h80v1017h-105l35 197h416v-197h-82v-1017h444v1017h-108l35 197h420v-197h-82v-1017h444v1017h-102l34 197h412v-197h-80v-1017h154z" />
    <glyph glyph-name="uni042A" unicode="&#x42a;" horiz-adv-x="1558" 
d="M975 197q274 0 274 178t-71.5 230t-202.5 52h-193v-460h193zM432 197h86v1017h-225v-167l-240 -66v430h811v-197h-82v-360h193q268 0 405.5 -101.5t137.5 -320.5q0 -432 -543 -432h-543v197z" />
    <glyph glyph-name="uni042B" unicode="&#x42b;" horiz-adv-x="1890" 
d="M662 197q274 0 274 235q0 121 -71.5 173t-202.5 52h-193v-460h193zM125 197h80v1017h-105l35 197h414v-197h-80v-360h193q268 0 405 -101.5t137 -320.5q0 -432 -542 -432h-537v197zM1329 197h86v1017h-108l34 197h420v-197h-82v-1017h107l-35 -197h-422v197z" />
    <glyph glyph-name="uni042C" unicode="&#x42c;" horiz-adv-x="1245" 
d="M662 197q274 0 274 178t-71.5 230t-202.5 52h-193v-460h193zM125 197h80v1017h-105l35 197h414v-197h-80v-360h193q268 0 405 -101.5t137 -320.5q0 -432 -542 -432h-537v197z" />
    <glyph glyph-name="uni042D" unicode="&#x42d;" horiz-adv-x="1316" 
d="M1214 712q0 -378 -151.5 -555t-451.5 -177t-498 40v332l239 68v-223q80 -13 240 -13q323 -1 346 434h-416l-145 201h559q-16 219 -101 315.5t-231 96.5t-233 -17v-120l-240 -68v358q221 51 475 52q309 0 458.5 -173t149.5 -551z" />
    <glyph glyph-name="uni042E" unicode="&#x42e;" horiz-adv-x="2050" 
d="M1673 707.5q0 273.5 -80 398.5t-258 125t-258 -125t-80 -398t80 -398.5t258 -125.5t258 125t80 398.5zM1948 707.5q0 -379.5 -145.5 -553.5t-457 -174t-458 153.5t-162.5 484.5h-250v-421h107l-35 -197h-422v197h86v1017h-109l35 197h420v-197h-82v-395h252
q20 319 166.5 468t455 149t454 -174.5t145.5 -554z" />
    <glyph glyph-name="uni042F" unicode="&#x42f;" horiz-adv-x="1265" 
d="M797 1214h-187q-131 0 -195.5 -55t-64.5 -172t64.5 -172t195.5 -55h187v454zM78 989q0 215 124 318.5t378 103.5h561v-197h-80v-1017h104l-35 -197h-419v197h86v374h-197l-274 -571h-267v197h78l197 409q-256 103 -256 383z" />
    <glyph glyph-name="uni0430" unicode="&#x430;" horiz-adv-x="1390" 
d="M51 197h82l367 1024l-138 190h455l434 -1214h111l-35 -197h-422v197h84l-80 237h-211l-143 199h289l-51 160q-45 143 -97 333h-12q-55 -195 -102 -333l-199 -596h113l-35 -197h-410v197z" />
    <glyph glyph-name="uni0431" unicode="&#x431;" horiz-adv-x="1243" 
d="M934 436q0 234 -272 236h-193v-475h193q128 0 200 59t72 180zM662 0h-539v197h82v1017l-142 197h1098v-295l-239 -69v167h-453v-346h193q541 0 540 -432q0 -436 -540 -436z" />
    <glyph glyph-name="uni0432" unicode="&#x432;" horiz-adv-x="1325" 
d="M692 197q150 0 220.5 52t70.5 163t-70.5 163t-220.5 52h-223v-430h223zM692 829q223 0 223 197q0 98 -54 143t-169 45h-223v-385h223zM1171 1027q0 -202 -165 -271q127 -31 186 -115t59 -231q0 -211 -135 -310.5t-424 -99.5h-569v197h82v1017l-142 197h629
q248 0 363.5 -91t115.5 -293z" />
    <glyph glyph-name="uni0433" unicode="&#x433;" horiz-adv-x="1148" 
d="M123 197h82v1017l-142 197h1008v-317l-240 -68v188h-362v-1017h168l-35 -197h-479v197z" />
    <glyph glyph-name="uni0434" unicode="&#x434;" horiz-adv-x="1564" 
d="M1028 197v1017h-387v-106q0 -614 -162 -911h549zM1446 197v-418l-240 -68v289h-889v-221l-239 -68v486h141q94 147 146 392q51 245 51 541v84h-133l34 197h1055v-197h-80v-1017h154z" />
    <glyph glyph-name="uni0435" unicode="&#x435;" horiz-adv-x="1210" 
d="M123 197h82v1017l-142 197h1014v-297l-239 -67v167h-369v-395h481l-145 -201h-336v-421h387v149l240 68v-414h-973v197z" />
    <glyph glyph-name="uni0436" unicode="&#x436;" horiz-adv-x="2029" 
d="M1163 197h105l-35 -197h-404v197h82v213l-190 213l-359 -623h-280v197h90l371 624l-506 590h600l-35 -197h-123l326 -385l108 -133l7 2q-8 100 -9 228v288h-102l35 197h401v-197h-82v-288q0 -127 -8 -228l6 -2l434 518l-139 197h490v-197h-78l-338 -391l373 -626h90
l-35 -197h-246l-358 625l-191 -215v-213z" />
    <glyph glyph-name="uni0437" unicode="&#x437;" horiz-adv-x="1171" 
d="M1057 1067q0 -228 -207 -317q125 -50 184 -135t60 -214q0 -215 -129 -317t-387 -102t-472 53v293l240 67v-196q100 -19 225 -19q256 -1 254 230q0 113 -73 167q-74 54 -230 54h-157l34 196h123q137 1 202 53t64 164q0 199 -243 199q-88 0 -174 -16v-133l-240 -68v352
q250 57 440 58q486 0 486 -369z" />
    <glyph glyph-name="uni0438" unicode="&#x438;" horiz-adv-x="1585" 
d="M125 197h80v1017h-105l35 197h414v-197h-80v-813h8l674 1010h309v-197h-80v-1017h105l-35 -197h-414v197h80v780h-8l-651 -977h-332v197z" />
    <glyph glyph-name="uni0439" unicode="&#x439;" horiz-adv-x="1585" 
d="M125 197h80v1017h-105l35 197h414v-197h-80v-813h8l674 1010h309v-197h-80v-1017h105l-35 -197h-414v197h80v780h-8l-651 -977h-332v197zM823.5 1735q59.5 0 91 37.5t46.5 121.5l204 -24q-8 -139 -97 -220t-244.5 -81t-245 81t-97.5 220l205 24q14 -84 46 -121.5
t91.5 -37.5z" />
    <glyph glyph-name="uni043A" unicode="&#x43a;" horiz-adv-x="1411" 
d="M119 197h86v1017h-109l35 197h420v-197h-82v-303q0 -86 -12 -237l6 -2q70 90 174 200l324 342l-140 197h490v-197h-78l-369 -378l420 -639h90l-35 -197h-245l-412 643l-213 -217v-229h106l-34 -197h-422v197z" />
    <glyph glyph-name="uni043B" unicode="&#x43b;" horiz-adv-x="1464" 
d="M184 211q138 0 181 319q23 172 22 467v217h-133l35 197h1054v-197h-79v-1017h110l-24 -197h-432v197h81v1017h-387v-233q0 -360 -24 -565t-80 -299q-43 -70 -120 -99t-160 -28t-132 22l-28 215q48 -16 116 -16z" />
    <glyph glyph-name="uni043C" unicode="&#x43c;" horiz-adv-x="1796" 
d="M90 197h82l41 1017l-131 197h448l252 -635q68 -166 111 -311h8q49 164 109 311l252 635h403v-197h-82l41 -1017h96l-34 -197h-398v197h82l-20 485q0 29 -2 43l-2 145q0 51 4 150l-13 2q-39 -133 -112 -317l-211 -531h-240l-211 531q-90 226 -112 317l-13 -2q4 -45 4 -154
t-4 -184l-20 -485h94l-35 -197h-387v197z" />
    <glyph glyph-name="uni043D" unicode="&#x43d;" horiz-adv-x="1517" 
d="M125 197h80v1017h-105l35 197h414v-197h-80v-391h580v391h-103l35 197h412v-197h-80v-1017h104l-35 -197h-413v197h80v426h-580v-426h104l-34 -197h-414v197z" />
    <glyph glyph-name="uni043E" unicode="&#x43e;" horiz-adv-x="1441" 
d="M1065 707.5q0 273.5 -82 398.5t-262 125t-262 -125t-82 -398t82 -398.5t262 -125.5t262 125t82 398.5zM102 706.5q0 378.5 148.5 554t471.5 175.5t470 -175.5t147 -554t-147.5 -552.5t-469 -174t-471 174t-149.5 552.5z" />
    <glyph glyph-name="uni043F" unicode="&#x43f;" horiz-adv-x="1484" 
d="M125 197h80v1017h-105l35 197h1225v-197h-80v-1017h104l-34 -197h-414v197h80v1017h-547v-1017h104l-34 -197h-414v197z" />
    <glyph glyph-name="uni0440" unicode="&#x440;" horiz-adv-x="1245" 
d="M662 713q242 0 241 258q0 125 -59.5 184t-181.5 59h-193v-501h193zM662 516h-193v-319h98l-35 -197h-409v197h82v1017l-131 197h588q510 0 509 -440q0 -455 -509 -455z" />
    <glyph glyph-name="uni0441" unicode="&#x441;" horiz-adv-x="1296" 
d="M102 708q0 374 156 551t487 177q197 0 420 -52v-270l-239 -67v167q-86 16 -178 17q-190 0 -280.5 -129t-90.5 -398.5t94 -394.5t295 -125q90 0 178 19v143l240 68v-379q-199 -55 -428 -55q-332 0 -493 177t-161 551z" />
    <glyph glyph-name="uni0442" unicode="&#x442;" horiz-adv-x="1349" 
d="M446 197h97v1017h-250v-151l-240 -66v414h1243v-348l-239 -66v217h-250v-1017h113l-35 -197h-439v197z" />
    <glyph glyph-name="uni0443" unicode="&#x443;" horiz-adv-x="1282" 
d="M1253 1411v-197h-86l-522 -1214h-295l178 356l-538 1055h502l-35 -197h-101l125 -245l178 -361h11q27 59 75 183l74 180l107 243h-107l35 197h399z" />
    <glyph glyph-name="uni0444" unicode="&#x444;" horiz-adv-x="1585" 
d="M342 710q0 -257 326 -294v588q-326 -37 -326 -294zM1243 709q0 258 -328 295v-588q328 35 328 293zM82 709q0 209 144 329t442 142v94h-101l33 180h397v-180h-82v-94q299 -20 443 -142t145 -329q0 -430 -588 -469v-97h101l-33 -180h-397v180h82v97q-586 39 -586 469z" />
    <glyph glyph-name="uni0445" unicode="&#x445;" horiz-adv-x="1388" 
d="M86 197h74l387 524l-494 690h547l-35 -197h-102l233 -342l238 342l-139 197h477v-197h-76l-358 -487l528 -727h-510v197h96l-262 383l-268 -383h115l-35 -197h-416v197z" />
    <glyph glyph-name="uni0446" unicode="&#x446;" horiz-adv-x="1556" 
d="M1235 0h-1110v197h80v1017h-105l35 197h414v-197h-80v-1017h588v1017h-103l35 197h412v-197h-80v-1017h154v-418l-240 -68v289z" />
    <glyph glyph-name="uni0447" unicode="&#x447;" horiz-adv-x="1447" 
d="M889 0v197h90v319q-145 -57 -332 -57q-256 0 -375 118t-118 377v260h-105l35 197h414v-197h-80v-239q0 -162 63 -237q63 -74 215 -74t283 57v493h-102l34 197h412v-197h-80v-1017h105l-35 -197h-424z" />
    <glyph glyph-name="uni0448" unicode="&#x448;" horiz-adv-x="2091" 
d="M125 0v197h80v1017h-105l35 197h414v-197h-80v-1017h444v1017h-108l35 197h420v-197h-82v-1017h444v1017h-102l34 197h412v-197h-80v-1017h105l-35 -197h-1831z" />
    <glyph glyph-name="uni0449" unicode="&#x449;" horiz-adv-x="2121" 
d="M2040 197v-418l-240 -68v289h-1675v197h80v1017h-105l35 197h416v-197h-82v-1017h444v1017h-108l35 197h420v-197h-82v-1017h444v1017h-102l34 197h412v-197h-80v-1017h154z" />
    <glyph glyph-name="uni044A" unicode="&#x44a;" horiz-adv-x="1558" 
d="M975 197q129 0 202 57t72 178q0 121 -71 173q-72 52 -203 52h-193v-460h193zM432 197h86v1017h-225v-167l-240 -66v430h811v-197h-82v-360h193q268 0 405 -101t138 -321q0 -432 -543 -432h-543v197z" />
    <glyph glyph-name="uni044B" unicode="&#x44b;" horiz-adv-x="1890" 
d="M662 197q274 0 274 235q0 121 -71.5 173t-202.5 52h-193v-460h193zM125 197h80v1017h-105l35 197h414v-197h-80v-360h193q268 0 405 -101.5t137 -320.5q0 -432 -542 -432h-537v197zM1329 197h86v1017h-108l34 197h420v-197h-82v-1017h107l-35 -197h-422v197z" />
    <glyph glyph-name="uni044C" unicode="&#x44c;" horiz-adv-x="1245" 
d="M662 197q274 0 274 235q0 121 -72 173t-202 52h-193v-460h193zM125 197h80v1017h-105l35 197h414v-197h-80v-360h193q268 0 405 -101t137 -321q0 -432 -542 -432h-537v197z" />
    <glyph glyph-name="uni044D" unicode="&#x44d;" horiz-adv-x="1316" 
d="M611 -20q-300 0 -498 40v332l239 68v-223q80 -13 240 -13q323 -1 346 434h-416l-145 201h559q-16 219 -101 315t-231 97q-146 0 -233 -17v-120l-240 -68v358q221 51 475 52q309 0 459 -173q149 -173 149 -551t-152 -555t-451 -177z" />
    <glyph glyph-name="uni044E" unicode="&#x44e;" horiz-adv-x="2050" 
d="M1673 707.5q0 273.5 -80 398.5t-258 125t-258 -125t-80 -398t80 -398.5t258 -125.5t258 125t80 398.5zM1948 707.5q0 -379.5 -145.5 -553.5t-457 -174t-458 153.5t-162.5 484.5h-250v-421h107l-35 -197h-422v197h86v1017h-109l35 197h420v-197h-82v-395h252
q20 319 166.5 468t455 149t454 -174.5t145.5 -554z" />
    <glyph glyph-name="uni044F" unicode="&#x44f;" horiz-adv-x="1265" 
d="M797 1214h-187q-132 0 -196 -55t-64 -172t65 -172t195 -55h187v454zM580 1411h561v-197h-80v-1017h104l-35 -197h-419v197h86v374h-197l-274 -571h-267v197h78l197 409q-258 104 -256 383q0 215 124 319t378 103z" />
    <glyph glyph-name="uni0451" unicode="&#x451;" horiz-adv-x="1210" 
d="M123 197h82v1017l-142 197h1014v-297l-239 -67v167h-369v-395h481l-145 -201h-336v-421h387v149l240 68v-414h-973v197zM963 1602h-256v188l256 72v-260zM520 1602h-256v188l256 72v-260z" />
    <glyph glyph-name="uni0452" unicode="&#x452;" horiz-adv-x="1673" 
d="M1078 668q-122 0 -265 -45v-426h113l-35 -197h-438v197h96v1017h-256v-131l-240 -65v393h1280v-328l-239 -65v196h-281v-387q137 39 295 39q242 1 381 -113q139 -115 139 -343q0 -443 -457 -652l-120 166q165 84 237 195t72 263t-80 219t-202 67z" />
    <glyph glyph-name="uni0453" unicode="&#x453;" horiz-adv-x="1148" 
d="M123 197h82v1017l-142 197h1008v-317l-240 -68v188h-362v-1017h168l-35 -197h-479v197zM467 1649l463 321l125 -194l-500 -263z" />
    <glyph glyph-name="uni0454" unicode="&#x454;" horiz-adv-x="1308" 
d="M768 -20q-338 0 -502 177t-164 550t161 551t495 178q197 0 420 -52v-270l-240 -67v167q-86 16 -178 17q-170 -1 -263 -101t-114 -311h547l-146 -201h-405q27 -432 399 -434q90 0 178 19v143l240 68v-379q-199 -55 -428 -55z" />
    <glyph glyph-name="uni0455" unicode="&#x455;" horiz-adv-x="1114" 
d="M606 1239q-246 0 -246 -175q0 -85 48.5 -132t148.5 -74l164 -43q168 -43 247 -140t79 -259q0 -225 -127 -330.5t-400 -105.5q-217 0 -424 53v284l240 68v-192q102 -16 178 -17q135 0 198.5 52.5t63.5 146.5t-44 142t-138 73l-162 43q-176 47 -258 143t-82 252
q0 211 122 309.5t382 98.5q188 0 387 -50v-278l-240 -68v187q-70 12 -137 12z" />
    <glyph glyph-name="uni0456" unicode="&#x456;" horiz-adv-x="686" 
d="M125 197h86v1017h-109l35 197h420v-197h-82v-1017h107l-35 -197h-422v197z" />
    <glyph glyph-name="uni0457" unicode="&#x457;" horiz-adv-x="686" 
d="M125 197h86v1017h-109l35 197h420v-197h-82v-1017h107l-35 -197h-422v197zM686 1602h-256v188l256 72v-260zM244 1602h-256v188l256 72v-260z" />
    <glyph glyph-name="uni0458" unicode="&#x458;" horiz-adv-x="880" 
d="M251.5 180q106.5 0 155 45t48.5 146v843l-142 197h486v-197h-80v-829q0 -211 -99.5 -308t-312.5 -97q-109 0 -209 20l-37 203q84 -23 190.5 -23z" />
    <glyph glyph-name="uni0459" unicode="&#x459;" horiz-adv-x="2039" 
d="M1456 197q275 0 275 235q0 121 -72 173t-203 52h-192v-460h192zM184 211q138 0 181 319q23 172 22 467v217h-133l35 197h1054v-197h-79v-360h192q268 0 406 -101t137 -321q0 -432 -543 -432h-538v197h81v1017h-387v-233q0 -360 -24 -565t-80 -299q-43 -70 -120 -99
t-160 -28t-132 22l-28 215q48 -16 116 -16z" />
    <glyph glyph-name="uni045A" unicode="&#x45a;" horiz-adv-x="2088" 
d="M1505 197q275 0 275 235q0 121 -72 173t-203 52h-192v-460h192zM125 197h80v1017h-105l35 197h414v-197h-80v-391h580v391h-103l35 197h412v-197h-80v-360h192q267 0 405 -101t138 -321q0 -432 -543 -432h-536v197h80v426h-580v-426h104l-34 -197h-414v197z" />
    <glyph glyph-name="uni045B" unicode="&#x45b;" horiz-adv-x="1730" 
d="M1212 2v197h97v190q1 150 -55 211q-56 62 -190 62t-251 -33v-432h113l-35 -197h-438v197h96v1017h-256v-131l-240 -65v393h1280v-328l-239 -65v196h-281v-378q135 31 297 30q236 0 350 -101t113 -341v-225h113l-35 -197h-439z" />
    <glyph glyph-name="uni045C" unicode="&#x45c;" horiz-adv-x="1411" 
d="M119 197h86v1017h-109l35 197h420v-197h-82v-303q0 -86 -12 -237l6 -2q70 90 174 200l324 342l-140 197h490v-197h-78l-369 -378l420 -639h90l-35 -197h-245l-412 643l-213 -217v-229h106l-34 -197h-422v197zM522 1649l463 321l125 -194l-500 -263z" />
    <glyph glyph-name="uni045D" unicode="&#x45d;" horiz-adv-x="1585" 
d="M125 197h80v1017h-105l35 197h414v-197h-80v-813h8l674 1010h309v-197h-80v-1017h105l-35 -197h-414v197h80v780h-8l-651 -977h-332v197zM414 1769l129 195l471 -311l-86 -140z" />
    <glyph glyph-name="uni045E" unicode="&#x45e;" horiz-adv-x="1282" 
d="M1253 1411v-197h-86l-522 -1214h-295l178 356l-538 1055h502l-35 -197h-101l125 -245l178 -361h11q27 59 75 183l74 180l107 243h-107l35 197h399zM651.5 1735q59.5 0 91 37.5t45.5 121.5l205 -24q-8 -139 -97 -220t-244.5 -81t-245 81t-97.5 220l205 24
q14 -84 46 -121.5t91.5 -37.5z" />
    <glyph glyph-name="uni045F" unicode="&#x45f;" horiz-adv-x="1536" 
d="M901 0v-221l-239 -68v289h-537v197h80v1017h-105l35 197h414v-197h-80v-1017h598v1017h-102l34 197h412v-197h-80v-1017h105l-35 -197h-500z" />
    <glyph glyph-name="uni0490" unicode="&#x490;" horiz-adv-x="1093" 
d="M123 197h82v1017l-142 197h750v182l240 68v-447h-584v-1017h168l-35 -197h-479v197z" />
    <glyph glyph-name="uni0491" unicode="&#x491;" horiz-adv-x="1093" 
d="M123 197h82v1017l-142 197h750v182l240 68v-447h-584v-1017h168l-35 -197h-479v197z" />
    <glyph glyph-name="Wgrave" unicode="&#x1e80;" horiz-adv-x="1890" 
d="M1845 1411v-197h-88l-360 -1214h-242l-160 608q-49 188 -73 359h-13q-27 -178 -75 -359l-170 -608h-244l-416 1411h479l-34 -197h-115l137 -501q47 -168 80 -348h12q29 182 72 348l162 628h258l157 -665q45 -188 64 -311h12q29 176 66 309l145 540l-143 197h489z
M512 1769l129 195l471 -311l-86 -140z" />
    <glyph glyph-name="wgrave" unicode="&#x1e81;" horiz-adv-x="1890" 
d="M1845 1411v-197h-88l-360 -1214h-242l-160 608q-49 188 -73 359h-13q-27 -178 -75 -359l-170 -608h-244l-416 1411h479l-34 -197h-115l137 -501q47 -168 80 -348h12q29 182 72 348l162 628h258l157 -665q45 -188 64 -311h12q29 176 66 309l145 540l-143 197h489z
M512 1769l129 195l471 -311l-86 -140z" />
    <glyph glyph-name="Wacute" unicode="&#x1e82;" horiz-adv-x="1890" 
d="M1845 1411v-197h-88l-360 -1214h-242l-160 608q-49 188 -73 359h-13q-27 -178 -75 -359l-170 -608h-244l-416 1411h479l-34 -197h-115l137 -501q47 -168 80 -348h12q29 182 72 348l162 628h258l157 -665q45 -188 64 -311h12q29 176 66 309l145 540l-143 197h489z
M723 1649l463 321l125 -194l-500 -263z" />
    <glyph glyph-name="wacute" unicode="&#x1e83;" horiz-adv-x="1890" 
d="M1845 1411v-197h-88l-360 -1214h-242l-160 608q-49 188 -73 359h-13q-27 -178 -75 -359l-170 -608h-244l-416 1411h479l-34 -197h-115l137 -501q47 -168 80 -348h12q29 182 72 348l162 628h258l157 -665q45 -188 64 -311h12q29 176 66 309l145 540l-143 197h489z
M723 1649l463 321l125 -194l-500 -263z" />
    <glyph glyph-name="Wdieresis" unicode="&#x1e84;" horiz-adv-x="1890" 
d="M1845 1411v-197h-88l-360 -1214h-242l-160 608q-49 188 -73 359h-13q-27 -178 -75 -359l-170 -608h-244l-416 1411h479l-34 -197h-115l137 -501q47 -168 80 -348h12q29 182 72 348l162 628h258l157 -665q45 -188 64 -311h12q29 176 66 309l145 540l-143 197h489z
M1266 1602h-256v188l256 72v-260zM823 1602h-256v188l256 72v-260z" />
    <glyph glyph-name="wdieresis" unicode="&#x1e85;" horiz-adv-x="1890" 
d="M1845 1411v-197h-88l-360 -1214h-242l-160 608q-49 188 -73 359h-13q-27 -178 -75 -359l-170 -608h-244l-416 1411h479l-34 -197h-115l137 -501q47 -168 80 -348h12q29 182 72 348l162 628h258l157 -665q45 -188 64 -311h12q29 176 66 309l145 540l-143 197h489z
M1266 1602h-256v188l256 72v-260zM823 1602h-256v188l256 72v-260z" />
    <glyph glyph-name="Ygrave" unicode="&#x1ef2;" horiz-adv-x="1280" 
d="M430 197h70v325l-504 889h508l-35 -197h-98l118 -217q90 -166 142 -276h10q47 109 135 278l113 215l-141 197h487v-197h-98l-373 -684v-333h94l-35 -197h-393v197zM217 1769l129 195l471 -311l-86 -140z" />
    <glyph glyph-name="ygrave" unicode="&#x1ef3;" horiz-adv-x="1280" 
d="M430 197h70v325l-504 889h508l-35 -197h-98l118 -217q90 -166 142 -276h10q47 109 135 278l113 215l-141 197h487v-197h-98l-373 -684v-333h94l-35 -197h-393v197zM217 1769l129 195l471 -311l-86 -140z" />
    <glyph glyph-name="uni2002" unicode="&#x2002;" horiz-adv-x="1024" 
 />
    <glyph glyph-name="uni2003" unicode="&#x2003;" horiz-adv-x="2048" 
 />
    <glyph glyph-name="uni2009" unicode="&#x2009;" horiz-adv-x="409" 
 />
    <glyph glyph-name="uni200A" unicode="&#x200a;" horiz-adv-x="129" 
 />
    <glyph glyph-name="endash" unicode="&#x2013;" horiz-adv-x="1024" 
d="M29 817h987l-35 -201h-952v201z" />
    <glyph glyph-name="emdash" unicode="&#x2014;" horiz-adv-x="2048" 
d="M37 817h1980l-35 -201h-1945v201z" />
    <glyph glyph-name="quoteleft" unicode="&#x2018;" horiz-adv-x="460" 
d="M82 1061q0 143 54 248.5t179 199.5l93 -120q-119 -92 -123 -211h94v-217l-297 -80v180z" />
    <glyph glyph-name="quoteright" unicode="&#x2019;" horiz-adv-x="460" 
d="M82 1241v217l297 80v-180q0 -143 -54.5 -248.5t-179.5 -200.5l-92 121q119 92 123 211h-94z" />
    <glyph glyph-name="quotesinglbase" unicode="&#x201a;" horiz-adv-x="481" 
d="M102 -8v217l297 80v-180q0 -143 -54 -249t-179 -200l-92 121q119 92 123 211h-95z" />
    <glyph glyph-name="quotedblleft" unicode="&#x201c;" horiz-adv-x="880" 
d="M502 1061q0 143 54 248.5t179 199.5l92 -120q-118 -91 -122 -211h94v-217l-297 -80v180zM82 1061q0 143 54 248.5t179 199.5l93 -120q-119 -92 -123 -211h94v-217l-297 -80v180z" />
    <glyph glyph-name="quotedblright" unicode="&#x201d;" horiz-adv-x="880" 
d="M502 1241v217l297 80v-180q0 -143 -54.5 -248.5t-179.5 -200.5l-92 121q119 92 123 211h-94zM82 1241v217l297 80v-180q0 -143 -54.5 -248.5t-179.5 -200.5l-92 121q119 92 123 211h-94z" />
    <glyph glyph-name="quotedblbase" unicode="&#x201e;" horiz-adv-x="901" 
d="M522 -8v217l297 80v-180q0 -143 -54 -249t-179 -200l-92 121q118 91 122 211h-94zM102 -8v217l297 80v-180q0 -143 -54 -249t-179 -200l-92 121q119 92 123 211h-95z" />
    <glyph glyph-name="dagger" unicode="&#x2020;" horiz-adv-x="1071" 
d="M401 741h-311l-35 197h344l-4 430l275 68l-4 -498h350l-35 -197h-315l-9 -979l-245 -59z" />
    <glyph glyph-name="daggerdbl" unicode="&#x2021;" horiz-adv-x="1069" 
d="M403 369h-260l-34 200h292l-2 240h-309l-35 201h342l-6 358l277 68l-4 -426h350l-35 -201h-315l-2 -240h299l-35 -200h-267l-6 -607l-243 -59z" />
    <glyph glyph-name="bullet" unicode="&#x2022;" horiz-adv-x="802" 
d="M135 686q0 118 73 190q74 70 194 70t193 -70t73 -190t-73 -190t-193 -70t-194 71q-73 71 -73 189z" />
    <glyph glyph-name="ellipsis" unicode="&#x2026;" horiz-adv-x="1286" 
d="M1196 0h-270v211l270 78v-289zM778 0h-270v211l270 78v-289zM360 0h-270v211l270 78v-289z" />
    <glyph glyph-name="perthousand" unicode="&#x2030;" horiz-adv-x="2521" 
d="M2138 596q-82 0 -82 -168t19.5 -221t62.5 -53t62.5 53t19.5 221t-82 168zM1411 596q-82 0 -82 -168t19.5 -221t62.5 -53t62.5 53t19.5 221t-82 168zM1817 375q0 205 77.5 300t243.5 95t244 -95t78 -300t-78 -300t-244 -95t-243.5 95t-77.5 300zM1090 375q0 205 77.5 300
t243.5 95t244 -95t78 -300t-78 -300t-244 -95t-243.5 95t-77.5 300zM383 819q82 0 82 221.5t-82 221.5t-82 -221.5t82 -221.5zM61 1040.5q0 204.5 78 300t244 95.5t244 -95.5t78 -300t-78 -300t-244 -95.5t-244 95.5t-78 300zM332 84l946 1378l199 -129l-953 -1384z" />
    <glyph glyph-name="guilsinglleft" unicode="&#x2039;" horiz-adv-x="577" 
d="M41 692v43l315 418l166 -111l-227 -329l229 -328l-164 -111z" />
    <glyph glyph-name="guilsinglright" unicode="&#x203a;" horiz-adv-x="577" 
d="M53 385l230 328l-228 329l166 111l316 -418v-43l-320 -418z" />
    <glyph glyph-name="fraction" unicode="&#x2044;" horiz-adv-x="1232" 
d="M33 88l977 1417l190 -129l-977 -1417z" />
    <glyph glyph-name="Euro" unicode="&#x20ac;" horiz-adv-x="1464" 
d="M229 705v53h-147v178h164q43 254 196.5 377t429.5 123q197 0 420 -52v-270l-239 -67v167q-86 16 -179 17q-283 0 -348 -295h430l-129 -178h-323v-60q0 -49 2 -71h407l-129 -178h-252q39 -135 127.5 -200t233.5 -65q90 0 178 19v143l240 68v-379q-199 -55 -450 -55
q-517 0 -609 469h-170v178h149q-2 25 -2 78z" />
    <glyph glyph-name="uni2113" unicode="&#x2113;" horiz-adv-x="1017" 
d="M647 1079q0 160 -91 160t-91 -137v-389q182 133 182 366zM209 268v82l-103 -61l-86 155l189 111v547q0 334 334 334q344 0 344 -350t-422 -611v-121q0 -168 119 -168t241 105l97 -164q-150 -147 -379 -147q-334 -1 -334 288z" />
    <glyph glyph-name="uni2116" unicode="&#x2116;" horiz-adv-x="2238" 
d="M1583 197h602l-35 -197h-567v197zM1964 653q0 168 -94 168t-94 -168t94 -168t94 168zM1538 653q0 334 332 334t332 -334t-332 -334t-332 334zM127 197h78v1052l-119 162h389l672 -999h8v802l-141 197h459v-197h-78v-1214h-269l-669 977h-8v-780h90l-35 -197h-377v197z
" />
    <glyph glyph-name="trademark" unicode="&#x2122;" horiz-adv-x="1650" 
d="M776 979h53l27 319l-74 127h318l92 -348h8l74 348h313v-161h-55l31 -285h67l-28 -162h-213l-39 346l-56 -284h-196l-70 284l-20 -346h-232v162zM195 979h100v285h-62v-80l-180 -49v290h686v-241l-180 -49v129h-61v-285h123l-29 -162h-397v162z" />
    <glyph glyph-name="uni2126" unicode="&#x2126;" horiz-adv-x="1568" 
d="M305 168h182v203q-332 84 -331 495q0 559 628 559t629 -559q0 -412 -332 -495v-203h183v127l206 55v-350h-596v504q272 49 273 344q0 365 -363 364q-362 0 -362 -364q0 -295 272 -344v-504h-596v295l207 55v-182z" />
    <glyph glyph-name="estimated" unicode="&#x212e;" horiz-adv-x="1775" 
d="M1386 727q10 0 11 10v400q0 27 -21 47q-92 94 -219 148t-268 54t-268 -55t-222 -153q-20 -20 -20 -52v-389q0 -10 10 -10h997zM82 706q0 198 109.5 363.5t295 263t402.5 97.5t402.5 -97.5t294 -263.5t108.5 -364v-17h-1305q-10 0 -10 -10v-395q0 -20 18 -47
q92 -98 221.5 -154.5t277.5 -56.5t283.5 63.5t227.5 173.5h119q-115 -129 -280.5 -204.5t-369.5 -75.5t-389.5 97t-295 263t-109.5 364z" />
    <glyph glyph-name="arrowleft" unicode="&#x2190;" horiz-adv-x="1165" 
d="M41 680l412 412l135 -127l-205 -195h725l-39 -180h-686l205 -195l-135 -127z" />
    <glyph glyph-name="arrowup" unicode="&#x2191;" horiz-adv-x="1011" 
d="M416 164v684l-195 -205l-127 135l412 412l412 -412l-127 -135l-195 205v-735z" />
    <glyph glyph-name="arrowright" unicode="&#x2192;" horiz-adv-x="1165" 
d="M578 395l204 195h-725l39 180h686l-204 195l135 127l411 -412l-411 -412z" />
    <glyph glyph-name="arrowdown" unicode="&#x2193;" horiz-adv-x="1011" 
d="M94 537l127 135l195 -205v735l180 -51v-684l195 205l127 -135l-412 -412z" />
    <glyph glyph-name="partialdiff" unicode="&#x2202;" horiz-adv-x="1116" 
d="M344 442q0 -137 50 -202.5t160 -65.5q222 0 222 449q-100 70 -231 69q-201 0 -201 -250zM78 442q0 233 107.5 344t330.5 111q150 0 252 -57q-16 221 -92 326.5t-215 105.5t-293 -55l39 200q152 43 278 43q276 0 412.5 -196.5t136.5 -573.5t-120.5 -543.5t-363.5 -166.5
t-357.5 114.5t-114.5 347.5z" />
    <glyph glyph-name="uni2206" unicode="&#x2206;" horiz-adv-x="1445" 
d="M1051 205l-328 954l-328 -954h656zM115 121l430 1233l327 94l459 -1327l-78 -121h-1060z" />
    <glyph glyph-name="product" unicode="&#x220f;" horiz-adv-x="1376" 
d="M221 1210h-196v201h1372l-144 -201h-129v-1509l-262 -72v1581h-379v-1509l-262 -72v1581z" />
    <glyph glyph-name="summation" unicode="&#x2211;" horiz-adv-x="1288" 
d="M57 -176l660 743l-666 658l25 186h1179l-139 -197h-760l619 -604v-67l-619 -688h881l-139 -197h-1012z" />
    <glyph glyph-name="minus" unicode="&#x2212;" horiz-adv-x="1187" 
d="M152 641h909l-39 -217h-870v217z" />
    <glyph glyph-name="radical" unicode="&#x221a;" horiz-adv-x="1210" 
d="M1200 1450v-57l-469 -1389l-246 -14l-284 817h-195l33 184h348l209 -647l371 1106h233z" />
    <glyph glyph-name="infinity" unicode="&#x221e;" horiz-adv-x="1722" 
d="M1257 522q70 0 108 37t38 106t-37.5 105.5t-101.5 36.5q-124 0 -244 -141q121 -144 237 -144zM454 807q-62 0 -98.5 -37.5t-36.5 -105.5t39.5 -105t103.5 -37q123 0 249 142q-129 143 -257 143zM57 664q0 168 102.5 260t289.5 92q104 0 213.5 -50.5t203.5 -142.5
q88 92 194.5 142.5t213.5 50.5q186 0 288.5 -92t102.5 -260t-102.5 -259.5t-288.5 -91.5q-102 0 -209 49.5t-199 139.5q-84 -90 -191.5 -139.5t-219.5 -49.5q-191 0 -294.5 91.5t-103.5 259.5z" />
    <glyph glyph-name="integral" unicode="&#x222b;" horiz-adv-x="978" 
d="M256 -113q152 0 152 209q0 80 -16 179.5t-68 366.5t-52 402q0 430 390 431q82 0 167 -33l27 -174q-88 29 -174 28q-160 0 -160 -254q0 -116 52 -376q52 -261 68.5 -370.5t16.5 -205.5q0 -383 -405 -383q-61 1 -143 17l-29 188q84 -25 174 -25z" />
    <glyph glyph-name="approxequal" unicode="&#x2248;" horiz-adv-x="1187" 
d="M821.5 356q68.5 0 112.5 142l164 -99q-35 -121 -112 -187.5t-180 -66.5t-206 70l-61 39q-72 47 -115 47q-104 0 -174 -143l-160 114q53 117 138.5 181.5t187.5 64.5t211 -74l63 -43q63 -45 131.5 -45zM821.5 807q68.5 0 112.5 141l164 -98q-35 -121 -112 -187.5
t-180 -66.5t-206 70l-61 39q-72 47 -115 47q-104 0 -174 -144l-160 115q53 117 138.5 181.5t187.5 64.5t211 -74l63 -43q63 -45 131.5 -45z" />
    <glyph glyph-name="notequal" unicode="&#x2260;" horiz-adv-x="1187" 
d="M152 233v218h303l86 221h-389v217h475l90 225l172 -61l-66 -164h238l-39 -217h-285l-86 -221h410l-39 -218h-459l-88 -225l-172 62l64 163h-215z" />
    <glyph glyph-name="lessequal" unicode="&#x2264;" horiz-adv-x="1187" 
d="M139 217h910l-39 -217h-871v217zM147 696v138l775 376l104 -184l-537 -260l537 -260l-104 -187z" />
    <glyph glyph-name="greaterequal" unicode="&#x2265;" horiz-adv-x="1187" 
d="M139 217h910l-39 -217h-871v217zM147 504l537 260l-537 260l105 186l774 -376v-138l-774 -377z" />
    <glyph glyph-name="dotmath" unicode="&#x22c5;" horiz-adv-x="434" 
d="M352 471h-270v236l270 24v-260z" />
    <glyph glyph-name="lozenge" unicode="&#x25ca;" horiz-adv-x="1191" 
d="M844 694l-246 473l-250 -479l250 -469zM90 690l389 711l203 55l420 -760l-381 -700l-217 -59z" />
    <glyph glyph-name="uniF8FF" unicode="&#xf8ff;" horiz-adv-x="1101" 
d="M420 61q0 25 19 44t44 19t43 -18q18 -20 18 -46t-16 -43q-18 -17 -44 -17t-45 18t-19 43zM289 60q0 26 18 45t43 19t43 -18q19 -20 19 -46t-18 -43t-43 -17q-26 0 -44 17t-18 43zM154 60q0 26 18 45t43 19t44 -18q19 -20 19 -45t-18 -43q-20 -18 -46 -18t-43 17t-17 43z
M420 196q0 26 19 43t45 17t43 -17t17 -44t-16 -44q-18 -17 -44 -17t-45 18t-19 44zM154 195q0 27 17 44t43 17t45 -17t19 -43t-18 -44q-20 -18 -46 -18t-43 17t-17 44zM154 330q0 27 17 44t43 17t45 -18t19 -44t-18 -44q-20 -18 -46 -18t-43 18t-17 45zM888 524q26 0 43 -17
t17 -43t-17 -43t-43 -17t-45 18t-20 43t19 42t46 17zM753 524q26 0 44 -17t18 -42t-18 -43t-44 -18t-44 17q-19 17 -19 43t18 43t45 17zM557 464q0 26 17 43t43 17q25 0 45 -17t20 -42t-19 -43t-45 -18t-44 17q-17 17 -17 43zM420 465q0 25 19 42t45 17t43 -17t17 -43
t-16 -43q-18 -17 -44 -17t-45 18t-19 43zM154 464q0 26 17 43t43 17t45 -17t19 -42t-18 -43q-20 -18 -46 -18t-43 17t-17 43zM888 659q26 0 43 -18t17 -44t-17 -43t-43 -17t-45 18t-20 43t19 43t46 18zM154 597q0 26 17 44t43 18t45 -18t19 -43t-18 -43q-20 -18 -46 -18
t-43 17t-17 43zM948 731q0 -27 -17 -44t-43 -17t-45 18t-19 44t18 44q20 18 46 18t43 -18t17 -45zM815 732q0 -26 -18 -44t-44 -18t-44 17t-19 44q0 27 18 45t45 18q26 0 44 -18t18 -44zM557 731q0 27 17 45t43 18q25 0 45 -18t20 -44t-19 -44t-45 -18t-44 17q-17 17 -17 44
zM420 732q0 26 19 44t45 18t43 -18t17 -45t-16 -44q-18 -17 -44 -17t-45 18t-19 44zM154 731q0 27 17 45t43 18t45 -18t19 -44t-18 -44q-20 -18 -46 -18t-43 17t-17 44zM420 866q0 25 19 43q19 19 45 19t43 -18t17 -44q0 -27 -16 -43q-18 -16 -44 -16t-45 17t-19 42z
M154 866q0 27 17 44q17 18 43 18t45 -18t19 -44q0 -25 -18 -42q-20 -17 -46 -17t-43 16t-17 43zM948 1001q0 -25 -18 -44t-44 -19t-44 18t-18 44t18 43t44 17t44 -16q18 -18 18 -43zM815 1001q0 -25 -18 -44t-44 -19t-44 18q-19 18 -19 44t18 43t45 17q26 0 44 -16
q18 -18 18 -43zM557 1000q0 26 17 43t43 17q25 0 45 -16q20 -18 20 -44t-19 -44t-45 -18t-44 18q-17 18 -17 44zM420 1000q0 26 19 43t45 17t43 -16q17 -18 17 -44t-16 -44q-18 -18 -44 -18t-45 18t-19 44zM154 1000q0 26 17 43t43 17t45 -16q19 -18 19 -44t-18 -44
q-20 -18 -46 -18t-43 18t-17 44zM154 1134q0 26 17 44t43 18t45 -18t19 -43t-18 -43q-20 -18 -46 -18t-43 17t-17 43zM888 1331q26 0 43 -18t17 -44t-17 -44t-43 -18t-45 18t-19 44t18 44q20 18 46 18zM752 1331q25 0 44 -18t19 -44t-18 -44t-44 -18t-44 18q-19 18 -19 44
t18 44t44 18zM557 1269q0 26 17 44t43 18q25 0 45 -18t20 -44t-19 -44t-45 -18t-44 18q-17 18 -17 44zM420 1269q0 26 19 44t45 18t43 -18t17 -44t-16 -44q-18 -18 -44 -18t-45 18t-19 44zM289 1269q0 26 18 44t44 18t43 -18q18 -18 18 -44t-18 -44t-43 -18q-26 0 -44 18
t-18 44zM154 1269q0 26 17 44t43 18t45 -18t19 -44t-18 -44q-20 -18 -46 -18t-43 18t-17 44z" />
    <glyph glyph-name="uni00A40301" horiz-adv-x="880" 
d="M251.5 180q106.5 0 155 45t48.5 146v843l-142 197h486v-197h-80v-829q0 -211 -99.5 -308t-312.5 -97q-109 0 -209 20l-37 203q84 -23 190.5 -23zM381 1649l463 321l125 -194l-500 -263z" />
    <glyph glyph-name="Cacute.loclPLK" horiz-adv-x="1296" 
d="M102 708q0 374 156 551t487 177q197 0 420 -52v-270l-239 -67v167q-86 16 -178 17q-190 0 -280.5 -129t-90.5 -398.5t94 -394.5t295 -125q90 0 178 19v143l240 68v-379q-199 -55 -428 -55q-332 0 -493 177t-161 551zM725 1939h266l-172 -383h-194z" />
    <glyph glyph-name="Nacute.loclPLK" horiz-adv-x="1558" 
d="M127 197h78v1052l-119 162h389l672 -999h8v802l-141 197h459v-197h-78v-1214h-269l-669 977h-8v-780h90l-35 -197h-377v197zM797 1939h266l-172 -383h-195z" />
    <glyph glyph-name="Oacute.loclPLK" horiz-adv-x="1441" 
d="M1065 707.5q0 273.5 -82 398.5t-262 125t-262 -125t-82 -398t82 -398.5t262 -125.5t262 125t82 398.5zM102 706.5q0 378.5 148.5 554t471.5 175.5t470 -175.5t147 -554t-147.5 -552.5t-469 -174t-471 174t-149.5 552.5zM709 1939h266l-172 -383h-195z" />
    <glyph glyph-name="Sacute.loclPLK" horiz-adv-x="1114" 
d="M606 1239q-246 0 -246 -175q0 -85 48.5 -132t148.5 -74l164 -43q168 -43 247 -140t79 -259q0 -225 -127 -330.5t-400 -105.5q-217 0 -424 53v284l240 68v-192q102 -16 178 -17q135 0 198.5 52.5t63.5 146.5t-44 142t-138 73l-162 43q-176 47 -258 143t-82 252
q0 211 122 309.5t382 98.5q188 0 387 -50v-278l-240 -68v187q-70 12 -137 12zM557 1939h266l-172 -383h-194z" />
    <glyph glyph-name="Zacute.loclPLK" horiz-adv-x="1220" 
d="M330 1214v-149l-240 -68v414h1012l22 -154l-725 -1060h508v143l238 68v-408h-1049l-22 147l729 1067h-473zM604 1939h266l-172 -383h-194z" />
    <glyph glyph-name="i.loclTRK" horiz-adv-x="686" 
d="M125 197h86v1017h-109l35 197h420v-197h-82v-1017h107l-35 -197h-422v197zM469 1602h-256v186l256 74v-260z" />
    <glyph glyph-name="uni006A0301" horiz-adv-x="880" 
d="M251.5 180q106.5 0 155 45t48.5 146v843l-142 197h486v-197h-80v-829q0 -211 -99.5 -308t-312.5 -97q-109 0 -209 20l-37 203q84 -23 190.5 -23zM381 1649l463 321l125 -194l-500 -263z" />
    <glyph glyph-name="d.calt" horiz-adv-x="1460" 
d="M631 197q170 0 268 48t141 157.5t43 301.5t-43 302t-141 159t-268 49h-162v-1017h162zM123 197h82v1017l-142 197h568q274 0 431 -67.5t226.5 -220t69.5 -417.5t-69.5 -418t-226.5 -220.5t-431 -67.5h-508v197z" />
    <glyph glyph-name="cacute.loclPLK" horiz-adv-x="1296" 
d="M102 708q0 374 156 551t487 177q197 0 420 -52v-270l-239 -67v167q-86 16 -178 17q-190 0 -280.5 -129t-90.5 -398.5t94 -394.5t295 -125q90 0 178 19v143l240 68v-379q-199 -55 -428 -55q-332 0 -493 177t-161 551zM725 1939h266l-172 -383h-194z" />
    <glyph glyph-name="nacute.loclPLK" horiz-adv-x="1558" 
d="M127 197h78v1052l-119 162h389l672 -999h8v802l-141 197h459v-197h-78v-1214h-269l-669 977h-8v-780h90l-35 -197h-377v197zM797 1939h266l-172 -383h-195z" />
    <glyph glyph-name="oacute.loclPLK" horiz-adv-x="1441" 
d="M1065 707.5q0 273.5 -82 398.5t-262 125t-262 -125t-82 -398t82 -398.5t262 -125.5t262 125t82 398.5zM102 706.5q0 378.5 148.5 554t471.5 175.5t470 -175.5t147 -554t-147.5 -552.5t-469 -174t-471 174t-149.5 552.5zM709 1939h266l-172 -383h-195z" />
    <glyph glyph-name="sacute.loclPLK" horiz-adv-x="1114" 
d="M606 1239q-246 0 -246 -175q0 -85 48.5 -132t148.5 -74l164 -43q168 -43 247 -140t79 -259q0 -225 -127 -330.5t-400 -105.5q-217 0 -424 53v284l240 68v-192q102 -16 178 -17q135 0 198.5 52.5t63.5 146.5t-44 142t-138 73l-162 43q-176 47 -258 143t-82 252
q0 211 122 309.5t382 98.5q188 0 387 -50v-278l-240 -68v187q-70 12 -137 12zM557 1939h266l-172 -383h-194z" />
    <glyph glyph-name="zacute.loclPLK" horiz-adv-x="1220" 
d="M330 1214v-149l-240 -68v414h1012l22 -154l-725 -1060h508v143l238 68v-408h-1049l-22 147l729 1067h-473zM604 1939h266l-172 -383h-194z" />
    <glyph glyph-name="uni041B.loclBGR" horiz-adv-x="1390" 
d="M51 197h82l367 1024l-138 190h455l434 -1214h111l-35 -197h-422v197h84l-196 596q-45 143 -97 333h-12q-55 -195 -102 -333l-199 -596h113l-35 -197h-410v197z" />
    <glyph glyph-name="uni0424.loclBGR" horiz-adv-x="1626" 
d="M301 708.5q0 -157.5 99.5 -250.5t287.5 -108v717q-188 -14 -287.5 -107.5t-99.5 -251zM1325 708.5q0 159.5 -98.5 253t-290.5 107.5v-719q193 14 291 106.5t98 252zM936 92h100l-32 -170h-398v170h82v84q-317 12 -482 149.5t-165 382.5t166 384t481 151v82h-100l33 170
h397v-170h-82v-82q317 -12 483 -151.5t166 -383.5t-166 -382t-483 -150v-84z" />
    <glyph glyph-name="uni043B.loclBGR" horiz-adv-x="1390" 
d="M51 197h82l367 1024l-138 190h455l434 -1214h111l-35 -197h-422v197h84l-196 596q-45 143 -97 333h-12q-55 -195 -102 -333l-199 -596h113l-35 -197h-410v197z" />
    <glyph glyph-name="uni0444.loclBGR" horiz-adv-x="1626" 
d="M301 708q0 -158 99 -250q99 -93 288 -108v717q-188 -13 -288 -107t-99 -252zM1325 709q0 160 -98 253t-291 107v-719q193 14 291 106t98 253zM936 92h100l-32 -170h-398v170h82v84q-317 12 -482 150t-165 382q0 245 166 384t481 151v82h-100l33 170h397v-170h-82v-82
q317 -12 483 -151t166 -384t-166 -382t-483 -150v-84z" />
    <glyph glyph-name="zero.tf" horiz-adv-x="1191" 
d="M842 709q0 193 -24 307t-77 165q-53 52 -143 52t-144 -52q-104 -100 -104 -473t103 -470q53 -51 144 -51t144 51q53 50 77 164t24 307zM78 708q0 267 51 426q51 158 165 230t304 72t302 -72t163 -230t51 -426q0 -267 -51 -426t-163 -231t-303 -72t-304 72t-164 231
t-51 426z" />
    <glyph glyph-name="one.tf" horiz-adv-x="1191" 
d="M334 197h133v968l-180 246h438v-1214h147l-34 -197h-504v197z" />
    <glyph glyph-name="two.tf" horiz-adv-x="1191" 
d="M551 1231q-84 0 -162 -21v-137l-237 -63v368q211 58 433 58t339 -102t116 -300q0 -273 -313 -594q-100 -102 -252 -235h606l-37 -205h-899l-24 160q246 213 395 372q276 295 276 497t-241 202z" />
    <glyph glyph-name="three.tf" horiz-adv-x="1191" 
d="M475 827q267 0 267 212q-2 204 -208 204q-96 0 -165 -18v-152l-238 -63v368q240 57 412 58q239 0 353 -90t114 -279q0 -227 -207 -317q242 -95 244 -349q0 -217 -127 -318t-376 -101t-415 59v209q168 -68 342 -68t241 56q66 56 66 170q0 115 -73 169q-74 54 -230 54h-135
l35 196h100z" />
    <glyph glyph-name="four.tf" horiz-adv-x="1191" 
d="M705 305h-646l-24 154l500 952h288l-479 -889h361v295l260 72v-367h159l-159 -217v-305h-260v305z" />
    <glyph glyph-name="five.tf" horiz-adv-x="1191" 
d="M502 182q159 0 226 60t67 182q-1 123 -61 179t-200 56t-331 -55l-23 21l47 786h785l-144 -199h-430l-18 -366q86 16 186 16q233 0 344 -106t111 -334t-124 -335q-124 -108 -386 -107q-200 -1 -401 79v209q193 -86 352 -86z" />
    <glyph glyph-name="six.tf" horiz-adv-x="1191" 
d="M597 182q110 0 167 69t57 198q0 248 -217 247q-85 0 -217 -49q0 -245 50 -355t160 -110zM813 1223l2 -6q0 4 -2 6zM705 1436q157 0 301 -45v-269l-240 -63v182q-37 4 -57 4q-131 0 -213 -104t-103 -303q131 68 283 67q199 0 304 -118t105 -332q0 -477 -481 -475
q-256 0 -371 162t-114 497q0 395 149 596q150 201 437 201z" />
    <glyph glyph-name="seven.tf" horiz-adv-x="1191" 
d="M330 1212v-120l-242 -64v383h997l21 -135l-631 -1276h-274l606 1212h-477z" />
    <glyph glyph-name="eight.tf" horiz-adv-x="1191" 
d="M588 176q234 0 233 195q0 177 -258 272q-207 -79 -209 -268q0 -199 234 -199zM770 1081q0 172 -178 172q-90 0 -137 -46t-47 -128q0 -160 194 -231q168 77 168 233zM587 -20q-247 0 -373 98t-126 287q0 249 277 376q-109 57 -165 145t-57 197q0 173 114 263t334 90
t332 -88t111 -258q0 -223 -235 -332q290 -124 288 -391q0 -190 -126 -289q-127 -98 -374 -98z" />
    <glyph glyph-name="nine.tf" horiz-adv-x="1191" 
d="M383 970q0 -128 51 -190t161 -61q110 0 220 51q-12 463 -246 463q-90 0 -138 -67q-48 -68 -48 -196zM543 510q-205 0 -315 113t-110 335t113 351q113 127 338 127q516 0 516 -697q0 -759 -596 -759q-133 -1 -237 40l-37 199q130 -49 254 -49q299 0 340 408
q-122 -68 -266 -68z" />
    <glyph glyph-name="asterisk.case" horiz-adv-x="755" 
d="M78 901l172 158l-221 22l80 232l186 -109l-62 207h289l-53 -205l178 109l80 -234l-223 -20l174 -160l-211 -143l-86 194l-92 -194z" />
    <glyph glyph-name="periodcentered.case" horiz-adv-x="434" 
d="M352 594h-270v211l270 78v-289z" />
    <glyph glyph-name="bullet.case" horiz-adv-x="802" 
d="M135 686q0 119 73 189.5t193.5 70.5t193.5 -70.5t73 -189.5t-73 -189.5t-193.5 -70.5t-193.5 70.5t-73 189.5z" />
    <glyph glyph-name="colon.case" horiz-adv-x="434" 
d="M352 205h-270v211l270 78v-289zM352 956h-270v211l270 78v-289z" />
    <glyph glyph-name="exclamdown.case" horiz-adv-x="464" 
d="M115 979l231 63l29 -1058l-281 -25zM90 1411h270v-203l-270 -78v281z" />
    <glyph glyph-name="questiondown.case" horiz-adv-x="944" 
d="M53 365q0 129 54.5 215t168.5 149l101 55q49 27 69.5 60t22.5 92l2 43l234 63l2 -139q4 -210 -162 -307l-88 -51q-63 -37 -91 -80t-28 -109q0 -188 190 -188q153 0 351 92l-27 -213q-186 -72 -388 -72t-306.5 99.5t-104.5 290.5zM449 1411h270v-203l-270 -78v281z" />
    <glyph glyph-name="semicolon.case" horiz-adv-x="473" 
d="M94 197v217l297 80v-181q0 -145 -49 -245.5t-184 -202.5l-92 121q66 51 92 98t30 113h-94zM377 956h-271v211l271 78v-289z" />
    <glyph glyph-name="braceleft.case" horiz-adv-x="776" 
d="M223 174v272q0 80 -29.5 114t-111.5 44v209q82 6 111.5 36t29.5 103v289q0 129 31 199.5t101.5 100.5t199.5 30h147l35 -193h-145q-57 0 -80 -32.5t-25 -120.5v-240q0 -117 -27.5 -176t-101.5 -98v-4q74 -35 101.5 -97.5t27.5 -197.5v-222q0 -88 24 -120.5t87 -32.5h139
l-35 -193h-147q-129 0 -199.5 30t-101.5 100.5t-31 199.5z" />
    <glyph glyph-name="braceright.case" horiz-adv-x="776" 
d="M178 37q63 0 87 32.5t24 120.5v222q0 135 27.5 197.5t101.5 97.5v4q-74 39 -101.5 98t-27.5 176v240q-2 88 -24.5 120.5t-80.5 32.5h-139l35 193h141q129 0 200 -30t101.5 -100.5t30.5 -199.5v-289q0 -74 29.5 -103.5t111.5 -35.5v-209q-82 -10 -111.5 -44t-29.5 -114
v-272q0 -129 -30.5 -199.5t-101.5 -100.5t-200 -30h-147l-35 193h139z" />
    <glyph glyph-name="bracketleft.case" horiz-adv-x="694" 
d="M131 1559h465l35 -195h-238v-1341h238l-35 -195h-465v1731z" />
    <glyph glyph-name="bracketright.case" horiz-adv-x="694" 
d="M301 23v1341h-238l35 195h465v-1731h-465l-35 195h238z" />
    <glyph glyph-name="parenleft.case" horiz-adv-x="749" 
d="M131 741q0 252 82 465t260 414l207 -117q-152 -188 -221.5 -373.5t-69.5 -397.5t71.5 -391t227.5 -359l-215 -101q-178 201 -260 404.5t-82 455.5z" />
    <glyph glyph-name="parenright.case" horiz-adv-x="749" 
d="M360 753q0 212 -71.5 391t-227.5 359l215 101q178 -201 260 -404.5t82 -455.5t-81.5 -465t-260.5 -414l-206 117q152 188 221 373.5t69 397.5z" />
    <glyph glyph-name="emdash.case" horiz-adv-x="2048" 
d="M37 817h1980l-35 -201h-1945v201z" />
    <glyph glyph-name="endash.case" horiz-adv-x="1024" 
d="M29 817h987l-35 -201h-952v201z" />
    <glyph glyph-name="hyphen.case" horiz-adv-x="604" 
d="M70 817h479l-35 -201h-444v201z" />
    <glyph glyph-name="uni00AD.case" horiz-adv-x="604" 
d="M70 817h479l-35 -201h-444v201z" />
    <glyph glyph-name="guillemotleft.case" horiz-adv-x="1042" 
d="M506 692v43l315 418l166 -111l-227 -329l229 -328l-164 -111zM41 692v43l315 418l166 -111l-227 -329l229 -328l-164 -111z" />
    <glyph glyph-name="guillemotright.case" horiz-adv-x="1042" 
d="M518 385l230 328l-228 329l166 111l315 -418v-43l-319 -418zM53 385l230 328l-228 329l166 111l316 -418v-43l-320 -418z" />
    <glyph glyph-name="guilsinglleft.case" horiz-adv-x="577" 
d="M41 692v43l315 418l166 -111l-227 -329l229 -328l-164 -111z" />
    <glyph glyph-name="guilsinglright.case" horiz-adv-x="577" 
d="M53 385l230 328l-228 329l166 111l316 -418v-43l-320 -418z" />
    <glyph glyph-name="uni200A.ss01" horiz-adv-x="129" 
 />
    <glyph glyph-name="space.ss01" horiz-adv-x="542" 
 />
    <glyph glyph-name="uni2009.ss01" horiz-adv-x="409" 
 />
    <glyph glyph-name="cent.tf" horiz-adv-x="1191" 
d="M557 807q-133 -55 -133 -312t133 -313v625zM162 494q0 248 93 370t302 144v174l184 20v-192q131 -6 277 -41v-273l-211 -59v182l-66 6v-661q158 8 301 69l-28 -196q-119 -45 -273 -55v-166l-184 -21v189q-209 18 -302 140t-93 370z" />
    <glyph glyph-name="dollar.tf" horiz-adv-x="1191" 
d="M868 393q0 68 -35 111q-36 43 -114 67v-378q149 40 149 200zM516 1233q-80 -14 -113 -51t-33 -114t32 -118t114 -67v350zM123 1052q0 172 94 266t299 112v182l203 20v-198q182 -6 346 -48v-280l-236 -64v183l-110 12v-408l53 -14q180 -47 263 -142t83 -275t-96 -282
q-96 -103 -303 -128v-174l-203 -21v187q-213 6 -401 53v286l233 64v-190q78 -16 168 -17v449l-33 8q-188 51 -274 149t-86 270z" />
    <glyph glyph-name="Euro.tf" horiz-adv-x="1191" 
d="M76 705v53h-148v178h164q43 254 196.5 377t430.5 123q197 0 420 -52v-356h-240v186q-86 16 -178 17q-283 0 -348 -295h393l-53 -178h-363v-60q0 -49 2 -71h367l-53 -178h-287q39 -135 127 -200t233 -65q90 0 179 19v192h239v-360q-199 -55 -449 -55q-518 0 -610 469h-170
v178h150q-2 25 -2 78z" />
    <glyph glyph-name="florin.tf" horiz-adv-x="1191" 
d="M118 -193q96 -1 147 57q50 58 63 185l61 588h-170l33 180h158l28 270q20 187 108 271t259 84q170 0 249 -70t91 -219l-209 -59q-6 86 -33 122t-81 35q-107 0 -122 -170l-28 -264h291l-129 -180h-187l-59 -574q-25 -238 -126 -344t-306 -106q-109 0 -195 37l-29 192
q90 -35 186 -35z" />
    <glyph glyph-name="sterling.tf" horiz-adv-x="1191" 
d="M537 410q0 -139 -88 -205v-8h409v170l236 67v-434h-983l-25 164q100 45 144 108t44 160v193l-131 182h131v192q0 226 117 333q61 56 139 80t209 24t275 -50v-202q-152 53 -266 53t-158 -49q-53 -53 -53 -193v-188h383l-134 -182h-249v-215z" />
    <glyph glyph-name="yen.tf" horiz-adv-x="1191" 
d="M344 197h119v98h-260v158h243v73h-243v166h166l-406 719h467v-197h-96l119 -217q84 -153 133 -305h26q48 156 127 307l113 215l-141 197h487v-197h-98l-285 -522h172l-29 -166h-231v-73h227l-28 -158h-199v-98h141l-34 -197h-490v197z" />
    <glyph glyph-name="dotmath.case" horiz-adv-x="434" 
d="M352 717h-270v211l270 78v-289z" />
    <glyph glyph-name="at.case" horiz-adv-x="1683" 
d="M731 584q0 -76 80 -76t127 47v98h-111q-96 0 -96 -69zM1143 639q0 -135 102 -135q66 0 102.5 67.5t36.5 190.5q0 231 -131 357t-385 126t-398 -143.5t-144 -402.5t143 -398t387 -139t455 76l-29 -195q-194 -68 -432 -68q-379 0 -584 187.5t-205 537.5t212 543t586 193
t568.5 -170t194.5 -482q0 -213 -98.5 -329.5t-279.5 -116.5t-259 113q-74 -99 -227 -99q-113 0 -173.5 59t-60.5 165t71 161.5t202 55.5h141v38q0 99 -112 99t-240 -43v172q123 41 263 41t217 -67.5t77 -190.5v-203z" />
    <glyph glyph-name="dagger.case" horiz-adv-x="1071" 
d="M401 905h-311l-35 197h344l-4 430l275 67l-4 -497h350l-35 -197h-315l-9 -979l-245 -59z" />
    <glyph glyph-name="daggerdbl.case" horiz-adv-x="1069" 
d="M403 532h-260l-34 201h292l-2 240h-309l-35 201h342l-6 358l277 67l-4 -425h350l-35 -201h-315l-2 -240h299l-35 -201h-267l-6 -606l-243 -59z" />
    <glyph glyph-name="uni0308.case" 
d="M-51 1602h-256v188l256 72v-260zM-494 1602h-256v188l256 72v-260z" />
    <glyph glyph-name="uni0307.case" 
d="M-272 1602h-256v186l256 74v-260z" />
    <glyph glyph-name="gravecomb.case" 
d="M-702 1769l129 195l471 -311l-86 -140z" />
    <glyph glyph-name="acutecomb.case" 
d="M-684 1649l463 321l125 -194l-500 -263z" />
    <glyph glyph-name="uni030B.case" 
d="M-373 1640l371 330l135 -162l-401 -295zM-858 1640l373 330l131 -162l-400 -295z" />
    <glyph glyph-name="uni0302.case" 
d="M-752 1608l275 327h155l275 -327l-135 -111l-215 229l-219 -229z" />
    <glyph glyph-name="uni030C.case" 
d="M-752 1862l136 110l215 -229l219 229l135 -110l-275 -328h-155z" />
    <glyph glyph-name="uni0306.case" 
d="M-399.5 1755q59.5 0 91.5 33t46 106l184 -24q-8 -139 -92 -220t-229.5 -81t-229.5 81t-92 220l184 24q14 -74 46 -106.5t91.5 -32.5z" />
    <glyph glyph-name="uni030A.case" 
d="M-319 1726.5q0 36.5 -21.5 61t-58.5 24.5t-58.5 -24.5t-21.5 -61t21.5 -59t58.5 -22.5t58.5 22.5t21.5 59zM-639 1726.5q0 98.5 64.5 162t175 63.5t175 -63.5t64.5 -162t-64.5 -162t-175 -63.5t-175 63.5t-64.5 162z" />
    <glyph glyph-name="tildecomb.case" 
d="M-548 1683q-52 0 -118 -108l-125 88q76 219 240 219q67 0 170 -63q8 -4 48 -27t76 -23t64.5 29t59.5 80l125 -88q-76 -219 -240 -219q-49 0 -87 16.5t-86 45t-72.5 39.5t-54.5 11z" />
    <glyph glyph-name="uni0304.case" 
d="M-729 1780h649l-31 -172h-618v172z" />
    <glyph glyph-name="acutecomb.loclPLK" 
d="M-418 1939h266l-172 -383h-194z" />
    <glyph glyph-name="acutecomb.case.loclPLK" 
d="M-418 1939h266l-172 -383h-194z" />
    <glyph glyph-name="acute.case" horiz-adv-x="798" 
d="M115 1649l463 321l124 -194l-499 -263z" />
    <glyph glyph-name="breve.case" horiz-adv-x="798" 
d="M399.5 1755q59.5 0 91 33t46.5 106l184 -24q-8 -139 -92 -220t-229.5 -81t-229.5 81t-92 220l184 24q14 -74 46 -106.5t91.5 -32.5z" />
    <glyph glyph-name="caron.case" horiz-adv-x="798" 
d="M47 1862l135 110l215 -229l219 229l136 -110l-275 -328h-155z" />
    <glyph glyph-name="circumflex.case" horiz-adv-x="798" 
d="M47 1608l275 327h155l275 -327l-136 -111l-215 229l-219 -229z" />
    <glyph glyph-name="dieresis.case" horiz-adv-x="798" 
d="M748 1602h-256v188l256 72v-260zM305 1602h-256v188l256 72v-260z" />
    <glyph glyph-name="dotaccent.case" horiz-adv-x="798" 
d="M526 1602h-256v186l256 74v-260z" />
    <glyph glyph-name="grave.case" horiz-adv-x="798" 
d="M96 1769l129 195l471 -311l-86 -140z" />
    <glyph glyph-name="hungarumlaut.case" horiz-adv-x="798" 
d="M426 1640l371 330l135 -162l-402 -295zM-59 1640l372 330l131 -162l-399 -295z" />
    <glyph glyph-name="macron.case" horiz-adv-x="798" 
d="M70 1780h649l-31 -172h-618v172z" />
    <glyph glyph-name="ring.case" horiz-adv-x="798" 
d="M479 1726.5q0 36.5 -21.5 61t-58.5 24.5t-58.5 -24.5t-21.5 -61t21.5 -59t58.5 -22.5t58.5 22.5t21.5 59zM160 1726.5q0 98.5 64.5 162t175 63.5t175 -63.5t64.5 -162t-64.5 -162t-175 -63.5t-175 63.5t-64.5 162z" />
    <glyph glyph-name="tilde.case" horiz-adv-x="798" 
d="M251 1683q-52 0 -118 -108l-125 88q76 219 240 219q67 0 170 -63q8 -4 47.5 -27t76 -23t65 29t59.5 80l125 -88q-76 -219 -240 -219q-49 0 -87 16.5t-86 45t-72.5 39.5t-54.5 11z" />
    <glyph glyph-name="brevecombcy" 
d="M-399.5 1755q59.5 0 91.5 33t46 106l184 -24q-8 -139 -92 -220t-229.5 -81t-229.5 81t-92 220l184 24q14 -74 46 -106.5t91.5 -32.5z" />
    <glyph glyph-name="brevecombcy.case" 
d="M-399.5 1735q59.5 0 91.5 37.5t46 121.5l205 -24q-8 -139 -97.5 -220t-245 -81t-244.5 81t-97 220l204 24q14 -84 46 -121.5t91.5 -37.5z" />
    <glyph glyph-name="brevecy" horiz-adv-x="798" 
d="M399.5 1755q59.5 0 91 33t46.5 106l184 -24q-8 -139 -92 -220t-229.5 -81t-229.5 81t-92 220l184 24q14 -74 46 -106.5t91.5 -32.5z" />
    <glyph glyph-name="brevecy.case" horiz-adv-x="798" 
d="M399.5 1735q59.5 0 91 37.5t46.5 121.5l204 -24q-8 -139 -97 -220t-244.5 -81t-244.5 81t-98 220l205 24q14 -84 46 -121.5t91.5 -37.5z" />
    <glyph glyph-name=".ttfautohint" horiz-adv-x="798" 
 />
    </font>
</defs>
</svg>
