<?xml version="1.0" standalone="no"?>
<!DOCTYPE svg PUBLIC "-//W3C//DTD SVG 1.1//EN" "http://www.w3.org/Graphics/SVG/1.1/DTD/svg11.dtd" >
<svg xmlns="http://www.w3.org/2000/svg">
<metadata></metadata>
<defs>
<font id="score_boardregular" horiz-adv-x="1083" >
<font-face units-per-em="2048" ascent="1638" descent="-410" />
<missing-glyph horiz-adv-x="500" />
<glyph horiz-adv-x="2048" />
<glyph horiz-adv-x="2048" />
<glyph unicode="&#xd;" />
<glyph unicode=" " />
<glyph unicode="!" d="M463 93q17 54 60 79h37q60 -40 60 -93q-17 -54 -60 -79h-37q-60 40 -60 93zM463 516q17 55 60 79h37q60 -39 60 -92q-17 -55 -60 -80h-37q-60 40 -60 93zM463 728q17 54 60 79h37q60 -39 60 -92q-17 -55 -60 -80h-37q-60 40 -60 93zM463 940q17 54 60 79h37 q60 -40 60 -93q-17 -54 -60 -79h-37q-60 40 -60 93zM463 1151q17 55 60 80h37q60 -40 60 -93q-17 -55 -60 -79h-37q-60 39 -60 92zM463 1363q17 55 60 79h37q60 -39 60 -92q-17 -55 -60 -80h-37q-60 40 -60 93z" />
<glyph unicode="&#x22;" d="M281 1151q17 55 61 80h36q61 -40 61 -93q-17 -55 -61 -79h-36q-61 39 -61 92zM281 1363q17 55 61 79h36q61 -39 61 -92q-17 -55 -61 -80h-36q-61 40 -61 93zM644 1151q17 55 61 80h36q61 -40 61 -93q-17 -55 -61 -79h-36q-61 39 -61 92zM644 1363q17 55 61 79h36 q61 -39 61 -92q-17 -55 -61 -80h-36q-61 40 -61 93z" />
<glyph unicode="#" d="M100 516q17 55 60 79h37q60 -39 60 -92q-16 -55 -60 -80h-37q-60 40 -60 93zM100 940q17 54 60 79h37q60 -40 60 -93q-16 -54 -60 -79h-37q-60 40 -60 93zM281 93q17 54 61 79h36q61 -40 61 -93q-17 -54 -61 -79h-36q-61 40 -61 93zM281 304q17 55 61 80h36 q61 -40 61 -93q-17 -54 -61 -79h-36q-61 39 -61 92zM281 516q17 55 61 79h36q61 -39 61 -92q-17 -55 -61 -80h-36q-61 40 -61 93zM281 728q17 54 61 79h36q61 -39 61 -92q-17 -55 -61 -80h-36q-61 40 -61 93zM281 940q17 54 61 79h36q61 -40 61 -93q-17 -54 -61 -79h-36 q-61 40 -61 93zM281 1151q17 55 61 80h36q61 -40 61 -93q-17 -55 -61 -79h-36q-61 39 -61 92zM281 1363q17 55 61 79h36q61 -39 61 -92q-17 -55 -61 -80h-36q-61 40 -61 93zM463 516q17 55 60 79h37q60 -39 60 -92q-17 -55 -60 -80h-37q-60 40 -60 93zM463 940q17 54 60 79 h37q60 -40 60 -93q-17 -54 -60 -79h-37q-60 40 -60 93zM644 93q17 54 61 79h36q61 -40 61 -93q-17 -54 -61 -79h-36q-61 40 -61 93zM644 304q17 55 61 80h36q61 -40 61 -93q-17 -54 -61 -79h-36q-61 39 -61 92zM644 516q17 55 61 79h36q61 -39 61 -92q-17 -55 -61 -80h-36 q-61 40 -61 93zM644 728q17 54 61 79h36q61 -39 61 -92q-17 -55 -61 -80h-36q-61 40 -61 93zM644 940q17 54 61 79h36q61 -40 61 -93q-17 -54 -61 -79h-36q-61 40 -61 93zM644 1151q17 55 61 80h36q61 -40 61 -93q-17 -55 -61 -79h-36q-61 39 -61 92zM644 1363q17 55 61 79 h36q61 -39 61 -92q-17 -55 -61 -80h-36q-61 40 -61 93zM826 516q16 55 60 79h37q60 -39 60 -92q-17 -55 -60 -80h-37q-60 40 -60 93zM826 940q16 54 60 79h37q60 -40 60 -93q-17 -54 -60 -79h-37q-60 40 -60 93z" />
<glyph unicode="$" d="M100 304q17 55 60 80h37q60 -40 60 -93q-16 -54 -60 -79h-37q-60 39 -60 92zM100 940q17 54 60 79h37q60 -40 60 -93q-16 -54 -60 -79h-37q-60 40 -60 93zM281 304q17 55 61 80h36q61 -40 61 -93q-17 -54 -61 -79h-36q-61 39 -61 92zM281 728q17 54 61 79h36 q61 -39 61 -92q-17 -55 -61 -80h-36q-61 40 -61 93zM281 1151q17 55 61 80h36q61 -40 61 -93q-17 -55 -61 -79h-36q-61 39 -61 92zM463 93q17 54 60 79h37q60 -40 60 -93q-17 -54 -60 -79h-37q-60 40 -60 93zM463 304q17 55 60 80h37q60 -40 60 -93q-17 -54 -60 -79h-37 q-60 39 -60 92zM463 728q17 54 60 79h37q60 -39 60 -92q-17 -55 -60 -80h-37q-60 40 -60 93zM463 1151q17 55 60 80h37q60 -40 60 -93q-17 -55 -60 -79h-37q-60 39 -60 92zM463 1363q17 55 60 79h37q60 -39 60 -92q-17 -55 -60 -80h-37q-60 40 -60 93zM644 304q17 55 61 80 h36q61 -40 61 -93q-17 -54 -61 -79h-36q-61 39 -61 92zM644 728q17 54 61 79h36q61 -39 61 -92q-17 -55 -61 -80h-36q-61 40 -61 93zM644 1151q17 55 61 80h36q61 -40 61 -93q-17 -55 -61 -79h-36q-61 39 -61 92zM826 516q16 55 60 79h37q60 -39 60 -92q-17 -55 -60 -80h-37 q-60 40 -60 93zM826 1151q16 55 60 80h37q60 -40 60 -93q-17 -55 -60 -79h-37q-60 39 -60 92z" />
<glyph unicode="%" d="M100 304q17 55 60 80h37q60 -40 60 -93q-16 -54 -60 -79h-37q-60 39 -60 92zM100 1151q17 55 60 80h37q60 -40 60 -93q-16 -55 -60 -79h-37q-60 39 -60 92zM100 1363q17 55 60 79h37q60 -39 60 -92q-16 -55 -60 -80h-37q-60 40 -60 93zM281 516q17 55 61 79h36 q61 -39 61 -92q-17 -55 -61 -80h-36q-61 40 -61 93zM281 1151q17 55 61 80h36q61 -40 61 -93q-17 -55 -61 -79h-36q-61 39 -61 92zM281 1363q17 55 61 79h36q61 -39 61 -92q-17 -55 -61 -80h-36q-61 40 -61 93zM463 728q17 54 60 79h37q60 -39 60 -92q-17 -55 -60 -80h-37 q-60 40 -60 93zM644 93q17 54 61 79h36q61 -40 61 -93q-17 -54 -61 -79h-36q-61 40 -61 93zM644 304q17 55 61 80h36q61 -40 61 -93q-17 -54 -61 -79h-36q-61 39 -61 92zM644 940q17 54 61 79h36q61 -40 61 -93q-17 -54 -61 -79h-36q-61 40 -61 93zM826 93q16 54 60 79h37 q60 -40 60 -93q-17 -54 -60 -79h-37q-60 40 -60 93zM826 304q16 55 60 80h37q60 -40 60 -93q-17 -54 -60 -79h-37q-60 39 -60 92zM826 1151q16 55 60 80h37q60 -40 60 -93q-17 -55 -60 -79h-37q-60 39 -60 92z" />
<glyph unicode="&#x26;" d="M100 304q17 55 60 80h37q60 -40 60 -93q-16 -54 -60 -79h-37q-60 39 -60 92zM100 516q17 55 60 79h37q60 -39 60 -92q-16 -55 -60 -80h-37q-60 40 -60 93zM100 940q17 54 60 79h37q60 -40 60 -93q-16 -54 -60 -79h-37q-60 40 -60 93zM100 1151q17 55 60 80h37 q60 -40 60 -93q-16 -55 -60 -79h-37q-60 39 -60 92zM281 93q17 54 61 79h36q61 -40 61 -93q-17 -54 -61 -79h-36q-61 40 -61 93zM281 728q17 54 61 79h36q61 -39 61 -92q-17 -55 -61 -80h-36q-61 40 -61 93zM281 1363q17 55 61 79h36q61 -39 61 -92q-17 -55 -61 -80h-36 q-61 40 -61 93zM463 93q17 54 60 79h37q60 -40 60 -93q-17 -54 -60 -79h-37q-60 40 -60 93zM463 516q17 55 60 79h37q60 -39 60 -92q-17 -55 -60 -80h-37q-60 40 -60 93zM463 940q17 54 60 79h37q60 -40 60 -93q-17 -54 -60 -79h-37q-60 40 -60 93zM463 1151q17 55 60 80h37 q60 -40 60 -93q-17 -55 -60 -79h-37q-60 39 -60 92zM644 304q17 55 61 80h36q61 -40 61 -93q-17 -54 -61 -79h-36q-61 39 -61 92zM826 93q16 54 60 79h37q60 -40 60 -93q-17 -54 -60 -79h-37q-60 40 -60 93zM826 516q16 55 60 79h37q60 -39 60 -92q-17 -55 -60 -80h-37 q-60 40 -60 93z" />
<glyph unicode="'" d="M463 728q17 54 60 79h37q60 -39 60 -92q-17 -55 -60 -80h-37q-60 40 -60 93zM463 1151q17 55 60 80h37q60 -40 60 -93q-17 -55 -60 -79h-37q-60 39 -60 92zM463 1363q17 55 60 79h37q60 -39 60 -92q-17 -55 -60 -80h-37q-60 40 -60 93zM644 940q17 54 61 79h36 q61 -40 61 -93q-17 -54 -61 -79h-36q-61 40 -61 93zM644 1151q17 55 61 80h36q61 -40 61 -93q-17 -55 -61 -79h-36q-61 39 -61 92zM644 1363q17 55 61 79h36q61 -39 61 -92q-17 -55 -61 -80h-36q-61 40 -61 93z" />
<glyph unicode="(" d="M281 304q17 55 61 80h36q61 -40 61 -93q-17 -54 -61 -79h-36q-61 39 -61 92zM281 516q17 55 61 79h36q61 -39 61 -92q-17 -55 -61 -80h-36q-61 40 -61 93zM281 728q17 54 61 79h36q61 -39 61 -92q-17 -55 -61 -80h-36q-61 40 -61 93zM281 940q17 54 61 79h36 q61 -40 61 -93q-17 -54 -61 -79h-36q-61 40 -61 93zM281 1151q17 55 61 80h36q61 -40 61 -93q-17 -55 -61 -79h-36q-61 39 -61 92zM463 93q17 54 60 79h37q60 -40 60 -93q-17 -54 -60 -79h-37q-60 40 -60 93zM463 1363q17 55 60 79h37q60 -39 60 -92q-17 -55 -60 -80h-37 q-60 40 -60 93z" />
<glyph unicode=")" d="M463 93q17 54 60 79h37q60 -40 60 -93q-17 -54 -60 -79h-37q-60 40 -60 93zM463 1363q17 55 60 79h37q60 -39 60 -92q-17 -55 -60 -80h-37q-60 40 -60 93zM644 304q17 55 61 80h36q61 -40 61 -93q-17 -54 -61 -79h-36q-61 39 -61 92zM644 516q17 55 61 79h36 q61 -39 61 -92q-17 -55 -61 -80h-36q-61 40 -61 93zM644 728q17 54 61 79h36q61 -39 61 -92q-17 -55 -61 -80h-36q-61 40 -61 93zM644 940q17 54 61 79h36q61 -40 61 -93q-17 -54 -61 -79h-36q-61 40 -61 93zM644 1151q17 55 61 80h36q61 -40 61 -93q-17 -55 -61 -79h-36 q-61 39 -61 92z" />
<glyph unicode="*" d="M281 940q17 54 61 79h36q61 -40 61 -93q-17 -54 -61 -79h-36q-61 40 -61 93zM281 1363q17 55 61 79h36q61 -39 61 -92q-17 -55 -61 -80h-36q-61 40 -61 93zM463 1151q17 55 60 80h37q60 -40 60 -93q-17 -55 -60 -79h-37q-60 39 -60 92zM644 940q17 54 61 79h36 q61 -40 61 -93q-17 -54 -61 -79h-36q-61 40 -61 93zM644 1363q17 55 61 79h36q61 -39 61 -92q-17 -55 -61 -80h-36q-61 40 -61 93z" />
<glyph unicode="+" d="M100 728q17 54 60 79h37q60 -39 60 -92q-16 -55 -60 -80h-37q-60 40 -60 93zM281 728q17 54 61 79h36q61 -39 61 -92q-17 -55 -61 -80h-36q-61 40 -61 93zM463 304q17 55 60 80h37q60 -40 60 -93q-17 -54 -60 -79h-37q-60 39 -60 92zM463 516q17 55 60 79h37 q60 -39 60 -92q-17 -55 -60 -80h-37q-60 40 -60 93zM463 728q17 54 60 79h37q60 -39 60 -92q-17 -55 -60 -80h-37q-60 40 -60 93zM463 940q17 54 60 79h37q60 -40 60 -93q-17 -54 -60 -79h-37q-60 40 -60 93zM463 1151q17 55 60 80h37q60 -40 60 -93q-17 -55 -60 -79h-37 q-60 39 -60 92zM644 728q17 54 61 79h36q61 -39 61 -92q-17 -55 -61 -80h-36q-61 40 -61 93zM826 728q16 54 60 79h37q60 -39 60 -92q-17 -55 -60 -80h-37q-60 40 -60 93z" />
<glyph unicode="," d="M463 93q17 54 60 79h37q60 -40 60 -93q-17 -54 -60 -79h-37q-60 40 -60 93zM463 516q17 55 60 79h37q60 -39 60 -92q-17 -55 -60 -80h-37q-60 40 -60 93zM463 728q17 54 60 79h37q60 -39 60 -92q-17 -55 -60 -80h-37q-60 40 -60 93zM644 304q17 55 61 80h36 q61 -40 61 -93q-17 -54 -61 -79h-36q-61 39 -61 92zM644 516q17 55 61 79h36q61 -39 61 -92q-17 -55 -61 -80h-36q-61 40 -61 93zM644 728q17 54 61 79h36q61 -39 61 -92q-17 -55 -61 -80h-36q-61 40 -61 93z" />
<glyph unicode="-" d="M281 728q17 54 61 79h36q61 -39 61 -92q-17 -55 -61 -80h-36q-61 40 -61 93zM463 728q17 54 60 79h37q60 -39 60 -92q-17 -55 -60 -80h-37q-60 40 -60 93zM644 728q17 54 61 79h36q61 -39 61 -92q-17 -55 -61 -80h-36q-61 40 -61 93z" />
<glyph unicode="." d="M463 93q17 54 60 79h37q60 -40 60 -93q-17 -54 -60 -79h-37q-60 40 -60 93zM463 304q17 55 60 80h37q60 -40 60 -93q-17 -54 -60 -79h-37q-60 39 -60 92zM644 93q17 54 61 79h36q61 -40 61 -93q-17 -54 -61 -79h-36q-61 40 -61 93zM644 304q17 55 61 80h36q61 -40 61 -93 q-17 -54 -61 -79h-36q-61 39 -61 92z" />
<glyph unicode="/" d="M100 304q17 55 60 80h37q60 -40 60 -93q-16 -54 -60 -79h-37q-60 39 -60 92zM281 516q17 55 61 79h36q61 -39 61 -92q-17 -55 -61 -80h-36q-61 40 -61 93zM463 728q17 54 60 79h37q60 -39 60 -92q-17 -55 -60 -80h-37q-60 40 -60 93zM644 940q17 54 61 79h36 q61 -40 61 -93q-17 -54 -61 -79h-36q-61 40 -61 93zM826 1151q16 55 60 80h37q60 -40 60 -93q-17 -55 -60 -79h-37q-60 39 -60 92z" />
<glyph unicode="0" d="M100 304q17 55 60 80h37q60 -40 60 -93q-16 -54 -60 -79h-37q-60 39 -60 92zM100 516q17 55 60 79h37q60 -39 60 -92q-16 -55 -60 -80h-37q-60 40 -60 93zM100 728q17 54 60 79h37q60 -39 60 -92q-16 -55 -60 -80h-37q-60 40 -60 93zM100 940q17 54 60 79h37 q60 -40 60 -93q-16 -54 -60 -79h-37q-60 40 -60 93zM100 1151q17 55 60 80h37q60 -40 60 -93q-16 -55 -60 -79h-37q-60 39 -60 92zM281 93q17 54 61 79h36q61 -40 61 -93q-17 -54 -61 -79h-36q-61 40 -61 93zM281 1363q17 55 61 79h36q61 -39 61 -92q-17 -55 -61 -80h-36 q-61 40 -61 93zM463 93q17 54 60 79h37q60 -40 60 -93q-17 -54 -60 -79h-37q-60 40 -60 93zM463 1363q17 55 60 79h37q60 -39 60 -92q-17 -55 -60 -80h-37q-60 40 -60 93zM644 93q17 54 61 79h36q61 -40 61 -93q-17 -54 -61 -79h-36q-61 40 -61 93zM644 1363q17 55 61 79h36 q61 -39 61 -92q-17 -55 -61 -80h-36q-61 40 -61 93zM826 304q16 55 60 80h37q60 -40 60 -93q-17 -54 -60 -79h-37q-60 39 -60 92zM826 516q16 55 60 79h37q60 -39 60 -92q-17 -55 -60 -80h-37q-60 40 -60 93zM826 728q16 54 60 79h37q60 -39 60 -92q-17 -55 -60 -80h-37 q-60 40 -60 93zM826 940q16 54 60 79h37q60 -40 60 -93q-17 -54 -60 -79h-37q-60 40 -60 93zM826 1151q16 55 60 80h37q60 -40 60 -93q-17 -55 -60 -79h-37q-60 39 -60 92z" />
<glyph unicode="1" d="M463 93q17 54 60 79h37q60 -40 60 -93q-17 -54 -60 -79h-37q-60 40 -60 93zM463 304q17 55 60 80h37q60 -40 60 -93q-17 -54 -60 -79h-37q-60 39 -60 92zM463 516q17 55 60 79h37q60 -39 60 -92q-17 -55 -60 -80h-37q-60 40 -60 93zM463 728q17 54 60 79h37 q60 -39 60 -92q-17 -55 -60 -80h-37q-60 40 -60 93zM463 940q17 54 60 79h37q60 -40 60 -93q-17 -54 -60 -79h-37q-60 40 -60 93zM463 1151q17 55 60 80h37q60 -40 60 -93q-17 -55 -60 -79h-37q-60 39 -60 92zM463 1363q17 55 60 79h37q60 -39 60 -92q-17 -55 -60 -80h-37 q-60 40 -60 93z" />
<glyph unicode="2" d="M100 93q17 54 60 79h37q60 -40 60 -93q-16 -54 -60 -79h-37q-60 40 -60 93zM100 304q17 55 60 80h37q60 -40 60 -93q-16 -54 -60 -79h-37q-60 39 -60 92zM100 516q17 55 60 79h37q60 -39 60 -92q-16 -55 -60 -80h-37q-60 40 -60 93zM100 1363q17 55 60 79h37 q60 -39 60 -92q-16 -55 -60 -80h-37q-60 40 -60 93zM281 93q17 54 61 79h36q61 -40 61 -93q-17 -54 -61 -79h-36q-61 40 -61 93zM281 728q17 54 61 79h36q61 -39 61 -92q-17 -55 -61 -80h-36q-61 40 -61 93zM281 1363q17 55 61 79h36q61 -39 61 -92q-17 -55 -61 -80h-36 q-61 40 -61 93zM463 93q17 54 60 79h37q60 -40 60 -93q-17 -54 -60 -79h-37q-60 40 -60 93zM463 728q17 54 60 79h37q60 -39 60 -92q-17 -55 -60 -80h-37q-60 40 -60 93zM463 1363q17 55 60 79h37q60 -39 60 -92q-17 -55 -60 -80h-37q-60 40 -60 93zM644 93q17 54 61 79h36 q61 -40 61 -93q-17 -54 -61 -79h-36q-61 40 -61 93zM644 728q17 54 61 79h36q61 -39 61 -92q-17 -55 -61 -80h-36q-61 40 -61 93zM644 1363q17 55 61 79h36q61 -39 61 -92q-17 -55 -61 -80h-36q-61 40 -61 93zM826 93q16 54 60 79h37q60 -40 60 -93q-17 -54 -60 -79h-37 q-60 40 -60 93zM826 940q16 54 60 79h37q60 -40 60 -93q-17 -54 -60 -79h-37q-60 40 -60 93zM826 1151q16 55 60 80h37q60 -40 60 -93q-17 -55 -60 -79h-37q-60 39 -60 92z" />
<glyph unicode="3" d="M100 93q17 54 60 79h37q60 -40 60 -93q-16 -54 -60 -79h-37q-60 40 -60 93zM100 728q17 54 60 79h37q60 -39 60 -92q-16 -55 -60 -80h-37q-60 40 -60 93zM100 1363q17 55 60 79h37q60 -39 60 -92q-16 -55 -60 -80h-37q-60 40 -60 93zM281 93q17 54 61 79h36 q61 -40 61 -93q-17 -54 -61 -79h-36q-61 40 -61 93zM281 728q17 54 61 79h36q61 -39 61 -92q-17 -55 -61 -80h-36q-61 40 -61 93zM281 1363q17 55 61 79h36q61 -39 61 -92q-17 -55 -61 -80h-36q-61 40 -61 93zM463 93q17 54 60 79h37q60 -40 60 -93q-17 -54 -60 -79h-37 q-60 40 -60 93zM463 728q17 54 60 79h37q60 -39 60 -92q-17 -55 -60 -80h-37q-60 40 -60 93zM463 1363q17 55 60 79h37q60 -39 60 -92q-17 -55 -60 -80h-37q-60 40 -60 93zM644 93q17 54 61 79h36q61 -40 61 -93q-17 -54 -61 -79h-36q-61 40 -61 93zM644 728q17 54 61 79h36 q61 -39 61 -92q-17 -55 -61 -80h-36q-61 40 -61 93zM644 1363q17 55 61 79h36q61 -39 61 -92q-17 -55 -61 -80h-36q-61 40 -61 93zM826 304q16 55 60 80h37q60 -40 60 -93q-17 -54 -60 -79h-37q-60 39 -60 92zM826 516q16 55 60 79h37q60 -39 60 -92q-17 -55 -60 -80h-37 q-60 40 -60 93zM826 940q16 54 60 79h37q60 -40 60 -93q-17 -54 -60 -79h-37q-60 40 -60 93zM826 1151q16 55 60 80h37q60 -40 60 -93q-17 -55 -60 -79h-37q-60 39 -60 92z" />
<glyph unicode="4" d="M100 728q17 54 60 79h37q60 -39 60 -92q-16 -55 -60 -80h-37q-60 40 -60 93zM100 940q17 54 60 79h37q60 -40 60 -93q-16 -54 -60 -79h-37q-60 40 -60 93zM100 1151q17 55 60 80h37q60 -40 60 -93q-16 -55 -60 -79h-37q-60 39 -60 92zM100 1363q17 55 60 79h37 q60 -39 60 -92q-16 -55 -60 -80h-37q-60 40 -60 93zM281 728q17 54 61 79h36q61 -39 61 -92q-17 -55 -61 -80h-36q-61 40 -61 93zM463 728q17 54 60 79h37q60 -39 60 -92q-17 -55 -60 -80h-37q-60 40 -60 93zM644 728q17 54 61 79h36q61 -39 61 -92q-17 -55 -61 -80h-36 q-61 40 -61 93zM826 93q16 54 60 79h37q60 -40 60 -93q-17 -54 -60 -79h-37q-60 40 -60 93zM826 304q16 55 60 80h37q60 -40 60 -93q-17 -54 -60 -79h-37q-60 39 -60 92zM826 516q16 55 60 79h37q60 -39 60 -92q-17 -55 -60 -80h-37q-60 40 -60 93zM826 728q16 54 60 79h37 q60 -39 60 -92q-17 -55 -60 -80h-37q-60 40 -60 93zM826 940q16 54 60 79h37q60 -40 60 -93q-17 -54 -60 -79h-37q-60 40 -60 93zM826 1151q16 55 60 80h37q60 -40 60 -93q-17 -55 -60 -79h-37q-60 39 -60 92zM826 1363q16 55 60 79h37q60 -39 60 -92q-17 -55 -60 -80h-37 q-60 40 -60 93z" />
<glyph unicode="5" d="M100 93q17 54 60 79h37q60 -40 60 -93q-16 -54 -60 -79h-37q-60 40 -60 93zM100 728q17 54 60 79h37q60 -39 60 -92q-16 -55 -60 -80h-37q-60 40 -60 93zM100 940q17 54 60 79h37q60 -40 60 -93q-16 -54 -60 -79h-37q-60 40 -60 93zM100 1151q17 55 60 80h37 q60 -40 60 -93q-16 -55 -60 -79h-37q-60 39 -60 92zM100 1363q17 55 60 79h37q60 -39 60 -92q-16 -55 -60 -80h-37q-60 40 -60 93zM281 93q17 54 61 79h36q61 -40 61 -93q-17 -54 -61 -79h-36q-61 40 -61 93zM281 728q17 54 61 79h36q61 -39 61 -92q-17 -55 -61 -80h-36 q-61 40 -61 93zM281 1363q17 55 61 79h36q61 -39 61 -92q-17 -55 -61 -80h-36q-61 40 -61 93zM463 93q17 54 60 79h37q60 -40 60 -93q-17 -54 -60 -79h-37q-60 40 -60 93zM463 728q17 54 60 79h37q60 -39 60 -92q-17 -55 -60 -80h-37q-60 40 -60 93zM463 1363q17 55 60 79 h37q60 -39 60 -92q-17 -55 -60 -80h-37q-60 40 -60 93zM644 93q17 54 61 79h36q61 -40 61 -93q-17 -54 -61 -79h-36q-61 40 -61 93zM644 728q17 54 61 79h36q61 -39 61 -92q-17 -55 -61 -80h-36q-61 40 -61 93zM644 1363q17 55 61 79h36q61 -39 61 -92q-17 -55 -61 -80h-36 q-61 40 -61 93zM826 304q16 55 60 80h37q60 -40 60 -93q-17 -54 -60 -79h-37q-60 39 -60 92zM826 516q16 55 60 79h37q60 -39 60 -92q-17 -55 -60 -80h-37q-60 40 -60 93zM826 1363q16 55 60 79h37q60 -39 60 -92q-17 -55 -60 -80h-37q-60 40 -60 93z" />
<glyph unicode="6" d="M100 304q17 55 60 80h37q60 -40 60 -93q-16 -54 -60 -79h-37q-60 39 -60 92zM100 516q17 55 60 79h37q60 -39 60 -92q-16 -55 -60 -80h-37q-60 40 -60 93zM100 728q17 54 60 79h37q60 -39 60 -92q-16 -55 -60 -80h-37q-60 40 -60 93zM100 940q17 54 60 79h37 q60 -40 60 -93q-16 -54 -60 -79h-37q-60 40 -60 93zM100 1151q17 55 60 80h37q60 -40 60 -93q-16 -55 -60 -79h-37q-60 39 -60 92zM281 93q17 54 61 79h36q61 -40 61 -93q-17 -54 -61 -79h-36q-61 40 -61 93zM281 728q17 54 61 79h36q61 -39 61 -92q-17 -55 -61 -80h-36 q-61 40 -61 93zM281 1363q17 55 61 79h36q61 -39 61 -92q-17 -55 -61 -80h-36q-61 40 -61 93zM463 93q17 54 60 79h37q60 -40 60 -93q-17 -54 -60 -79h-37q-60 40 -60 93zM463 728q17 54 60 79h37q60 -39 60 -92q-17 -55 -60 -80h-37q-60 40 -60 93zM463 1363q17 55 60 79 h37q60 -39 60 -92q-17 -55 -60 -80h-37q-60 40 -60 93zM644 93q17 54 61 79h36q61 -40 61 -93q-17 -54 -61 -79h-36q-61 40 -61 93zM644 728q17 54 61 79h36q61 -39 61 -92q-17 -55 -61 -80h-36q-61 40 -61 93zM644 1363q17 55 61 79h36q61 -39 61 -92q-17 -55 -61 -80h-36 q-61 40 -61 93zM826 304q16 55 60 80h37q60 -40 60 -93q-17 -54 -60 -79h-37q-60 39 -60 92zM826 516q16 55 60 79h37q60 -39 60 -92q-17 -55 -60 -80h-37q-60 40 -60 93zM826 1363q16 55 60 79h37q60 -39 60 -92q-17 -55 -60 -80h-37q-60 40 -60 93z" />
<glyph unicode="7" d="M100 93q17 54 60 79h37q60 -40 60 -93q-16 -54 -60 -79h-37q-60 40 -60 93zM100 1363q17 55 60 79h37q60 -39 60 -92q-16 -55 -60 -80h-37q-60 40 -60 93zM281 304q17 55 61 80h36q61 -40 61 -93q-17 -54 -61 -79h-36q-61 39 -61 92zM281 1363q17 55 61 79h36 q61 -39 61 -92q-17 -55 -61 -80h-36q-61 40 -61 93zM463 516q17 55 60 79h37q60 -39 60 -92q-17 -55 -60 -80h-37q-60 40 -60 93zM463 1363q17 55 60 79h37q60 -39 60 -92q-17 -55 -60 -80h-37q-60 40 -60 93zM644 728q17 54 61 79h36q61 -39 61 -92q-17 -55 -61 -80h-36 q-61 40 -61 93zM644 1363q17 55 61 79h36q61 -39 61 -92q-17 -55 -61 -80h-36q-61 40 -61 93zM826 940q16 54 60 79h37q60 -40 60 -93q-17 -54 -60 -79h-37q-60 40 -60 93zM826 1151q16 55 60 80h37q60 -40 60 -93q-17 -55 -60 -79h-37q-60 39 -60 92zM826 1363q16 55 60 79 h37q60 -39 60 -92q-17 -55 -60 -80h-37q-60 40 -60 93z" />
<glyph unicode="8" d="M100 304q17 55 60 80h37q60 -40 60 -93q-16 -54 -60 -79h-37q-60 39 -60 92zM100 516q17 55 60 79h37q60 -39 60 -92q-16 -55 -60 -80h-37q-60 40 -60 93zM100 940q17 54 60 79h37q60 -40 60 -93q-16 -54 -60 -79h-37q-60 40 -60 93zM100 1151q17 55 60 80h37 q60 -40 60 -93q-16 -55 -60 -79h-37q-60 39 -60 92zM281 93q17 54 61 79h36q61 -40 61 -93q-17 -54 -61 -79h-36q-61 40 -61 93zM281 728q17 54 61 79h36q61 -39 61 -92q-17 -55 -61 -80h-36q-61 40 -61 93zM281 1363q17 55 61 79h36q61 -39 61 -92q-17 -55 -61 -80h-36 q-61 40 -61 93zM463 93q17 54 60 79h37q60 -40 60 -93q-17 -54 -60 -79h-37q-60 40 -60 93zM463 728q17 54 60 79h37q60 -39 60 -92q-17 -55 -60 -80h-37q-60 40 -60 93zM463 1363q17 55 60 79h37q60 -39 60 -92q-17 -55 -60 -80h-37q-60 40 -60 93zM644 93q17 54 61 79h36 q61 -40 61 -93q-17 -54 -61 -79h-36q-61 40 -61 93zM644 728q17 54 61 79h36q61 -39 61 -92q-17 -55 -61 -80h-36q-61 40 -61 93zM644 1363q17 55 61 79h36q61 -39 61 -92q-17 -55 -61 -80h-36q-61 40 -61 93zM826 304q16 55 60 80h37q60 -40 60 -93q-17 -54 -60 -79h-37 q-60 39 -60 92zM826 516q16 55 60 79h37q60 -39 60 -92q-17 -55 -60 -80h-37q-60 40 -60 93zM826 940q16 54 60 79h37q60 -40 60 -93q-17 -54 -60 -79h-37q-60 40 -60 93zM826 1151q16 55 60 80h37q60 -40 60 -93q-17 -55 -60 -79h-37q-60 39 -60 92z" />
<glyph unicode="9" d="M100 93q17 54 60 79h37q60 -40 60 -93q-16 -54 -60 -79h-37q-60 40 -60 93zM100 940q17 54 60 79h37q60 -40 60 -93q-16 -54 -60 -79h-37q-60 40 -60 93zM100 1151q17 55 60 80h37q60 -40 60 -93q-16 -55 -60 -79h-37q-60 39 -60 92zM281 93q17 54 61 79h36 q61 -40 61 -93q-17 -54 -61 -79h-36q-61 40 -61 93zM281 728q17 54 61 79h36q61 -39 61 -92q-17 -55 -61 -80h-36q-61 40 -61 93zM281 1363q17 55 61 79h36q61 -39 61 -92q-17 -55 -61 -80h-36q-61 40 -61 93zM463 93q17 54 60 79h37q60 -40 60 -93q-17 -54 -60 -79h-37 q-60 40 -60 93zM463 728q17 54 60 79h37q60 -39 60 -92q-17 -55 -60 -80h-37q-60 40 -60 93zM463 1363q17 55 60 79h37q60 -39 60 -92q-17 -55 -60 -80h-37q-60 40 -60 93zM644 93q17 54 61 79h36q61 -40 61 -93q-17 -54 -61 -79h-36q-61 40 -61 93zM644 728q17 54 61 79h36 q61 -39 61 -92q-17 -55 -61 -80h-36q-61 40 -61 93zM644 1363q17 55 61 79h36q61 -39 61 -92q-17 -55 -61 -80h-36q-61 40 -61 93zM826 304q16 55 60 80h37q60 -40 60 -93q-17 -54 -60 -79h-37q-60 39 -60 92zM826 516q16 55 60 79h37q60 -39 60 -92q-17 -55 -60 -80h-37 q-60 40 -60 93zM826 728q16 54 60 79h37q60 -39 60 -92q-17 -55 -60 -80h-37q-60 40 -60 93zM826 940q16 54 60 79h37q60 -40 60 -93q-17 -54 -60 -79h-37q-60 40 -60 93zM826 1151q16 55 60 80h37q60 -40 60 -93q-17 -55 -60 -79h-37q-60 39 -60 92z" />
<glyph unicode=":" d="M463 516q17 55 60 79h37q60 -39 60 -92q-17 -55 -60 -80h-37q-60 40 -60 93zM463 940q17 54 60 79h37q60 -40 60 -93q-17 -54 -60 -79h-37q-60 40 -60 93z" />
<glyph unicode=";" d="M281 304q17 55 61 80h36q61 -40 61 -93q-17 -54 -61 -79h-36q-61 39 -61 92zM463 516q17 55 60 79h37q60 -39 60 -92q-17 -55 -60 -80h-37q-60 40 -60 93zM463 940q17 54 60 79h37q60 -40 60 -93q-17 -54 -60 -79h-37q-60 40 -60 93z" />
<glyph unicode="&#x3c;" d="M281 728q17 54 61 79h36q61 -39 61 -92q-17 -55 -61 -80h-36q-61 40 -61 93zM463 516q17 55 60 79h37q60 -39 60 -92q-17 -55 -60 -80h-37q-60 40 -60 93zM463 940q17 54 60 79h37q60 -40 60 -93q-17 -54 -60 -79h-37q-60 40 -60 93zM644 304q17 55 61 80h36 q61 -40 61 -93q-17 -54 -61 -79h-36q-61 39 -61 92zM644 1151q17 55 61 80h36q61 -40 61 -93q-17 -55 -61 -79h-36q-61 39 -61 92z" />
<glyph unicode="=" d="M100 516q17 55 60 79h37q60 -39 60 -92q-16 -55 -60 -80h-37q-60 40 -60 93zM100 940q17 54 60 79h37q60 -40 60 -93q-16 -54 -60 -79h-37q-60 40 -60 93zM281 516q17 55 61 79h36q61 -39 61 -92q-17 -55 -61 -80h-36q-61 40 -61 93zM281 940q17 54 61 79h36 q61 -40 61 -93q-17 -54 -61 -79h-36q-61 40 -61 93zM463 516q17 55 60 79h37q60 -39 60 -92q-17 -55 -60 -80h-37q-60 40 -60 93zM463 940q17 54 60 79h37q60 -40 60 -93q-17 -54 -60 -79h-37q-60 40 -60 93zM644 516q17 55 61 79h36q61 -39 61 -92q-17 -55 -61 -80h-36 q-61 40 -61 93zM644 940q17 54 61 79h36q61 -40 61 -93q-17 -54 -61 -79h-36q-61 40 -61 93zM826 516q16 55 60 79h37q60 -39 60 -92q-17 -55 -60 -80h-37q-60 40 -60 93zM826 940q16 54 60 79h37q60 -40 60 -93q-17 -54 -60 -79h-37q-60 40 -60 93z" />
<glyph unicode="&#x3e;" d="M281 304q17 55 61 80h36q61 -40 61 -93q-17 -54 -61 -79h-36q-61 39 -61 92zM281 1151q17 55 61 80h36q61 -40 61 -93q-17 -55 -61 -79h-36q-61 39 -61 92zM463 516q17 55 60 79h37q60 -39 60 -92q-17 -55 -60 -80h-37q-60 40 -60 93zM463 940q17 54 60 79h37 q60 -40 60 -93q-17 -54 -60 -79h-37q-60 40 -60 93zM644 728q17 54 61 79h36q61 -39 61 -92q-17 -55 -61 -80h-36q-61 40 -61 93z" />
<glyph unicode="?" d="M100 1151q17 55 60 80h37q60 -40 60 -93q-16 -55 -60 -79h-37q-60 39 -60 92zM281 1363q17 55 61 79h36q61 -39 61 -92q-17 -55 -61 -80h-36q-61 40 -61 93zM463 93q17 54 60 79h37q60 -40 60 -93q-17 -54 -60 -79h-37q-60 40 -60 93zM463 516q17 55 60 79h37 q60 -39 60 -92q-17 -55 -60 -80h-37q-60 40 -60 93zM463 1363q17 55 60 79h37q60 -39 60 -92q-17 -55 -60 -80h-37q-60 40 -60 93zM644 728q17 54 61 79h36q61 -39 61 -92q-17 -55 -61 -80h-36q-61 40 -61 93zM644 1363q17 55 61 79h36q61 -39 61 -92q-17 -55 -61 -80h-36 q-61 40 -61 93zM826 940q16 54 60 79h37q60 -40 60 -93q-17 -54 -60 -79h-37q-60 40 -60 93zM826 1151q16 55 60 80h37q60 -40 60 -93q-17 -55 -60 -79h-37q-60 39 -60 92z" />
<glyph unicode="@" d="M100 304q17 55 60 80h37q60 -40 60 -93q-16 -54 -60 -79h-37q-60 39 -60 92zM100 516q17 55 60 79h37q60 -39 60 -92q-16 -55 -60 -80h-37q-60 40 -60 93zM100 728q17 54 60 79h37q60 -39 60 -92q-16 -55 -60 -80h-37q-60 40 -60 93zM100 940q17 54 60 79h37 q60 -40 60 -93q-16 -54 -60 -79h-37q-60 40 -60 93zM100 1151q17 55 60 80h37q60 -40 60 -93q-16 -55 -60 -79h-37q-60 39 -60 92zM281 93q17 54 61 79h36q61 -40 61 -93q-17 -54 -61 -79h-36q-61 40 -61 93zM281 1363q17 55 61 79h36q61 -39 61 -92q-17 -55 -61 -80h-36 q-61 40 -61 93zM463 93q17 54 60 79h37q60 -40 60 -93q-17 -54 -60 -79h-37q-60 40 -60 93zM463 728q17 54 60 79h37q60 -39 60 -92q-17 -55 -60 -80h-37q-60 40 -60 93zM463 1363q17 55 60 79h37q60 -39 60 -92q-17 -55 -60 -80h-37q-60 40 -60 93zM644 93q17 54 61 79h36 q61 -40 61 -93q-17 -54 -61 -79h-36q-61 40 -61 93zM644 516q17 55 61 79h36q61 -39 61 -92q-17 -55 -61 -80h-36q-61 40 -61 93zM644 940q17 54 61 79h36q61 -40 61 -93q-17 -54 -61 -79h-36q-61 40 -61 93zM644 1363q17 55 61 79h36q61 -39 61 -92q-17 -55 -61 -80h-36 q-61 40 -61 93zM826 93q16 54 60 79h37q60 -40 60 -93q-17 -54 -60 -79h-37q-60 40 -60 93zM826 516q16 55 60 79h37q60 -39 60 -92q-17 -55 -60 -80h-37q-60 40 -60 93zM826 728q16 54 60 79h37q60 -39 60 -92q-17 -55 -60 -80h-37q-60 40 -60 93zM826 940q16 54 60 79h37 q60 -40 60 -93q-17 -54 -60 -79h-37q-60 40 -60 93zM826 1151q16 55 60 80h37q60 -40 60 -93q-17 -55 -60 -79h-37q-60 39 -60 92z" />
<glyph unicode="A" d="M100 93q17 54 60 79h37q60 -40 60 -93q-16 -54 -60 -79h-37q-60 40 -60 93zM100 304q17 55 60 80h37q60 -40 60 -93q-16 -54 -60 -79h-37q-60 39 -60 92zM100 516q17 55 60 79h37q60 -39 60 -92q-16 -55 -60 -80h-37q-60 40 -60 93zM100 728q17 54 60 79h37 q60 -39 60 -92q-16 -55 -60 -80h-37q-60 40 -60 93zM100 940q17 54 60 79h37q60 -40 60 -93q-16 -54 -60 -79h-37q-60 40 -60 93zM100 1151q17 55 60 80h37q60 -40 60 -93q-16 -55 -60 -79h-37q-60 39 -60 92zM281 728q17 54 61 79h36q61 -39 61 -92q-17 -55 -61 -80h-36 q-61 40 -61 93zM281 1363q17 55 61 79h36q61 -39 61 -92q-17 -55 -61 -80h-36q-61 40 -61 93zM463 728q17 54 60 79h37q60 -39 60 -92q-17 -55 -60 -80h-37q-60 40 -60 93zM463 1363q17 55 60 79h37q60 -39 60 -92q-17 -55 -60 -80h-37q-60 40 -60 93zM644 728q17 54 61 79 h36q61 -39 61 -92q-17 -55 -61 -80h-36q-61 40 -61 93zM644 1363q17 55 61 79h36q61 -39 61 -92q-17 -55 -61 -80h-36q-61 40 -61 93zM826 93q16 54 60 79h37q60 -40 60 -93q-17 -54 -60 -79h-37q-60 40 -60 93zM826 304q16 55 60 80h37q60 -40 60 -93q-17 -54 -60 -79h-37 q-60 39 -60 92zM826 516q16 55 60 79h37q60 -39 60 -92q-17 -55 -60 -80h-37q-60 40 -60 93zM826 728q16 54 60 79h37q60 -39 60 -92q-17 -55 -60 -80h-37q-60 40 -60 93zM826 940q16 54 60 79h37q60 -40 60 -93q-17 -54 -60 -79h-37q-60 40 -60 93zM826 1151q16 55 60 80 h37q60 -40 60 -93q-17 -55 -60 -79h-37q-60 39 -60 92z" />
<glyph unicode="B" d="M100 93q17 54 60 79h37q60 -40 60 -93q-16 -54 -60 -79h-37q-60 40 -60 93zM100 304q17 55 60 80h37q60 -40 60 -93q-16 -54 -60 -79h-37q-60 39 -60 92zM100 516q17 55 60 79h37q60 -39 60 -92q-16 -55 -60 -80h-37q-60 40 -60 93zM100 728q17 54 60 79h37 q60 -39 60 -92q-16 -55 -60 -80h-37q-60 40 -60 93zM100 940q17 54 60 79h37q60 -40 60 -93q-16 -54 -60 -79h-37q-60 40 -60 93zM100 1151q17 55 60 80h37q60 -40 60 -93q-16 -55 -60 -79h-37q-60 39 -60 92zM100 1363q17 55 60 79h37q60 -39 60 -92q-16 -55 -60 -80h-37 q-60 40 -60 93zM281 93q17 54 61 79h36q61 -40 61 -93q-17 -54 -61 -79h-36q-61 40 -61 93zM281 728q17 54 61 79h36q61 -39 61 -92q-17 -55 -61 -80h-36q-61 40 -61 93zM281 1363q17 55 61 79h36q61 -39 61 -92q-17 -55 -61 -80h-36q-61 40 -61 93zM463 93q17 54 60 79h37 q60 -40 60 -93q-17 -54 -60 -79h-37q-60 40 -60 93zM463 728q17 54 60 79h37q60 -39 60 -92q-17 -55 -60 -80h-37q-60 40 -60 93zM463 1363q17 55 60 79h37q60 -39 60 -92q-17 -55 -60 -80h-37q-60 40 -60 93zM644 93q17 54 61 79h36q61 -40 61 -93q-17 -54 -61 -79h-36 q-61 40 -61 93zM644 728q17 54 61 79h36q61 -39 61 -92q-17 -55 -61 -80h-36q-61 40 -61 93zM644 1363q17 55 61 79h36q61 -39 61 -92q-17 -55 -61 -80h-36q-61 40 -61 93zM826 304q16 55 60 80h37q60 -40 60 -93q-17 -54 -60 -79h-37q-60 39 -60 92zM826 516q16 55 60 79 h37q60 -39 60 -92q-17 -55 -60 -80h-37q-60 40 -60 93zM826 940q16 54 60 79h37q60 -40 60 -93q-17 -54 -60 -79h-37q-60 40 -60 93zM826 1151q16 55 60 80h37q60 -40 60 -93q-17 -55 -60 -79h-37q-60 39 -60 92z" />
<glyph unicode="C" d="M100 304q17 55 60 80h37q60 -40 60 -93q-16 -54 -60 -79h-37q-60 39 -60 92zM100 516q17 55 60 79h37q60 -39 60 -92q-16 -55 -60 -80h-37q-60 40 -60 93zM100 728q17 54 60 79h37q60 -39 60 -92q-16 -55 -60 -80h-37q-60 40 -60 93zM100 940q17 54 60 79h37 q60 -40 60 -93q-16 -54 -60 -79h-37q-60 40 -60 93zM100 1151q17 55 60 80h37q60 -40 60 -93q-16 -55 -60 -79h-37q-60 39 -60 92zM281 93q17 54 61 79h36q61 -40 61 -93q-17 -54 -61 -79h-36q-61 40 -61 93zM281 1363q17 55 61 79h36q61 -39 61 -92q-17 -55 -61 -80h-36 q-61 40 -61 93zM463 93q17 54 60 79h37q60 -40 60 -93q-17 -54 -60 -79h-37q-60 40 -60 93zM463 1363q17 55 60 79h37q60 -39 60 -92q-17 -55 -60 -80h-37q-60 40 -60 93zM644 93q17 54 61 79h36q61 -40 61 -93q-17 -54 -61 -79h-36q-61 40 -61 93zM644 1363q17 55 61 79h36 q61 -39 61 -92q-17 -55 -61 -80h-36q-61 40 -61 93zM826 304q16 55 60 80h37q60 -40 60 -93q-17 -54 -60 -79h-37q-60 39 -60 92zM826 1151q16 55 60 80h37q60 -40 60 -93q-17 -55 -60 -79h-37q-60 39 -60 92z" />
<glyph unicode="D" d="M100 93q17 54 60 79h37q60 -40 60 -93q-16 -54 -60 -79h-37q-60 40 -60 93zM100 304q17 55 60 80h37q60 -40 60 -93q-16 -54 -60 -79h-37q-60 39 -60 92zM100 516q17 55 60 79h37q60 -39 60 -92q-16 -55 -60 -80h-37q-60 40 -60 93zM100 728q17 54 60 79h37 q60 -39 60 -92q-16 -55 -60 -80h-37q-60 40 -60 93zM100 940q17 54 60 79h37q60 -40 60 -93q-16 -54 -60 -79h-37q-60 40 -60 93zM100 1151q17 55 60 80h37q60 -40 60 -93q-16 -55 -60 -79h-37q-60 39 -60 92zM100 1363q17 55 60 79h37q60 -39 60 -92q-16 -55 -60 -80h-37 q-60 40 -60 93zM281 93q17 54 61 79h36q61 -40 61 -93q-17 -54 -61 -79h-36q-61 40 -61 93zM281 1363q17 55 61 79h36q61 -39 61 -92q-17 -55 -61 -80h-36q-61 40 -61 93zM463 93q17 54 60 79h37q60 -40 60 -93q-17 -54 -60 -79h-37q-60 40 -60 93zM463 1363q17 55 60 79h37 q60 -39 60 -92q-17 -55 -60 -80h-37q-60 40 -60 93zM644 93q17 54 61 79h36q61 -40 61 -93q-17 -54 -61 -79h-36q-61 40 -61 93zM644 1363q17 55 61 79h36q61 -39 61 -92q-17 -55 -61 -80h-36q-61 40 -61 93zM826 304q16 55 60 80h37q60 -40 60 -93q-17 -54 -60 -79h-37 q-60 39 -60 92zM826 516q16 55 60 79h37q60 -39 60 -92q-17 -55 -60 -80h-37q-60 40 -60 93zM826 728q16 54 60 79h37q60 -39 60 -92q-17 -55 -60 -80h-37q-60 40 -60 93zM826 940q16 54 60 79h37q60 -40 60 -93q-17 -54 -60 -79h-37q-60 40 -60 93zM826 1151q16 55 60 80 h37q60 -40 60 -93q-17 -55 -60 -79h-37q-60 39 -60 92z" />
<glyph unicode="E" d="M100 93q17 54 60 79h37q60 -40 60 -93q-16 -54 -60 -79h-37q-60 40 -60 93zM100 304q17 55 60 80h37q60 -40 60 -93q-16 -54 -60 -79h-37q-60 39 -60 92zM100 516q17 55 60 79h37q60 -39 60 -92q-16 -55 -60 -80h-37q-60 40 -60 93zM100 728q17 54 60 79h37 q60 -39 60 -92q-16 -55 -60 -80h-37q-60 40 -60 93zM100 940q17 54 60 79h37q60 -40 60 -93q-16 -54 -60 -79h-37q-60 40 -60 93zM100 1151q17 55 60 80h37q60 -40 60 -93q-16 -55 -60 -79h-37q-60 39 -60 92zM100 1363q17 55 60 79h37q60 -39 60 -92q-16 -55 -60 -80h-37 q-60 40 -60 93zM281 93q17 54 61 79h36q61 -40 61 -93q-17 -54 -61 -79h-36q-61 40 -61 93zM281 728q17 54 61 79h36q61 -39 61 -92q-17 -55 -61 -80h-36q-61 40 -61 93zM281 1363q17 55 61 79h36q61 -39 61 -92q-17 -55 -61 -80h-36q-61 40 -61 93zM463 93q17 54 60 79h37 q60 -40 60 -93q-17 -54 -60 -79h-37q-60 40 -60 93zM463 728q17 54 60 79h37q60 -39 60 -92q-17 -55 -60 -80h-37q-60 40 -60 93zM463 1363q17 55 60 79h37q60 -39 60 -92q-17 -55 -60 -80h-37q-60 40 -60 93zM644 93q17 54 61 79h36q61 -40 61 -93q-17 -54 -61 -79h-36 q-61 40 -61 93zM644 728q17 54 61 79h36q61 -39 61 -92q-17 -55 -61 -80h-36q-61 40 -61 93zM644 1363q17 55 61 79h36q61 -39 61 -92q-17 -55 -61 -80h-36q-61 40 -61 93zM826 93q16 54 60 79h37q60 -40 60 -93q-17 -54 -60 -79h-37q-60 40 -60 93zM826 1363q16 55 60 79 h37q60 -39 60 -92q-17 -55 -60 -80h-37q-60 40 -60 93z" />
<glyph unicode="F" d="M100 93q17 54 60 79h37q60 -40 60 -93q-16 -54 -60 -79h-37q-60 40 -60 93zM100 304q17 55 60 80h37q60 -40 60 -93q-16 -54 -60 -79h-37q-60 39 -60 92zM100 516q17 55 60 79h37q60 -39 60 -92q-16 -55 -60 -80h-37q-60 40 -60 93zM100 728q17 54 60 79h37 q60 -39 60 -92q-16 -55 -60 -80h-37q-60 40 -60 93zM100 940q17 54 60 79h37q60 -40 60 -93q-16 -54 -60 -79h-37q-60 40 -60 93zM100 1151q17 55 60 80h37q60 -40 60 -93q-16 -55 -60 -79h-37q-60 39 -60 92zM100 1363q17 55 60 79h37q60 -39 60 -92q-16 -55 -60 -80h-37 q-60 40 -60 93zM281 728q17 54 61 79h36q61 -39 61 -92q-17 -55 -61 -80h-36q-61 40 -61 93zM281 1363q17 55 61 79h36q61 -39 61 -92q-17 -55 -61 -80h-36q-61 40 -61 93zM463 728q17 54 60 79h37q60 -39 60 -92q-17 -55 -60 -80h-37q-60 40 -60 93zM463 1363q17 55 60 79 h37q60 -39 60 -92q-17 -55 -60 -80h-37q-60 40 -60 93zM644 728q17 54 61 79h36q61 -39 61 -92q-17 -55 -61 -80h-36q-61 40 -61 93zM644 1363q17 55 61 79h36q61 -39 61 -92q-17 -55 -61 -80h-36q-61 40 -61 93zM826 1363q16 55 60 79h37q60 -39 60 -92q-17 -55 -60 -80 h-37q-60 40 -60 93z" />
<glyph unicode="G" d="M100 304q17 55 60 80h37q60 -40 60 -93q-16 -54 -60 -79h-37q-60 39 -60 92zM100 516q17 55 60 79h37q60 -39 60 -92q-16 -55 -60 -80h-37q-60 40 -60 93zM100 728q17 54 60 79h37q60 -39 60 -92q-16 -55 -60 -80h-37q-60 40 -60 93zM100 940q17 54 60 79h37 q60 -40 60 -93q-16 -54 -60 -79h-37q-60 40 -60 93zM100 1151q17 55 60 80h37q60 -40 60 -93q-16 -55 -60 -79h-37q-60 39 -60 92zM281 93q17 54 61 79h36q61 -40 61 -93q-17 -54 -61 -79h-36q-61 40 -61 93zM281 1363q17 55 61 79h36q61 -39 61 -92q-17 -55 -61 -80h-36 q-61 40 -61 93zM463 93q17 54 60 79h37q60 -40 60 -93q-17 -54 -60 -79h-37q-60 40 -60 93zM463 728q17 54 60 79h37q60 -39 60 -92q-17 -55 -60 -80h-37q-60 40 -60 93zM463 1363q17 55 60 79h37q60 -39 60 -92q-17 -55 -60 -80h-37q-60 40 -60 93zM644 93q17 54 61 79h36 q61 -40 61 -93q-17 -54 -61 -79h-36q-61 40 -61 93zM644 728q17 54 61 79h36q61 -39 61 -92q-17 -55 -61 -80h-36q-61 40 -61 93zM644 1363q17 55 61 79h36q61 -39 61 -92q-17 -55 -61 -80h-36q-61 40 -61 93zM826 304q16 55 60 80h37q60 -40 60 -93q-17 -54 -60 -79h-37 q-60 39 -60 92zM826 516q16 55 60 79h37q60 -39 60 -92q-17 -55 -60 -80h-37q-60 40 -60 93zM826 728q16 54 60 79h37q60 -39 60 -92q-17 -55 -60 -80h-37q-60 40 -60 93zM826 1151q16 55 60 80h37q60 -40 60 -93q-17 -55 -60 -79h-37q-60 39 -60 92z" />
<glyph unicode="H" d="M100 93q17 54 60 79h37q60 -40 60 -93q-16 -54 -60 -79h-37q-60 40 -60 93zM100 304q17 55 60 80h37q60 -40 60 -93q-16 -54 -60 -79h-37q-60 39 -60 92zM100 516q17 55 60 79h37q60 -39 60 -92q-16 -55 -60 -80h-37q-60 40 -60 93zM100 728q17 54 60 79h37 q60 -39 60 -92q-16 -55 -60 -80h-37q-60 40 -60 93zM100 940q17 54 60 79h37q60 -40 60 -93q-16 -54 -60 -79h-37q-60 40 -60 93zM100 1151q17 55 60 80h37q60 -40 60 -93q-16 -55 -60 -79h-37q-60 39 -60 92zM100 1363q17 55 60 79h37q60 -39 60 -92q-16 -55 -60 -80h-37 q-60 40 -60 93zM281 728q17 54 61 79h36q61 -39 61 -92q-17 -55 -61 -80h-36q-61 40 -61 93zM463 728q17 54 60 79h37q60 -39 60 -92q-17 -55 -60 -80h-37q-60 40 -60 93zM644 728q17 54 61 79h36q61 -39 61 -92q-17 -55 -61 -80h-36q-61 40 -61 93zM826 93q16 54 60 79h37 q60 -40 60 -93q-17 -54 -60 -79h-37q-60 40 -60 93zM826 304q16 55 60 80h37q60 -40 60 -93q-17 -54 -60 -79h-37q-60 39 -60 92zM826 516q16 55 60 79h37q60 -39 60 -92q-17 -55 -60 -80h-37q-60 40 -60 93zM826 728q16 54 60 79h37q60 -39 60 -92q-17 -55 -60 -80h-37 q-60 40 -60 93zM826 940q16 54 60 79h37q60 -40 60 -93q-17 -54 -60 -79h-37q-60 40 -60 93zM826 1151q16 55 60 80h37q60 -40 60 -93q-17 -55 -60 -79h-37q-60 39 -60 92zM826 1363q16 55 60 79h37q60 -39 60 -92q-17 -55 -60 -80h-37q-60 40 -60 93z" />
<glyph unicode="I" d="M463 93q17 54 60 79h37q60 -40 60 -93q-17 -54 -60 -79h-37q-60 40 -60 93zM463 304q17 55 60 80h37q60 -40 60 -93q-17 -54 -60 -79h-37q-60 39 -60 92zM463 516q17 55 60 79h37q60 -39 60 -92q-17 -55 -60 -80h-37q-60 40 -60 93zM463 728q17 54 60 79h37 q60 -39 60 -92q-17 -55 -60 -80h-37q-60 40 -60 93zM463 940q17 54 60 79h37q60 -40 60 -93q-17 -54 -60 -79h-37q-60 40 -60 93zM463 1151q17 55 60 80h37q60 -40 60 -93q-17 -55 -60 -79h-37q-60 39 -60 92zM463 1363q17 55 60 79h37q60 -39 60 -92q-17 -55 -60 -80h-37 q-60 40 -60 93z" />
<glyph unicode="J" d="M100 304q17 55 60 80h37q60 -40 60 -93q-16 -54 -60 -79h-37q-60 39 -60 92zM100 516q17 55 60 79h37q60 -39 60 -92q-16 -55 -60 -80h-37q-60 40 -60 93zM281 93q17 54 61 79h36q61 -40 61 -93q-17 -54 -61 -79h-36q-61 40 -61 93zM463 93q17 54 60 79h37q60 -40 60 -93 q-17 -54 -60 -79h-37q-60 40 -60 93zM644 93q17 54 61 79h36q61 -40 61 -93q-17 -54 -61 -79h-36q-61 40 -61 93zM826 304q16 55 60 80h37q60 -40 60 -93q-17 -54 -60 -79h-37q-60 39 -60 92zM826 516q16 55 60 79h37q60 -39 60 -92q-17 -55 -60 -80h-37q-60 40 -60 93z M826 728q16 54 60 79h37q60 -39 60 -92q-17 -55 -60 -80h-37q-60 40 -60 93zM826 940q16 54 60 79h37q60 -40 60 -93q-17 -54 -60 -79h-37q-60 40 -60 93zM826 1151q16 55 60 80h37q60 -40 60 -93q-17 -55 -60 -79h-37q-60 39 -60 92zM826 1363q16 55 60 79h37 q60 -39 60 -92q-17 -55 -60 -80h-37q-60 40 -60 93z" />
<glyph unicode="K" d="M100 93q17 54 60 79h37q60 -40 60 -93q-16 -54 -60 -79h-37q-60 40 -60 93zM100 304q17 55 60 80h37q60 -40 60 -93q-16 -54 -60 -79h-37q-60 39 -60 92zM100 516q17 55 60 79h37q60 -39 60 -92q-16 -55 -60 -80h-37q-60 40 -60 93zM100 728q17 54 60 79h37 q60 -39 60 -92q-16 -55 -60 -80h-37q-60 40 -60 93zM100 940q17 54 60 79h37q60 -40 60 -93q-16 -54 -60 -79h-37q-60 40 -60 93zM100 1151q17 55 60 80h37q60 -40 60 -93q-16 -55 -60 -79h-37q-60 39 -60 92zM100 1363q17 55 60 79h37q60 -39 60 -92q-16 -55 -60 -80h-37 q-60 40 -60 93zM281 728q17 54 61 79h36q61 -39 61 -92q-17 -55 -61 -80h-36q-61 40 -61 93zM463 516q17 55 60 79h37q60 -39 60 -92q-17 -55 -60 -80h-37q-60 40 -60 93zM463 940q17 54 60 79h37q60 -40 60 -93q-17 -54 -60 -79h-37q-60 40 -60 93zM644 304q17 55 61 80h36 q61 -40 61 -93q-17 -54 -61 -79h-36q-61 39 -61 92zM644 1151q17 55 61 80h36q61 -40 61 -93q-17 -55 -61 -79h-36q-61 39 -61 92zM826 93q16 54 60 79h37q60 -40 60 -93q-17 -54 -60 -79h-37q-60 40 -60 93zM826 1363q16 55 60 79h37q60 -39 60 -92q-17 -55 -60 -80h-37 q-60 40 -60 93z" />
<glyph unicode="L" d="M100 93q17 54 60 79h37q60 -40 60 -93q-16 -54 -60 -79h-37q-60 40 -60 93zM100 304q17 55 60 80h37q60 -40 60 -93q-16 -54 -60 -79h-37q-60 39 -60 92zM100 516q17 55 60 79h37q60 -39 60 -92q-16 -55 -60 -80h-37q-60 40 -60 93zM100 728q17 54 60 79h37 q60 -39 60 -92q-16 -55 -60 -80h-37q-60 40 -60 93zM100 940q17 54 60 79h37q60 -40 60 -93q-16 -54 -60 -79h-37q-60 40 -60 93zM100 1151q17 55 60 80h37q60 -40 60 -93q-16 -55 -60 -79h-37q-60 39 -60 92zM100 1363q17 55 60 79h37q60 -39 60 -92q-16 -55 -60 -80h-37 q-60 40 -60 93zM281 93q17 54 61 79h36q61 -40 61 -93q-17 -54 -61 -79h-36q-61 40 -61 93zM463 93q17 54 60 79h37q60 -40 60 -93q-17 -54 -60 -79h-37q-60 40 -60 93zM644 93q17 54 61 79h36q61 -40 61 -93q-17 -54 -61 -79h-36q-61 40 -61 93zM826 93q16 54 60 79h37 q60 -40 60 -93q-17 -54 -60 -79h-37q-60 40 -60 93z" />
<glyph unicode="M" d="M100 93q17 54 60 79h37q60 -40 60 -93q-16 -54 -60 -79h-37q-60 40 -60 93zM100 304q17 55 60 80h37q60 -40 60 -93q-16 -54 -60 -79h-37q-60 39 -60 92zM100 516q17 55 60 79h37q60 -39 60 -92q-16 -55 -60 -80h-37q-60 40 -60 93zM100 728q17 54 60 79h37 q60 -39 60 -92q-16 -55 -60 -80h-37q-60 40 -60 93zM100 940q17 54 60 79h37q60 -40 60 -93q-16 -54 -60 -79h-37q-60 40 -60 93zM100 1151q17 55 60 80h37q60 -40 60 -93q-16 -55 -60 -79h-37q-60 39 -60 92zM100 1363q17 55 60 79h37q60 -39 60 -92q-16 -55 -60 -80h-37 q-60 40 -60 93zM281 1151q17 55 61 80h36q61 -40 61 -93q-17 -55 -61 -79h-36q-61 39 -61 92zM463 728q17 54 60 79h37q60 -39 60 -92q-17 -55 -60 -80h-37q-60 40 -60 93zM463 940q17 54 60 79h37q60 -40 60 -93q-17 -54 -60 -79h-37q-60 40 -60 93zM644 1151q17 55 61 80 h36q61 -40 61 -93q-17 -55 -61 -79h-36q-61 39 -61 92zM826 93q16 54 60 79h37q60 -40 60 -93q-17 -54 -60 -79h-37q-60 40 -60 93zM826 304q16 55 60 80h37q60 -40 60 -93q-17 -54 -60 -79h-37q-60 39 -60 92zM826 516q16 55 60 79h37q60 -39 60 -92q-17 -55 -60 -80h-37 q-60 40 -60 93zM826 728q16 54 60 79h37q60 -39 60 -92q-17 -55 -60 -80h-37q-60 40 -60 93zM826 940q16 54 60 79h37q60 -40 60 -93q-17 -54 -60 -79h-37q-60 40 -60 93zM826 1151q16 55 60 80h37q60 -40 60 -93q-17 -55 -60 -79h-37q-60 39 -60 92zM826 1363q16 55 60 79 h37q60 -39 60 -92q-17 -55 -60 -80h-37q-60 40 -60 93z" />
<glyph unicode="N" d="M100 93q17 54 60 79h37q60 -40 60 -93q-16 -54 -60 -79h-37q-60 40 -60 93zM100 304q17 55 60 80h37q60 -40 60 -93q-16 -54 -60 -79h-37q-60 39 -60 92zM100 516q17 55 60 79h37q60 -39 60 -92q-16 -55 -60 -80h-37q-60 40 -60 93zM100 728q17 54 60 79h37 q60 -39 60 -92q-16 -55 -60 -80h-37q-60 40 -60 93zM100 940q17 54 60 79h37q60 -40 60 -93q-16 -54 -60 -79h-37q-60 40 -60 93zM100 1151q17 55 60 80h37q60 -40 60 -93q-16 -55 -60 -79h-37q-60 39 -60 92zM100 1363q17 55 60 79h37q60 -39 60 -92q-16 -55 -60 -80h-37 q-60 40 -60 93zM281 1151q17 55 61 80h36q61 -40 61 -93q-17 -55 -61 -79h-36q-61 39 -61 92zM463 940q17 54 60 79h37q60 -40 60 -93q-17 -54 -60 -79h-37q-60 40 -60 93zM644 728q17 54 61 79h36q61 -39 61 -92q-17 -55 -61 -80h-36q-61 40 -61 93zM826 93q16 54 60 79h37 q60 -40 60 -93q-17 -54 -60 -79h-37q-60 40 -60 93zM826 304q16 55 60 80h37q60 -40 60 -93q-17 -54 -60 -79h-37q-60 39 -60 92zM826 516q16 55 60 79h37q60 -39 60 -92q-17 -55 -60 -80h-37q-60 40 -60 93zM826 728q16 54 60 79h37q60 -39 60 -92q-17 -55 -60 -80h-37 q-60 40 -60 93zM826 940q16 54 60 79h37q60 -40 60 -93q-17 -54 -60 -79h-37q-60 40 -60 93zM826 1151q16 55 60 80h37q60 -40 60 -93q-17 -55 -60 -79h-37q-60 39 -60 92zM826 1363q16 55 60 79h37q60 -39 60 -92q-17 -55 -60 -80h-37q-60 40 -60 93z" />
<glyph unicode="O" d="M100 304q17 55 60 80h37q60 -40 60 -93q-16 -54 -60 -79h-37q-60 39 -60 92zM100 516q17 55 60 79h37q60 -39 60 -92q-16 -55 -60 -80h-37q-60 40 -60 93zM100 728q17 54 60 79h37q60 -39 60 -92q-16 -55 -60 -80h-37q-60 40 -60 93zM100 940q17 54 60 79h37 q60 -40 60 -93q-16 -54 -60 -79h-37q-60 40 -60 93zM100 1151q17 55 60 80h37q60 -40 60 -93q-16 -55 -60 -79h-37q-60 39 -60 92zM281 93q17 54 61 79h36q61 -40 61 -93q-17 -54 -61 -79h-36q-61 40 -61 93zM281 1363q17 55 61 79h36q61 -39 61 -92q-17 -55 -61 -80h-36 q-61 40 -61 93zM463 93q17 54 60 79h37q60 -40 60 -93q-17 -54 -60 -79h-37q-60 40 -60 93zM463 1363q17 55 60 79h37q60 -39 60 -92q-17 -55 -60 -80h-37q-60 40 -60 93zM644 93q17 54 61 79h36q61 -40 61 -93q-17 -54 -61 -79h-36q-61 40 -61 93zM644 1363q17 55 61 79h36 q61 -39 61 -92q-17 -55 -61 -80h-36q-61 40 -61 93zM826 304q16 55 60 80h37q60 -40 60 -93q-17 -54 -60 -79h-37q-60 39 -60 92zM826 516q16 55 60 79h37q60 -39 60 -92q-17 -55 -60 -80h-37q-60 40 -60 93zM826 728q16 54 60 79h37q60 -39 60 -92q-17 -55 -60 -80h-37 q-60 40 -60 93zM826 940q16 54 60 79h37q60 -40 60 -93q-17 -54 -60 -79h-37q-60 40 -60 93zM826 1151q16 55 60 80h37q60 -40 60 -93q-17 -55 -60 -79h-37q-60 39 -60 92z" />
<glyph unicode="P" d="M100 93q17 54 60 79h37q60 -40 60 -93q-16 -54 -60 -79h-37q-60 40 -60 93zM100 304q17 55 60 80h37q60 -40 60 -93q-16 -54 -60 -79h-37q-60 39 -60 92zM100 516q17 55 60 79h37q60 -39 60 -92q-16 -55 -60 -80h-37q-60 40 -60 93zM100 728q17 54 60 79h37 q60 -39 60 -92q-16 -55 -60 -80h-37q-60 40 -60 93zM100 940q17 54 60 79h37q60 -40 60 -93q-16 -54 -60 -79h-37q-60 40 -60 93zM100 1151q17 55 60 80h37q60 -40 60 -93q-16 -55 -60 -79h-37q-60 39 -60 92zM100 1363q17 55 60 79h37q60 -39 60 -92q-16 -55 -60 -80h-37 q-60 40 -60 93zM281 728q17 54 61 79h36q61 -39 61 -92q-17 -55 -61 -80h-36q-61 40 -61 93zM281 1363q17 55 61 79h36q61 -39 61 -92q-17 -55 -61 -80h-36q-61 40 -61 93zM463 728q17 54 60 79h37q60 -39 60 -92q-17 -55 -60 -80h-37q-60 40 -60 93zM463 1363q17 55 60 79 h37q60 -39 60 -92q-17 -55 -60 -80h-37q-60 40 -60 93zM644 728q17 54 61 79h36q61 -39 61 -92q-17 -55 -61 -80h-36q-61 40 -61 93zM644 1363q17 55 61 79h36q61 -39 61 -92q-17 -55 -61 -80h-36q-61 40 -61 93zM826 940q16 54 60 79h37q60 -40 60 -93q-17 -54 -60 -79h-37 q-60 40 -60 93zM826 1151q16 55 60 80h37q60 -40 60 -93q-17 -55 -60 -79h-37q-60 39 -60 92z" />
<glyph unicode="Q" d="M100 304q17 55 60 80h37q60 -40 60 -93q-16 -54 -60 -79h-37q-60 39 -60 92zM100 516q17 55 60 79h37q60 -39 60 -92q-16 -55 -60 -80h-37q-60 40 -60 93zM100 728q17 54 60 79h37q60 -39 60 -92q-16 -55 -60 -80h-37q-60 40 -60 93zM100 940q17 54 60 79h37 q60 -40 60 -93q-16 -54 -60 -79h-37q-60 40 -60 93zM100 1151q17 55 60 80h37q60 -40 60 -93q-16 -55 -60 -79h-37q-60 39 -60 92zM281 93q17 54 61 79h36q61 -40 61 -93q-17 -54 -61 -79h-36q-61 40 -61 93zM281 1363q17 55 61 79h36q61 -39 61 -92q-17 -55 -61 -80h-36 q-61 40 -61 93zM463 93q17 54 60 79h37q60 -40 60 -93q-17 -54 -60 -79h-37q-60 40 -60 93zM463 516q17 55 60 79h37q60 -39 60 -92q-17 -55 -60 -80h-37q-60 40 -60 93zM463 1363q17 55 60 79h37q60 -39 60 -92q-17 -55 -60 -80h-37q-60 40 -60 93zM644 304q17 55 61 80h36 q61 -40 61 -93q-17 -54 -61 -79h-36q-61 39 -61 92zM644 1363q17 55 61 79h36q61 -39 61 -92q-17 -55 -61 -80h-36q-61 40 -61 93zM826 93q16 54 60 79h37q60 -40 60 -93q-17 -54 -60 -79h-37q-60 40 -60 93zM826 516q16 55 60 79h37q60 -39 60 -92q-17 -55 -60 -80h-37 q-60 40 -60 93zM826 728q16 54 60 79h37q60 -39 60 -92q-17 -55 -60 -80h-37q-60 40 -60 93zM826 940q16 54 60 79h37q60 -40 60 -93q-17 -54 -60 -79h-37q-60 40 -60 93zM826 1151q16 55 60 80h37q60 -40 60 -93q-17 -55 -60 -79h-37q-60 39 -60 92z" />
<glyph unicode="R" d="M100 93q17 54 60 79h37q60 -40 60 -93q-16 -54 -60 -79h-37q-60 40 -60 93zM100 304q17 55 60 80h37q60 -40 60 -93q-16 -54 -60 -79h-37q-60 39 -60 92zM100 516q17 55 60 79h37q60 -39 60 -92q-16 -55 -60 -80h-37q-60 40 -60 93zM100 728q17 54 60 79h37 q60 -39 60 -92q-16 -55 -60 -80h-37q-60 40 -60 93zM100 940q17 54 60 79h37q60 -40 60 -93q-16 -54 -60 -79h-37q-60 40 -60 93zM100 1151q17 55 60 80h37q60 -40 60 -93q-16 -55 -60 -79h-37q-60 39 -60 92zM100 1363q17 55 60 79h37q60 -39 60 -92q-16 -55 -60 -80h-37 q-60 40 -60 93zM281 728q17 54 61 79h36q61 -39 61 -92q-17 -55 -61 -80h-36q-61 40 -61 93zM281 1363q17 55 61 79h36q61 -39 61 -92q-17 -55 -61 -80h-36q-61 40 -61 93zM463 516q17 55 60 79h37q60 -39 60 -92q-17 -55 -60 -80h-37q-60 40 -60 93zM463 728q17 54 60 79 h37q60 -39 60 -92q-17 -55 -60 -80h-37q-60 40 -60 93zM463 1363q17 55 60 79h37q60 -39 60 -92q-17 -55 -60 -80h-37q-60 40 -60 93zM644 304q17 55 61 80h36q61 -40 61 -93q-17 -54 -61 -79h-36q-61 39 -61 92zM644 728q17 54 61 79h36q61 -39 61 -92q-17 -55 -61 -80h-36 q-61 40 -61 93zM644 1363q17 55 61 79h36q61 -39 61 -92q-17 -55 -61 -80h-36q-61 40 -61 93zM826 93q16 54 60 79h37q60 -40 60 -93q-17 -54 -60 -79h-37q-60 40 -60 93zM826 940q16 54 60 79h37q60 -40 60 -93q-17 -54 -60 -79h-37q-60 40 -60 93zM826 1151q16 55 60 80 h37q60 -40 60 -93q-17 -55 -60 -79h-37q-60 39 -60 92z" />
<glyph unicode="S" d="M100 304q17 55 60 80h37q60 -40 60 -93q-16 -54 -60 -79h-37q-60 39 -60 92zM100 940q17 54 60 79h37q60 -40 60 -93q-16 -54 -60 -79h-37q-60 40 -60 93zM100 1151q17 55 60 80h37q60 -40 60 -93q-16 -55 -60 -79h-37q-60 39 -60 92zM281 93q17 54 61 79h36 q61 -40 61 -93q-17 -54 -61 -79h-36q-61 40 -61 93zM281 728q17 54 61 79h36q61 -39 61 -92q-17 -55 -61 -80h-36q-61 40 -61 93zM281 1363q17 55 61 79h36q61 -39 61 -92q-17 -55 -61 -80h-36q-61 40 -61 93zM463 93q17 54 60 79h37q60 -40 60 -93q-17 -54 -60 -79h-37 q-60 40 -60 93zM463 728q17 54 60 79h37q60 -39 60 -92q-17 -55 -60 -80h-37q-60 40 -60 93zM463 1363q17 55 60 79h37q60 -39 60 -92q-17 -55 -60 -80h-37q-60 40 -60 93zM644 93q17 54 61 79h36q61 -40 61 -93q-17 -54 -61 -79h-36q-61 40 -61 93zM644 728q17 54 61 79h36 q61 -39 61 -92q-17 -55 -61 -80h-36q-61 40 -61 93zM644 1363q17 55 61 79h36q61 -39 61 -92q-17 -55 -61 -80h-36q-61 40 -61 93zM826 304q16 55 60 80h37q60 -40 60 -93q-17 -54 -60 -79h-37q-60 39 -60 92zM826 516q16 55 60 79h37q60 -39 60 -92q-17 -55 -60 -80h-37 q-60 40 -60 93zM826 1151q16 55 60 80h37q60 -40 60 -93q-17 -55 -60 -79h-37q-60 39 -60 92z" />
<glyph unicode="T" d="M100 1363q17 55 60 79h37q60 -39 60 -92q-16 -55 -60 -80h-37q-60 40 -60 93zM281 1363q17 55 61 79h36q61 -39 61 -92q-17 -55 -61 -80h-36q-61 40 -61 93zM463 93q17 54 60 79h37q60 -40 60 -93q-17 -54 -60 -79h-37q-60 40 -60 93zM463 304q17 55 60 80h37 q60 -40 60 -93q-17 -54 -60 -79h-37q-60 39 -60 92zM463 516q17 55 60 79h37q60 -39 60 -92q-17 -55 -60 -80h-37q-60 40 -60 93zM463 728q17 54 60 79h37q60 -39 60 -92q-17 -55 -60 -80h-37q-60 40 -60 93zM463 940q17 54 60 79h37q60 -40 60 -93q-17 -54 -60 -79h-37 q-60 40 -60 93zM463 1151q17 55 60 80h37q60 -40 60 -93q-17 -55 -60 -79h-37q-60 39 -60 92zM463 1363q17 55 60 79h37q60 -39 60 -92q-17 -55 -60 -80h-37q-60 40 -60 93zM644 1363q17 55 61 79h36q61 -39 61 -92q-17 -55 -61 -80h-36q-61 40 -61 93zM826 1363 q16 55 60 79h37q60 -39 60 -92q-17 -55 -60 -80h-37q-60 40 -60 93z" />
<glyph unicode="U" d="M100 304q17 55 60 80h37q60 -40 60 -93q-16 -54 -60 -79h-37q-60 39 -60 92zM100 516q17 55 60 79h37q60 -39 60 -92q-16 -55 -60 -80h-37q-60 40 -60 93zM100 728q17 54 60 79h37q60 -39 60 -92q-16 -55 -60 -80h-37q-60 40 -60 93zM100 940q17 54 60 79h37 q60 -40 60 -93q-16 -54 -60 -79h-37q-60 40 -60 93zM100 1151q17 55 60 80h37q60 -40 60 -93q-16 -55 -60 -79h-37q-60 39 -60 92zM100 1363q17 55 60 79h37q60 -39 60 -92q-16 -55 -60 -80h-37q-60 40 -60 93zM281 93q17 54 61 79h36q61 -40 61 -93q-17 -54 -61 -79h-36 q-61 40 -61 93zM463 93q17 54 60 79h37q60 -40 60 -93q-17 -54 -60 -79h-37q-60 40 -60 93zM644 93q17 54 61 79h36q61 -40 61 -93q-17 -54 -61 -79h-36q-61 40 -61 93zM826 304q16 55 60 80h37q60 -40 60 -93q-17 -54 -60 -79h-37q-60 39 -60 92zM826 516q16 55 60 79h37 q60 -39 60 -92q-17 -55 -60 -80h-37q-60 40 -60 93zM826 728q16 54 60 79h37q60 -39 60 -92q-17 -55 -60 -80h-37q-60 40 -60 93zM826 940q16 54 60 79h37q60 -40 60 -93q-17 -54 -60 -79h-37q-60 40 -60 93zM826 1151q16 55 60 80h37q60 -40 60 -93q-17 -55 -60 -79h-37 q-60 39 -60 92zM826 1363q16 55 60 79h37q60 -39 60 -92q-17 -55 -60 -80h-37q-60 40 -60 93z" />
<glyph unicode="V" d="M100 940q17 54 60 79h37q60 -40 60 -93q-16 -54 -60 -79h-37q-60 40 -60 93zM100 1151q17 55 60 80h37q60 -40 60 -93q-16 -55 -60 -79h-37q-60 39 -60 92zM100 1363q17 55 60 79h37q60 -39 60 -92q-16 -55 -60 -80h-37q-60 40 -60 93zM281 516q17 55 61 79h36 q61 -39 61 -92q-17 -55 -61 -80h-36q-61 40 -61 93zM281 728q17 54 61 79h36q61 -39 61 -92q-17 -55 -61 -80h-36q-61 40 -61 93zM463 93q17 54 60 79h37q60 -40 60 -93q-17 -54 -60 -79h-37q-60 40 -60 93zM463 304q17 55 60 80h37q60 -40 60 -93q-17 -54 -60 -79h-37 q-60 39 -60 92zM644 516q17 55 61 79h36q61 -39 61 -92q-17 -55 -61 -80h-36q-61 40 -61 93zM644 728q17 54 61 79h36q61 -39 61 -92q-17 -55 -61 -80h-36q-61 40 -61 93zM826 940q16 54 60 79h37q60 -40 60 -93q-17 -54 -60 -79h-37q-60 40 -60 93zM826 1151q16 55 60 80 h37q60 -40 60 -93q-17 -55 -60 -79h-37q-60 39 -60 92zM826 1363q16 55 60 79h37q60 -39 60 -92q-17 -55 -60 -80h-37q-60 40 -60 93z" />
<glyph unicode="W" d="M100 93q17 54 60 79h37q60 -40 60 -93q-16 -54 -60 -79h-37q-60 40 -60 93zM100 304q17 55 60 80h37q60 -40 60 -93q-16 -54 -60 -79h-37q-60 39 -60 92zM100 516q17 55 60 79h37q60 -39 60 -92q-16 -55 -60 -80h-37q-60 40 -60 93zM100 728q17 54 60 79h37 q60 -39 60 -92q-16 -55 -60 -80h-37q-60 40 -60 93zM100 940q17 54 60 79h37q60 -40 60 -93q-16 -54 -60 -79h-37q-60 40 -60 93zM100 1151q17 55 60 80h37q60 -40 60 -93q-16 -55 -60 -79h-37q-60 39 -60 92zM100 1363q17 55 60 79h37q60 -39 60 -92q-16 -55 -60 -80h-37 q-60 40 -60 93zM281 304q17 55 61 80h36q61 -40 61 -93q-17 -54 -61 -79h-36q-61 39 -61 92zM463 516q17 55 60 79h37q60 -39 60 -92q-17 -55 -60 -80h-37q-60 40 -60 93zM463 728q17 54 60 79h37q60 -39 60 -92q-17 -55 -60 -80h-37q-60 40 -60 93zM644 304q17 55 61 80h36 q61 -40 61 -93q-17 -54 -61 -79h-36q-61 39 -61 92zM826 93q16 54 60 79h37q60 -40 60 -93q-17 -54 -60 -79h-37q-60 40 -60 93zM826 304q16 55 60 80h37q60 -40 60 -93q-17 -54 -60 -79h-37q-60 39 -60 92zM826 516q16 55 60 79h37q60 -39 60 -92q-17 -55 -60 -80h-37 q-60 40 -60 93zM826 728q16 54 60 79h37q60 -39 60 -92q-17 -55 -60 -80h-37q-60 40 -60 93zM826 940q16 54 60 79h37q60 -40 60 -93q-17 -54 -60 -79h-37q-60 40 -60 93zM826 1151q16 55 60 80h37q60 -40 60 -93q-17 -55 -60 -79h-37q-60 39 -60 92zM826 1363q16 55 60 79 h37q60 -39 60 -92q-17 -55 -60 -80h-37q-60 40 -60 93z" />
<glyph unicode="X" d="M100 93q17 54 60 79h37q60 -40 60 -93q-16 -54 -60 -79h-37q-60 40 -60 93zM100 304q17 55 60 80h37q60 -40 60 -93q-16 -54 -60 -79h-37q-60 39 -60 92zM100 1151q17 55 60 80h37q60 -40 60 -93q-16 -55 -60 -79h-37q-60 39 -60 92zM100 1363q17 55 60 79h37 q60 -39 60 -92q-16 -55 -60 -80h-37q-60 40 -60 93zM281 516q17 55 61 79h36q61 -39 61 -92q-17 -55 -61 -80h-36q-61 40 -61 93zM281 940q17 54 61 79h36q61 -40 61 -93q-17 -54 -61 -79h-36q-61 40 -61 93zM463 728q17 54 60 79h37q60 -39 60 -92q-17 -55 -60 -80h-37 q-60 40 -60 93zM644 516q17 55 61 79h36q61 -39 61 -92q-17 -55 -61 -80h-36q-61 40 -61 93zM644 940q17 54 61 79h36q61 -40 61 -93q-17 -54 -61 -79h-36q-61 40 -61 93zM826 93q16 54 60 79h37q60 -40 60 -93q-17 -54 -60 -79h-37q-60 40 -60 93zM826 304q16 55 60 80h37 q60 -40 60 -93q-17 -54 -60 -79h-37q-60 39 -60 92zM826 1151q16 55 60 80h37q60 -40 60 -93q-17 -55 -60 -79h-37q-60 39 -60 92zM826 1363q16 55 60 79h37q60 -39 60 -92q-17 -55 -60 -80h-37q-60 40 -60 93z" />
<glyph unicode="Y" d="M100 940q17 54 60 79h37q60 -40 60 -93q-16 -54 -60 -79h-37q-60 40 -60 93zM100 1151q17 55 60 80h37q60 -40 60 -93q-16 -55 -60 -79h-37q-60 39 -60 92zM100 1363q17 55 60 79h37q60 -39 60 -92q-16 -55 -60 -80h-37q-60 40 -60 93zM281 728q17 54 61 79h36 q61 -39 61 -92q-17 -55 -61 -80h-36q-61 40 -61 93zM463 93q17 54 60 79h37q60 -40 60 -93q-17 -54 -60 -79h-37q-60 40 -60 93zM463 304q17 55 60 80h37q60 -40 60 -93q-17 -54 -60 -79h-37q-60 39 -60 92zM463 516q17 55 60 79h37q60 -39 60 -92q-17 -55 -60 -80h-37 q-60 40 -60 93zM644 728q17 54 61 79h36q61 -39 61 -92q-17 -55 -61 -80h-36q-61 40 -61 93zM826 940q16 54 60 79h37q60 -40 60 -93q-17 -54 -60 -79h-37q-60 40 -60 93zM826 1151q16 55 60 80h37q60 -40 60 -93q-17 -55 -60 -79h-37q-60 39 -60 92zM826 1363q16 55 60 79 h37q60 -39 60 -92q-17 -55 -60 -80h-37q-60 40 -60 93z" />
<glyph unicode="Z" d="M100 93q17 54 60 79h37q60 -40 60 -93q-16 -54 -60 -79h-37q-60 40 -60 93zM100 304q17 55 60 80h37q60 -40 60 -93q-16 -54 -60 -79h-37q-60 39 -60 92zM100 1363q17 55 60 79h37q60 -39 60 -92q-16 -55 -60 -80h-37q-60 40 -60 93zM281 93q17 54 61 79h36 q61 -40 61 -93q-17 -54 -61 -79h-36q-61 40 -61 93zM281 516q17 55 61 79h36q61 -39 61 -92q-17 -55 -61 -80h-36q-61 40 -61 93zM281 1363q17 55 61 79h36q61 -39 61 -92q-17 -55 -61 -80h-36q-61 40 -61 93zM463 93q17 54 60 79h37q60 -40 60 -93q-17 -54 -60 -79h-37 q-60 40 -60 93zM463 728q17 54 60 79h37q60 -39 60 -92q-17 -55 -60 -80h-37q-60 40 -60 93zM463 1363q17 55 60 79h37q60 -39 60 -92q-17 -55 -60 -80h-37q-60 40 -60 93zM644 93q17 54 61 79h36q61 -40 61 -93q-17 -54 -61 -79h-36q-61 40 -61 93zM644 940q17 54 61 79h36 q61 -40 61 -93q-17 -54 -61 -79h-36q-61 40 -61 93zM644 1363q17 55 61 79h36q61 -39 61 -92q-17 -55 -61 -80h-36q-61 40 -61 93zM826 93q16 54 60 79h37q60 -40 60 -93q-17 -54 -60 -79h-37q-60 40 -60 93zM826 1151q16 55 60 80h37q60 -40 60 -93q-17 -55 -60 -79h-37 q-60 39 -60 92zM826 1363q16 55 60 79h37q60 -39 60 -92q-17 -55 -60 -80h-37q-60 40 -60 93z" />
<glyph unicode="[" d="M281 93q17 54 61 79h36q61 -40 61 -93q-17 -54 -61 -79h-36q-61 40 -61 93zM281 304q17 55 61 80h36q61 -40 61 -93q-17 -54 -61 -79h-36q-61 39 -61 92zM281 516q17 55 61 79h36q61 -39 61 -92q-17 -55 -61 -80h-36q-61 40 -61 93zM281 728q17 54 61 79h36 q61 -39 61 -92q-17 -55 -61 -80h-36q-61 40 -61 93zM281 940q17 54 61 79h36q61 -40 61 -93q-17 -54 -61 -79h-36q-61 40 -61 93zM281 1151q17 55 61 80h36q61 -40 61 -93q-17 -55 -61 -79h-36q-61 39 -61 92zM281 1363q17 55 61 79h36q61 -39 61 -92q-17 -55 -61 -80h-36 q-61 40 -61 93zM463 93q17 54 60 79h37q60 -40 60 -93q-17 -54 -60 -79h-37q-60 40 -60 93zM463 1363q17 55 60 79h37q60 -39 60 -92q-17 -55 -60 -80h-37q-60 40 -60 93z" />
<glyph unicode="\" d="M100 1151q17 55 60 80h37q60 -40 60 -93q-16 -55 -60 -79h-37q-60 39 -60 92zM281 940q17 54 61 79h36q61 -40 61 -93q-17 -54 -61 -79h-36q-61 40 -61 93zM463 728q17 54 60 79h37q60 -39 60 -92q-17 -55 -60 -80h-37q-60 40 -60 93zM644 516q17 55 61 79h36 q61 -39 61 -92q-17 -55 -61 -80h-36q-61 40 -61 93zM826 304q16 55 60 80h37q60 -40 60 -93q-17 -54 -60 -79h-37q-60 39 -60 92z" />
<glyph unicode="]" d="M463 93q17 54 60 79h37q60 -40 60 -93q-17 -54 -60 -79h-37q-60 40 -60 93zM463 1363q17 55 60 79h37q60 -39 60 -92q-17 -55 -60 -80h-37q-60 40 -60 93zM644 93q17 54 61 79h36q61 -40 61 -93q-17 -54 -61 -79h-36q-61 40 -61 93zM644 304q17 55 61 80h36 q61 -40 61 -93q-17 -54 -61 -79h-36q-61 39 -61 92zM644 516q17 55 61 79h36q61 -39 61 -92q-17 -55 -61 -80h-36q-61 40 -61 93zM644 728q17 54 61 79h36q61 -39 61 -92q-17 -55 -61 -80h-36q-61 40 -61 93zM644 940q17 54 61 79h36q61 -40 61 -93q-17 -54 -61 -79h-36 q-61 40 -61 93zM644 1151q17 55 61 80h36q61 -40 61 -93q-17 -55 -61 -79h-36q-61 39 -61 92zM644 1363q17 55 61 79h36q61 -39 61 -92q-17 -55 -61 -80h-36q-61 40 -61 93z" />
<glyph unicode="^" d="M100 940q17 54 60 79h37q60 -40 60 -93q-16 -54 -60 -79h-37q-60 40 -60 93zM281 1151q17 55 61 80h36q61 -40 61 -93q-17 -55 -61 -79h-36q-61 39 -61 92zM463 1363q17 55 60 79h37q60 -39 60 -92q-17 -55 -60 -80h-37q-60 40 -60 93zM644 1151q17 55 61 80h36 q61 -40 61 -93q-17 -55 -61 -79h-36q-61 39 -61 92zM826 940q16 54 60 79h37q60 -40 60 -93q-17 -54 -60 -79h-37q-60 40 -60 93z" />
<glyph unicode="_" d="M100 93q17 54 60 79h37q60 -40 60 -93q-16 -54 -60 -79h-37q-60 40 -60 93zM281 93q17 54 61 79h36q61 -40 61 -93q-17 -54 -61 -79h-36q-61 40 -61 93zM463 93q17 54 60 79h37q60 -40 60 -93q-17 -54 -60 -79h-37q-60 40 -60 93zM644 93q17 54 61 79h36q61 -40 61 -93 q-17 -54 -61 -79h-36q-61 40 -61 93zM826 93q16 54 60 79h37q60 -40 60 -93q-17 -54 -60 -79h-37q-60 40 -60 93z" />
<glyph unicode="`" d="M281 1788q17 55 61 79h36q61 -39 61 -92q-17 -55 -61 -80h-36q-61 40 -61 93zM463 1576q17 55 60 80h37q60 -40 60 -93q-17 -55 -60 -79h-37q-60 39 -60 92z" />
<glyph unicode="a" d="M100 93q17 54 60 79h37q60 -40 60 -93q-16 -54 -60 -79h-37q-60 40 -60 93zM100 304q17 55 60 80h37q60 -40 60 -93q-16 -54 -60 -79h-37q-60 39 -60 92zM100 516q17 55 60 79h37q60 -39 60 -92q-16 -55 -60 -80h-37q-60 40 -60 93zM100 728q17 54 60 79h37 q60 -39 60 -92q-16 -55 -60 -80h-37q-60 40 -60 93zM100 940q17 54 60 79h37q60 -40 60 -93q-16 -54 -60 -79h-37q-60 40 -60 93zM100 1151q17 55 60 80h37q60 -40 60 -93q-16 -55 -60 -79h-37q-60 39 -60 92zM281 728q17 54 61 79h36q61 -39 61 -92q-17 -55 -61 -80h-36 q-61 40 -61 93zM281 1363q17 55 61 79h36q61 -39 61 -92q-17 -55 -61 -80h-36q-61 40 -61 93zM463 728q17 54 60 79h37q60 -39 60 -92q-17 -55 -60 -80h-37q-60 40 -60 93zM463 1363q17 55 60 79h37q60 -39 60 -92q-17 -55 -60 -80h-37q-60 40 -60 93zM644 728q17 54 61 79 h36q61 -39 61 -92q-17 -55 -61 -80h-36q-61 40 -61 93zM644 1363q17 55 61 79h36q61 -39 61 -92q-17 -55 -61 -80h-36q-61 40 -61 93zM826 93q16 54 60 79h37q60 -40 60 -93q-17 -54 -60 -79h-37q-60 40 -60 93zM826 304q16 55 60 80h37q60 -40 60 -93q-17 -54 -60 -79h-37 q-60 39 -60 92zM826 516q16 55 60 79h37q60 -39 60 -92q-17 -55 -60 -80h-37q-60 40 -60 93zM826 728q16 54 60 79h37q60 -39 60 -92q-17 -55 -60 -80h-37q-60 40 -60 93zM826 940q16 54 60 79h37q60 -40 60 -93q-17 -54 -60 -79h-37q-60 40 -60 93zM826 1151q16 55 60 80 h37q60 -40 60 -93q-17 -55 -60 -79h-37q-60 39 -60 92z" />
<glyph unicode="b" d="M100 93q17 54 60 79h37q60 -40 60 -93q-16 -54 -60 -79h-37q-60 40 -60 93zM100 304q17 55 60 80h37q60 -40 60 -93q-16 -54 -60 -79h-37q-60 39 -60 92zM100 516q17 55 60 79h37q60 -39 60 -92q-16 -55 -60 -80h-37q-60 40 -60 93zM100 728q17 54 60 79h37 q60 -39 60 -92q-16 -55 -60 -80h-37q-60 40 -60 93zM100 940q17 54 60 79h37q60 -40 60 -93q-16 -54 -60 -79h-37q-60 40 -60 93zM100 1151q17 55 60 80h37q60 -40 60 -93q-16 -55 -60 -79h-37q-60 39 -60 92zM100 1363q17 55 60 79h37q60 -39 60 -92q-16 -55 -60 -80h-37 q-60 40 -60 93zM281 93q17 54 61 79h36q61 -40 61 -93q-17 -54 -61 -79h-36q-61 40 -61 93zM281 728q17 54 61 79h36q61 -39 61 -92q-17 -55 -61 -80h-36q-61 40 -61 93zM281 1363q17 55 61 79h36q61 -39 61 -92q-17 -55 -61 -80h-36q-61 40 -61 93zM463 93q17 54 60 79h37 q60 -40 60 -93q-17 -54 -60 -79h-37q-60 40 -60 93zM463 728q17 54 60 79h37q60 -39 60 -92q-17 -55 -60 -80h-37q-60 40 -60 93zM463 1363q17 55 60 79h37q60 -39 60 -92q-17 -55 -60 -80h-37q-60 40 -60 93zM644 93q17 54 61 79h36q61 -40 61 -93q-17 -54 -61 -79h-36 q-61 40 -61 93zM644 728q17 54 61 79h36q61 -39 61 -92q-17 -55 -61 -80h-36q-61 40 -61 93zM644 1363q17 55 61 79h36q61 -39 61 -92q-17 -55 -61 -80h-36q-61 40 -61 93zM826 304q16 55 60 80h37q60 -40 60 -93q-17 -54 -60 -79h-37q-60 39 -60 92zM826 516q16 55 60 79 h37q60 -39 60 -92q-17 -55 -60 -80h-37q-60 40 -60 93zM826 940q16 54 60 79h37q60 -40 60 -93q-17 -54 -60 -79h-37q-60 40 -60 93zM826 1151q16 55 60 80h37q60 -40 60 -93q-17 -55 -60 -79h-37q-60 39 -60 92z" />
<glyph unicode="c" d="M100 304q17 55 60 80h37q60 -40 60 -93q-16 -54 -60 -79h-37q-60 39 -60 92zM100 516q17 55 60 79h37q60 -39 60 -92q-16 -55 -60 -80h-37q-60 40 -60 93zM100 728q17 54 60 79h37q60 -39 60 -92q-16 -55 -60 -80h-37q-60 40 -60 93zM100 940q17 54 60 79h37 q60 -40 60 -93q-16 -54 -60 -79h-37q-60 40 -60 93zM100 1151q17 55 60 80h37q60 -40 60 -93q-16 -55 -60 -79h-37q-60 39 -60 92zM281 93q17 54 61 79h36q61 -40 61 -93q-17 -54 -61 -79h-36q-61 40 -61 93zM281 1363q17 55 61 79h36q61 -39 61 -92q-17 -55 -61 -80h-36 q-61 40 -61 93zM463 93q17 54 60 79h37q60 -40 60 -93q-17 -54 -60 -79h-37q-60 40 -60 93zM463 1363q17 55 60 79h37q60 -39 60 -92q-17 -55 -60 -80h-37q-60 40 -60 93zM644 93q17 54 61 79h36q61 -40 61 -93q-17 -54 -61 -79h-36q-61 40 -61 93zM644 1363q17 55 61 79h36 q61 -39 61 -92q-17 -55 -61 -80h-36q-61 40 -61 93zM826 304q16 55 60 80h37q60 -40 60 -93q-17 -54 -60 -79h-37q-60 39 -60 92zM826 1151q16 55 60 80h37q60 -40 60 -93q-17 -55 -60 -79h-37q-60 39 -60 92z" />
<glyph unicode="d" d="M100 93q17 54 60 79h37q60 -40 60 -93q-16 -54 -60 -79h-37q-60 40 -60 93zM100 304q17 55 60 80h37q60 -40 60 -93q-16 -54 -60 -79h-37q-60 39 -60 92zM100 516q17 55 60 79h37q60 -39 60 -92q-16 -55 -60 -80h-37q-60 40 -60 93zM100 728q17 54 60 79h37 q60 -39 60 -92q-16 -55 -60 -80h-37q-60 40 -60 93zM100 940q17 54 60 79h37q60 -40 60 -93q-16 -54 -60 -79h-37q-60 40 -60 93zM100 1151q17 55 60 80h37q60 -40 60 -93q-16 -55 -60 -79h-37q-60 39 -60 92zM100 1363q17 55 60 79h37q60 -39 60 -92q-16 -55 -60 -80h-37 q-60 40 -60 93zM281 93q17 54 61 79h36q61 -40 61 -93q-17 -54 -61 -79h-36q-61 40 -61 93zM281 1363q17 55 61 79h36q61 -39 61 -92q-17 -55 -61 -80h-36q-61 40 -61 93zM463 93q17 54 60 79h37q60 -40 60 -93q-17 -54 -60 -79h-37q-60 40 -60 93zM463 1363q17 55 60 79h37 q60 -39 60 -92q-17 -55 -60 -80h-37q-60 40 -60 93zM644 93q17 54 61 79h36q61 -40 61 -93q-17 -54 -61 -79h-36q-61 40 -61 93zM644 1363q17 55 61 79h36q61 -39 61 -92q-17 -55 -61 -80h-36q-61 40 -61 93zM826 304q16 55 60 80h37q60 -40 60 -93q-17 -54 -60 -79h-37 q-60 39 -60 92zM826 516q16 55 60 79h37q60 -39 60 -92q-17 -55 -60 -80h-37q-60 40 -60 93zM826 728q16 54 60 79h37q60 -39 60 -92q-17 -55 -60 -80h-37q-60 40 -60 93zM826 940q16 54 60 79h37q60 -40 60 -93q-17 -54 -60 -79h-37q-60 40 -60 93zM826 1151q16 55 60 80 h37q60 -40 60 -93q-17 -55 -60 -79h-37q-60 39 -60 92z" />
<glyph unicode="e" d="M100 93q17 54 60 79h37q60 -40 60 -93q-16 -54 -60 -79h-37q-60 40 -60 93zM100 304q17 55 60 80h37q60 -40 60 -93q-16 -54 -60 -79h-37q-60 39 -60 92zM100 516q17 55 60 79h37q60 -39 60 -92q-16 -55 -60 -80h-37q-60 40 -60 93zM100 728q17 54 60 79h37 q60 -39 60 -92q-16 -55 -60 -80h-37q-60 40 -60 93zM100 940q17 54 60 79h37q60 -40 60 -93q-16 -54 -60 -79h-37q-60 40 -60 93zM100 1151q17 55 60 80h37q60 -40 60 -93q-16 -55 -60 -79h-37q-60 39 -60 92zM100 1363q17 55 60 79h37q60 -39 60 -92q-16 -55 -60 -80h-37 q-60 40 -60 93zM281 93q17 54 61 79h36q61 -40 61 -93q-17 -54 -61 -79h-36q-61 40 -61 93zM281 728q17 54 61 79h36q61 -39 61 -92q-17 -55 -61 -80h-36q-61 40 -61 93zM281 1363q17 55 61 79h36q61 -39 61 -92q-17 -55 -61 -80h-36q-61 40 -61 93zM463 93q17 54 60 79h37 q60 -40 60 -93q-17 -54 -60 -79h-37q-60 40 -60 93zM463 728q17 54 60 79h37q60 -39 60 -92q-17 -55 -60 -80h-37q-60 40 -60 93zM463 1363q17 55 60 79h37q60 -39 60 -92q-17 -55 -60 -80h-37q-60 40 -60 93zM644 93q17 54 61 79h36q61 -40 61 -93q-17 -54 -61 -79h-36 q-61 40 -61 93zM644 728q17 54 61 79h36q61 -39 61 -92q-17 -55 -61 -80h-36q-61 40 -61 93zM644 1363q17 55 61 79h36q61 -39 61 -92q-17 -55 -61 -80h-36q-61 40 -61 93zM826 93q16 54 60 79h37q60 -40 60 -93q-17 -54 -60 -79h-37q-60 40 -60 93zM826 1363q16 55 60 79 h37q60 -39 60 -92q-17 -55 -60 -80h-37q-60 40 -60 93z" />
<glyph unicode="f" d="M100 93q17 54 60 79h37q60 -40 60 -93q-16 -54 -60 -79h-37q-60 40 -60 93zM100 304q17 55 60 80h37q60 -40 60 -93q-16 -54 -60 -79h-37q-60 39 -60 92zM100 516q17 55 60 79h37q60 -39 60 -92q-16 -55 -60 -80h-37q-60 40 -60 93zM100 728q17 54 60 79h37 q60 -39 60 -92q-16 -55 -60 -80h-37q-60 40 -60 93zM100 940q17 54 60 79h37q60 -40 60 -93q-16 -54 -60 -79h-37q-60 40 -60 93zM100 1151q17 55 60 80h37q60 -40 60 -93q-16 -55 -60 -79h-37q-60 39 -60 92zM100 1363q17 55 60 79h37q60 -39 60 -92q-16 -55 -60 -80h-37 q-60 40 -60 93zM281 728q17 54 61 79h36q61 -39 61 -92q-17 -55 -61 -80h-36q-61 40 -61 93zM281 1363q17 55 61 79h36q61 -39 61 -92q-17 -55 -61 -80h-36q-61 40 -61 93zM463 728q17 54 60 79h37q60 -39 60 -92q-17 -55 -60 -80h-37q-60 40 -60 93zM463 1363q17 55 60 79 h37q60 -39 60 -92q-17 -55 -60 -80h-37q-60 40 -60 93zM644 728q17 54 61 79h36q61 -39 61 -92q-17 -55 -61 -80h-36q-61 40 -61 93zM644 1363q17 55 61 79h36q61 -39 61 -92q-17 -55 -61 -80h-36q-61 40 -61 93zM826 1363q16 55 60 79h37q60 -39 60 -92q-17 -55 -60 -80 h-37q-60 40 -60 93z" />
<glyph unicode="g" d="M100 304q17 55 60 80h37q60 -40 60 -93q-16 -54 -60 -79h-37q-60 39 -60 92zM100 516q17 55 60 79h37q60 -39 60 -92q-16 -55 -60 -80h-37q-60 40 -60 93zM100 728q17 54 60 79h37q60 -39 60 -92q-16 -55 -60 -80h-37q-60 40 -60 93zM100 940q17 54 60 79h37 q60 -40 60 -93q-16 -54 -60 -79h-37q-60 40 -60 93zM100 1151q17 55 60 80h37q60 -40 60 -93q-16 -55 -60 -79h-37q-60 39 -60 92zM281 93q17 54 61 79h36q61 -40 61 -93q-17 -54 -61 -79h-36q-61 40 -61 93zM281 1363q17 55 61 79h36q61 -39 61 -92q-17 -55 -61 -80h-36 q-61 40 -61 93zM463 93q17 54 60 79h37q60 -40 60 -93q-17 -54 -60 -79h-37q-60 40 -60 93zM463 728q17 54 60 79h37q60 -39 60 -92q-17 -55 -60 -80h-37q-60 40 -60 93zM463 1363q17 55 60 79h37q60 -39 60 -92q-17 -55 -60 -80h-37q-60 40 -60 93zM644 93q17 54 61 79h36 q61 -40 61 -93q-17 -54 -61 -79h-36q-61 40 -61 93zM644 728q17 54 61 79h36q61 -39 61 -92q-17 -55 -61 -80h-36q-61 40 -61 93zM644 1363q17 55 61 79h36q61 -39 61 -92q-17 -55 -61 -80h-36q-61 40 -61 93zM826 304q16 55 60 80h37q60 -40 60 -93q-17 -54 -60 -79h-37 q-60 39 -60 92zM826 516q16 55 60 79h37q60 -39 60 -92q-17 -55 -60 -80h-37q-60 40 -60 93zM826 728q16 54 60 79h37q60 -39 60 -92q-17 -55 -60 -80h-37q-60 40 -60 93zM826 1151q16 55 60 80h37q60 -40 60 -93q-17 -55 -60 -79h-37q-60 39 -60 92z" />
<glyph unicode="h" d="M100 93q17 54 60 79h37q60 -40 60 -93q-16 -54 -60 -79h-37q-60 40 -60 93zM100 304q17 55 60 80h37q60 -40 60 -93q-16 -54 -60 -79h-37q-60 39 -60 92zM100 516q17 55 60 79h37q60 -39 60 -92q-16 -55 -60 -80h-37q-60 40 -60 93zM100 728q17 54 60 79h37 q60 -39 60 -92q-16 -55 -60 -80h-37q-60 40 -60 93zM100 940q17 54 60 79h37q60 -40 60 -93q-16 -54 -60 -79h-37q-60 40 -60 93zM100 1151q17 55 60 80h37q60 -40 60 -93q-16 -55 -60 -79h-37q-60 39 -60 92zM100 1363q17 55 60 79h37q60 -39 60 -92q-16 -55 -60 -80h-37 q-60 40 -60 93zM281 728q17 54 61 79h36q61 -39 61 -92q-17 -55 -61 -80h-36q-61 40 -61 93zM463 728q17 54 60 79h37q60 -39 60 -92q-17 -55 -60 -80h-37q-60 40 -60 93zM644 728q17 54 61 79h36q61 -39 61 -92q-17 -55 -61 -80h-36q-61 40 -61 93zM826 93q16 54 60 79h37 q60 -40 60 -93q-17 -54 -60 -79h-37q-60 40 -60 93zM826 304q16 55 60 80h37q60 -40 60 -93q-17 -54 -60 -79h-37q-60 39 -60 92zM826 516q16 55 60 79h37q60 -39 60 -92q-17 -55 -60 -80h-37q-60 40 -60 93zM826 728q16 54 60 79h37q60 -39 60 -92q-17 -55 -60 -80h-37 q-60 40 -60 93zM826 940q16 54 60 79h37q60 -40 60 -93q-17 -54 -60 -79h-37q-60 40 -60 93zM826 1151q16 55 60 80h37q60 -40 60 -93q-17 -55 -60 -79h-37q-60 39 -60 92zM826 1363q16 55 60 79h37q60 -39 60 -92q-17 -55 -60 -80h-37q-60 40 -60 93z" />
<glyph unicode="i" d="M463 93q17 54 60 79h37q60 -40 60 -93q-17 -54 -60 -79h-37q-60 40 -60 93zM463 304q17 55 60 80h37q60 -40 60 -93q-17 -54 -60 -79h-37q-60 39 -60 92zM463 516q17 55 60 79h37q60 -39 60 -92q-17 -55 -60 -80h-37q-60 40 -60 93zM463 728q17 54 60 79h37 q60 -39 60 -92q-17 -55 -60 -80h-37q-60 40 -60 93zM463 940q17 54 60 79h37q60 -40 60 -93q-17 -54 -60 -79h-37q-60 40 -60 93zM463 1151q17 55 60 80h37q60 -40 60 -93q-17 -55 -60 -79h-37q-60 39 -60 92zM463 1363q17 55 60 79h37q60 -39 60 -92q-17 -55 -60 -80h-37 q-60 40 -60 93z" />
<glyph unicode="j" d="M100 304q17 55 60 80h37q60 -40 60 -93q-16 -54 -60 -79h-37q-60 39 -60 92zM100 516q17 55 60 79h37q60 -39 60 -92q-16 -55 -60 -80h-37q-60 40 -60 93zM281 93q17 54 61 79h36q61 -40 61 -93q-17 -54 -61 -79h-36q-61 40 -61 93zM463 93q17 54 60 79h37q60 -40 60 -93 q-17 -54 -60 -79h-37q-60 40 -60 93zM644 93q17 54 61 79h36q61 -40 61 -93q-17 -54 -61 -79h-36q-61 40 -61 93zM826 304q16 55 60 80h37q60 -40 60 -93q-17 -54 -60 -79h-37q-60 39 -60 92zM826 516q16 55 60 79h37q60 -39 60 -92q-17 -55 -60 -80h-37q-60 40 -60 93z M826 728q16 54 60 79h37q60 -39 60 -92q-17 -55 -60 -80h-37q-60 40 -60 93zM826 940q16 54 60 79h37q60 -40 60 -93q-17 -54 -60 -79h-37q-60 40 -60 93zM826 1151q16 55 60 80h37q60 -40 60 -93q-17 -55 -60 -79h-37q-60 39 -60 92zM826 1363q16 55 60 79h37 q60 -39 60 -92q-17 -55 -60 -80h-37q-60 40 -60 93z" />
<glyph unicode="k" d="M100 93q17 54 60 79h37q60 -40 60 -93q-16 -54 -60 -79h-37q-60 40 -60 93zM100 304q17 55 60 80h37q60 -40 60 -93q-16 -54 -60 -79h-37q-60 39 -60 92zM100 516q17 55 60 79h37q60 -39 60 -92q-16 -55 -60 -80h-37q-60 40 -60 93zM100 728q17 54 60 79h37 q60 -39 60 -92q-16 -55 -60 -80h-37q-60 40 -60 93zM100 940q17 54 60 79h37q60 -40 60 -93q-16 -54 -60 -79h-37q-60 40 -60 93zM100 1151q17 55 60 80h37q60 -40 60 -93q-16 -55 -60 -79h-37q-60 39 -60 92zM100 1363q17 55 60 79h37q60 -39 60 -92q-16 -55 -60 -80h-37 q-60 40 -60 93zM281 728q17 54 61 79h36q61 -39 61 -92q-17 -55 -61 -80h-36q-61 40 -61 93zM463 516q17 55 60 79h37q60 -39 60 -92q-17 -55 -60 -80h-37q-60 40 -60 93zM463 940q17 54 60 79h37q60 -40 60 -93q-17 -54 -60 -79h-37q-60 40 -60 93zM644 304q17 55 61 80h36 q61 -40 61 -93q-17 -54 -61 -79h-36q-61 39 -61 92zM644 1151q17 55 61 80h36q61 -40 61 -93q-17 -55 -61 -79h-36q-61 39 -61 92zM826 93q16 54 60 79h37q60 -40 60 -93q-17 -54 -60 -79h-37q-60 40 -60 93zM826 1363q16 55 60 79h37q60 -39 60 -92q-17 -55 -60 -80h-37 q-60 40 -60 93z" />
<glyph unicode="l" d="M100 93q17 54 60 79h37q60 -40 60 -93q-16 -54 -60 -79h-37q-60 40 -60 93zM100 304q17 55 60 80h37q60 -40 60 -93q-16 -54 -60 -79h-37q-60 39 -60 92zM100 516q17 55 60 79h37q60 -39 60 -92q-16 -55 -60 -80h-37q-60 40 -60 93zM100 728q17 54 60 79h37 q60 -39 60 -92q-16 -55 -60 -80h-37q-60 40 -60 93zM100 940q17 54 60 79h37q60 -40 60 -93q-16 -54 -60 -79h-37q-60 40 -60 93zM100 1151q17 55 60 80h37q60 -40 60 -93q-16 -55 -60 -79h-37q-60 39 -60 92zM100 1363q17 55 60 79h37q60 -39 60 -92q-16 -55 -60 -80h-37 q-60 40 -60 93zM281 93q17 54 61 79h36q61 -40 61 -93q-17 -54 -61 -79h-36q-61 40 -61 93zM463 93q17 54 60 79h37q60 -40 60 -93q-17 -54 -60 -79h-37q-60 40 -60 93zM644 93q17 54 61 79h36q61 -40 61 -93q-17 -54 -61 -79h-36q-61 40 -61 93zM826 93q16 54 60 79h37 q60 -40 60 -93q-17 -54 -60 -79h-37q-60 40 -60 93z" />
<glyph unicode="m" d="M100 93q17 54 60 79h37q60 -40 60 -93q-16 -54 -60 -79h-37q-60 40 -60 93zM100 304q17 55 60 80h37q60 -40 60 -93q-16 -54 -60 -79h-37q-60 39 -60 92zM100 516q17 55 60 79h37q60 -39 60 -92q-16 -55 -60 -80h-37q-60 40 -60 93zM100 728q17 54 60 79h37 q60 -39 60 -92q-16 -55 -60 -80h-37q-60 40 -60 93zM100 940q17 54 60 79h37q60 -40 60 -93q-16 -54 -60 -79h-37q-60 40 -60 93zM100 1151q17 55 60 80h37q60 -40 60 -93q-16 -55 -60 -79h-37q-60 39 -60 92zM100 1363q17 55 60 79h37q60 -39 60 -92q-16 -55 -60 -80h-37 q-60 40 -60 93zM281 1151q17 55 61 80h36q61 -40 61 -93q-17 -55 -61 -79h-36q-61 39 -61 92zM463 728q17 54 60 79h37q60 -39 60 -92q-17 -55 -60 -80h-37q-60 40 -60 93zM463 940q17 54 60 79h37q60 -40 60 -93q-17 -54 -60 -79h-37q-60 40 -60 93zM644 1151q17 55 61 80 h36q61 -40 61 -93q-17 -55 -61 -79h-36q-61 39 -61 92zM826 93q16 54 60 79h37q60 -40 60 -93q-17 -54 -60 -79h-37q-60 40 -60 93zM826 304q16 55 60 80h37q60 -40 60 -93q-17 -54 -60 -79h-37q-60 39 -60 92zM826 516q16 55 60 79h37q60 -39 60 -92q-17 -55 -60 -80h-37 q-60 40 -60 93zM826 728q16 54 60 79h37q60 -39 60 -92q-17 -55 -60 -80h-37q-60 40 -60 93zM826 940q16 54 60 79h37q60 -40 60 -93q-17 -54 -60 -79h-37q-60 40 -60 93zM826 1151q16 55 60 80h37q60 -40 60 -93q-17 -55 -60 -79h-37q-60 39 -60 92zM826 1363q16 55 60 79 h37q60 -39 60 -92q-17 -55 -60 -80h-37q-60 40 -60 93z" />
<glyph unicode="n" d="M100 93q17 54 60 79h37q60 -40 60 -93q-16 -54 -60 -79h-37q-60 40 -60 93zM100 304q17 55 60 80h37q60 -40 60 -93q-16 -54 -60 -79h-37q-60 39 -60 92zM100 516q17 55 60 79h37q60 -39 60 -92q-16 -55 -60 -80h-37q-60 40 -60 93zM100 728q17 54 60 79h37 q60 -39 60 -92q-16 -55 -60 -80h-37q-60 40 -60 93zM100 940q17 54 60 79h37q60 -40 60 -93q-16 -54 -60 -79h-37q-60 40 -60 93zM100 1151q17 55 60 80h37q60 -40 60 -93q-16 -55 -60 -79h-37q-60 39 -60 92zM100 1363q17 55 60 79h37q60 -39 60 -92q-16 -55 -60 -80h-37 q-60 40 -60 93zM281 1151q17 55 61 80h36q61 -40 61 -93q-17 -55 -61 -79h-36q-61 39 -61 92zM463 940q17 54 60 79h37q60 -40 60 -93q-17 -54 -60 -79h-37q-60 40 -60 93zM644 728q17 54 61 79h36q61 -39 61 -92q-17 -55 -61 -80h-36q-61 40 -61 93zM826 93q16 54 60 79h37 q60 -40 60 -93q-17 -54 -60 -79h-37q-60 40 -60 93zM826 304q16 55 60 80h37q60 -40 60 -93q-17 -54 -60 -79h-37q-60 39 -60 92zM826 516q16 55 60 79h37q60 -39 60 -92q-17 -55 -60 -80h-37q-60 40 -60 93zM826 728q16 54 60 79h37q60 -39 60 -92q-17 -55 -60 -80h-37 q-60 40 -60 93zM826 940q16 54 60 79h37q60 -40 60 -93q-17 -54 -60 -79h-37q-60 40 -60 93zM826 1151q16 55 60 80h37q60 -40 60 -93q-17 -55 -60 -79h-37q-60 39 -60 92zM826 1363q16 55 60 79h37q60 -39 60 -92q-17 -55 -60 -80h-37q-60 40 -60 93z" />
<glyph unicode="o" d="M100 304q17 55 60 80h37q60 -40 60 -93q-16 -54 -60 -79h-37q-60 39 -60 92zM100 516q17 55 60 79h37q60 -39 60 -92q-16 -55 -60 -80h-37q-60 40 -60 93zM100 728q17 54 60 79h37q60 -39 60 -92q-16 -55 -60 -80h-37q-60 40 -60 93zM100 940q17 54 60 79h37 q60 -40 60 -93q-16 -54 -60 -79h-37q-60 40 -60 93zM100 1151q17 55 60 80h37q60 -40 60 -93q-16 -55 -60 -79h-37q-60 39 -60 92zM281 93q17 54 61 79h36q61 -40 61 -93q-17 -54 -61 -79h-36q-61 40 -61 93zM281 1363q17 55 61 79h36q61 -39 61 -92q-17 -55 -61 -80h-36 q-61 40 -61 93zM463 93q17 54 60 79h37q60 -40 60 -93q-17 -54 -60 -79h-37q-60 40 -60 93zM463 1363q17 55 60 79h37q60 -39 60 -92q-17 -55 -60 -80h-37q-60 40 -60 93zM644 93q17 54 61 79h36q61 -40 61 -93q-17 -54 -61 -79h-36q-61 40 -61 93zM644 1363q17 55 61 79h36 q61 -39 61 -92q-17 -55 -61 -80h-36q-61 40 -61 93zM826 304q16 55 60 80h37q60 -40 60 -93q-17 -54 -60 -79h-37q-60 39 -60 92zM826 516q16 55 60 79h37q60 -39 60 -92q-17 -55 -60 -80h-37q-60 40 -60 93zM826 728q16 54 60 79h37q60 -39 60 -92q-17 -55 -60 -80h-37 q-60 40 -60 93zM826 940q16 54 60 79h37q60 -40 60 -93q-17 -54 -60 -79h-37q-60 40 -60 93zM826 1151q16 55 60 80h37q60 -40 60 -93q-17 -55 -60 -79h-37q-60 39 -60 92z" />
<glyph unicode="p" d="M100 93q17 54 60 79h37q60 -40 60 -93q-16 -54 -60 -79h-37q-60 40 -60 93zM100 304q17 55 60 80h37q60 -40 60 -93q-16 -54 -60 -79h-37q-60 39 -60 92zM100 516q17 55 60 79h37q60 -39 60 -92q-16 -55 -60 -80h-37q-60 40 -60 93zM100 728q17 54 60 79h37 q60 -39 60 -92q-16 -55 -60 -80h-37q-60 40 -60 93zM100 940q17 54 60 79h37q60 -40 60 -93q-16 -54 -60 -79h-37q-60 40 -60 93zM100 1151q17 55 60 80h37q60 -40 60 -93q-16 -55 -60 -79h-37q-60 39 -60 92zM100 1363q17 55 60 79h37q60 -39 60 -92q-16 -55 -60 -80h-37 q-60 40 -60 93zM281 728q17 54 61 79h36q61 -39 61 -92q-17 -55 -61 -80h-36q-61 40 -61 93zM281 1363q17 55 61 79h36q61 -39 61 -92q-17 -55 -61 -80h-36q-61 40 -61 93zM463 728q17 54 60 79h37q60 -39 60 -92q-17 -55 -60 -80h-37q-60 40 -60 93zM463 1363q17 55 60 79 h37q60 -39 60 -92q-17 -55 -60 -80h-37q-60 40 -60 93zM644 728q17 54 61 79h36q61 -39 61 -92q-17 -55 -61 -80h-36q-61 40 -61 93zM644 1363q17 55 61 79h36q61 -39 61 -92q-17 -55 -61 -80h-36q-61 40 -61 93zM826 940q16 54 60 79h37q60 -40 60 -93q-17 -54 -60 -79h-37 q-60 40 -60 93zM826 1151q16 55 60 80h37q60 -40 60 -93q-17 -55 -60 -79h-37q-60 39 -60 92z" />
<glyph unicode="q" d="M100 304q17 55 60 80h37q60 -40 60 -93q-16 -54 -60 -79h-37q-60 39 -60 92zM100 516q17 55 60 79h37q60 -39 60 -92q-16 -55 -60 -80h-37q-60 40 -60 93zM100 728q17 54 60 79h37q60 -39 60 -92q-16 -55 -60 -80h-37q-60 40 -60 93zM100 940q17 54 60 79h37 q60 -40 60 -93q-16 -54 -60 -79h-37q-60 40 -60 93zM100 1151q17 55 60 80h37q60 -40 60 -93q-16 -55 -60 -79h-37q-60 39 -60 92zM281 93q17 54 61 79h36q61 -40 61 -93q-17 -54 -61 -79h-36q-61 40 -61 93zM281 1363q17 55 61 79h36q61 -39 61 -92q-17 -55 -61 -80h-36 q-61 40 -61 93zM463 93q17 54 60 79h37q60 -40 60 -93q-17 -54 -60 -79h-37q-60 40 -60 93zM463 516q17 55 60 79h37q60 -39 60 -92q-17 -55 -60 -80h-37q-60 40 -60 93zM463 1363q17 55 60 79h37q60 -39 60 -92q-17 -55 -60 -80h-37q-60 40 -60 93zM644 304q17 55 61 80h36 q61 -40 61 -93q-17 -54 -61 -79h-36q-61 39 -61 92zM644 1363q17 55 61 79h36q61 -39 61 -92q-17 -55 -61 -80h-36q-61 40 -61 93zM826 93q16 54 60 79h37q60 -40 60 -93q-17 -54 -60 -79h-37q-60 40 -60 93zM826 516q16 55 60 79h37q60 -39 60 -92q-17 -55 -60 -80h-37 q-60 40 -60 93zM826 728q16 54 60 79h37q60 -39 60 -92q-17 -55 -60 -80h-37q-60 40 -60 93zM826 940q16 54 60 79h37q60 -40 60 -93q-17 -54 -60 -79h-37q-60 40 -60 93zM826 1151q16 55 60 80h37q60 -40 60 -93q-17 -55 -60 -79h-37q-60 39 -60 92z" />
<glyph unicode="r" d="M100 93q17 54 60 79h37q60 -40 60 -93q-16 -54 -60 -79h-37q-60 40 -60 93zM100 304q17 55 60 80h37q60 -40 60 -93q-16 -54 -60 -79h-37q-60 39 -60 92zM100 516q17 55 60 79h37q60 -39 60 -92q-16 -55 -60 -80h-37q-60 40 -60 93zM100 728q17 54 60 79h37 q60 -39 60 -92q-16 -55 -60 -80h-37q-60 40 -60 93zM100 940q17 54 60 79h37q60 -40 60 -93q-16 -54 -60 -79h-37q-60 40 -60 93zM100 1151q17 55 60 80h37q60 -40 60 -93q-16 -55 -60 -79h-37q-60 39 -60 92zM100 1363q17 55 60 79h37q60 -39 60 -92q-16 -55 -60 -80h-37 q-60 40 -60 93zM281 728q17 54 61 79h36q61 -39 61 -92q-17 -55 -61 -80h-36q-61 40 -61 93zM281 1363q17 55 61 79h36q61 -39 61 -92q-17 -55 -61 -80h-36q-61 40 -61 93zM463 516q17 55 60 79h37q60 -39 60 -92q-17 -55 -60 -80h-37q-60 40 -60 93zM463 728q17 54 60 79 h37q60 -39 60 -92q-17 -55 -60 -80h-37q-60 40 -60 93zM463 1363q17 55 60 79h37q60 -39 60 -92q-17 -55 -60 -80h-37q-60 40 -60 93zM644 304q17 55 61 80h36q61 -40 61 -93q-17 -54 -61 -79h-36q-61 39 -61 92zM644 728q17 54 61 79h36q61 -39 61 -92q-17 -55 -61 -80h-36 q-61 40 -61 93zM644 1363q17 55 61 79h36q61 -39 61 -92q-17 -55 -61 -80h-36q-61 40 -61 93zM826 93q16 54 60 79h37q60 -40 60 -93q-17 -54 -60 -79h-37q-60 40 -60 93zM826 940q16 54 60 79h37q60 -40 60 -93q-17 -54 -60 -79h-37q-60 40 -60 93zM826 1151q16 55 60 80 h37q60 -40 60 -93q-17 -55 -60 -79h-37q-60 39 -60 92z" />
<glyph unicode="s" d="M100 304q17 55 60 80h37q60 -40 60 -93q-16 -54 -60 -79h-37q-60 39 -60 92zM100 940q17 54 60 79h37q60 -40 60 -93q-16 -54 -60 -79h-37q-60 40 -60 93zM100 1151q17 55 60 80h37q60 -40 60 -93q-16 -55 -60 -79h-37q-60 39 -60 92zM281 93q17 54 61 79h36 q61 -40 61 -93q-17 -54 -61 -79h-36q-61 40 -61 93zM281 728q17 54 61 79h36q61 -39 61 -92q-17 -55 -61 -80h-36q-61 40 -61 93zM281 1363q17 55 61 79h36q61 -39 61 -92q-17 -55 -61 -80h-36q-61 40 -61 93zM463 93q17 54 60 79h37q60 -40 60 -93q-17 -54 -60 -79h-37 q-60 40 -60 93zM463 728q17 54 60 79h37q60 -39 60 -92q-17 -55 -60 -80h-37q-60 40 -60 93zM463 1363q17 55 60 79h37q60 -39 60 -92q-17 -55 -60 -80h-37q-60 40 -60 93zM644 93q17 54 61 79h36q61 -40 61 -93q-17 -54 -61 -79h-36q-61 40 -61 93zM644 728q17 54 61 79h36 q61 -39 61 -92q-17 -55 -61 -80h-36q-61 40 -61 93zM644 1363q17 55 61 79h36q61 -39 61 -92q-17 -55 -61 -80h-36q-61 40 -61 93zM826 304q16 55 60 80h37q60 -40 60 -93q-17 -54 -60 -79h-37q-60 39 -60 92zM826 516q16 55 60 79h37q60 -39 60 -92q-17 -55 -60 -80h-37 q-60 40 -60 93zM826 1151q16 55 60 80h37q60 -40 60 -93q-17 -55 -60 -79h-37q-60 39 -60 92z" />
<glyph unicode="t" d="M100 1363q17 55 60 79h37q60 -39 60 -92q-16 -55 -60 -80h-37q-60 40 -60 93zM281 1363q17 55 61 79h36q61 -39 61 -92q-17 -55 -61 -80h-36q-61 40 -61 93zM463 93q17 54 60 79h37q60 -40 60 -93q-17 -54 -60 -79h-37q-60 40 -60 93zM463 304q17 55 60 80h37 q60 -40 60 -93q-17 -54 -60 -79h-37q-60 39 -60 92zM463 516q17 55 60 79h37q60 -39 60 -92q-17 -55 -60 -80h-37q-60 40 -60 93zM463 728q17 54 60 79h37q60 -39 60 -92q-17 -55 -60 -80h-37q-60 40 -60 93zM463 940q17 54 60 79h37q60 -40 60 -93q-17 -54 -60 -79h-37 q-60 40 -60 93zM463 1151q17 55 60 80h37q60 -40 60 -93q-17 -55 -60 -79h-37q-60 39 -60 92zM463 1363q17 55 60 79h37q60 -39 60 -92q-17 -55 -60 -80h-37q-60 40 -60 93zM644 1363q17 55 61 79h36q61 -39 61 -92q-17 -55 -61 -80h-36q-61 40 -61 93zM826 1363 q16 55 60 79h37q60 -39 60 -92q-17 -55 -60 -80h-37q-60 40 -60 93z" />
<glyph unicode="u" d="M100 304q17 55 60 80h37q60 -40 60 -93q-16 -54 -60 -79h-37q-60 39 -60 92zM100 516q17 55 60 79h37q60 -39 60 -92q-16 -55 -60 -80h-37q-60 40 -60 93zM100 728q17 54 60 79h37q60 -39 60 -92q-16 -55 -60 -80h-37q-60 40 -60 93zM100 940q17 54 60 79h37 q60 -40 60 -93q-16 -54 -60 -79h-37q-60 40 -60 93zM100 1151q17 55 60 80h37q60 -40 60 -93q-16 -55 -60 -79h-37q-60 39 -60 92zM100 1363q17 55 60 79h37q60 -39 60 -92q-16 -55 -60 -80h-37q-60 40 -60 93zM281 93q17 54 61 79h36q61 -40 61 -93q-17 -54 -61 -79h-36 q-61 40 -61 93zM463 93q17 54 60 79h37q60 -40 60 -93q-17 -54 -60 -79h-37q-60 40 -60 93zM644 93q17 54 61 79h36q61 -40 61 -93q-17 -54 -61 -79h-36q-61 40 -61 93zM826 304q16 55 60 80h37q60 -40 60 -93q-17 -54 -60 -79h-37q-60 39 -60 92zM826 516q16 55 60 79h37 q60 -39 60 -92q-17 -55 -60 -80h-37q-60 40 -60 93zM826 728q16 54 60 79h37q60 -39 60 -92q-17 -55 -60 -80h-37q-60 40 -60 93zM826 940q16 54 60 79h37q60 -40 60 -93q-17 -54 -60 -79h-37q-60 40 -60 93zM826 1151q16 55 60 80h37q60 -40 60 -93q-17 -55 -60 -79h-37 q-60 39 -60 92zM826 1363q16 55 60 79h37q60 -39 60 -92q-17 -55 -60 -80h-37q-60 40 -60 93z" />
<glyph unicode="v" d="M100 940q17 54 60 79h37q60 -40 60 -93q-16 -54 -60 -79h-37q-60 40 -60 93zM100 1151q17 55 60 80h37q60 -40 60 -93q-16 -55 -60 -79h-37q-60 39 -60 92zM100 1363q17 55 60 79h37q60 -39 60 -92q-16 -55 -60 -80h-37q-60 40 -60 93zM281 516q17 55 61 79h36 q61 -39 61 -92q-17 -55 -61 -80h-36q-61 40 -61 93zM281 728q17 54 61 79h36q61 -39 61 -92q-17 -55 -61 -80h-36q-61 40 -61 93zM463 93q17 54 60 79h37q60 -40 60 -93q-17 -54 -60 -79h-37q-60 40 -60 93zM463 304q17 55 60 80h37q60 -40 60 -93q-17 -54 -60 -79h-37 q-60 39 -60 92zM644 516q17 55 61 79h36q61 -39 61 -92q-17 -55 -61 -80h-36q-61 40 -61 93zM644 728q17 54 61 79h36q61 -39 61 -92q-17 -55 -61 -80h-36q-61 40 -61 93zM826 940q16 54 60 79h37q60 -40 60 -93q-17 -54 -60 -79h-37q-60 40 -60 93zM826 1151q16 55 60 80 h37q60 -40 60 -93q-17 -55 -60 -79h-37q-60 39 -60 92zM826 1363q16 55 60 79h37q60 -39 60 -92q-17 -55 -60 -80h-37q-60 40 -60 93z" />
<glyph unicode="w" d="M100 93q17 54 60 79h37q60 -40 60 -93q-16 -54 -60 -79h-37q-60 40 -60 93zM100 304q17 55 60 80h37q60 -40 60 -93q-16 -54 -60 -79h-37q-60 39 -60 92zM100 516q17 55 60 79h37q60 -39 60 -92q-16 -55 -60 -80h-37q-60 40 -60 93zM100 728q17 54 60 79h37 q60 -39 60 -92q-16 -55 -60 -80h-37q-60 40 -60 93zM100 940q17 54 60 79h37q60 -40 60 -93q-16 -54 -60 -79h-37q-60 40 -60 93zM100 1151q17 55 60 80h37q60 -40 60 -93q-16 -55 -60 -79h-37q-60 39 -60 92zM100 1363q17 55 60 79h37q60 -39 60 -92q-16 -55 -60 -80h-37 q-60 40 -60 93zM281 304q17 55 61 80h36q61 -40 61 -93q-17 -54 -61 -79h-36q-61 39 -61 92zM463 516q17 55 60 79h37q60 -39 60 -92q-17 -55 -60 -80h-37q-60 40 -60 93zM463 728q17 54 60 79h37q60 -39 60 -92q-17 -55 -60 -80h-37q-60 40 -60 93zM644 304q17 55 61 80h36 q61 -40 61 -93q-17 -54 -61 -79h-36q-61 39 -61 92zM826 93q16 54 60 79h37q60 -40 60 -93q-17 -54 -60 -79h-37q-60 40 -60 93zM826 304q16 55 60 80h37q60 -40 60 -93q-17 -54 -60 -79h-37q-60 39 -60 92zM826 516q16 55 60 79h37q60 -39 60 -92q-17 -55 -60 -80h-37 q-60 40 -60 93zM826 728q16 54 60 79h37q60 -39 60 -92q-17 -55 -60 -80h-37q-60 40 -60 93zM826 940q16 54 60 79h37q60 -40 60 -93q-17 -54 -60 -79h-37q-60 40 -60 93zM826 1151q16 55 60 80h37q60 -40 60 -93q-17 -55 -60 -79h-37q-60 39 -60 92zM826 1363q16 55 60 79 h37q60 -39 60 -92q-17 -55 -60 -80h-37q-60 40 -60 93z" />
<glyph unicode="x" d="M100 93q17 54 60 79h37q60 -40 60 -93q-16 -54 -60 -79h-37q-60 40 -60 93zM100 304q17 55 60 80h37q60 -40 60 -93q-16 -54 -60 -79h-37q-60 39 -60 92zM100 1151q17 55 60 80h37q60 -40 60 -93q-16 -55 -60 -79h-37q-60 39 -60 92zM100 1363q17 55 60 79h37 q60 -39 60 -92q-16 -55 -60 -80h-37q-60 40 -60 93zM281 516q17 55 61 79h36q61 -39 61 -92q-17 -55 -61 -80h-36q-61 40 -61 93zM281 940q17 54 61 79h36q61 -40 61 -93q-17 -54 -61 -79h-36q-61 40 -61 93zM463 728q17 54 60 79h37q60 -39 60 -92q-17 -55 -60 -80h-37 q-60 40 -60 93zM644 516q17 55 61 79h36q61 -39 61 -92q-17 -55 -61 -80h-36q-61 40 -61 93zM644 940q17 54 61 79h36q61 -40 61 -93q-17 -54 -61 -79h-36q-61 40 -61 93zM826 93q16 54 60 79h37q60 -40 60 -93q-17 -54 -60 -79h-37q-60 40 -60 93zM826 304q16 55 60 80h37 q60 -40 60 -93q-17 -54 -60 -79h-37q-60 39 -60 92zM826 1151q16 55 60 80h37q60 -40 60 -93q-17 -55 -60 -79h-37q-60 39 -60 92zM826 1363q16 55 60 79h37q60 -39 60 -92q-17 -55 -60 -80h-37q-60 40 -60 93z" />
<glyph unicode="y" d="M100 940q17 54 60 79h37q60 -40 60 -93q-16 -54 -60 -79h-37q-60 40 -60 93zM100 1151q17 55 60 80h37q60 -40 60 -93q-16 -55 -60 -79h-37q-60 39 -60 92zM100 1363q17 55 60 79h37q60 -39 60 -92q-16 -55 -60 -80h-37q-60 40 -60 93zM281 728q17 54 61 79h36 q61 -39 61 -92q-17 -55 -61 -80h-36q-61 40 -61 93zM463 93q17 54 60 79h37q60 -40 60 -93q-17 -54 -60 -79h-37q-60 40 -60 93zM463 304q17 55 60 80h37q60 -40 60 -93q-17 -54 -60 -79h-37q-60 39 -60 92zM463 516q17 55 60 79h37q60 -39 60 -92q-17 -55 -60 -80h-37 q-60 40 -60 93zM644 728q17 54 61 79h36q61 -39 61 -92q-17 -55 -61 -80h-36q-61 40 -61 93zM826 940q16 54 60 79h37q60 -40 60 -93q-17 -54 -60 -79h-37q-60 40 -60 93zM826 1151q16 55 60 80h37q60 -40 60 -93q-17 -55 -60 -79h-37q-60 39 -60 92zM826 1363q16 55 60 79 h37q60 -39 60 -92q-17 -55 -60 -80h-37q-60 40 -60 93z" />
<glyph unicode="z" d="M100 93q17 54 60 79h37q60 -40 60 -93q-16 -54 -60 -79h-37q-60 40 -60 93zM100 304q17 55 60 80h37q60 -40 60 -93q-16 -54 -60 -79h-37q-60 39 -60 92zM100 1363q17 55 60 79h37q60 -39 60 -92q-16 -55 -60 -80h-37q-60 40 -60 93zM281 93q17 54 61 79h36 q61 -40 61 -93q-17 -54 -61 -79h-36q-61 40 -61 93zM281 516q17 55 61 79h36q61 -39 61 -92q-17 -55 -61 -80h-36q-61 40 -61 93zM281 1363q17 55 61 79h36q61 -39 61 -92q-17 -55 -61 -80h-36q-61 40 -61 93zM463 93q17 54 60 79h37q60 -40 60 -93q-17 -54 -60 -79h-37 q-60 40 -60 93zM463 728q17 54 60 79h37q60 -39 60 -92q-17 -55 -60 -80h-37q-60 40 -60 93zM463 1363q17 55 60 79h37q60 -39 60 -92q-17 -55 -60 -80h-37q-60 40 -60 93zM644 93q17 54 61 79h36q61 -40 61 -93q-17 -54 -61 -79h-36q-61 40 -61 93zM644 940q17 54 61 79h36 q61 -40 61 -93q-17 -54 -61 -79h-36q-61 40 -61 93zM644 1363q17 55 61 79h36q61 -39 61 -92q-17 -55 -61 -80h-36q-61 40 -61 93zM826 93q16 54 60 79h37q60 -40 60 -93q-17 -54 -60 -79h-37q-60 40 -60 93zM826 1151q16 55 60 80h37q60 -40 60 -93q-17 -55 -60 -79h-37 q-60 39 -60 92zM826 1363q16 55 60 79h37q60 -39 60 -92q-17 -55 -60 -80h-37q-60 40 -60 93z" />
<glyph unicode="{" d="M100 728q17 54 60 79h37q60 -39 60 -92q-16 -55 -60 -80h-37q-60 40 -60 93zM281 304q17 55 61 80h36q61 -40 61 -93q-17 -54 -61 -79h-36q-61 39 -61 92zM281 516q17 55 61 79h36q61 -39 61 -92q-17 -55 -61 -80h-36q-61 40 -61 93zM281 940q17 54 61 79h36 q61 -40 61 -93q-17 -54 -61 -79h-36q-61 40 -61 93zM281 1151q17 55 61 80h36q61 -40 61 -93q-17 -55 -61 -79h-36q-61 39 -61 92zM463 93q17 54 60 79h37q60 -40 60 -93q-17 -54 -60 -79h-37q-60 40 -60 93zM463 1363q17 55 60 79h37q60 -39 60 -92q-17 -55 -60 -80h-37 q-60 40 -60 93z" />
<glyph unicode="|" d="M463 93q17 54 60 79h37q60 -40 60 -93q-17 -54 -60 -79h-37q-60 40 -60 93zM463 304q17 55 60 80h37q60 -40 60 -93q-17 -54 -60 -79h-37q-60 39 -60 92zM463 516q17 55 60 79h37q60 -39 60 -92q-17 -55 -60 -80h-37q-60 40 -60 93zM463 728q17 54 60 79h37 q60 -39 60 -92q-17 -55 -60 -80h-37q-60 40 -60 93zM463 940q17 54 60 79h37q60 -40 60 -93q-17 -54 -60 -79h-37q-60 40 -60 93zM463 1151q17 55 60 80h37q60 -40 60 -93q-17 -55 -60 -79h-37q-60 39 -60 92zM463 1363q17 55 60 79h37q60 -39 60 -92q-17 -55 -60 -80h-37 q-60 40 -60 93z" />
<glyph unicode="}" d="M463 93q17 54 60 79h37q60 -40 60 -93q-17 -54 -60 -79h-37q-60 40 -60 93zM463 1363q17 55 60 79h37q60 -39 60 -92q-17 -55 -60 -80h-37q-60 40 -60 93zM644 304q17 55 61 80h36q61 -40 61 -93q-17 -54 -61 -79h-36q-61 39 -61 92zM644 516q17 55 61 79h36 q61 -39 61 -92q-17 -55 -61 -80h-36q-61 40 -61 93zM644 940q17 54 61 79h36q61 -40 61 -93q-17 -54 -61 -79h-36q-61 40 -61 93zM644 1151q17 55 61 80h36q61 -40 61 -93q-17 -55 -61 -79h-36q-61 39 -61 92zM826 728q16 54 60 79h37q60 -39 60 -92q-17 -55 -60 -80h-37 q-60 40 -60 93z" />
<glyph unicode="~" d="M100 516q17 55 60 79h37q60 -39 60 -92q-16 -55 -60 -80h-37q-60 40 -60 93zM281 728q17 54 61 79h36q61 -39 61 -92q-17 -55 -61 -80h-36q-61 40 -61 93zM463 728q17 54 60 79h37q60 -39 60 -92q-17 -55 -60 -80h-37q-60 40 -60 93zM644 516q17 55 61 79h36 q61 -39 61 -92q-17 -55 -61 -80h-36q-61 40 -61 93zM826 728q16 54 60 79h37q60 -39 60 -92q-17 -55 -60 -80h-37q-60 40 -60 93z" />
<glyph unicode="&#xa0;" />
<glyph unicode="&#xa1;" d="M463 93q17 54 60 79h37q60 -40 60 -93q-17 -54 -60 -79h-37q-60 40 -60 93zM463 304q17 55 60 80h37q60 -40 60 -93q-17 -54 -60 -79h-37q-60 39 -60 92zM463 516q17 55 60 79h37q60 -39 60 -92q-17 -55 -60 -80h-37q-60 40 -60 93zM463 728q17 54 60 79h37 q60 -39 60 -92q-17 -55 -60 -80h-37q-60 40 -60 93zM463 940q17 54 60 79h37q60 -40 60 -93q-17 -54 -60 -79h-37q-60 40 -60 93zM463 1363q17 55 60 79h37q60 -39 60 -92q-17 -55 -60 -80h-37q-60 40 -60 93z" />
<glyph unicode="&#xa2;" d="M100 516q17 55 60 79h37q60 -39 60 -92q-16 -55 -60 -80h-37q-60 40 -60 93zM100 728q17 54 60 79h37q60 -39 60 -92q-16 -55 -60 -80h-37q-60 40 -60 93zM100 940q17 54 60 79h37q60 -40 60 -93q-16 -54 -60 -79h-37q-60 40 -60 93zM281 304q17 55 61 80h36 q61 -40 61 -93q-17 -54 -61 -79h-36q-61 39 -61 92zM281 1151q17 55 61 80h36q61 -40 61 -93q-17 -55 -61 -79h-36q-61 39 -61 92zM463 93q17 54 60 79h37q60 -40 60 -93q-17 -54 -60 -79h-37q-60 40 -60 93zM463 304q17 55 60 80h37q60 -40 60 -93q-17 -54 -60 -79h-37 q-60 39 -60 92zM463 1151q17 55 60 80h37q60 -40 60 -93q-17 -55 -60 -79h-37q-60 39 -60 92zM463 1363q17 55 60 79h37q60 -39 60 -92q-17 -55 -60 -80h-37q-60 40 -60 93zM644 304q17 55 61 80h36q61 -40 61 -93q-17 -54 -61 -79h-36q-61 39 -61 92zM644 1151q17 55 61 80 h36q61 -40 61 -93q-17 -55 -61 -79h-36q-61 39 -61 92zM826 516q16 55 60 79h37q60 -39 60 -92q-17 -55 -60 -80h-37q-60 40 -60 93zM826 940q16 54 60 79h37q60 -40 60 -93q-17 -54 -60 -79h-37q-60 40 -60 93z" />
<glyph unicode="&#xa3;" d="M100 93q17 54 60 79h37q60 -40 60 -93q-16 -54 -60 -79h-37q-60 40 -60 93zM100 728q17 54 60 79h37q60 -39 60 -92q-16 -55 -60 -80h-37q-60 40 -60 93zM281 93q17 54 61 79h36q61 -40 61 -93q-17 -54 -61 -79h-36q-61 40 -61 93zM281 304q17 55 61 80h36q61 -40 61 -93 q-17 -54 -61 -79h-36q-61 39 -61 92zM281 516q17 55 61 79h36q61 -39 61 -92q-17 -55 -61 -80h-36q-61 40 -61 93zM281 728q17 54 61 79h36q61 -39 61 -92q-17 -55 -61 -80h-36q-61 40 -61 93zM281 940q17 54 61 79h36q61 -40 61 -93q-17 -54 -61 -79h-36q-61 40 -61 93z M281 1151q17 55 61 80h36q61 -40 61 -93q-17 -55 -61 -79h-36q-61 39 -61 92zM463 93q17 54 60 79h37q60 -40 60 -93q-17 -54 -60 -79h-37q-60 40 -60 93zM463 728q17 54 60 79h37q60 -39 60 -92q-17 -55 -60 -80h-37q-60 40 -60 93zM463 1363q17 55 60 79h37q60 -39 60 -92 q-17 -55 -60 -80h-37q-60 40 -60 93zM644 93q17 54 61 79h36q61 -40 61 -93q-17 -54 -61 -79h-36q-61 40 -61 93zM644 1363q17 55 61 79h36q61 -39 61 -92q-17 -55 -61 -80h-36q-61 40 -61 93zM826 93q16 54 60 79h37q60 -40 60 -93q-17 -54 -60 -79h-37q-60 40 -60 93z M826 1151q16 55 60 80h37q60 -40 60 -93q-17 -55 -60 -79h-37q-60 39 -60 92z" />
<glyph unicode="&#xa4;" horiz-adv-x="1014" d="M122 413l118 117q-32 46 -48 103q-12 42 -12 84q0 44 13 87q16 55 47 99l-118 118l80 81l118 -118q44 30 99 46q44 14 89 14q41 0 83 -12q57 -17 102 -48l118 118l80 -81l-117 -117q31 -46 48 -102q12 -42 12 -85q0 -42 -12 -85q-17 -56 -48 -102l117 -117l-80 -81 l-118 118q-45 -32 -101 -48q-42 -12 -85 -12q-42 0 -85 12q-57 16 -102 48l-118 -118zM284 716q0 -28 9 -56q16 -59 57 -100q41 -40 99 -57q29 -8 58 -8t58 8q58 17 99 57q40 41 57 99q9 29 9 58t-9 58q-17 58 -57 99q-41 40 -100 57q-29 8 -58 8t-58 -9q-58 -17 -98 -56 q-39 -40 -56 -98q-10 -30 -10 -60z" />
<glyph unicode="&#xa5;" d="M100 940q17 54 60 79h37q60 -40 60 -93q-16 -54 -60 -79h-37q-60 40 -60 93zM100 1151q17 55 60 80h37q60 -40 60 -93q-16 -55 -60 -79h-37q-60 39 -60 92zM100 1363q17 55 60 79h37q60 -39 60 -92q-16 -55 -60 -80h-37q-60 40 -60 93zM281 309q17 54 61 79h36 q61 -39 61 -92q-17 -55 -61 -80h-36q-61 40 -61 93zM281 728q17 54 61 79h36q61 -39 61 -92q-17 -55 -61 -80h-36q-61 40 -61 93zM463 93q17 54 60 79h37q60 -40 60 -93q-17 -54 -60 -79h-37q-60 40 -60 93zM463 304q17 55 60 80h37q60 -40 60 -93q-17 -54 -60 -79h-37 q-60 39 -60 92zM463 309q17 54 60 79h37q60 -39 60 -92q-17 -55 -60 -80h-37q-60 40 -60 93zM463 516q17 55 60 79h37q60 -39 60 -92q-17 -55 -60 -80h-37q-60 40 -60 93zM644 309q17 54 61 79h36q61 -39 61 -92q-17 -55 -61 -80h-36q-61 40 -61 93zM644 728q17 54 61 79h36 q61 -39 61 -92q-17 -55 -61 -80h-36q-61 40 -61 93zM826 940q16 54 60 79h37q60 -40 60 -93q-17 -54 -60 -79h-37q-60 40 -60 93zM826 1151q16 55 60 80h37q60 -40 60 -93q-17 -55 -60 -79h-37q-60 39 -60 92zM826 1363q16 55 60 79h37q60 -39 60 -92q-17 -55 -60 -80h-37 q-60 40 -60 93z" />
<glyph unicode="&#xa6;" d="M463 93q17 54 60 79h37q60 -40 60 -93q-17 -54 -60 -79h-37q-60 40 -60 93zM463 304q17 55 60 80h37q60 -40 60 -93q-17 -54 -60 -79h-37q-60 39 -60 92zM463 516q17 55 60 79h37q60 -39 60 -92q-17 -55 -60 -80h-37q-60 40 -60 93zM463 940q17 54 60 79h37 q60 -40 60 -93q-17 -54 -60 -79h-37q-60 40 -60 93zM463 1151q17 55 60 80h37q60 -40 60 -93q-17 -55 -60 -79h-37q-60 39 -60 92zM463 1363q17 55 60 79h37q60 -39 60 -92q-17 -55 -60 -80h-37q-60 40 -60 93z" />
<glyph unicode="&#xa7;" horiz-adv-x="1014" d="M170 1130q0 148 89 237q82 79 216 86q8 1 17 1h3q66 0 163 -16.5t97 -41.5v-194h-51q-5 81 -80 132q-70 47 -149 51h-15q-78 0 -125 -44.5t-47 -117.5q0 -132 287 -269q149 -67 204.5 -143.5t55.5 -187.5q0 -171 -101 -282q-47 -39 -99 -64q108 -56 154 -118 q55 -77 55 -187q0 -171 -101 -283q-124 -102 -277 -105v1q-6 -1 -13 -1h-3q-66 0 -163 16.5t-97 41.5v194h51q5 -81 80 -132q68 -45 145 -50q113 6 185 69q72 64 72 165q0 125 -316 276q-123 64 -175.5 137t-52.5 177q0 148 89 237q67 65 170 82l-40 19q-123 64 -175.5 137 t-52.5 177zM297 571q0 -123 248 -250q56 16 97 53q73 65 73 166q0 5 -1 10h-2q-1 14 -4 27q-22 61 -113 127q-59 29 -126 29q-78 0 -125 -44.5t-47 -117.5z" />
<glyph unicode="&#xa8;" d="M281 1788q17 55 61 79h36q61 -39 61 -92q-17 -55 -61 -80h-36q-61 40 -61 93zM644 1788q17 55 61 79h36q61 -39 61 -92q-17 -55 -61 -80h-36q-61 40 -61 93z" />
<glyph unicode="&#xa9;" d="M100 304q17 55 60 80h37q60 -40 60 -93q-16 -54 -60 -79h-37q-60 39 -60 92zM100 516q17 55 60 79h37q60 -39 60 -92q-16 -55 -60 -80h-37q-60 40 -60 93zM100 728q17 54 60 79h37q60 -39 60 -92q-16 -55 -60 -80h-37q-60 40 -60 93zM100 940q17 54 60 79h37 q60 -40 60 -93q-16 -54 -60 -79h-37q-60 40 -60 93zM100 1151q17 55 60 80h37q60 -40 60 -93q-16 -55 -60 -79h-37q-60 39 -60 92zM281 93q17 54 61 79h36q61 -40 61 -93q-17 -54 -61 -79h-36q-61 40 -61 93zM281 516q17 55 61 79h36q61 -39 61 -92q-17 -55 -61 -80h-36 q-61 40 -61 93zM281 728q17 54 61 79h36q61 -39 61 -92q-17 -55 -61 -80h-36q-61 40 -61 93zM281 940q17 54 61 79h36q61 -40 61 -93q-17 -54 -61 -79h-36q-61 40 -61 93zM281 1363q17 55 61 79h36q61 -39 61 -92q-17 -55 -61 -80h-36q-61 40 -61 93zM463 93q17 54 60 79h37 q60 -40 60 -93q-17 -54 -60 -79h-37q-60 40 -60 93zM463 304q17 55 60 80h37q60 -40 60 -93q-17 -54 -60 -79h-37q-60 39 -60 92zM463 1151q17 55 60 80h37q60 -40 60 -93q-17 -55 -60 -79h-37q-60 39 -60 92zM463 1363q17 55 60 79h37q60 -39 60 -92q-17 -55 -60 -80h-37 q-60 40 -60 93zM644 93q17 54 61 79h36q61 -40 61 -93q-17 -54 -61 -79h-36q-61 40 -61 93zM644 516q17 55 61 79h36q61 -39 61 -92q-17 -55 -61 -80h-36q-61 40 -61 93zM644 940q17 54 61 79h36q61 -40 61 -93q-17 -54 -61 -79h-36q-61 40 -61 93zM644 1363q17 55 61 79h36 q61 -39 61 -92q-17 -55 -61 -80h-36q-61 40 -61 93zM826 304q16 55 60 80h37q60 -40 60 -93q-17 -54 -60 -79h-37q-60 39 -60 92zM826 516q16 55 60 79h37q60 -39 60 -92q-17 -55 -60 -80h-37q-60 40 -60 93zM826 728q16 54 60 79h37q60 -39 60 -92q-17 -55 -60 -80h-37 q-60 40 -60 93zM826 940q16 54 60 79h37q60 -40 60 -93q-17 -54 -60 -79h-37q-60 40 -60 93zM826 1151q16 55 60 80h37q60 -40 60 -93q-17 -55 -60 -79h-37q-60 39 -60 92z" />
<glyph unicode="&#xaa;" horiz-adv-x="783" d="M100 633q11 32 40 47h24q40 -24 40 -56q-11 -32 -40 -47h-24q-40 24 -40 56zM100 759q11 33 40 48h24q40 -24 40 -56q-11 -32 -40 -47h-24q-40 23 -40 55zM100 886q11 33 40 48h24q40 -24 40 -55q-11 -33 -40 -48h-24q-40 24 -40 55zM100 1014q11 32 40 47h24 q40 -23 40 -55q-11 -33 -40 -48h-24q-40 24 -40 56zM100 1141q11 32 40 47h24q40 -24 40 -56q-11 -32 -40 -47h-24q-40 24 -40 56zM100 1267q11 33 40 48h24q40 -24 40 -55q-11 -33 -40 -48h-24q-40 24 -40 55zM219 1014q12 32 41 47h23q41 -23 41 -55q-11 -33 -41 -48h-23 q-41 24 -41 56zM219 1395q12 33 41 47h23q41 -23 41 -55q-11 -33 -41 -48h-23q-41 24 -41 56zM340 1014q11 32 39 47h25q39 -23 39 -55q-11 -33 -39 -48h-25q-39 24 -39 56zM340 1395q11 33 39 47h25q39 -23 39 -55q-11 -33 -39 -48h-25q-39 24 -39 56zM459 1014 q11 32 40 47h24q40 -23 40 -55q-11 -33 -40 -48h-24q-40 24 -40 56zM459 1395q11 33 40 47h24q40 -23 40 -55q-11 -33 -40 -48h-24q-40 24 -40 56zM579 633q11 32 40 47h24q40 -24 40 -56q-11 -32 -40 -47h-24q-40 24 -40 56zM579 759q11 33 40 48h24q40 -24 40 -56 q-11 -32 -40 -47h-24q-40 23 -40 55zM579 886q11 33 40 48h24q40 -24 40 -55q-11 -33 -40 -48h-24q-40 24 -40 55zM579 1014q11 32 40 47h24q40 -23 40 -55q-11 -33 -40 -48h-24q-40 24 -40 56zM579 1141q11 32 40 47h24q40 -24 40 -56q-11 -32 -40 -47h-24q-40 24 -40 56z M579 1267q11 33 40 48h24q40 -24 40 -55q-11 -33 -40 -48h-24q-40 24 -40 55z" />
<glyph unicode="&#xab;" horiz-adv-x="1541" d="M281 728q17 54 61 79h36q61 -39 61 -92q-17 -55 -61 -80h-36q-61 40 -61 93zM463 516q17 55 60 79h37q60 -39 60 -92q-17 -55 -60 -80h-37q-60 40 -60 93zM463 940q17 54 60 79h37q60 -40 60 -93q-17 -54 -60 -79h-37q-60 40 -60 93zM644 304q17 55 61 80h36 q61 -40 61 -93q-17 -54 -61 -79h-36q-61 39 -61 92zM644 1151q17 55 61 80h36q61 -40 61 -93q-17 -55 -61 -79h-36q-61 39 -61 92zM739 728q17 54 61 79h36q61 -39 61 -92q-17 -55 -61 -80h-36q-61 40 -61 93zM921 516q17 55 60 79h37q60 -39 60 -92q-17 -55 -60 -80h-37 q-60 40 -60 93zM921 940q17 54 60 79h37q60 -40 60 -93q-17 -54 -60 -79h-37q-60 40 -60 93zM1102 304q17 55 61 80h36q61 -40 61 -93q-17 -54 -61 -79h-36q-61 39 -61 92zM1102 1151q17 55 61 80h36q61 -40 61 -93q-17 -55 -61 -79h-36q-61 39 -61 92z" />
<glyph unicode="&#xac;" horiz-adv-x="1014" d="M87 667v100h840v-491l-1 -1h-98v392h-741z" />
<glyph unicode="&#xad;" d="M281 728q17 54 61 79h36q61 -39 61 -92q-17 -55 -61 -80h-36q-61 40 -61 93zM463 728q17 54 60 79h37q60 -39 60 -92q-17 -55 -60 -80h-37q-60 40 -60 93zM644 728q17 54 61 79h36q61 -39 61 -92q-17 -55 -61 -80h-36q-61 40 -61 93z" />
<glyph unicode="&#xae;" d="M100 304q17 55 60 80h37q60 -40 60 -93q-16 -54 -60 -79h-37q-60 39 -60 92zM100 516q17 55 60 79h37q60 -39 60 -92q-16 -55 -60 -80h-37q-60 40 -60 93zM100 728q17 54 60 79h37q60 -39 60 -92q-16 -55 -60 -80h-37q-60 40 -60 93zM100 940q17 54 60 79h37 q60 -40 60 -93q-16 -54 -60 -79h-37q-60 40 -60 93zM100 1151q17 55 60 80h37q60 -40 60 -93q-16 -55 -60 -79h-37q-60 39 -60 92zM281 93q17 54 61 79h36q61 -40 61 -93q-17 -54 -61 -79h-36q-61 40 -61 93zM281 304q17 55 61 80h36q61 -40 61 -93q-17 -54 -61 -79h-36 q-61 39 -61 92zM281 516q17 55 61 79h36q61 -39 61 -92q-17 -55 -61 -80h-36q-61 40 -61 93zM281 728q17 54 61 79h36q61 -39 61 -92q-17 -55 -61 -80h-36q-61 40 -61 93zM281 940q17 54 61 79h36q61 -40 61 -93q-17 -54 -61 -79h-36q-61 40 -61 93zM281 1151q17 55 61 80 h36q61 -40 61 -93q-17 -55 -61 -79h-36q-61 39 -61 92zM281 1363q17 55 61 79h36q61 -39 61 -92q-17 -55 -61 -80h-36q-61 40 -61 93zM463 93q17 54 60 79h37q60 -40 60 -93q-17 -54 -60 -79h-37q-60 40 -60 93zM463 728q17 54 60 79h37q60 -39 60 -92q-17 -55 -60 -80h-37 q-60 40 -60 93zM463 1151q17 55 60 80h37q60 -40 60 -93q-17 -55 -60 -79h-37q-60 39 -60 92zM463 1363q17 55 60 79h37q60 -39 60 -92q-17 -55 -60 -80h-37q-60 40 -60 93zM644 93q17 54 61 79h36q61 -40 61 -93q-17 -54 -61 -79h-36q-61 40 -61 93zM644 304q17 55 61 80 h36q61 -40 61 -93q-17 -54 -61 -79h-36q-61 39 -61 92zM644 516q17 55 61 79h36q61 -39 61 -92q-17 -55 -61 -80h-36q-61 40 -61 93zM644 940q17 54 61 79h36q61 -40 61 -93q-17 -54 -61 -79h-36q-61 40 -61 93zM644 1363q17 55 61 79h36q61 -39 61 -92q-17 -55 -61 -80h-36 q-61 40 -61 93zM826 304q16 55 60 80h37q60 -40 60 -93q-17 -54 -60 -79h-37q-60 39 -60 92zM826 516q16 55 60 79h37q60 -39 60 -92q-17 -55 -60 -80h-37q-60 40 -60 93zM826 728q16 54 60 79h37q60 -39 60 -92q-17 -55 -60 -80h-37q-60 40 -60 93zM826 940q16 54 60 79h37 q60 -40 60 -93q-17 -54 -60 -79h-37q-60 40 -60 93zM826 1151q16 55 60 80h37q60 -40 60 -93q-17 -55 -60 -79h-37q-60 39 -60 92z" />
<glyph unicode="&#xaf;" d="M281 1576q17 55 61 80h36q61 -40 61 -93q-17 -55 -61 -79h-36q-61 39 -61 92zM463 1576q17 55 60 80h37q60 -40 60 -93q-17 -55 -60 -79h-37q-60 39 -60 92zM644 1576q17 55 61 80h36q61 -40 61 -93q-17 -55 -61 -79h-36q-61 39 -61 92z" />
<glyph unicode="&#xb0;" horiz-adv-x="674" d="M60 1164q0 116 81.5 197t197.5 81q115 0 196 -81.5t81 -196.5q0 -114 -82 -196t-197 -82q-117 0 -197 81t-80 197zM130 1163q0 -87 61 -147t148 -60t147 60t60 147t-60.5 148t-146.5 61t-147.5 -61t-61.5 -148z" />
<glyph unicode="&#xb1;" d="M100 93q17 54 60 79h37q60 -39 60 -92q-16 -55 -60 -80h-37q-60 40 -60 93zM100 728q17 54 60 79h37q60 -39 60 -92q-16 -55 -60 -80h-37q-60 40 -60 93zM281 93q17 54 61 79h36q61 -39 61 -92q-17 -55 -61 -80h-36q-61 40 -61 93zM281 728q17 54 61 79h36q61 -39 61 -92 q-17 -55 -61 -80h-36q-61 40 -61 93zM463 93q17 54 60 79h37q60 -39 60 -92q-17 -55 -60 -80h-37q-60 40 -60 93zM463 304q17 55 60 80h37q60 -40 60 -93q-17 -54 -60 -79h-37q-60 39 -60 92zM463 516q17 55 60 79h37q60 -39 60 -92q-17 -55 -60 -80h-37q-60 40 -60 93z M463 728q17 54 60 79h37q60 -39 60 -92q-17 -55 -60 -80h-37q-60 40 -60 93zM463 940q17 54 60 79h37q60 -40 60 -93q-17 -54 -60 -79h-37q-60 40 -60 93zM463 1151q17 55 60 80h37q60 -40 60 -93q-17 -55 -60 -79h-37q-60 39 -60 92zM644 93q17 54 61 79h36q61 -39 61 -92 q-17 -55 -61 -80h-36q-61 40 -61 93zM644 728q17 54 61 79h36q61 -39 61 -92q-17 -55 -61 -80h-36q-61 40 -61 93zM826 93q16 54 60 79h37q60 -39 60 -92q-17 -55 -60 -80h-37q-60 40 -60 93zM826 728q16 54 60 79h37q60 -39 60 -92q-17 -55 -60 -80h-37q-60 40 -60 93z" />
<glyph unicode="&#xb2;" horiz-adv-x="899" d="M137 615q14 42 57 65h41q56 -35 56 -78q-14 -42 -57 -65h-41q-56 34 -56 78zM137 742q14 42 57 65h41q56 -34 56 -78q-14 -42 -57 -65h-41q-56 34 -56 78zM137 869q14 43 57 65h41q56 -34 56 -78q-13 -42 -57 -65h-41q-56 34 -56 78zM137 1377q14 43 57 65h41 q56 -34 56 -77q-13 -43 -57 -66h-41q-56 34 -56 78zM255 615q14 42 58 65h39q57 -34 57 -78q-14 -42 -58 -65h-39q-57 34 -57 78zM255 996q14 42 58 65h39q57 -34 57 -78q-14 -42 -58 -65h-39q-57 34 -57 78zM255 1377q14 43 58 65h39q57 -34 57 -78q-14 -42 -58 -65h-39 q-57 34 -57 78zM373 615q14 42 57 65h41q56 -35 56 -78q-14 -42 -57 -65h-41q-56 34 -56 78zM373 996q14 42 57 65h41q56 -34 56 -78q-14 -42 -57 -65h-41q-56 34 -56 78zM373 1377q14 43 57 65h41q56 -34 56 -78q-14 -42 -57 -65h-41q-56 34 -56 78zM491 615q14 42 58 65 h39q57 -34 57 -78q-14 -42 -58 -65h-39q-57 34 -57 78zM491 996q14 42 58 65h39q57 -34 57 -78q-14 -42 -58 -65h-39q-57 34 -57 78zM491 1377q14 43 58 65h39q57 -34 57 -78q-14 -42 -58 -65h-39q-57 34 -57 78zM609 615q13 42 57 65h41q56 -35 56 -78q-14 -42 -57 -65h-41 q-56 34 -56 78zM609 1123q13 42 57 65h41q56 -34 56 -78q-14 -42 -57 -65h-41q-56 35 -56 78zM609 1250q13 42 57 65h41q56 -34 56 -78q-14 -43 -57 -65h-41q-56 34 -56 78z" />
<glyph unicode="&#xb3;" horiz-adv-x="899" d="M137 615q14 42 57 65h41q56 -35 56 -78q-14 -42 -57 -65h-41q-56 34 -56 78zM137 996q14 42 57 65h41q56 -34 56 -77q-13 -43 -57 -66h-41q-56 34 -56 78zM137 1377q14 43 57 65h41q56 -34 56 -77q-13 -43 -57 -66h-41q-56 34 -56 78zM255 615q14 42 58 65h39 q57 -34 57 -78q-14 -42 -58 -65h-39q-57 34 -57 78zM255 996q14 42 58 65h39q57 -34 57 -78q-14 -42 -58 -65h-39q-57 34 -57 78zM255 1377q14 43 58 65h39q57 -34 57 -78q-14 -42 -58 -65h-39q-57 34 -57 78zM373 615q14 42 57 65h41q56 -35 56 -78q-14 -42 -57 -65h-41 q-56 34 -56 78zM373 996q14 42 57 65h41q56 -34 56 -78q-14 -42 -57 -65h-41q-56 34 -56 78zM373 1377q14 43 57 65h41q56 -34 56 -78q-14 -42 -57 -65h-41q-56 34 -56 78zM491 615q14 42 58 65h39q57 -34 57 -78q-14 -42 -58 -65h-39q-57 34 -57 78zM491 996q14 42 58 65 h39q57 -34 57 -78q-14 -42 -58 -65h-39q-57 34 -57 78zM491 1377q14 43 58 65h39q57 -34 57 -78q-14 -42 -58 -65h-39q-57 34 -57 78zM609 741q13 43 57 66h41q56 -34 56 -78q-14 -42 -57 -65h-41q-56 34 -56 77zM609 869q13 43 57 65h41q56 -34 56 -78q-14 -42 -57 -65h-41 q-56 34 -56 78zM609 1123q13 42 57 65h41q56 -34 56 -78q-14 -42 -57 -65h-41q-56 35 -56 78zM609 1250q13 42 57 65h41q56 -34 56 -78q-14 -43 -57 -65h-41q-56 34 -56 78z" />
<glyph unicode="&#xb4;" d="M463 1576q17 55 60 80h37q60 -40 60 -93q-17 -55 -60 -79h-37q-60 39 -60 92zM644 1788q17 55 61 79h36q61 -39 61 -92q-17 -55 -61 -80h-36q-61 40 -61 93z" />
<glyph unicode="&#xb5;" d="M100 291q0 53 60 93h37q44 -25 60 -80q0 -53 -60 -92h-37q-43 25 -60 79zM100 503q0 53 60 92h37q44 -24 60 -79q0 -53 -60 -93h-37q-43 25 -60 80zM100 715q0 53 60 92h37q44 -25 60 -79q0 -53 -60 -93h-37q-43 25 -60 80zM100 926q0 53 60 93h37q44 -25 60 -79 q0 -53 -60 -93h-37q-43 25 -60 79zM103 -339q17 55 60 80h37q60 -40 60 -93q-16 -55 -60 -79h-37q-60 39 -60 92zM105 -121q17 55 61 80h36q61 -40 61 -93q-17 -55 -61 -79h-36q-61 39 -61 92zM107 91q17 55 60 79h37q60 -39 60 -92q-17 -55 -60 -80h-37q-60 40 -60 93z M281 79q0 53 61 93h36q44 -25 61 -79q0 -53 -61 -93h-36q-44 25 -61 79zM463 79q0 53 60 93h37q43 -25 60 -79q0 -53 -60 -93h-37q-43 25 -60 79zM644 79q0 53 61 93h36q44 -25 61 -79q0 -53 -61 -93h-36q-44 25 -61 79zM826 291q0 53 60 93h37q43 -25 60 -80q0 -53 -60 -92 h-37q-44 25 -60 79zM826 503q0 53 60 92h37q43 -24 60 -79q0 -53 -60 -93h-37q-44 25 -60 80zM826 715q0 53 60 92h37q43 -25 60 -79q0 -53 -60 -93h-37q-44 25 -60 80zM826 926q0 53 60 93h37q43 -25 60 -79q0 -53 -60 -93h-37q-44 25 -60 79z" />
<glyph unicode="&#xb6;" horiz-adv-x="1024" d="M93 1086q0 157 107.5 253t285.5 96h443v-70h-127v-1365h-82v1365h-166v-1365h-84v738q-174 8 -275.5 102.5t-101.5 245.5z" />
<glyph unicode="&#xb7;" d="M463 728q17 54 60 79h37q60 -39 60 -92q-17 -55 -60 -80h-37q-60 40 -60 93z" />
<glyph unicode="&#xb8;" d="M281 -316q17 55 61 80h36q61 -40 61 -93q-17 -55 -61 -79h-36q-61 39 -61 92zM463 -104q17 55 60 79h37q60 -39 60 -92q-17 -55 -60 -80h-37q-60 40 -60 93z" />
<glyph unicode="&#xb9;" horiz-adv-x="899" d="M373 615q14 42 57 65h41q56 -35 56 -78q-14 -42 -57 -65h-41q-56 34 -56 78zM373 742q14 42 57 65h41q56 -34 56 -78q-14 -42 -57 -65h-41q-56 34 -56 78zM373 869q14 43 57 65h41q56 -34 56 -78q-14 -42 -57 -65h-41q-56 34 -56 78zM373 996q14 42 57 65h41 q56 -34 56 -78q-14 -42 -57 -65h-41q-56 34 -56 78zM373 1123q14 42 57 65h41q56 -34 56 -78q-14 -42 -57 -65h-41q-56 35 -56 78zM373 1250q14 42 57 65h41q56 -34 56 -78q-14 -43 -57 -65h-41q-56 34 -56 78zM373 1377q14 43 57 65h41q56 -34 56 -78q-14 -42 -57 -65h-41 q-56 34 -56 78z" />
<glyph unicode="&#xba;" horiz-adv-x="783" d="M100 759q11 33 40 48h24q40 -24 40 -56q-11 -32 -40 -47h-24q-40 23 -40 55zM100 886q11 33 40 48h24q40 -24 40 -55q-11 -33 -40 -48h-24q-40 24 -40 55zM100 1014q11 32 40 47h24q40 -23 40 -55q-11 -33 -40 -48h-24q-40 24 -40 56zM100 1141q11 32 40 47h24 q40 -24 40 -56q-11 -32 -40 -47h-24q-40 24 -40 56zM100 1267q11 33 40 48h24q40 -24 40 -55q-11 -33 -40 -48h-24q-40 24 -40 55zM219 633q12 32 41 47h23q41 -24 41 -56q-11 -32 -41 -47h-23q-41 24 -41 56zM219 1395q12 33 41 47h23q41 -23 41 -55q-11 -33 -41 -48h-23 q-41 24 -41 56zM340 633q11 32 39 47h25q39 -24 39 -56q-11 -32 -39 -47h-25q-39 24 -39 56zM340 1395q11 33 39 47h25q39 -23 39 -55q-11 -33 -39 -48h-25q-39 24 -39 56zM459 633q11 32 40 47h24q40 -24 40 -56q-11 -32 -40 -47h-24q-40 24 -40 56zM459 1395q11 33 40 47 h24q40 -23 40 -55q-11 -33 -40 -48h-24q-40 24 -40 56zM579 759q11 33 40 48h24q40 -24 40 -56q-11 -32 -40 -47h-24q-40 23 -40 55zM579 886q11 33 40 48h24q40 -24 40 -55q-11 -33 -40 -48h-24q-40 24 -40 55zM579 1014q11 32 40 47h24q40 -23 40 -55q-11 -33 -40 -48h-24 q-40 24 -40 56zM579 1141q11 32 40 47h24q40 -24 40 -56q-11 -32 -40 -47h-24q-40 24 -40 56zM579 1267q11 33 40 48h24q40 -24 40 -55q-11 -33 -40 -48h-24q-40 24 -40 55z" />
<glyph unicode="&#xbb;" horiz-adv-x="1541" d="M281 304q17 55 61 80h36q61 -40 61 -93q-17 -54 -61 -79h-36q-61 39 -61 92zM281 1151q17 55 61 80h36q61 -40 61 -93q-17 -55 -61 -79h-36q-61 39 -61 92zM463 516q17 55 60 79h37q60 -39 60 -92q-17 -55 -60 -80h-37q-60 40 -60 93zM463 940q17 54 60 79h37 q60 -40 60 -93q-17 -54 -60 -79h-37q-60 40 -60 93zM644 728q17 54 61 79h36q61 -39 61 -92q-17 -55 -61 -80h-36q-61 40 -61 93zM739 304q17 55 61 80h36q61 -40 61 -93q-17 -54 -61 -79h-36q-61 39 -61 92zM739 1151q17 55 61 80h36q61 -40 61 -93q-17 -55 -61 -79h-36 q-61 39 -61 92zM921 516q17 55 60 79h37q60 -39 60 -92q-17 -55 -60 -80h-37q-60 40 -60 93zM921 940q17 54 60 79h37q60 -40 60 -93q-17 -54 -60 -79h-37q-60 40 -60 93zM1102 728q17 54 61 79h36q61 -39 61 -92q-17 -55 -61 -80h-36q-61 40 -61 93z" />
<glyph unicode="&#xbc;" horiz-adv-x="1192" d="M32 304q17 55 60 80h37q60 -40 60 -93q-16 -54 -60 -79h-37q-60 39 -60 92zM102 616q14 42 57 65h41q56 -35 56 -79q-14 -42 -57 -65h-41q-56 35 -56 79zM102 742q14 43 57 66h41q56 -35 56 -78q-14 -42 -57 -65h-41q-56 33 -56 77zM102 869q14 43 57 65h41 q56 -33 56 -77q-14 -43 -57 -66h-41q-56 35 -56 78zM102 997q14 42 57 65h41q56 -34 56 -78q-14 -43 -57 -66h-41q-56 35 -56 79zM102 1124q14 42 57 65h41q56 -35 56 -78q-14 -42 -57 -65h-41q-56 34 -56 78zM102 1250q14 43 57 66h41q56 -35 56 -78q-14 -43 -57 -65h-41 q-56 34 -56 77zM102 1378q14 42 57 65h41q56 -34 56 -78q-14 -43 -57 -66h-41q-56 35 -56 79zM213 516q17 55 61 79h36q61 -39 61 -92q-17 -55 -61 -80h-36q-61 40 -61 93zM395 728q17 54 60 79h37q60 -39 60 -92q-17 -55 -60 -80h-37q-60 40 -60 93zM501 459q15 42 58 65 h40q56 -34 56 -78q-13 -42 -57 -65h-40q-57 34 -57 78zM501 586q15 42 58 65h40q56 -35 56 -78q-13 -42 -57 -65h-40q-57 34 -57 78zM501 713q15 42 58 65h40q56 -34 56 -78q-13 -43 -57 -65h-40q-57 34 -57 78zM501 840q15 43 58 65h40q56 -34 56 -78q-13 -42 -57 -65h-40 q-57 34 -57 78zM576 940q17 54 61 79h36q61 -40 61 -93q-17 -54 -61 -79h-36q-61 40 -61 93zM619 459q14 42 58 65h40q57 -34 57 -78q-15 -43 -58 -65h-40q-57 34 -57 78zM737 459q15 42 57 65h41q56 -34 56 -78q-14 -42 -57 -65h-40q-57 34 -57 78zM758 1151q16 55 60 80 h37q60 -40 60 -93q-17 -55 -60 -79h-37q-60 39 -60 92zM855 459q14 42 58 65h40q57 -34 57 -78q-15 -43 -58 -65h-40q-57 34 -57 78zM973 78q14 42 58 65h40q56 -35 56 -78q-14 -42 -57 -65h-41q-56 34 -56 78zM973 204q14 43 58 66h40q56 -35 56 -78q-14 -42 -57 -65h-40 q-57 34 -57 77zM973 331q14 43 58 66h40q56 -34 56 -78q-14 -43 -57 -66h-41q-56 35 -56 78zM973 459q14 42 58 65h40q56 -34 56 -78q-14 -42 -57 -65h-41q-56 34 -56 78zM973 586q14 42 58 65h40q56 -35 56 -78q-14 -42 -57 -65h-41q-56 34 -56 78zM973 712q14 43 58 66h40 q56 -34 56 -78q-14 -43 -57 -65h-40q-57 34 -57 77zM973 840q14 43 58 65h40q56 -34 56 -78q-14 -42 -57 -65h-41q-56 34 -56 78z" />
<glyph unicode="&#xbd;" horiz-adv-x="1289" d="M90 304q17 55 60 80h37q60 -40 60 -93q-16 -54 -60 -79h-37q-60 39 -60 92zM128 615q15 42 58 65h40q57 -35 57 -79q-15 -42 -58 -65h-40q-57 35 -57 79zM128 741q15 43 58 66h40q57 -35 57 -78q-15 -42 -58 -65h-40q-57 33 -57 77zM128 868q15 43 58 65h40 q57 -33 57 -77q-15 -43 -58 -66h-40q-57 35 -57 78zM128 996q15 42 58 65h40q57 -34 57 -78q-15 -43 -58 -66h-40q-57 35 -57 79zM128 1123q15 42 58 65h40q57 -35 57 -78q-15 -42 -58 -65h-40q-57 34 -57 78zM128 1249q15 43 58 66h40q57 -35 57 -78q-15 -43 -58 -65h-40 q-57 34 -57 77zM128 1377q15 42 58 65h40q57 -34 57 -78q-15 -43 -58 -66h-40q-57 35 -57 79zM271 516q17 55 61 79h36q61 -39 61 -92q-17 -55 -61 -80h-36q-61 40 -61 93zM453 728q17 54 60 79h37q60 -39 60 -92q-17 -55 -60 -80h-37q-60 40 -60 93zM560 79q14 42 57 65h41 q56 -35 56 -79q-14 -42 -58 -65h-40q-56 35 -56 79zM560 205q14 43 57 66h41q56 -35 56 -78q-14 -43 -58 -65h-40q-56 33 -56 77zM560 332q14 43 57 65h40q57 -33 57 -77q-14 -43 -58 -66h-40q-56 35 -56 78zM560 840q14 43 57 66h40q57 -34 57 -78q-14 -43 -58 -66h-40 q-56 35 -56 78zM634 940q17 54 61 79h36q61 -40 61 -93q-17 -54 -61 -79h-36q-61 40 -61 93zM677 79q15 42 58 65h40q57 -35 57 -79q-14 -42 -58 -65h-40q-57 35 -57 79zM677 460q15 42 58 65h40q57 -34 57 -78q-14 -43 -58 -66h-40q-57 35 -57 79zM677 840q15 43 59 66h39 q57 -34 57 -78q-14 -43 -58 -66h-40q-57 35 -57 78zM796 79q14 42 57 65h40q57 -35 57 -79q-15 -42 -57 -65h-41q-56 35 -56 79zM796 460q14 42 57 65h40q57 -34 57 -78q-15 -43 -57 -66h-41q-56 35 -56 79zM796 840q14 43 57 66h40q57 -34 57 -78q-15 -43 -57 -66h-41 q-56 35 -56 78zM816 1151q16 55 60 80h37q60 -40 60 -93q-17 -55 -60 -79h-37q-60 39 -60 92zM913 79q15 42 58 65h40q57 -35 57 -79q-14 -42 -58 -65h-40q-57 35 -57 79zM913 460q15 42 58 65h40q57 -34 57 -78q-14 -43 -58 -66h-40q-57 35 -57 79zM913 840q15 43 58 66h40 q57 -34 57 -78q-14 -43 -58 -66h-40q-57 35 -57 78zM1032 78q13 43 57 66h40q57 -35 57 -79q-15 -42 -58 -65h-40q-56 35 -56 78zM1032 587q13 42 57 65h40q57 -35 57 -78q-15 -43 -58 -65h-40q-56 34 -56 78zM1032 713q13 43 57 66h40q57 -35 57 -78q-15 -43 -58 -65h-40 q-56 34 -56 77z" />
<glyph unicode="&#xbe;" horiz-adv-x="1453" d="M83 615q14 42 57 65h41q56 -34 56 -78q-14 -42 -57 -65h-41q-56 35 -56 78zM83 996q14 42 57 65h41q56 -33 56 -77q-13 -43 -57 -66h-41q-56 35 -56 78zM83 1377q14 43 57 65h41q56 -33 56 -77q-13 -43 -57 -66h-41q-56 35 -56 78zM201 615q14 43 58 65h39q57 -34 57 -78 q-14 -42 -58 -65h-39q-57 35 -57 78zM201 996q14 43 58 65h39q57 -33 57 -77q-14 -43 -58 -66h-39q-57 35 -57 78zM201 1377q14 43 58 65h39q57 -33 57 -77q-14 -43 -58 -66h-39q-57 35 -57 78zM275 304q17 55 60 80h37q60 -40 60 -93q-16 -54 -60 -79h-37q-60 39 -60 92z M319 615q14 42 57 65h41q56 -34 56 -78q-14 -42 -57 -65h-41q-56 35 -56 78zM319 996q14 42 57 65h41q56 -33 56 -77q-14 -43 -57 -66h-41q-56 35 -56 78zM319 1377q14 43 57 65h41q56 -33 56 -77q-14 -43 -57 -66h-41q-56 35 -56 78zM437 615q14 43 58 65h39q57 -34 57 -78 q-14 -42 -58 -65h-39q-57 35 -57 78zM437 996q14 43 58 65h39q57 -33 57 -77q-14 -43 -58 -66h-39q-57 35 -57 78zM437 1377q14 43 58 65h39q57 -33 57 -77q-14 -43 -58 -66h-39q-57 35 -57 78zM456 516q17 55 61 79h36q61 -39 61 -92q-17 -55 -61 -80h-36q-61 40 -61 93z M555 742q13 43 57 66h41q56 -35 56 -79q-14 -42 -57 -65h-41q-56 34 -56 78zM555 869q13 43 57 65h41q56 -34 56 -77q-14 -43 -57 -66h-41q-56 35 -56 78zM555 1123q13 43 57 66h41q56 -35 56 -79q-14 -42 -57 -65h-41q-56 35 -56 78zM555 1250q13 43 57 66h41 q56 -35 56 -78q-14 -43 -57 -65h-41q-56 33 -56 77zM638 728q17 54 60 79h37q60 -39 60 -92q-17 -55 -60 -80h-37q-60 40 -60 93zM731 459q15 42 57 65h41q56 -34 56 -77q-13 -43 -57 -66h-41q-56 35 -56 78zM731 586q15 43 57 66h41q56 -35 56 -79q-13 -42 -57 -65h-41 q-56 35 -56 78zM731 713q15 43 57 66h41q56 -35 56 -78q-13 -43 -57 -65h-40q-57 33 -57 77zM731 840q15 43 58 65h40q56 -34 56 -77q-13 -43 -57 -66h-41q-56 35 -56 78zM819 940q17 54 61 79h36q61 -40 61 -93q-17 -54 -61 -79h-36q-61 40 -61 93zM849 459q14 42 58 65h40 q57 -33 57 -77q-15 -43 -58 -66h-40q-57 35 -57 78zM967 459q15 42 57 65h41q56 -34 56 -77q-14 -43 -57 -66h-41q-56 35 -56 78zM1001 1151q16 55 60 80h37q60 -40 60 -93q-17 -55 -60 -79h-37q-60 39 -60 92zM1085 459q14 42 58 65h39q58 -33 58 -77q-15 -43 -58 -66h-40 q-57 35 -57 78zM1203 78q14 42 57 65h41q56 -34 56 -78q-14 -42 -57 -65h-41q-56 35 -56 78zM1203 205q14 43 57 66h41q56 -35 56 -79q-14 -42 -57 -65h-40q-57 34 -57 78zM1203 332q14 43 58 65h40q56 -34 56 -77q-14 -43 -57 -66h-41q-56 34 -56 78zM1203 459q14 42 57 65 h41q56 -34 56 -77q-14 -43 -57 -66h-41q-56 35 -56 78zM1203 586q14 43 57 66h41q56 -35 56 -79q-14 -42 -57 -65h-41q-56 35 -56 78zM1203 713q14 43 57 66h41q56 -35 56 -78q-14 -43 -57 -65h-40q-57 33 -57 77zM1203 840q14 43 58 65h40q56 -34 56 -77q-14 -43 -57 -66 h-41q-56 35 -56 78z" />
<glyph unicode="&#xbf;" d="M100 304q17 55 60 80h37q60 -40 60 -93q-16 -54 -60 -79h-37q-60 39 -60 92zM100 516q17 55 60 79h37q60 -39 60 -92q-16 -55 -60 -80h-37q-60 40 -60 93zM281 93q17 54 61 79h36q61 -40 61 -93q-17 -54 -61 -79h-36q-61 40 -61 93zM281 728q17 54 61 79h36 q61 -39 61 -92q-17 -55 -61 -80h-36q-61 40 -61 93zM463 93q17 54 60 79h37q60 -40 60 -93q-17 -54 -60 -79h-37q-60 40 -60 93zM463 940q17 54 60 79h37q60 -40 60 -93q-17 -54 -60 -79h-37q-60 40 -60 93zM463 1363q17 55 60 79h37q60 -39 60 -92q-17 -55 -60 -80h-37 q-60 40 -60 93zM644 93q17 54 61 79h36q61 -40 61 -93q-17 -54 -61 -79h-36q-61 40 -61 93zM826 304q16 55 60 80h37q60 -40 60 -93q-17 -54 -60 -79h-37q-60 39 -60 92z" />
<glyph unicode="&#xc0;" d="M100 93q17 54 60 79h37q60 -40 60 -93q-16 -54 -60 -79h-37q-60 40 -60 93zM100 304q17 55 60 80h37q60 -40 60 -93q-16 -54 -60 -79h-37q-60 39 -60 92zM100 516q17 55 60 79h37q60 -39 60 -92q-16 -55 -60 -80h-37q-60 40 -60 93zM100 728q17 54 60 79h37 q60 -39 60 -92q-16 -55 -60 -80h-37q-60 40 -60 93zM100 940q17 54 60 79h37q60 -40 60 -93q-16 -54 -60 -79h-37q-60 40 -60 93zM100 1151q17 55 60 80h37q60 -40 60 -93q-16 -55 -60 -79h-37q-60 39 -60 92zM281 728q17 54 61 79h36q61 -39 61 -92q-17 -55 -61 -80h-36 q-61 40 -61 93zM281 1363q17 55 61 79h36q61 -39 61 -92q-17 -55 -61 -80h-36q-61 40 -61 93zM281 1788q17 55 61 79h36q61 -39 61 -92q-17 -55 -61 -80h-36q-61 40 -61 93zM463 728q17 54 60 79h37q60 -39 60 -92q-17 -55 -60 -80h-37q-60 40 -60 93zM463 1363q17 55 60 79 h37q60 -39 60 -92q-17 -55 -60 -80h-37q-60 40 -60 93zM463 1576q17 55 60 80h37q60 -40 60 -93q-17 -55 -60 -79h-37q-60 39 -60 92zM644 728q17 54 61 79h36q61 -39 61 -92q-17 -55 -61 -80h-36q-61 40 -61 93zM644 1363q17 55 61 79h36q61 -39 61 -92q-17 -55 -61 -80 h-36q-61 40 -61 93zM826 93q16 54 60 79h37q60 -40 60 -93q-17 -54 -60 -79h-37q-60 40 -60 93zM826 304q16 55 60 80h37q60 -40 60 -93q-17 -54 -60 -79h-37q-60 39 -60 92zM826 516q16 55 60 79h37q60 -39 60 -92q-17 -55 -60 -80h-37q-60 40 -60 93zM826 728q16 54 60 79 h37q60 -39 60 -92q-17 -55 -60 -80h-37q-60 40 -60 93zM826 940q16 54 60 79h37q60 -40 60 -93q-17 -54 -60 -79h-37q-60 40 -60 93zM826 1151q16 55 60 80h37q60 -40 60 -93q-17 -55 -60 -79h-37q-60 39 -60 92z" />
<glyph unicode="&#xc1;" d="M100 93q17 54 60 79h37q60 -40 60 -93q-16 -54 -60 -79h-37q-60 40 -60 93zM100 304q17 55 60 80h37q60 -40 60 -93q-16 -54 -60 -79h-37q-60 39 -60 92zM100 516q17 55 60 79h37q60 -39 60 -92q-16 -55 -60 -80h-37q-60 40 -60 93zM100 728q17 54 60 79h37 q60 -39 60 -92q-16 -55 -60 -80h-37q-60 40 -60 93zM100 940q17 54 60 79h37q60 -40 60 -93q-16 -54 -60 -79h-37q-60 40 -60 93zM100 1151q17 55 60 80h37q60 -40 60 -93q-16 -55 -60 -79h-37q-60 39 -60 92zM281 728q17 54 61 79h36q61 -39 61 -92q-17 -55 -61 -80h-36 q-61 40 -61 93zM281 1363q17 55 61 79h36q61 -39 61 -92q-17 -55 -61 -80h-36q-61 40 -61 93zM463 728q17 54 60 79h37q60 -39 60 -92q-17 -55 -60 -80h-37q-60 40 -60 93zM463 1363q17 55 60 79h37q60 -39 60 -92q-17 -55 -60 -80h-37q-60 40 -60 93zM463 1576q17 55 60 80 h37q60 -40 60 -93q-17 -55 -60 -79h-37q-60 39 -60 92zM644 728q17 54 61 79h36q61 -39 61 -92q-17 -55 -61 -80h-36q-61 40 -61 93zM644 1363q17 55 61 79h36q61 -39 61 -92q-17 -55 -61 -80h-36q-61 40 -61 93zM644 1788q17 55 61 79h36q61 -39 61 -92q-17 -55 -61 -80 h-36q-61 40 -61 93zM826 93q16 54 60 79h37q60 -40 60 -93q-17 -54 -60 -79h-37q-60 40 -60 93zM826 304q16 55 60 80h37q60 -40 60 -93q-17 -54 -60 -79h-37q-60 39 -60 92zM826 516q16 55 60 79h37q60 -39 60 -92q-17 -55 -60 -80h-37q-60 40 -60 93zM826 728q16 54 60 79 h37q60 -39 60 -92q-17 -55 -60 -80h-37q-60 40 -60 93zM826 940q16 54 60 79h37q60 -40 60 -93q-17 -54 -60 -79h-37q-60 40 -60 93zM826 1151q16 55 60 80h37q60 -40 60 -93q-17 -55 -60 -79h-37q-60 39 -60 92z" />
<glyph unicode="&#xc2;" d="M100 93q17 54 60 79h37q60 -40 60 -93q-16 -54 -60 -79h-37q-60 40 -60 93zM100 304q17 55 60 80h37q60 -40 60 -93q-16 -54 -60 -79h-37q-60 39 -60 92zM100 516q17 55 60 79h37q60 -39 60 -92q-16 -55 -60 -80h-37q-60 40 -60 93zM100 728q17 54 60 79h37 q60 -39 60 -92q-16 -55 -60 -80h-37q-60 40 -60 93zM100 940q17 54 60 79h37q60 -40 60 -93q-16 -54 -60 -79h-37q-60 40 -60 93zM100 1151q17 55 60 80h37q60 -40 60 -93q-16 -55 -60 -79h-37q-60 39 -60 92zM281 728q17 54 61 79h36q61 -39 61 -92q-17 -55 -61 -80h-36 q-61 40 -61 93zM281 1363q17 55 61 79h36q61 -39 61 -92q-17 -55 -61 -80h-36q-61 40 -61 93zM281 1576q17 55 61 80h36q61 -40 61 -93q-17 -55 -61 -79h-36q-61 39 -61 92zM463 728q17 54 60 79h37q60 -39 60 -92q-17 -55 -60 -80h-37q-60 40 -60 93zM463 1363q17 55 60 79 h37q60 -39 60 -92q-17 -55 -60 -80h-37q-60 40 -60 93zM463 1788q17 55 60 79h37q60 -39 60 -92q-17 -55 -60 -80h-37q-60 40 -60 93zM644 728q17 54 61 79h36q61 -39 61 -92q-17 -55 -61 -80h-36q-61 40 -61 93zM644 1363q17 55 61 79h36q61 -39 61 -92q-17 -55 -61 -80 h-36q-61 40 -61 93zM644 1576q17 55 61 80h36q61 -40 61 -93q-17 -55 -61 -79h-36q-61 39 -61 92zM826 93q16 54 60 79h37q60 -40 60 -93q-17 -54 -60 -79h-37q-60 40 -60 93zM826 304q16 55 60 80h37q60 -40 60 -93q-17 -54 -60 -79h-37q-60 39 -60 92zM826 516 q16 55 60 79h37q60 -39 60 -92q-17 -55 -60 -80h-37q-60 40 -60 93zM826 728q16 54 60 79h37q60 -39 60 -92q-17 -55 -60 -80h-37q-60 40 -60 93zM826 940q16 54 60 79h37q60 -40 60 -93q-17 -54 -60 -79h-37q-60 40 -60 93zM826 1151q16 55 60 80h37q60 -40 60 -93 q-17 -55 -60 -79h-37q-60 39 -60 92z" />
<glyph unicode="&#xc3;" d="M100 93q17 54 60 79h37q60 -40 60 -93q-16 -54 -60 -79h-37q-60 40 -60 93zM100 304q17 55 60 80h37q60 -40 60 -93q-16 -54 -60 -79h-37q-60 39 -60 92zM100 516q17 55 60 79h37q60 -39 60 -92q-16 -55 -60 -80h-37q-60 40 -60 93zM100 728q17 54 60 79h37 q60 -39 60 -92q-16 -55 -60 -80h-37q-60 40 -60 93zM100 940q17 54 60 79h37q60 -40 60 -93q-16 -54 -60 -79h-37q-60 40 -60 93zM100 1151q17 55 60 80h37q60 -40 60 -93q-16 -55 -60 -79h-37q-60 39 -60 92zM281 728q17 54 61 79h36q61 -39 61 -92q-17 -55 -61 -80h-36 q-61 40 -61 93zM281 1363q17 55 61 79h36q61 -39 61 -92q-17 -55 -61 -80h-36q-61 40 -61 93zM281 1576q17 55 61 80h36q61 -40 61 -93q-17 -55 -61 -79h-36q-61 39 -61 92zM463 728q17 54 60 79h37q60 -39 60 -92q-17 -55 -60 -80h-37q-60 40 -60 93zM463 1363q17 55 60 79 h37q60 -39 60 -92q-17 -55 -60 -80h-37q-60 40 -60 93zM463 1788q17 55 60 79h37q60 -39 60 -92q-17 -55 -60 -80h-37q-60 40 -60 93zM644 728q17 54 61 79h36q61 -39 61 -92q-17 -55 -61 -80h-36q-61 40 -61 93zM644 1363q17 55 61 79h36q61 -39 61 -92q-17 -55 -61 -80 h-36q-61 40 -61 93zM644 1576q17 55 61 80h36q61 -40 61 -93q-17 -55 -61 -79h-36q-61 39 -61 92zM826 93q16 54 60 79h37q60 -40 60 -93q-17 -54 -60 -79h-37q-60 40 -60 93zM826 304q16 55 60 80h37q60 -40 60 -93q-17 -54 -60 -79h-37q-60 39 -60 92zM826 516 q16 55 60 79h37q60 -39 60 -92q-17 -55 -60 -80h-37q-60 40 -60 93zM826 728q16 54 60 79h37q60 -39 60 -92q-17 -55 -60 -80h-37q-60 40 -60 93zM826 940q16 54 60 79h37q60 -40 60 -93q-17 -54 -60 -79h-37q-60 40 -60 93zM826 1151q16 55 60 80h37q60 -40 60 -93 q-17 -55 -60 -79h-37q-60 39 -60 92zM826 1788q16 55 60 79h37q60 -39 60 -92q-17 -55 -60 -80h-37q-60 40 -60 93z" />
<glyph unicode="&#xc4;" d="M100 93q17 54 60 79h37q60 -40 60 -93q-16 -54 -60 -79h-37q-60 40 -60 93zM100 304q17 55 60 80h37q60 -40 60 -93q-16 -54 -60 -79h-37q-60 39 -60 92zM100 516q17 55 60 79h37q60 -39 60 -92q-16 -55 -60 -80h-37q-60 40 -60 93zM100 728q17 54 60 79h37 q60 -39 60 -92q-16 -55 -60 -80h-37q-60 40 -60 93zM100 940q17 54 60 79h37q60 -40 60 -93q-16 -54 -60 -79h-37q-60 40 -60 93zM100 1151q17 55 60 80h37q60 -40 60 -93q-16 -55 -60 -79h-37q-60 39 -60 92zM281 728q17 54 61 79h36q61 -39 61 -92q-17 -55 -61 -80h-36 q-61 40 -61 93zM281 1363q17 55 61 79h36q61 -39 61 -92q-17 -55 -61 -80h-36q-61 40 -61 93zM281 1788q17 55 61 79h36q61 -39 61 -92q-17 -55 -61 -80h-36q-61 40 -61 93zM463 728q17 54 60 79h37q60 -39 60 -92q-17 -55 -60 -80h-37q-60 40 -60 93zM463 1363q17 55 60 79 h37q60 -39 60 -92q-17 -55 -60 -80h-37q-60 40 -60 93zM644 728q17 54 61 79h36q61 -39 61 -92q-17 -55 -61 -80h-36q-61 40 -61 93zM644 1363q17 55 61 79h36q61 -39 61 -92q-17 -55 -61 -80h-36q-61 40 -61 93zM644 1788q17 55 61 79h36q61 -39 61 -92q-17 -55 -61 -80 h-36q-61 40 -61 93zM826 93q16 54 60 79h37q60 -40 60 -93q-17 -54 -60 -79h-37q-60 40 -60 93zM826 304q16 55 60 80h37q60 -40 60 -93q-17 -54 -60 -79h-37q-60 39 -60 92zM826 516q16 55 60 79h37q60 -39 60 -92q-17 -55 -60 -80h-37q-60 40 -60 93zM826 728q16 54 60 79 h37q60 -39 60 -92q-17 -55 -60 -80h-37q-60 40 -60 93zM826 940q16 54 60 79h37q60 -40 60 -93q-17 -54 -60 -79h-37q-60 40 -60 93zM826 1151q16 55 60 80h37q60 -40 60 -93q-17 -55 -60 -79h-37q-60 39 -60 92z" />
<glyph unicode="&#xc5;" d="M100 93q17 54 60 79h37q60 -40 60 -93q-16 -54 -60 -79h-37q-60 40 -60 93zM100 304q17 55 60 80h37q60 -40 60 -93q-16 -54 -60 -79h-37q-60 39 -60 92zM100 516q17 55 60 79h37q60 -39 60 -92q-16 -55 -60 -80h-37q-60 40 -60 93zM100 728q17 54 60 79h37 q60 -39 60 -92q-16 -55 -60 -80h-37q-60 40 -60 93zM100 940q17 54 60 79h37q60 -40 60 -93q-16 -54 -60 -79h-37q-60 40 -60 93zM100 1151q17 55 60 80h37q60 -40 60 -93q-16 -55 -60 -79h-37q-60 39 -60 92zM100 1576q17 55 60 80h37q60 -40 60 -93q-16 -55 -60 -79h-37 q-60 39 -60 92zM281 728q17 54 61 79h36q61 -39 61 -92q-17 -55 -61 -80h-36q-61 40 -61 93zM281 1363q17 55 61 79h36q61 -39 61 -92q-17 -55 -61 -80h-36q-61 40 -61 93zM281 1788q17 55 61 79h36q61 -39 61 -92q-17 -55 -61 -80h-36q-61 40 -61 93zM463 728q17 54 60 79 h37q60 -39 60 -92q-17 -55 -60 -80h-37q-60 40 -60 93zM463 1363q17 55 60 79h37q60 -39 60 -92q-17 -55 -60 -80h-37q-60 40 -60 93zM463 1788q17 55 60 79h37q60 -39 60 -92q-17 -55 -60 -80h-37q-60 40 -60 93zM644 728q17 54 61 79h36q61 -39 61 -92q-17 -55 -61 -80 h-36q-61 40 -61 93zM644 1363q17 55 61 79h36q61 -39 61 -92q-17 -55 -61 -80h-36q-61 40 -61 93zM644 1788q17 55 61 79h36q61 -39 61 -92q-17 -55 -61 -80h-36q-61 40 -61 93zM826 93q16 54 60 79h37q60 -40 60 -93q-17 -54 -60 -79h-37q-60 40 -60 93zM826 304 q16 55 60 80h37q60 -40 60 -93q-17 -54 -60 -79h-37q-60 39 -60 92zM826 516q16 55 60 79h37q60 -39 60 -92q-17 -55 -60 -80h-37q-60 40 -60 93zM826 728q16 54 60 79h37q60 -39 60 -92q-17 -55 -60 -80h-37q-60 40 -60 93zM826 940q16 54 60 79h37q60 -40 60 -93 q-17 -54 -60 -79h-37q-60 40 -60 93zM826 1151q16 55 60 80h37q60 -40 60 -93q-17 -55 -60 -79h-37q-60 39 -60 92zM826 1576q16 55 60 80h37q60 -40 60 -93q-17 -55 -60 -79h-37q-60 39 -60 92z" />
<glyph unicode="&#xc6;" d="M100 93q17 54 60 79h37q60 -40 60 -93q-16 -54 -60 -79h-37q-60 40 -60 93zM100 304q17 55 60 80h37q60 -40 60 -93q-16 -54 -60 -79h-37q-60 39 -60 92zM100 516q17 55 60 79h37q60 -39 60 -92q-16 -55 -60 -80h-37q-60 40 -60 93zM100 728q17 54 60 79h37 q60 -39 60 -92q-16 -55 -60 -80h-37q-60 40 -60 93zM100 940q17 54 60 79h37q60 -40 60 -93q-16 -54 -60 -79h-37q-60 40 -60 93zM100 1151q17 55 60 80h37q60 -40 60 -93q-16 -55 -60 -79h-37q-60 39 -60 92zM281 728q17 54 61 79h36q61 -39 61 -92q-17 -55 -61 -80h-36 q-61 40 -61 93zM281 1363q17 55 61 79h36q61 -39 61 -92q-17 -55 -61 -80h-36q-61 40 -61 93zM463 93q17 54 60 79h37q60 -40 60 -93q-17 -54 -60 -79h-37q-60 40 -60 93zM463 304q17 55 60 80h37q60 -40 60 -93q-17 -54 -60 -79h-37q-60 39 -60 92zM463 516q17 55 60 79h37 q60 -39 60 -92q-17 -55 -60 -80h-37q-60 40 -60 93zM463 728q17 54 60 79h37q60 -39 60 -92q-17 -55 -60 -80h-37q-60 40 -60 93zM463 940q17 54 60 79h37q60 -40 60 -93q-17 -54 -60 -79h-37q-60 40 -60 93zM463 1151q17 55 60 80h37q60 -40 60 -93q-17 -55 -60 -79h-37 q-60 39 -60 92zM463 1363q17 55 60 79h37q60 -39 60 -92q-17 -55 -60 -80h-37q-60 40 -60 93zM644 93q17 54 61 79h36q61 -40 61 -93q-17 -54 -61 -79h-36q-61 40 -61 93zM644 728q17 54 61 79h36q61 -39 61 -92q-17 -55 -61 -80h-36q-61 40 -61 93zM644 1363q17 55 61 79 h36q61 -39 61 -92q-17 -55 -61 -80h-36q-61 40 -61 93zM826 93q16 54 60 79h37q60 -40 60 -93q-17 -54 -60 -79h-37q-60 40 -60 93zM826 728q16 54 60 79h37q60 -39 60 -92q-17 -55 -60 -80h-37q-60 40 -60 93zM826 1363q16 55 60 79h37q60 -39 60 -92q-17 -55 -60 -80h-37 q-60 40 -60 93z" />
<glyph unicode="&#xc7;" d="M100 304q17 55 60 80h37q60 -40 60 -93q-16 -54 -60 -79h-37q-60 39 -60 92zM100 516q17 55 60 79h37q60 -39 60 -92q-16 -55 -60 -80h-37q-60 40 -60 93zM100 728q17 54 60 79h37q60 -39 60 -92q-16 -55 -60 -80h-37q-60 40 -60 93zM100 940q17 54 60 79h37 q60 -40 60 -93q-16 -54 -60 -79h-37q-60 40 -60 93zM100 1151q17 55 60 80h37q60 -40 60 -93q-16 -55 -60 -79h-37q-60 39 -60 92zM281 93q17 54 61 79h36q61 -40 61 -93q-17 -54 -61 -79h-36q-61 40 -61 93zM281 -316q17 55 61 80h36q61 -40 61 -93q-17 -55 -61 -79h-36 q-61 39 -61 92zM281 1363q17 55 61 79h36q61 -39 61 -92q-17 -55 -61 -80h-36q-61 40 -61 93zM463 93q17 54 60 79h37q60 -40 60 -93q-17 -54 -60 -79h-37q-60 40 -60 93zM463 -104q17 55 60 79h37q60 -39 60 -92q-17 -55 -60 -80h-37q-60 40 -60 93zM463 1363q17 55 60 79 h37q60 -39 60 -92q-17 -55 -60 -80h-37q-60 40 -60 93zM644 93q17 54 61 79h36q61 -40 61 -93q-17 -54 -61 -79h-36q-61 40 -61 93zM644 1363q17 55 61 79h36q61 -39 61 -92q-17 -55 -61 -80h-36q-61 40 -61 93zM826 304q16 55 60 80h37q60 -40 60 -93q-17 -54 -60 -79h-37 q-60 39 -60 92zM826 1151q16 55 60 80h37q60 -40 60 -93q-17 -55 -60 -79h-37q-60 39 -60 92z" />
<glyph unicode="&#xc8;" d="M100 93q17 54 60 79h37q60 -40 60 -93q-16 -54 -60 -79h-37q-60 40 -60 93zM100 304q17 55 60 80h37q60 -40 60 -93q-16 -54 -60 -79h-37q-60 39 -60 92zM100 516q17 55 60 79h37q60 -39 60 -92q-16 -55 -60 -80h-37q-60 40 -60 93zM100 728q17 54 60 79h37 q60 -39 60 -92q-16 -55 -60 -80h-37q-60 40 -60 93zM100 940q17 54 60 79h37q60 -40 60 -93q-16 -54 -60 -79h-37q-60 40 -60 93zM100 1151q17 55 60 80h37q60 -40 60 -93q-16 -55 -60 -79h-37q-60 39 -60 92zM100 1363q17 55 60 79h37q60 -39 60 -92q-16 -55 -60 -80h-37 q-60 40 -60 93zM281 93q17 54 61 79h36q61 -40 61 -93q-17 -54 -61 -79h-36q-61 40 -61 93zM281 728q17 54 61 79h36q61 -39 61 -92q-17 -55 -61 -80h-36q-61 40 -61 93zM281 1363q17 55 61 79h36q61 -39 61 -92q-17 -55 -61 -80h-36q-61 40 -61 93zM281 1788q17 55 61 79 h36q61 -39 61 -92q-17 -55 -61 -80h-36q-61 40 -61 93zM463 93q17 54 60 79h37q60 -40 60 -93q-17 -54 -60 -79h-37q-60 40 -60 93zM463 728q17 54 60 79h37q60 -39 60 -92q-17 -55 -60 -80h-37q-60 40 -60 93zM463 1363q17 55 60 79h37q60 -39 60 -92q-17 -55 -60 -80h-37 q-60 40 -60 93zM463 1576q17 55 60 80h37q60 -40 60 -93q-17 -55 -60 -79h-37q-60 39 -60 92zM644 93q17 54 61 79h36q61 -40 61 -93q-17 -54 -61 -79h-36q-61 40 -61 93zM644 728q17 54 61 79h36q61 -39 61 -92q-17 -55 -61 -80h-36q-61 40 -61 93zM644 1363q17 55 61 79 h36q61 -39 61 -92q-17 -55 -61 -80h-36q-61 40 -61 93zM826 93q16 54 60 79h37q60 -40 60 -93q-17 -54 -60 -79h-37q-60 40 -60 93zM826 1363q16 55 60 79h37q60 -39 60 -92q-17 -55 -60 -80h-37q-60 40 -60 93z" />
<glyph unicode="&#xc9;" d="M100 93q17 54 60 79h37q60 -40 60 -93q-16 -54 -60 -79h-37q-60 40 -60 93zM100 304q17 55 60 80h37q60 -40 60 -93q-16 -54 -60 -79h-37q-60 39 -60 92zM100 516q17 55 60 79h37q60 -39 60 -92q-16 -55 -60 -80h-37q-60 40 -60 93zM100 728q17 54 60 79h37 q60 -39 60 -92q-16 -55 -60 -80h-37q-60 40 -60 93zM100 940q17 54 60 79h37q60 -40 60 -93q-16 -54 -60 -79h-37q-60 40 -60 93zM100 1151q17 55 60 80h37q60 -40 60 -93q-16 -55 -60 -79h-37q-60 39 -60 92zM100 1363q17 55 60 79h37q60 -39 60 -92q-16 -55 -60 -80h-37 q-60 40 -60 93zM281 93q17 54 61 79h36q61 -40 61 -93q-17 -54 -61 -79h-36q-61 40 -61 93zM281 728q17 54 61 79h36q61 -39 61 -92q-17 -55 -61 -80h-36q-61 40 -61 93zM281 1363q17 55 61 79h36q61 -39 61 -92q-17 -55 -61 -80h-36q-61 40 -61 93zM463 93q17 54 60 79h37 q60 -40 60 -93q-17 -54 -60 -79h-37q-60 40 -60 93zM463 728q17 54 60 79h37q60 -39 60 -92q-17 -55 -60 -80h-37q-60 40 -60 93zM463 1363q17 55 60 79h37q60 -39 60 -92q-17 -55 -60 -80h-37q-60 40 -60 93zM463 1576q17 55 60 80h37q60 -40 60 -93q-17 -55 -60 -79h-37 q-60 39 -60 92zM644 93q17 54 61 79h36q61 -40 61 -93q-17 -54 -61 -79h-36q-61 40 -61 93zM644 728q17 54 61 79h36q61 -39 61 -92q-17 -55 -61 -80h-36q-61 40 -61 93zM644 1363q17 55 61 79h36q61 -39 61 -92q-17 -55 -61 -80h-36q-61 40 -61 93zM644 1788q17 55 61 79 h36q61 -39 61 -92q-17 -55 -61 -80h-36q-61 40 -61 93zM826 93q16 54 60 79h37q60 -40 60 -93q-17 -54 -60 -79h-37q-60 40 -60 93zM826 1363q16 55 60 79h37q60 -39 60 -92q-17 -55 -60 -80h-37q-60 40 -60 93z" />
<glyph unicode="&#xca;" d="M100 93q17 54 60 79h37q60 -40 60 -93q-16 -54 -60 -79h-37q-60 40 -60 93zM100 304q17 55 60 80h37q60 -40 60 -93q-16 -54 -60 -79h-37q-60 39 -60 92zM100 516q17 55 60 79h37q60 -39 60 -92q-16 -55 -60 -80h-37q-60 40 -60 93zM100 728q17 54 60 79h37 q60 -39 60 -92q-16 -55 -60 -80h-37q-60 40 -60 93zM100 940q17 54 60 79h37q60 -40 60 -93q-16 -54 -60 -79h-37q-60 40 -60 93zM100 1151q17 55 60 80h37q60 -40 60 -93q-16 -55 -60 -79h-37q-60 39 -60 92zM100 1363q17 55 60 79h37q60 -39 60 -92q-16 -55 -60 -80h-37 q-60 40 -60 93zM281 93q17 54 61 79h36q61 -40 61 -93q-17 -54 -61 -79h-36q-61 40 -61 93zM281 728q17 54 61 79h36q61 -39 61 -92q-17 -55 -61 -80h-36q-61 40 -61 93zM281 1363q17 55 61 79h36q61 -39 61 -92q-17 -55 -61 -80h-36q-61 40 -61 93zM281 1576q17 55 61 80 h36q61 -40 61 -93q-17 -55 -61 -79h-36q-61 39 -61 92zM463 93q17 54 60 79h37q60 -40 60 -93q-17 -54 -60 -79h-37q-60 40 -60 93zM463 728q17 54 60 79h37q60 -39 60 -92q-17 -55 -60 -80h-37q-60 40 -60 93zM463 1363q17 55 60 79h37q60 -39 60 -92q-17 -55 -60 -80h-37 q-60 40 -60 93zM463 1788q17 55 60 79h37q60 -39 60 -92q-17 -55 -60 -80h-37q-60 40 -60 93zM644 93q17 54 61 79h36q61 -40 61 -93q-17 -54 -61 -79h-36q-61 40 -61 93zM644 728q17 54 61 79h36q61 -39 61 -92q-17 -55 -61 -80h-36q-61 40 -61 93zM644 1363q17 55 61 79 h36q61 -39 61 -92q-17 -55 -61 -80h-36q-61 40 -61 93zM644 1576q17 55 61 80h36q61 -40 61 -93q-17 -55 -61 -79h-36q-61 39 -61 92zM826 93q16 54 60 79h37q60 -40 60 -93q-17 -54 -60 -79h-37q-60 40 -60 93zM826 1363q16 55 60 79h37q60 -39 60 -92q-17 -55 -60 -80h-37 q-60 40 -60 93z" />
<glyph unicode="&#xcb;" d="M100 93q17 54 60 79h37q60 -40 60 -93q-16 -54 -60 -79h-37q-60 40 -60 93zM100 304q17 55 60 80h37q60 -40 60 -93q-16 -54 -60 -79h-37q-60 39 -60 92zM100 516q17 55 60 79h37q60 -39 60 -92q-16 -55 -60 -80h-37q-60 40 -60 93zM100 728q17 54 60 79h37 q60 -39 60 -92q-16 -55 -60 -80h-37q-60 40 -60 93zM100 940q17 54 60 79h37q60 -40 60 -93q-16 -54 -60 -79h-37q-60 40 -60 93zM100 1151q17 55 60 80h37q60 -40 60 -93q-16 -55 -60 -79h-37q-60 39 -60 92zM100 1363q17 55 60 79h37q60 -39 60 -92q-16 -55 -60 -80h-37 q-60 40 -60 93zM281 93q17 54 61 79h36q61 -40 61 -93q-17 -54 -61 -79h-36q-61 40 -61 93zM281 728q17 54 61 79h36q61 -39 61 -92q-17 -55 -61 -80h-36q-61 40 -61 93zM281 1363q17 55 61 79h36q61 -39 61 -92q-17 -55 -61 -80h-36q-61 40 -61 93zM281 1788q17 55 61 79 h36q61 -39 61 -92q-17 -55 -61 -80h-36q-61 40 -61 93zM463 93q17 54 60 79h37q60 -40 60 -93q-17 -54 -60 -79h-37q-60 40 -60 93zM463 728q17 54 60 79h37q60 -39 60 -92q-17 -55 -60 -80h-37q-60 40 -60 93zM463 1363q17 55 60 79h37q60 -39 60 -92q-17 -55 -60 -80h-37 q-60 40 -60 93zM644 93q17 54 61 79h36q61 -40 61 -93q-17 -54 -61 -79h-36q-61 40 -61 93zM644 728q17 54 61 79h36q61 -39 61 -92q-17 -55 -61 -80h-36q-61 40 -61 93zM644 1363q17 55 61 79h36q61 -39 61 -92q-17 -55 -61 -80h-36q-61 40 -61 93zM644 1788q17 55 61 79 h36q61 -39 61 -92q-17 -55 -61 -80h-36q-61 40 -61 93zM826 93q16 54 60 79h37q60 -40 60 -93q-17 -54 -60 -79h-37q-60 40 -60 93zM826 1363q16 55 60 79h37q60 -39 60 -92q-17 -55 -60 -80h-37q-60 40 -60 93z" />
<glyph unicode="&#xcc;" d="M281 1788q17 55 61 79h36q61 -39 61 -92q-17 -55 -61 -80h-36q-61 40 -61 93zM463 93q17 54 60 79h37q60 -40 60 -93q-17 -54 -60 -79h-37q-60 40 -60 93zM463 304q17 55 60 80h37q60 -40 60 -93q-17 -54 -60 -79h-37q-60 39 -60 92zM463 516q17 55 60 79h37 q60 -39 60 -92q-17 -55 -60 -80h-37q-60 40 -60 93zM463 728q17 54 60 79h37q60 -39 60 -92q-17 -55 -60 -80h-37q-60 40 -60 93zM463 940q17 54 60 79h37q60 -40 60 -93q-17 -54 -60 -79h-37q-60 40 -60 93zM463 1151q17 55 60 80h37q60 -40 60 -93q-17 -55 -60 -79h-37 q-60 39 -60 92zM463 1363q17 55 60 79h37q60 -39 60 -92q-17 -55 -60 -80h-37q-60 40 -60 93zM463 1576q17 55 60 80h37q60 -40 60 -93q-17 -55 -60 -79h-37q-60 39 -60 92z" />
<glyph unicode="&#xcd;" d="M463 93q17 54 60 79h37q60 -40 60 -93q-17 -54 -60 -79h-37q-60 40 -60 93zM463 304q17 55 60 80h37q60 -40 60 -93q-17 -54 -60 -79h-37q-60 39 -60 92zM463 516q17 55 60 79h37q60 -39 60 -92q-17 -55 -60 -80h-37q-60 40 -60 93zM463 728q17 54 60 79h37 q60 -39 60 -92q-17 -55 -60 -80h-37q-60 40 -60 93zM463 940q17 54 60 79h37q60 -40 60 -93q-17 -54 -60 -79h-37q-60 40 -60 93zM463 1151q17 55 60 80h37q60 -40 60 -93q-17 -55 -60 -79h-37q-60 39 -60 92zM463 1363q17 55 60 79h37q60 -39 60 -92q-17 -55 -60 -80h-37 q-60 40 -60 93zM463 1576q17 55 60 80h37q60 -40 60 -93q-17 -55 -60 -79h-37q-60 39 -60 92zM644 1788q17 55 61 79h36q61 -39 61 -92q-17 -55 -61 -80h-36q-61 40 -61 93z" />
<glyph unicode="&#xce;" d="M281 1576q17 55 61 80h36q61 -40 61 -93q-17 -55 -61 -79h-36q-61 39 -61 92zM463 93q17 54 60 79h37q60 -40 60 -93q-17 -54 -60 -79h-37q-60 40 -60 93zM463 304q17 55 60 80h37q60 -40 60 -93q-17 -54 -60 -79h-37q-60 39 -60 92zM463 516q17 55 60 79h37 q60 -39 60 -92q-17 -55 -60 -80h-37q-60 40 -60 93zM463 728q17 54 60 79h37q60 -39 60 -92q-17 -55 -60 -80h-37q-60 40 -60 93zM463 940q17 54 60 79h37q60 -40 60 -93q-17 -54 -60 -79h-37q-60 40 -60 93zM463 1151q17 55 60 80h37q60 -40 60 -93q-17 -55 -60 -79h-37 q-60 39 -60 92zM463 1363q17 55 60 79h37q60 -39 60 -92q-17 -55 -60 -80h-37q-60 40 -60 93zM463 1788q17 55 60 79h37q60 -39 60 -92q-17 -55 -60 -80h-37q-60 40 -60 93zM644 1576q17 55 61 80h36q61 -40 61 -93q-17 -55 -61 -79h-36q-61 39 -61 92z" />
<glyph unicode="&#xcf;" d="M281 1788q17 55 61 79h36q61 -39 61 -92q-17 -55 -61 -80h-36q-61 40 -61 93zM463 93q17 54 60 79h37q60 -40 60 -93q-17 -54 -60 -79h-37q-60 40 -60 93zM463 304q17 55 60 80h37q60 -40 60 -93q-17 -54 -60 -79h-37q-60 39 -60 92zM463 516q17 55 60 79h37 q60 -39 60 -92q-17 -55 -60 -80h-37q-60 40 -60 93zM463 728q17 54 60 79h37q60 -39 60 -92q-17 -55 -60 -80h-37q-60 40 -60 93zM463 940q17 54 60 79h37q60 -40 60 -93q-17 -54 -60 -79h-37q-60 40 -60 93zM463 1151q17 55 60 80h37q60 -40 60 -93q-17 -55 -60 -79h-37 q-60 39 -60 92zM463 1363q17 55 60 79h37q60 -39 60 -92q-17 -55 -60 -80h-37q-60 40 -60 93zM644 1788q17 55 61 79h36q61 -39 61 -92q-17 -55 -61 -80h-36q-61 40 -61 93z" />
<glyph unicode="&#xd0;" horiz-adv-x="1212" d="M44 728q17 54 61 79h36q61 -39 61 -92q-17 -55 -61 -80h-36q-61 40 -61 93zM229 93q17 54 60 79h37q60 -40 60 -93q-16 -54 -60 -79h-37q-60 40 -60 93zM229 304q17 55 60 80h37q60 -40 60 -93q-16 -54 -60 -79h-37q-60 39 -60 92zM229 516q17 55 60 79h37q60 -39 60 -92 q-16 -55 -60 -80h-37q-60 40 -60 93zM229 728q17 54 60 79h37q60 -39 60 -92q-16 -55 -60 -80h-37q-60 40 -60 93zM229 940q17 54 60 79h37q60 -40 60 -93q-16 -54 -60 -79h-37q-60 40 -60 93zM229 1151q17 55 60 80h37q60 -40 60 -93q-16 -55 -60 -79h-37q-60 39 -60 92z M229 1363q17 55 60 79h37q60 -39 60 -92q-16 -55 -60 -80h-37q-60 40 -60 93zM407 728q17 54 61 79h36q61 -39 61 -92q-17 -55 -61 -80h-36q-61 40 -61 93zM410 93q17 54 61 79h36q61 -40 61 -93q-17 -54 -61 -79h-36q-61 40 -61 93zM410 1363q17 55 61 79h36q61 -39 61 -92 q-17 -55 -61 -80h-36q-61 40 -61 93zM592 93q17 54 60 79h37q60 -40 60 -93q-17 -54 -60 -79h-37q-60 40 -60 93zM592 1363q17 55 60 79h37q60 -39 60 -92q-17 -55 -60 -80h-37q-60 40 -60 93zM773 93q17 54 61 79h36q61 -40 61 -93q-17 -54 -61 -79h-36q-61 40 -61 93z M773 1363q17 55 61 79h36q61 -39 61 -92q-17 -55 -61 -80h-36q-61 40 -61 93zM955 304q16 55 60 80h37q60 -40 60 -93q-17 -54 -60 -79h-37q-60 39 -60 92zM955 516q16 55 60 79h37q60 -39 60 -92q-17 -55 -60 -80h-37q-60 40 -60 93zM955 728q16 54 60 79h37q60 -39 60 -92 q-17 -55 -60 -80h-37q-60 40 -60 93zM955 940q16 54 60 79h37q60 -40 60 -93q-17 -54 -60 -79h-37q-60 40 -60 93zM955 1151q16 55 60 80h37q60 -40 60 -93q-17 -55 -60 -79h-37q-60 39 -60 92z" />
<glyph unicode="&#xd1;" d="M100 93q17 54 60 79h37q60 -40 60 -93q-16 -54 -60 -79h-37q-60 40 -60 93zM100 304q17 55 60 80h37q60 -40 60 -93q-16 -54 -60 -79h-37q-60 39 -60 92zM100 516q17 55 60 79h37q60 -39 60 -92q-16 -55 -60 -80h-37q-60 40 -60 93zM100 728q17 54 60 79h37 q60 -39 60 -92q-16 -55 -60 -80h-37q-60 40 -60 93zM100 940q17 54 60 79h37q60 -40 60 -93q-16 -54 -60 -79h-37q-60 40 -60 93zM100 1151q17 55 60 80h37q60 -40 60 -93q-16 -55 -60 -79h-37q-60 39 -60 92zM100 1363q17 55 60 79h37q60 -39 60 -92q-16 -55 -60 -80h-37 q-60 40 -60 93zM281 1151q17 55 61 80h36q61 -40 61 -93q-17 -55 -61 -79h-36q-61 39 -61 92zM281 1576q17 55 61 80h36q61 -40 61 -93q-17 -55 -61 -79h-36q-61 39 -61 92zM463 940q17 54 60 79h37q60 -40 60 -93q-17 -54 -60 -79h-37q-60 40 -60 93zM463 1788q17 55 60 79 h37q60 -39 60 -92q-17 -55 -60 -80h-37q-60 40 -60 93zM644 728q17 54 61 79h36q61 -39 61 -92q-17 -55 -61 -80h-36q-61 40 -61 93zM644 1576q17 55 61 80h36q61 -40 61 -93q-17 -55 -61 -79h-36q-61 39 -61 92zM826 93q16 54 60 79h37q60 -40 60 -93q-17 -54 -60 -79h-37 q-60 40 -60 93zM826 304q16 55 60 80h37q60 -40 60 -93q-17 -54 -60 -79h-37q-60 39 -60 92zM826 516q16 55 60 79h37q60 -39 60 -92q-17 -55 -60 -80h-37q-60 40 -60 93zM826 728q16 54 60 79h37q60 -39 60 -92q-17 -55 -60 -80h-37q-60 40 -60 93zM826 940q16 54 60 79h37 q60 -40 60 -93q-17 -54 -60 -79h-37q-60 40 -60 93zM826 1151q16 55 60 80h37q60 -40 60 -93q-17 -55 -60 -79h-37q-60 39 -60 92zM826 1363q16 55 60 79h37q60 -39 60 -92q-17 -55 -60 -80h-37q-60 40 -60 93zM826 1788q16 55 60 79h37q60 -39 60 -92q-17 -55 -60 -80h-37 q-60 40 -60 93z" />
<glyph unicode="&#xd2;" d="M100 304q17 55 60 80h37q60 -40 60 -93q-16 -54 -60 -79h-37q-60 39 -60 92zM100 516q17 55 60 79h37q60 -39 60 -92q-16 -55 -60 -80h-37q-60 40 -60 93zM100 728q17 54 60 79h37q60 -39 60 -92q-16 -55 -60 -80h-37q-60 40 -60 93zM100 940q17 54 60 79h37 q60 -40 60 -93q-16 -54 -60 -79h-37q-60 40 -60 93zM100 1151q17 55 60 80h37q60 -40 60 -93q-16 -55 -60 -79h-37q-60 39 -60 92zM281 93q17 54 61 79h36q61 -40 61 -93q-17 -54 -61 -79h-36q-61 40 -61 93zM281 1363q17 55 61 79h36q61 -39 61 -92q-17 -55 -61 -80h-36 q-61 40 -61 93zM281 1788q17 55 61 79h36q61 -39 61 -92q-17 -55 -61 -80h-36q-61 40 -61 93zM463 93q17 54 60 79h37q60 -40 60 -93q-17 -54 -60 -79h-37q-60 40 -60 93zM463 1363q17 55 60 79h37q60 -39 60 -92q-17 -55 -60 -80h-37q-60 40 -60 93zM463 1576q17 55 60 80 h37q60 -40 60 -93q-17 -55 -60 -79h-37q-60 39 -60 92zM644 93q17 54 61 79h36q61 -40 61 -93q-17 -54 -61 -79h-36q-61 40 -61 93zM644 1363q17 55 61 79h36q61 -39 61 -92q-17 -55 -61 -80h-36q-61 40 -61 93zM826 304q16 55 60 80h37q60 -40 60 -93q-17 -54 -60 -79h-37 q-60 39 -60 92zM826 516q16 55 60 79h37q60 -39 60 -92q-17 -55 -60 -80h-37q-60 40 -60 93zM826 728q16 54 60 79h37q60 -39 60 -92q-17 -55 -60 -80h-37q-60 40 -60 93zM826 940q16 54 60 79h37q60 -40 60 -93q-17 -54 -60 -79h-37q-60 40 -60 93zM826 1151q16 55 60 80 h37q60 -40 60 -93q-17 -55 -60 -79h-37q-60 39 -60 92z" />
<glyph unicode="&#xd3;" d="M100 304q17 55 60 80h37q60 -40 60 -93q-16 -54 -60 -79h-37q-60 39 -60 92zM100 516q17 55 60 79h37q60 -39 60 -92q-16 -55 -60 -80h-37q-60 40 -60 93zM100 728q17 54 60 79h37q60 -39 60 -92q-16 -55 -60 -80h-37q-60 40 -60 93zM100 940q17 54 60 79h37 q60 -40 60 -93q-16 -54 -60 -79h-37q-60 40 -60 93zM100 1151q17 55 60 80h37q60 -40 60 -93q-16 -55 -60 -79h-37q-60 39 -60 92zM281 93q17 54 61 79h36q61 -40 61 -93q-17 -54 -61 -79h-36q-61 40 -61 93zM281 1363q17 55 61 79h36q61 -39 61 -92q-17 -55 -61 -80h-36 q-61 40 -61 93zM463 93q17 54 60 79h37q60 -40 60 -93q-17 -54 -60 -79h-37q-60 40 -60 93zM463 1363q17 55 60 79h37q60 -39 60 -92q-17 -55 -60 -80h-37q-60 40 -60 93zM463 1576q17 55 60 80h37q60 -40 60 -93q-17 -55 -60 -79h-37q-60 39 -60 92zM644 93q17 54 61 79h36 q61 -40 61 -93q-17 -54 -61 -79h-36q-61 40 -61 93zM644 1363q17 55 61 79h36q61 -39 61 -92q-17 -55 -61 -80h-36q-61 40 -61 93zM644 1788q17 55 61 79h36q61 -39 61 -92q-17 -55 -61 -80h-36q-61 40 -61 93zM826 304q16 55 60 80h37q60 -40 60 -93q-17 -54 -60 -79h-37 q-60 39 -60 92zM826 516q16 55 60 79h37q60 -39 60 -92q-17 -55 -60 -80h-37q-60 40 -60 93zM826 728q16 54 60 79h37q60 -39 60 -92q-17 -55 -60 -80h-37q-60 40 -60 93zM826 940q16 54 60 79h37q60 -40 60 -93q-17 -54 -60 -79h-37q-60 40 -60 93zM826 1151q16 55 60 80 h37q60 -40 60 -93q-17 -55 -60 -79h-37q-60 39 -60 92z" />
<glyph unicode="&#xd4;" d="M100 304q17 55 60 80h37q60 -40 60 -93q-16 -54 -60 -79h-37q-60 39 -60 92zM100 516q17 55 60 79h37q60 -39 60 -92q-16 -55 -60 -80h-37q-60 40 -60 93zM100 728q17 54 60 79h37q60 -39 60 -92q-16 -55 -60 -80h-37q-60 40 -60 93zM100 940q17 54 60 79h37 q60 -40 60 -93q-16 -54 -60 -79h-37q-60 40 -60 93zM100 1151q17 55 60 80h37q60 -40 60 -93q-16 -55 -60 -79h-37q-60 39 -60 92zM281 93q17 54 61 79h36q61 -40 61 -93q-17 -54 -61 -79h-36q-61 40 -61 93zM281 1363q17 55 61 79h36q61 -39 61 -92q-17 -55 -61 -80h-36 q-61 40 -61 93zM281 1576q17 55 61 80h36q61 -40 61 -93q-17 -55 -61 -79h-36q-61 39 -61 92zM463 93q17 54 60 79h37q60 -40 60 -93q-17 -54 -60 -79h-37q-60 40 -60 93zM463 1363q17 55 60 79h37q60 -39 60 -92q-17 -55 -60 -80h-37q-60 40 -60 93zM463 1788q17 55 60 79 h37q60 -39 60 -92q-17 -55 -60 -80h-37q-60 40 -60 93zM644 93q17 54 61 79h36q61 -40 61 -93q-17 -54 -61 -79h-36q-61 40 -61 93zM644 1363q17 55 61 79h36q61 -39 61 -92q-17 -55 -61 -80h-36q-61 40 -61 93zM644 1576q17 55 61 80h36q61 -40 61 -93q-17 -55 -61 -79h-36 q-61 39 -61 92zM826 304q16 55 60 80h37q60 -40 60 -93q-17 -54 -60 -79h-37q-60 39 -60 92zM826 516q16 55 60 79h37q60 -39 60 -92q-17 -55 -60 -80h-37q-60 40 -60 93zM826 728q16 54 60 79h37q60 -39 60 -92q-17 -55 -60 -80h-37q-60 40 -60 93zM826 940q16 54 60 79h37 q60 -40 60 -93q-17 -54 -60 -79h-37q-60 40 -60 93zM826 1151q16 55 60 80h37q60 -40 60 -93q-17 -55 -60 -79h-37q-60 39 -60 92z" />
<glyph unicode="&#xd5;" d="M100 304q17 55 60 80h37q60 -40 60 -93q-16 -54 -60 -79h-37q-60 39 -60 92zM100 516q17 55 60 79h37q60 -39 60 -92q-16 -55 -60 -80h-37q-60 40 -60 93zM100 728q17 54 60 79h37q60 -39 60 -92q-16 -55 -60 -80h-37q-60 40 -60 93zM100 940q17 54 60 79h37 q60 -40 60 -93q-16 -54 -60 -79h-37q-60 40 -60 93zM100 1151q17 55 60 80h37q60 -40 60 -93q-16 -55 -60 -79h-37q-60 39 -60 92zM281 93q17 54 61 79h36q61 -40 61 -93q-17 -54 -61 -79h-36q-61 40 -61 93zM281 1363q17 55 61 79h36q61 -39 61 -92q-17 -55 -61 -80h-36 q-61 40 -61 93zM281 1576q17 55 61 80h36q61 -40 61 -93q-17 -55 -61 -79h-36q-61 39 -61 92zM463 93q17 54 60 79h37q60 -40 60 -93q-17 -54 -60 -79h-37q-60 40 -60 93zM463 1363q17 55 60 79h37q60 -39 60 -92q-17 -55 -60 -80h-37q-60 40 -60 93zM463 1788q17 55 60 79 h37q60 -39 60 -92q-17 -55 -60 -80h-37q-60 40 -60 93zM644 93q17 54 61 79h36q61 -40 61 -93q-17 -54 -61 -79h-36q-61 40 -61 93zM644 1363q17 55 61 79h36q61 -39 61 -92q-17 -55 -61 -80h-36q-61 40 -61 93zM644 1576q17 55 61 80h36q61 -40 61 -93q-17 -55 -61 -79h-36 q-61 39 -61 92zM826 304q16 55 60 80h37q60 -40 60 -93q-17 -54 -60 -79h-37q-60 39 -60 92zM826 516q16 55 60 79h37q60 -39 60 -92q-17 -55 -60 -80h-37q-60 40 -60 93zM826 728q16 54 60 79h37q60 -39 60 -92q-17 -55 -60 -80h-37q-60 40 -60 93zM826 940q16 54 60 79h37 q60 -40 60 -93q-17 -54 -60 -79h-37q-60 40 -60 93zM826 1151q16 55 60 80h37q60 -40 60 -93q-17 -55 -60 -79h-37q-60 39 -60 92zM826 1788q16 55 60 79h37q60 -39 60 -92q-17 -55 -60 -80h-37q-60 40 -60 93z" />
<glyph unicode="&#xd6;" d="M100 304q17 55 60 80h37q60 -40 60 -93q-16 -54 -60 -79h-37q-60 39 -60 92zM100 516q17 55 60 79h37q60 -39 60 -92q-16 -55 -60 -80h-37q-60 40 -60 93zM100 728q17 54 60 79h37q60 -39 60 -92q-16 -55 -60 -80h-37q-60 40 -60 93zM100 940q17 54 60 79h37 q60 -40 60 -93q-16 -54 -60 -79h-37q-60 40 -60 93zM100 1151q17 55 60 80h37q60 -40 60 -93q-16 -55 -60 -79h-37q-60 39 -60 92zM281 93q17 54 61 79h36q61 -40 61 -93q-17 -54 -61 -79h-36q-61 40 -61 93zM281 1363q17 55 61 79h36q61 -39 61 -92q-17 -55 -61 -80h-36 q-61 40 -61 93zM281 1788q17 55 61 79h36q61 -39 61 -92q-17 -55 -61 -80h-36q-61 40 -61 93zM463 93q17 54 60 79h37q60 -40 60 -93q-17 -54 -60 -79h-37q-60 40 -60 93zM463 1363q17 55 60 79h37q60 -39 60 -92q-17 -55 -60 -80h-37q-60 40 -60 93zM644 93q17 54 61 79h36 q61 -40 61 -93q-17 -54 -61 -79h-36q-61 40 -61 93zM644 1363q17 55 61 79h36q61 -39 61 -92q-17 -55 -61 -80h-36q-61 40 -61 93zM644 1788q17 55 61 79h36q61 -39 61 -92q-17 -55 -61 -80h-36q-61 40 -61 93zM826 304q16 55 60 80h37q60 -40 60 -93q-17 -54 -60 -79h-37 q-60 39 -60 92zM826 516q16 55 60 79h37q60 -39 60 -92q-17 -55 -60 -80h-37q-60 40 -60 93zM826 728q16 54 60 79h37q60 -39 60 -92q-17 -55 -60 -80h-37q-60 40 -60 93zM826 940q16 54 60 79h37q60 -40 60 -93q-17 -54 -60 -79h-37q-60 40 -60 93zM826 1151q16 55 60 80 h37q60 -40 60 -93q-17 -55 -60 -79h-37q-60 39 -60 92z" />
<glyph unicode="&#xd7;" horiz-adv-x="1014" d="M161 470l247 247l-247 248l99 98l247 -247l248 247l98 -99l-247 -247l247 -247l-99 -99l-247 247l-247 -247z" />
<glyph unicode="&#xd8;" d="M100 304q17 55 60 80h37q60 -40 60 -93q-16 -54 -60 -79h-37q-60 39 -60 92zM100 516q17 55 60 79h37q60 -39 60 -92q-16 -55 -60 -80h-37q-60 40 -60 93zM100 728q17 54 60 79h37q60 -39 60 -92q-16 -55 -60 -80h-37q-60 40 -60 93zM100 940q17 54 60 79h37 q60 -40 60 -93q-16 -54 -60 -79h-37q-60 40 -60 93zM100 1151q17 55 60 80h37q60 -40 60 -93q-16 -55 -60 -79h-37q-60 39 -60 92zM281 93q17 54 61 79h36q61 -40 61 -93q-17 -54 -61 -79h-36q-61 40 -61 93zM281 516q17 55 61 79h36q61 -39 61 -92q-17 -55 -61 -80h-36 q-61 40 -61 93zM281 1363q17 55 61 79h36q61 -39 61 -92q-17 -55 -61 -80h-36q-61 40 -61 93zM463 93q17 54 60 79h37q60 -40 60 -93q-17 -54 -60 -79h-37q-60 40 -60 93zM463 728q17 54 60 79h37q60 -39 60 -92q-17 -55 -60 -80h-37q-60 40 -60 93zM463 1363q17 55 60 79 h37q60 -39 60 -92q-17 -55 -60 -80h-37q-60 40 -60 93zM644 93q17 54 61 79h36q61 -40 61 -93q-17 -54 -61 -79h-36q-61 40 -61 93zM644 940q17 54 61 79h36q61 -40 61 -93q-17 -54 -61 -79h-36q-61 40 -61 93zM644 1363q17 55 61 79h36q61 -39 61 -92q-17 -55 -61 -80h-36 q-61 40 -61 93zM826 304q16 55 60 80h37q60 -40 60 -93q-17 -54 -60 -79h-37q-60 39 -60 92zM826 516q16 55 60 79h37q60 -39 60 -92q-17 -55 -60 -80h-37q-60 40 -60 93zM826 728q16 54 60 79h37q60 -39 60 -92q-17 -55 -60 -80h-37q-60 40 -60 93zM826 940q16 54 60 79h37 q60 -40 60 -93q-17 -54 -60 -79h-37q-60 40 -60 93zM826 1151q16 55 60 80h37q60 -40 60 -93q-17 -55 -60 -79h-37q-60 39 -60 92z" />
<glyph unicode="&#xd9;" d="M100 304q17 55 60 80h37q60 -40 60 -93q-16 -54 -60 -79h-37q-60 39 -60 92zM100 516q17 55 60 79h37q60 -39 60 -92q-16 -55 -60 -80h-37q-60 40 -60 93zM100 728q17 54 60 79h37q60 -39 60 -92q-16 -55 -60 -80h-37q-60 40 -60 93zM100 940q17 54 60 79h37 q60 -40 60 -93q-16 -54 -60 -79h-37q-60 40 -60 93zM100 1151q17 55 60 80h37q60 -40 60 -93q-16 -55 -60 -79h-37q-60 39 -60 92zM100 1363q17 55 60 79h37q60 -39 60 -92q-16 -55 -60 -80h-37q-60 40 -60 93zM281 93q17 54 61 79h36q61 -40 61 -93q-17 -54 -61 -79h-36 q-61 40 -61 93zM281 1788q17 55 61 79h36q61 -39 61 -92q-17 -55 -61 -80h-36q-61 40 -61 93zM463 93q17 54 60 79h37q60 -40 60 -93q-17 -54 -60 -79h-37q-60 40 -60 93zM463 1576q17 55 60 80h37q60 -40 60 -93q-17 -55 -60 -79h-37q-60 39 -60 92zM644 93q17 54 61 79h36 q61 -40 61 -93q-17 -54 -61 -79h-36q-61 40 -61 93zM826 304q16 55 60 80h37q60 -40 60 -93q-17 -54 -60 -79h-37q-60 39 -60 92zM826 516q16 55 60 79h37q60 -39 60 -92q-17 -55 -60 -80h-37q-60 40 -60 93zM826 728q16 54 60 79h37q60 -39 60 -92q-17 -55 -60 -80h-37 q-60 40 -60 93zM826 940q16 54 60 79h37q60 -40 60 -93q-17 -54 -60 -79h-37q-60 40 -60 93zM826 1151q16 55 60 80h37q60 -40 60 -93q-17 -55 -60 -79h-37q-60 39 -60 92zM826 1363q16 55 60 79h37q60 -39 60 -92q-17 -55 -60 -80h-37q-60 40 -60 93z" />
<glyph unicode="&#xda;" d="M100 304q17 55 60 80h37q60 -40 60 -93q-16 -54 -60 -79h-37q-60 39 -60 92zM100 516q17 55 60 79h37q60 -39 60 -92q-16 -55 -60 -80h-37q-60 40 -60 93zM100 728q17 54 60 79h37q60 -39 60 -92q-16 -55 -60 -80h-37q-60 40 -60 93zM100 940q17 54 60 79h37 q60 -40 60 -93q-16 -54 -60 -79h-37q-60 40 -60 93zM100 1151q17 55 60 80h37q60 -40 60 -93q-16 -55 -60 -79h-37q-60 39 -60 92zM100 1363q17 55 60 79h37q60 -39 60 -92q-16 -55 -60 -80h-37q-60 40 -60 93zM281 93q17 54 61 79h36q61 -40 61 -93q-17 -54 -61 -79h-36 q-61 40 -61 93zM463 93q17 54 60 79h37q60 -40 60 -93q-17 -54 -60 -79h-37q-60 40 -60 93zM463 1576q17 55 60 80h37q60 -40 60 -93q-17 -55 -60 -79h-37q-60 39 -60 92zM644 93q17 54 61 79h36q61 -40 61 -93q-17 -54 -61 -79h-36q-61 40 -61 93zM644 1788q17 55 61 79h36 q61 -39 61 -92q-17 -55 -61 -80h-36q-61 40 -61 93zM826 304q16 55 60 80h37q60 -40 60 -93q-17 -54 -60 -79h-37q-60 39 -60 92zM826 516q16 55 60 79h37q60 -39 60 -92q-17 -55 -60 -80h-37q-60 40 -60 93zM826 728q16 54 60 79h37q60 -39 60 -92q-17 -55 -60 -80h-37 q-60 40 -60 93zM826 940q16 54 60 79h37q60 -40 60 -93q-17 -54 -60 -79h-37q-60 40 -60 93zM826 1151q16 55 60 80h37q60 -40 60 -93q-17 -55 -60 -79h-37q-60 39 -60 92zM826 1363q16 55 60 79h37q60 -39 60 -92q-17 -55 -60 -80h-37q-60 40 -60 93z" />
<glyph unicode="&#xdb;" d="M100 304q17 55 60 80h37q60 -40 60 -93q-16 -54 -60 -79h-37q-60 39 -60 92zM100 516q17 55 60 79h37q60 -39 60 -92q-16 -55 -60 -80h-37q-60 40 -60 93zM100 728q17 54 60 79h37q60 -39 60 -92q-16 -55 -60 -80h-37q-60 40 -60 93zM100 940q17 54 60 79h37 q60 -40 60 -93q-16 -54 -60 -79h-37q-60 40 -60 93zM100 1151q17 55 60 80h37q60 -40 60 -93q-16 -55 -60 -79h-37q-60 39 -60 92zM100 1363q17 55 60 79h37q60 -39 60 -92q-16 -55 -60 -80h-37q-60 40 -60 93zM281 93q17 54 61 79h36q61 -40 61 -93q-17 -54 -61 -79h-36 q-61 40 -61 93zM281 1576q17 55 61 80h36q61 -40 61 -93q-17 -55 -61 -79h-36q-61 39 -61 92zM463 93q17 54 60 79h37q60 -40 60 -93q-17 -54 -60 -79h-37q-60 40 -60 93zM463 1788q17 55 60 79h37q60 -39 60 -92q-17 -55 -60 -80h-37q-60 40 -60 93zM644 93q17 54 61 79h36 q61 -40 61 -93q-17 -54 -61 -79h-36q-61 40 -61 93zM644 1576q17 55 61 80h36q61 -40 61 -93q-17 -55 -61 -79h-36q-61 39 -61 92zM826 304q16 55 60 80h37q60 -40 60 -93q-17 -54 -60 -79h-37q-60 39 -60 92zM826 516q16 55 60 79h37q60 -39 60 -92q-17 -55 -60 -80h-37 q-60 40 -60 93zM826 728q16 54 60 79h37q60 -39 60 -92q-17 -55 -60 -80h-37q-60 40 -60 93zM826 940q16 54 60 79h37q60 -40 60 -93q-17 -54 -60 -79h-37q-60 40 -60 93zM826 1151q16 55 60 80h37q60 -40 60 -93q-17 -55 -60 -79h-37q-60 39 -60 92zM826 1363q16 55 60 79 h37q60 -39 60 -92q-17 -55 -60 -80h-37q-60 40 -60 93z" />
<glyph unicode="&#xdc;" d="M100 304q17 55 60 80h37q60 -40 60 -93q-16 -54 -60 -79h-37q-60 39 -60 92zM100 516q17 55 60 79h37q60 -39 60 -92q-16 -55 -60 -80h-37q-60 40 -60 93zM100 728q17 54 60 79h37q60 -39 60 -92q-16 -55 -60 -80h-37q-60 40 -60 93zM100 940q17 54 60 79h37 q60 -40 60 -93q-16 -54 -60 -79h-37q-60 40 -60 93zM100 1151q17 55 60 80h37q60 -40 60 -93q-16 -55 -60 -79h-37q-60 39 -60 92zM100 1363q17 55 60 79h37q60 -39 60 -92q-16 -55 -60 -80h-37q-60 40 -60 93zM281 93q17 54 61 79h36q61 -40 61 -93q-17 -54 -61 -79h-36 q-61 40 -61 93zM281 1788q17 55 61 79h36q61 -39 61 -92q-17 -55 -61 -80h-36q-61 40 -61 93zM463 93q17 54 60 79h37q60 -40 60 -93q-17 -54 -60 -79h-37q-60 40 -60 93zM644 93q17 54 61 79h36q61 -40 61 -93q-17 -54 -61 -79h-36q-61 40 -61 93zM644 1788q17 55 61 79h36 q61 -39 61 -92q-17 -55 -61 -80h-36q-61 40 -61 93zM826 304q16 55 60 80h37q60 -40 60 -93q-17 -54 -60 -79h-37q-60 39 -60 92zM826 516q16 55 60 79h37q60 -39 60 -92q-17 -55 -60 -80h-37q-60 40 -60 93zM826 728q16 54 60 79h37q60 -39 60 -92q-17 -55 -60 -80h-37 q-60 40 -60 93zM826 940q16 54 60 79h37q60 -40 60 -93q-17 -54 -60 -79h-37q-60 40 -60 93zM826 1151q16 55 60 80h37q60 -40 60 -93q-17 -55 -60 -79h-37q-60 39 -60 92zM826 1363q16 55 60 79h37q60 -39 60 -92q-17 -55 -60 -80h-37q-60 40 -60 93z" />
<glyph unicode="&#xdd;" d="M100 940q17 54 60 79h37q60 -40 60 -93q-16 -54 -60 -79h-37q-60 40 -60 93zM100 1151q17 55 60 80h37q60 -40 60 -93q-16 -55 -60 -79h-37q-60 39 -60 92zM100 1363q17 55 60 79h37q60 -39 60 -92q-16 -55 -60 -80h-37q-60 40 -60 93zM281 728q17 54 61 79h36 q61 -39 61 -92q-17 -55 -61 -80h-36q-61 40 -61 93zM463 93q17 54 60 79h37q60 -40 60 -93q-17 -54 -60 -79h-37q-60 40 -60 93zM463 304q17 55 60 80h37q60 -40 60 -93q-17 -54 -60 -79h-37q-60 39 -60 92zM463 516q17 55 60 79h37q60 -39 60 -92q-17 -55 -60 -80h-37 q-60 40 -60 93zM463 1576q17 55 60 80h37q60 -40 60 -93q-17 -55 -60 -79h-37q-60 39 -60 92zM644 728q17 54 61 79h36q61 -39 61 -92q-17 -55 -61 -80h-36q-61 40 -61 93zM644 1788q17 55 61 79h36q61 -39 61 -92q-17 -55 -61 -80h-36q-61 40 -61 93zM826 940q16 54 60 79 h37q60 -40 60 -93q-17 -54 -60 -79h-37q-60 40 -60 93zM826 1151q16 55 60 80h37q60 -40 60 -93q-17 -55 -60 -79h-37q-60 39 -60 92zM826 1363q16 55 60 79h37q60 -39 60 -92q-17 -55 -60 -80h-37q-60 40 -60 93z" />
<glyph unicode="&#xde;" d="M100 93q17 54 60 79h37q60 -40 60 -93q-16 -54 -60 -79h-37q-60 40 -60 93zM100 304q17 55 60 80h37q60 -40 60 -93q-16 -54 -60 -79h-37q-60 39 -60 92zM100 516q17 55 60 79h37q60 -39 60 -92q-16 -55 -60 -80h-37q-60 40 -60 93zM100 728q17 54 60 79h37 q60 -39 60 -92q-16 -55 -60 -80h-37q-60 40 -60 93zM100 940q17 54 60 79h37q60 -40 60 -93q-16 -54 -60 -79h-37q-60 40 -60 93zM100 1151q17 55 60 80h37q60 -40 60 -93q-16 -55 -60 -79h-37q-60 39 -60 92zM100 1363q17 55 60 79h37q60 -39 60 -92q-16 -55 -60 -80h-37 q-60 40 -60 93zM281 304q17 55 61 80h36q61 -40 61 -93q-17 -54 -61 -79h-36q-61 39 -61 92zM281 1151q17 55 61 80h36q61 -40 61 -93q-17 -55 -61 -79h-36q-61 39 -61 92zM463 304q17 55 60 80h37q60 -40 60 -93q-17 -54 -60 -79h-37q-60 39 -60 92zM463 1151q17 55 60 80 h37q60 -40 60 -93q-17 -55 -60 -79h-37q-60 39 -60 92zM644 304q17 55 61 80h36q61 -40 61 -93q-17 -54 -61 -79h-36q-61 39 -61 92zM644 1151q17 55 61 80h36q61 -40 61 -93q-17 -55 -61 -79h-36q-61 39 -61 92zM826 516q16 55 60 79h37q60 -39 60 -92q-17 -55 -60 -80h-37 q-60 40 -60 93zM826 728q16 54 60 79h37q60 -39 60 -92q-17 -55 -60 -80h-37q-60 40 -60 93zM826 940q16 54 60 79h37q60 -40 60 -93q-17 -54 -60 -79h-37q-60 40 -60 93z" />
<glyph unicode="&#xdf;" horiz-adv-x="2166" d="M100 304q17 55 60 80h37q60 -40 60 -93q-16 -54 -60 -79h-37q-60 39 -60 92zM100 940q17 54 60 79h37q60 -40 60 -93q-16 -54 -60 -79h-37q-60 40 -60 93zM100 1151q17 55 60 80h37q60 -40 60 -93q-16 -55 -60 -79h-37q-60 39 -60 92zM281 93q17 54 61 79h36 q61 -40 61 -93q-17 -54 -61 -79h-36q-61 40 -61 93zM281 728q17 54 61 79h36q61 -39 61 -92q-17 -55 -61 -80h-36q-61 40 -61 93zM281 1363q17 55 61 79h36q61 -39 61 -92q-17 -55 -61 -80h-36q-61 40 -61 93zM463 93q17 54 60 79h37q60 -40 60 -93q-17 -54 -60 -79h-37 q-60 40 -60 93zM463 728q17 54 60 79h37q60 -39 60 -92q-17 -55 -60 -80h-37q-60 40 -60 93zM463 1363q17 55 60 79h37q60 -39 60 -92q-17 -55 -60 -80h-37q-60 40 -60 93zM644 93q17 54 61 79h36q61 -40 61 -93q-17 -54 -61 -79h-36q-61 40 -61 93zM644 728q17 54 61 79h36 q61 -39 61 -92q-17 -55 -61 -80h-36q-61 40 -61 93zM644 1363q17 55 61 79h36q61 -39 61 -92q-17 -55 -61 -80h-36q-61 40 -61 93zM826 304q16 55 60 80h37q60 -40 60 -93q-17 -54 -60 -79h-37q-60 39 -60 92zM826 516q16 55 60 79h37q60 -39 60 -92q-17 -55 -60 -80h-37 q-60 40 -60 93zM826 1151q16 55 60 80h37q60 -40 60 -93q-17 -55 -60 -79h-37q-60 39 -60 92zM1183 304q17 55 60 80h37q60 -40 60 -93q-16 -54 -60 -79h-37q-60 39 -60 92zM1183 940q17 54 60 79h37q60 -40 60 -93q-16 -54 -60 -79h-37q-60 40 -60 93zM1183 1151 q17 55 60 80h37q60 -40 60 -93q-16 -55 -60 -79h-37q-60 39 -60 92zM1364 93q17 54 61 79h36q61 -40 61 -93q-17 -54 -61 -79h-36q-61 40 -61 93zM1364 728q17 54 61 79h36q61 -39 61 -92q-17 -55 -61 -80h-36q-61 40 -61 93zM1364 1363q17 55 61 79h36q61 -39 61 -92 q-17 -55 -61 -80h-36q-61 40 -61 93zM1546 93q17 54 60 79h37q60 -40 60 -93q-17 -54 -60 -79h-37q-60 40 -60 93zM1546 728q17 54 60 79h37q60 -39 60 -92q-17 -55 -60 -80h-37q-60 40 -60 93zM1546 1363q17 55 60 79h37q60 -39 60 -92q-17 -55 -60 -80h-37q-60 40 -60 93z M1727 93q17 54 61 79h36q61 -40 61 -93q-17 -54 -61 -79h-36q-61 40 -61 93zM1727 728q17 54 61 79h36q61 -39 61 -92q-17 -55 -61 -80h-36q-61 40 -61 93zM1727 1363q17 55 61 79h36q61 -39 61 -92q-17 -55 -61 -80h-36q-61 40 -61 93zM1909 304q16 55 60 80h37 q60 -40 60 -93q-17 -54 -60 -79h-37q-60 39 -60 92zM1909 516q16 55 60 79h37q60 -39 60 -92q-17 -55 -60 -80h-37q-60 40 -60 93zM1909 1151q16 55 60 80h37q60 -40 60 -93q-17 -55 -60 -79h-37q-60 39 -60 92z" />
<glyph unicode="&#xe0;" d="M100 93q17 54 60 79h37q60 -40 60 -93q-16 -54 -60 -79h-37q-60 40 -60 93zM100 304q17 55 60 80h37q60 -40 60 -93q-16 -54 -60 -79h-37q-60 39 -60 92zM100 516q17 55 60 79h37q60 -39 60 -92q-16 -55 -60 -80h-37q-60 40 -60 93zM100 728q17 54 60 79h37 q60 -39 60 -92q-16 -55 -60 -80h-37q-60 40 -60 93zM100 940q17 54 60 79h37q60 -40 60 -93q-16 -54 -60 -79h-37q-60 40 -60 93zM100 1151q17 55 60 80h37q60 -40 60 -93q-16 -55 -60 -79h-37q-60 39 -60 92zM281 728q17 54 61 79h36q61 -39 61 -92q-17 -55 -61 -80h-36 q-61 40 -61 93zM281 1363q17 55 61 79h36q61 -39 61 -92q-17 -55 -61 -80h-36q-61 40 -61 93zM281 1788q17 55 61 79h36q61 -39 61 -92q-17 -55 -61 -80h-36q-61 40 -61 93zM463 728q17 54 60 79h37q60 -39 60 -92q-17 -55 -60 -80h-37q-60 40 -60 93zM463 1363q17 55 60 79 h37q60 -39 60 -92q-17 -55 -60 -80h-37q-60 40 -60 93zM463 1576q17 55 60 80h37q60 -40 60 -93q-17 -55 -60 -79h-37q-60 39 -60 92zM644 728q17 54 61 79h36q61 -39 61 -92q-17 -55 -61 -80h-36q-61 40 -61 93zM644 1363q17 55 61 79h36q61 -39 61 -92q-17 -55 -61 -80 h-36q-61 40 -61 93zM826 93q16 54 60 79h37q60 -40 60 -93q-17 -54 -60 -79h-37q-60 40 -60 93zM826 304q16 55 60 80h37q60 -40 60 -93q-17 -54 -60 -79h-37q-60 39 -60 92zM826 516q16 55 60 79h37q60 -39 60 -92q-17 -55 -60 -80h-37q-60 40 -60 93zM826 728q16 54 60 79 h37q60 -39 60 -92q-17 -55 -60 -80h-37q-60 40 -60 93zM826 940q16 54 60 79h37q60 -40 60 -93q-17 -54 -60 -79h-37q-60 40 -60 93zM826 1151q16 55 60 80h37q60 -40 60 -93q-17 -55 -60 -79h-37q-60 39 -60 92z" />
<glyph unicode="&#xe1;" d="M100 93q17 54 60 79h37q60 -40 60 -93q-16 -54 -60 -79h-37q-60 40 -60 93zM100 304q17 55 60 80h37q60 -40 60 -93q-16 -54 -60 -79h-37q-60 39 -60 92zM100 516q17 55 60 79h37q60 -39 60 -92q-16 -55 -60 -80h-37q-60 40 -60 93zM100 728q17 54 60 79h37 q60 -39 60 -92q-16 -55 -60 -80h-37q-60 40 -60 93zM100 940q17 54 60 79h37q60 -40 60 -93q-16 -54 -60 -79h-37q-60 40 -60 93zM100 1151q17 55 60 80h37q60 -40 60 -93q-16 -55 -60 -79h-37q-60 39 -60 92zM281 728q17 54 61 79h36q61 -39 61 -92q-17 -55 -61 -80h-36 q-61 40 -61 93zM281 1363q17 55 61 79h36q61 -39 61 -92q-17 -55 -61 -80h-36q-61 40 -61 93zM463 728q17 54 60 79h37q60 -39 60 -92q-17 -55 -60 -80h-37q-60 40 -60 93zM463 1363q17 55 60 79h37q60 -39 60 -92q-17 -55 -60 -80h-37q-60 40 -60 93zM463 1576q17 55 60 80 h37q60 -40 60 -93q-17 -55 -60 -79h-37q-60 39 -60 92zM644 728q17 54 61 79h36q61 -39 61 -92q-17 -55 -61 -80h-36q-61 40 -61 93zM644 1363q17 55 61 79h36q61 -39 61 -92q-17 -55 -61 -80h-36q-61 40 -61 93zM644 1788q17 55 61 79h36q61 -39 61 -92q-17 -55 -61 -80 h-36q-61 40 -61 93zM826 93q16 54 60 79h37q60 -40 60 -93q-17 -54 -60 -79h-37q-60 40 -60 93zM826 304q16 55 60 80h37q60 -40 60 -93q-17 -54 -60 -79h-37q-60 39 -60 92zM826 516q16 55 60 79h37q60 -39 60 -92q-17 -55 -60 -80h-37q-60 40 -60 93zM826 728q16 54 60 79 h37q60 -39 60 -92q-17 -55 -60 -80h-37q-60 40 -60 93zM826 940q16 54 60 79h37q60 -40 60 -93q-17 -54 -60 -79h-37q-60 40 -60 93zM826 1151q16 55 60 80h37q60 -40 60 -93q-17 -55 -60 -79h-37q-60 39 -60 92z" />
<glyph unicode="&#xe2;" d="M100 93q17 54 60 79h37q60 -40 60 -93q-16 -54 -60 -79h-37q-60 40 -60 93zM100 304q17 55 60 80h37q60 -40 60 -93q-16 -54 -60 -79h-37q-60 39 -60 92zM100 516q17 55 60 79h37q60 -39 60 -92q-16 -55 -60 -80h-37q-60 40 -60 93zM100 728q17 54 60 79h37 q60 -39 60 -92q-16 -55 -60 -80h-37q-60 40 -60 93zM100 940q17 54 60 79h37q60 -40 60 -93q-16 -54 -60 -79h-37q-60 40 -60 93zM100 1151q17 55 60 80h37q60 -40 60 -93q-16 -55 -60 -79h-37q-60 39 -60 92zM281 728q17 54 61 79h36q61 -39 61 -92q-17 -55 -61 -80h-36 q-61 40 -61 93zM281 1363q17 55 61 79h36q61 -39 61 -92q-17 -55 -61 -80h-36q-61 40 -61 93zM281 1576q17 55 61 80h36q61 -40 61 -93q-17 -55 -61 -79h-36q-61 39 -61 92zM463 728q17 54 60 79h37q60 -39 60 -92q-17 -55 -60 -80h-37q-60 40 -60 93zM463 1363q17 55 60 79 h37q60 -39 60 -92q-17 -55 -60 -80h-37q-60 40 -60 93zM463 1788q17 55 60 79h37q60 -39 60 -92q-17 -55 -60 -80h-37q-60 40 -60 93zM644 728q17 54 61 79h36q61 -39 61 -92q-17 -55 -61 -80h-36q-61 40 -61 93zM644 1363q17 55 61 79h36q61 -39 61 -92q-17 -55 -61 -80 h-36q-61 40 -61 93zM644 1576q17 55 61 80h36q61 -40 61 -93q-17 -55 -61 -79h-36q-61 39 -61 92zM826 93q16 54 60 79h37q60 -40 60 -93q-17 -54 -60 -79h-37q-60 40 -60 93zM826 304q16 55 60 80h37q60 -40 60 -93q-17 -54 -60 -79h-37q-60 39 -60 92zM826 516 q16 55 60 79h37q60 -39 60 -92q-17 -55 -60 -80h-37q-60 40 -60 93zM826 728q16 54 60 79h37q60 -39 60 -92q-17 -55 -60 -80h-37q-60 40 -60 93zM826 940q16 54 60 79h37q60 -40 60 -93q-17 -54 -60 -79h-37q-60 40 -60 93zM826 1151q16 55 60 80h37q60 -40 60 -93 q-17 -55 -60 -79h-37q-60 39 -60 92z" />
<glyph unicode="&#xe3;" d="M100 93q17 54 60 79h37q60 -40 60 -93q-16 -54 -60 -79h-37q-60 40 -60 93zM100 304q17 55 60 80h37q60 -40 60 -93q-16 -54 -60 -79h-37q-60 39 -60 92zM100 516q17 55 60 79h37q60 -39 60 -92q-16 -55 -60 -80h-37q-60 40 -60 93zM100 728q17 54 60 79h37 q60 -39 60 -92q-16 -55 -60 -80h-37q-60 40 -60 93zM100 940q17 54 60 79h37q60 -40 60 -93q-16 -54 -60 -79h-37q-60 40 -60 93zM100 1151q17 55 60 80h37q60 -40 60 -93q-16 -55 -60 -79h-37q-60 39 -60 92zM281 728q17 54 61 79h36q61 -39 61 -92q-17 -55 -61 -80h-36 q-61 40 -61 93zM281 1363q17 55 61 79h36q61 -39 61 -92q-17 -55 -61 -80h-36q-61 40 -61 93zM281 1576q17 55 61 80h36q61 -40 61 -93q-17 -55 -61 -79h-36q-61 39 -61 92zM463 728q17 54 60 79h37q60 -39 60 -92q-17 -55 -60 -80h-37q-60 40 -60 93zM463 1363q17 55 60 79 h37q60 -39 60 -92q-17 -55 -60 -80h-37q-60 40 -60 93zM463 1788q17 55 60 79h37q60 -39 60 -92q-17 -55 -60 -80h-37q-60 40 -60 93zM644 728q17 54 61 79h36q61 -39 61 -92q-17 -55 -61 -80h-36q-61 40 -61 93zM644 1363q17 55 61 79h36q61 -39 61 -92q-17 -55 -61 -80 h-36q-61 40 -61 93zM644 1576q17 55 61 80h36q61 -40 61 -93q-17 -55 -61 -79h-36q-61 39 -61 92zM826 93q16 54 60 79h37q60 -40 60 -93q-17 -54 -60 -79h-37q-60 40 -60 93zM826 304q16 55 60 80h37q60 -40 60 -93q-17 -54 -60 -79h-37q-60 39 -60 92zM826 516 q16 55 60 79h37q60 -39 60 -92q-17 -55 -60 -80h-37q-60 40 -60 93zM826 728q16 54 60 79h37q60 -39 60 -92q-17 -55 -60 -80h-37q-60 40 -60 93zM826 940q16 54 60 79h37q60 -40 60 -93q-17 -54 -60 -79h-37q-60 40 -60 93zM826 1151q16 55 60 80h37q60 -40 60 -93 q-17 -55 -60 -79h-37q-60 39 -60 92zM826 1788q16 55 60 79h37q60 -39 60 -92q-17 -55 -60 -80h-37q-60 40 -60 93z" />
<glyph unicode="&#xe4;" d="M100 93q17 54 60 79h37q60 -40 60 -93q-16 -54 -60 -79h-37q-60 40 -60 93zM100 304q17 55 60 80h37q60 -40 60 -93q-16 -54 -60 -79h-37q-60 39 -60 92zM100 516q17 55 60 79h37q60 -39 60 -92q-16 -55 -60 -80h-37q-60 40 -60 93zM100 728q17 54 60 79h37 q60 -39 60 -92q-16 -55 -60 -80h-37q-60 40 -60 93zM100 940q17 54 60 79h37q60 -40 60 -93q-16 -54 -60 -79h-37q-60 40 -60 93zM100 1151q17 55 60 80h37q60 -40 60 -93q-16 -55 -60 -79h-37q-60 39 -60 92zM281 728q17 54 61 79h36q61 -39 61 -92q-17 -55 -61 -80h-36 q-61 40 -61 93zM281 1363q17 55 61 79h36q61 -39 61 -92q-17 -55 -61 -80h-36q-61 40 -61 93zM281 1788q17 55 61 79h36q61 -39 61 -92q-17 -55 -61 -80h-36q-61 40 -61 93zM463 728q17 54 60 79h37q60 -39 60 -92q-17 -55 -60 -80h-37q-60 40 -60 93zM463 1363q17 55 60 79 h37q60 -39 60 -92q-17 -55 -60 -80h-37q-60 40 -60 93zM644 728q17 54 61 79h36q61 -39 61 -92q-17 -55 -61 -80h-36q-61 40 -61 93zM644 1363q17 55 61 79h36q61 -39 61 -92q-17 -55 -61 -80h-36q-61 40 -61 93zM644 1788q17 55 61 79h36q61 -39 61 -92q-17 -55 -61 -80 h-36q-61 40 -61 93zM826 93q16 54 60 79h37q60 -40 60 -93q-17 -54 -60 -79h-37q-60 40 -60 93zM826 304q16 55 60 80h37q60 -40 60 -93q-17 -54 -60 -79h-37q-60 39 -60 92zM826 516q16 55 60 79h37q60 -39 60 -92q-17 -55 -60 -80h-37q-60 40 -60 93zM826 728q16 54 60 79 h37q60 -39 60 -92q-17 -55 -60 -80h-37q-60 40 -60 93zM826 940q16 54 60 79h37q60 -40 60 -93q-17 -54 -60 -79h-37q-60 40 -60 93zM826 1151q16 55 60 80h37q60 -40 60 -93q-17 -55 -60 -79h-37q-60 39 -60 92z" />
<glyph unicode="&#xe5;" d="M100 93q17 54 60 79h37q60 -40 60 -93q-16 -54 -60 -79h-37q-60 40 -60 93zM100 304q17 55 60 80h37q60 -40 60 -93q-16 -54 -60 -79h-37q-60 39 -60 92zM100 516q17 55 60 79h37q60 -39 60 -92q-16 -55 -60 -80h-37q-60 40 -60 93zM100 728q17 54 60 79h37 q60 -39 60 -92q-16 -55 -60 -80h-37q-60 40 -60 93zM100 940q17 54 60 79h37q60 -40 60 -93q-16 -54 -60 -79h-37q-60 40 -60 93zM100 1151q17 55 60 80h37q60 -40 60 -93q-16 -55 -60 -79h-37q-60 39 -60 92zM100 1576q17 55 60 80h37q60 -40 60 -93q-16 -55 -60 -79h-37 q-60 39 -60 92zM281 728q17 54 61 79h36q61 -39 61 -92q-17 -55 -61 -80h-36q-61 40 -61 93zM281 1363q17 55 61 79h36q61 -39 61 -92q-17 -55 -61 -80h-36q-61 40 -61 93zM281 1788q17 55 61 79h36q61 -39 61 -92q-17 -55 -61 -80h-36q-61 40 -61 93zM463 728q17 54 60 79 h37q60 -39 60 -92q-17 -55 -60 -80h-37q-60 40 -60 93zM463 1363q17 55 60 79h37q60 -39 60 -92q-17 -55 -60 -80h-37q-60 40 -60 93zM463 1788q17 55 60 79h37q60 -39 60 -92q-17 -55 -60 -80h-37q-60 40 -60 93zM644 728q17 54 61 79h36q61 -39 61 -92q-17 -55 -61 -80 h-36q-61 40 -61 93zM644 1363q17 55 61 79h36q61 -39 61 -92q-17 -55 -61 -80h-36q-61 40 -61 93zM644 1788q17 55 61 79h36q61 -39 61 -92q-17 -55 -61 -80h-36q-61 40 -61 93zM826 93q16 54 60 79h37q60 -40 60 -93q-17 -54 -60 -79h-37q-60 40 -60 93zM826 304 q16 55 60 80h37q60 -40 60 -93q-17 -54 -60 -79h-37q-60 39 -60 92zM826 516q16 55 60 79h37q60 -39 60 -92q-17 -55 -60 -80h-37q-60 40 -60 93zM826 728q16 54 60 79h37q60 -39 60 -92q-17 -55 -60 -80h-37q-60 40 -60 93zM826 940q16 54 60 79h37q60 -40 60 -93 q-17 -54 -60 -79h-37q-60 40 -60 93zM826 1151q16 55 60 80h37q60 -40 60 -93q-17 -55 -60 -79h-37q-60 39 -60 92zM826 1576q16 55 60 80h37q60 -40 60 -93q-17 -55 -60 -79h-37q-60 39 -60 92z" />
<glyph unicode="&#xe6;" d="M100 93q17 54 60 79h37q60 -40 60 -93q-16 -54 -60 -79h-37q-60 40 -60 93zM100 304q17 55 60 80h37q60 -40 60 -93q-16 -54 -60 -79h-37q-60 39 -60 92zM100 516q17 55 60 79h37q60 -39 60 -92q-16 -55 -60 -80h-37q-60 40 -60 93zM100 728q17 54 60 79h37 q60 -39 60 -92q-16 -55 -60 -80h-37q-60 40 -60 93zM100 940q17 54 60 79h37q60 -40 60 -93q-16 -54 -60 -79h-37q-60 40 -60 93zM100 1151q17 55 60 80h37q60 -40 60 -93q-16 -55 -60 -79h-37q-60 39 -60 92zM281 728q17 54 61 79h36q61 -39 61 -92q-17 -55 -61 -80h-36 q-61 40 -61 93zM281 1363q17 55 61 79h36q61 -39 61 -92q-17 -55 -61 -80h-36q-61 40 -61 93zM463 93q17 54 60 79h37q60 -40 60 -93q-17 -54 -60 -79h-37q-60 40 -60 93zM463 304q17 55 60 80h37q60 -40 60 -93q-17 -54 -60 -79h-37q-60 39 -60 92zM463 516q17 55 60 79h37 q60 -39 60 -92q-17 -55 -60 -80h-37q-60 40 -60 93zM463 728q17 54 60 79h37q60 -39 60 -92q-17 -55 -60 -80h-37q-60 40 -60 93zM463 940q17 54 60 79h37q60 -40 60 -93q-17 -54 -60 -79h-37q-60 40 -60 93zM463 1151q17 55 60 80h37q60 -40 60 -93q-17 -55 -60 -79h-37 q-60 39 -60 92zM463 1363q17 55 60 79h37q60 -39 60 -92q-17 -55 -60 -80h-37q-60 40 -60 93zM644 93q17 54 61 79h36q61 -40 61 -93q-17 -54 -61 -79h-36q-61 40 -61 93zM644 728q17 54 61 79h36q61 -39 61 -92q-17 -55 -61 -80h-36q-61 40 -61 93zM644 1363q17 55 61 79 h36q61 -39 61 -92q-17 -55 -61 -80h-36q-61 40 -61 93zM826 93q16 54 60 79h37q60 -40 60 -93q-17 -54 -60 -79h-37q-60 40 -60 93zM826 728q16 54 60 79h37q60 -39 60 -92q-17 -55 -60 -80h-37q-60 40 -60 93zM826 1363q16 55 60 79h37q60 -39 60 -92q-17 -55 -60 -80h-37 q-60 40 -60 93z" />
<glyph unicode="&#xe7;" d="M100 304q17 55 60 80h37q60 -40 60 -93q-16 -54 -60 -79h-37q-60 39 -60 92zM100 516q17 55 60 79h37q60 -39 60 -92q-16 -55 -60 -80h-37q-60 40 -60 93zM100 728q17 54 60 79h37q60 -39 60 -92q-16 -55 -60 -80h-37q-60 40 -60 93zM100 940q17 54 60 79h37 q60 -40 60 -93q-16 -54 -60 -79h-37q-60 40 -60 93zM100 1151q17 55 60 80h37q60 -40 60 -93q-16 -55 -60 -79h-37q-60 39 -60 92zM281 93q17 54 61 79h36q61 -40 61 -93q-17 -54 -61 -79h-36q-61 40 -61 93zM281 -316q17 55 61 80h36q61 -40 61 -93q-17 -55 -61 -79h-36 q-61 39 -61 92zM281 1363q17 55 61 79h36q61 -39 61 -92q-17 -55 -61 -80h-36q-61 40 -61 93zM463 93q17 54 60 79h37q60 -40 60 -93q-17 -54 -60 -79h-37q-60 40 -60 93zM463 -104q17 55 60 79h37q60 -39 60 -92q-17 -55 -60 -80h-37q-60 40 -60 93zM463 1363q17 55 60 79 h37q60 -39 60 -92q-17 -55 -60 -80h-37q-60 40 -60 93zM644 93q17 54 61 79h36q61 -40 61 -93q-17 -54 -61 -79h-36q-61 40 -61 93zM644 1363q17 55 61 79h36q61 -39 61 -92q-17 -55 -61 -80h-36q-61 40 -61 93zM826 304q16 55 60 80h37q60 -40 60 -93q-17 -54 -60 -79h-37 q-60 39 -60 92zM826 1151q16 55 60 80h37q60 -40 60 -93q-17 -55 -60 -79h-37q-60 39 -60 92z" />
<glyph unicode="&#xe8;" d="M100 93q17 54 60 79h37q60 -40 60 -93q-16 -54 -60 -79h-37q-60 40 -60 93zM100 304q17 55 60 80h37q60 -40 60 -93q-16 -54 -60 -79h-37q-60 39 -60 92zM100 516q17 55 60 79h37q60 -39 60 -92q-16 -55 -60 -80h-37q-60 40 -60 93zM100 728q17 54 60 79h37 q60 -39 60 -92q-16 -55 -60 -80h-37q-60 40 -60 93zM100 940q17 54 60 79h37q60 -40 60 -93q-16 -54 -60 -79h-37q-60 40 -60 93zM100 1151q17 55 60 80h37q60 -40 60 -93q-16 -55 -60 -79h-37q-60 39 -60 92zM100 1363q17 55 60 79h37q60 -39 60 -92q-16 -55 -60 -80h-37 q-60 40 -60 93zM281 93q17 54 61 79h36q61 -40 61 -93q-17 -54 -61 -79h-36q-61 40 -61 93zM281 728q17 54 61 79h36q61 -39 61 -92q-17 -55 -61 -80h-36q-61 40 -61 93zM281 1363q17 55 61 79h36q61 -39 61 -92q-17 -55 -61 -80h-36q-61 40 -61 93zM281 1788q17 55 61 79 h36q61 -39 61 -92q-17 -55 -61 -80h-36q-61 40 -61 93zM463 93q17 54 60 79h37q60 -40 60 -93q-17 -54 -60 -79h-37q-60 40 -60 93zM463 728q17 54 60 79h37q60 -39 60 -92q-17 -55 -60 -80h-37q-60 40 -60 93zM463 1363q17 55 60 79h37q60 -39 60 -92q-17 -55 -60 -80h-37 q-60 40 -60 93zM463 1576q17 55 60 80h37q60 -40 60 -93q-17 -55 -60 -79h-37q-60 39 -60 92zM644 93q17 54 61 79h36q61 -40 61 -93q-17 -54 -61 -79h-36q-61 40 -61 93zM644 728q17 54 61 79h36q61 -39 61 -92q-17 -55 -61 -80h-36q-61 40 -61 93zM644 1363q17 55 61 79 h36q61 -39 61 -92q-17 -55 -61 -80h-36q-61 40 -61 93zM826 93q16 54 60 79h37q60 -40 60 -93q-17 -54 -60 -79h-37q-60 40 -60 93zM826 1363q16 55 60 79h37q60 -39 60 -92q-17 -55 -60 -80h-37q-60 40 -60 93z" />
<glyph unicode="&#xe9;" d="M100 93q17 54 60 79h37q60 -40 60 -93q-16 -54 -60 -79h-37q-60 40 -60 93zM100 304q17 55 60 80h37q60 -40 60 -93q-16 -54 -60 -79h-37q-60 39 -60 92zM100 516q17 55 60 79h37q60 -39 60 -92q-16 -55 -60 -80h-37q-60 40 -60 93zM100 728q17 54 60 79h37 q60 -39 60 -92q-16 -55 -60 -80h-37q-60 40 -60 93zM100 940q17 54 60 79h37q60 -40 60 -93q-16 -54 -60 -79h-37q-60 40 -60 93zM100 1151q17 55 60 80h37q60 -40 60 -93q-16 -55 -60 -79h-37q-60 39 -60 92zM100 1363q17 55 60 79h37q60 -39 60 -92q-16 -55 -60 -80h-37 q-60 40 -60 93zM281 93q17 54 61 79h36q61 -40 61 -93q-17 -54 -61 -79h-36q-61 40 -61 93zM281 728q17 54 61 79h36q61 -39 61 -92q-17 -55 -61 -80h-36q-61 40 -61 93zM281 1363q17 55 61 79h36q61 -39 61 -92q-17 -55 -61 -80h-36q-61 40 -61 93zM463 93q17 54 60 79h37 q60 -40 60 -93q-17 -54 -60 -79h-37q-60 40 -60 93zM463 728q17 54 60 79h37q60 -39 60 -92q-17 -55 -60 -80h-37q-60 40 -60 93zM463 1363q17 55 60 79h37q60 -39 60 -92q-17 -55 -60 -80h-37q-60 40 -60 93zM463 1576q17 55 60 80h37q60 -40 60 -93q-17 -55 -60 -79h-37 q-60 39 -60 92zM644 93q17 54 61 79h36q61 -40 61 -93q-17 -54 -61 -79h-36q-61 40 -61 93zM644 728q17 54 61 79h36q61 -39 61 -92q-17 -55 -61 -80h-36q-61 40 -61 93zM644 1363q17 55 61 79h36q61 -39 61 -92q-17 -55 -61 -80h-36q-61 40 -61 93zM644 1788q17 55 61 79 h36q61 -39 61 -92q-17 -55 -61 -80h-36q-61 40 -61 93zM826 93q16 54 60 79h37q60 -40 60 -93q-17 -54 -60 -79h-37q-60 40 -60 93zM826 1363q16 55 60 79h37q60 -39 60 -92q-17 -55 -60 -80h-37q-60 40 -60 93z" />
<glyph unicode="&#xea;" d="M100 93q17 54 60 79h37q60 -40 60 -93q-16 -54 -60 -79h-37q-60 40 -60 93zM100 304q17 55 60 80h37q60 -40 60 -93q-16 -54 -60 -79h-37q-60 39 -60 92zM100 516q17 55 60 79h37q60 -39 60 -92q-16 -55 -60 -80h-37q-60 40 -60 93zM100 728q17 54 60 79h37 q60 -39 60 -92q-16 -55 -60 -80h-37q-60 40 -60 93zM100 940q17 54 60 79h37q60 -40 60 -93q-16 -54 -60 -79h-37q-60 40 -60 93zM100 1151q17 55 60 80h37q60 -40 60 -93q-16 -55 -60 -79h-37q-60 39 -60 92zM100 1363q17 55 60 79h37q60 -39 60 -92q-16 -55 -60 -80h-37 q-60 40 -60 93zM281 93q17 54 61 79h36q61 -40 61 -93q-17 -54 -61 -79h-36q-61 40 -61 93zM281 728q17 54 61 79h36q61 -39 61 -92q-17 -55 -61 -80h-36q-61 40 -61 93zM281 1363q17 55 61 79h36q61 -39 61 -92q-17 -55 -61 -80h-36q-61 40 -61 93zM281 1576q17 55 61 80 h36q61 -40 61 -93q-17 -55 -61 -79h-36q-61 39 -61 92zM463 93q17 54 60 79h37q60 -40 60 -93q-17 -54 -60 -79h-37q-60 40 -60 93zM463 728q17 54 60 79h37q60 -39 60 -92q-17 -55 -60 -80h-37q-60 40 -60 93zM463 1363q17 55 60 79h37q60 -39 60 -92q-17 -55 -60 -80h-37 q-60 40 -60 93zM463 1788q17 55 60 79h37q60 -39 60 -92q-17 -55 -60 -80h-37q-60 40 -60 93zM644 93q17 54 61 79h36q61 -40 61 -93q-17 -54 -61 -79h-36q-61 40 -61 93zM644 728q17 54 61 79h36q61 -39 61 -92q-17 -55 -61 -80h-36q-61 40 -61 93zM644 1363q17 55 61 79 h36q61 -39 61 -92q-17 -55 -61 -80h-36q-61 40 -61 93zM644 1576q17 55 61 80h36q61 -40 61 -93q-17 -55 -61 -79h-36q-61 39 -61 92zM826 93q16 54 60 79h37q60 -40 60 -93q-17 -54 -60 -79h-37q-60 40 -60 93zM826 1363q16 55 60 79h37q60 -39 60 -92q-17 -55 -60 -80h-37 q-60 40 -60 93z" />
<glyph unicode="&#xeb;" d="M100 93q17 54 60 79h37q60 -40 60 -93q-16 -54 -60 -79h-37q-60 40 -60 93zM100 304q17 55 60 80h37q60 -40 60 -93q-16 -54 -60 -79h-37q-60 39 -60 92zM100 516q17 55 60 79h37q60 -39 60 -92q-16 -55 -60 -80h-37q-60 40 -60 93zM100 728q17 54 60 79h37 q60 -39 60 -92q-16 -55 -60 -80h-37q-60 40 -60 93zM100 940q17 54 60 79h37q60 -40 60 -93q-16 -54 -60 -79h-37q-60 40 -60 93zM100 1151q17 55 60 80h37q60 -40 60 -93q-16 -55 -60 -79h-37q-60 39 -60 92zM100 1363q17 55 60 79h37q60 -39 60 -92q-16 -55 -60 -80h-37 q-60 40 -60 93zM281 93q17 54 61 79h36q61 -40 61 -93q-17 -54 -61 -79h-36q-61 40 -61 93zM281 728q17 54 61 79h36q61 -39 61 -92q-17 -55 -61 -80h-36q-61 40 -61 93zM281 1363q17 55 61 79h36q61 -39 61 -92q-17 -55 -61 -80h-36q-61 40 -61 93zM281 1788q17 55 61 79 h36q61 -39 61 -92q-17 -55 -61 -80h-36q-61 40 -61 93zM463 93q17 54 60 79h37q60 -40 60 -93q-17 -54 -60 -79h-37q-60 40 -60 93zM463 728q17 54 60 79h37q60 -39 60 -92q-17 -55 -60 -80h-37q-60 40 -60 93zM463 1363q17 55 60 79h37q60 -39 60 -92q-17 -55 -60 -80h-37 q-60 40 -60 93zM644 93q17 54 61 79h36q61 -40 61 -93q-17 -54 -61 -79h-36q-61 40 -61 93zM644 728q17 54 61 79h36q61 -39 61 -92q-17 -55 -61 -80h-36q-61 40 -61 93zM644 1363q17 55 61 79h36q61 -39 61 -92q-17 -55 -61 -80h-36q-61 40 -61 93zM644 1788q17 55 61 79 h36q61 -39 61 -92q-17 -55 -61 -80h-36q-61 40 -61 93zM826 93q16 54 60 79h37q60 -40 60 -93q-17 -54 -60 -79h-37q-60 40 -60 93zM826 1363q16 55 60 79h37q60 -39 60 -92q-17 -55 -60 -80h-37q-60 40 -60 93z" />
<glyph unicode="&#xec;" d="M281 1788q17 55 61 79h36q61 -39 61 -92q-17 -55 -61 -80h-36q-61 40 -61 93zM463 93q17 54 60 79h37q60 -40 60 -93q-17 -54 -60 -79h-37q-60 40 -60 93zM463 304q17 55 60 80h37q60 -40 60 -93q-17 -54 -60 -79h-37q-60 39 -60 92zM463 516q17 55 60 79h37 q60 -39 60 -92q-17 -55 -60 -80h-37q-60 40 -60 93zM463 728q17 54 60 79h37q60 -39 60 -92q-17 -55 -60 -80h-37q-60 40 -60 93zM463 940q17 54 60 79h37q60 -40 60 -93q-17 -54 -60 -79h-37q-60 40 -60 93zM463 1151q17 55 60 80h37q60 -40 60 -93q-17 -55 -60 -79h-37 q-60 39 -60 92zM463 1363q17 55 60 79h37q60 -39 60 -92q-17 -55 -60 -80h-37q-60 40 -60 93zM463 1576q17 55 60 80h37q60 -40 60 -93q-17 -55 -60 -79h-37q-60 39 -60 92z" />
<glyph unicode="&#xed;" d="M463 93q17 54 60 79h37q60 -40 60 -93q-17 -54 -60 -79h-37q-60 40 -60 93zM463 304q17 55 60 80h37q60 -40 60 -93q-17 -54 -60 -79h-37q-60 39 -60 92zM463 516q17 55 60 79h37q60 -39 60 -92q-17 -55 -60 -80h-37q-60 40 -60 93zM463 728q17 54 60 79h37 q60 -39 60 -92q-17 -55 -60 -80h-37q-60 40 -60 93zM463 940q17 54 60 79h37q60 -40 60 -93q-17 -54 -60 -79h-37q-60 40 -60 93zM463 1151q17 55 60 80h37q60 -40 60 -93q-17 -55 -60 -79h-37q-60 39 -60 92zM463 1363q17 55 60 79h37q60 -39 60 -92q-17 -55 -60 -80h-37 q-60 40 -60 93zM463 1576q17 55 60 80h37q60 -40 60 -93q-17 -55 -60 -79h-37q-60 39 -60 92zM644 1788q17 55 61 79h36q61 -39 61 -92q-17 -55 -61 -80h-36q-61 40 -61 93z" />
<glyph unicode="&#xee;" d="M281 1576q17 55 61 80h36q61 -40 61 -93q-17 -55 -61 -79h-36q-61 39 -61 92zM463 93q17 54 60 79h37q60 -40 60 -93q-17 -54 -60 -79h-37q-60 40 -60 93zM463 304q17 55 60 80h37q60 -40 60 -93q-17 -54 -60 -79h-37q-60 39 -60 92zM463 516q17 55 60 79h37 q60 -39 60 -92q-17 -55 -60 -80h-37q-60 40 -60 93zM463 728q17 54 60 79h37q60 -39 60 -92q-17 -55 -60 -80h-37q-60 40 -60 93zM463 940q17 54 60 79h37q60 -40 60 -93q-17 -54 -60 -79h-37q-60 40 -60 93zM463 1151q17 55 60 80h37q60 -40 60 -93q-17 -55 -60 -79h-37 q-60 39 -60 92zM463 1363q17 55 60 79h37q60 -39 60 -92q-17 -55 -60 -80h-37q-60 40 -60 93zM463 1788q17 55 60 79h37q60 -39 60 -92q-17 -55 -60 -80h-37q-60 40 -60 93zM644 1576q17 55 61 80h36q61 -40 61 -93q-17 -55 -61 -79h-36q-61 39 -61 92z" />
<glyph unicode="&#xef;" d="M281 1788q17 55 61 79h36q61 -39 61 -92q-17 -55 -61 -80h-36q-61 40 -61 93zM463 93q17 54 60 79h37q60 -40 60 -93q-17 -54 -60 -79h-37q-60 40 -60 93zM463 304q17 55 60 80h37q60 -40 60 -93q-17 -54 -60 -79h-37q-60 39 -60 92zM463 516q17 55 60 79h37 q60 -39 60 -92q-17 -55 -60 -80h-37q-60 40 -60 93zM463 728q17 54 60 79h37q60 -39 60 -92q-17 -55 -60 -80h-37q-60 40 -60 93zM463 940q17 54 60 79h37q60 -40 60 -93q-17 -54 -60 -79h-37q-60 40 -60 93zM463 1151q17 55 60 80h37q60 -40 60 -93q-17 -55 -60 -79h-37 q-60 39 -60 92zM463 1363q17 55 60 79h37q60 -39 60 -92q-17 -55 -60 -80h-37q-60 40 -60 93zM644 1788q17 55 61 79h36q61 -39 61 -92q-17 -55 -61 -80h-36q-61 40 -61 93z" />
<glyph unicode="&#xf0;" horiz-adv-x="1212" d="M44 728q17 54 61 79h36q61 -39 61 -92q-17 -55 -61 -80h-36q-61 40 -61 93zM229 93q17 54 60 79h37q60 -40 60 -93q-16 -54 -60 -79h-37q-60 40 -60 93zM229 304q17 55 60 80h37q60 -40 60 -93q-16 -54 -60 -79h-37q-60 39 -60 92zM229 516q17 55 60 79h37q60 -39 60 -92 q-16 -55 -60 -80h-37q-60 40 -60 93zM229 728q17 54 60 79h37q60 -39 60 -92q-16 -55 -60 -80h-37q-60 40 -60 93zM229 940q17 54 60 79h37q60 -40 60 -93q-16 -54 -60 -79h-37q-60 40 -60 93zM229 1151q17 55 60 80h37q60 -40 60 -93q-16 -55 -60 -79h-37q-60 39 -60 92z M229 1363q17 55 60 79h37q60 -39 60 -92q-16 -55 -60 -80h-37q-60 40 -60 93zM407 728q17 54 61 79h36q61 -39 61 -92q-17 -55 -61 -80h-36q-61 40 -61 93zM410 93q17 54 61 79h36q61 -40 61 -93q-17 -54 -61 -79h-36q-61 40 -61 93zM410 1363q17 55 61 79h36q61 -39 61 -92 q-17 -55 -61 -80h-36q-61 40 -61 93zM592 93q17 54 60 79h37q60 -40 60 -93q-17 -54 -60 -79h-37q-60 40 -60 93zM592 1363q17 55 60 79h37q60 -39 60 -92q-17 -55 -60 -80h-37q-60 40 -60 93zM773 93q17 54 61 79h36q61 -40 61 -93q-17 -54 -61 -79h-36q-61 40 -61 93z M773 1363q17 55 61 79h36q61 -39 61 -92q-17 -55 -61 -80h-36q-61 40 -61 93zM955 304q16 55 60 80h37q60 -40 60 -93q-17 -54 -60 -79h-37q-60 39 -60 92zM955 516q16 55 60 79h37q60 -39 60 -92q-17 -55 -60 -80h-37q-60 40 -60 93zM955 728q16 54 60 79h37q60 -39 60 -92 q-17 -55 -60 -80h-37q-60 40 -60 93zM955 940q16 54 60 79h37q60 -40 60 -93q-17 -54 -60 -79h-37q-60 40 -60 93zM955 1151q16 55 60 80h37q60 -40 60 -93q-17 -55 -60 -79h-37q-60 39 -60 92z" />
<glyph unicode="&#xf1;" d="M100 93q17 54 60 79h37q60 -40 60 -93q-16 -54 -60 -79h-37q-60 40 -60 93zM100 304q17 55 60 80h37q60 -40 60 -93q-16 -54 -60 -79h-37q-60 39 -60 92zM100 516q17 55 60 79h37q60 -39 60 -92q-16 -55 -60 -80h-37q-60 40 -60 93zM100 728q17 54 60 79h37 q60 -39 60 -92q-16 -55 -60 -80h-37q-60 40 -60 93zM100 940q17 54 60 79h37q60 -40 60 -93q-16 -54 -60 -79h-37q-60 40 -60 93zM100 1151q17 55 60 80h37q60 -40 60 -93q-16 -55 -60 -79h-37q-60 39 -60 92zM100 1363q17 55 60 79h37q60 -39 60 -92q-16 -55 -60 -80h-37 q-60 40 -60 93zM281 1151q17 55 61 80h36q61 -40 61 -93q-17 -55 -61 -79h-36q-61 39 -61 92zM281 1576q17 55 61 80h36q61 -40 61 -93q-17 -55 -61 -79h-36q-61 39 -61 92zM463 940q17 54 60 79h37q60 -40 60 -93q-17 -54 -60 -79h-37q-60 40 -60 93zM463 1788q17 55 60 79 h37q60 -39 60 -92q-17 -55 -60 -80h-37q-60 40 -60 93zM644 728q17 54 61 79h36q61 -39 61 -92q-17 -55 -61 -80h-36q-61 40 -61 93zM644 1576q17 55 61 80h36q61 -40 61 -93q-17 -55 -61 -79h-36q-61 39 -61 92zM826 93q16 54 60 79h37q60 -40 60 -93q-17 -54 -60 -79h-37 q-60 40 -60 93zM826 304q16 55 60 80h37q60 -40 60 -93q-17 -54 -60 -79h-37q-60 39 -60 92zM826 516q16 55 60 79h37q60 -39 60 -92q-17 -55 -60 -80h-37q-60 40 -60 93zM826 728q16 54 60 79h37q60 -39 60 -92q-17 -55 -60 -80h-37q-60 40 -60 93zM826 940q16 54 60 79h37 q60 -40 60 -93q-17 -54 -60 -79h-37q-60 40 -60 93zM826 1151q16 55 60 80h37q60 -40 60 -93q-17 -55 -60 -79h-37q-60 39 -60 92zM826 1363q16 55 60 79h37q60 -39 60 -92q-17 -55 -60 -80h-37q-60 40 -60 93zM826 1788q16 55 60 79h37q60 -39 60 -92q-17 -55 -60 -80h-37 q-60 40 -60 93z" />
<glyph unicode="&#xf2;" d="M100 304q17 55 60 80h37q60 -40 60 -93q-16 -54 -60 -79h-37q-60 39 -60 92zM100 516q17 55 60 79h37q60 -39 60 -92q-16 -55 -60 -80h-37q-60 40 -60 93zM100 728q17 54 60 79h37q60 -39 60 -92q-16 -55 -60 -80h-37q-60 40 -60 93zM100 940q17 54 60 79h37 q60 -40 60 -93q-16 -54 -60 -79h-37q-60 40 -60 93zM100 1151q17 55 60 80h37q60 -40 60 -93q-16 -55 -60 -79h-37q-60 39 -60 92zM281 93q17 54 61 79h36q61 -40 61 -93q-17 -54 -61 -79h-36q-61 40 -61 93zM281 1363q17 55 61 79h36q61 -39 61 -92q-17 -55 -61 -80h-36 q-61 40 -61 93zM281 1788q17 55 61 79h36q61 -39 61 -92q-17 -55 -61 -80h-36q-61 40 -61 93zM463 93q17 54 60 79h37q60 -40 60 -93q-17 -54 -60 -79h-37q-60 40 -60 93zM463 1363q17 55 60 79h37q60 -39 60 -92q-17 -55 -60 -80h-37q-60 40 -60 93zM463 1576q17 55 60 80 h37q60 -40 60 -93q-17 -55 -60 -79h-37q-60 39 -60 92zM644 93q17 54 61 79h36q61 -40 61 -93q-17 -54 -61 -79h-36q-61 40 -61 93zM644 1363q17 55 61 79h36q61 -39 61 -92q-17 -55 -61 -80h-36q-61 40 -61 93zM826 304q16 55 60 80h37q60 -40 60 -93q-17 -54 -60 -79h-37 q-60 39 -60 92zM826 516q16 55 60 79h37q60 -39 60 -92q-17 -55 -60 -80h-37q-60 40 -60 93zM826 728q16 54 60 79h37q60 -39 60 -92q-17 -55 -60 -80h-37q-60 40 -60 93zM826 940q16 54 60 79h37q60 -40 60 -93q-17 -54 -60 -79h-37q-60 40 -60 93zM826 1151q16 55 60 80 h37q60 -40 60 -93q-17 -55 -60 -79h-37q-60 39 -60 92z" />
<glyph unicode="&#xf3;" d="M100 304q17 55 60 80h37q60 -40 60 -93q-16 -54 -60 -79h-37q-60 39 -60 92zM100 516q17 55 60 79h37q60 -39 60 -92q-16 -55 -60 -80h-37q-60 40 -60 93zM100 728q17 54 60 79h37q60 -39 60 -92q-16 -55 -60 -80h-37q-60 40 -60 93zM100 940q17 54 60 79h37 q60 -40 60 -93q-16 -54 -60 -79h-37q-60 40 -60 93zM100 1151q17 55 60 80h37q60 -40 60 -93q-16 -55 -60 -79h-37q-60 39 -60 92zM281 93q17 54 61 79h36q61 -40 61 -93q-17 -54 -61 -79h-36q-61 40 -61 93zM281 1363q17 55 61 79h36q61 -39 61 -92q-17 -55 -61 -80h-36 q-61 40 -61 93zM463 93q17 54 60 79h37q60 -40 60 -93q-17 -54 -60 -79h-37q-60 40 -60 93zM463 1363q17 55 60 79h37q60 -39 60 -92q-17 -55 -60 -80h-37q-60 40 -60 93zM463 1576q17 55 60 80h37q60 -40 60 -93q-17 -55 -60 -79h-37q-60 39 -60 92zM644 93q17 54 61 79h36 q61 -40 61 -93q-17 -54 -61 -79h-36q-61 40 -61 93zM644 1363q17 55 61 79h36q61 -39 61 -92q-17 -55 -61 -80h-36q-61 40 -61 93zM644 1788q17 55 61 79h36q61 -39 61 -92q-17 -55 -61 -80h-36q-61 40 -61 93zM826 304q16 55 60 80h37q60 -40 60 -93q-17 -54 -60 -79h-37 q-60 39 -60 92zM826 516q16 55 60 79h37q60 -39 60 -92q-17 -55 -60 -80h-37q-60 40 -60 93zM826 728q16 54 60 79h37q60 -39 60 -92q-17 -55 -60 -80h-37q-60 40 -60 93zM826 940q16 54 60 79h37q60 -40 60 -93q-17 -54 -60 -79h-37q-60 40 -60 93zM826 1151q16 55 60 80 h37q60 -40 60 -93q-17 -55 -60 -79h-37q-60 39 -60 92z" />
<glyph unicode="&#xf4;" d="M100 304q17 55 60 80h37q60 -40 60 -93q-16 -54 -60 -79h-37q-60 39 -60 92zM100 516q17 55 60 79h37q60 -39 60 -92q-16 -55 -60 -80h-37q-60 40 -60 93zM100 728q17 54 60 79h37q60 -39 60 -92q-16 -55 -60 -80h-37q-60 40 -60 93zM100 940q17 54 60 79h37 q60 -40 60 -93q-16 -54 -60 -79h-37q-60 40 -60 93zM100 1151q17 55 60 80h37q60 -40 60 -93q-16 -55 -60 -79h-37q-60 39 -60 92zM281 93q17 54 61 79h36q61 -40 61 -93q-17 -54 -61 -79h-36q-61 40 -61 93zM281 1363q17 55 61 79h36q61 -39 61 -92q-17 -55 -61 -80h-36 q-61 40 -61 93zM281 1576q17 55 61 80h36q61 -40 61 -93q-17 -55 -61 -79h-36q-61 39 -61 92zM463 93q17 54 60 79h37q60 -40 60 -93q-17 -54 -60 -79h-37q-60 40 -60 93zM463 1363q17 55 60 79h37q60 -39 60 -92q-17 -55 -60 -80h-37q-60 40 -60 93zM463 1788q17 55 60 79 h37q60 -39 60 -92q-17 -55 -60 -80h-37q-60 40 -60 93zM644 93q17 54 61 79h36q61 -40 61 -93q-17 -54 -61 -79h-36q-61 40 -61 93zM644 1363q17 55 61 79h36q61 -39 61 -92q-17 -55 -61 -80h-36q-61 40 -61 93zM644 1576q17 55 61 80h36q61 -40 61 -93q-17 -55 -61 -79h-36 q-61 39 -61 92zM826 304q16 55 60 80h37q60 -40 60 -93q-17 -54 -60 -79h-37q-60 39 -60 92zM826 516q16 55 60 79h37q60 -39 60 -92q-17 -55 -60 -80h-37q-60 40 -60 93zM826 728q16 54 60 79h37q60 -39 60 -92q-17 -55 -60 -80h-37q-60 40 -60 93zM826 940q16 54 60 79h37 q60 -40 60 -93q-17 -54 -60 -79h-37q-60 40 -60 93zM826 1151q16 55 60 80h37q60 -40 60 -93q-17 -55 -60 -79h-37q-60 39 -60 92z" />
<glyph unicode="&#xf5;" d="M100 304q17 55 60 80h37q60 -40 60 -93q-16 -54 -60 -79h-37q-60 39 -60 92zM100 516q17 55 60 79h37q60 -39 60 -92q-16 -55 -60 -80h-37q-60 40 -60 93zM100 728q17 54 60 79h37q60 -39 60 -92q-16 -55 -60 -80h-37q-60 40 -60 93zM100 940q17 54 60 79h37 q60 -40 60 -93q-16 -54 -60 -79h-37q-60 40 -60 93zM100 1151q17 55 60 80h37q60 -40 60 -93q-16 -55 -60 -79h-37q-60 39 -60 92zM281 93q17 54 61 79h36q61 -40 61 -93q-17 -54 -61 -79h-36q-61 40 -61 93zM281 1363q17 55 61 79h36q61 -39 61 -92q-17 -55 -61 -80h-36 q-61 40 -61 93zM281 1576q17 55 61 80h36q61 -40 61 -93q-17 -55 -61 -79h-36q-61 39 -61 92zM463 93q17 54 60 79h37q60 -40 60 -93q-17 -54 -60 -79h-37q-60 40 -60 93zM463 1363q17 55 60 79h37q60 -39 60 -92q-17 -55 -60 -80h-37q-60 40 -60 93zM463 1788q17 55 60 79 h37q60 -39 60 -92q-17 -55 -60 -80h-37q-60 40 -60 93zM644 93q17 54 61 79h36q61 -40 61 -93q-17 -54 -61 -79h-36q-61 40 -61 93zM644 1363q17 55 61 79h36q61 -39 61 -92q-17 -55 -61 -80h-36q-61 40 -61 93zM644 1576q17 55 61 80h36q61 -40 61 -93q-17 -55 -61 -79h-36 q-61 39 -61 92zM826 304q16 55 60 80h37q60 -40 60 -93q-17 -54 -60 -79h-37q-60 39 -60 92zM826 516q16 55 60 79h37q60 -39 60 -92q-17 -55 -60 -80h-37q-60 40 -60 93zM826 728q16 54 60 79h37q60 -39 60 -92q-17 -55 -60 -80h-37q-60 40 -60 93zM826 940q16 54 60 79h37 q60 -40 60 -93q-17 -54 -60 -79h-37q-60 40 -60 93zM826 1151q16 55 60 80h37q60 -40 60 -93q-17 -55 -60 -79h-37q-60 39 -60 92zM826 1788q16 55 60 79h37q60 -39 60 -92q-17 -55 -60 -80h-37q-60 40 -60 93z" />
<glyph unicode="&#xf6;" d="M100 304q17 55 60 80h37q60 -40 60 -93q-16 -54 -60 -79h-37q-60 39 -60 92zM100 516q17 55 60 79h37q60 -39 60 -92q-16 -55 -60 -80h-37q-60 40 -60 93zM100 728q17 54 60 79h37q60 -39 60 -92q-16 -55 -60 -80h-37q-60 40 -60 93zM100 940q17 54 60 79h37 q60 -40 60 -93q-16 -54 -60 -79h-37q-60 40 -60 93zM100 1151q17 55 60 80h37q60 -40 60 -93q-16 -55 -60 -79h-37q-60 39 -60 92zM281 93q17 54 61 79h36q61 -40 61 -93q-17 -54 -61 -79h-36q-61 40 -61 93zM281 1363q17 55 61 79h36q61 -39 61 -92q-17 -55 -61 -80h-36 q-61 40 -61 93zM281 1788q17 55 61 79h36q61 -39 61 -92q-17 -55 -61 -80h-36q-61 40 -61 93zM463 93q17 54 60 79h37q60 -40 60 -93q-17 -54 -60 -79h-37q-60 40 -60 93zM463 1363q17 55 60 79h37q60 -39 60 -92q-17 -55 -60 -80h-37q-60 40 -60 93zM644 93q17 54 61 79h36 q61 -40 61 -93q-17 -54 -61 -79h-36q-61 40 -61 93zM644 1363q17 55 61 79h36q61 -39 61 -92q-17 -55 -61 -80h-36q-61 40 -61 93zM644 1788q17 55 61 79h36q61 -39 61 -92q-17 -55 -61 -80h-36q-61 40 -61 93zM826 304q16 55 60 80h37q60 -40 60 -93q-17 -54 -60 -79h-37 q-60 39 -60 92zM826 516q16 55 60 79h37q60 -39 60 -92q-17 -55 -60 -80h-37q-60 40 -60 93zM826 728q16 54 60 79h37q60 -39 60 -92q-17 -55 -60 -80h-37q-60 40 -60 93zM826 940q16 54 60 79h37q60 -40 60 -93q-17 -54 -60 -79h-37q-60 40 -60 93zM826 1151q16 55 60 80 h37q60 -40 60 -93q-17 -55 -60 -79h-37q-60 39 -60 92z" />
<glyph unicode="&#xf7;" horiz-adv-x="1014" d="M87 647v140h839l1 -1v-139h-840zM382 377q0 15 16 31l82 84q15 14 29 14q13 0 31 -16l80 -86q12 -16 12 -29q0 -15 -14 -31l-80 -88q-20 -20 -29 -20q-16 0 -29 14l-88 101q-10 13 -10 26zM382 1070q0 15 16 31l82 84q15 14 29 14q13 0 31 -16l80 -86q12 -16 12 -29 q0 -15 -14 -31l-80 -88q-20 -20 -29 -20q-16 0 -29 14l-88 101q-10 13 -10 26z" />
<glyph unicode="&#xf8;" d="M100 304q17 55 60 80h37q60 -40 60 -93q-16 -54 -60 -79h-37q-60 39 -60 92zM100 516q17 55 60 79h37q60 -39 60 -92q-16 -55 -60 -80h-37q-60 40 -60 93zM100 728q17 54 60 79h37q60 -39 60 -92q-16 -55 -60 -80h-37q-60 40 -60 93zM100 940q17 54 60 79h37 q60 -40 60 -93q-16 -54 -60 -79h-37q-60 40 -60 93zM100 1151q17 55 60 80h37q60 -40 60 -93q-16 -55 -60 -79h-37q-60 39 -60 92zM281 93q17 54 61 79h36q61 -40 61 -93q-17 -54 -61 -79h-36q-61 40 -61 93zM281 516q17 55 61 79h36q61 -39 61 -92q-17 -55 -61 -80h-36 q-61 40 -61 93zM281 1363q17 55 61 79h36q61 -39 61 -92q-17 -55 -61 -80h-36q-61 40 -61 93zM463 93q17 54 60 79h37q60 -40 60 -93q-17 -54 -60 -79h-37q-60 40 -60 93zM463 728q17 54 60 79h37q60 -39 60 -92q-17 -55 -60 -80h-37q-60 40 -60 93zM463 1363q17 55 60 79 h37q60 -39 60 -92q-17 -55 -60 -80h-37q-60 40 -60 93zM644 93q17 54 61 79h36q61 -40 61 -93q-17 -54 -61 -79h-36q-61 40 -61 93zM644 940q17 54 61 79h36q61 -40 61 -93q-17 -54 -61 -79h-36q-61 40 -61 93zM644 1363q17 55 61 79h36q61 -39 61 -92q-17 -55 -61 -80h-36 q-61 40 -61 93zM826 304q16 55 60 80h37q60 -40 60 -93q-17 -54 -60 -79h-37q-60 39 -60 92zM826 516q16 55 60 79h37q60 -39 60 -92q-17 -55 -60 -80h-37q-60 40 -60 93zM826 728q16 54 60 79h37q60 -39 60 -92q-17 -55 -60 -80h-37q-60 40 -60 93zM826 940q16 54 60 79h37 q60 -40 60 -93q-17 -54 -60 -79h-37q-60 40 -60 93zM826 1151q16 55 60 80h37q60 -40 60 -93q-17 -55 -60 -79h-37q-60 39 -60 92z" />
<glyph unicode="&#xf9;" d="M100 304q17 55 60 80h37q60 -40 60 -93q-16 -54 -60 -79h-37q-60 39 -60 92zM100 516q17 55 60 79h37q60 -39 60 -92q-16 -55 -60 -80h-37q-60 40 -60 93zM100 728q17 54 60 79h37q60 -39 60 -92q-16 -55 -60 -80h-37q-60 40 -60 93zM100 940q17 54 60 79h37 q60 -40 60 -93q-16 -54 -60 -79h-37q-60 40 -60 93zM100 1151q17 55 60 80h37q60 -40 60 -93q-16 -55 -60 -79h-37q-60 39 -60 92zM100 1363q17 55 60 79h37q60 -39 60 -92q-16 -55 -60 -80h-37q-60 40 -60 93zM281 93q17 54 61 79h36q61 -40 61 -93q-17 -54 -61 -79h-36 q-61 40 -61 93zM281 1788q17 55 61 79h36q61 -39 61 -92q-17 -55 -61 -80h-36q-61 40 -61 93zM463 93q17 54 60 79h37q60 -40 60 -93q-17 -54 -60 -79h-37q-60 40 -60 93zM463 1576q17 55 60 80h37q60 -40 60 -93q-17 -55 -60 -79h-37q-60 39 -60 92zM644 93q17 54 61 79h36 q61 -40 61 -93q-17 -54 -61 -79h-36q-61 40 -61 93zM826 304q16 55 60 80h37q60 -40 60 -93q-17 -54 -60 -79h-37q-60 39 -60 92zM826 516q16 55 60 79h37q60 -39 60 -92q-17 -55 -60 -80h-37q-60 40 -60 93zM826 728q16 54 60 79h37q60 -39 60 -92q-17 -55 -60 -80h-37 q-60 40 -60 93zM826 940q16 54 60 79h37q60 -40 60 -93q-17 -54 -60 -79h-37q-60 40 -60 93zM826 1151q16 55 60 80h37q60 -40 60 -93q-17 -55 -60 -79h-37q-60 39 -60 92zM826 1363q16 55 60 79h37q60 -39 60 -92q-17 -55 -60 -80h-37q-60 40 -60 93z" />
<glyph unicode="&#xfa;" d="M100 304q17 55 60 80h37q60 -40 60 -93q-16 -54 -60 -79h-37q-60 39 -60 92zM100 516q17 55 60 79h37q60 -39 60 -92q-16 -55 -60 -80h-37q-60 40 -60 93zM100 728q17 54 60 79h37q60 -39 60 -92q-16 -55 -60 -80h-37q-60 40 -60 93zM100 940q17 54 60 79h37 q60 -40 60 -93q-16 -54 -60 -79h-37q-60 40 -60 93zM100 1151q17 55 60 80h37q60 -40 60 -93q-16 -55 -60 -79h-37q-60 39 -60 92zM100 1363q17 55 60 79h37q60 -39 60 -92q-16 -55 -60 -80h-37q-60 40 -60 93zM281 93q17 54 61 79h36q61 -40 61 -93q-17 -54 -61 -79h-36 q-61 40 -61 93zM463 93q17 54 60 79h37q60 -40 60 -93q-17 -54 -60 -79h-37q-60 40 -60 93zM463 1576q17 55 60 80h37q60 -40 60 -93q-17 -55 -60 -79h-37q-60 39 -60 92zM644 93q17 54 61 79h36q61 -40 61 -93q-17 -54 -61 -79h-36q-61 40 -61 93zM644 1788q17 55 61 79h36 q61 -39 61 -92q-17 -55 -61 -80h-36q-61 40 -61 93zM826 304q16 55 60 80h37q60 -40 60 -93q-17 -54 -60 -79h-37q-60 39 -60 92zM826 516q16 55 60 79h37q60 -39 60 -92q-17 -55 -60 -80h-37q-60 40 -60 93zM826 728q16 54 60 79h37q60 -39 60 -92q-17 -55 -60 -80h-37 q-60 40 -60 93zM826 940q16 54 60 79h37q60 -40 60 -93q-17 -54 -60 -79h-37q-60 40 -60 93zM826 1151q16 55 60 80h37q60 -40 60 -93q-17 -55 -60 -79h-37q-60 39 -60 92zM826 1363q16 55 60 79h37q60 -39 60 -92q-17 -55 -60 -80h-37q-60 40 -60 93z" />
<glyph unicode="&#xfb;" d="M100 304q17 55 60 80h37q60 -40 60 -93q-16 -54 -60 -79h-37q-60 39 -60 92zM100 516q17 55 60 79h37q60 -39 60 -92q-16 -55 -60 -80h-37q-60 40 -60 93zM100 728q17 54 60 79h37q60 -39 60 -92q-16 -55 -60 -80h-37q-60 40 -60 93zM100 940q17 54 60 79h37 q60 -40 60 -93q-16 -54 -60 -79h-37q-60 40 -60 93zM100 1151q17 55 60 80h37q60 -40 60 -93q-16 -55 -60 -79h-37q-60 39 -60 92zM100 1363q17 55 60 79h37q60 -39 60 -92q-16 -55 -60 -80h-37q-60 40 -60 93zM281 93q17 54 61 79h36q61 -40 61 -93q-17 -54 -61 -79h-36 q-61 40 -61 93zM281 1576q17 55 61 80h36q61 -40 61 -93q-17 -55 -61 -79h-36q-61 39 -61 92zM463 93q17 54 60 79h37q60 -40 60 -93q-17 -54 -60 -79h-37q-60 40 -60 93zM463 1788q17 55 60 79h37q60 -39 60 -92q-17 -55 -60 -80h-37q-60 40 -60 93zM644 93q17 54 61 79h36 q61 -40 61 -93q-17 -54 -61 -79h-36q-61 40 -61 93zM644 1576q17 55 61 80h36q61 -40 61 -93q-17 -55 -61 -79h-36q-61 39 -61 92zM826 304q16 55 60 80h37q60 -40 60 -93q-17 -54 -60 -79h-37q-60 39 -60 92zM826 516q16 55 60 79h37q60 -39 60 -92q-17 -55 -60 -80h-37 q-60 40 -60 93zM826 728q16 54 60 79h37q60 -39 60 -92q-17 -55 -60 -80h-37q-60 40 -60 93zM826 940q16 54 60 79h37q60 -40 60 -93q-17 -54 -60 -79h-37q-60 40 -60 93zM826 1151q16 55 60 80h37q60 -40 60 -93q-17 -55 -60 -79h-37q-60 39 -60 92zM826 1363q16 55 60 79 h37q60 -39 60 -92q-17 -55 -60 -80h-37q-60 40 -60 93z" />
<glyph unicode="&#xfc;" d="M100 304q17 55 60 80h37q60 -40 60 -93q-16 -54 -60 -79h-37q-60 39 -60 92zM100 516q17 55 60 79h37q60 -39 60 -92q-16 -55 -60 -80h-37q-60 40 -60 93zM100 728q17 54 60 79h37q60 -39 60 -92q-16 -55 -60 -80h-37q-60 40 -60 93zM100 940q17 54 60 79h37 q60 -40 60 -93q-16 -54 -60 -79h-37q-60 40 -60 93zM100 1151q17 55 60 80h37q60 -40 60 -93q-16 -55 -60 -79h-37q-60 39 -60 92zM100 1363q17 55 60 79h37q60 -39 60 -92q-16 -55 -60 -80h-37q-60 40 -60 93zM281 93q17 54 61 79h36q61 -40 61 -93q-17 -54 -61 -79h-36 q-61 40 -61 93zM281 1788q17 55 61 79h36q61 -39 61 -92q-17 -55 -61 -80h-36q-61 40 -61 93zM463 93q17 54 60 79h37q60 -40 60 -93q-17 -54 -60 -79h-37q-60 40 -60 93zM644 93q17 54 61 79h36q61 -40 61 -93q-17 -54 -61 -79h-36q-61 40 -61 93zM644 1788q17 55 61 79h36 q61 -39 61 -92q-17 -55 -61 -80h-36q-61 40 -61 93zM826 304q16 55 60 80h37q60 -40 60 -93q-17 -54 -60 -79h-37q-60 39 -60 92zM826 516q16 55 60 79h37q60 -39 60 -92q-17 -55 -60 -80h-37q-60 40 -60 93zM826 728q16 54 60 79h37q60 -39 60 -92q-17 -55 -60 -80h-37 q-60 40 -60 93zM826 940q16 54 60 79h37q60 -40 60 -93q-17 -54 -60 -79h-37q-60 40 -60 93zM826 1151q16 55 60 80h37q60 -40 60 -93q-17 -55 -60 -79h-37q-60 39 -60 92zM826 1363q16 55 60 79h37q60 -39 60 -92q-17 -55 -60 -80h-37q-60 40 -60 93z" />
<glyph unicode="&#xfd;" d="M100 940q17 54 60 79h37q60 -40 60 -93q-16 -54 -60 -79h-37q-60 40 -60 93zM100 1151q17 55 60 80h37q60 -40 60 -93q-16 -55 -60 -79h-37q-60 39 -60 92zM100 1363q17 55 60 79h37q60 -39 60 -92q-16 -55 -60 -80h-37q-60 40 -60 93zM281 728q17 54 61 79h36 q61 -39 61 -92q-17 -55 -61 -80h-36q-61 40 -61 93zM463 93q17 54 60 79h37q60 -40 60 -93q-17 -54 -60 -79h-37q-60 40 -60 93zM463 304q17 55 60 80h37q60 -40 60 -93q-17 -54 -60 -79h-37q-60 39 -60 92zM463 516q17 55 60 79h37q60 -39 60 -92q-17 -55 -60 -80h-37 q-60 40 -60 93zM463 1576q17 55 60 80h37q60 -40 60 -93q-17 -55 -60 -79h-37q-60 39 -60 92zM644 728q17 54 61 79h36q61 -39 61 -92q-17 -55 -61 -80h-36q-61 40 -61 93zM644 1788q17 55 61 79h36q61 -39 61 -92q-17 -55 -61 -80h-36q-61 40 -61 93zM826 940q16 54 60 79 h37q60 -40 60 -93q-17 -54 -60 -79h-37q-60 40 -60 93zM826 1151q16 55 60 80h37q60 -40 60 -93q-17 -55 -60 -79h-37q-60 39 -60 92zM826 1363q16 55 60 79h37q60 -39 60 -92q-17 -55 -60 -80h-37q-60 40 -60 93z" />
<glyph unicode="&#xfe;" d="M100 93q17 54 60 79h37q60 -40 60 -93q-16 -54 -60 -79h-37q-60 40 -60 93zM100 304q17 55 60 80h37q60 -40 60 -93q-16 -54 -60 -79h-37q-60 39 -60 92zM100 516q17 55 60 79h37q60 -39 60 -92q-16 -55 -60 -80h-37q-60 40 -60 93zM100 728q17 54 60 79h37 q60 -39 60 -92q-16 -55 -60 -80h-37q-60 40 -60 93zM100 940q17 54 60 79h37q60 -40 60 -93q-16 -54 -60 -79h-37q-60 40 -60 93zM100 1151q17 55 60 80h37q60 -40 60 -93q-16 -55 -60 -79h-37q-60 39 -60 92zM100 1363q17 55 60 79h37q60 -39 60 -92q-16 -55 -60 -80h-37 q-60 40 -60 93zM281 304q17 55 61 80h36q61 -40 61 -93q-17 -54 -61 -79h-36q-61 39 -61 92zM281 1151q17 55 61 80h36q61 -40 61 -93q-17 -55 -61 -79h-36q-61 39 -61 92zM463 304q17 55 60 80h37q60 -40 60 -93q-17 -54 -60 -79h-37q-60 39 -60 92zM463 1151q17 55 60 80 h37q60 -40 60 -93q-17 -55 -60 -79h-37q-60 39 -60 92zM644 304q17 55 61 80h36q61 -40 61 -93q-17 -54 -61 -79h-36q-61 39 -61 92zM644 1151q17 55 61 80h36q61 -40 61 -93q-17 -55 -61 -79h-36q-61 39 -61 92zM826 516q16 55 60 79h37q60 -39 60 -92q-17 -55 -60 -80h-37 q-60 40 -60 93zM826 728q16 54 60 79h37q60 -39 60 -92q-17 -55 -60 -80h-37q-60 40 -60 93zM826 940q16 54 60 79h37q60 -40 60 -93q-17 -54 -60 -79h-37q-60 40 -60 93z" />
<glyph unicode="&#xff;" d="M100 940q17 54 60 79h37q60 -40 60 -93q-16 -54 -60 -79h-37q-60 40 -60 93zM100 1151q17 55 60 80h37q60 -40 60 -93q-16 -55 -60 -79h-37q-60 39 -60 92zM100 1363q17 55 60 79h37q60 -39 60 -92q-16 -55 -60 -80h-37q-60 40 -60 93zM281 728q17 54 61 79h36 q61 -39 61 -92q-17 -55 -61 -80h-36q-61 40 -61 93zM281 1788q17 55 61 79h36q61 -39 61 -92q-17 -55 -61 -80h-36q-61 40 -61 93zM463 93q17 54 60 79h37q60 -40 60 -93q-17 -54 -60 -79h-37q-60 40 -60 93zM463 304q17 55 60 80h37q60 -40 60 -93q-17 -54 -60 -79h-37 q-60 39 -60 92zM463 516q17 55 60 79h37q60 -39 60 -92q-17 -55 -60 -80h-37q-60 40 -60 93zM644 728q17 54 61 79h36q61 -39 61 -92q-17 -55 -61 -80h-36q-61 40 -61 93zM644 1788q17 55 61 79h36q61 -39 61 -92q-17 -55 -61 -80h-36q-61 40 -61 93zM826 940q16 54 60 79 h37q60 -40 60 -93q-17 -54 -60 -79h-37q-60 40 -60 93zM826 1151q16 55 60 80h37q60 -40 60 -93q-17 -55 -60 -79h-37q-60 39 -60 92zM826 1363q16 55 60 79h37q60 -39 60 -92q-17 -55 -60 -80h-37q-60 40 -60 93z" />
<glyph unicode="&#x2c6;" d="M281 1576q17 55 61 80h36q61 -40 61 -93q-17 -55 -61 -79h-36q-61 39 -61 92zM463 1788q17 55 60 79h37q60 -39 60 -92q-17 -55 -60 -80h-37q-60 40 -60 93zM644 1576q17 55 61 80h36q61 -40 61 -93q-17 -55 -61 -79h-36q-61 39 -61 92z" />
<glyph unicode="&#x2dc;" d="M281 1576q17 55 61 80h36q61 -40 61 -93q-17 -55 -61 -79h-36q-61 39 -61 92zM463 1788q17 55 60 79h37q60 -39 60 -92q-17 -55 -60 -80h-37q-60 40 -60 93zM644 1576q17 55 61 80h36q61 -40 61 -93q-17 -55 -61 -79h-36q-61 39 -61 92zM826 1788q16 55 60 79h37 q60 -39 60 -92q-17 -55 -60 -80h-37q-60 40 -60 93z" />
<glyph unicode="&#x2000;" horiz-adv-x="933" />
<glyph unicode="&#x2001;" horiz-adv-x="1867" />
<glyph unicode="&#x2002;" horiz-adv-x="933" />
<glyph unicode="&#x2003;" horiz-adv-x="1867" />
<glyph unicode="&#x2004;" horiz-adv-x="622" />
<glyph unicode="&#x2005;" horiz-adv-x="466" />
<glyph unicode="&#x2006;" horiz-adv-x="311" />
<glyph unicode="&#x2007;" horiz-adv-x="311" />
<glyph unicode="&#x2008;" horiz-adv-x="233" />
<glyph unicode="&#x2009;" horiz-adv-x="373" />
<glyph unicode="&#x200a;" horiz-adv-x="103" />
<glyph unicode="&#x2010;" d="M281 728q17 54 61 79h36q61 -39 61 -92q-17 -55 -61 -80h-36q-61 40 -61 93zM463 728q17 54 60 79h37q60 -39 60 -92q-17 -55 -60 -80h-37q-60 40 -60 93zM644 728q17 54 61 79h36q61 -39 61 -92q-17 -55 -61 -80h-36q-61 40 -61 93z" />
<glyph unicode="&#x2011;" d="M281 728q17 54 61 79h36q61 -39 61 -92q-17 -55 -61 -80h-36q-61 40 -61 93zM463 728q17 54 60 79h37q60 -39 60 -92q-17 -55 -60 -80h-37q-60 40 -60 93zM644 728q17 54 61 79h36q61 -39 61 -92q-17 -55 -61 -80h-36q-61 40 -61 93z" />
<glyph unicode="&#x2012;" d="M281 728q17 54 61 79h36q61 -39 61 -92q-17 -55 -61 -80h-36q-61 40 -61 93zM463 728q17 54 60 79h37q60 -39 60 -92q-17 -55 -60 -80h-37q-60 40 -60 93zM644 728q17 54 61 79h36q61 -39 61 -92q-17 -55 -61 -80h-36q-61 40 -61 93z" />
<glyph unicode="&#x2013;" d="M100 728q17 54 60 79h37q60 -39 60 -92q-16 -55 -60 -80h-37q-60 40 -60 93zM281 728q17 54 61 79h36q61 -39 61 -92q-17 -55 -61 -80h-36q-61 40 -61 93zM463 728q17 54 60 79h37q60 -39 60 -92q-17 -55 -60 -80h-37q-60 40 -60 93zM644 728q17 54 61 79h36 q61 -39 61 -92q-17 -55 -61 -80h-36q-61 40 -61 93zM826 728q16 54 60 79h37q60 -39 60 -92q-17 -55 -60 -80h-37q-60 40 -60 93z" />
<glyph unicode="&#x2014;" d="M100 728q17 54 60 79h37q60 -39 60 -92q-16 -55 -60 -80h-37q-60 40 -60 93zM281 728q17 54 61 79h36q61 -39 61 -92q-17 -55 -61 -80h-36q-61 40 -61 93zM463 728q17 54 60 79h37q60 -39 60 -92q-17 -55 -60 -80h-37q-60 40 -60 93zM644 728q17 54 61 79h36 q61 -39 61 -92q-17 -55 -61 -80h-36q-61 40 -61 93zM826 728q16 54 60 79h37q60 -39 60 -92q-17 -55 -60 -80h-37q-60 40 -60 93z" />
</font>
</defs>
</svg>
