<?xml version="1.0" standalone="no"?>
<!DOCTYPE svg PUBLIC "-//W3C//DTD SVG 1.1//EN" "http://www.w3.org/Graphics/SVG/1.1/DTD/svg11.dtd" >
<svg xmlns="http://www.w3.org/2000/svg">
<metadata></metadata>
<defs>
<font id="din_alternate_mediumregular" horiz-adv-x="1024" >
<font-face units-per-em="2048" ascent="1638" descent="-410" />
<missing-glyph horiz-adv-x="492" />
<glyph horiz-adv-x="2048" />
<glyph horiz-adv-x="2048" />
<glyph unicode="&#xd;" horiz-adv-x="0" />
<glyph unicode=" "  horiz-adv-x="492" />
<glyph unicode="&#x09;" horiz-adv-x="492" />
<glyph unicode="&#xa0;" horiz-adv-x="492" />
<glyph unicode="!" horiz-adv-x="680" d="M242 127q0 55 39 94t94 39t94 -39t39 -94t-39 -94t-94 -39t-94 39t-39 94zM248 1458h254l-47 -1024h-158z" />
<glyph unicode="&#x22;" horiz-adv-x="909" d="M160 1067v391h207v-391h-207zM543 1067v391h207v-391h-207z" />
<glyph unicode="#" horiz-adv-x="1376" d="M139 426v192h193l41 254h-166v193h194l64 401h219l-63 -401h278l64 401h217l-64 -401h160v-193h-189l-40 -254h161v-192h-192l-68 -426h-217l68 426h-281l-65 -426h-220l68 426h-162zM549 618h280l39 254h-278z" />
<glyph unicode="$" horiz-adv-x="1245" d="M61 180l148 146q71 -71 152 -102.5t186 -37.5v455l-53 6q-88 12 -157 42.5t-118 74.5q-108 100 -108 278q0 117 50 208.5t145 147.5t222 68v185h168v-183q120 -7 214.5 -46.5t176.5 -116.5l-141 -140q-104 98 -268 111v-442l70 -11q69 -11 117 -25t85 -34t70 -49 q119 -104 119 -299q0 -119 -55.5 -211t-155.5 -145.5t-232 -65.5v-227h-168v221q-73 3 -134.5 14.5t-121.5 35.5t-110 58.5t-101 83.5zM326 1051q0 -87 55 -136q61 -54 166 -67v426q-105 -10 -163 -71t-58 -152zM678 190q114 12 178 69t64 151q0 99 -58 151q-35 32 -74 43 t-110 21v-435z" />
<glyph unicode="%" horiz-adv-x="1724" d="M119 985v207q0 85 37.5 149t104 98t145.5 34q123 0 204.5 -76.5t81.5 -204.5v-207q0 -86 -38 -148.5t-102.5 -96t-145.5 -33.5q-82 0 -146.5 33.5t-102.5 96t-38 148.5zM276 991q0 -145 130 -145q65 0 97 37t32 108v195q0 72 -32.5 109.5t-96.5 37.5q-130 0 -130 -147 v-195zM434 0l688 1458h166l-686 -1458h-168zM1032 266v207q0 85 37.5 149t104 98t145.5 34t145.5 -34t104 -98t37.5 -149v-207q0 -128 -81.5 -204t-205.5 -76t-205.5 76t-81.5 204zM1190 272q0 -147 129 -147q64 0 96.5 37.5t32.5 109.5v195q0 72 -32.5 109.5t-96.5 37.5 q-129 0 -129 -147v-195z" />
<glyph unicode="&#x26;" horiz-adv-x="1495" d="M139 422q0 95 40 169.5t98 126.5t151 116q-71 81 -111.5 153t-40.5 160q0 93 44 166.5t125 115t188 41.5q103 0 181 -42t121.5 -116.5t43.5 -166.5q0 -81 -40.5 -143.5t-115.5 -114.5q-2 0 -106 -74l307 -367q41 57 58.5 124.5t19.5 168.5h201q-3 -95 -19.5 -175.5 t-48 -149.5t-78.5 -123l244 -291h-268l-119 143q-79 -66 -169 -110.5t-235 -44.5q-223 0 -347 117t-124 317zM346 426q0 -108 75.5 -178t188.5 -70q76 0 143.5 26t135.5 87l-346 411q-60 -40 -103.5 -78.5t-68.5 -86.5t-25 -111zM489 1145q0 -42 26.5 -86.5t86.5 -114.5 q4 2 31 20.5t39 26.5q106 73 106 152q0 61 -41 103t-104 42q-67 0 -105.5 -40.5t-38.5 -102.5z" />
<glyph unicode="'" horiz-adv-x="526" d="M160 1067v391h207v-391h-207z" />
<glyph unicode="(" horiz-adv-x="649" d="M176 240v979q0 74 9 129.5t38 107.5q21 37 44 65.5t57 63.5t65 66l141 -142q-22 -22 -44.5 -44t-38.5 -42t-31 -49q-31 -58 -31 -168v-954q0 -110 31 -168q16 -30 33.5 -51.5t37 -41t43.5 -42.5l-141 -142q-31 32 -65 66.5t-57 63t-44 65.5q-29 52 -38 108t-9 130z" />
<glyph unicode=")" horiz-adv-x="649" d="M119 -49l31 31t30 32t30 38t21 34q31 58 31 166v954q0 108 -31 166q-20 39 -46 68t-66 67l143 144q125 -125 164 -195q29 -51 39 -106.5t10 -130.5v-979q0 -75 -10 -131t-39 -107q-39 -70 -164 -195z" />
<glyph unicode="*" horiz-adv-x="993" d="M125 954l235 125l-235 127l76 133l227 -141l-8 266h153l-8 -266l228 141l75 -133l-235 -127l235 -125l-75 -133l-228 142l8 -269h-153l8 269l-227 -142z" />
<glyph unicode="+" horiz-adv-x="1092" d="M104 461v194h345v342h194v-342h344v-194h-344v-344h-194v344h-345z" />
<glyph unicode="," horiz-adv-x="557" d="M160 238h237v-361l-237 -194v555z" />
<glyph unicode="-" horiz-adv-x="872" d="M137 471v195h598v-195h-598z" />
<glyph unicode="." horiz-adv-x="582" d="M141 143q0 61 44.5 104.5t105.5 43.5q62 0 105.5 -43.5t43.5 -104.5q0 -41 -20 -75t-54 -54t-75 -20q-60 0 -105 44t-45 105z" />
<glyph unicode="/" horiz-adv-x="778" d="M0 -152l584 1762h200l-583 -1762h-201z" />
<glyph unicode="0" horiz-adv-x="1094" d="M125 406v411q0 96 32.5 173.5t92 133t135.5 83.5t162 28t163.5 -28.5t135.5 -83.5t90.5 -133t32.5 -173v-411q0 -127 -56 -221.5t-152.5 -145.5t-213.5 -51t-213.5 51t-152.5 146t-56 221zM334 412q0 -107 57 -172.5t156 -65.5t156 65.5t57 172.5v399q0 69 -25.5 123.5 t-75 84.5t-112.5 30t-112.5 -30t-75 -84.5t-25.5 -123.5v-399z" />
<glyph unicode="1" horiz-adv-x="834" d="M106 745v232l287 246h209v-1223h-209v995z" />
<glyph unicode="2" horiz-adv-x="1081" d="M86 0v186l496 451q141 128 141 248q0 89 -59 147t-152 58q-89 0 -152 -58.5t-63 -157.5h-209q0 117 55.5 209t153 142.5t215.5 50.5q93 0 169.5 -28t132.5 -79.5t87 -124.5t31 -157q0 -105 -55.5 -189t-169.5 -192l-338 -320h596v-186h-879z" />
<glyph unicode="3" horiz-adv-x="1077" d="M72 158h209q4 -75 37 -124.5t86 -73t116 -23.5q67 0 122 29t85.5 83.5t30.5 128.5t-27 128t-82.5 83t-136.5 29h-35v182h35q110 0 165.5 59.5t55.5 163.5q0 55 -17 98.5t-45 70.5t-68.5 42t-84.5 15q-95 0 -153 -55.5t-66 -153.5h-209q6 120 63.5 210t152.5 137.5 t212 47.5q124 0 220.5 -52t150 -144.5t53.5 -211.5q0 -223 -180 -311q98 -42 151.5 -126.5t53.5 -215.5q0 -135 -59 -230.5t-161.5 -144.5t-226.5 -49q-87 0 -167.5 24.5t-142.5 75t-98.5 129t-39.5 179.5z" />
<glyph unicode="4" horiz-adv-x="1159" d="M78 61v195l518 1044h223l-518 -1044h401v360h201v-360h174v-195h-174v-313h-201v313h-624z" />
<glyph unicode="5" horiz-adv-x="1096" d="M125 141h209q25 -202 213 -202q98 0 153 57q29 28 44 69t19.5 86.5t4.5 100.5q0 144 -46.5 224.5t-164.5 80.5q-85 0 -137 -35.5t-72 -95.5h-188v797h784v-187h-596v-385q39 40 100 62t140 22q168 0 262 -94q75 -74 101 -170t26 -219q0 -133 -25 -224t-98 -163 q-115 -115 -307 -115q-100 0 -179 31t-130 82q-99 99 -113 278z" />
<glyph unicode="6" horiz-adv-x="1102" d="M94 446q0 108 30.5 206.5t94.5 211.5l350 627h224l-359 -621q66 35 168 35q115 0 208 -55t145.5 -156.5t52.5 -236.5q0 -139 -58 -246.5t-162 -165t-237 -57.5q-204 0 -330.5 123.5t-126.5 334.5zM303 451q0 -86 31 -150t87.5 -98.5t129.5 -34.5t129.5 34.5t87.5 98.5 t31 150q0 80 -29.5 144.5t-86 102t-132.5 37.5q-74 0 -130 -34.5t-87 -99.5t-31 -150z" />
<glyph unicode="7" horiz-adv-x="1081" d="M92 807v416h918v-187l-566 -1282h-223l565 1282h-493v-229h-201z" />
<glyph unicode="8" horiz-adv-x="1124" d="M113 412q0 119 56 203.5t144 138.5q-49 30 -89 73.5t-64.5 104t-24.5 135.5q0 89 33 164.5t92.5 129t136 81.5t164.5 28q89 0 166 -28t136 -81.5t91.5 -129t32.5 -164.5q0 -109 -48.5 -186.5t-127.5 -126.5q88 -53 144.5 -138t56.5 -204q0 -128 -60 -225t-163 -148 t-228 -51q-124 0 -227 51t-162 148t-59 225zM322 416q0 -69 31.5 -123.5t87.5 -86.5t120 -32q66 0 122 32t88 88t32 122q0 65 -32 121t-87.5 89t-122.5 33q-101 0 -170 -71t-69 -172zM344 1061q0 -96 60.5 -158.5t156.5 -62.5t156.5 61.5t60.5 159.5q0 96 -61 159.5 t-156 63.5t-156 -64t-61 -159z" />
<glyph unicode="9" horiz-adv-x="1102" d="M94 766q0 139 58 246.5t162 165t237 57.5t237.5 -55t162 -160t57.5 -244q0 -105 -29 -203.5t-94 -214.5l-353 -626h-223l359 620q-70 -35 -166 -35q-84 0 -159.5 31t-132 91.5t-86.5 142.5t-30 184zM303 772q0 -123 67 -204t181 -81q74 0 130 35t87 99.5t31 150.5 q0 85 -31 149.5t-87.5 99t-129.5 34.5t-129.5 -34.5t-87.5 -99t-31 -149.5z" />
<glyph unicode=":" horiz-adv-x="635" d="M195 143q0 61 43.5 104.5t105.5 43.5t105 -43t43 -105t-43.5 -105.5t-104.5 -43.5q-41 0 -75 20t-54 54t-20 75zM195 711q0 41 20 75t54 54t75 20q61 0 104.5 -43.5t43.5 -105.5q0 -61 -43.5 -105.5t-104.5 -44.5t-105 45t-44 105z" />
<glyph unicode=";" horiz-adv-x="621" d="M195 711q0 41 20 75t54 54t75 20q61 0 104.5 -43.5t43.5 -105.5q0 -61 -43.5 -105.5t-104.5 -44.5t-105 45t-44 105zM225 238h238v-361l-238 -194v555z" />
<glyph unicode="&#x3c;" horiz-adv-x="2103" d="M250 428v266l702 -706v1525h199v-1525l702 706v-266l-800 -803z" />
<glyph unicode="=" horiz-adv-x="1092" d="M104 272v195h883v-195h-883zM104 670v194h883v-194h-883z" />
<glyph unicode="&#x3e;" horiz-adv-x="2103" d="M250 444v267l803 802l802 -802v-267l-704 707v-1526h-197v1526z" />
<glyph unicode="?" horiz-adv-x="1047" d="M145 1077q0 86 30 158t87 125.5t131 81.5t160 28t160.5 -27.5t129.5 -77.5t87.5 -124t32.5 -162q0 -68 -25.5 -127.5t-73.5 -124.5l-157 -221q-18 -24 -27.5 -55.5t-9.5 -54.5v-62h-209v72q0 61 15 105.5t54 97.5l160 215q64 85 64 155q0 88 -56 146.5t-145 58.5 q-60 0 -105.5 -27.5t-69.5 -76t-24 -103.5h-209zM432 127q0 56 37.5 94.5t93.5 38.5q55 0 94 -39t39 -94t-39 -94t-94 -39q-56 0 -93.5 38.5t-37.5 94.5z" />
<glyph unicode="@" horiz-adv-x="1507" d="M131 334v651q0 234 121 358q120 121 352 121h299q230 0 350 -121q65 -65 94 -152.5t29 -205.5v-989l-196 4v102q-51 -59 -112.5 -87.5t-147.5 -28.5q-166 0 -269 114q-30 35 -47 71.5t-27.5 86t-14 98.5t-3.5 123q0 142 18 228.5t70 148.5q45 54 115.5 85.5t155.5 31.5 q158 0 258 -115v125q0 74 -17 126.5t-59 94.5q-76 76 -217 76h-258q-140 0 -215 -76q-45 -43 -60.5 -94t-15.5 -127v-639q0 -84 21 -130.5t81 -94.5l-143 -144q-66 55 -98.5 100t-48 108t-15.5 151zM760 479q0 -96 16.5 -165t62.5 -109.5t128 -40.5q119 0 164 82.5t45 232.5 q0 97 -17 166t-64 110.5t-128 41.5q-120 0 -163.5 -83.5t-43.5 -234.5z" />
<glyph unicode="A" horiz-adv-x="1280" d="M16 0l535 1458h178l535 -1458h-236l-100 293h-576l-100 -293h-236zM418 481h448l-221 647z" />
<glyph unicode="B" horiz-adv-x="1358" d="M190 0v1458h568q132 0 232.5 -48.5t154 -139t53.5 -211.5q0 -75 -27.5 -138.5t-72.5 -107t-97 -63.5q94 -36 157 -123t63 -215q0 -132 -55.5 -224.5t-156 -140t-229.5 -47.5h-590zM412 199h348q75 0 129 28.5t82 78.5t28 116q0 67 -28 116t-82.5 77t-128.5 28h-348v-444z M412 842h327q110 0 174 55t64 154q0 65 -29.5 112.5t-83 72t-125.5 24.5h-327v-418z" />
<glyph unicode="C" horiz-adv-x="1176" d="M137 729q0 133 3.5 211t16 143t41 121.5t81.5 110.5q76 76 173 115.5t210 39.5q131 0 225.5 -42.5t181.5 -129.5l-147 -149q-65 65 -121 94t-139 29q-64 0 -120.5 -23t-95.5 -65q-29 -32 -44 -63t-25 -82.5t-13.5 -122t-3.5 -187.5q0 -219 16.5 -307.5t69.5 -147.5 q39 -41 95.5 -64.5t120.5 -23.5q83 0 139 29t121 94l147 -149q-53 -53 -114 -92.5t-132 -59.5t-161 -20q-76 0 -143.5 17.5t-129.5 53.5t-110 84q-68 70 -98 149t-37 171.5t-7 265.5z" />
<glyph unicode="D" horiz-adv-x="1364" d="M190 0v1458h512q240 0 377 -137q65 -65 97.5 -146t41.5 -165t9 -197v-74v-73q0 -118 -9 -206t-41.5 -173t-97.5 -150q-137 -137 -377 -137h-512zM412 199h268q159 0 248 98q52 57 65 155t13 287q0 126 -4 194.5t-21.5 128.5t-52.5 99q-90 99 -248 99h-268v-1061z" />
<glyph unicode="E" horiz-adv-x="1235" d="M190 0v1458h932v-198h-710v-426h606v-197h-606v-438h710v-199h-932z" />
<glyph unicode="F" horiz-adv-x="1198" d="M190 0v1458h932v-198h-710v-445h606v-199h-606v-616h-222z" />
<glyph unicode="G" horiz-adv-x="1313" d="M137 729q0 133 3.5 211t16 143t41 121.5t81.5 110.5q155 155 383 155q97 0 172 -20.5t138 -62.5t130 -109l-150 -150q-76 77 -137.5 110.5t-152.5 33.5q-63 0 -121.5 -24.5t-96.5 -65.5q-53 -59 -69.5 -147t-16.5 -306q0 -219 16.5 -307.5t69.5 -147.5q83 -88 218 -88 q144 0 233 103q72 80 72 231v80h-305v188h526v-219q0 -146 -29.5 -242t-99.5 -171q-51 -54 -112 -91.5t-135 -57t-150 -19.5t-143.5 17.5t-129.5 53.5t-110 84q-68 70 -98 149t-37 171.5t-7 265.5z" />
<glyph unicode="H" horiz-adv-x="1415" d="M190 0v1458h222v-622h592v622h221v-1458h-221v637h-592v-637h-222z" />
<glyph unicode="I" horiz-adv-x="602" d="M190 0v1458h222v-1458h-222z" />
<glyph unicode="J" horiz-adv-x="1036" d="M27 129l147 145q47 -45 90 -66.5t117 -21.5q82 0 141.5 33.5t91 99t31.5 158.5v981h221v-997q0 -148 -64.5 -254.5t-175.5 -162.5t-245 -56q-72 0 -135.5 14.5t-116 45.5t-102.5 81z" />
<glyph unicode="K" horiz-adv-x="1348" d="M190 0v1458h222v-733l596 733h270l-473 -571l522 -887h-260l-410 719l-245 -295v-424h-222z" />
<glyph unicode="L" horiz-adv-x="1176" d="M190 0v1458h222v-1259h702v-199h-924z" />
<glyph unicode="M" horiz-adv-x="1665" d="M190 0v1458h222l426 -907l417 907h222v-1458h-222v975l-335 -711h-164l-344 711v-975h-222z" />
<glyph unicode="N" horiz-adv-x="1479" d="M190 0v1458h203l674 -1024v1024h221v-1458h-203l-673 1026v-1026h-222z" />
<glyph unicode="O" horiz-adv-x="1323" d="M137 729q0 133 3.5 211t16 143t41 121.5t81.5 110.5q155 155 383 155t385 -155q67 -70 96.5 -149.5t36 -171.5t6.5 -265t-6.5 -264.5t-36.5 -172t-96 -149.5q-157 -155 -385 -155t-383 155q-68 70 -98 149t-37 171.5t-7 265.5zM358 729q0 -116 3.5 -185.5t13.5 -121.5 t24 -81t45 -65q40 -42 97.5 -66t120.5 -24q132 0 217 90q36 39 54.5 89t25 136t6.5 228q0 218 -16.5 307t-69.5 146q-38 41 -96.5 65.5t-120.5 24.5q-63 0 -121.5 -24.5t-96.5 -65.5q-53 -59 -69.5 -147t-16.5 -306z" />
<glyph unicode="P" horiz-adv-x="1288" d="M190 0v1458h553q103 0 192 -33.5t150 -93t93 -139t32 -176.5q0 -127 -57 -227.5t-164 -158t-246 -57.5h-331v-573h-222zM412 774h319q118 0 188 64.5t70 177.5q0 114 -70.5 179t-187.5 65h-319v-486z" />
<glyph unicode="Q" horiz-adv-x="1323" d="M137 729q0 133 3.5 211t16 143t41 121.5t81.5 110.5q155 155 383 155t385 -155q67 -70 96.5 -149.5t36 -171.5t6.5 -265q0 -154 -4.5 -236.5t-24.5 -157t-65 -136.5l143 -142l-123 -123l-145 146q-129 -92 -305 -92q-228 0 -383 155q-68 70 -98 149t-37 171.5t-7 265.5z M358 729q0 -116 3.5 -185.5t13.5 -121.5t24 -81t45 -65q40 -42 97.5 -66t120.5 -24q82 0 149 47l-154 154l123 123l142 -141q26 54 34.5 133.5t8.5 226.5q0 218 -16.5 307t-69.5 146q-38 41 -96.5 65.5t-120.5 24.5q-63 0 -121.5 -24.5t-96.5 -65.5q-53 -59 -69.5 -147 t-16.5 -306z" />
<glyph unicode="R" horiz-adv-x="1341" d="M190 0v1458h566q134 0 237.5 -54.5t159 -151t55.5 -220.5q0 -150 -80.5 -250.5t-209.5 -136.5l335 -645h-258l-307 614h-276v-614h-222zM412 803h327q112 0 180 61t68 166q0 107 -67.5 168.5t-180.5 61.5h-327v-457z" />
<glyph unicode="S" horiz-adv-x="1208" d="M61 180l148 146q49 -50 107.5 -82t124.5 -45t141 -13q141 0 221 59t80 165q0 99 -58 151q-26 26 -60.5 39.5t-98.5 22.5l-172 24q-178 25 -277 117q-106 99 -106 278q0 127 59 224t169 150.5t259 53.5q147 0 254 -39.5t199 -125.5l-142 -140q-44 43 -94 67.5t-104 35 t-119 10.5q-83 0 -143 -29t-91.5 -80.5t-31.5 -117.5q0 -87 55 -136q27 -23 71 -41.5t93 -25.5l166 -25q100 -15 163.5 -40.5t108.5 -67.5q119 -104 119 -299q0 -97 -38 -177.5t-109.5 -137t-166.5 -85t-210 -28.5q-167 0 -290.5 44.5t-226.5 147.5z" />
<glyph unicode="T" horiz-adv-x="1147" d="M61 1260v198h1024v-198h-401v-1260h-221v1260h-402z" />
<glyph unicode="U" horiz-adv-x="1382" d="M168 492v966h221v-956q0 -96 37 -167.5t105 -110t159 -38.5t159.5 38.5t106 109.5t37.5 168v956h221v-966q0 -148 -68 -263t-187.5 -178t-268.5 -63q-148 0 -267 63t-187 178t-68 263z" />
<glyph unicode="V" horiz-adv-x="1155" d="M10 1458h230l335 -1061l336 1061h234l-483 -1458h-173z" />
<glyph unicode="W" horiz-adv-x="1784" d="M23 1458h233l254 -1042l293 1042h178l293 -1042l254 1042h233l-381 -1458h-192l-297 1022l-295 -1022h-193z" />
<glyph unicode="X" horiz-adv-x="1184" d="M20 0l451 748l-422 710h254l287 -522l289 522h254l-422 -710l452 -748h-256l-317 559l-316 -559h-254z" />
<glyph unicode="Y" horiz-adv-x="1114" d="M10 1458h242l305 -641l305 641h242l-436 -858v-600h-222v600z" />
<glyph unicode="Z" horiz-adv-x="1130" d="M98 0v190l674 1070h-645v198h905v-180l-678 -1079h678v-199h-934z" />
<glyph unicode="[" horiz-adv-x="711" d="M176 -152v1762h447v-187h-238v-1388h238v-187h-447z" />
<glyph unicode="\" horiz-adv-x="778" d="M0 1593h201l577 -1745h-200z" />
<glyph unicode="]" horiz-adv-x="711" d="M88 33h242v1392h-242v185h447v-1762h-447v185z" />
<glyph unicode="^" horiz-adv-x="1169" d="M137 821l352 652h191l350 -652h-217l-229 424l-230 -424h-217z" />
<glyph unicode="_" horiz-adv-x="1169" d="M0 -209h1169v-143h-1169v143z" />
<glyph unicode="`" d="M233 1559h232l153 -332h-157z" />
<glyph unicode="a" horiz-adv-x="1085" d="M88 305q0 89 41 156.5t121.5 105t195.5 37.5h275v74q0 100 -54 147t-173 47q-87 0 -135.5 -22t-92.5 -78l-137 129q71 84 156 117t217 33q428 0 428 -357v-694h-205v94q-57 -57 -119 -81.5t-157 -24.5q-94 0 -163 23.5t-116 70.5q-82 85 -82 223zM291 309 q0 -147 190 -147q67 0 112 11.5t83 47.5q45 45 45 154v84h-244q-91 0 -138.5 -39t-47.5 -111z" />
<glyph unicode="b" horiz-adv-x="1133" d="M166 0v1458h209v-524q54 64 119.5 90.5t152.5 26.5q77 0 143.5 -25t108.5 -68q48 -48 74.5 -118.5t34.5 -146t8 -173.5t-8 -174t-34.5 -147t-74.5 -119q-42 -42 -109 -67t-145 -25q-88 0 -152.5 27t-121.5 96v-111h-205zM375 520q0 -106 16 -180.5t64 -120t137 -45.5 q128 0 171.5 91.5t43.5 254.5q0 106 -16 180.5t-63.5 119t-135.5 44.5q-89 0 -137 -45t-64 -119t-16 -180z" />
<glyph unicode="c" horiz-adv-x="993" d="M113 520q0 141 38 243t103 166t148 93t173 29q110 0 190.5 -34t152.5 -112l-144 -139q-48 54 -92 76t-107 22q-122 0 -192 -92q-34 -43 -47.5 -101t-13.5 -151q0 -175 61 -254q70 -92 192 -92q61 0 106 22.5t93 75.5l144 -137q-47 -50 -100 -83.5t-112 -48.5t-131 -15 q-122 0 -227.5 54t-170 174t-64.5 304z" />
<glyph unicode="d" horiz-adv-x="1133" d="M117 520q0 98 8 173.5t33.5 145.5t74.5 119q44 44 110 68.5t142 24.5q87 0 152.5 -26t120.5 -91v524h209v-1458h-205v111q-39 -48 -80 -74t-88 -37.5t-107 -11.5q-77 0 -143.5 25t-110.5 67q-49 49 -74.5 119.5t-33.5 146.5t-8 174zM326 520q0 -106 16 -180.5t64 -120 t137 -45.5q128 0 171.5 91.5t43.5 254.5q0 106 -16 180.5t-63.5 119t-135.5 44.5q-89 0 -137 -45t-64 -119t-16 -180z" />
<glyph unicode="e" horiz-adv-x="1104" d="M113 520q0 167 54.5 286t153.5 182t232 63q136 0 236 -63t152 -176.5t52 -260.5v-92h-674q0 -91 31 -155.5t89.5 -100t144.5 -35.5t139 24t113 82l133 -124q-85 -85 -172 -123.5t-217 -38.5q-100 0 -185.5 29t-148.5 92t-98 165t-35 246zM319 604h467q-3 81 -28 141 t-78.5 96t-126.5 36q-72 0 -126.5 -36t-80.5 -96q-14 -32 -18.5 -56.5t-8.5 -84.5z" />
<glyph unicode="f" horiz-adv-x="672" d="M80 860v160h119v160q0 77 31.5 143t95.5 105.5t157 39.5h131v-178h-92q-114 0 -114 -121v-149h206v-160h-206v-860h-209v860h-119z" />
<glyph unicode="g" horiz-adv-x="1124" d="M117 539q0 151 23.5 252t92.5 170q43 43 107 66.5t143 23.5q87 0 151.5 -27t121.5 -96v110h202v-1032q0 -128 -53.5 -226.5t-153.5 -155t-237 -56.5q-80 0 -142 13.5t-116.5 44t-108.5 79.5l134 133q54 -49 103.5 -70.5t121.5 -21.5q124 0 184 75t60 189v133 q-54 -64 -119 -91t-150 -27q-74 0 -139 24t-109 68q-70 70 -93 170t-23 252zM326 539q0 -151 42 -238.5t171 -87.5q128 0 169.5 88t41.5 238t-41.5 237.5t-169.5 87.5q-129 0 -171 -87t-42 -238z" />
<glyph unicode="h" horiz-adv-x="1159" d="M166 0v1458h209v-524q106 117 268 117q112 0 194 -47.5t124.5 -133.5t42.5 -200v-670h-209v637q0 114 -58 170.5t-151 56.5t-152 -57.5t-59 -169.5v-637h-209z" />
<glyph unicode="i" horiz-adv-x="541" d="M135 1376q0 55 40 95t95 40q56 0 96 -39t40 -96q0 -55 -41 -95t-95 -40q-53 0 -94 41t-41 94zM166 0v1038h209v-1038h-209z" />
<glyph unicode="j" horiz-adv-x="541" d="M-39 -246h92q61 0 87 29.5t26 91.5v1163h209v-1175q0 -126 -71.5 -206.5t-213.5 -80.5h-129v178zM135 1376q0 55 40 95t95 40q56 0 96 -39t40 -96q0 -55 -41 -95t-95 -40q-53 0 -94 41t-41 94z" />
<glyph unicode="k" horiz-adv-x="1122" d="M166 0v1458h209v-899l403 479h254l-360 -407l405 -631h-258l-291 479l-153 -174v-305h-209z" />
<glyph unicode="l" horiz-adv-x="637" d="M160 287v1171h209v-1159q0 -62 25 -91.5t87 -29.5h92v-178h-129q-140 0 -212 81t-72 206z" />
<glyph unicode="m" horiz-adv-x="1796" d="M166 0v1038h205v-104q51 56 123 86.5t153 30.5q196 0 295 -152q125 152 326 152q164 0 262 -95q110 -106 110 -292v-664h-208v633q0 117 -58 174t-151 57q-90 0 -152.5 -58t-62.5 -163v-643h-209v633q0 78 -27.5 130t-74.5 76.5t-107 24.5q-94 0 -154.5 -58.5 t-60.5 -172.5v-633h-209z" />
<glyph unicode="n" horiz-adv-x="1163" d="M166 0v1038h205v-104q52 57 125 87t151 30q159 0 256 -95q105 -101 105 -292v-664h-209v633q0 78 -27.5 130t-74.5 76.5t-107 24.5q-94 0 -154.5 -58.5t-60.5 -172.5v-633h-209z" />
<glyph unicode="o" horiz-adv-x="1100" d="M117 520q0 140 27 238t96 170q34 36 79 63t104.5 43.5t125.5 16.5q103 0 181 -34t130 -89q70 -73 96.5 -169.5t26.5 -238.5q0 -144 -26 -240t-97 -169q-118 -123 -311 -123q-191 0 -309 123q-70 73 -96.5 169.5t-26.5 239.5zM326 520q0 -101 14 -170.5t57 -113.5 q62 -62 152 -62q93 0 153 62q44 44 58 113.5t14 170.5q0 102 -14 171.5t-58 113.5q-57 59 -153 59q-93 0 -152 -59q-43 -44 -57 -113.5t-14 -171.5z" />
<glyph unicode="p" horiz-adv-x="1133" d="M166 -420v1458h205v-110q57 69 121.5 96t152.5 27q78 0 145.5 -25t108.5 -68q48 -48 74.5 -118.5t34.5 -146t8 -173.5t-8 -174t-34.5 -147t-74.5 -119q-43 -43 -109 -67.5t-143 -24.5q-86 0 -152.5 27.5t-119.5 90.5v-526h-209zM375 520q0 -106 16 -180.5t64 -120 t137 -45.5q128 0 171.5 91.5t43.5 254.5q0 106 -16 180.5t-63.5 119t-135.5 44.5q-89 0 -137 -45t-64 -119t-16 -180z" />
<glyph unicode="q" horiz-adv-x="1133" d="M117 520q0 98 8 173.5t33.5 145.5t74.5 119q43 43 110 68t144 25q89 0 153.5 -27t121.5 -96v110h205v-1458h-209v526q-36 -43 -78.5 -69.5t-89 -37.5t-105.5 -11q-76 0 -141.5 24.5t-110.5 67.5q-49 49 -74.5 119.5t-33.5 146.5t-8 174zM326 520q0 -106 16 -180.5 t64 -120t137 -45.5q128 0 171.5 91.5t43.5 254.5q0 106 -16 180.5t-63.5 119t-135.5 44.5q-89 0 -137 -45t-64 -119t-16 -180z" />
<glyph unicode="r" horiz-adv-x="899" d="M166 0v1038h205v-112q41 57 115.5 91t160.5 34q77 0 135.5 -22.5t112.5 -76.5l-158 -157q-36 37 -69 53t-86 16q-56 0 -103.5 -29t-75.5 -81.5t-28 -122.5v-631h-209z" />
<glyph unicode="s" horiz-adv-x="1022" d="M66 137l137 137q105 -108 299 -108q64 0 116.5 16t81.5 48t29 79q0 112 -139 123l-166 14q-99 9 -167.5 42t-104 94t-35.5 151q0 147 111.5 232.5t279.5 85.5q251 0 385 -117l-131 -133q-91 76 -256 76q-92 0 -140.5 -36t-48.5 -98q0 -105 144 -118l164 -15 q97 -8 166.5 -42t106 -97t36.5 -154q0 -106 -55 -180t-152 -111.5t-225 -37.5q-93 0 -168.5 13t-141 45t-126.5 91z" />
<glyph unicode="t" horiz-adv-x="700" d="M72 860v160h118v315h209v-315h201v-160h-201v-561q0 -121 115 -121h86v-178h-125q-92 0 -156.5 40t-96.5 105.5t-32 143.5v571h-118z" />
<glyph unicode="u" horiz-adv-x="1163" d="M156 375v663h209v-632q0 -116 58 -174t150 -58q94 0 154.5 58.5t60.5 173.5v632h209v-1038h-204v104q-53 -56 -125.5 -86t-151.5 -30q-157 0 -256 94q-57 56 -80.5 127.5t-23.5 165.5z" />
<glyph unicode="v" horiz-adv-x="965" d="M16 1038h222l245 -731l244 731h221l-381 -1038h-170z" />
<glyph unicode="w" horiz-adv-x="1522" d="M16 1038h222l200 -731l242 731h162l239 -731l201 731h223l-323 -1038h-178l-244 725l-242 -725h-180z" />
<glyph unicode="x" horiz-adv-x="1030" d="M45 0l356 530l-342 508h252l205 -338l203 338h252l-340 -508l354 -530h-252l-217 354l-219 -354h-252z" />
<glyph unicode="y" horiz-adv-x="958" d="M16 1038h222l247 -731l242 731h223l-458 -1245q-30 -81 -76 -129q-77 -76 -213 -76h-84v189h53q65 0 96.5 23.5t53.5 86.5l57 162z" />
<glyph unicode="z" horiz-adv-x="961" d="M88 0v166l516 686h-487v186h745v-166l-520 -686h520v-186h-774z" />
<glyph unicode="{" horiz-adv-x="834" d="M92 637v184h76q59 0 98 39q37 37 37 123v342q0 76 17.5 126t56.5 89q70 70 219 70h145v-187h-79q-94 0 -119 -28q-31 -31 -31 -131v-330q0 -90 -36.5 -133.5t-98.5 -71.5q61 -26 98 -70t37 -135v-329q0 -101 31 -132q25 -28 119 -28h79v-187h-145q-149 0 -219 70 q-40 42 -57 91.5t-17 123.5v342q0 86 -37 123q-37 39 -98 39h-76z" />
<glyph unicode="|" horiz-adv-x="692" d="M242 -152v1762h209v-1762h-209z" />
<glyph unicode="}" horiz-adv-x="834" d="M92 35h80q92 0 119 28q31 32 31 132v329q0 90 37.5 134.5t99.5 70.5q-64 29 -100.5 72.5t-36.5 132.5v330q0 99 -31 131q-27 28 -119 28h-80v187h146q149 0 219 -70q39 -38 56 -88.5t17 -126.5v-342q0 -84 37 -123q41 -39 101 -39h73v-184h-73q-62 0 -101 -39 q-37 -39 -37 -123v-342q0 -74 -16.5 -124.5t-56.5 -90.5q-70 -70 -219 -70h-146v187z" />
<glyph unicode="~" horiz-adv-x="1176" d="M88 571q59 59 107 94.5t93 50.5t101 15q58 0 110.5 -17.5t116.5 -49.5q21 -10 38.5 -18t45 -17t42 -12t38.5 -3q47 0 83 17.5t91 73.5l133 -132q-91 -91 -157 -125t-146 -34q-52 0 -104.5 16.5t-124.5 50.5q-96 49 -162 49q-46 0 -81.5 -16.5t-92.5 -73.5z" />
<glyph unicode="&#xa1;" horiz-adv-x="680" d="M209 911q0 55 39 94t94 39t94 -39t39 -94q0 -54 -39.5 -92.5t-93.5 -38.5t-93.5 38.5t-39.5 92.5zM215 -420l47 1024h158l49 -1024h-254z" />
<glyph unicode="&#xa2;" horiz-adv-x="1020" d="M113 750q0 149 47 260.5t132.5 177.5t194.5 84v186h164v-184q87 -10 155 -45.5t134 -106.5l-139 -135q-74 84 -168 98v-671q49 7 89 31t79 67l139 -135q-64 -68 -133 -104t-156 -48v-225h-164v227q-110 18 -195 84t-132 178.5t-47 260.5zM322 750q0 -87 15.5 -146.5 t47.5 -105.5q49 -65 121 -80v663q-69 -14 -119 -80q-34 -47 -49.5 -107t-15.5 -144z" />
<glyph unicode="&#xa3;" horiz-adv-x="1155" d="M88 641v160h127v196q0 148 64.5 254.5t176 162.5t246.5 56q114 0 197.5 -33t157.5 -108l-148 -145q-43 45 -87.5 66.5t-119.5 21.5q-81 0 -140.5 -33.5t-91.5 -99t-32 -158.5v-180h264v-160h-264v-442h619v-199h-842v641h-127z" />
<glyph unicode="&#xa4;" horiz-adv-x="1362" d="M139 166l150 151q-78 115 -78 254q0 141 78 254l-150 150l137 137l150 -149q110 75 254 75t254 -75l151 149l138 -137l-152 -150q78 -113 78 -254q0 -139 -78 -254l152 -151l-138 -137l-151 151q-115 -78 -254 -78t-254 78l-150 -151zM401 571q0 -55 21.5 -106t60.5 -90 t90 -60.5t107 -21.5q75 0 139 37t101.5 101.5t37.5 139.5t-37.5 139.5t-102 101t-138.5 36.5q-116 0 -197.5 -80.5t-81.5 -196.5z" />
<glyph unicode="&#xa5;" horiz-adv-x="1114" d="M10 1458h242l307 -643l303 643h240l-299 -594h178v-159h-260l-53 -105v-106h313v-160h-313v-334h-222v334h-313v160h313v106l-53 105h-260v159h178z" />
<glyph unicode="&#xa6;" horiz-adv-x="705" d="M242 -152v717h209v-717h-209zM242 893v717h209v-717h-209z" />
<glyph unicode="&#xa7;" horiz-adv-x="1112" d="M152 530q0 111 59.5 196t138.5 124q-83 41 -127.5 105t-44.5 169q0 97 45.5 175.5t132 124.5t203.5 46q116 0 203 -42.5t133 -119t49 -175.5h-201q-11 155 -184 155q-86 0 -133 -41t-47 -117q0 -119 153 -165l144 -43q291 -90 291 -381q0 -110 -59 -194t-140 -126 q82 -36 131 -107t49 -182q0 -112 -53.5 -195t-142.5 -126t-195 -43q-163 0 -277 89t-120 259h205q6 -76 57 -119t135 -43q86 0 136 46t50 126q0 60 -38.5 107.5t-120.5 72.5l-144 44q-288 87 -288 380zM356 535q0 -100 58 -162q55 -58 145 -58t143 58q60 64 60 162 q0 106 -60 163q-60 58 -143 58q-90 0 -145 -58q-58 -61 -58 -163z" />
<glyph unicode="&#xa8;" d="M172 1346q0 46 34 80t81 34t81.5 -33.5t34.5 -80.5t-34 -82t-82 -35t-81.5 35t-33.5 82zM621 1346q0 47 35 80.5t81 33.5q48 0 81.5 -33.5t33.5 -80.5t-33 -82t-82 -35q-46 0 -81 35t-35 82z" />
<glyph unicode="&#xa9;" horiz-adv-x="1765" d="M141 729q0 149 58 286t160 238.5t238.5 159t285.5 57.5t286 -58t238 -159t159 -238t58 -286t-58 -286t-159 -238t-238 -159t-286 -58t-285.5 57.5t-238.5 159t-160 238.5t-58 286zM291 729q0 -165 79 -304t214.5 -218.5t298.5 -79.5q161 0 297 79t215.5 218.5t79.5 304.5 t-79.5 304.5t-215.5 218.5t-297 79q-163 0 -298.5 -79.5t-214.5 -218.5t-79 -304zM528 729q0 94 27 170.5t74 129t116 81.5t150 29q84 0 144 -25.5t124 -81.5l-94 -96q-45 41 -84 56.5t-90 15.5q-111 0 -166 -75.5t-55 -203.5q0 -127 55 -202.5t166 -75.5q51 0 89.5 15.5 t84.5 55.5l94 -96q-62 -56 -123 -81.5t-145 -25.5q-107 0 -191.5 50t-130 143.5t-45.5 216.5z" />
<glyph unicode="&#xaa;" horiz-adv-x="926" d="M106 872q0 108 74.5 174t210.5 66h215v57q0 78 -42 115t-136 37q-68 0 -104.5 -17t-73.5 -63l-113 107q57 67 124 92.5t175 25.5q170 0 255 -72t85 -212v-553h-166v73q-45 -45 -94.5 -63t-122.5 -18t-126.5 17t-94.5 56q-66 66 -66 178zM272 877q0 -113 146 -113 q56 0 90 8t63 37q35 31 35 119v65h-190q-71 0 -107.5 -29.5t-36.5 -86.5z" />
<glyph unicode="&#xab;" horiz-adv-x="1212" d="M76 557l471 469v-252l-219 -217l219 -219v-252zM594 557l471 469v-252l-221 -217l221 -219v-252z" />
<glyph unicode="&#xac;" horiz-adv-x="1092" d="M98 489v195h893v-483h-194v288h-699z" />
<glyph unicode="&#xad;" horiz-adv-x="1092" d="M104 471v195h883v-195h-883z" />
<glyph unicode="&#xae;" horiz-adv-x="1765" d="M141 729q0 149 58 286t160 238.5t238.5 159t285.5 57.5t286 -58t238 -159t159 -238t58 -286t-58 -286t-159 -238t-238 -159t-286 -58t-285.5 57.5t-238.5 159t-160 238.5t-58 286zM289 729q0 -166 79 -304.5t215 -219t300 -80.5q163 0 299 80.5t214.5 219.5t78.5 304 t-78.5 304t-214.5 219.5t-299 80.5q-124 0 -232 -46t-190 -129.5t-127 -194.5t-45 -234zM625 330v800h301q74 0 133 -33.5t92 -90t33 -121.5q0 -81 -43.5 -137t-114.5 -80l178 -338h-166l-164 317h-102v-317h-147zM772 764h135q58 0 94.5 34.5t36.5 86.5t-36.5 86.5 t-94.5 34.5h-135v-242z" />
<glyph unicode="&#xaf;" d="M195 1274v149h634v-149h-634z" />
<glyph unicode="&#xb0;" horiz-adv-x="965" d="M125 1124q0 95 48 179t130.5 132t177.5 48q96 0 179 -48.5t131.5 -131.5t48.5 -179q0 -95 -48 -177.5t-132 -130.5t-179 -48q-73 0 -136.5 27t-114.5 78t-78 114.5t-27 136.5zM297 1124q0 -79 53.5 -133.5t130.5 -54.5t132 54t55 134t-54.5 135.5t-132.5 55.5t-131 -55.5 t-53 -135.5z" />
<glyph unicode="&#xb1;" horiz-adv-x="1092" d="M104 0v195h883v-195h-883zM104 647v195h345v344h194v-344h344v-195h-344v-346h-194v346h-345z" />
<glyph unicode="&#xb2;" horiz-adv-x="717" d="M92 584v141l330 381q45 53 45 106q0 51 -28.5 82t-80.5 31q-45 0 -76.5 -27t-31.5 -86h-158q0 116 75 185t191 69q118 0 192.5 -68t74.5 -186q0 -58 -21 -98.5t-74 -101.5l-247 -287h342v-141h-533z" />
<glyph unicode="&#xb3;" horiz-adv-x="741" d="M92 831h158q1 -55 36.5 -85.5t86.5 -30.5q53 0 86 33t33 92q0 55 -32 89t-93 34h-23v135h23q56 0 85 31.5t29 80.5q0 55 -32 85t-78 30q-48 0 -78 -28.5t-33 -77.5h-156q3 76 38.5 132t95.5 85.5t133 29.5q116 0 191 -69.5t75 -179.5q0 -129 -102 -183q114 -60 114 -198 q0 -125 -78.5 -194t-197.5 -69q-54 0 -105.5 15.5t-89.5 46t-61 79.5t-25 117z" />
<glyph unicode="&#xb4;" d="M406 1227l153 332h232l-228 -332h-157z" />
<glyph unicode="&#xb5;" horiz-adv-x="1165" d="M156 -420v1458h209v-632q0 -115 59 -173.5t151 -58.5q94 0 153.5 58.5t59.5 173.5v632h209v-1038h-204v104q-108 -116 -275 -116q-94 0 -153 51v-459h-209z" />
<glyph unicode="&#xb6;" horiz-adv-x="1305" d="M78 1051q0 121 56.5 213t162 143t242.5 51h575v-1878h-209v1680h-221v-1680h-209v1069q-82 0 -154 31.5t-127.5 88.5t-85.5 131t-30 151z" />
<glyph unicode="&#xb8;" d="M342 -432l143 301h168l-104 -301h-207z" />
<glyph unicode="&#xb9;" horiz-adv-x="567" d="M82 1126v179l178 153h158v-874h-158v698z" />
<glyph unicode="&#xba;" horiz-adv-x="938" d="M125 1044q0 76 8.5 132.5t31 106t58.5 85.5q94 98 246 98q154 0 248 -98q58 -59 78 -133t20 -191q0 -76 -8.5 -133.5t-31 -106.5t-58.5 -85q-94 -98 -248 -98q-152 0 -246 98q-36 36 -58.5 85t-31 106.5t-8.5 133.5zM295 1044q0 -81 10.5 -135.5t44.5 -89.5 q47 -47 119 -47q74 0 121 47q34 34 43.5 86t9.5 139q0 88 -9.5 139.5t-43.5 84.5q-49 47 -121 47q-70 0 -119 -47q-34 -34 -44.5 -87.5t-10.5 -136.5z" />
<glyph unicode="&#xbb;" horiz-adv-x="1212" d="M147 86v252l222 219l-222 217v252l474 -469zM666 86v252l219 219l-219 217v252l473 -469z" />
<glyph unicode="&#xbc;" horiz-adv-x="1655" d="M82 1126v179l178 153h158v-874h-158v698zM369 0l686 1458h166l-686 -1458h-166zM983 125v145l301 604h170l-301 -604h186v170h152v-170h82v-145h-82v-125h-152v125h-356z" />
<glyph unicode="&#xbd;" horiz-adv-x="1694" d="M82 1126v179l178 153h158v-874h-158v698zM352 0l686 1458h166l-686 -1458h-166zM1071 0v141l328 381q45 53 45 107q0 51 -28.5 81.5t-80.5 30.5q-47 0 -77.5 -26t-30.5 -86h-156q0 116 74.5 185t189.5 69q118 0 192.5 -69t74.5 -185q0 -58 -21 -99t-74 -102l-247 -287 h342v-141h-531z" />
<glyph unicode="&#xbe;" horiz-adv-x="1729" d="M92 831h158q1 -55 36.5 -85.5t86.5 -30.5q53 0 86 33t33 92q0 55 -32 89t-93 34h-23v135h23q56 0 85 31.5t29 80.5q0 55 -32 85t-78 30q-48 0 -78 -28.5t-33 -77.5h-156q3 76 38.5 132t95.5 85.5t133 29.5q116 0 191 -69.5t75 -179.5q0 -129 -102 -183q114 -60 114 -198 q0 -125 -78.5 -194t-197.5 -69q-54 0 -105.5 15.5t-89.5 46t-61 79.5t-25 117zM455 0l686 1458h166l-686 -1458h-166zM1059 125v145l299 604h172l-301 -604h186v170h150v-170h82v-145h-82v-125h-150v125h-356z" />
<glyph unicode="&#xbf;" horiz-adv-x="1047" d="M113 -39q0 119 96 252l158 221q36 51 36 111v61h209v-74q0 -61 -15.5 -106.5t-53.5 -95.5l-160 -215q-61 -81 -61 -156q0 -86 55 -144.5t143 -58.5q91 0 145 59t54 146h209q0 -115 -53 -204t-147 -139t-208 -50q-111 0 -205 48t-148 137t-54 208zM377 911q0 55 39 94 t94 39t94 -39t39 -94q0 -54 -39.5 -92.5t-93.5 -38.5t-93.5 38.5t-39.5 92.5z" />
<glyph unicode="&#xc0;" horiz-adv-x="1280" d="M16 0l535 1458h178l535 -1458h-236l-100 293h-576l-100 -293h-236zM354 1932h232l153 -332h-157zM418 481h448l-221 647z" />
<glyph unicode="&#xc1;" horiz-adv-x="1280" d="M16 0l535 1458h178l535 -1458h-236l-100 293h-576l-100 -293h-236zM418 481h448l-221 647zM527 1600l153 332h232l-228 -332h-157z" />
<glyph unicode="&#xc2;" horiz-adv-x="1280" d="M16 0l535 1458h178l535 -1458h-236l-100 293h-576l-100 -293h-236zM281 1600l264 329h176l264 -329h-174l-178 198l-178 -198h-174zM418 481h448l-221 647z" />
<glyph unicode="&#xc3;" horiz-adv-x="1280" d="M16 0l535 1458h178l535 -1458h-236l-100 293h-576l-100 -293h-236zM281 1747q64 64 112 88.5t101 24.5q69 0 153 -49q64 -39 113 -39q29 0 56 12.5t65 50.5l98 -96q-44 -44 -80 -69t-66.5 -34.5t-66.5 -9.5q-41 0 -73.5 10.5t-79.5 36.5q-66 39 -115 39q-31 0 -55.5 -11 t-63.5 -50zM418 481h448l-221 647z" />
<glyph unicode="&#xc4;" horiz-adv-x="1280" d="M16 0l535 1458h178l535 -1458h-236l-100 293h-576l-100 -293h-236zM293 1719q0 46 34 80t81 34t81.5 -33.5t34.5 -80.5t-34 -82t-82 -35t-81.5 35t-33.5 82zM418 481h448l-221 647zM742 1719q0 47 35 80.5t81 33.5q48 0 81.5 -33.5t33.5 -80.5t-33 -82t-82 -35 q-46 0 -81 35t-35 82z" />
<glyph unicode="&#xc5;" horiz-adv-x="1280" d="M16 0l535 1458h178l535 -1458h-236l-100 293h-576l-100 -293h-236zM377 1792q0 69 34.5 128t93.5 93.5t128 34.5t128 -34.5t93.5 -93.5t34.5 -128t-34.5 -128t-93.5 -93.5t-128 -34.5t-128 34.5t-93.5 93.5t-34.5 128zM418 481h448l-221 647zM502 1792q0 -52 38.5 -90.5 t92.5 -38.5q55 0 93 38t38 91q0 54 -37.5 91.5t-93.5 37.5q-55 0 -93 -38t-38 -91z" />
<glyph unicode="&#xc6;" horiz-adv-x="1950" d="M10 0l766 1458h1061v-198h-711v-429h607v-198h-607v-434h711v-199h-932v332h-481l-172 -332h-242zM520 520h385v740z" />
<glyph unicode="&#xc7;" horiz-adv-x="1229" d="M137 729q0 133 3.5 211t16 143t41 121.5t81.5 110.5q76 76 173 115.5t210 39.5q131 0 225.5 -42.5t181.5 -129.5l-147 -149q-65 65 -121 94t-139 29q-64 0 -120.5 -23t-95.5 -65q-29 -32 -44 -63t-25 -82.5t-13.5 -122t-3.5 -187.5q0 -219 16.5 -307.5t69.5 -147.5 q39 -41 95.5 -64.5t120.5 -23.5q83 0 139 29t121 94l147 -149q-53 -53 -114 -92.5t-132 -59.5t-161 -20q-76 0 -143.5 17.5t-129.5 53.5t-110 84q-68 70 -98 149t-37 171.5t-7 265.5zM455 -432l143 301h168l-104 -301h-207z" />
<glyph unicode="&#xc8;" horiz-adv-x="1235" d="M190 0v1458h932v-198h-710v-426h606v-197h-606v-438h710v-199h-932zM358 1932h232l153 -332h-157z" />
<glyph unicode="&#xc9;" horiz-adv-x="1235" d="M190 0v1458h932v-198h-710v-426h606v-197h-606v-438h710v-199h-932zM531 1600l153 332h232l-228 -332h-157z" />
<glyph unicode="&#xca;" horiz-adv-x="1235" d="M190 0v1458h932v-198h-710v-426h606v-197h-606v-438h710v-199h-932zM285 1600l264 329h176l264 -329h-174l-178 198l-178 -198h-174z" />
<glyph unicode="&#xcb;" horiz-adv-x="1235" d="M190 0v1458h932v-198h-710v-426h606v-197h-606v-438h710v-199h-932zM297 1719q0 46 34 80t81 34t81.5 -33.5t34.5 -80.5t-34 -82t-82 -35t-81.5 35t-33.5 82zM746 1719q0 47 35 80.5t81 33.5q48 0 81.5 -33.5t33.5 -80.5t-33 -82t-82 -35q-46 0 -81 35t-35 82z" />
<glyph unicode="&#xcc;" horiz-adv-x="602" d="M55 1932h232l153 -332h-157zM190 0v1458h222v-1458h-222z" />
<glyph unicode="&#xcd;" horiz-adv-x="602" d="M164 1600l153 332h232l-228 -332h-157zM190 0v1458h222v-1458h-222z" />
<glyph unicode="&#xce;" horiz-adv-x="602" d="M-61 1600l264 329h176l264 -329h-174l-178 198l-178 -198h-174zM190 0v1458h222v-1458h-222z" />
<glyph unicode="&#xcf;" horiz-adv-x="602" d="M-43 1719q0 46 34 80t81 34t81.5 -33.5t34.5 -80.5t-34 -82t-82 -35t-81.5 35t-33.5 82zM190 0v1458h222v-1458h-222zM406 1719q0 47 35 80.5t81 33.5q48 0 81.5 -33.5t33.5 -80.5t-33 -82t-82 -35q-46 0 -81 35t-35 82z" />
<glyph unicode="&#xd0;" horiz-adv-x="1401" d="M78 651v170h151v637h512q262 0 412 -194q43 -56 64.5 -103.5t32.5 -109t12.5 -126t1.5 -196.5q0 -177 -6 -259t-29 -148t-76 -129q-74 -91 -180 -142t-238 -51h-506v651h-151zM451 197h264q184 0 272 129q36 53 45.5 120t9.5 277q0 209 -11 283t-52 129q-49 67 -111 97 t-153 30h-264v-441h282v-170h-282v-454z" />
<glyph unicode="&#xd1;" horiz-adv-x="1477" d="M190 0v1458h203l674 -1024v1024h221v-1458h-203l-673 1026v-1026h-222zM387 1747q64 64 112 88.5t101 24.5q69 0 153 -49q64 -39 113 -39q29 0 56 12.5t65 50.5l98 -96q-44 -44 -80 -69t-66.5 -34.5t-66.5 -9.5q-41 0 -73.5 10.5t-79.5 36.5q-66 39 -115 39 q-31 0 -55.5 -11t-63.5 -50z" />
<glyph unicode="&#xd2;" horiz-adv-x="1323" d="M137 729q0 133 3.5 211t16 143t41 121.5t81.5 110.5q155 155 383 155t385 -155q67 -70 96.5 -149.5t36 -171.5t6.5 -265t-6.5 -264.5t-36.5 -172t-96 -149.5q-157 -155 -385 -155t-383 155q-68 70 -98 149t-37 171.5t-7 265.5zM358 729q0 -116 3.5 -185.5t13.5 -121.5 t24 -81t45 -65q40 -42 97.5 -66t120.5 -24q132 0 217 90q36 39 54.5 89t25 136t6.5 228q0 218 -16.5 307t-69.5 146q-38 41 -96.5 65.5t-120.5 24.5q-63 0 -121.5 -24.5t-96.5 -65.5q-53 -59 -69.5 -147t-16.5 -306zM383 1932h232l153 -332h-157z" />
<glyph unicode="&#xd3;" horiz-adv-x="1323" d="M137 729q0 133 3.5 211t16 143t41 121.5t81.5 110.5q155 155 383 155t385 -155q67 -70 96.5 -149.5t36 -171.5t6.5 -265t-6.5 -264.5t-36.5 -172t-96 -149.5q-157 -155 -385 -155t-383 155q-68 70 -98 149t-37 171.5t-7 265.5zM358 729q0 -116 3.5 -185.5t13.5 -121.5 t24 -81t45 -65q40 -42 97.5 -66t120.5 -24q132 0 217 90q36 39 54.5 89t25 136t6.5 228q0 218 -16.5 307t-69.5 146q-38 41 -96.5 65.5t-120.5 24.5q-63 0 -121.5 -24.5t-96.5 -65.5q-53 -59 -69.5 -147t-16.5 -306zM556 1600l153 332h232l-228 -332h-157z" />
<glyph unicode="&#xd4;" horiz-adv-x="1323" d="M137 729q0 133 3.5 211t16 143t41 121.5t81.5 110.5q155 155 383 155t385 -155q67 -70 96.5 -149.5t36 -171.5t6.5 -265t-6.5 -264.5t-36.5 -172t-96 -149.5q-157 -155 -385 -155t-383 155q-68 70 -98 149t-37 171.5t-7 265.5zM310 1600l264 329h176l264 -329h-174 l-178 198l-178 -198h-174zM358 729q0 -116 3.5 -185.5t13.5 -121.5t24 -81t45 -65q40 -42 97.5 -66t120.5 -24q132 0 217 90q36 39 54.5 89t25 136t6.5 228q0 218 -16.5 307t-69.5 146q-38 41 -96.5 65.5t-120.5 24.5q-63 0 -121.5 -24.5t-96.5 -65.5q-53 -59 -69.5 -147 t-16.5 -306z" />
<glyph unicode="&#xd5;" horiz-adv-x="1323" d="M137 729q0 133 3.5 211t16 143t41 121.5t81.5 110.5q155 155 383 155t385 -155q67 -70 96.5 -149.5t36 -171.5t6.5 -265t-6.5 -264.5t-36.5 -172t-96 -149.5q-157 -155 -385 -155t-383 155q-68 70 -98 149t-37 171.5t-7 265.5zM310 1747q64 64 112 88.5t101 24.5 q69 0 153 -49q64 -39 113 -39q29 0 56 12.5t65 50.5l98 -96q-44 -44 -80 -69t-66.5 -34.5t-66.5 -9.5q-41 0 -73.5 10.5t-79.5 36.5q-66 39 -115 39q-31 0 -55.5 -11t-63.5 -50zM358 729q0 -116 3.5 -185.5t13.5 -121.5t24 -81t45 -65q40 -42 97.5 -66t120.5 -24 q132 0 217 90q36 39 54.5 89t25 136t6.5 228q0 218 -16.5 307t-69.5 146q-38 41 -96.5 65.5t-120.5 24.5q-63 0 -121.5 -24.5t-96.5 -65.5q-53 -59 -69.5 -147t-16.5 -306z" />
<glyph unicode="&#xd6;" horiz-adv-x="1323" d="M137 729q0 133 3.5 211t16 143t41 121.5t81.5 110.5q155 155 383 155t385 -155q67 -70 96.5 -149.5t36 -171.5t6.5 -265t-6.5 -264.5t-36.5 -172t-96 -149.5q-157 -155 -385 -155t-383 155q-68 70 -98 149t-37 171.5t-7 265.5zM322 1719q0 46 34 80t81 34t81.5 -33.5 t34.5 -80.5t-34 -82t-82 -35t-81.5 35t-33.5 82zM358 729q0 -116 3.5 -185.5t13.5 -121.5t24 -81t45 -65q40 -42 97.5 -66t120.5 -24q132 0 217 90q36 39 54.5 89t25 136t6.5 228q0 218 -16.5 307t-69.5 146q-38 41 -96.5 65.5t-120.5 24.5q-63 0 -121.5 -24.5t-96.5 -65.5 q-53 -59 -69.5 -147t-16.5 -306zM771 1719q0 47 35 80.5t81 33.5q48 0 81.5 -33.5t33.5 -80.5t-33 -82t-82 -35q-46 0 -81 35t-35 82z" />
<glyph unicode="&#xd7;" horiz-adv-x="1092" d="M117 270l299 299l-299 299l131 131l297 -299l299 299l131 -131l-299 -299l299 -299l-131 -129l-299 297l-297 -297z" />
<glyph unicode="&#xd8;" horiz-adv-x="1335" d="M137 729q0 133 3.5 211t16 143t41 121.5t81.5 110.5q155 155 383 155q133 0 245 -55l62 133h170l-107 -221l15 -12q67 -70 96.5 -149.5t36 -171.5t6.5 -265t-6.5 -264.5t-36.5 -172t-96 -149.5q-157 -155 -385 -155q-132 0 -244 55l-64 -133h-168l105 221l-6 6l-6 6 q-68 70 -98 149t-37 171.5t-7 265.5zM360 729q0 -167 9 -253t32 -136l424 887q-76 45 -163 45q-62 0 -119.5 -24t-96.5 -66q-53 -59 -69.5 -147t-16.5 -306zM500 231q72 -45 162 -45q132 0 217 90q36 39 54.5 89t25 136t6.5 228q0 169 -8.5 255t-32.5 134z" />
<glyph unicode="&#xd9;" horiz-adv-x="1382" d="M168 492v966h221v-956q0 -96 37 -167.5t105 -110t159 -38.5t159.5 38.5t106 109.5t37.5 168v956h221v-966q0 -148 -68 -263t-187.5 -178t-268.5 -63q-148 0 -267 63t-187 178t-68 263zM413 1932h232l153 -332h-157z" />
<glyph unicode="&#xda;" horiz-adv-x="1382" d="M168 492v966h221v-956q0 -96 37 -167.5t105 -110t159 -38.5t159.5 38.5t106 109.5t37.5 168v956h221v-966q0 -148 -68 -263t-187.5 -178t-268.5 -63q-148 0 -267 63t-187 178t-68 263zM586 1600l153 332h232l-228 -332h-157z" />
<glyph unicode="&#xdb;" horiz-adv-x="1382" d="M168 492v966h221v-956q0 -96 37 -167.5t105 -110t159 -38.5t159.5 38.5t106 109.5t37.5 168v956h221v-966q0 -148 -68 -263t-187.5 -178t-268.5 -63q-148 0 -267 63t-187 178t-68 263zM340 1600l264 329h176l264 -329h-174l-178 198l-178 -198h-174z" />
<glyph unicode="&#xdc;" horiz-adv-x="1382" d="M168 492v966h221v-956q0 -96 37 -167.5t105 -110t159 -38.5t159.5 38.5t106 109.5t37.5 168v956h221v-966q0 -148 -68 -263t-187.5 -178t-268.5 -63q-148 0 -267 63t-187 178t-68 263zM352 1719q0 46 34 80t81 34t81.5 -33.5t34.5 -80.5t-34 -82t-82 -35t-81.5 35 t-33.5 82zM801 1719q0 47 35 80.5t81 33.5q48 0 81.5 -33.5t33.5 -80.5t-33 -82t-82 -35q-46 0 -81 35t-35 82z" />
<glyph unicode="&#xdd;" horiz-adv-x="1114" d="M10 1458h242l305 -641l305 641h242l-436 -858v-600h-222v600zM449 1600l153 332h232l-228 -332h-157z" />
<glyph unicode="&#xde;" horiz-adv-x="1305" d="M190 0v1458h222v-280h331q103 0 192 -33.5t149.5 -92.5t93 -140t32.5 -177t-32.5 -176t-93.5 -138.5t-149.5 -92t-191.5 -33.5h-331v-295h-222zM412 494h317q118 0 188 64t70 177q0 114 -70 179t-188 65h-317v-485z" />
<glyph unicode="&#xdf;" horiz-adv-x="1157" d="M166 0v1069q0 131 55 222.5t154 136.5t229 45q122 0 216.5 -38t149 -117t54.5 -196q0 -156 -127 -237q67 -34 98 -87t31 -149v-338q0 -153 -84 -231q-86 -80 -233 -80h-109v178h66q35 0 59.5 8t46.5 27q43 34 43 117v319q0 75 -37 109q-39 39 -106 39h-72v166h64 q67 0 109 40t42 113q0 75 -51 123q-52 49 -166 49q-221 0 -221 -231v-1057h-211z" />
<glyph unicode="&#xe0;" horiz-adv-x="1085" d="M88 305q0 89 41 156.5t121.5 105t195.5 37.5h275v74q0 100 -54 147t-173 47q-87 0 -135.5 -22t-92.5 -78l-137 129q71 84 156 117t217 33q428 0 428 -357v-694h-205v94q-57 -57 -119 -81.5t-157 -24.5q-94 0 -163 23.5t-116 70.5q-82 85 -82 223zM247 1559h232l153 -332 h-157zM291 309q0 -147 190 -147q67 0 112 11.5t83 47.5q45 45 45 154v84h-244q-91 0 -138.5 -39t-47.5 -111z" />
<glyph unicode="&#xe1;" horiz-adv-x="1085" d="M88 305q0 89 41 156.5t121.5 105t195.5 37.5h275v74q0 100 -54 147t-173 47q-87 0 -135.5 -22t-92.5 -78l-137 129q71 84 156 117t217 33q428 0 428 -357v-694h-205v94q-57 -57 -119 -81.5t-157 -24.5q-94 0 -163 23.5t-116 70.5q-82 85 -82 223zM291 309 q0 -147 190 -147q67 0 112 11.5t83 47.5q45 45 45 154v84h-244q-91 0 -138.5 -39t-47.5 -111zM420 1227l153 332h232l-228 -332h-157z" />
<glyph unicode="&#xe2;" horiz-adv-x="1085" d="M88 305q0 89 41 156.5t121.5 105t195.5 37.5h275v74q0 100 -54 147t-173 47q-87 0 -135.5 -22t-92.5 -78l-137 129q71 84 156 117t217 33q428 0 428 -357v-694h-205v94q-57 -57 -119 -81.5t-157 -24.5q-94 0 -163 23.5t-116 70.5q-82 85 -82 223zM174 1227l264 329h176 l264 -329h-174l-178 198l-178 -198h-174zM291 309q0 -147 190 -147q67 0 112 11.5t83 47.5q45 45 45 154v84h-244q-91 0 -138.5 -39t-47.5 -111z" />
<glyph unicode="&#xe3;" horiz-adv-x="1085" d="M88 305q0 89 41 156.5t121.5 105t195.5 37.5h275v74q0 100 -54 147t-173 47q-87 0 -135.5 -22t-92.5 -78l-137 129q71 84 156 117t217 33q428 0 428 -357v-694h-205v94q-57 -57 -119 -81.5t-157 -24.5q-94 0 -163 23.5t-116 70.5q-82 85 -82 223zM174 1374 q64 64 112 88.5t101 24.5q69 0 153 -49q64 -39 113 -39q29 0 56 12.5t65 50.5l98 -96q-44 -44 -80 -69t-66.5 -34.5t-66.5 -9.5q-41 0 -73.5 10.5t-79.5 36.5q-66 39 -115 39q-31 0 -55.5 -11t-63.5 -50zM291 309q0 -147 190 -147q67 0 112 11.5t83 47.5q45 45 45 154v84 h-244q-91 0 -138.5 -39t-47.5 -111z" />
<glyph unicode="&#xe4;" horiz-adv-x="1085" d="M88 305q0 89 41 156.5t121.5 105t195.5 37.5h275v74q0 100 -54 147t-173 47q-87 0 -135.5 -22t-92.5 -78l-137 129q71 84 156 117t217 33q428 0 428 -357v-694h-205v94q-57 -57 -119 -81.5t-157 -24.5q-94 0 -163 23.5t-116 70.5q-82 85 -82 223zM186 1346q0 46 34 80 t81 34t81.5 -33.5t34.5 -80.5t-34 -82t-82 -35t-81.5 35t-33.5 82zM291 309q0 -147 190 -147q67 0 112 11.5t83 47.5q45 45 45 154v84h-244q-91 0 -138.5 -39t-47.5 -111zM635 1346q0 47 35 80.5t81 33.5q48 0 81.5 -33.5t33.5 -80.5t-33 -82t-82 -35q-46 0 -81 35t-35 82z " />
<glyph unicode="&#xe5;" horiz-adv-x="1085" d="M88 305q0 89 41 156.5t121.5 105t195.5 37.5h275v74q0 100 -54 147t-173 47q-87 0 -135.5 -22t-92.5 -78l-137 129q71 84 156 117t217 33q428 0 428 -357v-694h-205v94q-57 -57 -119 -81.5t-157 -24.5q-94 0 -163 23.5t-116 70.5q-82 85 -82 223zM270 1436q0 69 34.5 128 t93.5 93.5t128 34.5t128 -34.5t93.5 -93.5t34.5 -128t-34.5 -128t-93.5 -93.5t-128 -34.5t-128 34.5t-93.5 93.5t-34.5 128zM291 309q0 -147 190 -147q67 0 112 11.5t83 47.5q45 45 45 154v84h-244q-91 0 -138.5 -39t-47.5 -111zM395 1436q0 -52 38.5 -90.5t92.5 -38.5 q55 0 93 38t38 91q0 54 -37.5 91.5t-93.5 37.5q-55 0 -93 -38t-38 -91z" />
<glyph unicode="&#xe6;" horiz-adv-x="1714" d="M88 305q0 89 41 156.5t121.5 105t195.5 37.5h275v74q0 100 -54 147t-173 47q-87 0 -135.5 -22t-92.5 -78l-137 129q71 84 156 117t217 33q127 0 216.5 -35t135.5 -103q112 138 307 138q135 0 236 -63t153 -176.5t52 -260.5v-92h-674q0 -89 30.5 -154.5t89 -101 t144.5 -35.5t139 24t113 82l133 -124q-85 -85 -172 -123.5t-217 -38.5q-247 0 -367 162q-55 -67 -107.5 -100.5t-117.5 -47.5t-147 -14q-96 0 -163.5 23t-115.5 71q-82 85 -82 223zM291 309q0 -147 190 -147q67 0 112 11.5t83 47.5q45 45 45 154v84h-244q-91 0 -138.5 -39 t-47.5 -111zM928 604h467q-3 87 -27 141q-25 60 -79 96t-128 36q-73 0 -125.5 -35.5t-79.5 -96.5q-13 -29 -19.5 -61t-8.5 -80z" />
<glyph unicode="&#xe7;" horiz-adv-x="999" d="M113 520q0 141 38 243t103 166t148 93t173 29q110 0 190.5 -34t152.5 -112l-144 -139q-48 54 -92 76t-107 22q-122 0 -192 -92q-34 -43 -47.5 -101t-13.5 -151q0 -175 61 -254q70 -92 192 -92q61 0 106 22.5t93 75.5l144 -137q-47 -50 -100 -83.5t-112 -48.5t-131 -15 q-122 0 -227.5 54t-170 174t-64.5 304zM342 -432l143 301h168l-104 -301h-207z" />
<glyph unicode="&#xe8;" horiz-adv-x="1104" d="M113 520q0 167 54.5 286t153.5 182t232 63q136 0 236 -63t152 -176.5t52 -260.5v-92h-674q0 -91 31 -155.5t89.5 -100t144.5 -35.5t139 24t113 82l133 -124q-85 -85 -172 -123.5t-217 -38.5q-100 0 -185.5 29t-148.5 92t-98 165t-35 246zM280 1559h232l153 -332h-157z M319 604h467q-3 81 -28 141t-78.5 96t-126.5 36q-72 0 -126.5 -36t-80.5 -96q-14 -32 -18.5 -56.5t-8.5 -84.5z" />
<glyph unicode="&#xe9;" horiz-adv-x="1104" d="M113 520q0 167 54.5 286t153.5 182t232 63q136 0 236 -63t152 -176.5t52 -260.5v-92h-674q0 -91 31 -155.5t89.5 -100t144.5 -35.5t139 24t113 82l133 -124q-85 -85 -172 -123.5t-217 -38.5q-100 0 -185.5 29t-148.5 92t-98 165t-35 246zM319 604h467q-3 81 -28 141 t-78.5 96t-126.5 36q-72 0 -126.5 -36t-80.5 -96q-14 -32 -18.5 -56.5t-8.5 -84.5zM453 1227l153 332h232l-228 -332h-157z" />
<glyph unicode="&#xea;" horiz-adv-x="1104" d="M113 520q0 167 54.5 286t153.5 182t232 63q136 0 236 -63t152 -176.5t52 -260.5v-92h-674q0 -91 31 -155.5t89.5 -100t144.5 -35.5t139 24t113 82l133 -124q-85 -85 -172 -123.5t-217 -38.5q-100 0 -185.5 29t-148.5 92t-98 165t-35 246zM207 1227l264 329h176l264 -329 h-174l-178 198l-178 -198h-174zM319 604h467q-3 81 -28 141t-78.5 96t-126.5 36q-72 0 -126.5 -36t-80.5 -96q-14 -32 -18.5 -56.5t-8.5 -84.5z" />
<glyph unicode="&#xeb;" horiz-adv-x="1104" d="M113 520q0 167 54.5 286t153.5 182t232 63q136 0 236 -63t152 -176.5t52 -260.5v-92h-674q0 -91 31 -155.5t89.5 -100t144.5 -35.5t139 24t113 82l133 -124q-85 -85 -172 -123.5t-217 -38.5q-100 0 -185.5 29t-148.5 92t-98 165t-35 246zM219 1346q0 46 34 80t81 34 t81.5 -33.5t34.5 -80.5t-34 -82t-82 -35t-81.5 35t-33.5 82zM319 604h467q-3 81 -28 141t-78.5 96t-126.5 36q-72 0 -126.5 -36t-80.5 -96q-14 -32 -18.5 -56.5t-8.5 -84.5zM668 1346q0 47 35 80.5t81 33.5q48 0 81.5 -33.5t33.5 -80.5t-33 -82t-82 -35q-46 0 -81 35t-35 82 z" />
<glyph unicode="&#xec;" horiz-adv-x="541" d="M30 1559h232l153 -332h-157zM166 0v1038h209v-1038h-209z" />
<glyph unicode="&#xed;" horiz-adv-x="541" d="M136 1227l153 332h232l-228 -332h-157zM166 0v1038h209v-1038h-209z" />
<glyph unicode="&#xee;" horiz-adv-x="541" d="M-86 1227l264 329h176l264 -329h-174l-178 198l-178 -198h-174zM166 0v1038h209v-1038h-209z" />
<glyph unicode="&#xef;" horiz-adv-x="541" d="M-74 1346q0 46 34 80t81 34t81.5 -33.5t34.5 -80.5t-34 -82t-82 -35t-81.5 35t-33.5 82zM166 0v1038h209v-1038h-209zM375 1346q0 47 35 80.5t81 33.5q48 0 81.5 -33.5t33.5 -80.5t-33 -82t-82 -35q-46 0 -81 35t-35 82z" />
<glyph unicode="&#xf0;" horiz-adv-x="1100" d="M125 510q0 138 25 233.5t96 167.5q77 82 213 105q33 6 69 6q43 0 86 -10l-92 166h-237v147h159l-79 143h221l80 -143h178v-147h-103l105 -193q50 -92 79 -165.5t39.5 -144.5t10.5 -165q0 -139 -26 -235t-95 -166q-114 -121 -305 -121t-303 121q-46 46 -73.5 107 t-37.5 130t-10 164zM334 510q0 -61 4.5 -110.5t19.5 -93.5t43 -73q61 -59 148 -59q90 0 149 59q29 29 44 73t19.5 93.5t4.5 110.5q0 60 -4.5 110t-19.5 93.5t-44 72.5q-58 60 -149 60q-88 0 -148 -60q-41 -43 -54 -111.5t-13 -164.5z" />
<glyph unicode="&#xf1;" horiz-adv-x="1163" d="M166 0v1038h205v-104q52 57 125 87t151 30q159 0 256 -95q105 -101 105 -292v-664h-209v633q0 78 -27.5 130t-74.5 76.5t-107 24.5q-94 0 -154.5 -58.5t-60.5 -172.5v-633h-209zM236 1374q64 64 112 88.5t101 24.5q69 0 153 -49q64 -39 113 -39q29 0 56 12.5t65 50.5 l98 -96q-44 -44 -80 -69t-66.5 -34.5t-66.5 -9.5q-41 0 -73.5 10.5t-79.5 36.5q-66 39 -115 39q-31 0 -55.5 -11t-63.5 -50z" />
<glyph unicode="&#xf2;" horiz-adv-x="1100" d="M117 520q0 140 27 238t96 170q34 36 79 63t104.5 43.5t125.5 16.5q103 0 181 -34t130 -89q70 -73 96.5 -169.5t26.5 -238.5q0 -144 -26 -240t-97 -169q-118 -123 -311 -123q-191 0 -309 123q-70 73 -96.5 169.5t-26.5 239.5zM256 1559h232l153 -332h-157zM326 520 q0 -101 14 -170.5t57 -113.5q62 -62 152 -62q93 0 153 62q44 44 58 113.5t14 170.5q0 102 -14 171.5t-58 113.5q-57 59 -153 59q-93 0 -152 -59q-43 -44 -57 -113.5t-14 -171.5z" />
<glyph unicode="&#xf3;" horiz-adv-x="1100" d="M117 520q0 140 27 238t96 170q34 36 79 63t104.5 43.5t125.5 16.5q103 0 181 -34t130 -89q70 -73 96.5 -169.5t26.5 -238.5q0 -144 -26 -240t-97 -169q-118 -123 -311 -123q-191 0 -309 123q-70 73 -96.5 169.5t-26.5 239.5zM326 520q0 -101 14 -170.5t57 -113.5 q62 -62 152 -62q93 0 153 62q44 44 58 113.5t14 170.5q0 102 -14 171.5t-58 113.5q-57 59 -153 59q-93 0 -152 -59q-43 -44 -57 -113.5t-14 -171.5zM443 1227l153 332h232l-228 -332h-157z" />
<glyph unicode="&#xf4;" horiz-adv-x="1100" d="M117 520q0 140 27 238t96 170q34 36 79 63t104.5 43.5t125.5 16.5q103 0 181 -34t130 -89q70 -73 96.5 -169.5t26.5 -238.5q0 -144 -26 -240t-97 -169q-118 -123 -311 -123q-191 0 -309 123q-70 73 -96.5 169.5t-26.5 239.5zM197 1227l264 329h176l264 -329h-174 l-178 198l-178 -198h-174zM326 520q0 -101 14 -170.5t57 -113.5q62 -62 152 -62q93 0 153 62q44 44 58 113.5t14 170.5q0 102 -14 171.5t-58 113.5q-57 59 -153 59q-93 0 -152 -59q-43 -44 -57 -113.5t-14 -171.5z" />
<glyph unicode="&#xf5;" horiz-adv-x="1100" d="M117 520q0 140 27 238t96 170q34 36 79 63t104.5 43.5t125.5 16.5q103 0 181 -34t130 -89q70 -73 96.5 -169.5t26.5 -238.5q0 -144 -26 -240t-97 -169q-118 -123 -311 -123q-191 0 -309 123q-70 73 -96.5 169.5t-26.5 239.5zM197 1374q64 64 112 88.5t101 24.5 q69 0 153 -49q64 -39 113 -39q29 0 56 12.5t65 50.5l98 -96q-44 -44 -80 -69t-66.5 -34.5t-66.5 -9.5q-41 0 -73.5 10.5t-79.5 36.5q-66 39 -115 39q-31 0 -55.5 -11t-63.5 -50zM326 520q0 -101 14 -170.5t57 -113.5q62 -62 152 -62q93 0 153 62q44 44 58 113.5t14 170.5 q0 102 -14 171.5t-58 113.5q-57 59 -153 59q-93 0 -152 -59q-43 -44 -57 -113.5t-14 -171.5z" />
<glyph unicode="&#xf6;" horiz-adv-x="1100" d="M117 520q0 140 27 238t96 170q34 36 79 63t104.5 43.5t125.5 16.5q103 0 181 -34t130 -89q70 -73 96.5 -169.5t26.5 -238.5q0 -144 -26 -240t-97 -169q-118 -123 -311 -123q-191 0 -309 123q-70 73 -96.5 169.5t-26.5 239.5zM209 1346q0 46 34 80t81 34t81.5 -33.5 t34.5 -80.5t-34 -82t-82 -35t-81.5 35t-33.5 82zM326 520q0 -101 14 -170.5t57 -113.5q62 -62 152 -62q93 0 153 62q44 44 58 113.5t14 170.5q0 102 -14 171.5t-58 113.5q-57 59 -153 59q-93 0 -152 -59q-43 -44 -57 -113.5t-14 -171.5zM658 1346q0 47 35 80.5t81 33.5 q48 0 81.5 -33.5t33.5 -80.5t-33 -82t-82 -35q-46 0 -81 35t-35 82z" />
<glyph unicode="&#xf7;" horiz-adv-x="1092" d="M98 471v195h893v-195h-893zM397 172q0 61 43.5 105.5t104.5 44.5q42 0 76 -20.5t53.5 -54.5t19.5 -75t-20 -75t-54 -54t-75 -20q-61 0 -104.5 44.5t-43.5 104.5zM397 965q0 60 43.5 104.5t104.5 44.5q41 0 75 -20t54 -54t20 -75q0 -61 -44.5 -104.5t-104.5 -43.5t-104 44 t-44 104z" />
<glyph unicode="&#xf8;" horiz-adv-x="1100" d="M117 520q0 140 27 238t96 170q34 36 79 63t104.5 43.5t125.5 16.5q119 0 215 -52l76 129h141l-121 -200q70 -73 96.5 -169.5t26.5 -238.5q0 -144 -26 -240t-97 -169q-118 -123 -311 -123q-119 0 -213 51l-76 -129h-141l119 203q-47 49 -74 110.5t-37 130.5t-10 166z M326 520q0 -153 30 -223l316 532q-53 35 -123 35q-93 0 -152 -59q-43 -44 -57 -113.5t-14 -171.5zM428 211q53 -37 121 -37q93 0 153 62q44 44 58 113.5t14 170.5q0 153 -31 223z" />
<glyph unicode="&#xf9;" horiz-adv-x="1163" d="M156 375v663h209v-632q0 -116 58 -174t150 -58q94 0 154.5 58.5t60.5 173.5v632h209v-1038h-204v104q-53 -56 -125.5 -86t-151.5 -30q-157 0 -256 94q-57 56 -80.5 127.5t-23.5 165.5zM296 1559h232l153 -332h-157z" />
<glyph unicode="&#xfa;" horiz-adv-x="1163" d="M156 375v663h209v-632q0 -116 58 -174t150 -58q94 0 154.5 58.5t60.5 173.5v632h209v-1038h-204v104q-53 -56 -125.5 -86t-151.5 -30q-157 0 -256 94q-57 56 -80.5 127.5t-23.5 165.5zM469 1227l153 332h232l-228 -332h-157z" />
<glyph unicode="&#xfb;" horiz-adv-x="1163" d="M156 375v663h209v-632q0 -116 58 -174t150 -58q94 0 154.5 58.5t60.5 173.5v632h209v-1038h-204v104q-53 -56 -125.5 -86t-151.5 -30q-157 0 -256 94q-57 56 -80.5 127.5t-23.5 165.5zM223 1227l264 329h176l264 -329h-174l-178 198l-178 -198h-174z" />
<glyph unicode="&#xfc;" horiz-adv-x="1163" d="M156 375v663h209v-632q0 -116 58 -174t150 -58q94 0 154.5 58.5t60.5 173.5v632h209v-1038h-204v104q-53 -56 -125.5 -86t-151.5 -30q-157 0 -256 94q-57 56 -80.5 127.5t-23.5 165.5zM235 1346q0 46 34 80t81 34t81.5 -33.5t34.5 -80.5t-34 -82t-82 -35t-81.5 35 t-33.5 82zM684 1346q0 47 35 80.5t81 33.5q48 0 81.5 -33.5t33.5 -80.5t-33 -82t-82 -35q-46 0 -81 35t-35 82z" />
<glyph unicode="&#xfd;" horiz-adv-x="958" d="M16 1038h222l247 -731l242 731h223l-458 -1245q-30 -81 -76 -129q-77 -76 -213 -76h-84v189h53q65 0 96.5 23.5t53.5 86.5l57 162zM373 1227l153 332h232l-228 -332h-157z" />
<glyph unicode="&#xfe;" horiz-adv-x="1135" d="M166 -420v1878h209v-524q54 64 119.5 90.5t152.5 26.5q77 0 143.5 -25t108.5 -68q48 -48 74.5 -118.5t34.5 -146t8 -173.5t-8 -174t-34.5 -147t-74.5 -119q-43 -43 -109 -67.5t-143 -24.5q-86 0 -152.5 27.5t-119.5 90.5v-526h-209zM375 520q0 -106 16 -180.5t64 -120 t137 -45.5q128 0 171.5 91.5t43.5 254.5q0 106 -16 180.5t-63.5 119t-135.5 44.5q-89 0 -137 -45t-64 -119t-16 -180z" />
<glyph unicode="&#xff;" horiz-adv-x="958" d="M16 1038h222l247 -731l242 731h223l-458 -1245q-30 -81 -76 -129q-77 -76 -213 -76h-84v189h53q65 0 96.5 23.5t53.5 86.5l57 162zM139 1346q0 46 34 80t81 34t81.5 -33.5t34.5 -80.5t-34 -82t-82 -35t-81.5 35t-33.5 82zM588 1346q0 47 35 80.5t81 33.5q48 0 81.5 -33.5 t33.5 -80.5t-33 -82t-82 -35q-46 0 -81 35t-35 82z" />
<glyph unicode="&#x152;" horiz-adv-x="2001" d="M137 729q0 174 7 268t37 174t98 148q76 76 170 113.5t208 37.5q195 0 308 -131v119h921v-196h-700v-431h596v-192h-596v-442h702v-197h-923v119q-57 -66 -139 -98.5t-169 -32.5q-114 0 -208 37.5t-170 113.5q-68 68 -98 148.5t-37 174t-7 267.5zM360 729 q0 -116 3.5 -185.5t13.5 -121.5t24 -81t45 -65q85 -90 216 -90q132 0 217 90q36 39 54.5 89t25 136t6.5 228q0 218 -16.5 307t-69.5 146q-38 41 -96.5 65.5t-120.5 24.5t-119.5 -24t-96.5 -66q-53 -59 -69.5 -147t-16.5 -306z" />
<glyph unicode="&#x153;" horiz-adv-x="1765" d="M117 520q0 140 27 238t96 170q34 36 79 63t104.5 43.5t125.5 16.5q112 0 198.5 -43.5t137.5 -122.5q55 82 137 124t190 42q135 0 236 -63t153 -176.5t52 -260.5v-92h-674q0 -89 30.5 -154.5t89 -101t144.5 -35.5t139 24t113 82l133 -124q-52 -53 -109 -90t-122.5 -54.5 t-155.5 -17.5q-74 0 -141.5 17.5t-122 54t-94.5 92.5q-50 -76 -137 -120t-197 -44q-191 0 -309 123q-70 73 -96.5 169.5t-26.5 239.5zM326 520q0 -101 14 -170.5t57 -113.5q62 -62 152 -62q93 0 153 62q44 44 58 113.5t14 170.5q0 102 -14 171.5t-58 113.5q-57 59 -153 59 q-93 0 -152 -59q-43 -44 -57 -113.5t-14 -171.5zM979 604h467q-3 87 -27 141q-25 60 -79 96t-128 36q-73 0 -126.5 -36.5t-77.5 -95.5q-15 -34 -21 -63.5t-8 -77.5z" />
<glyph unicode="&#x178;" horiz-adv-x="1114" d="M10 1458h242l305 -641l305 641h242l-436 -858v-600h-222v600zM215 1719q0 46 34 80t81 34t81.5 -33.5t34.5 -80.5t-34 -82t-82 -35t-81.5 35t-33.5 82zM664 1719q0 47 35 80.5t81 33.5q48 0 81.5 -33.5t33.5 -80.5t-33 -82t-82 -35q-46 0 -81 35t-35 82z" />
<glyph unicode="&#x2c6;" d="M160 1227l264 329h176l264 -329h-174l-178 198l-178 -198h-174z" />
<glyph unicode="&#x2dc;" d="M160 1374q64 64 112 88.5t101 24.5q69 0 153 -49q64 -39 113 -39q29 0 56 12.5t65 50.5l98 -96q-44 -44 -80 -69t-66.5 -34.5t-66.5 -9.5q-41 0 -73.5 10.5t-79.5 36.5q-66 39 -115 39q-31 0 -55.5 -11t-63.5 -50z" />
<glyph unicode="&#x2000;" />
<glyph unicode="&#x2001;" horiz-adv-x="2048" />
<glyph unicode="&#x2002;" />
<glyph unicode="&#x2003;" horiz-adv-x="2048" />
<glyph unicode="&#x2004;" horiz-adv-x="682" />
<glyph unicode="&#x2005;" horiz-adv-x="512" />
<glyph unicode="&#x2006;" horiz-adv-x="341" />
<glyph unicode="&#x2007;" horiz-adv-x="341" />
<glyph unicode="&#x2008;" horiz-adv-x="256" />
<glyph unicode="&#x2009;" horiz-adv-x="409" />
<glyph unicode="&#x200a;" horiz-adv-x="113" />
<glyph unicode="&#x2010;" horiz-adv-x="872" d="M137 471v195h598v-195h-598z" />
<glyph unicode="&#x2011;" horiz-adv-x="872" d="M137 471v195h598v-195h-598z" />
<glyph unicode="&#x2012;" horiz-adv-x="872" d="M137 471v195h598v-195h-598z" />
<glyph unicode="&#x2013;" horiz-adv-x="1092" d="M104 471v195h883v-195h-883z" />
<glyph unicode="&#x2014;" horiz-adv-x="1991" d="M137 473v199h1716v-199h-1716z" />
<glyph unicode="&#x2018;" horiz-adv-x="549" d="M160 1245v213l229 191v-404h-229z" />
<glyph unicode="&#x2019;" horiz-adv-x="549" d="M160 1057v401h229v-215z" />
<glyph unicode="&#x201a;" horiz-adv-x="547" d="M160 -188v403h229v-215z" />
<glyph unicode="&#x201c;" horiz-adv-x="940" d="M160 1245v213l229 191v-404h-229zM551 1245v213l229 191v-404h-229z" />
<glyph unicode="&#x201d;" horiz-adv-x="940" d="M160 1057v401h229v-215zM551 1057v401h229v-215z" />
<glyph unicode="&#x201e;" horiz-adv-x="942" d="M160 -188v403h229v-215zM551 -188v403h229v-215z" />
<glyph unicode="&#x2022;" horiz-adv-x="1049" d="M190 684q0 66 26.5 128.5t72 108t106 71.5t129.5 26q89 0 166.5 -44.5t122.5 -122t45 -167.5t-45 -167.5t-122.5 -122t-166.5 -44.5q-66 0 -127.5 26.5t-107.5 72.5t-72.5 107.5t-26.5 127.5z" />
<glyph unicode="&#x2026;" horiz-adv-x="1645" d="M141 143q0 61 44.5 104.5t105.5 43.5q62 0 105.5 -43.5t43.5 -104.5q0 -41 -20 -75t-54 -54t-75 -20q-60 0 -105 44t-45 105zM674 143q0 62 42 105t105 43t106.5 -43.5t43.5 -104.5q0 -42 -20.5 -76t-54.5 -53.5t-75 -19.5q-62 0 -104.5 43.5t-42.5 105.5zM1204 143 q0 61 44.5 104.5t105.5 43.5q62 0 105.5 -43.5t43.5 -104.5q0 -41 -20 -75t-54 -54t-75 -20q-60 0 -105 44t-45 105z" />
<glyph unicode="&#x202f;" horiz-adv-x="409" />
<glyph unicode="&#x2039;" horiz-adv-x="694" d="M76 557l471 469v-252l-219 -217l219 -219v-252z" />
<glyph unicode="&#x203a;" horiz-adv-x="694" d="M147 86v252l222 219l-222 217v252l474 -469z" />
<glyph unicode="&#x205f;" horiz-adv-x="512" />
<glyph unicode="&#x2122;" horiz-adv-x="1808" d="M84 1317v141h625v-141h-236v-733h-156v733h-233zM854 584v874h158l256 -497l258 497h157v-874h-157v571l-185 -367h-145l-184 367v-571h-158z" />
<glyph unicode="&#x25fc;" horiz-adv-x="1040" d="M0 0v1040h1040v-1040h-1040z" />
<glyph unicode="&#xfb01;" horiz-adv-x="1192" d="M72 860v160h121v160q0 77 31.5 143t95.5 105.5t157 39.5h129v-178h-92q-113 0 -113 -121v-149h205v-160h-205v-860h-208v860h-121zM786 1376q0 56 39.5 95.5t94.5 39.5t95 -39t40 -96q0 -55 -41 -95t-94 -40t-93.5 40.5t-40.5 94.5zM815 0v1020h209v-1020h-209z" />
<glyph unicode="&#xfb02;" horiz-adv-x="1282" d="M76 860v160h119v160q0 77 31.5 143t95.5 105.5t157 39.5h129v-178h-92q-113 0 -113 -121v-149h205v-160h-205v-860h-208v860h-119zM813 287v1171h209v-1159q0 -62 26 -91.5t87 -29.5h92v-178h-129q-142 0 -213.5 81.5t-71.5 205.5z" />
</font>
</defs>
</svg>
