<?xml version="1.0" standalone="no"?>
<!DOCTYPE svg PUBLIC "-//W3C//DTD SVG 1.1//EN" "http://www.w3.org/Graphics/SVG/1.1/DTD/svg11.dtd" >
<svg xmlns="http://www.w3.org/2000/svg">
<metadata></metadata>
<defs>
<font id="blackberryfontregular" horiz-adv-x="1118" >
<font-face units-per-em="2048" ascent="1341" descent="-707" />
<missing-glyph horiz-adv-x="352" />
<glyph horiz-adv-x="2048" />
<glyph horiz-adv-x="2048" />
<glyph unicode="&#xd;" horiz-adv-x="2048" />
<glyph unicode=" "  horiz-adv-x="352" />
<glyph unicode="&#x09;" horiz-adv-x="352" />
<glyph unicode="&#xa0;" horiz-adv-x="352" />
<glyph unicode="!" horiz-adv-x="618" d="M160 123q0 61 42 102q43 41 107 41t107 -40t43 -103t-43 -103q-41 -40 -107 -40q-63 0 -106 40t-43 103zM172 1300h274l-38 -897h-195z" />
<glyph unicode="&#x22;" horiz-adv-x="963" d="M168 1331h246l-39 -500h-166zM549 1331h246l-41 -500h-164z" />
<glyph unicode="#" d="M39 356v148h219l66 313h-201v148h231l72 350h154l-72 -350h229l72 350h156l-74 -350h188v-148h-219l-65 -313h200v-148h-231l-72 -352h-153l71 352h-229l-72 -352h-155l73 352h-188zM412 504h229l66 313h-230z" />
<glyph unicode="$" d="M86 195l119 167q57 -64 136.5 -104.5t158.5 -46.5l4 350l-84 33q-162 63 -224 145q-63 82 -63 201q0 145 109 245q109 101 276 109v133h144v-135q96 -6 192 -49q96 -44 145 -102l-104 -160q-107 107 -240 123l-2 -338l76 -31q154 -63 224.5 -148t70.5 -200 q0 -101 -56 -190q-55 -85 -145 -133q-87 -44 -184 -52l-2 -178h-145l4 176q-106 2 -225 54q-118 52 -185 131zM354 969q0 -41 17 -70q18 -29 49.5 -49t95.5 -43v307q-65 0 -114 -41q-48 -41 -48 -104zM637 205q69 0 115 42q47 44 47 105q0 105 -117 156l-41 18z" />
<glyph unicode="%" horiz-adv-x="1679" d="M86 963q0 174 89 278q89 105 235 105q144 0 233 -105q88 -104 88 -278q0 -173 -88 -277q-87 -104 -233 -104q-148 0 -236 103t-88 278zM270 965q0 -108 37.5 -172t102.5 -64q67 0 103 65q36 64 36 169q0 107 -37 171t-102 64t-102.5 -63.5t-37.5 -169.5zM395 45l776 1305 l113 -70l-776 -1305zM948 362q0 172 87 276q89 105 235 105t234 -105q89 -104 89 -276q0 -174 -89 -278t-234 -104q-148 0 -235 104q-87 103 -87 278zM1130 362q0 -107 37.5 -171t102.5 -64q67 0 103 65q36 64 36 168q0 108 -37 172t-102 64t-102.5 -63.5t-37.5 -170.5z" />
<glyph unicode="&#x26;" horiz-adv-x="1372" d="M80 334q3 108 52 187q28 45 73 86q50 43 182 116q-86 95 -110 132q-46 74 -46 161q0 134 105 219q107 86 272 86q169 0 271 -81q102 -80 102 -214q0 -96 -50 -170q-46 -69 -173 -147l-37 -23l233 -256q42 52 78 135q35 77 53 152l195 -72q-16 -86 -76 -201 q-58 -111 -108 -163l262 -281h-299l-119 131q-90 -78 -193 -115q-96 -34 -233 -36q-186 -2 -311.5 101t-122.5 253zM330 365q0 -85 60 -138t163 -53q70 0 134.5 28t111.5 79l-291 315q-85 -48 -115 -79q-63 -63 -63 -152zM463 1026q0 -60 88 -160l49 -55l39 25 q123 79 123 186q0 65 -41.5 104t-108.5 39q-66 0 -107 -40q-42 -39 -42 -99z" />
<glyph unicode="'" horiz-adv-x="580" d="M168 1331h244l-39 -500h-166z" />
<glyph unicode="(" horiz-adv-x="696" d="M86 569q0 258 107 492q108 233 303 395l125 -104q-316 -331 -316 -781q0 -221 80.5 -422.5t235.5 -359.5l-123 -104q-122 100 -219 244q-193 289 -193 640z" />
<glyph unicode=")" horiz-adv-x="696" d="M76 -211q315 330 315 780q0 223 -80 423.5t-235 359.5l123 104q125 -104 221 -250q190 -289 190 -635q0 -170 -48 -332q-45 -158 -145 -310q-97 -147 -216 -244z" />
<glyph unicode="*" horiz-adv-x="870" d="M94 1016l45 139l234 -84l-11 246h146l-10 -246l231 84l47 -137l-246 -66l164 -196l-116 -86l-142 207l-143 -207l-117 84l164 198z" />
<glyph unicode="+" d="M102 557v188h363v363h188v-363h363v-188h-363v-362h-188v362h-363z" />
<glyph unicode="," horiz-adv-x="559" d="M31 -160q200 200 200 453l207 -64q0 -120 -74 -254q-74 -135 -180 -211z" />
<glyph unicode="-" horiz-adv-x="645" d="M66 391v189h514v-189h-514z" />
<glyph unicode="." horiz-adv-x="559" d="M131 127q0 63 42 103q42 42 106 42t107 -41q42 -41 42 -102q0 -62 -42 -104q-43 -41 -105 -41q-64 0 -107 40t-43 103z" />
<glyph unicode="/" horiz-adv-x="1108" d="M100 -147l766 1589l142 -70l-766 -1589z" />
<glyph unicode="0" d="M70 651q0 308 131 489q132 181 358 181q229 0 359 -181q131 -181 131 -489t-131 -490q-130 -181 -359 -181q-228 0 -358 181q-131 182 -131 490zM322 651q0 -215 62 -344q63 -127 175 -127t175 127q63 128 63 344q0 219 -63 345t-175 126q-114 0 -175 -127 q-62 -129 -62 -344z" />
<glyph unicode="1" d="M231 1104q41 6 121 41q162 73 193 160h207v-1305h-252v1018q-48 -42 -213 -92z" />
<glyph unicode="2" d="M76 0q25 286 318 529l158 131q175 145 175 262q0 90 -61.5 142t-169.5 52q-79 0 -156 -40.5t-137 -110.5l-121 161q75 90 198 143q122 52 257 52q194 0 316 -107t122 -276q0 -206 -238 -397l-127 -102q-176 -142 -213 -234h629v-205h-950z" />
<glyph unicode="3" d="M61 184l134 154q148 -154 317 -154q101 0 165 56q64 55 64 145q0 93 -68 146t-175 53h-140v190h144q97 0 155 49t58 129q0 77 -61 122.5t-162 45.5q-154 0 -279 -125l-111 162q77 77 188 120q114 44 232 44q122 0 222 -42t155 -118.5t55 -175.5q0 -114 -68 -195 q-28 -35 -80 -68q-48 -31 -79 -34q120 -29 190 -113q68 -83 70 -208q3 -168 -134 -278.5t-339 -108.5q-133 2 -250 53.5t-203 150.5z" />
<glyph unicode="4" d="M31 276v191l573 833h303v-831h174v-193h-174v-276h-250v276h-626zM240 469h417v623z" />
<glyph unicode="5" d="M61 174l134 154q53 -62 139 -104q81 -40 170 -40q122 0 193 64q73 64 73 176q0 108 -74 173t-194 65q-62 0 -118 -22t-87 -56l-154 65l113 651h727v-198h-543l-53 -299q73 37 191 37q192 2 315.5 -113.5t124.5 -304.5q1 -192 -142.5 -318t-353.5 -124q-135 1 -255 51 t-206 143z" />
<glyph unicode="6" d="M90 629q0 331 153 511q154 181 402 181q101 0 196.5 -30t164.5 -85l-97 -164q-42 39 -113 63q-69 25 -145 25q-101 0 -175 -55q-75 -55 -109.5 -145t-34.5 -230q57 62 143.5 95.5t188.5 35.5q161 3 275 -113.5t112 -287.5q-2 -203 -127 -326q-127 -124 -338 -124 q-224 0 -360 162q-136 163 -136 487zM338 502q0 -143 65 -238q66 -94 177 -94q106 0 165.5 64t59.5 180q0 110 -60 172.5t-165 62.5q-67 0 -132.5 -39.5t-109.5 -107.5z" />
<glyph unicode="7" d="M117 1100v200h917v-188l-547 -1112h-268l559 1100h-661z" />
<glyph unicode="8" d="M76 354q0 226 258 326q-106 42 -160.5 120t-54.5 181q0 153 122 246q121 94 318 94q195 0 317 -93q123 -93 123 -245q0 -97 -56.5 -171.5t-166.5 -115.5q125 -43 194.5 -133t69.5 -209q0 -173 -133 -273q-133 -101 -348 -101q-218 0 -351 101q-132 102 -132 273zM322 373 q0 -95 65 -152q64 -57 172 -57q104 0 171 56q67 57 67 151q0 78 -71.5 138.5t-205.5 92.5q-198 -72 -198 -229zM356 973q0 -71 64 -124.5t172 -74.5q170 56 170 197q0 79 -55 125.5t-148 46.5q-94 0 -148.5 -45.5t-54.5 -124.5z" />
<glyph unicode="9" d="M68 870q-2 198 128 325.5t336 125.5q228 -3 360 -163q136 -163 136 -486q0 -308 -137 -491q-151 -201 -418 -201q-109 0 -205.5 31.5t-165.5 90.5l99 168q45 -41 121 -69q76 -27 143 -27q104 0 176 51q74 52 109.5 143t35.5 234q-59 -65 -145 -99t-186 -34 q-107 0 -197 51q-90 52 -139.5 144t-50.5 206zM313 893q0 -111 61 -174.5t165 -63.5q67 0 130.5 38.5t110.5 109.5q0 143 -66 238q-64 94 -175 94q-107 0 -166.5 -64t-59.5 -178z" />
<glyph unicode=":" horiz-adv-x="559" d="M131 127q0 63 42 103q42 42 106 42t107 -41q42 -41 42 -102q0 -62 -42 -104q-43 -41 -105 -41q-64 0 -107 40t-43 103zM131 809q0 63 42 103q42 42 106 42t107 -41q42 -41 42 -102q0 -62 -42 -104q-43 -41 -105 -41q-64 0 -107 40t-43 103z" />
<glyph unicode=";" horiz-adv-x="559" d="M31 -160q200 200 200 453l207 -66q0 -118 -74 -252q-73 -133 -180 -211zM135 809q0 63 42 103q43 40 108 40q63 0 106 -40t43 -103t-42 -103q-41 -40 -107 -40q-63 0 -107 41q-43 40 -43 102z" />
<glyph unicode="&#x3c;" d="M102 532v191l914 369v-207l-688 -256l688 -256v-207z" />
<glyph unicode="=" d="M102 324v190h914v-190h-914zM102 743v189h914v-189h-914z" />
<glyph unicode="&#x3e;" d="M102 166v207l689 256l-689 254v209l914 -369v-188z" />
<glyph unicode="?" horiz-adv-x="920" d="M51 1167q74 74 181.5 114t228.5 40q176 0 286 -91q111 -92 111 -231q0 -68 -19 -119q-19 -52 -49 -92q-29 -39 -94 -92l-123 -102q-30 -25 -44 -46q-13 -19 -16 -42q-4 -27 -5 -103h-203v89l-1 33q-2 60 18.5 100.5t68.5 79.5l111 90q79 64 99 96q24 37 24 78 q0 69 -54.5 109t-144.5 40q-70 0 -141 -30t-125 -84zM258 123q0 61 42 102q43 41 108 41q62 0 105 -41q42 -41 42 -102q0 -63 -42 -103q-41 -40 -105 -40q-66 0 -108 40t-42 103z" />
<glyph unicode="@" horiz-adv-x="1665" d="M115 467q2 206 96 373q96 169 272 270q177 102 381 102q194 0 351 -80q157 -79 249 -224q92 -143 92 -322q0 -145 -55 -262q-55 -118 -151 -187q-94 -69 -203 -69q-80 0 -132.5 39.5t-62.5 105.5q-25 -50 -93.5 -94.5t-143.5 -44.5q-121 0 -190 83t-70 228 q-1 91 28.5 179t80.5 156.5t126 109.5t160 40q69 -2 122 -26t79 -66l39 72h135l-119 -463q-16 -63 -16 -104q0 -87 79 -88q101 -2 179 111t77 280q-2 141 -71 255q-70 117 -198 181.5t-290 64.5q-171 0 -312 -81q-142 -82 -221 -226q-79 -143 -79 -319q0 -270 161 -431 q161 -159 429 -159q135 0 257 28t204 76l47 -98q-88 -58 -228 -95q-136 -34 -295 -36q-209 -2 -372 87t-253.5 254.5t-88.5 379.5zM618 389q0 -84 35 -129t101 -45q57 0 115 52q60 54 79 128l62 236q-8 43 -48 78q-40 34 -96 34q-104 0 -176 -110q-72 -109 -72 -244z" />
<glyph unicode="A" horiz-adv-x="1204" d="M-10 0l456 1300h308l460 -1300h-274l-94 285h-508l-94 -285h-254zM399 487h383l-190 574z" />
<glyph unicode="B" horiz-adv-x="1198" d="M150 0v1300h448q158 0 251 -30t150 -107q58 -76 58 -184q0 -101 -58.5 -175t-164.5 -104v-4q137 -22 218 -109t81 -212q0 -169 -124 -272t-384 -103h-475zM406 193h208q138 0 196 54q58 55 58 142q0 114 -82 162q-63 37 -170 37h-210v-395zM406 766h176q108 0 162.5 47 t54.5 125q0 76 -48 122q-47 46 -169 46h-176v-340z" />
<glyph unicode="C" horiz-adv-x="1221" d="M76 651q2 200 82 349q83 155 227 237q145 84 322 84q99 0 195 -30q93 -30 163 -82q74 -55 103 -98l14 -21l-135 -170q-49 76 -136 126q-84 48 -192 50h-8q-162 0 -267 -122q-106 -123 -106 -312v-7q2 -201 102 -321q103 -121 275 -121q100 0 189 47q90 48 149 131 l133 -174q-71 -108 -198 -172q-125 -63 -292 -65h-8q-175 0 -314 81q-142 83 -221 237q-77 151 -77 343v10z" />
<glyph unicode="D" horiz-adv-x="1341" d="M150 0v1300h448q322 0 495 -183q173 -184 173 -466q0 -288 -176 -470q-175 -181 -490 -181h-450zM408 207h186q195 0 301 118q107 120 106 328q-2 205 -105 325t-302 120h-186v-891z" />
<glyph unicode="E" horiz-adv-x="1081" d="M150 0v1300h835v-202h-577v-316h536v-204h-536v-369h596v-209h-854z" />
<glyph unicode="F" horiz-adv-x="1001" d="M150 0v1300h800v-202h-542v-357h497v-204h-497v-537h-258z" />
<glyph unicode="G" horiz-adv-x="1362" d="M76 655q0 196 82 347q84 154 227 235q145 84 322 84q105 0 199 -29q86 -27 155 -71.5t135 -128.5l-152 -156l-34 40q-41 49 -126 89q-77 35 -169 37h-5q-161 0 -266 -124q-106 -125 -106 -321q0 -212 100 -332t271 -120q96 0 173.5 32t116.5 87v186h-270v195h516v-705 h-172l-24 133q-54 -70 -160 -112q-106 -41 -234 -41q-165 0 -298 85q-135 87 -208 238q-73 153 -73 352z" />
<glyph unicode="H" horiz-adv-x="1384" d="M150 0v1300h258v-516h569v516h258v-1300h-258v578h-569v-578h-258z" />
<glyph unicode="I" horiz-adv-x="559" d="M150 0v1300h258v-1300h-258z" />
<glyph unicode="J" horiz-adv-x="686" d="M0 -104l35 183q44 -23 117 -23q62 0 94.5 42.5t32.5 121.5v1080h258v-1068q0 -178 -90.5 -275t-258.5 -97q-112 0 -188 36z" />
<glyph unicode="K" horiz-adv-x="1184" d="M150 0v1300h258v-559l458 559h301l-465 -530l482 -770h-299l-346 573l-131 -145v-428h-258z" />
<glyph unicode="L" horiz-adv-x="950" d="M150 0v1300h258v-1091h516v-209h-774z" />
<glyph unicode="M" horiz-adv-x="1700" d="M150 0v1300h331l367 -999l371 999h331v-1300h-258v913l-336 -913h-227l-338 913v-913h-241z" />
<glyph unicode="N" horiz-adv-x="1374" d="M150 0v1300h276l555 -894v894h244v-1300h-248l-584 942v-942h-243z" />
<glyph unicode="O" horiz-adv-x="1425" d="M76 651v9q0 189 78 339q80 153 226 237.5t333 84.5t333 -84.5t226 -237.5q78 -149 78 -339v-9q-2 -201 -79 -352q-79 -153 -224 -236t-334 -83q-190 0 -336 83q-145 84 -223 237q-76 151 -78 351zM340 653q0 -208 101 -331t272 -123t271 124q101 125 101 330 q0 203 -100 327q-101 126 -272 126q-172 0 -273 -125q-100 -124 -100 -328z" />
<glyph unicode="P" horiz-adv-x="1143" d="M150 0v1300h442q226 0 354 -106q129 -106 129 -315q0 -146 -60 -239q-58 -92 -172 -138q-112 -45 -251 -45h-184v-457h-258zM408 653h141q101 0 152 24q116 54 116 202q0 112 -69 169q-34 29 -76 43q-40 13 -121 13h-143v-451z" />
<glyph unicode="Q" horiz-adv-x="1425" d="M76 651v9q0 190 78 339q80 153 226 237.5t333 84.5t333 -84.5t226 -237.5q78 -149 78 -339v-9q-2 -139 -39 -253q-39 -119 -115 -208q-77 -91 -158 -129q33 -123 160 -198l-205 -146q-69 35 -122 109q-54 73 -72 160l-86 -6q-19 -1 -38 -1q-150 0 -298 84 q-145 84 -223 237q-76 151 -78 351zM340 653q0 -208 101 -331t272 -123t271 124q101 125 101 330q0 203 -100 327q-101 126 -272 126q-172 0 -273 -125q-100 -124 -100 -328z" />
<glyph unicode="R" horiz-adv-x="1194" d="M150 0v1300h468q150 0 249 -42q100 -42 161 -135q62 -92 62 -212q0 -131 -72 -227q-71 -95 -195 -137l344 -547h-295l-303 506h-161v-506h-258zM408 698h180q119 0 182.5 54t63.5 149q0 94 -63 148.5t-181 54.5h-182v-406z" />
<glyph unicode="S" horiz-adv-x="1065" d="M33 174l129 182q69 -69 166 -114q96 -45 186 -45q114 0 172.5 41.5t58.5 117.5q0 44 -28 80q-30 38 -73 56q-60 27 -178 70l-120 44q-125 46 -188.5 133.5t-63.5 206.5q0 165 125 270t342 105q117 0 239 -48q122 -49 197 -124l-110 -176q-58 58 -155 100q-96 43 -179 43 q-101 0 -154 -37t-53 -108q0 -48 35 -88q35 -38 131 -74q35 -12 110 -40t113 -42q266 -98 266 -345q0 -172 -133 -288q-131 -114 -343 -114h-11q-138 2 -265 52q-129 52 -216 142z" />
<glyph unicode="T" horiz-adv-x="1030" d="M14 1098v202h1000v-202h-371v-1098h-256v1098h-373z" />
<glyph unicode="U" horiz-adv-x="1311" d="M135 514v786h258v-798q0 -100 15 -144q14 -45 49 -81q70 -70 196 -70q85 0 143 30t88 84q31 55 31 181v798h259v-784q0 -152 -31 -244q-30 -92 -96 -160q-131 -132 -392 -132q-273 0 -402 144q-65 74 -92 163q-26 90 -26 227z" />
<glyph unicode="V" horiz-adv-x="1188" d="M10 1300h273l319 -1024l324 1024h252l-441 -1300h-286z" />
<glyph unicode="W" horiz-adv-x="1808" d="M31 1300h264l227 -999l250 999h268l250 -999l228 999h260l-334 -1300h-283l-256 993l-256 -993h-282z" />
<glyph unicode="X" horiz-adv-x="1192" d="M4 0l436 668l-399 632h291l264 -471l264 471h293l-397 -632l432 -668h-297l-295 508l-293 -508h-299z" />
<glyph unicode="Y" horiz-adv-x="1153" d="M0 1300h285l295 -569l292 569h281l-446 -770v-530h-258v530z" />
<glyph unicode="Z" horiz-adv-x="1149" d="M59 0v178l689 920h-664v202h979v-182l-678 -909h705v-209h-1031z" />
<glyph unicode="[" horiz-adv-x="696" d="M156 -281v1682h452v-137h-248v-1405h248v-140h-452z" />
<glyph unicode="\" horiz-adv-x="1108" d="M100 1372l140 70l768 -1589l-140 -70z" />
<glyph unicode="]" horiz-adv-x="696" d="M88 -141h248v1403h-248v139h453v-1682h-453v140z" />
<glyph unicode="^" d="M102 647l351 653h213l350 -653h-217l-240 475l-237 -475h-220z" />
<glyph unicode="_" d="M0 -162h1118v-119h-1118v119z" />
<glyph unicode="`" horiz-adv-x="874" d="M246 1337h241l140 -266h-176z" />
<glyph unicode="a" horiz-adv-x="1016" d="M59 274q0 108 66 181q130 143 534 143v45q0 156 -198 156q-77 0 -155 -25q-80 -24 -136 -61l-68 172q68 37 171 66q103 28 201 28h7q213 -2 319.5 -94t106.5 -281v-389q0 -131 45 -215h-266q-20 62 -20 111q-114 -131 -291 -131q-145 0 -230 79q-86 80 -86 215zM311 293 q0 -66 39 -102.5t111 -36.5q58 0 111.5 32t86.5 88v177q-37 0 -114 -7q-84 -8 -132 -25q-102 -36 -102 -126z" />
<glyph unicode="b" horiz-adv-x="1155" d="M131 0v1341h248v-522q51 77 131.5 118.5t171.5 41.5q184 0 298 -138t114 -360q0 -221 -119 -361t-305 -140q-69 0 -123 20q-55 21 -92.5 51t-73.5 84l-25 -135h-225zM373 483q0 -137 63 -222q64 -85 166 -85q106 0 172 85t66 220q0 137 -64 222t-168 85q-103 0 -169 -86 t-66 -219z" />
<glyph unicode="c" horiz-adv-x="938" d="M59 479q0 144 64.5 259.5t175.5 178.5q109 62 240 62h4q119 -1 219 -45q102 -45 151 -113l-114 -153q-48 51 -109 78.5t-121 27.5q-121 0 -191 -78q-71 -77 -71 -213q0 -138 70 -215q71 -78 194 -78q63 0 126.5 28.5t111.5 78.5l109 -164q-64 -73 -165.5 -112.5 t-220.5 -40.5h-6q-202 0 -333 136q-133 138 -134 363z" />
<glyph unicode="d" horiz-adv-x="1155" d="M59 479q0 223 117 361q118 139 305 139q93 0 170.5 -41.5t122.5 -118.5v522h250v-1341h-225l-25 135q-47 -74 -126 -114.5t-173 -40.5q-185 0 -301 138q-115 139 -115 361zM315 483q0 -137 63 -222q64 -85 167 -85q105 0 170 86t65 221q0 133 -63 219t-166 86 q-104 0 -170 -86t-66 -219z" />
<glyph unicode="e" horiz-adv-x="1024" d="M59 479q0 227 130 363q131 137 350 137q198 0 315 -133q117 -132 117 -348v-78h-660q4 -118 73.5 -185t188.5 -67q76 0 160 29q82 28 127 69l86 -151q-66 -63 -173 -99t-232 -36q-221 0 -351 135q-131 135 -131 364zM307 584h426q0 105 -54.5 165t-150.5 60 q-92 0 -152 -62q-59 -62 -69 -163z" />
<glyph unicode="f" horiz-adv-x="614" d="M33 778v183h127v94q0 146 85.5 222.5t235.5 78.5h5q101 0 200 -37l-31 -162l-16 5q-57 18 -100 18q-69 0 -100 -34t-31 -130v-55h229v-183h-227v-778h-250v778h-127z" />
<glyph unicode="g" horiz-adv-x="1141" d="M59 506q0 204 121 340q118 133 293 133h8q97 -2 172 -44q78 -43 111 -116l20 142h230v-756q0 -202 -53 -316q-53 -115 -170.5 -180t-286.5 -65q-105 0 -221 32q-113 32 -185 78l82 176q66 -41 155 -67q85 -25 159 -25q138 0 207 66t69 209v75q-29 -59 -112.5 -108.5 t-186.5 -50.5h-3q-180 0 -294 133q-115 135 -115 344zM315 508q0 -122 61 -201q62 -78 165 -78q105 0 166 78q63 79 63 201q0 126 -60 202q-60 78 -163 78t-168 -78q-64 -77 -64 -202z" />
<glyph unicode="h" horiz-adv-x="1128" d="M129 0v1341h250v-542q119 180 309 180q320 0 320 -365v-614h-248v557q0 110 -40.5 161.5t-125.5 51.5q-77 0 -138 -61q-60 -61 -77 -146v-563h-250z" />
<glyph unicode="i" horiz-adv-x="510" d="M106 1243q0 60 40 100q41 41 108 41q64 0 105.5 -38.5t41.5 -100.5q0 -61 -41 -102t-104 -41q-65 0 -107.5 40.5t-42.5 100.5zM129 0v961h250v-961h-250z" />
<glyph unicode="j" horiz-adv-x="514" d="M-84 -324l25 179q36 -15 84 -15q69 0 89.5 41.5t20.5 132.5v947h250v-965q0 -133 -33 -204q-33 -69 -102.5 -108.5t-161.5 -39.5q-100 0 -172 32zM113 1243q0 61 41 101t104 40q64 0 107 -38.5t43 -100.5q0 -59 -41 -102q-41 -41 -107 -41t-106 39q-41 39 -41 102z" />
<glyph unicode="k" horiz-adv-x="1038" d="M129 0v1341h250v-766l346 386h293l-369 -377l389 -584h-286l-269 403l-104 -102v-301h-250z" />
<glyph unicode="l" horiz-adv-x="510" d="M129 0v1341h250v-1341h-250z" />
<glyph unicode="m" horiz-adv-x="1686" d="M129 0v961h233l17 -162q54 87 130 133.5t163 46.5q106 0 176 -49t98 -144q129 193 318 193q143 0 222 -90.5t79 -257.5v-631h-248v573q0 106 -35.5 150.5t-112.5 46.5h-2q-69 0 -125 -64q-58 -65 -69 -143v-563h-250v573q0 106 -35 151.5t-110 45.5q-71 0 -128.5 -64 t-70.5 -143v-563h-250z" />
<glyph unicode="n" horiz-adv-x="1128" d="M129 0v961h233l17 -162q119 180 309 180q320 0 320 -365v-614h-248v557q0 110 -40.5 161.5t-125.5 51.5q-77 0 -138 -61q-60 -61 -77 -146v-563h-250z" />
<glyph unicode="o" horiz-adv-x="1094" d="M59 479q0 227 132 363q134 137 356 137q223 0 355 -136q132 -135 132 -364q0 -228 -134 -364q-134 -135 -353 -135q-223 0 -356 136q-132 136 -132 363zM315 479q0 -145 62 -228q63 -83 170 -83t168 84q63 84 63 227q0 142 -62 227q-61 85 -169 85q-110 0 -171 -85 t-61 -227z" />
<glyph unicode="p" horiz-adv-x="1155" d="M131 -340v1301h234l14 -142q51 77 131.5 118.5t171.5 41.5q184 0 298 -138t114 -360q0 -221 -119 -361t-305 -140q-69 0 -123 20q-55 21 -92.5 51t-73.5 84v-475h-250zM373 483q0 -137 63 -222q64 -85 166 -85q106 0 172 85t66 220q0 137 -64 222t-168 85 q-103 0 -169 -86t-66 -219z" />
<glyph unicode="q" horiz-adv-x="1155" d="M59 479q0 223 117 361q118 139 305 139q93 0 170.5 -41.5t122.5 -118.5l19 142h231v-1301h-250v475q-47 -74 -126 -114.5t-173 -40.5q-185 0 -301 138q-115 139 -115 361zM315 483q0 -137 63 -222q64 -85 167 -85q105 0 171 85t66 222q0 135 -64 220t-167 85 q-104 0 -170 -86t-66 -219z" />
<glyph unicode="r" horiz-adv-x="752" d="M129 0v961h233l17 -173q41 88 117 140q77 53 161 53q35 0 78 -10l-30 -240l-23 7q-35 7 -61 7q-90 0 -156 -67q-67 -67 -86 -166v-512h-250z" />
<glyph unicode="s" horiz-adv-x="891" d="M31 143l123 154q47 -51 131 -89q87 -38 155 -38q154 0 154 90q0 34 -32 57q-35 25 -122 52l-77 24q-157 49 -219 114q-64 67 -64 173q0 135 104 218q106 83 281 83q100 0 199 -36q100 -35 167 -93l-96 -158q-59 47 -130 75t-134 28q-149 0 -149 -86q0 -35 26 -55 q29 -23 123 -52q161 -49 207 -73q57 -29 92 -63q70 -67 70 -171q0 -134 -104 -226q-103 -91 -306 -91q-107 0 -222 47q-113 48 -177 116z" />
<glyph unicode="t" horiz-adv-x="698" d="M35 778v183h135l16 249h232v-249h252v-183h-252v-434q0 -103 32 -137q32 -33 82 -33q52 0 113 14l25 -178q-108 -30 -209 -30q-107 0 -168 34t-92 95t-31 188v481h-135z" />
<glyph unicode="u" d="M119 344v617h250v-566q0 -101 38 -153t125 -52q75 0 134 59q57 57 71 144v568h250v-961h-233l-15 162q-117 -182 -299 -182q-321 0 -321 364z" />
<glyph unicode="v" horiz-adv-x="1004" d="M4 961h268l232 -711l231 711h262l-364 -961h-262z" />
<glyph unicode="w" horiz-adv-x="1507" d="M25 961h254l167 -701l185 701h243l187 -701l166 701h256l-277 -961h-252l-200 684l-199 -684h-252z" />
<glyph unicode="x" horiz-adv-x="979" d="M-6 0l342 489l-322 472h281l199 -336l198 336h271l-322 -472l342 -489h-285l-213 354l-215 -354h-276z" />
<glyph unicode="y" horiz-adv-x="1014" d="M14 961h269l231 -715l231 715h263l-406 -1053q-55 -145 -123 -205q-65 -59 -172 -59q-129 0 -225 47l53 184q56 -29 109 -29q41 0 62.5 18.5t39.5 67.5l33 88z" />
<glyph unicode="z" horiz-adv-x="899" d="M35 0v154l512 622h-492v185h789v-156l-502 -612h522v-193h-829z" />
<glyph unicode="{" horiz-adv-x="696" d="M31 463v176h35q48 0 73 18q26 19 40 60q12 36 18 143l14 266q8 135 58 194q53 62 161 71l182 16l13 -139l-113 -17q-58 -9 -79 -39q-18 -28 -23 -122l-15 -291q-6 -121 -49 -178q-42 -56 -133 -66v-8q91 -11 131 -66q41 -55 49 -178l17 -291q5 -77 14 -101q18 -51 88 -61 l113 -16l-11 -139l-184 16q-107 9 -159 70q-50 58 -58 194l-16 267q-6 104 -19 145q-13 40 -38 58t-72 18h-37z" />
<glyph unicode="|" horiz-adv-x="655" d="M233 -281v1682h189v-1682h-189z" />
<glyph unicode="}" horiz-adv-x="696" d="M72 -166l112 16q39 6 58 20q20 13 31 39q11 27 14 101l14 293q6 125 50 180q43 53 132 64v8q-90 9 -131.5 64.5t-48.5 177.5l-16 293q-4 79 -15 103q-19 49 -88 58l-112 15l10 141l184 -16q106 -9 158 -69q50 -55 59 -196l17 -266q8 -124 18 -151q23 -70 111 -70h37v-176 h-35q-46 0 -73 -18q-25 -16 -39 -56q-13 -36 -19 -147l-15 -267q-7 -137 -60 -196t-159 -68l-182 -16z" />
<glyph unicode="~" d="M41 514q48 147 129 225t190 78q49 0 83 -10q36 -11 66 -27q33 -18 87 -65l38 -33q62 -55 128 -55q48 0 90.5 47t69.5 133l155 -72q-48 -149 -129.5 -226t-189.5 -77q-48 0 -82 10q-40 12 -65 26q-41 24 -89 67l-38 34q-62 54 -128 54q-51 0 -94 -50.5t-65 -130.5z" />
<glyph unicode="&#xa1;" horiz-adv-x="618" d="M160 836q0 62 42 103q42 42 107 42q63 0 107 -41q43 -40 43 -102t-44 -104q-43 -42 -106 -42q-65 0 -108 41q-41 41 -41 103zM172 -342l39 897h195l38 -897h-272z" />
<glyph unicode="&#xa2;" d="M137 649q0 205 116 338q115 131 312 154v180h144v-182q31 -3 60.5 -10t53 -15t46.5 -20t38.5 -21.5t33 -23t25.5 -20.5t20 -18t13 -12l-98 -163q-26 39 -80 71t-112 39v-588q61 8 112.5 37.5t79.5 71.5l98 -164q-59 -59 -136.5 -96.5t-153.5 -44.5v-185h-144v181 q-192 15 -310 148t-118 343zM369 653q0 -121 52 -197.5t144 -97.5v588q-91 -16 -144 -96q-52 -79 -52 -197z" />
<glyph unicode="&#xa3;" d="M119 0v158l184 28q74 105 74 234q0 65 -27 160h-200v139h161q-36 119 -40 152q-5 42 -5 85q0 153 113 259t307 106q220 0 358 -174l-124 -141q-42 55 -101.5 87.5t-122.5 32.5q-94 0 -150 -52q-57 -53 -57 -136q0 -77 27 -161l19 -58h348v-137h-310q25 -78 25 -156 q0 -119 -76 -236h522v-190h-925z" />
<glyph unicode="&#xa4;" d="M74 291l168 168q-24 33 -40 86t-16 106q0 51 16 104.5t40 86.5l-168 168l125 127l168 -168q90 57 192 57q101 0 191 -57l168 168l126 -125l-167 -168q55 -95 55 -193q0 -113 -55 -190l167 -168l-124 -127l-168 168q-86 -58 -193 -58q-55 0 -108 17t-82 41l-168 -168z M362 651q0 -82 58 -139q59 -57 139 -57q82 0 139 58q58 58 58 138q0 82 -58 139q-58 58 -139 58t-139 -57t-58 -140z" />
<glyph unicode="&#xa5;" d="M47 1300h275l239 -538l240 538h270l-309 -579h250v-139h-316l-18 -37v-105h334v-137h-334v-303h-236v301h-336v139h336v103l-18 39h-318v139h250z" />
<glyph unicode="&#xa6;" horiz-adv-x="655" d="M233 -281v672h189v-672h-189zM233 731v670h189v-670h-189z" />
<glyph unicode="&#xa7;" d="M109 -96l106 164q167 -140 324 -140q93 0 147.5 36t54.5 97q0 83 -127 125l-219 72q-69 22 -127 57q-65 39 -99 100t-34 136q0 55 18 99q18 45 43.5 76.5t71.5 66.5q-44 30 -68 84.5t-24 121.5q0 90 53 167q107 155 371 155q106 0 216 -36q108 -36 177 -91l-92 -160 q-55 48 -141 80q-81 31 -160 31q-91 0 -145 -32.5t-54 -90.5q0 -77 102 -110l247 -81q113 -37 186 -111t72 -177q-1 -74 -34.5 -140.5t-96.5 -109.5q41 -28 69 -88q25 -55 27 -123q2 -144 -120.5 -244t-317.5 -98q-123 2 -233 44q-114 44 -193 120zM338 600q0 -98 133 -141 q48 -16 104 -34t82.5 -27t37.5 -13q39 -14 40 -16q33 16 52.5 48t19.5 70q0 97 -135 142q-212 70 -232 78q-26 12 -30 14q-72 -41 -72 -121z" />
<glyph unicode="&#xa8;" horiz-adv-x="874" d="M150 1204q0 51 32.5 84t83.5 33q53 0 85 -32t32 -83q0 -52 -32 -85.5t-85 -33.5q-51 0 -83.5 33.5t-32.5 83.5zM494 1204q0 52 31.5 84.5t82.5 32.5q53 0 85 -32t32 -83q0 -52 -31.5 -85.5t-83.5 -33.5q-51 0 -83.5 33.5t-32.5 83.5z" />
<glyph unicode="&#xa9;" horiz-adv-x="1497" d="M74 651q0 187 88 341q88 155 243 244t343 89q186 0 340 -88q156 -88 244 -244q89 -155 89 -342t-88 -342q-89 -156 -243 -244t-342 -88q-187 0 -342 88q-156 89 -244 243t-88 343zM174 651q0 -153 77 -287q76 -133 210 -211q134 -77 287 -77q157 0 290 79q136 81 208 212 q75 133 75 284t-75 284q-74 132 -209 211q-133 79 -289 79q-152 0 -285 -76q-132 -74 -211 -209q-78 -134 -78 -289zM383 653q2 114 48 200q50 90 135 139q88 50 186 50q93 0 173 -34q80 -35 119 -84l-77 -115q-83 94 -199 94q-102 0 -162.5 -67t-60.5 -181q0 -113 61 -180 t162 -67q59 0 111 24.5t86 67.5l79 -113q-45 -57 -123.5 -89.5t-166.5 -33.5q-153 -2 -263.5 112t-107.5 277z" />
<glyph unicode="&#xaa;" horiz-adv-x="795" d="M55 803q0 117 119 182q60 31 152 45q95 14 176 14v25q0 109 -148 109q-55 0 -116 -19q-64 -20 -101 -45l-53 135q54 29 132 50q79 22 157 22q164 0 246.5 -71t82.5 -206v-278q0 -84 35 -162l-213 -2l-11 27q-11 27 -11 57q-81 -98 -221 -98q-105 0 -165.5 57t-60.5 158z M254 819q0 -92 115 -92q40 0 80 25q39 25 53 63l2 123q-83 0 -167 -24q-83 -23 -83 -95z" />
<glyph unicode="&#xab;" horiz-adv-x="1024" d="M90 451v112l301 363l117 -97l-262 -321l262 -322l-117 -98zM512 451v112l301 363l117 -97l-262 -321l262 -322l-115 -98z" />
<glyph unicode="&#xac;" d="M86 743v189h915v-608h-194v419h-721z" />
<glyph unicode="&#xad;" horiz-adv-x="645" d="M66 391v189h514v-189h-514z" />
<glyph unicode="&#xae;" horiz-adv-x="1374" d="M70 950q0 172 82 317q82 144 228 227t316 83t315 -81q144 -80 229 -227q85 -145 85 -319q0 -172 -82 -315q-83 -144 -229 -228q-146 -83 -318 -83q-169 0 -313 81q-144 83 -229 227q-84 146 -84 318zM162 950q0 -144 71 -269t195 -195t268 -70t269 71q125 72 195 195 q71 125 71 268q0 144 -72 269q-71 125 -195 195q-124 71 -268 71t-269 -71q-124 -71 -194 -195q-71 -125 -71 -269zM461 602v701h270q112 0 178 -60q66 -59 66 -156q0 -79 -42.5 -132.5t-96.5 -65.5l168 -287h-164l-152 270h-82v-270h-145zM604 981h101q54 0 84 28.5 t30 77.5q0 54 -31 80.5t-83 26.5h-101v-213z" />
<glyph unicode="&#xaf;" horiz-adv-x="874" d="M135 1137v135h604v-135h-604z" />
<glyph unicode="&#xb0;" horiz-adv-x="778" d="M121 1053q0 114 77 191q79 77 191 77q114 0 191 -77t77 -191q0 -115 -78 -193q-77 -78 -190 -78t-191 78q-77 79 -77 193zM233 1053q0 -69 44 -115q45 -45 112 -45t111 45q45 45 45 115q0 69 -43.5 113t-112.5 44t-112 -45q-44 -44 -44 -112z" />
<glyph unicode="&#xb1;" d="M102 0v190h914v-190h-914zM102 621v190h363v348h188v-348h363v-190h-363v-349h-188v349h-363z" />
<glyph unicode="&#xb2;" horiz-adv-x="850" d="M94 782q14 108 72 195q57 86 184 184q92 72 109 90q41 44 41 84q0 52 -33.5 80.5t-91.5 28.5q-98 0 -193 -95l-78 125q35 46 118 81.5t177 35.5q129 0 207 -66t78 -172q0 -52 -18 -94q-17 -42 -51 -79q-41 -45 -121 -99q-145 -101 -158 -149h383v-150h-625z" />
<glyph unicode="&#xb3;" horiz-adv-x="850" d="M115 884l80 117q33 -36 89 -65t105 -29q64 0 103.5 30t39.5 83q0 50 -33.5 79t-88.5 29h-101v131h90q52 0 83.5 24.5t31.5 69.5q0 42 -35 68.5t-92 26.5q-97 0 -176 -70l-66 119q48 45 117.5 69.5t145.5 24.5q120 0 201 -57q81 -56 81 -150q0 -68 -37 -117t-96 -63 q69 -15 111 -70q43 -55 43 -129q0 -105 -91 -172q-89 -67 -221 -67q-156 0 -284 118z" />
<glyph unicode="&#xb4;" horiz-adv-x="874" d="M246 1071l139 266h244l-205 -266h-178z" />
<glyph unicode="&#xb5;" horiz-adv-x="1108" d="M125 -340v1301h248v-562q0 -109 38.5 -158t118.5 -51q71 -1 128.5 61.5t68.5 141.5v568h250v-961h-234l-14 162q-35 -66 -96 -112t-121 -46q-90 0 -137 33v-377h-250z" />
<glyph unicode="&#xb6;" d="M80 813q0 227 132 357q133 130 368 130h489v-133h-113v-1448h-143v1448h-149v-841h-82q-236 0 -369 130t-133 357z" />
<glyph unicode="&#xb7;" horiz-adv-x="559" d="M131 537q0 63 42 103q43 42 106 42q64 0 107 -41q42 -41 42 -102q0 -63 -43 -105q-43 -41 -104 -41q-64 0 -108 41q-42 41 -42 103z" />
<glyph unicode="&#xb8;" horiz-adv-x="874" d="M217 -264l180 264h178l-122 -264h-236z" />
<glyph unicode="&#xb9;" horiz-adv-x="850" d="M164 1446q17 0 76 24q58 24 99.5 54.5t57.5 58.5h150v-801h-197v584q-57 -39 -147 -56z" />
<glyph unicode="&#xba;" horiz-adv-x="844" d="M55 952q0 168 100 268q101 101 267 101q165 0 266 -101q100 -100 100 -268q0 -167 -100 -267q-101 -101 -266 -101q-166 0 -267 101q-100 100 -100 267zM260 954q0 -102 43.5 -162.5t118.5 -60.5t118.5 60.5t43.5 162.5t-44.5 162t-117.5 60q-75 0 -118.5 -60t-43.5 -162 z" />
<glyph unicode="&#xbb;" horiz-adv-x="1024" d="M94 184l262 322l-262 321l115 99l303 -363v-112l-301 -363zM516 184l262 322l-262 321l117 99l301 -363v-112l-301 -363z" />
<glyph unicode="&#xbc;" horiz-adv-x="1698" d="M38 1182q17 0 76 24q58 24 99.5 54.5t57.5 58.5h150v-801h-197v584q-57 -39 -147 -56zM313 45l779 1305l112 -70l-778 -1305zM891 141v140l348 501h217v-499h105v-142h-105v-141h-180v141h-385zM1051 283h225v346z" />
<glyph unicode="&#xbd;" horiz-adv-x="1698" d="M38 1182q17 0 76 24q58 24 99.5 54.5t57.5 58.5h150v-801h-197v584q-57 -39 -147 -56zM313 45l779 1305l112 -70l-778 -1305zM979 0q13 108 72 195q57 86 184 184q92 72 109 90q41 44 41 84q0 52 -33.5 80.5t-91.5 28.5q-98 0 -193 -95l-78 125q35 46 118 81.5t177 35.5 q129 0 207 -66t78 -172q0 -52 -18 -94q-17 -42 -51 -79q-41 -45 -121 -99q-145 -101 -158 -149h383v-150h-625z" />
<glyph unicode="&#xbe;" horiz-adv-x="1698" d="M55 620l80 117q33 -36 89 -65t105 -29q64 0 103.5 30t39.5 83q0 50 -33.5 79t-88.5 29h-101v131h90q52 0 83.5 24.5t31.5 69.5q0 42 -35 68.5t-92 26.5q-97 0 -176 -70l-66 119q48 45 117.5 69.5t145.5 24.5q120 0 201 -57q81 -56 81 -150q0 -68 -37 -117t-96 -63 q69 -15 111 -70q43 -55 43 -129q0 -105 -91 -172q-89 -67 -221 -67q-156 0 -284 118zM403 45l779 1305l112 -70l-778 -1305zM942 141v140l348 501h217v-499h105v-142h-105v-141h-180v141h-385zM1102 283h225v346z" />
<glyph unicode="&#xbf;" horiz-adv-x="920" d="M59 -39q2 72 19 116q21 54 47 89q29 39 96 96l123 103q42 36 52 57q14 26 14 65v68h202l2 -109q1 -67 -20 -112q-17 -35 -68 -78l-148 -123q-83 -68 -83 -141q0 -70 53 -111t146 -41q149 0 266 117l108 -164q-63 -69 -175 -112q-106 -41 -234 -43q-170 -3 -286.5 93 t-113.5 230zM362 836q0 64 42 104q44 41 108 41q62 0 105 -41q42 -40 42 -102q0 -63 -43 -105q-43 -41 -104 -41q-64 0 -108 41q-42 41 -42 103z" />
<glyph unicode="&#xc0;" horiz-adv-x="1204" d="M-10 0l456 1300h308l460 -1300h-274l-94 285h-508l-94 -285h-254zM320 1679h241l140 -266h-176zM399 487h383l-190 574z" />
<glyph unicode="&#xc1;" horiz-adv-x="1204" d="M-10 0l456 1300h308l460 -1300h-274l-94 285h-508l-94 -285h-254zM399 487h383l-190 574zM502 1413l139 266h244l-205 -266h-178z" />
<glyph unicode="&#xc2;" horiz-adv-x="1204" d="M-10 0l456 1300h308l460 -1300h-274l-94 285h-508l-94 -285h-254zM301 1413l181 266h231l180 -266h-174l-121 168l-125 -168h-172zM399 487h383l-190 574z" />
<glyph unicode="&#xc3;" horiz-adv-x="1204" d="M-10 0l456 1300h308l460 -1300h-274l-94 285h-508l-94 -285h-254zM275 1444q0 93 58 157q58 66 136 66q79 0 140 -43q28 -21 54 -36q37 -23 66 -23t50.5 24.5t29.5 73.5l119 -14q0 -91 -58 -158q-57 -66 -137 -66q-68 0 -139 44l-60 38q-35 21 -61 21q-29 0 -50.5 -25 t-29.5 -74zM399 487h383l-190 574z" />
<glyph unicode="&#xc4;" horiz-adv-x="1204" d="M-10 0l456 1300h308l460 -1300h-274l-94 285h-508l-94 -285h-254zM306 1546q0 51 32.5 84t83.5 33q53 0 85 -32t32 -83q0 -52 -32 -85.5t-85 -33.5q-51 0 -83.5 33.5t-32.5 83.5zM399 487h383l-190 574zM650 1546q0 52 31.5 84.5t82.5 32.5q53 0 85 -32t32 -83 q0 -52 -31.5 -85.5t-83.5 -33.5q-51 0 -83.5 33.5t-32.5 83.5z" />
<glyph unicode="&#xc5;" horiz-adv-x="1204" d="M-10 0l456 1300h308l460 -1300h-274l-94 285h-508l-94 -285h-254zM399 487h383l-190 574zM418 1575q0 80 52 131t132 51q81 0 133 -52q52 -51 52 -130q0 -80 -53 -131q-52 -51 -132 -51t-132 51q-52 52 -52 131zM512 1575q0 -38 26 -64t64 -26t64 26t26 64t-26 64t-64 26 t-64 -26t-26 -64z" />
<glyph unicode="&#xc6;" horiz-adv-x="1726" d="M-82 0l739 1300h973v-202h-536v-316h495v-204h-495v-369h555v-209h-811v332h-455l-180 -332h-285zM481 530h357v572h-43z" />
<glyph unicode="&#xc7;" horiz-adv-x="1221" d="M76 651q2 200 82 349q83 155 227 237q145 84 322 84q99 0 195 -30q93 -30 163 -82q74 -55 103 -98l14 -21l-135 -170q-49 76 -136 126q-84 48 -192 50q-167 3 -275 -122t-106 -319q2 -201 102 -321q103 -121 275 -121q100 0 189 47q90 48 149 131l133 -174 q-63 -95 -166.5 -155.5t-233.5 -75.5l-122 -256h-242l176 258q-228 21 -376.5 204t-145.5 459z" />
<glyph unicode="&#xc8;" horiz-adv-x="1081" d="M150 0v1300h835v-202h-577v-316h536v-204h-536v-369h596v-209h-854zM318 1679h241l140 -266h-176z" />
<glyph unicode="&#xc9;" horiz-adv-x="1081" d="M150 0v1300h835v-202h-577v-316h536v-204h-536v-369h596v-209h-854zM424 1413l139 266h244l-205 -266h-178z" />
<glyph unicode="&#xca;" horiz-adv-x="1081" d="M150 0v1300h835v-202h-577v-316h536v-204h-536v-369h596v-209h-854zM270 1413l181 266h231l180 -266h-174l-121 168l-125 -168h-172z" />
<glyph unicode="&#xcb;" horiz-adv-x="1081" d="M150 0v1300h835v-202h-577v-316h536v-204h-536v-369h596v-209h-854zM279 1546q0 51 32.5 84t83.5 33q53 0 85 -32t32 -83q0 -52 -32 -85.5t-85 -33.5q-51 0 -83.5 33.5t-32.5 83.5zM623 1546q0 52 31.5 84.5t82.5 32.5q53 0 85 -32t32 -83q0 -52 -31.5 -85.5t-83.5 -33.5 q-51 0 -83.5 33.5t-32.5 83.5z" />
<glyph unicode="&#xcc;" horiz-adv-x="559" d="M1 1679h241l140 -266h-176zM150 0v1300h258v-1300h-258z" />
<glyph unicode="&#xcd;" horiz-adv-x="559" d="M150 0v1300h258v-1300h-258zM151 1413l139 266h244l-205 -266h-178z" />
<glyph unicode="&#xce;" horiz-adv-x="559" d="M-16 1413l181 266h231l180 -266h-174l-121 168l-125 -168h-172zM150 0v1300h258v-1300h-258z" />
<glyph unicode="&#xcf;" horiz-adv-x="559" d="M-9 1546q0 51 32.5 84t83.5 33q53 0 85 -32t32 -83q0 -52 -32 -85.5t-85 -33.5q-51 0 -83.5 33.5t-32.5 83.5zM150 0v1300h258v-1300h-258zM335 1546q0 52 31.5 84.5t82.5 32.5q53 0 85 -32t32 -83q0 -52 -31.5 -85.5t-83.5 -33.5q-51 0 -83.5 33.5t-32.5 83.5z" />
<glyph unicode="&#xd0;" horiz-adv-x="1341" d="M43 580v176h107v544h448q322 0 495 -183q173 -184 173 -466q0 -288 -176 -470q-175 -181 -490 -181h-450v580h-107zM408 207h186q195 0 301 118t106 328q0 203 -105.5 324t-301.5 121h-186v-342h247v-176h-247v-373z" />
<glyph unicode="&#xd1;" horiz-adv-x="1374" d="M150 0v1300h276l555 -894v894h244v-1300h-248l-584 942v-942h-243zM361 1444q0 93 58 157q59 66 136 66q79 0 140 -43q28 -21 54 -36q37 -23 66 -23t50.5 24.5t29.5 73.5l119 -14q0 -91 -58 -158q-57 -66 -137 -66q-68 0 -139 44l-60 38q-35 21 -61 21q-29 0 -50.5 -25 t-29.5 -74z" />
<glyph unicode="&#xd2;" horiz-adv-x="1425" d="M76 651q-2 195 78 348t226 237.5t333 84.5t333 -84.5t226 -237.5t78 -348q-2 -201 -79 -352q-79 -153 -224 -236t-334 -83q-190 0 -336 83q-145 84 -223 237q-76 151 -78 351zM340 653q0 -208 101 -331t272 -123t271 124q101 125 101 330q0 203 -100 327 q-101 126 -272 126q-172 0 -273 -125q-100 -124 -100 -328zM422 1679h241l140 -266h-176z" />
<glyph unicode="&#xd3;" horiz-adv-x="1425" d="M76 651q-2 195 78 348t226 237.5t333 84.5t333 -84.5t226 -237.5t78 -348q-2 -201 -79 -352q-79 -153 -224 -236t-334 -83q-190 0 -336 83q-145 84 -223 237q-76 151 -78 351zM340 653q0 -208 101 -331t272 -123t271 124q101 125 101 330q0 203 -100 327 q-101 126 -272 126q-172 0 -273 -125q-100 -124 -100 -328zM621 1413l139 266h244l-205 -266h-178z" />
<glyph unicode="&#xd4;" horiz-adv-x="1425" d="M76 651q-2 195 78 348t226 237.5t333 84.5t333 -84.5t226 -237.5t78 -348q-2 -201 -79 -352q-79 -153 -224 -236t-334 -83q-190 0 -336 83q-145 84 -223 237q-76 151 -78 351zM340 653q0 -208 101 -331t272 -123t271 124q101 125 101 330q0 203 -100 327 q-101 126 -272 126q-172 0 -273 -125q-100 -124 -100 -328zM417 1413l181 266h231l180 -266h-174l-121 168l-125 -168h-172z" />
<glyph unicode="&#xd5;" horiz-adv-x="1425" d="M76 651q-2 195 78 348t226 237.5t333 84.5t333 -84.5t226 -237.5t78 -348q-2 -201 -79 -352q-79 -153 -224 -236t-334 -83q-190 0 -336 83q-145 84 -223 237q-76 151 -78 351zM340 653q0 -208 101 -331t272 -123t271 124q101 125 101 330q0 203 -100 327 q-101 126 -272 126q-172 0 -273 -125q-100 -124 -100 -328zM385 1444q0 93 58 157q59 66 136 66q79 0 140 -43q28 -21 54 -36q37 -23 66 -23t50.5 24.5t29.5 73.5l119 -14q0 -91 -58 -158q-57 -66 -137 -66q-68 0 -139 44l-60 38q-34 21 -61 21q-29 0 -50.5 -25t-29.5 -74z " />
<glyph unicode="&#xd6;" horiz-adv-x="1425" d="M76 651q-2 195 78 348t226 237.5t333 84.5t333 -84.5t226 -237.5t78 -348q-2 -201 -79 -352q-79 -153 -224 -236t-334 -83q-190 0 -336 83q-145 84 -223 237q-76 151 -78 351zM340 653q0 -208 101 -331t272 -123t271 124q101 125 101 330q0 203 -100 327 q-101 126 -272 126q-172 0 -273 -125q-100 -124 -100 -328zM424 1546q0 51 32.5 84t83.5 33q53 0 85 -32t32 -83q0 -52 -32 -85.5t-85 -33.5q-51 0 -83.5 33.5t-32.5 83.5zM768 1546q0 52 31.5 84.5t82.5 32.5q53 0 85 -32t32 -83q0 -52 -31.5 -85.5t-83.5 -33.5 q-51 0 -83.5 33.5t-32.5 83.5z" />
<glyph unicode="&#xd7;" d="M156 358l270 271l-270 270l133 133l270 -270l270 270l134 -133l-271 -270l271 -271l-134 -135l-270 273l-270 -273z" />
<glyph unicode="&#xd8;" horiz-adv-x="1425" d="M76 651q-3 297 175.5 485t461.5 185q213 -3 364 -102l113 143l117 -90l-119 -150q159 -181 162 -471q1 -195 -78 -348.5t-225 -239t-334 -83.5q-210 3 -359 98l-118 -150l-117 90l123 154q-163 176 -166 479zM340 653q0 -162 66 -276l524 659q-91 70 -217 70 q-173 0 -273 -124q-100 -122 -100 -329zM504 264q89 -65 209 -65q171 0 271 124q101 125 101 330q0 154 -59 267z" />
<glyph unicode="&#xd9;" horiz-adv-x="1311" d="M135 514v786h258v-798q0 -100 15 -144q14 -45 49 -81q70 -70 196 -70q85 0 143 30t88 84q31 55 31 181v798h259v-784q0 -152 -31 -244q-30 -92 -96 -160q-131 -132 -392 -132q-273 0 -402 144q-65 74 -92 163q-26 90 -26 227zM393 1679h241l140 -266h-176z" />
<glyph unicode="&#xda;" horiz-adv-x="1311" d="M135 514v786h258v-798q0 -100 15 -144q14 -45 49 -81q70 -70 196 -70q85 0 143 30t88 84q31 55 31 181v798h259v-784q0 -152 -31 -244q-30 -92 -96 -160q-131 -132 -392 -132q-273 0 -402 144q-65 74 -92 163q-26 90 -26 227zM535 1413l139 266h244l-205 -266h-178z" />
<glyph unicode="&#xdb;" horiz-adv-x="1311" d="M135 514v786h258v-798q0 -100 15 -144q14 -45 49 -81q70 -70 196 -70q85 0 143 30t88 84q31 55 31 181v798h259v-784q0 -152 -31 -244q-30 -92 -96 -160q-131 -132 -392 -132q-273 0 -402 144q-65 74 -92 163q-26 90 -26 227zM358 1413l181 266h231l180 -266h-174 l-121 168l-125 -168h-172z" />
<glyph unicode="&#xdc;" horiz-adv-x="1311" d="M135 514v786h258v-798q0 -100 15 -144q14 -45 49 -81q70 -70 196 -70q85 0 143 30t88 84q31 55 31 181v798h259v-784q0 -152 -31 -244q-30 -92 -96 -160q-131 -132 -392 -132q-273 0 -402 144q-65 74 -92 163q-26 90 -26 227zM367 1546q0 51 32.5 84t83.5 33q53 0 85 -32 t32 -83q0 -52 -32 -85.5t-85 -33.5q-51 0 -83.5 33.5t-32.5 83.5zM711 1546q0 52 31.5 84.5t82.5 32.5q53 0 85 -32t32 -83q0 -52 -31.5 -85.5t-83.5 -33.5q-51 0 -83.5 33.5t-32.5 83.5z" />
<glyph unicode="&#xdd;" horiz-adv-x="1153" d="M0 1300h285l295 -569l292 569h281l-446 -770v-530h-258v530zM459 1413l139 266h244l-205 -266h-178z" />
<glyph unicode="&#xde;" horiz-adv-x="1143" d="M150 0v1300h258v-198h174q142 0 255 -48q228 -95 228 -372q0 -145 -61 -239q-60 -95 -175 -138q-113 -43 -247 -43h-174v-262h-258zM408 459h131q101 0 152 24q116 54 116 199q0 75 -32 124q-31 49 -82 73t-152 24h-133v-444z" />
<glyph unicode="&#xdf;" horiz-adv-x="1137" d="M129 0v932q0 203 115 313.5t340 110.5q167 0 276 -89q109 -88 109 -227q0 -76 -30 -138q-29 -58 -80 -100q-49 -40 -97 -48q138 -21 223 -119q82 -96 84 -240q3 -182 -115.5 -299.5t-294.5 -115.5q-67 1 -116.5 11t-65.5 21l35 176q54 -20 113 -20q83 0 137.5 66 t54.5 174q0 111 -69 177q-68 66 -185 66h-59v178h49q86 0 134 50t48 133q0 76 -47 123t-119 47q-84 0 -133 -49q-57 -54 -57 -170v-963h-250z" />
<glyph unicode="&#xe0;" horiz-adv-x="1016" d="M59 274q0 108 66 181q130 143 534 143v45q0 156 -198 156q-77 0 -155 -25q-80 -24 -136 -61l-68 172q68 37 171 66q107 29 208 28q213 -2 319.5 -94t106.5 -281v-389q0 -131 45 -215h-266q-20 62 -20 111q-114 -131 -291 -131q-145 0 -230 79q-86 80 -86 215zM246 1337 h241l140 -266h-176zM311 293q0 -66 39 -102.5t111 -36.5q58 0 111.5 32t86.5 88v177q-37 0 -114 -7q-84 -8 -132 -25q-102 -36 -102 -126z" />
<glyph unicode="&#xe1;" horiz-adv-x="1016" d="M59 274q0 108 66 181q130 143 534 143v45q0 156 -198 156q-77 0 -155 -25q-80 -24 -136 -61l-68 172q68 37 171 66q107 29 208 28q213 -2 319.5 -94t106.5 -281v-389q0 -131 45 -215h-266q-20 62 -20 111q-114 -131 -291 -131q-145 0 -230 79q-86 80 -86 215zM311 293 q0 -66 39 -102.5t111 -36.5q58 0 111.5 32t86.5 88v177q-37 0 -114 -7q-84 -8 -132 -25q-102 -36 -102 -126zM379 1071l139 266h244l-205 -266h-178z" />
<glyph unicode="&#xe2;" horiz-adv-x="1016" d="M59 274q0 108 66 181q130 143 534 143v45q0 156 -198 156q-77 0 -155 -25q-80 -24 -136 -61l-68 172q68 37 171 66q107 29 208 28q213 -2 319.5 -94t106.5 -281v-389q0 -131 45 -215h-266q-20 62 -20 111q-114 -131 -291 -131q-145 0 -230 79q-86 80 -86 215zM209 1071 l181 266h231l180 -266h-174l-121 168l-125 -168h-172zM311 293q0 -66 39 -102.5t111 -36.5q58 0 111.5 32t86.5 88v177q-37 0 -114 -7q-84 -8 -132 -25q-102 -36 -102 -126z" />
<glyph unicode="&#xe3;" horiz-adv-x="1016" d="M59 274q0 108 66 181q130 143 534 143v45q0 156 -198 156q-77 0 -155 -25q-80 -24 -136 -61l-68 172q68 37 171 66q107 29 208 28q213 -2 319.5 -94t106.5 -281v-389q0 -131 45 -215h-266q-20 62 -20 111q-114 -131 -291 -131q-145 0 -230 79q-86 80 -86 215zM195 1102 q0 93 58 157q59 66 136 66q79 0 140 -43q28 -21 54 -36q37 -23 66 -23t50.5 24.5t29.5 73.5l119 -14q0 -91 -58 -158q-57 -66 -137 -66q-68 0 -139 44l-60 38q-35 21 -61 21q-29 0 -50.5 -25t-29.5 -74zM311 293q0 -66 39 -102.5t111 -36.5q58 0 111.5 32t86.5 88v177 q-37 0 -114 -7q-84 -8 -132 -25q-102 -36 -102 -126z" />
<glyph unicode="&#xe4;" horiz-adv-x="1016" d="M59 274q0 108 66 181q130 143 534 143v45q0 156 -198 156q-77 0 -155 -25q-80 -24 -136 -61l-68 172q68 37 171 66q107 29 208 28q213 -2 319.5 -94t106.5 -281v-389q0 -131 45 -215h-266q-20 62 -20 111q-114 -131 -291 -131q-145 0 -230 79q-86 80 -86 215zM220 1204 q0 51 32.5 84t83.5 33q53 0 85 -32t32 -83q0 -52 -32 -85.5t-85 -33.5q-51 0 -83.5 33.5t-32.5 83.5zM311 293q0 -66 39 -102.5t111 -36.5q58 0 111.5 32t86.5 88v177q-37 0 -114 -7q-84 -8 -132 -25q-102 -36 -102 -126zM564 1204q0 52 31.5 84.5t82.5 32.5q53 0 85 -32 t32 -83q0 -52 -31.5 -85.5t-83.5 -33.5q-51 0 -83.5 33.5t-32.5 83.5z" />
<glyph unicode="&#xe5;" horiz-adv-x="1016" d="M59 274q0 108 66 181q130 143 534 143v45q0 156 -198 156q-77 0 -155 -25q-80 -24 -136 -61l-68 172q68 37 171 66q107 29 208 28q213 -2 319.5 -94t106.5 -281v-389q0 -131 45 -215h-266q-20 62 -20 111q-114 -131 -291 -131q-145 0 -230 79q-86 80 -86 215zM311 293 q0 -66 39 -102.5t111 -36.5q58 0 111.5 32t86.5 88v177q-37 0 -114 -7q-84 -8 -132 -25q-102 -36 -102 -126zM320 1233q0 80 52 131t132 51q81 0 133 -52q52 -51 52 -130q0 -80 -53 -131q-52 -51 -132 -51t-132 51q-52 52 -52 131zM414 1233q0 -38 26 -64t64 -26t64 26 t26 64t-26 64t-64 26t-64 -26t-26 -64z" />
<glyph unicode="&#xe6;" horiz-adv-x="1616" d="M59 268q0 155 140 238q140 82 460 82v55q0 156 -198 156q-77 0 -155 -25q-80 -24 -136 -61l-68 172q68 37 171 66q102 28 208 28q122 0 211 -38q50 -22 79 -51q33 -33 38 -50q48 52 89 79q91 60 230 60q201 0 318 -133q117 -132 117 -344v-66h-662v-16q0 -121 72 -186.5 t190 -65.5q73 0 151 26q77 27 136 72l88 -151q-67 -63 -174 -99t-234 -36q-245 0 -376 170q-76 -90 -166.5 -130t-208.5 -40q-144 0 -233 77q-87 77 -87 211zM311 287q0 -63 41.5 -98t114.5 -35q64 0 122.5 35t92.5 92q-29 84 -29 159q-342 0 -342 -153zM899 592h426 q0 99 -55 158t-150 59q-91 0 -151 -60q-59 -59 -70 -157z" />
<glyph unicode="&#xe7;" horiz-adv-x="938" d="M59 479q-2 217 139 359.5t345 140.5q119 -1 219 -45q102 -45 151 -113l-114 -153q-48 51 -109 78.5t-121 27.5q-121 0 -191 -78q-71 -77 -71 -213q0 -138 70 -215q71 -78 194 -78q63 0 126.5 28.5t111.5 78.5l109 -164q-112 -126 -302 -147l-118 -250h-238l172 252 q-166 29 -268.5 160t-104.5 331z" />
<glyph unicode="&#xe8;" horiz-adv-x="1024" d="M59 479q0 227 130 363q131 137 350 137q198 0 315 -133q117 -132 117 -348v-78h-660q4 -118 73.5 -185t188.5 -67q76 0 160 29q82 28 127 69l86 -151q-66 -63 -173 -99t-232 -36q-221 0 -351 135q-131 135 -131 364zM262 1337h241l140 -266h-176zM307 584h426 q0 105 -54.5 165t-150.5 60q-92 0 -152 -62q-59 -62 -69 -163z" />
<glyph unicode="&#xe9;" horiz-adv-x="1024" d="M59 479q0 227 130 363q131 137 350 137q198 0 315 -133q117 -132 117 -348v-78h-660q4 -118 73.5 -185t188.5 -67q76 0 160 29q82 28 127 69l86 -151q-66 -63 -173 -99t-232 -36q-221 0 -351 135q-131 135 -131 364zM307 584h426q0 105 -54.5 165t-150.5 60 q-92 0 -152 -62q-59 -62 -69 -163zM404 1071l139 266h244l-205 -266h-178z" />
<glyph unicode="&#xea;" horiz-adv-x="1024" d="M59 479q0 227 130 363q131 137 350 137q198 0 315 -133q117 -132 117 -348v-78h-660q4 -118 73.5 -185t188.5 -67q76 0 160 29q82 28 127 69l86 -151q-66 -63 -173 -99t-232 -36q-221 0 -351 135q-131 135 -131 364zM247 1071l181 266h231l180 -266h-174l-121 168 l-125 -168h-172zM307 584h426q0 105 -54.5 165t-150.5 60q-92 0 -152 -62q-59 -62 -69 -163z" />
<glyph unicode="&#xeb;" horiz-adv-x="1024" d="M59 479q0 227 130 363q131 137 350 137q198 0 315 -133q117 -132 117 -348v-78h-660q4 -118 73.5 -185t188.5 -67q76 0 160 29q82 28 127 69l86 -151q-66 -63 -173 -99t-232 -36q-221 0 -351 135q-131 135 -131 364zM250 1204q0 51 32.5 84t83.5 33q53 0 85 -32t32 -83 q0 -52 -32 -85.5t-85 -33.5q-51 0 -83.5 33.5t-32.5 83.5zM307 584h426q0 105 -54.5 165t-150.5 60q-92 0 -152 -62q-59 -62 -69 -163zM594 1204q0 52 31.5 84.5t82.5 32.5q53 0 85 -32t32 -83q0 -52 -31.5 -85.5t-83.5 -33.5q-51 0 -83.5 33.5t-32.5 83.5z" />
<glyph unicode="&#xec;" horiz-adv-x="510" d="M1 1337h241l140 -266h-176zM129 0v961h250v-961h-250z" />
<glyph unicode="&#xed;" horiz-adv-x="510" d="M129 0v961h250v-961h-250zM130 1071l139 266h244l-205 -266h-178z" />
<glyph unicode="&#xee;" horiz-adv-x="510" d="M-40 1071l181 266h231l180 -266h-174l-121 168l-125 -168h-172zM129 0v961h250v-961h-250z" />
<glyph unicode="&#xef;" horiz-adv-x="510" d="M-33 1204q0 51 32.5 84t83.5 33q53 0 85 -32t32 -83q0 -52 -32 -85.5t-85 -33.5q-51 0 -83.5 33.5t-32.5 83.5zM129 0v961h250v-961h-250zM311 1204q0 52 31.5 84.5t82.5 32.5q53 0 85 -32t32 -83q0 -52 -31.5 -85.5t-83.5 -33.5q-51 0 -83.5 33.5t-32.5 83.5z" />
<glyph unicode="&#xf0;" horiz-adv-x="1094" d="M59 442q-1 93 33 176.5t93 142.5t139 93t168 33q79 -2 145 -29q69 -28 102 -70q-51 140 -204 283l-162 -113l-76 99l137 92q-21 19 -83 55q-62 37 -95 49l66 136q58 -19 137 -56q73 -35 123 -69l168 118l77 -98l-137 -92q34 -26 90 -83q55 -56 103 -125q48 -66 80 -142 q71 -170 71 -357q0 -227 -132 -367q-132 -138 -353 -138q-217 0 -354 129q-133 126 -136 333zM315 449q0 -127 63 -204t169 -77q107 0 168 78q63 78 63 203q0 127 -64 203q-63 77 -167 77q-106 0 -169 -77q-63 -76 -63 -203z" />
<glyph unicode="&#xf1;" horiz-adv-x="1128" d="M129 0v961h233l17 -162q119 180 309 180q320 0 320 -365v-614h-248v557q0 110 -40.5 161.5t-125.5 51.5q-77 0 -138 -61q-60 -61 -77 -146v-563h-250zM252 1102q0 93 58 157q58 66 136 66q79 0 140 -43q28 -21 54 -36q37 -23 66 -23t50.5 24.5t29.5 73.5l119 -14 q0 -91 -58 -158q-57 -66 -137 -66q-68 0 -139 44l-60 38q-35 21 -61 21q-29 0 -50.5 -25t-29.5 -74z" />
<glyph unicode="&#xf2;" horiz-adv-x="1094" d="M59 479q0 227 132 363q134 137 356 137q223 0 355 -136q132 -135 132 -364q0 -228 -134 -364q-134 -135 -353 -135q-223 0 -356 136q-132 136 -132 363zM266 1337h241l140 -266h-176zM315 479q0 -145 62 -228q63 -83 170 -83t168 84q63 84 63 227q0 142 -62 227 q-61 85 -169 85q-110 0 -171 -85t-61 -227z" />
<glyph unicode="&#xf3;" horiz-adv-x="1094" d="M59 479q0 227 132 363q134 137 356 137q223 0 355 -136q132 -135 132 -364q0 -228 -134 -364q-134 -135 -353 -135q-223 0 -356 136q-132 136 -132 363zM315 479q0 -145 62 -228q63 -83 170 -83t168 84q63 84 63 227q0 142 -62 227q-61 85 -169 85q-110 0 -171 -85 t-61 -227zM445 1071l139 266h244l-205 -266h-178z" />
<glyph unicode="&#xf4;" horiz-adv-x="1094" d="M59 479q0 227 132 363q134 137 356 137q223 0 355 -136q132 -135 132 -364q0 -228 -134 -364q-134 -135 -353 -135q-223 0 -356 136q-132 136 -132 363zM252 1071l181 266h231l180 -266h-174l-121 168l-125 -168h-172zM315 479q0 -145 62 -228q63 -83 170 -83t168 84 q63 84 63 227q0 142 -62 227q-61 85 -169 85q-110 0 -171 -85t-61 -227z" />
<glyph unicode="&#xf5;" horiz-adv-x="1094" d="M59 479q0 227 132 363q134 137 356 137q223 0 355 -136q132 -135 132 -364q0 -228 -134 -364q-134 -135 -353 -135q-223 0 -356 136q-132 136 -132 363zM224 1102q0 93 58 157q59 66 136 66q79 0 140 -43q28 -21 54 -36q37 -23 66 -23t50.5 24.5t29.5 73.5l119 -14 q0 -91 -58 -158q-57 -66 -137 -66q-68 0 -139 44l-60 38q-35 21 -61 21q-29 0 -50.5 -25t-29.5 -74zM315 479q0 -145 62 -228q63 -83 170 -83t168 84q63 84 63 227q0 142 -62 227q-61 85 -169 85q-110 0 -171 -85t-61 -227z" />
<glyph unicode="&#xf6;" horiz-adv-x="1094" d="M59 479q0 227 132 363q134 137 356 137q223 0 355 -136q132 -135 132 -364q0 -228 -134 -364q-134 -135 -353 -135q-223 0 -356 136q-132 136 -132 363zM259 1204q0 51 32.5 84t83.5 33q53 0 85 -32t32 -83q0 -52 -32 -85.5t-85 -33.5q-51 0 -83.5 33.5t-32.5 83.5z M315 479q0 -145 62 -228q63 -83 170 -83t168 84q63 84 63 227q0 142 -62 227q-61 85 -169 85q-110 0 -171 -85t-61 -227zM603 1204q0 52 31.5 84.5t82.5 32.5q53 0 85 -32t32 -83q0 -52 -31.5 -85.5t-83.5 -33.5q-51 0 -83.5 33.5t-32.5 83.5z" />
<glyph unicode="&#xf7;" d="M102 532v191h914v-191h-914zM410 231q0 62 41.5 103t107.5 41q63 0 107 -42q43 -40 43 -102q0 -63 -43 -103q-41 -40 -107 -40q-63 0 -106 40t-43 103zM410 1024q0 62 42 103q42 42 107 42q63 0 107 -41q43 -40 43 -102q0 -64 -43 -104q-43 -41 -107 -41q-63 0 -106 40 t-43 103z" />
<glyph unicode="&#xf8;" horiz-adv-x="1094" d="M59 479q0 227 132 363q134 137 356 137q173 0 297 -86l94 104l80 -75l-92 -105q108 -138 108 -338q0 -230 -133 -364q-132 -135 -354 -135q-168 0 -293 83l-94 -106l-82 76l94 106q-113 133 -113 340zM315 479q0 -84 25 -153l358 403q-59 62 -151 62q-110 0 -171 -85 t-61 -227zM399 227q59 -59 148 -59q107 0 168 84q63 84 63 227q0 85 -22 148z" />
<glyph unicode="&#xf9;" d="M119 344v617h250v-566q0 -101 38 -153t125 -52q75 0 134 59q57 57 71 144v568h250v-961h-233l-15 162q-117 -182 -299 -182q-321 0 -321 364zM277 1337h241l140 -266h-176z" />
<glyph unicode="&#xfa;" d="M119 344v617h250v-566q0 -101 38 -153t125 -52q75 0 134 59q57 57 71 144v568h250v-961h-233l-15 162q-117 -182 -299 -182q-321 0 -321 364zM451 1071l139 266h244l-205 -266h-178z" />
<glyph unicode="&#xfb;" d="M119 344v617h250v-566q0 -101 38 -153t125 -52q75 0 134 59q57 57 71 144v568h250v-961h-233l-15 162q-117 -182 -299 -182q-321 0 -321 364zM258 1071l181 266h231l180 -266h-174l-121 168l-125 -168h-172z" />
<glyph unicode="&#xfc;" d="M119 344v617h250v-566q0 -101 38 -153t125 -52q75 0 134 59q57 57 71 144v568h250v-961h-233l-15 162q-117 -182 -299 -182q-321 0 -321 364zM265 1204q0 51 32.5 84t83.5 33q53 0 85 -32t32 -83q0 -52 -32 -85.5t-85 -33.5q-51 0 -83.5 33.5t-32.5 83.5zM609 1204 q0 52 31.5 84.5t82.5 32.5q53 0 85 -32t32 -83q0 -52 -31.5 -85.5t-83.5 -33.5q-51 0 -83.5 33.5t-32.5 83.5z" />
<glyph unicode="&#xfd;" horiz-adv-x="1014" d="M14 961h269l231 -715l231 715h263l-406 -1053q-55 -145 -123 -205q-65 -59 -172 -59q-129 0 -225 47l53 184q56 -29 109 -29q41 0 62.5 18.5t39.5 67.5l33 88zM400 1071l139 266h244l-205 -266h-178z" />
<glyph unicode="&#xfe;" horiz-adv-x="1155" d="M131 -340v1681h250v-522q51 77 130 118.5t171 41.5q184 0 298 -138t114 -360q0 -221 -119 -361t-305 -140q-69 0 -123 20q-55 21 -92.5 51t-73.5 84v-475h-250zM373 483q0 -137 63 -222q64 -85 166 -85q106 0 172 85t66 220q0 137 -64 222t-168 85q-103 0 -169 -86 t-66 -219z" />
<glyph unicode="&#xff;" horiz-adv-x="1014" d="M14 961h269l231 -715l231 715h263l-406 -1053q-55 -145 -123 -205q-65 -59 -172 -59q-129 0 -225 47l53 184q56 -29 109 -29q41 0 62.5 18.5t39.5 67.5l33 88zM228 1204q0 51 32.5 84t83.5 33q53 0 85 -32t32 -83q0 -52 -32 -85.5t-85 -33.5q-51 0 -83.5 33.5t-32.5 83.5 zM572 1204q0 52 31.5 84.5t82.5 32.5q53 0 85 -32t32 -83q0 -52 -31.5 -85.5t-83.5 -33.5q-51 0 -83.5 33.5t-32.5 83.5z" />
<glyph unicode="&#x152;" horiz-adv-x="1851" d="M76 651q0 197 78 349q78 153 223 237t332 84q65 0 136 -18q66 -16 118 -43l-2 40h794v-202h-536v-316h495v-204h-495v-369h555v-209h-811v41q-54 -28 -123 -44q-71 -17 -129 -17q-189 0 -333 83q-145 83 -223.5 236t-78.5 352zM340 653q0 -206 100 -330t269 -124 q157 0 254 73v756q-46 36 -114.5 57t-137.5 21q-171 0 -272 -125q-99 -125 -99 -328z" />
<glyph unicode="&#x153;" horiz-adv-x="1731" d="M59 479q0 227 132 363q134 137 356 137q113 0 208 -48q95 -47 140 -126q46 63 93 97q108 77 255 77q200 0 317 -131q117 -130 117 -350v-78h-661q5 -122 75.5 -187t188.5 -65q73 0 149 26t136 72l88 -151q-67 -63 -174 -99t-234 -36q-112 0 -202.5 44.5t-143.5 127.5 l-39 -47q-48 -57 -129.5 -91t-183.5 -34q-223 0 -356 136q-132 136 -132 363zM315 479q0 -145 62 -228q63 -83 170 -83t168 84q63 84 63 227q0 142 -62 227q-61 85 -169 85q-110 0 -171 -85t-61 -227zM1012 584h428q0 105 -54.5 165t-150.5 60q-91 0 -153 -62 q-59 -61 -70 -163z" />
<glyph unicode="&#x178;" horiz-adv-x="1153" d="M0 1300h285l295 -569l292 569h281l-446 -770v-530h-258v530zM293 1546q0 51 32.5 84t83.5 33q53 0 85 -32t32 -83q0 -52 -32 -85.5t-85 -33.5q-51 0 -83.5 33.5t-32.5 83.5zM637 1546q0 52 31.5 84.5t82.5 32.5q53 0 85 -32t32 -83q0 -52 -31.5 -85.5t-83.5 -33.5 q-51 0 -83.5 33.5t-32.5 83.5z" />
<glyph unicode="&#x2c6;" horiz-adv-x="874" d="M141 1071l181 266h231l180 -266h-174l-121 168l-125 -168h-172z" />
<glyph unicode="&#x2dc;" horiz-adv-x="874" d="M109 1102q0 93 58 157q58 66 136 66q79 0 140 -43q28 -21 54 -36q37 -23 66 -23t50.5 24.5t29.5 73.5l119 -14q0 -91 -58 -158q-57 -66 -137 -66q-68 0 -139 44l-60 38q-34 21 -61 21q-29 0 -50.5 -25t-29.5 -74z" />
<glyph unicode="&#x2000;" horiz-adv-x="878" />
<glyph unicode="&#x2001;" horiz-adv-x="1757" />
<glyph unicode="&#x2002;" horiz-adv-x="878" />
<glyph unicode="&#x2003;" horiz-adv-x="1757" />
<glyph unicode="&#x2004;" horiz-adv-x="585" />
<glyph unicode="&#x2005;" horiz-adv-x="439" />
<glyph unicode="&#x2006;" horiz-adv-x="292" />
<glyph unicode="&#x2007;" horiz-adv-x="292" />
<glyph unicode="&#x2008;" horiz-adv-x="219" />
<glyph unicode="&#x2009;" horiz-adv-x="351" />
<glyph unicode="&#x200a;" horiz-adv-x="97" />
<glyph unicode="&#x2010;" horiz-adv-x="645" d="M66 391v189h514v-189h-514z" />
<glyph unicode="&#x2011;" horiz-adv-x="645" d="M66 391v189h514v-189h-514z" />
<glyph unicode="&#x2012;" horiz-adv-x="645" d="M66 391v189h514v-189h-514z" />
<glyph unicode="&#x2013;" horiz-adv-x="1006" d="M70 399v172h866v-172h-866z" />
<glyph unicode="&#x2014;" horiz-adv-x="1638" d="M59 399v172h1520v-172h-1520z" />
<glyph unicode="&#x2018;" horiz-adv-x="549" d="M49 899q0 121 73 254q74 134 181 211l154 -76q-199 -199 -199 -452z" />
<glyph unicode="&#x2019;" horiz-adv-x="549" d="M92 907q199 199 199 453l209 -64q0 -121 -74 -255q-74 -133 -180 -210z" />
<glyph unicode="&#x201a;" horiz-adv-x="549" d="M27 -160q200 200 200 453l207 -64q0 -120 -74 -254q-74 -135 -180 -211z" />
<glyph unicode="&#x201c;" horiz-adv-x="958" d="M49 899q0 121 73 254q74 134 181 211l154 -76q-199 -199 -199 -452zM459 899q0 121 73 254q74 134 181 211l153 -76q-198 -198 -198 -452z" />
<glyph unicode="&#x201d;" horiz-adv-x="958" d="M92 907q199 199 199 453l209 -64q0 -121 -74 -255q-74 -133 -180 -210zM502 907q198 198 198 453l209 -64q0 -121 -74 -255q-73 -133 -180 -210z" />
<glyph unicode="&#x201e;" horiz-adv-x="958" d="M31 -160q198 198 198 453l209 -64q0 -119 -74 -253q-74 -136 -180 -212zM444 -160q201 201 201 453l207 -64q0 -120 -74 -254q-74 -135 -180 -211z" />
<glyph unicode="&#x2022;" d="M287 647q0 114 79 193q80 80 193 80t192 -79q80 -78 80 -194q0 -113 -80 -193q-79 -79 -192 -79q-114 0 -193 79t-79 193z" />
<glyph unicode="&#x2026;" horiz-adv-x="1677" d="M131 127q0 63 42 103q42 42 106 42t107 -41q42 -41 42 -102q0 -62 -42 -104q-43 -41 -105 -41q-64 0 -107 40t-43 103zM690 127q0 63 42 103q42 42 106 42t107 -41q42 -41 42 -102q0 -62 -42 -104q-43 -41 -105 -41q-64 0 -107 40t-43 103zM1249 127q0 63 42 103 q42 42 106 42t107 -41q42 -41 42 -102q0 -62 -42 -104q-43 -41 -105 -41q-64 0 -107 40t-43 103z" />
<glyph unicode="&#x202f;" horiz-adv-x="351" />
<glyph unicode="&#x2039;" horiz-adv-x="602" d="M90 451v112l301 363l117 -97l-262 -321l262 -322l-117 -98z" />
<glyph unicode="&#x203a;" horiz-adv-x="602" d="M94 184l262 322l-262 321l115 99l303 -363v-112l-301 -363z" />
<glyph unicode="&#x205f;" horiz-adv-x="439" />
<glyph unicode="&#x20ac;" d="M90 444v138h127v141h-127v139h141q37 213 168 336t324 123q118 0 214.5 -44.5t147.5 -125.5l-112 -143l-26 27q-39 41 -96.5 67t-117.5 26q-102 0 -171 -73t-85 -193h377v-137h-391v-141h391v-140h-377q22 -135 82 -200.5t168 -65.5q69 0 140 38q69 36 112 97l113 -145 q-66 -90 -169 -139q-104 -49 -227 -49q-389 0 -467 464h-139z" />
<glyph unicode="&#x2122;" horiz-adv-x="1526" d="M74 1180v120h534v-120h-192v-580h-148v580h-194zM666 600l32 700h209l140 -501l137 501h211l35 -698l-150 -2l-18 543l-156 -543h-125l-154 543l-20 -543h-141z" />
<glyph unicode="&#xe000;" horiz-adv-x="960" d="M0 0v960h960v-960h-960z" />
<glyph unicode="&#xfb01;" horiz-adv-x="1124" d="M33 778v183h127v94q0 146 85.5 222.5t235.5 78.5q103 1 205 -37l-31 -162l-16 5q-57 18 -100 18q-69 0 -100 -34t-31 -130v-55h229v-183h-227v-778h-250v778h-127zM722 1243q0 60 40 100q41 41 108 41q64 0 105.5 -38.5t41.5 -100.5q0 -61 -41 -102t-104 -41 q-65 0 -107.5 40.5t-42.5 100.5zM745 0v961h250v-961h-250z" />
<glyph unicode="&#xfb02;" horiz-adv-x="1124" d="M33 778v183h127v94q0 146 85.5 222.5t235.5 78.5q103 1 205 -37l-31 -162l-16 5q-57 18 -100 18q-69 0 -100 -34t-31 -130v-55h229v-183h-227v-778h-250v778h-127zM743 0v1341h250v-1341h-250z" />
<glyph unicode="&#xfb03;" horiz-adv-x="1739" d="M33 778v183h127v94q0 146 85.5 222.5t235.5 78.5q103 1 205 -37l-31 -162l-16 5q-57 18 -100 18q-69 0 -100 -34t-31 -130v-55h366v94q0 146 85.5 222.5t236.5 78.5q102 1 204 -37l-30 -162l-16 5q-57 18 -101 18q-46 0 -75 -16q-30 -16 -43 -48t-13 -100v-55h229v-183 h-227v-778h-250v778h-364v-778h-250v778h-127zM1337 1243q0 60 40 100q41 41 106 41q63 0 105 -40q42 -41 42 -101q0 -61 -40 -100t-105 -39t-106.5 39t-41.5 100zM1360 0v961h248v-961h-248z" />
<glyph unicode="&#xfb04;" horiz-adv-x="1739" d="M33 778v183h127v94q0 146 85.5 222.5t235.5 78.5q103 1 205 -37l-31 -162l-16 5q-57 18 -100 18q-69 0 -100 -34t-31 -130v-55h366v94q0 146 85.5 222.5t236.5 78.5q102 1 204 -37l-30 -162l-16 5q-57 18 -101 18q-46 0 -75 -16q-30 -16 -43 -48t-13 -100v-55h229v-183 h-227v-778h-250v778h-364v-778h-250v778h-127zM1358 0v1341h250v-1341h-250z" />
</font>
</defs>
</svg>
