<?xml version="1.0" standalone="no"?>
<!DOCTYPE svg PUBLIC "-//W3C//DTD SVG 1.1//EN" "http://www.w3.org/Graphics/SVG/1.1/DTD/svg11.dtd" >
<svg xmlns="http://www.w3.org/2000/svg">
<metadata>
Created by FontPrep 20130207 at Sat Sep 17 12:45:10 2016
 By Mauricio Duran
Copyright 2004-2013 SUDTIPOS. Disenada por Alejandro Paul y Alfredo Graziani. Todos los derechos reservados.
</metadata>
<defs>
<font id="1ee834c6ca8b8f04c3c582539c9eed1a" horiz-adv-x='1024' >
  <font-face 
    font-family="Politica-Bold"
    font-weight="700"
    font-stretch="normal"
    units-per-em="2048"
    panose-1="0 0 8 0 0 0 0 0 0 0"
    ascent="1638"
    descent="-410"
    x-height="1145"
    cap-height="1638"
    bbox="-276 -526.014 2419 2331"
    underline-thickness="102"
    underline-position="-102"
    unicode-range="U+0020-FB02"
  />
<missing-glyph horiz-adv-x="372" 
d="M164 23q0 23 22 22q23 -1 23 -23q-1 -22 -23 -22t-22 23zM186 963q-22 1 -22 23t22 22t23 -22q0 -22 -23 -23z" />
    <glyph glyph-name="fi" unicode="fi" horiz-adv-x="1198" 
d="M938 1350h-184v217h184v-217zM1126 164v-184h-102q-113 0 -193 80t-79 192v713h-387v-1010q0 -113 -80 -193t-197 -79v184q41 1 66 25t24 63v1010h-153v182h153v147q0 113 80 193t193 80h145v-185h-141q-41 0 -66 -24t-24 -64v-147h575v-182h-2v-713q0 -39 25 -64t65 -24
h98z" />
    <glyph glyph-name="fl" unicode="fl" horiz-adv-x="1204" 
d="M1159 164v-184h-102q-113 0 -193 80t-80 192v1130h-329q-41 0 -66 -24t-24 -64v-147h219v-182h-219v-1010q0 -113 -80 -193t-197 -79v184q41 1 66 25t24 63v1010h-153v182h153v147q0 113 80 193t193 80h518v-420h2v-895q1 -39 25 -64t65 -24h98z" />
    <glyph glyph-name=".notdef" horiz-adv-x="372" 
d="M164 23q0 23 22 22q23 -1 23 -23q-1 -22 -23 -22t-22 23zM186 963q-22 1 -22 23t22 22t23 -22q0 -22 -23 -23z" />
    <glyph glyph-name=".null" horiz-adv-x="0" 
 />
    <glyph glyph-name="nonmarkingreturn" horiz-adv-x="681" 
 />
    <glyph glyph-name="space" unicode=" " horiz-adv-x="448" 
 />
    <glyph glyph-name="exclam" unicode="!" horiz-adv-x="501" 
d="M344 217v-217h-184v217h184zM344 1630v-1208h-184v1208h184z" />
    <glyph glyph-name="quotedbl" unicode="&#x22;" horiz-adv-x="727" 
d="M600 1565v-529h-184v529h184zM313 1565v-529h-184v529h184z" />
    <glyph glyph-name="numbersign" unicode="#" horiz-adv-x="1486" 
d="M889 895h-293l-59 -190h292zM1257 705v-183h-319l-100 -317h-166l100 317h-293l-100 -317h-166l100 317h-153v183h211l59 190h-199v182h258l93 295h163l-92 -295h295l92 295h164l-92 -295h217v-182h-274l-60 -190h262z" />
    <glyph glyph-name="dollar" unicode="$" 
d="M748 530q0 45 -31 79t-107 77v-293h47q41 0 66 25t25 63v49zM451 1212h-35q-39 0 -64 -24t-24 -64v-20q0 -33 28 -61t95 -66v235zM745 1083v41q0 39 -24 64q-25 25 -64 24h-47v-325q186 -96 253 -166t67 -170v-70q0 -113 -80 -193t-193 -79h-47v-209h-159v209h-35
q-113 0 -193 80t-80 192v183h185v-183q0 -39 24 -63t64 -25h35v375q-178 90 -243 157t-65 165v34q0 113 80 193t193 80h35v180h159v-180h47q113 0 193 -80t80 -193v-41h-185z" />
    <glyph glyph-name="percent" unicode="%" horiz-adv-x="1785" 
d="M1151 254q0 -39 17 -69t40 -29h217q23 0 40 30t18 68v305q1 39 -17 69t-41 29h-217q-23 1 -40 -29t-17 -69v-305zM977 559q0 115 67 194q68 79 164 78h217q96 -1 164 -79t68 -193v-305q0 -113 -68 -193t-164 -79h-217q-96 0 -164 80t-67 192v305zM578 918q24 0 40 30
t17 68v305q1 39 -17 69t-40 29h-218q-24 1 -40 -29t-17 -69v-305q-1 -39 17 -69t40 -29h218zM360 743q-96 0 -164 80t-67 193v305q0 115 68 193t163 79h218q96 0 164 -79t67 -193v-305q0 -113 -68 -193t-163 -80h-218zM1309 1634l-631 -1634h-184l630 1634h185z" />
    <glyph glyph-name="ampersand" unicode="&#x26;" horiz-adv-x="1253" 
d="M676 1571q124 1 194 -63t70 -185v-162h-184v162q0 35 -16 49t-64 14h-256q-92 0 -92 -63v-295q0 -59 49 -104t88 -45h211v-185h-211q-41 0 -96 -47t-56 -106v-285q0 -82 107 -82h256q80 0 80 82v694h184v-73h260v-185h-260v-456q0 -122 -70 -184t-194 -62h-258
q-129 0 -209 63t-80 183v305q0 79 48 149t124 96q-70 31 -114 98t-44 144v295q0 121 75 184t202 64h256z" />
    <glyph glyph-name="quotesingle" unicode="'" horiz-adv-x="440" 
d="M313 1565v-529h-184v529h184z" />
    <glyph glyph-name="parenleft" unicode="(" horiz-adv-x="636" 
d="M98 780q0 538 322 944h201q-345 -428 -345 -945t345 -947h-201q-322 410 -322 948z" />
    <glyph glyph-name="parenright" unicode=")" horiz-adv-x="636" 
d="M360 779q0 517 -344 945h201q322 -406 322 -944t-322 -948h-201q344 430 344 947z" />
    <glyph glyph-name="asterisk" unicode="*" horiz-adv-x="903" 
d="M381 1587h143v-233l252 65v-147l-231 -60l198 -208l-100 -103l-190 207l-185 -201l-106 97l198 208l-231 60v147l252 -65v233z" />
    <glyph glyph-name="plus" unicode="+" 
d="M180 621v200h256v234h203v-234h258v-200h-258v-283h-203v283h-256z" />
    <glyph glyph-name="comma" unicode="," horiz-adv-x="501" 
d="M344 -319h-184v636h184v-636z" />
    <glyph glyph-name="hyphen" unicode="-" horiz-adv-x="841" 
d="M725 811v-182h-606v182h606z" />
    <glyph glyph-name="period" unicode="." horiz-adv-x="458" 
d="M129 100q0 41 30 72q31 31 71 31t71 -31t31 -72q0 -40 -31 -70t-72 -30t-71 30t-29 70z" />
    <glyph glyph-name="slash" unicode="/" horiz-adv-x="903" 
d="M889 1761l-709 -1884h-164l709 1884h164z" />
    <glyph glyph-name="zero" unicode="0" 
d="M416 1403q-39 0 -64 -24t-24 -64v-1063q0 -39 24 -64t64 -24h243q41 0 65 24t24 64v1063q0 41 -24 65t-65 23h-243zM659 1587q115 0 194 -79t79 -193v-1063q0 -113 -80 -193t-193 -79h-243q-113 0 -193 80t-80 192v1063q0 115 80 193t193 79h243z" />
    <glyph glyph-name="one" unicode="1" 
d="M999 184v-184h-860v184h373v1198h-373v185h557v-1383h303z" />
    <glyph glyph-name="two" unicode="2" 
d="M653 1589q123 0 209 -86t86 -209v-84q0 -190 -113 -321q-91 -107 -199 -189q-108 -83 -140 -114q-123 -113 -154 -194t-31 -208h637v-184h-821v102q0 216 49 348t180 257q43 39 129 103t139 108q52 44 96 122t44 170v84q0 49 -31 80t-80 31h-231q-49 0 -80 -31t-31 -80
h-184q0 123 86 209t209 86h231z" />
    <glyph glyph-name="three" unicode="3" 
d="M924 1100q0 -76 -27 -146t-88 -98q69 -26 99 -96t30 -148v-387q0 -119 -76 -182t-203 -63h-233q-127 0 -201 62t-73 183v353h184v-353q0 -33 20 -47t70 -14h231q96 0 97 61v387q0 39 -33 86t-78 47h-168v185h168q43 0 70 61t26 109v243q0 61 -96 62h-231q-90 0 -90 -62
v-40h-185v40q0 121 74 183t201 63h233q127 0 203 -63t76 -183v-243z" />
    <glyph glyph-name="four" unicode="4" 
d="M702 459v923h-61l-354 -923h415zM887 459h106v-185h-106v-274h-185v274h-677l495 1293h367v-1108z" />
    <glyph glyph-name="five" unicode="5" 
d="M932 1382h-559v-432h284q272 0 273 -313v-412q0 -119 -76 -182t-203 -63h-233q-127 0 -201 62t-74 183v353h185v-353q0 -33 20 -47t70 -14h231q96 0 96 61v412q0 63 -18 96t-70 33h-469v799h744v-183z" />
    <glyph glyph-name="six" unicode="6" 
d="M416 705q-41 0 -65 -24t-23 -63v-364q0 -41 24 -65t64 -23h243q41 0 65 24t24 64v362q0 39 -24 64t-65 25h-243zM748 1161v156q0 39 -24 63t-65 25h-243q-39 0 -64 -25t-24 -63v-449q35 20 88 21h243q113 0 193 -80t80 -193v-362q0 -113 -80 -193t-193 -79h-243
q-113 0 -193 80t-80 192v1063q0 113 80 193t193 79h243q115 0 194 -80t79 -192v-156h-184z" />
    <glyph glyph-name="seven" unicode="7" 
d="M152 1393v184h792l-487 -1577h-185l433 1393h-553z" />
    <glyph glyph-name="eight" unicode="8" 
d="M750 610q0 54 -26 96t-65 48h-243q-39 -6 -65 -47t-25 -97v-356q0 -41 24 -65t64 -23h248q40 0 64 24t24 64v356zM340 1098q0 -55 24 -94t62 -46h223q39 6 63 46t23 94v217q1 41 -23 65t-65 23h-219q-40 0 -64 -24t-24 -64v-217zM920 1098q0 -180 -138 -242
q74 -28 113 -94t39 -152v-356q0 -113 -80 -193t-192 -79h-248q-113 0 -193 80t-80 192v356q0 86 39 153t113 93q-137 61 -137 242v217q0 113 80 193t192 79h219q113 0 193 -80t80 -192v-217z" />
    <glyph glyph-name="nine" unicode="9" 
d="M664 868q40 0 64 24t24 62v365q0 41 -24 65t-64 23h-244q-39 0 -64 -24t-24 -64v-363q0 -40 24 -64t64 -24h244zM332 256q0 -40 24 -64t64 -24h244q40 0 64 25t24 63v449q-35 -20 -88 -21h-244q-113 0 -193 80t-80 192v363q0 113 80 193t193 79h244q112 0 192 -80
t80 -192v-1063q0 -113 -79 -193t-193 -79h-244q-113 0 -193 80t-80 192v156h185v-156z" />
    <glyph glyph-name="colon" unicode=":" horiz-adv-x="458" 
d="M129 100q0 41 30 72q31 31 71 31t71 -31t31 -72q0 -40 -31 -70t-72 -30t-71 30t-29 70zM229 819q-41 0 -71 30t-29 71q0 42 30 72q31 30 71 30t71 -31t31 -71t-31 -71q-31 -30 -72 -30z" />
    <glyph glyph-name="semicolon" unicode=";" horiz-adv-x="458" 
d="M133 -319v636h184v-636h-184zM229 848q-41 0 -71 30t-29 70q0 40 30 72q31 31 71 31t71 -31t31 -72q0 -40 -31 -70t-72 -30z" />
    <glyph glyph-name="less" unicode="&#x3c;" 
d="M674 1346l149 -66l-389 -430l406 -447l-148 -67l-459 514z" />
    <glyph glyph-name="equal" unicode="=" 
d="M897 625v-185h-717v185h717zM897 995v-184h-717v184h717z" />
    <glyph glyph-name="greater" unicode="&#x3e;" 
d="M250 1280l149 66l441 -496l-459 -514l-148 67l406 447z" />
    <glyph glyph-name="question" unicode="?" horiz-adv-x="999" 
d="M524 0h-184v217h184v-217zM641 1651q113 0 193 -80t79 -193v-231q0 -102 -68 -189q-69 -86 -181 -86h-50q-90 -4 -90 -94v-379h-184v379q0 125 75 201t197 78h52q27 1 46 27t19 63v231q0 39 -24 64q-25 25 -64 24h-283q-40 0 -64 -24t-24 -64v-213h-184v213q0 113 80 193
t192 80h283z" />
    <glyph glyph-name="at" unicode="@" horiz-adv-x="1658" 
d="M702 856q-40 0 -64 -25t-24 -63v-432q0 -12 13 -12q49 0 150 38t177 76l78 37v293q0 51 -21 70q-22 18 -67 18h-242zM1081 1298q187 0 319 -132t132 -318v-436q0 -100 -72 -171t-172 -71h-256v117q-297 -147 -392 -147q-94 0 -152 56q-58 58 -58 140v432q0 113 80 193
t192 79h242q113 0 193 -80t80 -192v-414h63q24 0 46 16t22 42v436q0 106 -80 186t-187 80h-501q-109 0 -188 -80t-79 -186v-529q0 -106 79 -186t188 -80h374v-184h-374q-186 0 -319 132q-132 132 -132 318v529q0 188 132 319t319 131h501z" />
    <glyph glyph-name="A" unicode="A" horiz-adv-x="1105" 
d="M629 1454h-150q-18 0 -20 -27l-142 -845h474l-142 845q-6 27 -20 27zM717 1638q31 0 57 -22t31 -47l266 -1569h-184l-66 397h-534l-66 -397h-184l266 1569q4 27 31 49t57 20h326z" />
    <glyph glyph-name="B" unicode="B" horiz-adv-x="1130" 
d="M766 184q63 0 63 62v364q0 43 -24 90q-25 47 -64 64h-397v-580h422zM813 1094v299q0 27 -15 45t-44 18h-410v-508h399q70 31 70 146zM754 1638q102 0 174 -72t71 -173v-295q0 -78 -44 -145t-113 -97q76 -30 124 -96t48 -150v-364q0 -102 -73 -174t-173 -72h-608v1638h594
z" />
    <glyph glyph-name="C" unicode="C" horiz-adv-x="1099" 
d="M129 1356q0 123 86 209t209 86h264q123 0 209 -86t86 -209v-258h-184v258q0 49 -31 80t-80 30h-264q-49 0 -80 -30t-31 -80v-1082q0 -50 31 -80t80 -30h268q79 0 93 32q14 26 14 78v324h184v-324q0 -122 -86 -208t-209 -86h-264q-123 0 -209 86t-86 208v1082z" />
    <glyph glyph-name="D" unicode="D" horiz-adv-x="1140" 
d="M719 184q49 0 80 31t30 80v1061q1 46 -29 72t-81 26h-375v-1270h375zM719 1638q125 0 210 -80t85 -202v-1061q0 -123 -86 -209t-209 -86h-559v1638h559z" />
    <glyph glyph-name="E" unicode="E" horiz-adv-x="970" 
d="M891 1638v-184h-547v-459h492v-184h-492v-627h547v-184h-731v1638h731z" />
    <glyph glyph-name="F" unicode="F" horiz-adv-x="915" 
d="M893 1638v-204h-549v-439h492v-184h-492v-811h-184v1638h733z" />
    <glyph glyph-name="G" unicode="G" horiz-adv-x="1089" 
d="M129 1356q0 123 86 209t209 86h256q123 0 209 -86t86 -209v-258h-184v258q0 49 -31 80t-80 30h-256q-49 0 -80 -30t-31 -80v-1082q0 -50 31 -80t80 -30h256q111 0 111 110v385h-293v185h477v-570q0 -122 -86 -208t-209 -86h-256q-123 0 -209 86t-86 208v1082z" />
    <glyph glyph-name="H" unicode="H" horiz-adv-x="1165" 
d="M344 1638v-643h479v643h185v-1638h-185v813h-479v-813h-184v1638h184z" />
    <glyph glyph-name="I" unicode="I" horiz-adv-x="524" 
d="M354 1638v-1638h-184v1638h184z" />
    <glyph glyph-name="J" unicode="J" horiz-adv-x="1019" 
d="M229 598v-324q0 -50 31 -80t80 -30h258q49 0 80 31t31 79v1364h184v-1364q0 -122 -86 -208t-209 -86h-258q-123 0 -209 86t-86 208v324h184z" />
    <glyph glyph-name="K" unicode="K" horiz-adv-x="1157" 
d="M342 1638v-643h254l346 643h193l-385 -725v-18l385 -895h-193l-346 813h-254v-813h-182v1638h182z" />
    <glyph glyph-name="L" unicode="L" horiz-adv-x="903" 
d="M342 1638v-1454h547v-184h-729v1638h182z" />
    <glyph glyph-name="M" unicode="M" horiz-adv-x="1548" 
d="M559 1638l215 -1187l213 1187h365l61 -1638h-184l-60 1454h-20l-291 -1434h-168l-287 1434h-20l-61 -1454h-185l64 1638h358z" />
    <glyph glyph-name="N" unicode="N" horiz-adv-x="1234" 
d="M891 184v1454h184v-1638h-327l-388 1454h-16v-1454h-184v1638h329l383 -1454h19z" />
    <glyph glyph-name="O" unicode="O" horiz-adv-x="1110" 
d="M313 274q0 -50 31 -80t80 -30h264q49 0 80 31t31 79v1082q0 49 -31 80t-80 30h-264q-49 0 -80 -30t-31 -80v-1082zM129 1356q0 123 86 209t209 86h264q123 0 209 -86t86 -209v-1082q0 -122 -86 -208t-209 -86h-264q-123 0 -209 86t-86 208v1082z" />
    <glyph glyph-name="P" unicode="P" horiz-adv-x="1062" 
d="M711 885q49 1 80 31t30 79v361q1 46 -29 72t-81 26h-367v-569h367zM711 1638q125 0 210 -80t85 -202v-361q0 -123 -86 -209t-209 -86h-367v-700h-184v1638h551z" />
    <glyph glyph-name="Q" unicode="Q" horiz-adv-x="1110" 
d="M799 1356q0 49 -31 80t-80 30h-264q-49 0 -80 -30t-31 -80v-1082q0 -50 31 -80t80 -30h41v227h184v-227h39q49 0 80 31t31 79v1082zM688 1651q123 0 209 -86t86 -209v-1082q0 -122 -86 -208t-209 -86h-39v-291h-184v291h-41q-123 0 -209 86t-86 208v1082q0 123 86 209
t209 86h264z" />
    <glyph glyph-name="R" unicode="R" horiz-adv-x="1130" 
d="M813 1094v299q0 27 -19 45t-49 18h-401v-508h399q70 31 70 146zM754 1638q102 0 174 -72t71 -173v-295q0 -78 -44 -145t-113 -97q76 -30 124 -96t48 -150v-610h-185v610q0 115 -88 154h-397v-764h-184v1638h594z" />
    <glyph glyph-name="S" unicode="S" horiz-adv-x="1050" 
d="M287 578v-304q1 -50 31 -80t79 -30h244q49 0 80 31t31 79v158q0 151 -104 249q-78 72 -218 150q-8 4 -12 8t-19 9q-285 164 -284 395v113q0 123 86 209t209 86h243q123 0 209 -86t86 -209h-184q0 49 -31 80t-80 30h-243q-49 0 -80 -30t-31 -80v-113q-1 -47 17 -75
q18 -30 28 -44t34 -33t36 -29t45 -32q33 -20 45 -28t49 -27q37 -20 47 -27q336 -190 336 -516v-158q0 -122 -86 -208t-209 -86h-244q-123 0 -209 86t-86 208v304h185z" />
    <glyph glyph-name="T" unicode="T" horiz-adv-x="929" 
d="M16 1454v184h899v-184h-358v-1454h-184v1454h-357z" />
    <glyph glyph-name="U" unicode="U" horiz-adv-x="1130" 
d="M322 1638v-1364q0 -50 30 -80t80 -30h266q49 0 80 31t31 79v1364h184v-1364q0 -122 -86 -208t-209 -86h-266q-123 0 -209 86t-86 208v1364h185z" />
    <glyph glyph-name="V" unicode="V" horiz-adv-x="1107" 
d="M627 164q14 0 20 26l242 1448h184l-270 -1589q-4 -27 -31 -49t-57 -20h-322q-31 0 -57 22t-31 47l-268 1589h188l236 -1448q4 -27 20 -26h146z" />
    <glyph glyph-name="W" unicode="W" horiz-adv-x="1724" 
d="M322 1638v-1364q0 -50 30 -80t80 -30h146q82 0 137 70t55 143v1261h184v-1261q0 -72 56 -143t137 -70h143q49 0 80 31t31 79v1364h184v-1364q0 -122 -86 -208t-209 -86h-143q-102 0 -180 60t-105 155q-27 -94 -104 -155q-78 -60 -180 -60h-146q-123 0 -209 86t-86 208
v1364h185z" />
    <glyph glyph-name="X" unicode="X" horiz-adv-x="1024" 
d="M987 0h-188l-287 727l-287 -727h-188l364 891l-311 747h193l229 -596l229 596h193l-313 -745z" />
    <glyph glyph-name="Y" unicode="Y" horiz-adv-x="1107" 
d="M705 457h-58v-457h-182v457h-53q-37 0 -68 19t-35 48l-272 1114h188l240 -972q4 -27 20 -27h148q14 0 20 27l236 972h184l-264 -1114q-8 -29 -38 -48t-66 -19z" />
    <glyph glyph-name="Z" unicode="Z" horiz-adv-x="995" 
d="M61 1454v184h873l-588 -1454h588v-184h-873l592 1454h-592z" />
    <glyph glyph-name="bracketleft" unicode="[" horiz-adv-x="626" 
d="M612 1782v-185h-268v-1556h268v-184h-452v1925h452z" />
    <glyph glyph-name="backslash" unicode="\" horiz-adv-x="765" 
d="M205 1638l547 -1638h-193l-543 1638h189z" />
    <glyph glyph-name="bracketright" unicode="]" horiz-adv-x="626" 
d="M285 1597h-269v185h453v-1925h-453v184h269v1556z" />
    <glyph glyph-name="asciicircum" unicode="^" 
d="M588 1608l254 -303h-164l-137 159h-6l-138 -159h-164l254 303h101z" />
    <glyph glyph-name="underscore" unicode="_" horiz-adv-x="944" 
d="M930 -211h-914v182h914v-182z" />
    <glyph glyph-name="grave" unicode="`" horiz-adv-x="704" 
d="M256 1567l207 -269h-178l-207 269h178z" />
    <glyph glyph-name="a" unicode="a" horiz-adv-x="985" 
d="M254 258q0 -92 27 -92q36 0 303 108l88 37v256l-357 -84q-39 -16 -50 -52t-11 -112v-61zM70 358q0 140 51 202t151 95l400 86v152q0 90 -111 90h-149q-113 0 -113 -90v-39h-184v39q0 123 88 199t209 75h149q121 -1 208 -75t87 -197v-895h-184v127q-296 -147 -392 -147
t-153 57t-57 139v182z" />
    <glyph glyph-name="b" unicode="b" horiz-adv-x="1032" 
d="M729 926q0 55 -29 55q-45 0 -389 -145v-584q0 -41 24 -65t64 -23h242q39 0 64 24t24 62v676zM127 252v1198h2v117h184v-547q311 147 403 148t144 -56q51 -57 53 -141v-719q-2 -115 -82 -194t-192 -78h-240q-115 -2 -193 78t-79 194z" />
    <glyph glyph-name="c" unicode="c" horiz-adv-x="964" 
d="M119 895q0 113 80 193t192 79h242q113 0 193 -80t79 -192v-154h-184v154q0 39 -25 63t-63 25h-242q-39 0 -63 -25t-25 -63v-643q0 -39 25 -64t63 -24h242q39 0 63 24t25 64v147h184v-147q0 -113 -80 -193t-192 -79h-242q-113 0 -193 80t-79 192v643z" />
    <glyph glyph-name="d" unicode="d" horiz-adv-x="1042" 
d="M719 895q0 41 -24 65t-62 23h-242q-39 0 -65 -25t-25 -61v-676q0 -55 31 -55q43 0 387 145v584zM905 1438h-2v-1438h-184v127q-317 -147 -407 -147t-142 56q-51 56 -53 140v719q2 115 82 194t192 78h240q49 0 88 -12v293h2v117h184v-127z" />
    <glyph glyph-name="e" unicode="e" horiz-adv-x="987" 
d="M721 895q0 39 -25 63t-63 25h-242q-39 0 -63 -25t-25 -63v-164h418v164zM119 895q0 113 80 193t192 79h242q113 0 193 -80t79 -192v-348h-602v-295q0 -39 25 -64t63 -24h242q39 0 63 24t25 64v147h184v-147q0 -113 -80 -193t-192 -79h-242q-113 0 -193 80t-79 192v643z
" />
    <glyph glyph-name="f" unicode="f" horiz-adv-x="595" 
d="M455 1382q-41 0 -66 -24t-24 -64v-147h219v-182h-219v-1010q0 -113 -80 -193t-197 -79v184q41 1 66 25t24 63v1010h-153v182h153v147q0 113 80 193t193 80h145v-185h-141z" />
    <glyph glyph-name="g" unicode="g" horiz-adv-x="1032" 
d="M303 307q0 -12 12 -12q49 0 151 43t177 84l78 43v432q0 41 -25 65t-63 23h-242q-39 1 -63 -23t-25 -65v-590zM305 -47q0 -39 24 -64t64 -24h242q41 1 65 25t23 63v313q-299 -156 -408 -155q-82 0 -139 57t-57 139v590q0 113 80 193t192 79h242q113 1 193 -79t79 -193
v-948q0 -113 -78 -191t-192 -77h-242q-115 -1 -193 79t-79 193v45h184v-45z" />
    <glyph glyph-name="h" unicode="h" horiz-adv-x="1052" 
d="M716 1165q95 0 152 -57t58 -139v-969h-185v913q0 66 -26 66q-39 0 -303 -111l-88 -34v-834h-185v1567h185v-547q297 145 392 145z" />
    <glyph glyph-name="i" unicode="i" horiz-adv-x="569" 
d="M334 252q0 -39 24 -64t66 -24h98v-184h-102q-113 0 -193 80t-80 192v895h187v-895zM334 1567v-217h-184v217h184z" />
    <glyph glyph-name="j" unicode="j" horiz-adv-x="534" 
d="M387 1147v-1194q0 -113 -80 -193t-192 -79h-127v184h123q41 1 65 25t25 63v1194h186zM383 1567v-217h-186v217h186z" />
    <glyph glyph-name="k" unicode="k" horiz-adv-x="995" 
d="M322 526v-526h-183v1567h183v-858h165l263 438h204l-303 -520v-19l344 -608h-215l-293 526h-165z" />
    <glyph glyph-name="l" unicode="l" horiz-adv-x="567" 
d="M522 164v-184h-102q-113 0 -193 80t-80 192v1313h185v-418h2v-895q0 -39 24 -64t66 -24h98z" />
    <glyph glyph-name="m" unicode="m" horiz-adv-x="1538" 
d="M324 1147v-135q240 152 348 151q66 0 118 -42t70 -105v-2q51 42 178 98q126 55 192 55t124 -58t57 -140v-969h-182v887q0 88 -29 88q-18 0 -102 -35t-158 -72l-74 -34v-834h-182v879q0 92 -27 92q-38 0 -260 -111l-73 -35v-825h-185v1147h185z" />
    <glyph glyph-name="n" unicode="n" horiz-adv-x="1052" 
d="M324 1147v-127q297 145 392 145t152 -57t58 -139v-969h-185v913q0 66 -26 66q-39 0 -303 -111l-88 -34v-834h-185v1147h185z" />
    <glyph glyph-name="o" unicode="o" horiz-adv-x="1021" 
d="M303 252q0 -39 25 -64t63 -24h242q45 0 67 17t21 71v643q0 39 -25 63t-63 25h-242q-39 0 -63 -25t-25 -63v-643zM119 895q0 113 80 193t192 79h242q113 0 193 -80t79 -192v-643q0 -113 -80 -193t-192 -79h-242q-113 0 -193 80t-79 192v643z" />
    <glyph glyph-name="p" unicode="p" horiz-adv-x="1042" 
d="M741 926q0 55 -30 55q-43 0 -387 -145v-584q0 -41 24 -65t62 -23h241q39 0 65 24t25 62v676zM731 1167q90 0 141 -56t54 -140v-719q-2 -115 -82 -194t-193 -78h-239q-47 0 -88 12v-293h-185v1448h185v-127q317 147 407 147z" />
    <glyph glyph-name="q" unicode="q" horiz-adv-x="1032" 
d="M303 223q0 -55 29 -55q45 0 389 145v584q0 41 -24 65t-64 23h-242q-39 -1 -63 -25t-25 -61v-676zM905 897v-1198h-184v430q-311 -147 -405 -148t-144 56q-51 57 -53 141v719q2 115 82 194t192 78h240q115 3 193 -77t79 -195z" />
    <glyph glyph-name="r" unicode="r" horiz-adv-x="972" 
d="M324 1147v-127q297 145 392 145t152 -57t58 -139v-205h-185v123q0 92 -26 92q-39 0 -303 -111l-88 -34v-834h-185v1147h185z" />
    <glyph glyph-name="s" unicode="s" horiz-adv-x="983" 
d="M283 434v-182q1 -39 25 -64t63 -24h241q41 0 66 24t24 64v49q0 59 -56 102t-232 132t-246 157t-70 168v35q0 113 80 193t193 79h241q113 0 193 -80t80 -192v-41h-185v41q0 39 -24 63t-64 25h-241q-39 0 -64 -25t-24 -63v-21q0 -51 85 -103q26 -15 44 -27t54 -31
q36 -20 60 -35q211 -106 285 -179t74 -177v-70q0 -113 -80 -193t-193 -79h-241q-113 0 -193 80t-80 192v182h185z" />
    <glyph glyph-name="t" unicode="t" horiz-adv-x="692" 
d="M381 965v-713q0 -39 25 -64t65 -24h98v-184h-102q-113 0 -193 80t-79 192v713h-179v182h179v295h186v-295h295v-182h-295z" />
    <glyph glyph-name="u" unicode="u" horiz-adv-x="1052" 
d="M337 -18q-95 0 -153 57q-57 57 -57 139v969h184v-914q0 -66 27 -65q39 0 303 108l88 37v834h184v-1147h-184v127q-297 -145 -392 -145z" />
    <glyph glyph-name="v" unicode="v" horiz-adv-x="933" 
d="M530 164q14 0 21 26l154 955h184l-182 -1096q-4 -27 -31 -49t-58 -20h-296q-31 0 -58 22t-31 47l-186 1096h189l153 -955q4 -27 21 -26h120z" />
    <glyph glyph-name="w" unicode="w" horiz-adv-x="1570" 
d="M1444 1147v-873q0 -126 -76 -210t-197 -84h-122q-92 0 -164 54t-99 146q-26 -92 -98 -146t-164 -54h-123q-121 0 -197 85t-75 209v873h184v-873q0 -111 88 -110h123q76 0 123 55t47 158v770h185v-770q0 -101 47 -157t123 -56h122q88 0 89 110v873h184z" />
    <glyph glyph-name="x" unicode="x" horiz-adv-x="970" 
d="M106 1147h199l184 -356l195 356h199l-297 -533l338 -614h-199l-236 436l-243 -436h-199l346 614z" />
    <glyph glyph-name="y" unicode="y" horiz-adv-x="913" 
d="M399 164h121q14 0 21 26l153 955h185l-244 -1464h-176l47 299h-195q-31 0 -57 22t-31 47l-186 1096h188l154 -955q0 -26 20 -26z" />
    <glyph glyph-name="z" unicode="z" horiz-adv-x="917" 
d="M74 963v184h768v-184l-568 -781h574v-182h-778v184l565 779h-561z" />
    <glyph glyph-name="braceleft" unicode="{" horiz-adv-x="555" 
d="M414 1489v-385q0 -148 -38 -206t-122 -62v-33q86 -5 123 -61t37 -207v-385q0 -69 19 -80q7 -4 24 -9v-184q-94 10 -161 79t-67 194v385q0 125 -41 165t-118 41v156q78 0 118 41t41 166v385q0 125 67 193t161 79v-184q-43 -10 -43 -88z" />
    <glyph glyph-name="bar" unicode="|" horiz-adv-x="501" 
d="M344 1741v-1843h-184v1843h184z" />
    <glyph glyph-name="braceright" unicode="}" horiz-adv-x="555" 
d="M326 1489v-385q0 -125 41 -166t118 -41v-156q-79 0 -119 -41t-40 -165v-385q0 -125 -67 -194t-161 -79v184q16 5 24 9q20 12 19 80v385q0 151 37 207t123 61v33q-84 4 -122 62t-38 206v385q0 78 -43 88v184q94 -10 161 -79t67 -193z" />
    <glyph glyph-name="asciitilde" unicode="~" 
d="M687 1456q54 0 108 57l10 -155q-55 -66 -115 -66t-152 36q-91 36 -148 36t-107 -55l-11 155q54 64 116 64t154 -36t145 -36z" />
    <glyph glyph-name="DEL" horiz-adv-x="1024" 
 />
    <glyph glyph-name="exclamdown" unicode="&#xa1;" horiz-adv-x="501" 
d="M158 942h184v-1208h-184v1208zM158 1364h184v-217h-184v217z" />
    <glyph glyph-name="cent" unicode="&#xa2;" 
d="M442 385v819h-18q-45 0 -71 -24t-25 -64v-643q0 -41 24 -65t62 -23h28zM748 963v153q0 39 -24 64t-60 24h-37v-821h30q41 0 66 25t25 65v148h184v-148q0 -115 -81 -195t-196 -79h-28v-199h-185v201h-26q-113 0 -193 80t-80 192v643q0 113 80 192t195 78h24v181h185v-181
h32q113 0 193 -78t80 -192v-153h-184z" />
    <glyph glyph-name="sterling" unicode="&#xa3;" 
d="M1047 184v-184h-1006v184h287q-109 53 -109 176v379h-178v185h178v370q0 123 86 209t209 86h229q123 0 209 -86t86 -209v-196h-184v196q0 49 -31 80t-80 31h-229q-49 0 -80 -31t-31 -80v-370h238v-185h-238v-379q0 -94 162 -176h482z" />
    <glyph glyph-name="currency" unicode="&#xa4;" 
d="M823 1036v258q0 49 -30 80q-31 31 -80 31h-240q-49 0 -80 -31t-31 -80v-299h369v-143h-369v-74h369v-143h-369v-361q0 -50 31 -80t80 -30h240q57 0 82 26t24 84v324h189v-324q0 -122 -86 -208t-209 -86h-240q-123 0 -209 86t-86 208v361h-112v143h112v74h-112v143h112
v299q0 123 86 209t209 86h240q123 0 209 -86t86 -209v-258h-185z" />
    <glyph glyph-name="yen" unicode="&#xa5;" 
d="M629 502h295v-144h-295v-73h295v-144h-295v-141h-183v141h-305v144h305v73h-305v144h305v96h-55q-31 0 -57 22t-31 48l-272 901h188l240 -760q10 -27 20 -27h123q12 0 21 27l235 762h184l-264 -903q-6 -26 -32 -48t-56 -22h-61v-96z" />
    <glyph glyph-name="brokenbar" unicode="&#xa6;" horiz-adv-x="481" 
d="M324 696v-798h-164v798h164zM324 1741v-799h-164v799h164z" />
    <glyph glyph-name="section" unicode="&#xa7;" horiz-adv-x="1042" 
d="M731 631q0 53 -62 100q-61 47 -187 105t-165 82q-4 -20 -4 -31v-25q0 -37 74 -83q75 -46 185 -101t157 -90q2 6 2 24v19zM731 1171v41q0 41 -23 65q-24 24 -65 23h-242q-41 0 -65 -24t-23 -64v-32q1 -40 95 -98t206 -112t207 -146q94 -92 94 -193v-62q0 -76 -38 -137
q39 -59 38 -119v-61q1 -113 -79 -193t-193 -79h-242q-113 0 -193 80t-79 192v182h184v-182q0 -39 24 -64t64 -24h242q41 0 65 24t23 64v61q0 86 -213 189q-88 43 -176 90t-151 118q-62 71 -62 152v33q0 86 45 154q-45 66 -45 131v32q0 115 79 194t193 79h242q115 0 194 -79
t78 -194v-41h-184z" />
    <glyph glyph-name="dieresis" unicode="&#xa8;" horiz-adv-x="604" 
d="M424 1298q-39 0 -68 28q-28 28 -28 68t28 68t68 29q38 0 66 -29q28 -28 28 -68t-28 -68t-66 -28zM187 1298q-39 0 -67 28t-28 68t28 68t66 29q38 0 69 -29q30 -28 30 -68t-29 -68t-69 -28z" />
    <glyph glyph-name="copyright" unicode="&#xa9;" horiz-adv-x="1288" 
d="M313 836q1 61 61 102t150 41h242q90 0 150 -41t61 -102v-115h-164v53q0 27 -19 44t-49 18h-200q-29 0 -48 -18t-20 -44v-405q-1 -27 19 -44t49 -18h203q29 -1 47 17t18 45v49h164v-111q-1 -61 -61 -102t-150 -41h-242q-90 0 -150 41t-61 102v529zM272 307q0 -78 69 -131
t183 -53h242q116 0 184 53t68 131v529q0 86 -72 135t-180 49h-242q-116 0 -184 -53t-68 -131v-529zM129 836q0 137 115 232t280 95h242q166 0 281 -95t114 -232v-529q-1 -137 -115 -232t-280 -95h-242q-166 0 -280 95t-115 232v529z" />
    <glyph glyph-name="ordfeminine" unicode="&#xaa;" horiz-adv-x="847" 
d="M721 645h-592v141h592v-141zM272 1112v-80q0 -28 31 -28t213 55l62 18v117l-279 -41q-27 -8 -27 -41zM176 1421q0 88 76 126t186 38t186 -39q77 -39 76 -125v-536h-122v61q-254 -74 -306 -74t-88 35q-35 35 -34 84v121q0 95 56 128q22 13 62 30l310 49v102q0 41 -140 41
t-139 -41v-24h-123v24z" />
    <glyph glyph-name="guillemotleft" unicode="&#xab;" horiz-adv-x="1157" 
d="M1030 721l-323 -232l323 -231l-149 -70l-412 301l412 302zM641 721l-324 -232l324 -231l-149 -70l-412 301l412 302z" />
    <glyph glyph-name="logicalnot" unicode="&#xac;" 
d="M985 770v-412h-182v230h-713v182h895z" />
    <glyph glyph-name="registered" unicode="&#xae;" horiz-adv-x="1091" 
d="M453 1292v-108h165q31 0 31 24v58q0 27 -31 26h-165zM674 1425q41 1 76 -29t34 -69v-119q0 -68 -63 -96q68 -25 67 -98v-244h-133v244q0 10 -14 18t-23 8h-165v-270h-134v655h355zM432 1479q-55 0 -107 -41t-53 -113v-475q0 -72 52 -113t108 -41h230q55 0 107 41t52 113
v475q0 72 -52 113t-107 41h-230zM662 1622q127 0 215 -86t88 -211v-475q0 -125 -88 -211t-215 -86h-230q-127 0 -215 86t-88 211v475q0 125 88 211t215 86h230z" />
    <glyph glyph-name="macron" unicode="&#xaf;" horiz-adv-x="645" 
d="M549 1466v-141h-451v141h451z" />
    <glyph glyph-name="degree" unicode="&#xb0;" horiz-adv-x="866" 
d="M360 1403q-36 0 -62 -26t-26 -62v-49q0 -37 26 -63t62 -25h148q36 0 62 26t26 62v49q0 37 -26 63t-62 25h-148zM508 1546q94 0 163 -68t68 -163v-49q-1 -94 -69 -163t-162 -69h-148q-94 0 -162 69t-69 163v49q0 94 69 163t162 68h148z" />
    <glyph glyph-name="plusminus" unicode="&#xb1;" 
d="M897 401v-182h-717v182h717zM180 743v201h256v234h203v-234h258v-201h-258v-282h-203v282h-256z" />
    <glyph glyph-name="twosuperior" unicode="&#xb2;" horiz-adv-x="796" 
d="M467 1579q70 0 120 -50t50 -122v-43q1 -70 -21 -109t-34 -63t-52 -67q-40 -42 -57 -57t-37 -36q-66 -49 -94 -83t-35 -77h330v-145h-477v123q0 108 45 160t117 114q121 113 146 160t26 80v43q0 27 -27 27h-125q-29 0 -29 -50v-16h-143v16q0 80 50 138t122 57h125z" />
    <glyph glyph-name="threesuperior" unicode="&#xb3;" horiz-adv-x="753" 
d="M463 862q26 0 29 25v178q0 35 -28 50t-61 15h-174v125h141q114 0 113 62v102q0 9 -7 17t-21 8h-164q-13 0 -21 -8t-8 -17v-26h-133v47q0 57 45 97t105 40h188q59 0 105 -40t46 -97v-123q0 -84 -61 -123q70 -39 70 -129v-199q0 -55 -47 -96t-105 -41h-188q-57 0 -104 41
q-46 41 -46 96v191h133v-170q0 -9 8 -17t21 -8h164z" />
    <glyph glyph-name="acute" unicode="&#xb4;" horiz-adv-x="704" 
d="M668 1567l-207 -269h-178l206 269h179z" />
    <glyph glyph-name="paragraph" unicode="&#xb6;" horiz-adv-x="1302" 
d="M391 1456q-39 0 -63 -24t-25 -66v-643q0 -39 25 -64t63 -24h184v821h-184zM1145 -307h-184v1763h-201v-1763h-185v758h-184q-113 -1 -193 79t-79 193v643q0 113 80 193t192 79h754v-1945z" />
    <glyph glyph-name="periodcentered" unicode="&#xb7;" horiz-adv-x="458" 
d="M229 494q-41 0 -71 30t-29 70q0 41 30 72q31 30 71 30t71 -30t31 -72q0 -40 -31 -70t-72 -30z" />
    <glyph glyph-name="cedilla" unicode="&#xb8;" horiz-adv-x="892" 
d="M723 -298q0 -91 -73 -160t-185 -68q-70 0 -168 61l72 113q61 -31 105 -31t75 27q31 28 31 66t-26 67t-67 28h-108l35 250h147l-24 -110q82 -18 134 -85t52 -158z" />
    <glyph glyph-name="onesuperior" unicode="&#xb9;" horiz-adv-x="552" 
d="M393 737h-153v695h-80v135h233v-830z" />
    <glyph glyph-name="ordmasculine" unicode="&#xba;" horiz-adv-x="849" 
d="M723 645h-594v141h594v-141zM324 1442q-8 0 -20 -10t-11 -21v-364q0 -11 11 -21t20 -10h202q8 0 20 9q11 9 11 22v364q0 11 -10 21t-19 10h-204zM537 1585q67 0 115 -47t48 -117v-385q0 -68 -48 -116t-115 -48h-224q-71 0 -117 48t-46 116v385q0 70 47 117t116 47h224z
" />
    <glyph glyph-name="guillemotright" unicode="&#xbb;" horiz-adv-x="1157" 
d="M518 721l150 70l411 -302l-411 -301l-150 70l324 231zM129 721l150 70l411 -302l-411 -301l-150 70l324 231z" />
    <glyph glyph-name="onequarter" unicode="&#xbc;" horiz-adv-x="1343" 
d="M1040 324v383h-30l-176 -383h206zM1176 324h41v-136h-41v-188h-136v188h-426l312 650h250v-514zM362 737h-153v695h-80v135h233v-830zM385 0h-160l633 1634h158z" />
    <glyph glyph-name="onehalf" unicode="&#xbd;" horiz-adv-x="1370" 
d="M1073 852q70 0 120 -50t50 -122v-43q1 -70 -21 -109t-29 -53q-29 -59 -128 -148q-21 -19 -55 -45q-84 -63 -97 -137h330v-145h-477v123q0 108 45 160t117 114q121 113 146 160t26 80v43q0 27 -27 27h-125q-29 0 -28 -50v-16h-144v16q0 79 50 137t122 58h125zM362 737
h-153v695h-80v135h233v-830zM385 0h-160l633 1634h158z" />
    <glyph glyph-name="threequarters" unicode="&#xbe;" horiz-adv-x="1503" 
d="M1200 707h-31l-176 -383h207v383zM1374 324v-136h-39v-188h-135v188h-426l311 650h250v-514h39zM463 862q26 0 29 25v178q0 35 -28 50t-61 15h-174v125h141q114 0 113 62v102q0 9 -7 17t-21 8h-164q-13 0 -21 -8t-8 -17v-26h-133v47q0 57 45 97t105 40h188q59 0 105 -40
t46 -97v-123q0 -84 -61 -123q70 -39 70 -129v-199q0 -55 -47 -96t-105 -41h-188q-57 0 -104 41q-46 41 -46 96v191h133v-170q0 -9 8 -17t21 -8h164zM1176 1634l-631 -1634h-160l631 1634h160z" />
    <glyph glyph-name="questiondown" unicode="&#xbf;" horiz-adv-x="999" 
d="M358 -340q-112 0 -192 80t-80 192v232q0 102 69 188t181 86h49q90 4 90 94v379h184v-379q-1 -124 -75 -200t-197 -78h-51q-27 0 -46 -27t-20 -63v-232q0 -40 25 -64t63 -24h283q39 0 64 25t24 63v213h184v-213q1 -112 -79 -192t-193 -80h-283zM659 1311v-217h-184v217
h184z" />
    <glyph glyph-name="Agrave" unicode="&#xc0;" horiz-adv-x="1105" 
d="M629 1454h-150q-18 0 -20 -27l-142 -845h474l-142 845q-6 27 -20 27zM717 1638q31 0 57 -22t31 -47l266 -1569h-184l-66 397h-534l-66 -397h-184l266 1569q4 27 31 49t57 20h326zM438 2058l207 -268h-178l-207 268h178z" />
    <glyph glyph-name="Aacute" unicode="&#xc1;" horiz-adv-x="1105" 
d="M629 1454h-150q-18 0 -20 -27l-142 -845h474l-142 845q-6 27 -20 27zM717 1638q31 0 57 -22t31 -47l266 -1569h-184l-66 397h-534l-66 -397h-184l266 1569q4 27 31 49t57 20h326zM856 2058l-207 -268h-178l207 268h178z" />
    <glyph glyph-name="Acircumflex" unicode="&#xc2;" horiz-adv-x="1105" 
d="M629 1454h-150q-18 0 -20 -27l-142 -845h474l-142 845q-6 27 -20 27zM717 1638q31 0 57 -22t31 -47l266 -1569h-184l-66 397h-534l-66 -397h-184l266 1569q4 27 31 49t57 20h326zM604 2099l254 -303h-164l-137 160h-6l-137 -160h-164l254 303h100z" />
    <glyph glyph-name="Atilde" unicode="&#xc3;" horiz-adv-x="1105" 
d="M629 1454h-150q-18 0 -20 -27l-142 -845h474l-142 845q-6 27 -20 27zM717 1638q31 0 57 -22t31 -47l266 -1569h-184l-66 397h-534l-66 -397h-184l266 1569q4 27 31 49t57 20h326zM404 2019q62 0 154 -36q91 -35 145 -35t108 57l10 -156q-55 -65 -115 -65t-152 36t-148 36
t-107 -56l-10 156q53 63 115 63z" />
    <glyph glyph-name="Adieresis" unicode="&#xc4;" horiz-adv-x="1105" 
d="M629 1454h-150q-18 0 -20 -27l-142 -845h474l-142 845q-6 27 -20 27zM717 1638q31 0 57 -22t31 -47l266 -1569h-184l-66 397h-534l-66 -397h-184l266 1569q4 27 31 49t57 20h326zM674 1790q-39 0 -68 28q-28 28 -28 68t28 68q29 28 68 28q38 0 66 -28t28 -69
q0 -39 -28 -67t-66 -28zM535 1885q0 -39 -29 -67t-69 -28q-39 0 -67 28t-28 68t28 68t66 28t69 -28q30 -28 30 -69z" />
    <glyph glyph-name="Aring" unicode="&#xc5;" horiz-adv-x="1105" 
d="M629 1454h-150q-18 0 -20 -27l-142 -845h474l-142 845q-6 27 -20 27zM717 1638q31 0 57 -22t31 -47l266 -1569h-184l-66 397h-534l-66 -397h-184l266 1569q4 27 31 49t57 20h326zM555 1851q39 0 67 28t27 67q1 38 -27 66t-67 28t-67 -28t-28 -66t28 -67q28 -28 67 -28z
M555 1710q-98 0 -167 69t-69 167t69 167t167 69t167 -70q69 -68 69 -166t-69 -167t-167 -69z" />
    <glyph glyph-name="AE" unicode="&#xc6;" horiz-adv-x="1552" 
d="M477 1454q-14 0 -20 -27l-138 -845h422v872h-264zM1473 1442h-547v-447h491v-184h-491v-627h547v-184h-732v397h-448l-72 -397h-184l264 1569q4 27 31 49t57 20h1084v-196z" />
    <glyph glyph-name="Ccedilla" unicode="&#xc7;" horiz-adv-x="1099" 
d="M799 1098v258q0 49 -31 80t-80 30h-264q-49 0 -80 -30t-31 -80v-1082q0 -50 31 -80t80 -30h268q79 0 93 32q14 26 14 78v324h184v-324q0 -122 -86 -208t-209 -86h-70l-8 -35q82 -18 134 -85t52 -158t-72 -160q-73 -69 -185 -68q-70 0 -168 61l71 113q62 -31 106 -31
t75 27q31 28 31 66t-26 67t-67 28h-108l24 175h-53q-123 0 -209 86t-86 208v1082q0 123 86 209t209 86h264q123 0 209 -86t86 -209v-258h-184z" />
    <glyph glyph-name="Egrave" unicode="&#xc8;" horiz-adv-x="970" 
d="M891 1454h-547v-459h492v-184h-492v-627h547v-184h-731v1638h731v-184zM416 2058l207 -268h-179l-206 268h178z" />
    <glyph glyph-name="Eacute" unicode="&#xc9;" horiz-adv-x="970" 
d="M891 1454h-547v-459h492v-184h-492v-627h547v-184h-731v1638h731v-184zM834 2058l-207 -268h-178l206 268h179z" />
    <glyph glyph-name="Ecircumflex" unicode="&#xca;" horiz-adv-x="970" 
d="M891 1454h-547v-459h492v-184h-492v-627h547v-184h-731v1638h731v-184zM580 2099l254 -303h-164l-138 160h-6l-137 -160h-164l254 303h101z" />
    <glyph glyph-name="Edieresis" unicode="&#xcb;" horiz-adv-x="970" 
d="M891 1454h-547v-459h492v-184h-492v-627h547v-184h-731v1638h731v-184zM649 1790q-39 0 -67 28t-29 68q0 40 29 68q30 28 68 28t66 -28t28 -69q0 -39 -28 -67t-67 -28zM510 1885q0 -39 -28 -67t-69 -28q-40 0 -68 28t-28 68t28 68t67 28q38 0 68 -28t30 -69z" />
    <glyph glyph-name="Igrave" unicode="&#xcc;" horiz-adv-x="524" 
d="M354 0h-184v1638h184v-1638zM147 2058l207 -268h-178l-207 268h178z" />
    <glyph glyph-name="Iacute" unicode="&#xcd;" horiz-adv-x="524" 
d="M354 0h-184v1638h184v-1638zM565 2058l-207 -268h-178l207 268h178z" />
    <glyph glyph-name="Icircumflex" unicode="&#xce;" horiz-adv-x="524" 
d="M354 0h-184v1638h184v-1638zM311 2099l254 -303h-164l-137 160h-6l-137 -160h-164l254 303h100z" />
    <glyph glyph-name="Idieresis" unicode="&#xcf;" horiz-adv-x="524" 
d="M354 0h-184v1638h184v-1638zM381 1790q-39 0 -68 28t-29 68t29 68t68 28t67 -28t27 -69q1 -39 -27 -67t-67 -28zM242 1885q0 -39 -29 -67t-69 -28t-68 28t-27 68q0 40 28 68q27 28 67 28t69 -28t29 -69z" />
    <glyph glyph-name="Eth" unicode="&#xd0;" horiz-adv-x="1130" 
d="M819 1356q1 46 -29 72t-81 26h-375v-477h256v-182h-256v-611h375q49 0 79 31t31 80v1061zM709 1638q125 0 210 -80t85 -202v-1061q0 -123 -86 -209t-209 -86h-559v795h-105v182h105v661h559z" />
    <glyph glyph-name="Ntilde" unicode="&#xd1;" horiz-adv-x="1234" 
d="M891 184v1454h184v-1638h-327l-388 1454h-16v-1454h-184v1638h329l383 -1454h19zM468 2019q62 0 154 -36q92 -35 145 -35q54 0 107 57l11 -156q-55 -65 -115 -65t-152 36t-148 36t-108 -56l-10 156q54 63 116 63z" />
    <glyph glyph-name="Ograve" unicode="&#xd2;" horiz-adv-x="1110" 
d="M313 274q0 -50 31 -80t80 -30h264q49 0 80 31t31 79v1082q0 49 -31 80t-80 30h-264q-49 0 -80 -30t-31 -80v-1082zM129 1356q0 123 86 209t209 86h264q123 0 209 -86t86 -209v-1082q0 -122 -86 -208t-209 -86h-264q-123 0 -209 86t-86 208v1082zM440 2058l207 -268h-178
l-207 268h178z" />
    <glyph glyph-name="Oacute" unicode="&#xd3;" horiz-adv-x="1110" 
d="M313 274q0 -50 31 -80t80 -30h264q49 0 80 31t31 79v1082q0 49 -31 80t-80 30h-264q-49 0 -80 -30t-31 -80v-1082zM129 1356q0 123 86 209t209 86h264q123 0 209 -86t86 -209v-1082q0 -122 -86 -208t-209 -86h-264q-123 0 -209 86t-86 208v1082zM858 2058l-207 -268h-178
l207 268h178z" />
    <glyph glyph-name="Ocircumflex" unicode="&#xd4;" horiz-adv-x="1110" 
d="M313 274q0 -50 31 -80t80 -30h264q49 0 80 31t31 79v1082q0 49 -31 80t-80 30h-264q-49 0 -80 -30t-31 -80v-1082zM129 1356q0 123 86 209t209 86h264q123 0 209 -86t86 -209v-1082q0 -122 -86 -208t-209 -86h-264q-123 0 -209 86t-86 208v1082zM606 2099l254 -303h-164
l-137 160h-6l-137 -160h-164l254 303h100z" />
    <glyph glyph-name="Otilde" unicode="&#xd5;" horiz-adv-x="1110" 
d="M313 274q0 -50 31 -80t80 -30h264q49 0 80 31t31 79v1082q0 49 -31 80t-80 30h-264q-49 0 -80 -30t-31 -80v-1082zM129 1356q0 123 86 209t209 86h264q123 0 209 -86t86 -209v-1082q0 -122 -86 -208t-209 -86h-264q-123 0 -209 86t-86 208v1082zM406 2019q62 0 154 -36
q91 -35 145 -35t108 57l10 -156q-55 -65 -115 -65t-152 36t-148 36t-107 -56l-10 156q53 63 115 63z" />
    <glyph glyph-name="Odieresis" unicode="&#xd6;" horiz-adv-x="1110" 
d="M313 274q0 -50 31 -80t80 -30h264q49 0 80 31t31 79v1082q0 49 -31 80t-80 30h-264q-49 0 -80 -30t-31 -80v-1082zM129 1356q0 123 86 209t209 86h264q123 0 209 -86t86 -209v-1082q0 -122 -86 -208t-209 -86h-264q-123 0 -209 86t-86 208v1082zM676 1790q-39 0 -68 28
q-28 28 -28 68t28 68q29 28 68 28q38 0 66 -28t28 -69q0 -39 -28 -67t-66 -28zM537 1885q0 -39 -29 -67t-69 -28q-39 0 -67 28t-28 68t28 68t68 28t68 -28q29 -28 29 -69z" />
    <glyph glyph-name="multiply" unicode="&#xd7;" 
d="M410 713l-189 188l129 129l189 -188l188 188l129 -129l-188 -188l206 -205l-129 -129l-206 207l-207 -207l-129 129z" />
    <glyph glyph-name="Oslash" unicode="&#xd8;" horiz-adv-x="1101" 
d="M418 164h264q49 0 80 31t31 79v977l-422 -1079q29 -8 47 -8zM682 1466h-264q-49 0 -80 -30t-31 -80v-959l416 1063q-18 6 -41 6zM977 1356v-1082q0 -122 -86 -208t-209 -86h-264q-59 0 -115 22l-45 -117h-152l80 205q-63 84 -63 184v1082q0 123 86 209t209 86h264
q59 0 106 -21l56 139h151l-88 -223q70 -82 70 -190z" />
    <glyph glyph-name="Ugrave" unicode="&#xd9;" horiz-adv-x="1130" 
d="M322 274q0 -50 30 -80t80 -30h266q49 0 80 31t31 79v1364h184v-1364q0 -122 -86 -208t-209 -86h-266q-123 0 -209 86t-86 208v1364h185v-1364zM451 2058l206 -268h-178l-207 268h179z" />
    <glyph glyph-name="Uacute" unicode="&#xda;" horiz-adv-x="1130" 
d="M322 274q0 -50 30 -80t80 -30h266q49 0 80 31t31 79v1364h184v-1364q0 -122 -86 -208t-209 -86h-266q-123 0 -209 86t-86 208v1364h185v-1364zM868 2058l-206 -268h-179l207 268h178z" />
    <glyph glyph-name="Ucircumflex" unicode="&#xdb;" horiz-adv-x="1130" 
d="M322 274q0 -50 30 -80t80 -30h266q49 0 80 31t31 79v1364h184v-1364q0 -122 -86 -208t-209 -86h-266q-123 0 -209 86t-86 208v1364h185v-1364zM616 2099l254 -303h-163l-138 160h-6l-137 -160h-164l254 303h100z" />
    <glyph glyph-name="Udieresis" unicode="&#xdc;" horiz-adv-x="1130" 
d="M322 274q0 -50 30 -80t80 -30h266q49 0 80 31t31 79v1364h184v-1364q0 -122 -86 -208t-209 -86h-266q-123 0 -209 86t-86 208v1364h185v-1364zM686 1790q-39 0 -68 28q-28 28 -28 68t28 68q29 28 68 28t67 -28q27 -28 27 -69q0 -39 -28 -67t-66 -28zM547 1885
q-1 -39 -29 -67t-68 -28t-68 28t-28 68t28 68t67 28t69 -28t29 -69z" />
    <glyph glyph-name="Yacute" unicode="&#xdd;" horiz-adv-x="1107" 
d="M705 457h-58v-457h-182v457h-53q-37 0 -68 19t-35 48l-272 1114h188l240 -972q4 -27 20 -27h148q14 0 20 27l236 972h184l-264 -1114q-8 -29 -38 -48t-66 -19zM858 2058l-207 -268h-178l207 268h178z" />
    <glyph glyph-name="Thorn" unicode="&#xde;" horiz-adv-x="1077" 
d="M344 1126v-569h367q49 0 80 31t30 80v360q0 47 -29 73q-30 26 -81 25h-367zM344 1311h367q125 0 210 -81t85 -202v-360q0 -123 -86 -209t-209 -86h-367v-373h-184v1620h184v-309z" />
    <glyph glyph-name="germandbls" unicode="&#xdf;" horiz-adv-x="1067" 
d="M657 1585q127 0 202 -63t75 -185v-237q0 -78 -44 -145t-114 -97q76 -26 124 -96t48 -150v-387q0 -119 -80 -182t-209 -63h-219v184h217q106 0 107 61v387q0 46 -48 100t-83 54h-193v184h193q35 0 76 51t41 99v237q0 63 -93 64h-229q-80 0 -80 -64v-1384q0 -113 -79 -193
t-191 -79h-53v184h49q42 1 66 25t24 63v1384q0 121 69 185q70 63 195 63h229z" />
    <glyph glyph-name="agrave" unicode="&#xe0;" horiz-adv-x="985" 
d="M254 258q0 -92 27 -92q36 0 303 108l88 37v256l-357 -84q-39 -16 -50 -52t-11 -112v-61zM70 358q0 140 51 202t151 95l400 86v152q0 90 -111 90h-149q-113 0 -113 -90v-39h-184v39q0 123 88 199t209 75h149q121 -1 208 -75t87 -197v-895h-184v127q-296 -147 -392 -147
t-153 57t-57 139v182zM375 1567l207 -269h-179l-206 269h178z" />
    <glyph glyph-name="aacute" unicode="&#xe1;" horiz-adv-x="985" 
d="M254 258q0 -92 27 -92q36 0 303 108l88 37v256l-357 -84q-39 -16 -50 -52t-11 -112v-61zM70 358q0 140 51 202t151 95l400 86v152q0 90 -111 90h-149q-113 0 -113 -90v-39h-184v39q0 123 88 199t209 75h149q121 -1 208 -75t87 -197v-895h-184v127q-296 -147 -392 -147
t-153 57t-57 139v182zM793 1567l-207 -269h-178l206 269h179z" />
    <glyph glyph-name="acircumflex" unicode="&#xe2;" horiz-adv-x="985" 
d="M254 258q0 -92 27 -92q36 0 303 108l88 37v256l-357 -84q-39 -16 -50 -52t-11 -112v-61zM70 358q0 140 51 202t151 95l400 86v152q0 90 -111 90h-149q-113 0 -113 -90v-39h-184v39q0 123 88 199t209 75h149q121 -1 208 -75t87 -197v-895h-184v127q-296 -147 -392 -147
t-153 57t-57 139v182zM539 1608l254 -303h-164l-137 159h-7l-137 -159h-164l254 303h101z" />
    <glyph glyph-name="atilde" unicode="&#xe3;" horiz-adv-x="985" 
d="M254 258q0 -92 27 -92q36 0 303 108l88 37v256l-357 -84q-39 -16 -50 -52t-11 -112v-61zM70 358q0 140 51 202t151 95l400 86v152q0 90 -111 90h-149q-113 0 -113 -90v-39h-184v39q0 123 88 199t209 75h149q121 -1 208 -75t87 -197v-895h-184v127q-296 -147 -392 -147
t-153 57t-57 139v182zM638 1456q54 0 107 57l11 -155q-56 -66 -116 -66t-152 36t-148 36t-107 -55l-10 155q53 64 115 64t154 -36t146 -36z" />
    <glyph glyph-name="adieresis" unicode="&#xe4;" horiz-adv-x="985" 
d="M254 258q0 -92 27 -92q36 0 303 108l88 37v256l-357 -84q-39 -16 -50 -52t-11 -112v-61zM70 358q0 140 51 202t151 95l400 86v152q0 90 -111 90h-149q-113 0 -113 -90v-39h-184v39q0 123 88 199t209 75h149q121 -1 208 -75t87 -197v-895h-184v127q-296 -147 -392 -147
t-153 57t-57 139v182zM608 1298q-40 0 -68 28t-28 68t29 68t67 29q38 0 67 -29q27 -28 27 -68t-28 -68t-66 -28zM371 1491q39 0 69 -29q30 -28 29 -68t-29 -68t-68 -28t-68 28t-28 68t28 68t67 29z" />
    <glyph glyph-name="aring" unicode="&#xe5;" horiz-adv-x="985" 
d="M254 258q0 -92 27 -92q36 0 303 108l88 37v256l-357 -84q-39 -16 -50 -52t-11 -112v-61zM70 358q0 140 51 202t151 95l400 86v152q0 90 -111 90h-149q-113 0 -113 -90v-39h-184v39q0 123 88 199t209 75h149q121 -1 208 -75t87 -197v-895h-184v127q-296 -147 -392 -147
t-153 57t-57 139v182zM489 1360q39 0 67 28t28 66t-28 67q-28 27 -67 27t-67 -28t-27 -66q-1 -38 27 -66t67 -28zM489 1219q-99 1 -167 69t-68 166t69 167t167 69t166 -69q69 -69 69 -167t-69 -166t-167 -69z" />
    <glyph glyph-name="ae" unicode="&#xe6;" horiz-adv-x="1558" 
d="M270 258q0 -92 27 -92q39 0 303 108l88 37v256l-356 -84q-39 -16 -50 -52t-12 -112v-61zM872 731h418v164q0 39 -24 63t-64 25h-241q-39 -1 -64 -23t-25 -59v-170zM872 547v-299q0 -39 25 -62t64 -22h241q39 0 64 24t24 64v147h185v-147q0 -113 -80 -193t-193 -79h-241
q-84 0 -151 44t-99 115l-23 -12q-297 -147 -392 -147t-153 57q-57 57 -57 139v182q0 96 29 158t66 87q38 26 108 52l399 86v162q-4 78 -113 78h-147q-113 0 -113 -88v-39h-184v39q0 127 88 201t209 73h147q121 0 203 -69q76 70 183 69h241q113 0 193 -80t80 -192v-348h-603z
" />
    <glyph glyph-name="ccedilla" unicode="&#xe7;" horiz-adv-x="964" 
d="M721 741v154q0 39 -25 63t-63 25h-242q-39 0 -63 -25t-25 -63v-643q0 -39 25 -64t63 -24h242q39 0 63 24t25 64v147h184v-147q0 -113 -80 -193t-192 -79h-78l-8 -35q82 -18 134 -85t52 -158t-73 -160t-185 -68q-70 0 -168 61l72 113q61 -31 105 -31t75 27q31 28 31 66
t-26 67t-66 28h-109l25 175h-23q-113 0 -193 80t-79 192v643q0 113 80 193t192 79h242q113 0 193 -80t79 -192v-154h-184z" />
    <glyph glyph-name="egrave" unicode="&#xe8;" horiz-adv-x="987" 
d="M721 895q0 39 -25 63t-63 25h-242q-39 0 -63 -25t-25 -63v-164h418v164zM119 895q0 113 80 193t192 79h242q113 0 193 -80t79 -192v-348h-602v-295q0 -39 25 -64t63 -24h242q39 0 63 24t25 64v147h184v-147q0 -113 -80 -193t-192 -79h-242q-113 0 -193 80t-79 192v643z
M383 1567l207 -269h-178l-207 269h178z" />
    <glyph glyph-name="eacute" unicode="&#xe9;" horiz-adv-x="987" 
d="M721 895q0 39 -25 63t-63 25h-242q-39 0 -63 -25t-25 -63v-164h418v164zM119 895q0 113 80 193t192 79h242q113 0 193 -80t79 -192v-348h-602v-295q0 -39 25 -64t63 -24h242q39 0 63 24t25 64v147h184v-147q0 -113 -80 -193t-192 -79h-242q-113 0 -193 80t-79 192v643z
M801 1567l-207 -269h-178l207 269h178z" />
    <glyph glyph-name="ecircumflex" unicode="&#xea;" horiz-adv-x="987" 
d="M721 895q0 39 -25 63t-63 25h-242q-39 0 -63 -25t-25 -63v-164h418v164zM119 895q0 113 80 193t192 79h242q113 0 193 -80t79 -192v-348h-602v-295q0 -39 25 -64t63 -24h242q39 0 63 24t25 64v147h184v-147q0 -113 -80 -193t-192 -79h-242q-113 0 -193 80t-79 192v643z
M547 1608l254 -303h-164l-137 159h-6l-138 -159h-163l253 303h101z" />
    <glyph glyph-name="edieresis" unicode="&#xeb;" horiz-adv-x="987" 
d="M721 895q0 39 -25 63t-63 25h-242q-39 0 -63 -25t-25 -63v-164h418v164zM119 895q0 113 80 193t192 79h242q113 0 193 -80t79 -192v-348h-602v-295q0 -39 25 -64t63 -24h242q39 0 63 24t25 64v147h184v-147q0 -113 -80 -193t-192 -79h-242q-113 0 -193 80t-79 192v643z
M616 1298q-40 0 -68 28t-28 68t29 68t67 29q38 0 67 -29q28 -28 28 -68t-28 -68t-67 -28zM379 1491q39 0 69 -29q30 -28 29 -68t-29 -68t-68 -28t-68 28t-28 68t28 68t67 29z" />
    <glyph glyph-name="igrave" unicode="&#xec;" horiz-adv-x="567" 
d="M334 252q0 -39 24 -64t66 -24h98v-184h-102q-113 0 -193 80t-80 192v895h187v-895zM127 1567l207 -269h-178l-207 269h178z" />
    <glyph glyph-name="iacute" unicode="&#xed;" horiz-adv-x="567" 
d="M334 252q0 -39 24 -64t66 -24h98v-184h-102q-113 0 -193 80t-80 192v895h187v-895zM545 1567l-207 -269h-178l207 269h178z" />
    <glyph glyph-name="icircumflex" unicode="&#xee;" horiz-adv-x="567" 
d="M334 252q0 -39 24 -64t66 -24h98v-184h-102q-113 0 -193 80t-80 192v895h187v-895zM293 1608l254 -303h-164l-137 159h-6l-138 -159h-165l256 303h100z" />
    <glyph glyph-name="idieresis" unicode="&#xef;" horiz-adv-x="567" 
d="M334 252q0 -39 24 -64t66 -24h98v-184h-102q-113 0 -193 80t-80 192v895h187v-895zM362 1298q-40 0 -68 28t-28 68t29 68t67 29q38 0 67 -29q28 -28 28 -68t-28 -68t-67 -28zM126 1298q-40 0 -68 28t-28 68t28 68t67 29q39 0 69 -29q30 -28 30 -68t-30 -68
q-28 -28 -68 -28z" />
    <glyph glyph-name="eth" unicode="&#xf0;" horiz-adv-x="1062" 
d="M721 618q0 39 -24 63t-64 24h-242q-39 0 -63 -25t-25 -64v-362q0 -41 25 -65t63 -23h242q39 0 63 24t25 64v364zM1040 1163v-170h-135v-739q0 -113 -80 -193t-192 -79h-242q-113 0 -193 80t-79 192v362q0 113 80 193t192 80h242q51 0 88 -15v119h-205v170h205v174
q0 39 -25 64t-63 24h-242q-39 -1 -63 -25t-25 -63v-176h-184v176q0 113 80 193t192 80h242q113 0 193 -80t79 -193v-174h135z" />
    <glyph glyph-name="ntilde" unicode="&#xf1;" horiz-adv-x="1052" 
d="M716 1165q95 0 152 -57t58 -139v-969h-185v913q0 66 -26 66q-39 0 -303 -111l-88 -34v-834h-185v1147h185v-127q297 145 392 145zM676 1456q54 0 108 57l11 -155q-55 -66 -115 -66t-152 36t-148 36t-108 -55l-10 155q54 64 116 64t153 -36t145 -36z" />
    <glyph glyph-name="ograve" unicode="&#xf2;" horiz-adv-x="1021" 
d="M303 252q0 -39 25 -64t63 -24h242q45 0 67 17t21 71v643q0 39 -25 63t-63 25h-242q-39 0 -63 -25t-25 -63v-643zM119 895q0 113 80 193t192 79h242q113 0 193 -80t79 -192v-643q0 -113 -80 -193t-192 -79h-242q-113 0 -193 80t-79 192v643zM397 1567l207 -269h-178
l-207 269h178z" />
    <glyph glyph-name="oacute" unicode="&#xf3;" horiz-adv-x="1021" 
d="M303 252q0 -39 25 -64t63 -24h242q45 0 67 17t21 71v643q0 39 -25 63t-63 25h-242q-39 0 -63 -25t-25 -63v-643zM119 895q0 113 80 193t192 79h242q113 0 193 -80t79 -192v-643q0 -113 -80 -193t-192 -79h-242q-113 0 -193 80t-79 192v643zM815 1567l-207 -269h-178
l207 269h178z" />
    <glyph glyph-name="ocircumflex" unicode="&#xf4;" horiz-adv-x="1021" 
d="M303 252q0 -39 25 -64t63 -24h242q45 0 67 17t21 71v643q0 39 -25 63t-63 25h-242q-39 0 -63 -25t-25 -63v-643zM119 895q0 113 80 193t192 79h242q113 0 193 -80t79 -192v-643q0 -113 -80 -193t-192 -79h-242q-113 0 -193 80t-79 192v643zM561 1608l254 -303h-164
l-137 159h-6l-137 -159h-164l254 303h100z" />
    <glyph glyph-name="otilde" unicode="&#xf5;" horiz-adv-x="1021" 
d="M303 252q0 -39 25 -64t63 -24h242q45 0 67 17t21 71v643q0 39 -25 63t-63 25h-242q-39 0 -63 -25t-25 -63v-643zM119 895q0 113 80 193t192 79h242q113 0 193 -80t79 -192v-643q0 -113 -80 -193t-192 -79h-242q-113 0 -193 80t-79 192v643zM660 1456q54 0 108 57l10 -155
q-56 -66 -116 -66t-151 36t-147 36t-108 -55l-10 155q54 64 116 64t153 -36t145 -36z" />
    <glyph glyph-name="odieresis" unicode="&#xf6;" horiz-adv-x="1021" 
d="M303 252q0 -39 25 -64t63 -24h242q45 0 67 17t21 71v643q0 39 -25 63t-63 25h-242q-39 0 -63 -25t-25 -63v-643zM119 895q0 113 80 193t192 79h242q113 0 193 -80t79 -192v-643q0 -113 -80 -193t-192 -79h-242q-113 0 -193 80t-79 192v643zM631 1298q-39 0 -68 28t-29 68
t30 68q28 28 67 29q39 0 67 -29q28 -28 27 -68q1 -40 -27 -68t-67 -28zM394 1298q-40 0 -68 28t-27 68q0 40 28 68q27 28 67 29q40 0 69 -29q29 -28 29 -68t-29 -68t-69 -28z" />
    <glyph glyph-name="divide" unicode="&#xf7;" 
d="M537 539q41 0 71 -31t31 -72q0 -40 -31 -70q-32 -30 -72 -30t-70 30t-30 70t30 72q30 31 71 31zM897 629h-717v182h717v-182zM537 1108q41 0 71 -31t31 -71q0 -40 -31 -71q-32 -30 -72 -30t-70 30t-30 71q0 42 30 72t71 30z" />
    <glyph glyph-name="oslash" unicode="&#xf8;" horiz-adv-x="1058" 
d="M670 164q44 0 66 17t22 71v620l-359 -704q20 -4 29 -4h242zM428 983q-40 0 -64 -25t-24 -63v-512l307 600h-219zM942 895v-643q0 -113 -80 -193t-192 -79h-242q-61 0 -111 24l-32 -63h-166l80 163q-43 70 -43 148v643q0 113 80 193t192 79h242q37 0 63 -8l25 49h168
l-62 -123q78 -78 78 -190z" />
    <glyph glyph-name="ugrave" unicode="&#xf9;" horiz-adv-x="1052" 
d="M337 -18q-95 0 -153 57q-57 57 -57 139v969h184v-914q0 -66 27 -65q39 0 303 108l88 37v834h184v-1147h-184v127q-297 -145 -392 -145zM414 1567l207 -269h-179l-206 269h178z" />
    <glyph glyph-name="uacute" unicode="&#xfa;" horiz-adv-x="1052" 
d="M337 -18q-95 0 -153 57q-57 57 -57 139v969h184v-914q0 -66 27 -65q39 0 303 108l88 37v834h184v-1147h-184v127q-297 -145 -392 -145zM831 1567l-206 -269h-179l207 269h178z" />
    <glyph glyph-name="ucircumflex" unicode="&#xfb;" horiz-adv-x="1052" 
d="M337 -18q-95 0 -153 57q-57 57 -57 139v969h184v-914q0 -66 27 -65q39 0 303 108l88 37v834h184v-1147h-184v127q-297 -145 -392 -145zM578 1608l253 -303h-163l-138 159h-6l-137 -159h-164l254 303h101z" />
    <glyph glyph-name="udieresis" unicode="&#xfc;" horiz-adv-x="1052" 
d="M337 -18q-95 0 -153 57q-57 57 -57 139v969h184v-914q0 -66 27 -65q39 0 303 108l88 37v834h184v-1147h-184v127q-297 -145 -392 -145zM647 1298q-39 0 -67 28t-29 68q0 40 29 68q30 28 68 29q38 0 66 -29q28 -28 28 -68t-28 -68t-67 -28zM315 1394q0 40 28 68t68 29
q41 0 69 -29q28 -28 28 -68t-28 -68t-69 -28q-40 0 -68 28t-28 68z" />
    <glyph glyph-name="yacute" unicode="&#xfd;" horiz-adv-x="913" 
d="M399 164h121q14 0 21 26l153 955h185l-244 -1464h-176l47 299h-195q-31 0 -57 22t-31 47l-186 1096h188l154 -955q0 -26 20 -26zM762 1567l-207 -269h-178l207 269h178z" />
    <glyph glyph-name="thorn" unicode="&#xfe;" horiz-adv-x="1042" 
d="M741 926q0 55 -30 55q-43 0 -387 -145v-584q0 -41 24 -65t62 -23h241q39 0 65 24t25 62v676zM731 1167q90 0 141 -56t54 -140v-719q-2 -115 -82 -194t-193 -78h-239q-47 0 -88 12v-293h-185v1866h185v-545q317 147 407 147z" />
    <glyph glyph-name="ydieresis" unicode="&#xff;" horiz-adv-x="913" 
d="M399 164h121q14 0 21 26l153 955h185l-244 -1464h-176l47 299h-195q-31 0 -57 22t-31 47l-186 1096h188l154 -955q0 -26 20 -26zM578 1298q-39 0 -68 28t-29 68t29 68t68 29q38 0 66 -29q28 -28 28 -68t-28 -68t-66 -28zM341 1298q-40 0 -68 28q-27 28 -27 68t28 68
t67 29q40 0 69 -29q28 -28 28 -68t-28 -68t-69 -28z" />
    <glyph glyph-name="Amacron" unicode="&#x100;" horiz-adv-x="1105" 
d="M629 1454h-150q-18 0 -20 -27l-142 -845h474l-142 845q-6 27 -20 27zM717 1638q31 0 57 -22t31 -47l266 -1569h-184l-66 397h-534l-66 -397h-184l266 1569q4 27 31 49t57 20h326zM780 1958v-141h-450v141h450z" />
    <glyph glyph-name="amacron" unicode="&#x101;" horiz-adv-x="985" 
d="M254 258q0 -92 27 -92q36 0 303 108l88 37v256l-357 -84q-39 -16 -50 -52t-11 -112v-61zM70 358q0 140 51 202t151 95l400 86v152q0 90 -111 90h-149q-113 0 -113 -90v-39h-184v39q0 123 88 199t209 75h149q121 -1 208 -75t87 -197v-895h-184v127q-296 -147 -392 -147
t-153 57t-57 139v182zM715 1466v-141h-451v141h451z" />
    <glyph glyph-name="Abreve" unicode="&#x102;" horiz-adv-x="1105" 
d="M629 1454h-150q-18 0 -20 -27l-142 -845h474l-142 845q-6 27 -20 27zM717 1638q31 0 57 -22t31 -47l266 -1569h-184l-66 397h-534l-66 -397h-184l266 1569q4 27 31 49t57 20h326zM752 2028q0 -82 -58 -140t-139 -57q-82 0 -139 57t-58 140h144q0 -53 53 -54q53 0 53 54
h144z" />
    <glyph glyph-name="abreve" unicode="&#x103;" horiz-adv-x="985" 
d="M254 258q0 -92 27 -92q36 0 303 108l88 37v256l-357 -84q-39 -16 -50 -52t-11 -112v-61zM70 358q0 140 51 202t151 95l400 86v152q0 90 -111 90h-149q-113 0 -113 -90v-39h-184v39q0 123 88 199t209 75h149q121 -1 208 -75t87 -197v-895h-184v127q-296 -147 -392 -147
t-153 57t-57 139v182zM686 1536q0 -82 -57 -139t-139 -57t-140 56q-57 58 -57 140h143q0 -53 53 -53t54 53h143z" />
    <glyph glyph-name="Aogonek" unicode="&#x104;" horiz-adv-x="1105" 
d="M629 1454h-150q-18 0 -20 -27l-142 -845h474l-142 845q-6 27 -20 27zM1090 -334q-100 0 -171 66t-71 166q0 63 37 120l-64 379h-534l-66 -397h-184l266 1569q4 27 31 49t57 20h326q31 0 57 -22t31 -47l266 -1569q-28 -7 -54 -36q-26 -30 -26 -66t27 -63q28 -25 76 -25
t120 59l99 -90q-66 -65 -114 -89t-109 -24z" />
    <glyph glyph-name="aogonek" unicode="&#x105;" horiz-adv-x="985" 
d="M254 258q0 -92 27 -92q36 0 303 108l88 37v256l-357 -84q-39 -16 -50 -52t-11 -112v-61zM877 -334q-100 0 -171 66t-71 166q0 63 37 120v109q-296 -147 -392 -147t-153 57t-57 139v182q0 140 51 202t151 95l400 86v152q0 90 -111 90h-149q-113 0 -113 -90v-39h-184v39
q0 123 88 199t209 75h149q121 -1 208 -75t87 -197v-891l2 -4q-28 -7 -54 -36q-26 -30 -26 -66t27 -63q27 -25 75 -25t121 59l99 -90q-66 -65 -114 -89t-109 -24z" />
    <glyph glyph-name="Cacute" unicode="&#x106;" horiz-adv-x="1099" 
d="M129 1356q0 123 86 209t209 86h264q123 0 209 -86t86 -209v-258h-184v258q0 49 -31 80t-80 30h-264q-49 0 -80 -30t-31 -80v-1082q0 -50 31 -80t80 -30h268q79 0 93 32q14 26 14 78v324h184v-324q0 -122 -86 -208t-209 -86h-264q-123 0 -209 86t-86 208v1082zM854 2058
l-207 -268h-178l207 268h178z" />
    <glyph glyph-name="cacute" unicode="&#x107;" horiz-adv-x="964" 
d="M119 895q0 113 80 193t192 79h242q113 0 193 -80t79 -192v-154h-184v154q0 39 -25 63t-63 25h-242q-39 0 -63 -25t-25 -63v-643q0 -39 25 -64t63 -24h242q39 0 63 24t25 64v147h184v-147q0 -113 -80 -193t-192 -79h-242q-113 0 -193 80t-79 192v643zM791 1567l-207 -269
h-178l206 269h179z" />
    <glyph glyph-name="Ccircumflex" unicode="&#x108;" horiz-adv-x="1099" 
d="M129 1356q0 123 86 209t209 86h264q123 0 209 -86t86 -209v-258h-184v258q0 49 -31 80t-80 30h-264q-49 0 -80 -30t-31 -80v-1082q0 -50 31 -80t80 -30h268q79 0 93 32q14 26 14 78v324h184v-324q0 -122 -86 -208t-209 -86h-264q-123 0 -209 86t-86 208v1082zM602 2099
l254 -303h-164l-137 160h-6l-137 -160h-164l254 303h100z" />
    <glyph glyph-name="ccircumflex" unicode="&#x109;" horiz-adv-x="964" 
d="M119 895q0 113 80 193t192 79h242q113 0 193 -80t79 -192v-154h-184v154q0 39 -25 63t-63 25h-242q-39 0 -63 -25t-25 -63v-643q0 -39 25 -64t63 -24h242q39 0 63 24t25 64v147h184v-147q0 -113 -80 -193t-192 -79h-242q-113 0 -193 80t-79 192v643zM537 1608l254 -303
h-164l-138 159h-6l-137 -159h-164l254 303h101z" />
    <glyph glyph-name="Cdotaccent" unicode="&#x10a;" horiz-adv-x="1099" 
d="M129 1356q0 123 86 209t209 86h264q123 0 209 -86t86 -209v-258h-184v258q0 49 -31 80t-80 30h-264q-49 0 -80 -30t-31 -80v-1082q0 -50 31 -80t80 -30h268q79 0 93 32q14 26 14 78v324h184v-324q0 -122 -86 -208t-209 -86h-264q-123 0 -209 86t-86 208v1082zM551 1778
q-41 0 -71 30t-29 70q0 41 29 72q30 30 71 30t72 -30t31 -72q0 -41 -31 -71q-31 -29 -72 -29z" />
    <glyph glyph-name="cdotaccent" unicode="&#x10b;" horiz-adv-x="964" 
d="M119 895q0 113 80 193t192 79h242q113 0 193 -80t79 -192v-154h-184v154q0 39 -25 63t-63 25h-242q-39 0 -63 -25t-25 -63v-643q0 -39 25 -64t63 -24h242q39 0 63 24t25 64v147h184v-147q0 -113 -80 -193t-192 -79h-242q-113 0 -193 80t-79 192v643zM485 1286
q-41 0 -71 30t-29 70q0 40 30 72q31 31 71 31t71 -31t31 -72q0 -40 -31 -70t-72 -30z" />
    <glyph glyph-name="Ccaron" unicode="&#x10c;" horiz-adv-x="1099" 
d="M129 1356q0 123 86 209t209 86h264q123 0 209 -86t86 -209v-258h-184v258q0 49 -31 80t-80 30h-264q-49 0 -80 -30t-31 -80v-1082q0 -50 31 -80t80 -30h268q79 0 93 32q14 26 14 78v324h184v-324q0 -122 -86 -208t-209 -86h-264q-123 0 -209 86t-86 208v1082zM412 2077
l137 -160h6l137 160h164l-254 -303h-100l-254 303h164z" />
    <glyph glyph-name="ccaron" unicode="&#x10d;" horiz-adv-x="964" 
d="M119 895q0 113 80 193t192 79h242q113 0 193 -80t79 -192v-154h-184v154q0 39 -25 63t-63 25h-242q-39 0 -63 -25t-25 -63v-643q0 -39 25 -64t63 -24h242q39 0 63 24t25 64v147h184v-147q0 -113 -80 -193t-192 -79h-242q-113 0 -193 80t-79 192v643zM346 1585l137 -160h6
l138 160h164l-254 -303h-101l-254 303h164z" />
    <glyph glyph-name="Dcaron" unicode="&#x10e;" horiz-adv-x="1140" 
d="M719 184q49 0 80 31t30 80v1061q1 46 -29 72t-81 26h-375v-1270h375zM719 1638q125 0 210 -80t85 -202v-1061q0 -123 -86 -209t-209 -86h-559v1638h559zM432 2077l137 -160h6l138 160h164l-254 -303h-101l-254 303h164z" />
    <glyph glyph-name="dcaron" unicode="&#x10f;" horiz-adv-x="1202" 
d="M719 895q0 41 -24 65t-62 23h-242q-39 0 -65 -25t-25 -61v-676q0 -55 31 -55q43 0 387 145v584zM903 1438v-1438h-184v127q-317 -147 -407 -147t-142 56q-51 56 -53 140v719q2 115 82 194t192 78h240q49 0 88 -12v293h2v117h184v-127h-2zM1202 1221h-164v346h164v-346z
" />
    <glyph glyph-name="Dcroat" unicode="&#x110;" horiz-adv-x="1130" 
d="M819 1356q1 46 -29 72t-81 26h-375v-477h256v-182h-256v-611h375q49 0 79 31t31 80v1061zM709 1638q125 0 210 -80t85 -202v-1061q0 -123 -86 -209t-209 -86h-559v795h-105v182h105v661h559z" />
    <glyph glyph-name="dcroat" unicode="&#x111;" horiz-adv-x="1042" 
d="M719 895q0 41 -24 65t-62 23h-242q-39 0 -65 -25t-25 -61v-676q0 -55 31 -55q43 0 387 145v584zM1042 1290h-139v-1290h-184v127q-317 -147 -407 -147t-142 56q-51 56 -53 140v719q2 115 82 194t192 78h240q49 0 88 -12v135h-342v162h344v113h184v-113h137v-162z" />
    <glyph glyph-name="Emacron" unicode="&#x112;" horiz-adv-x="970" 
d="M891 1454h-547v-459h492v-184h-492v-627h547v-184h-731v1638h731v-184zM756 1958v-141h-451v141h451z" />
    <glyph glyph-name="emacron" unicode="&#x113;" horiz-adv-x="987" 
d="M721 895q0 39 -25 63t-63 25h-242q-39 0 -63 -25t-25 -63v-164h418v164zM119 895q0 113 80 193t192 79h242q113 0 193 -80t79 -192v-348h-602v-295q0 -39 25 -64t63 -24h242q39 0 63 24t25 64v147h184v-147q0 -113 -80 -193t-192 -79h-242q-113 0 -193 80t-79 192v643z
M723 1466v-141h-451v141h451z" />
    <glyph glyph-name="Ebreve" unicode="&#x114;" horiz-adv-x="970" 
d="M891 1454h-547v-459h492v-184h-492v-627h547v-184h-731v1638h731v-184zM727 2028q0 -82 -57 -140q-58 -58 -140 -57q-82 0 -139 57t-57 140h143q0 -53 53 -54q53 0 54 54h143z" />
    <glyph glyph-name="ebreve" unicode="&#x115;" horiz-adv-x="987" 
d="M721 895q0 39 -25 63t-63 25h-242q-39 0 -63 -25t-25 -63v-164h418v164zM119 895q0 113 80 193t192 79h242q113 0 193 -80t79 -192v-348h-602v-295q0 -39 25 -64t63 -24h242q39 0 63 24t25 64v147h184v-147q0 -113 -80 -193t-192 -79h-242q-113 0 -193 80t-79 192v643z
M694 1536q0 -82 -57 -139t-139 -57t-140 56q-58 58 -57 140h143q0 -53 54 -53t53 53h143z" />
    <glyph glyph-name="Edotaccent" unicode="&#x116;" horiz-adv-x="970" 
d="M891 1454h-547v-459h492v-184h-492v-627h547v-184h-731v1638h731v-184zM528 1778q-40 0 -70 30t-30 70q0 41 30 72q30 30 70 30t72 -30q31 -30 31 -72q0 -40 -31 -70t-72 -30z" />
    <glyph glyph-name="edotaccent" unicode="&#x117;" horiz-adv-x="987" 
d="M721 895q0 39 -25 63t-63 25h-242q-39 0 -63 -25t-25 -63v-164h418v164zM119 895q0 113 80 193t192 79h242q113 0 193 -80t79 -192v-348h-602v-295q0 -39 25 -64t63 -24h242q39 0 63 24t25 64v147h184v-147q0 -113 -80 -193t-192 -79h-242q-113 0 -193 80t-79 192v643z
M496 1286q-41 0 -71 30t-30 70t30 72q30 31 71 31q42 0 72 -31t30 -72q0 -40 -30 -70t-72 -30z" />
    <glyph glyph-name="Eogonek" unicode="&#x118;" horiz-adv-x="970" 
d="M909 -334q-100 0 -171 66t-70 166q0 53 26 102h-534v1638h731v-184h-547v-459h492v-184h-492v-627h547v-184q-29 -7 -55 -37q-25 -29 -25 -65t27 -63q28 -25 76 -25t120 59l99 -90q-66 -65 -114 -89t-110 -24z" />
    <glyph glyph-name="eogonek" unicode="&#x119;" horiz-adv-x="987" 
d="M303 731h418v164q0 39 -25 63t-63 25h-242q-39 0 -63 -25t-25 -63v-164zM303 547v-295q0 -39 25 -64t63 -24h242q39 0 63 24t25 64v147h184v-147q0 -113 -80 -193t-192 -79q-28 -7 -54 -36q-27 -30 -27 -67t28 -63t76 -25q48 0 120 59l98 -90q-66 -66 -114 -90t-109 -22
q-100 0 -171 66t-70 165q0 53 26 103h-45q-113 0 -193 80t-79 192v643q0 113 80 193t192 79h242q113 0 193 -80t79 -192v-348h-602z" />
    <glyph glyph-name="Ecaron" unicode="&#x11a;" horiz-adv-x="970" 
d="M891 1454h-547v-459h492v-184h-492v-627h547v-184h-731v1638h731v-184zM389 2077l137 -160h6l138 160h164l-254 -303h-101l-254 303h164z" />
    <glyph glyph-name="ecaron" unicode="&#x11b;" horiz-adv-x="987" 
d="M721 895q0 39 -25 63t-63 25h-242q-39 0 -63 -25t-25 -63v-164h418v164zM119 895q0 113 80 193t192 79h242q113 0 193 -80t79 -192v-348h-602v-295q0 -39 25 -64t63 -24h242q39 0 63 24t25 64v147h184v-147q0 -113 -80 -193t-192 -79h-242q-113 0 -193 80t-79 192v643z
M356 1585l138 -160h6l137 160h164l-254 -303h-101l-253 303h163z" />
    <glyph glyph-name="Gcircumflex" unicode="&#x11c;" horiz-adv-x="1089" 
d="M129 1356q0 123 86 209t209 86h256q123 0 209 -86t86 -209v-258h-184v258q0 49 -31 80t-80 30h-256q-49 0 -80 -30t-31 -80v-1082q0 -50 31 -80t80 -30h256q111 0 111 110v385h-293v185h477v-570q0 -122 -86 -208t-209 -86h-256q-123 0 -209 86t-86 208v1082zM598 2099
l254 -303h-164l-137 160h-6l-137 -160h-164l254 303h100z" />
    <glyph glyph-name="gcircumflex" unicode="&#x11d;" horiz-adv-x="1032" 
d="M303 307q0 -12 12 -12q49 0 151 43t177 84l78 43v432q0 41 -25 65t-63 23h-242q-39 1 -63 -23t-25 -65v-590zM305 -47q0 -39 24 -64t64 -24h242q41 1 65 25t23 63v313q-299 -156 -408 -155q-82 0 -139 57t-57 139v590q0 113 80 193t192 79h242q113 1 193 -79t79 -193
v-948q0 -113 -78 -191t-192 -77h-242q-115 -1 -193 79t-79 193v45h184v-45zM561 1608l254 -303h-164l-137 159h-6l-137 -159h-164l254 303h100z" />
    <glyph glyph-name="Gbreve" unicode="&#x11e;" horiz-adv-x="1089" 
d="M129 1356q0 123 86 209t209 86h256q123 0 209 -86t86 -209v-258h-184v258q0 49 -31 80t-80 30h-256q-49 0 -80 -30t-31 -80v-1082q0 -50 31 -80t80 -30h256q111 0 111 110v385h-293v185h477v-570q0 -122 -86 -208t-209 -86h-256q-123 0 -209 86t-86 208v1082zM745 2028
q0 -82 -57 -140t-139 -57q-82 0 -139 57t-58 140h144q0 -53 53 -54q53 0 53 54h143z" />
    <glyph glyph-name="gbreve" unicode="&#x11f;" horiz-adv-x="1032" 
d="M303 307q0 -12 12 -12q49 0 151 43t177 84l78 43v432q0 41 -25 65t-63 23h-242q-39 1 -63 -23t-25 -65v-590zM305 -47q0 -39 24 -64t64 -24h242q41 1 65 25t23 63v313q-299 -156 -408 -155q-82 0 -139 57t-57 139v590q0 113 80 193t192 79h242q113 1 193 -79t79 -193
v-948q0 -113 -78 -191t-192 -77h-242q-115 -1 -193 79t-79 193v45h184v-45zM709 1536q1 -82 -57 -139t-140 -57t-139 56q-57 58 -58 140h144q0 -53 53 -53t53 53h144z" />
    <glyph glyph-name="Gdotaccent" unicode="&#x120;" horiz-adv-x="1089" 
d="M129 1356q0 123 86 209t209 86h256q123 0 209 -86t86 -209v-258h-184v258q0 49 -31 80t-80 30h-256q-49 0 -80 -30t-31 -80v-1082q0 -50 31 -80t80 -30h256q111 0 111 110v385h-293v185h477v-570q0 -122 -86 -208t-209 -86h-256q-123 0 -209 86t-86 208v1082zM547 1778
q-41 0 -71 30t-30 70q0 41 30 72q30 30 71 30t71 -30t31 -72q-1 -40 -31 -70t-71 -30z" />
    <glyph glyph-name="gdotaccent" unicode="&#x121;" horiz-adv-x="1032" 
d="M303 307q0 -12 12 -12q49 0 151 43t177 84l78 43v432q0 41 -25 65t-63 23h-242q-39 1 -63 -23t-25 -65v-590zM305 -47q0 -39 24 -64t64 -24h242q41 1 65 25t23 63v313q-299 -156 -408 -155q-82 0 -139 57t-57 139v590q0 113 80 193t192 79h242q113 1 193 -79t79 -193
v-948q0 -113 -78 -191t-192 -77h-242q-115 -1 -193 79t-79 193v45h184v-45zM510 1286q-41 0 -71 30q-29 30 -29 70t29 72q30 31 71 31t72 -31q30 -31 30 -72q0 -40 -30 -70t-72 -30z" />
    <glyph glyph-name="Gcommaaccent" unicode="&#x122;" horiz-adv-x="1089" 
d="M631 -430h-164v346h164v-346zM129 1356q0 123 86 209t209 86h256q123 0 209 -86t86 -209v-258h-184v258q0 49 -31 80t-80 30h-256q-49 0 -80 -30t-31 -80v-1082q0 -50 31 -80t80 -30h256q111 0 111 110v385h-293v185h477v-570q0 -122 -86 -208t-209 -86h-256
q-123 0 -209 86t-86 208v1082z" />
    <glyph glyph-name="gcommaaccent" unicode="&#x123;" horiz-adv-x="1032" 
d="M303 307q0 -12 12 -12q49 0 151 43t177 84l78 43v432q0 41 -25 65t-63 23h-242q-39 1 -63 -23t-25 -65v-590zM305 -47q0 -39 24 -64t64 -24h242q41 1 65 25t23 63v313q-299 -156 -408 -155q-82 0 -139 57t-57 139v590q0 113 80 193t192 79h242q113 1 193 -79t79 -193
v-948q0 -113 -78 -191t-192 -77h-242q-115 -1 -193 79t-79 193v45h184v-45zM428 1638h164v-346h-164v346z" />
    <glyph glyph-name="Hcircumflex" unicode="&#x124;" horiz-adv-x="1165" 
d="M344 995h479v643h185v-1638h-185v813h-479v-813h-184v1638h184v-643zM637 2099l254 -303h-164l-137 160h-6l-138 -160h-163l254 303h100z" />
    <glyph glyph-name="hcircumflex" unicode="&#x125;" horiz-adv-x="1052" 
d="M716 1165q95 0 152 -57t58 -139v-969h-185v913q0 66 -26 66q-39 0 -303 -111l-88 -34v-834h-185v1567h185v-547q297 145 392 145zM285 2099l254 -303h-164l-137 160h-7l-137 -160h-164l254 303h101z" />
    <glyph glyph-name="Hbar" unicode="&#x126;" horiz-adv-x="1150" 
d="M819 1249h-479v-254h479v254zM1106 1249h-102v-1249h-185v813h-479v-813h-184v1249h-111v185h111v204h184v-204h479v204h185v-204h102v-185z" />
    <glyph glyph-name="hbar" unicode="&#x127;" horiz-adv-x="1052" 
d="M716 1165q95 0 152 -57t58 -139v-969h-185v913q0 66 -26 66q-39 0 -303 -111l-88 -34v-834h-185v1290h-139v162h139v115h185v-115h342v-162h-342v-270q297 145 392 145z" />
    <glyph glyph-name="Itilde" unicode="&#x128;" horiz-adv-x="524" 
d="M354 0h-184v1638h184v-1638zM112 2019q62 0 153 -36q91 -35 145 -35t108 57l10 -156q-56 -65 -116 -65t-151 36t-147 36t-108 -56l-10 156q54 63 116 63z" />
    <glyph glyph-name="itilde" unicode="&#x129;" horiz-adv-x="567" 
d="M334 252q0 -39 24 -64t66 -24h98v-184h-102q-113 0 -193 80t-80 192v895h187v-895zM392 1456q54 0 108 57l10 -155q-56 -66 -116 -66t-151 36t-147 36t-110 -55l-11 155q53 64 117 64t154 -36q92 -36 146 -36z" />
    <glyph glyph-name="Imacron" unicode="&#x12a;" horiz-adv-x="524" 
d="M354 0h-184v1638h184v-1638zM487 1958v-141h-450v141h450z" />
    <glyph glyph-name="imacron" unicode="&#x12b;" horiz-adv-x="567" 
d="M334 252q0 -39 24 -64t66 -24h98v-184h-102q-113 0 -193 80t-80 192v895h187v-895zM469 1466v-141h-451v141h451z" />
    <glyph glyph-name="Ibreve" unicode="&#x12c;" horiz-adv-x="524" 
d="M354 0h-184v1638h184v-1638zM459 2028q1 -82 -57 -140t-140 -57q-82 0 -139 57t-57 140h143q0 -53 53 -54q53 0 53 54h144z" />
    <glyph glyph-name="ibreve" unicode="&#x12d;" horiz-adv-x="567" 
d="M334 252q0 -39 24 -64t66 -24h98v-184h-102q-113 0 -193 80t-80 192v895h187v-895zM440 1536q0 -82 -57 -139t-139 -57t-140 56q-58 58 -57 140h143q0 -53 54 -53t53 53h143z" />
    <glyph glyph-name="Iogonek" unicode="&#x12e;" horiz-adv-x="524" 
d="M373 -334q-100 0 -171 66t-71 166q0 66 39 125v1615h184v-1638q-28 -7 -54 -36q-26 -30 -26 -66t27 -63q27 -25 76 -25t121 59l98 -90q-66 -65 -114 -89t-109 -24z" />
    <glyph glyph-name="iogonek" unicode="&#x12f;" horiz-adv-x="569" 
d="M301 -123q0 61 33 117q-82 28 -134 98t-53 160v895h187v-895q0 -39 24 -64t66 -24h98v-180l2 -4q-26 -7 -53 -36q-27 -30 -27 -67t27 -63t76 -25q49 0 121 59l98 -90q-66 -66 -114 -90t-109 -22q-100 0 -171 66t-71 165zM334 1350h-184v217h184v-217z" />
    <glyph glyph-name="Idotaccent" unicode="&#x130;" horiz-adv-x="524" 
d="M354 0h-184v1638h184v-1638zM260 1778q-41 0 -71 30t-29 70q0 41 29 72q30 30 71 30t72 -30q30 -30 30 -72q0 -41 -30 -71q-31 -29 -72 -29z" />
    <glyph glyph-name="dotlessi" unicode="&#x131;" horiz-adv-x="567" 
d="M334 252q0 -39 24 -64t66 -24h98v-184h-102q-113 0 -193 80t-80 192v895h187v-895z" />
    <glyph glyph-name="IJ" unicode="&#x132;" horiz-adv-x="1544" 
d="M754 598v-324q0 -50 30 -80t80 -30h258q49 0 80 31t31 79v1364h184v-1364q0 -122 -86 -208t-209 -86h-258q-123 0 -209 86t-86 208v324h185zM354 0h-184v1638h184v-1638z" />
    <glyph glyph-name="ij" unicode="&#x133;" horiz-adv-x="1103" 
d="M956 1147v-1194q0 -113 -80 -193t-192 -79h-127v184h123q42 1 66 25t24 63v1194h186zM334 252q0 -39 24 -64t66 -24h98v-184h-102q-113 0 -193 80t-80 192v895h187v-895zM952 1567v-217h-186v217h186zM334 1350h-184v217h184v-217z" />
    <glyph glyph-name="Jcircumflex" unicode="&#x134;" horiz-adv-x="1019" 
d="M229 274q0 -50 31 -80t80 -30h258q49 0 80 31t31 79v1364h184v-1364q0 -122 -86 -208t-209 -86h-258q-123 0 -209 86t-86 208v324h184v-324zM842 2099l254 -303h-164l-137 160h-7l-137 -160h-164l254 303h101z" />
    <glyph glyph-name="jcircumflex" unicode="&#x135;" horiz-adv-x="534" 
d="M387 -47q0 -113 -80 -193t-192 -79h-127v184h123q41 1 65 25t25 63v1194h186v-1194zM342 1608l254 -303h-164l-137 159h-6l-137 -159h-164l254 303h100z" />
    <glyph glyph-name="Kcommaaccent" unicode="&#x136;" horiz-adv-x="1157" 
d="M688 -430h-164v346h164v-346zM342 995h254l346 643h193l-385 -725v-18l385 -895h-193l-346 813h-254v-813h-182v1638h182v-643z" />
    <glyph glyph-name="kcommaaccent" unicode="&#x137;" horiz-adv-x="995" 
d="M590 -430h-164v346h164v-346zM322 526v-526h-183v1567h183v-858h165l263 438h204l-303 -520v-19l344 -608h-215l-293 526h-165z" />
    <glyph glyph-name="kgreenlandic" unicode="&#x138;" horiz-adv-x="995" 
d="M322 1147v-438h165l263 438h204l-303 -520v-19l344 -608h-215l-293 526h-165v-526h-183v1147h183z" />
    <glyph glyph-name="Lacute" unicode="&#x139;" horiz-adv-x="903" 
d="M342 184h547v-184h-729v1638h182v-1454zM561 2058l-207 -268h-178l207 268h178z" />
    <glyph glyph-name="lacute" unicode="&#x13a;" horiz-adv-x="567" 
d="M522 -20h-102q-113 0 -193 80t-80 192v1313h185v-418h2v-895q0 -39 24 -64t66 -24h98v-184zM553 2058l-207 -268h-178l207 268h178z" />
    <glyph glyph-name="Lcommaaccent" unicode="&#x13b;" horiz-adv-x="903" 
d="M547 -430h-164v346h164v-346zM342 184h547v-184h-729v1638h182v-1454z" />
    <glyph glyph-name="lcommaaccent" unicode="&#x13c;" horiz-adv-x="567" 
d="M381 -430h-164v346h164v-346zM522 -20h-102q-113 0 -193 80t-80 192v1313h185v-418h2v-895q0 -39 24 -64t66 -24h98v-184z" />
    <glyph glyph-name="Lcaron" unicode="&#x13d;" horiz-adv-x="903" 
d="M764 1221h-164v346h164v-346zM342 184h547v-184h-729v1638h182v-1454z" />
    <glyph glyph-name="lcaron" unicode="&#x13e;" horiz-adv-x="616" 
d="M522 -20h-102q-113 0 -193 80t-80 192v1313h185v-418h2v-895q0 -39 24 -64t66 -24h98v-184zM641 1221h-164v346h164v-346z" />
    <glyph glyph-name="Ldot" unicode="&#x13f;" horiz-adv-x="903" 
d="M688 842q-41 0 -71 30t-29 70q0 41 29 72q30 30 71 30t72 -30t31 -72q0 -40 -31 -70t-72 -30zM342 184h547v-184h-729v1638h182v-1454z" />
    <glyph glyph-name="ldot" unicode="&#x140;" horiz-adv-x="567" 
d="M512 842q-41 0 -71 30t-29 70q0 41 29 72q30 30 71 30t72 -30q30 -30 30 -72q0 -41 -30 -71q-31 -29 -72 -29zM522 -20h-102q-113 0 -193 80t-80 192v1313h185v-418h2v-895q0 -39 24 -64t66 -24h98v-184z" />
    <glyph glyph-name="Lslash" unicode="&#x141;" horiz-adv-x="903" 
d="M889 184v-184h-729v748l-131 -56v182l131 56v708h182v-630l170 71v-182l-170 -72v-641h547z" />
    <glyph glyph-name="lslash" unicode="&#x142;" horiz-adv-x="585" 
d="M537 164v-184h-103q-112 0 -192 80t-80 192v491l-121 -51v182l121 52v639h184v-418h2v-141l176 73v-182l-176 -74v-571q0 -39 25 -64t65 -24h99z" />
    <glyph glyph-name="Nacute" unicode="&#x143;" horiz-adv-x="1234" 
d="M891 184v1454h184v-1638h-327l-388 1454h-16v-1454h-184v1638h329l383 -1454h19zM922 2058l-207 -268h-178l206 268h179z" />
    <glyph glyph-name="nacute" unicode="&#x144;" horiz-adv-x="1052" 
d="M716 1165q95 0 152 -57t58 -139v-969h-185v913q0 66 -26 66q-39 0 -303 -111l-88 -34v-834h-185v1147h185v-127q297 145 392 145zM831 1567l-206 -269h-179l207 269h178z" />
    <glyph glyph-name="Ncommaaccent" unicode="&#x145;" horiz-adv-x="1234" 
d="M700 -430h-163v346h163v-346zM891 184v1454h184v-1638h-327l-388 1454h-16v-1454h-184v1638h329l383 -1454h19z" />
    <glyph glyph-name="ncommaaccent" unicode="&#x146;" horiz-adv-x="1052" 
d="M610 -430h-164v346h164v-346zM716 1165q95 0 152 -57t58 -139v-969h-185v913q0 66 -26 66q-39 0 -303 -111l-88 -34v-834h-185v1147h185v-127q297 145 392 145z" />
    <glyph glyph-name="Ncaron" unicode="&#x147;" horiz-adv-x="1234" 
d="M891 184v1454h184v-1638h-327l-388 1454h-16v-1454h-184v1638h329l383 -1454h19zM477 2077l137 -160h7l137 160h164l-254 -303h-101l-254 303h164z" />
    <glyph glyph-name="ncaron" unicode="&#x148;" horiz-adv-x="1052" 
d="M716 1165q95 0 152 -57t58 -139v-969h-185v913q0 66 -26 66q-39 0 -303 -111l-88 -34v-834h-185v1147h185v-127q297 145 392 145zM387 1585l137 -160h6l138 160h163l-253 -303h-101l-254 303h164z" />
    <glyph glyph-name="napostrophe" unicode="&#x149;" horiz-adv-x="1052" 
d="M716 1165q95 0 152 -57t58 -139v-969h-185v913q0 66 -26 66q-39 0 -303 -111l-88 -34v-834h-185v1147h185v-127q297 145 392 145zM92 1221h-164v346h164v-346z" />
    <glyph glyph-name="Eng" unicode="&#x14a;" horiz-adv-x="1234" 
d="M1075 1638v-1685q0 -113 -79 -193t-191 -79h-127v184h123q41 1 65 25t25 63v47h-143l-388 1454h-16v-1454h-184v1638h329l383 -1454h19v1454h184z" />
    <glyph glyph-name="eng" unicode="&#x14b;" horiz-adv-x="1052" 
d="M716 1165q95 0 152 -57t58 -139v-1016q-2 -113 -81 -193t-190 -79h-127v184h123q41 1 66 25t24 63v960q0 66 -26 66q-39 0 -303 -111l-88 -34v-834h-185v1147h185v-127q297 145 392 145z" />
    <glyph glyph-name="Omacron" unicode="&#x14c;" horiz-adv-x="1110" 
d="M313 274q0 -50 31 -80t80 -30h264q49 0 80 31t31 79v1082q0 49 -31 80t-80 30h-264q-49 0 -80 -30t-31 -80v-1082zM129 1356q0 123 86 209t209 86h264q123 0 209 -86t86 -209v-1082q0 -122 -86 -208t-209 -86h-264q-123 0 -209 86t-86 208v1082zM782 1958v-141h-450v141
h450z" />
    <glyph glyph-name="omacron" unicode="&#x14d;" horiz-adv-x="1021" 
d="M303 252q0 -39 25 -64t63 -24h242q45 0 67 17t21 71v643q0 39 -25 63t-63 25h-242q-39 0 -63 -25t-25 -63v-643zM119 895q0 113 80 193t192 79h242q113 0 193 -80t79 -192v-643q0 -113 -80 -193t-192 -79h-242q-113 0 -193 80t-79 192v643zM737 1466v-141h-450v141h450z
" />
    <glyph glyph-name="Obreve" unicode="&#x14e;" horiz-adv-x="1110" 
d="M313 274q0 -50 31 -80t80 -30h264q49 0 80 31t31 79v1082q0 49 -31 80t-80 30h-264q-49 0 -80 -30t-31 -80v-1082zM129 1356q0 123 86 209t209 86h264q123 0 209 -86t86 -209v-1082q0 -122 -86 -208t-209 -86h-264q-123 0 -209 86t-86 208v1082zM754 2028q0 -82 -58 -140
t-139 -57q-82 0 -139 57t-58 140h144q0 -53 53 -54q53 0 53 54h144z" />
    <glyph glyph-name="obreve" unicode="&#x14f;" horiz-adv-x="1021" 
d="M303 252q0 -39 25 -64t63 -24h242q45 0 67 17t21 71v643q0 39 -25 63t-63 25h-242q-39 0 -63 -25t-25 -63v-643zM119 895q0 113 80 193t192 79h242q113 0 193 -80t79 -192v-643q0 -113 -80 -193t-192 -79h-242q-113 0 -193 80t-79 192v643zM709 1536q1 -82 -57 -139
t-140 -57t-139 56q-57 58 -58 140h144q0 -53 53 -53t53 53h144z" />
    <glyph glyph-name="Ohungarumlaut" unicode="&#x150;" horiz-adv-x="1110" 
d="M313 274q0 -50 31 -80t80 -30h264q49 0 80 31t31 79v1082q0 49 -31 80t-80 30h-264q-49 0 -80 -30t-31 -80v-1082zM129 1356q0 123 86 209t209 86h264q123 0 209 -86t86 -209v-1082q0 -122 -86 -208t-209 -86h-264q-123 0 -209 86t-86 208v1082zM965 2058l-205 -268h-160
l207 268h158zM719 2058l-205 -268h-160l207 268h158z" />
    <glyph glyph-name="ohungarumlaut" unicode="&#x151;" horiz-adv-x="1021" 
d="M303 252q0 -39 25 -64t63 -24h242q45 0 67 17t21 71v643q0 39 -25 63t-63 25h-242q-39 0 -63 -25t-25 -63v-643zM119 895q0 113 80 193t192 79h242q113 0 193 -80t79 -192v-643q0 -113 -80 -193t-192 -79h-242q-113 0 -193 80t-79 192v643zM920 1567l-205 -269h-160
l207 269h158zM674 1567l-205 -269h-160l207 269h158z" />
    <glyph glyph-name="OE" unicode="&#x152;" horiz-adv-x="1609" 
d="M688 164q49 0 80 31t31 79v1082q0 49 -31 80t-80 30h-264q-49 0 -80 -30t-31 -80v-1082q0 -50 31 -80t80 -30h264zM983 1454v-459h492v-184h-492v-627h547v-184h-727q-68 -23 -115 -23h-264q-123 0 -209 86t-86 209v1084q0 123 86 209t209 86h264q53 0 111 -21v8h731
v-184h-547z" />
    <glyph glyph-name="oe" unicode="&#x153;" horiz-adv-x="1589" 
d="M905 748h418v147q0 39 -25 63t-63 25h-242q-39 0 -63 -25t-25 -63v-147zM721 895q0 39 -25 63t-63 25h-242q-39 0 -63 -25t-25 -63v-643q0 -39 25 -64t63 -24h242q43 0 65 14t23 62v655zM905 563v-311q0 -39 25 -64t63 -24h242q39 0 63 24t25 64v147h184v-147
q0 -113 -80 -193t-192 -79h-242q-106 0 -180 67q-78 -68 -180 -67h-242q-113 0 -193 80t-79 192v643q0 113 80 193t192 79h242q98 0 180 -67q78 68 180 67h242q113 0 193 -80t79 -192v-332h-602z" />
    <glyph glyph-name="Racute" unicode="&#x154;" horiz-adv-x="1130" 
d="M813 1094v299q0 27 -19 45t-49 18h-401v-508h399q70 31 70 146zM754 1638q102 0 174 -72t71 -173v-295q0 -78 -44 -145t-113 -97q76 -30 124 -96t48 -150v-610h-185v610q0 115 -88 154h-397v-764h-184v1638h594zM858 2058l-207 -268h-178l207 268h178z" />
    <glyph glyph-name="racute" unicode="&#x155;" horiz-adv-x="972" 
d="M716 1165q95 0 152 -57t58 -139v-205h-185v123q0 92 -26 92q-39 0 -303 -111l-88 -34v-834h-185v1147h185v-127q297 145 392 145zM545 1567l-207 -269h-178l207 269h178z" />
    <glyph glyph-name="Rcommaaccent" unicode="&#x156;" horiz-adv-x="1130" 
d="M639 -430h-164v346h164v-346zM813 1094v299q0 27 -19 45t-49 18h-401v-508h399q70 31 70 146zM754 1638q102 0 174 -72t71 -173v-295q0 -78 -44 -145t-113 -97q76 -30 124 -96t48 -150v-610h-185v610q0 115 -88 154h-397v-764h-184v1638h594z" />
    <glyph glyph-name="rcommaaccent" unicode="&#x157;" horiz-adv-x="972" 
d="M315 -430h-163v346h163v-346zM716 1165q95 0 152 -57t58 -139v-205h-185v123q0 92 -26 92q-39 0 -303 -111l-88 -34v-834h-185v1147h185v-127q297 145 392 145z" />
    <glyph glyph-name="Rcaron" unicode="&#x158;" horiz-adv-x="1130" 
d="M813 1094v299q0 27 -19 45t-49 18h-401v-508h399q70 31 70 146zM754 1638q102 0 174 -72t71 -173v-295q0 -78 -44 -145t-113 -97q76 -30 124 -96t48 -150v-610h-185v610q0 115 -88 154h-397v-764h-184v1638h594zM416 2077l137 -160h6l137 160h164l-254 -303h-100
l-254 303h164z" />
    <glyph glyph-name="rcaron" unicode="&#x159;" horiz-adv-x="972" 
d="M716 1165q95 0 152 -57t58 -139v-205h-185v123q0 92 -26 92q-39 0 -303 -111l-88 -34v-834h-185v1147h185v-127q297 145 392 145zM102 1585l138 -160h6l137 160h164l-254 -303h-100l-254 303h163z" />
    <glyph glyph-name="Sacute" unicode="&#x15a;" horiz-adv-x="1050" 
d="M287 274q1 -50 31 -80t79 -30h244q49 0 80 31t31 79v158q0 151 -104 249q-78 72 -218 150q-8 4 -12 8t-19 9q-285 164 -284 395v113q0 123 86 209t209 86h243q123 0 209 -86t86 -209h-184q0 49 -31 80t-80 30h-243q-49 0 -80 -30t-31 -80v-113q-1 -47 17 -75
q18 -30 28 -44t34 -33t36 -29t45 -32q33 -20 45 -28t49 -27q37 -20 47 -27q336 -190 336 -516v-158q0 -122 -86 -208t-209 -86h-244q-123 0 -209 86t-86 208v304h185v-304zM827 2058l-206 -268h-179l207 268h178z" />
    <glyph glyph-name="sacute" unicode="&#x15b;" horiz-adv-x="983" 
d="M283 252q1 -39 25 -64t63 -24h241q41 0 66 24t24 64v49q0 59 -56 102t-232 132t-246 157t-70 168v35q0 113 80 193t193 79h241q113 0 193 -80t80 -192v-41h-185v41q0 39 -24 63t-64 25h-241q-39 0 -64 -25t-24 -63v-21q0 -51 85 -103q26 -15 44 -27t54 -31q36 -20 60 -35
q211 -106 285 -179t74 -177v-70q0 -113 -80 -193t-193 -79h-241q-113 0 -193 80t-80 192v182h185v-182zM795 1567l-207 -269h-178l206 269h179z" />
    <glyph glyph-name="Scircumflex" unicode="&#x15c;" horiz-adv-x="1050" 
d="M287 274q1 -50 31 -80t79 -30h244q49 0 80 31t31 79v158q0 151 -104 249q-78 72 -218 150q-8 4 -12 8t-19 9q-285 164 -284 395v113q0 123 86 209t209 86h243q123 0 209 -86t86 -209h-184q0 49 -31 80t-80 30h-243q-49 0 -80 -30t-31 -80v-113q-1 -47 17 -75
q18 -30 28 -44t34 -33t36 -29t45 -32q33 -20 45 -28t49 -27q37 -20 47 -27q336 -190 336 -516v-158q0 -122 -86 -208t-209 -86h-244q-123 0 -209 86t-86 208v304h185v-304zM575 2099l254 -303h-163l-138 160h-6l-137 -160h-164l254 303h100z" />
    <glyph glyph-name="scircumflex" unicode="&#x15d;" horiz-adv-x="983" 
d="M283 252q1 -39 25 -64t63 -24h241q41 0 66 24t24 64v49q0 59 -56 102t-232 132t-246 157t-70 168v35q0 113 80 193t193 79h241q113 0 193 -80t80 -192v-41h-185v41q0 39 -24 63t-64 25h-241q-39 0 -64 -25t-24 -63v-21q0 -51 85 -103q26 -15 44 -27t54 -31q36 -20 60 -35
q211 -106 285 -179t74 -177v-70q0 -113 -80 -193t-193 -79h-241q-113 0 -193 80t-80 192v182h185v-182zM543 1608l254 -303h-164l-137 159h-7l-137 -159h-164l254 303h101z" />
    <glyph glyph-name="Scedilla" unicode="&#x15e;" horiz-adv-x="1050" 
d="M299 1243q-1 -47 17 -75q18 -30 28 -44t34 -33t36 -29t45 -32q33 -20 45 -28t49 -27q37 -20 47 -27q336 -190 336 -516v-158q0 -122 -86 -208t-209 -86h-45l-8 -35q82 -18 134 -85t52 -158t-73 -160t-185 -68q-70 0 -168 61l72 113q61 -31 105 -31t75 27q31 28 31 66
t-26 67t-66 28h-109l25 175h-58q-123 0 -209 86t-86 208v304h185v-304q1 -50 31 -80t79 -30h244q49 0 80 31t31 79v158q0 151 -104 249q-78 72 -218 150q-8 4 -12 8t-19 9q-285 164 -284 395v113q0 123 86 209t209 86h243q123 0 209 -86t86 -209h-184q0 49 -31 80t-80 30
h-243q-49 0 -80 -30t-31 -80v-113z" />
    <glyph glyph-name="scedilla" unicode="&#x15f;" horiz-adv-x="983" 
d="M700 854v41q0 39 -24 63t-64 25h-241q-39 0 -64 -25t-24 -63v-21q0 -51 85 -103q26 -15 44 -27t54 -31q36 -20 60 -35q211 -106 285 -179t74 -177v-70q0 -113 -80 -193t-193 -79h-53l-8 -35q82 -18 134 -85t52 -158q-1 -91 -73 -160t-185 -68q-70 0 -168 61l72 113
q61 -31 105 -31t75 27q31 28 31 66t-26 67t-66 28h-109l25 175h-47q-113 0 -193 80t-80 192v182h185v-182q1 -39 25 -64t63 -24h241q41 0 66 24t24 64v49q0 59 -56 102t-232 132t-246 157t-70 168v35q0 113 80 193t193 79h241q113 0 193 -80t80 -192v-41h-185z" />
    <glyph glyph-name="Scaron" unicode="&#x160;" horiz-adv-x="1050" 
d="M287 274q1 -50 31 -80t79 -30h244q49 0 80 31t31 79v158q0 151 -104 249q-78 72 -218 150q-8 4 -12 8t-19 9q-285 164 -284 395v113q0 123 86 209t209 86h243q123 0 209 -86t86 -209h-184q0 49 -31 80t-80 30h-243q-49 0 -80 -30t-31 -80v-113q-1 -47 17 -75
q18 -30 28 -44t34 -33t36 -29t45 -32q33 -20 45 -28t49 -27q37 -20 47 -27q336 -190 336 -516v-158q0 -122 -86 -208t-209 -86h-244q-123 0 -209 86t-86 208v304h185v-304zM385 2077l137 -160h6l138 160h163l-254 -303h-100l-254 303h164z" />
    <glyph glyph-name="scaron" unicode="&#x161;" horiz-adv-x="983" 
d="M283 252q1 -39 25 -64t63 -24h241q41 0 66 24t24 64v49q0 59 -56 102t-232 132t-246 157t-70 168v35q0 113 80 193t193 79h241q113 0 193 -80t80 -192v-41h-185v41q0 39 -24 63t-64 25h-241q-39 0 -64 -25t-24 -63v-21q0 -51 85 -103q26 -15 44 -27t54 -31q36 -20 60 -35
q211 -106 285 -179t74 -177v-70q0 -113 -80 -193t-193 -79h-241q-113 0 -193 80t-80 192v182h185v-182zM352 1585l137 -160h7l137 160h164l-254 -303h-101l-254 303h164z" />
    <glyph glyph-name="Tcedilla" unicode="&#x162;" horiz-adv-x="929" 
d="M462 -383q44 0 75 27q31 28 31 66t-26 67t-67 28h-108l26 195h-20v1454h-357v184h899v-184h-358v-1454h-20l-13 -55q82 -18 134 -85t52 -158t-72 -160q-73 -69 -185 -68q-70 0 -168 61l71 113q62 -31 106 -31z" />
    <glyph glyph-name="tcedilla" unicode="&#x163;" horiz-adv-x="692" 
d="M381 965v-713q0 -39 25 -64t65 -24h98v-184h-102q-27 0 -39 2l-8 -37q82 -18 134 -85t52 -158t-72 -160t-186 -68q-70 0 -168 61l72 113q61 -31 105 -31t75 27q31 28 31 66t-26 67t-66 28h-109l33 236q-100 80 -100 211v713h-179v182h179v295h186v-295h295v-182h-295z
" />
    <glyph glyph-name="Tcaron" unicode="&#x164;" horiz-adv-x="929" 
d="M16 1638h899v-184h-358v-1454h-184v1454h-357v184zM326 2077l137 -160h6l137 160h164l-254 -303h-100l-254 303h164z" />
    <glyph glyph-name="tcaron" unicode="&#x165;" horiz-adv-x="794" 
d="M381 252q0 -39 25 -64t65 -24h98v-184h-102q-113 0 -193 80t-79 192v713h-179v182h179v295h186v-295h295v-182h-295v-713zM838 1221h-164v346h164v-346z" />
    <glyph glyph-name="Tbar" unicode="&#x166;" horiz-adv-x="929" 
d="M557 1454v-614h297v-185h-297v-655h-184v655h-295v185h295v614h-357v184h899v-184h-358z" />
    <glyph glyph-name="tbar" unicode="&#x167;" horiz-adv-x="692" 
d="M381 522v-270q0 -39 25 -64t65 -24h98v-184h-102q-113 0 -193 80t-79 192v270h-177v162h177v281h-179v182h179v295h186v-295h295v-182h-295v-281h299v-162h-299z" />
    <glyph glyph-name="Utilde" unicode="&#x168;" horiz-adv-x="1130" 
d="M322 274q0 -50 30 -80t80 -30h266q49 0 80 31t31 79v1364h184v-1364q0 -122 -86 -208t-209 -86h-266q-123 0 -209 86t-86 208v1364h185v-1364zM416 2019q62 0 154 -36q92 -35 146 -35t107 57l11 -156q-56 -65 -116 -65t-152 36t-148 36t-107 -56l-10 156q53 63 115 63z
" />
    <glyph glyph-name="utilde" unicode="&#x169;" horiz-adv-x="1052" 
d="M337 -18q-95 0 -153 57q-57 57 -57 139v969h184v-914q0 -66 27 -65q39 0 303 108l88 37v834h184v-1147h-184v127q-297 -145 -392 -145zM676 1456q54 0 108 57l11 -155q-55 -66 -115 -66t-152 36t-148 36t-108 -55l-10 155q54 64 116 64t153 -36t145 -36z" />
    <glyph glyph-name="Umacron" unicode="&#x16a;" horiz-adv-x="1130" 
d="M322 274q0 -50 30 -80t80 -30h266q49 0 80 31t31 79v1364h184v-1364q0 -122 -86 -208t-209 -86h-266q-123 0 -209 86t-86 208v1364h185v-1364zM793 1958v-141h-451v141h451z" />
    <glyph glyph-name="umacron" unicode="&#x16b;" horiz-adv-x="1052" 
d="M337 -18q-95 0 -153 57q-57 57 -57 139v969h184v-914q0 -66 27 -65q39 0 303 108l88 37v834h184v-1147h-184v127q-297 -145 -392 -145zM754 1466v-141h-451v141h451z" />
    <glyph glyph-name="Ubreve" unicode="&#x16c;" horiz-adv-x="1130" 
d="M322 274q0 -50 30 -80t80 -30h266q49 0 80 31t31 79v1364h184v-1364q0 -122 -86 -208t-209 -86h-266q-123 0 -209 86t-86 208v1364h185v-1364zM764 2028q0 -82 -57 -140t-139 -57q-82 0 -140 57q-57 57 -57 140h143q0 -53 53 -54q53 0 54 54h143z" />
    <glyph glyph-name="ubreve" unicode="&#x16d;" horiz-adv-x="1052" 
d="M337 -18q-95 0 -153 57q-57 57 -57 139v969h184v-914q0 -66 27 -65q39 0 303 108l88 37v834h184v-1147h-184v127q-297 -145 -392 -145zM725 1536q0 -82 -57 -139q-58 -57 -140 -57t-139 56q-57 58 -57 140h143q0 -53 53 -53t54 53h143z" />
    <glyph glyph-name="Uring" unicode="&#x16e;" horiz-adv-x="1130" 
d="M322 274q0 -50 30 -80t80 -30h266q49 0 80 31t31 79v1364h184v-1364q0 -122 -86 -208t-209 -86h-266q-123 0 -209 86t-86 208v1364h185v-1364zM567 1851q39 0 67 28t28 67q0 38 -28 66t-67 28t-67 -28t-27 -66q-1 -38 27 -67q28 -28 67 -28zM567 1710q-98 0 -167 69
t-68 167q0 98 68 167q69 69 167 69t167 -70q69 -68 69 -166t-69 -167t-167 -69z" />
    <glyph glyph-name="uring" unicode="&#x16f;" horiz-adv-x="1052" 
d="M337 -18q-95 0 -153 57q-57 57 -57 139v969h184v-914q0 -66 27 -65q39 0 303 108l88 37v834h184v-1147h-184v127q-297 -145 -392 -145zM528 1360q39 0 67 28t28 66t-28 67q-28 27 -67 27q-38 0 -66 -28t-28 -66t28 -66t66 -28zM528 1219q-98 1 -167 69t-68 166
q0 98 68 167q69 69 167 69t167 -69t69 -167t-69 -166t-167 -69z" />
    <glyph glyph-name="Uhungarumlaut" unicode="&#x170;" horiz-adv-x="1130" 
d="M322 274q0 -50 30 -80t80 -30h266q49 0 80 31t31 79v1364h184v-1364q0 -122 -86 -208t-209 -86h-266q-123 0 -209 86t-86 208v1364h185v-1364zM975 2058l-205 -268h-160l207 268h158zM729 2058l-205 -268h-159l206 268h158z" />
    <glyph glyph-name="uhungarumlaut" unicode="&#x171;" horiz-adv-x="1052" 
d="M337 -18q-95 0 -153 57q-57 57 -57 139v969h184v-914q0 -66 27 -65q39 0 303 108l88 37v834h184v-1147h-184v127q-297 -145 -392 -145zM936 1567l-205 -269h-160l207 269h158zM690 1567l-205 -269h-159l206 269h158z" />
    <glyph glyph-name="Uogonek" unicode="&#x172;" horiz-adv-x="1130" 
d="M993 274q0 -122 -86 -208t-209 -86q-26 -7 -53 -36q-27 -30 -27 -67t27 -63t76 -25q49 0 121 59l98 -90q-66 -66 -114 -90t-109 -22q-100 0 -171 66t-71 165q0 53 27 103h-70q-123 0 -209 86t-86 208v1364h185v-1364q0 -50 30 -80t80 -30h266q49 0 80 31t31 79v1364h184
v-1364z" />
    <glyph glyph-name="uogonek" unicode="&#x173;" horiz-adv-x="1052" 
d="M934 -334q-100 0 -171 66t-71 166q0 63 37 120v109q-297 -145 -392 -145t-153 57q-57 57 -57 139v969h184v-914q0 -66 27 -65q39 0 303 108l88 37v834h184v-1143l2 -4q-28 -7 -54 -36q-25 -30 -25 -66t26 -63q26 -25 76 -25q49 0 121 59l98 -90q-66 -65 -114 -89
t-109 -24z" />
    <glyph glyph-name="Wcircumflex" unicode="&#x174;" horiz-adv-x="1724" 
d="M322 274q0 -50 30 -80t80 -30h146q82 0 137 70t55 143v1261h184v-1261q0 -72 56 -143t137 -70h143q49 0 80 31t31 79v1364h184v-1364q0 -122 -86 -208t-209 -86h-143q-102 0 -180 60t-105 155q-27 -94 -104 -155q-78 -60 -180 -60h-146q-123 0 -209 86t-86 208v1364h185
v-1364zM911 2099l254 -303h-164l-137 160h-6l-137 -160h-164l254 303h100z" />
    <glyph glyph-name="wcircumflex" unicode="&#x175;" horiz-adv-x="1570" 
d="M1444 274q0 -126 -76 -210t-197 -84h-122q-92 0 -164 54t-99 146q-26 -92 -98 -146t-164 -54h-123q-121 0 -197 85t-75 209v873h184v-873q0 -111 88 -110h123q76 0 123 55t47 158v770h185v-770q0 -101 47 -157t123 -56h122q88 0 89 110v873h184v-873zM836 1608l254 -303
h-164l-138 159h-6l-137 -159h-164l254 303h101z" />
    <glyph glyph-name="Ycircumflex" unicode="&#x176;" horiz-adv-x="1107" 
d="M705 457h-58v-457h-182v457h-53q-37 0 -68 19t-35 48l-272 1114h188l240 -972q4 -27 20 -27h148q14 0 20 27l236 972h184l-264 -1114q-8 -29 -38 -48t-66 -19zM606 2099l254 -303h-164l-137 160h-6l-137 -160h-164l254 303h100z" />
    <glyph glyph-name="ycircumflex" unicode="&#x177;" horiz-adv-x="913" 
d="M399 164h121q14 0 21 26l153 955h185l-244 -1464h-176l47 299h-195q-31 0 -57 22t-31 47l-186 1096h188l154 -955q0 -26 20 -26zM508 1608l254 -303h-164l-137 159h-6l-138 -159h-163l254 303h100z" />
    <glyph glyph-name="Ydieresis" unicode="&#x178;" horiz-adv-x="1107" 
d="M705 457h-58v-457h-182v457h-53q-37 0 -68 19t-35 48l-272 1114h188l240 -972q4 -27 20 -27h148q14 0 20 27l236 972h184l-264 -1114q-8 -29 -38 -48t-66 -19zM676 1790q-39 0 -68 28q-28 28 -28 68t28 68q29 28 68 28q38 0 66 -28t28 -69q0 -39 -28 -67t-66 -28z
M537 1885q0 -39 -29 -67t-69 -28q-39 0 -67 28t-28 68t28 68t68 28t68 -28q29 -28 29 -69z" />
    <glyph glyph-name="Zacute" unicode="&#x179;" horiz-adv-x="995" 
d="M61 1638h873l-588 -1454h588v-184h-873l592 1454h-592v184zM801 2058l-207 -268h-178l207 268h178z" />
    <glyph glyph-name="zacute" unicode="&#x17a;" horiz-adv-x="917" 
d="M74 963v184h768v-184l-568 -781h574v-182h-778v184l565 779h-561zM762 1567l-207 -269h-178l207 269h178z" />
    <glyph glyph-name="Zdotaccent" unicode="&#x17b;" horiz-adv-x="995" 
d="M61 1638h873l-588 -1454h588v-184h-873l592 1454h-592v184zM498 1778q-41 0 -71 30t-30 70q0 41 30 72q30 30 71 30q42 0 72 -30t30 -72q0 -40 -30 -70t-72 -30z" />
    <glyph glyph-name="zdotaccent" unicode="&#x17c;" horiz-adv-x="917" 
d="M74 963v184h768v-184l-568 -781h574v-182h-778v184l565 779h-561zM457 1286q-41 0 -71 30t-30 70t30 72q30 31 71 31t71 -31t31 -72q-1 -40 -31 -70t-71 -30z" />
    <glyph glyph-name="Zcaron" unicode="&#x17d;" horiz-adv-x="995" 
d="M61 1638h873l-588 -1454h588v-184h-873l592 1454h-592v184zM358 2077l138 -160h6l137 160h164l-254 -303h-100l-254 303h163z" />
    <glyph glyph-name="zcaron" unicode="&#x17e;" horiz-adv-x="917" 
d="M74 963v184h768v-184l-568 -781h574v-182h-778v184l565 779h-561zM317 1585l138 -160h6l137 160h164l-254 -303h-100l-254 303h163z" />
    <glyph glyph-name="longs" unicode="&#x17f;" horiz-adv-x="595" 
d="M88 -133q41 1 66 25t24 63v1010h-153v182h153v147q0 113 80 193t193 80h145v-185h-141q-41 0 -66 -24t-24 -64v-1339q0 -113 -80 -193t-197 -79v184z" />
    <glyph glyph-name="florin" unicode="&#x192;" horiz-adv-x="778" 
d="M651 1382h-123q-42 0 -66 -24t-24 -64v-405h176v-182h-176v-752q0 -113 -80 -193t-196 -79v184q42 1 66 25t24 63v752h-123v182h123v405q0 113 80 193t192 80h127v-185z" />
    <glyph glyph-name="DZcaron" unicode="&#x1c4;" horiz-adv-x="2138" 
d="M719 184q49 0 80 31t30 80v1061q1 46 -29 72t-81 26h-375v-1270h375zM1202 1454v184h873l-588 -1454h588v-184h-873l592 1454h-592zM719 1638q125 0 210 -80t85 -202v-1061q0 -123 -86 -209t-209 -86h-559v1638h559zM1499 2077l137 -160h6l138 160h164l-254 -303h-101
l-254 303h164z" />
    <glyph glyph-name="Dzcaron" unicode="&#x1c5;" horiz-adv-x="2058" 
d="M1214 963v184h768v-184l-567 -781h574v-182h-779v184l566 779h-562zM719 184q49 0 80 31t30 80v1061q1 46 -29 72t-81 26h-375v-1270h375zM1460 1585l137 -160h7l137 160h164l-254 -303h-101l-254 303h164zM719 1638q125 0 210 -80t85 -202v-1061q0 -123 -86 -209
t-209 -86h-559v1638h559z" />
    <glyph glyph-name="dzcaron" unicode="&#x1c6;" horiz-adv-x="1959" 
d="M719 895q0 41 -24 65t-62 23h-242q-39 0 -65 -25t-25 -61v-676q0 -55 31 -55q43 0 387 145v584zM1116 963v184h768v-184l-567 -781h573v-182h-778v184l565 779h-561zM903 1438v-1438h-184v127q-317 -147 -407 -147t-142 56q-51 56 -53 140v719q2 115 82 194t192 78h240
q49 0 88 -12v293h2v117h184v-127h-2zM1362 1585l137 -160h6l137 160h164l-254 -303h-100l-254 303h164z" />
    <glyph glyph-name="LJ" unicode="&#x1c7;" horiz-adv-x="1923" 
d="M1133 274q1 -50 31 -80t79 -30h258q49 0 80 31t31 79v1364h184v-1364q0 -122 -86 -208t-209 -86h-258q-123 0 -209 86t-86 208v324h185v-324zM342 184h547v-184h-729v1638h182v-1454z" />
    <glyph glyph-name="Lj" unicode="&#x1c8;" horiz-adv-x="1437" 
d="M1290 1147v-1194q0 -113 -80 -193t-192 -79h-127v184h123q42 1 66 25t24 63v1194h186zM1286 1567v-217h-186v217h186zM342 184h547v-184h-729v1638h182v-1454z" />
    <glyph glyph-name="lj" unicode="&#x1c9;" horiz-adv-x="1101" 
d="M954 -47q0 -113 -80 -193t-192 -79h-127v184h123q42 1 66 25t24 63v1194h186v-1194zM522 -20h-102q-113 0 -193 80t-80 192v1313h185v-418h2v-895q0 -39 24 -64t66 -24h98v-184zM950 1350h-186v217h186v-217z" />
    <glyph glyph-name="NJ" unicode="&#x1ca;" horiz-adv-x="2254" 
d="M1464 274q0 -50 31 -80t80 -30h258q49 0 80 31t31 79v1364h184v-1364q0 -122 -86 -208t-209 -86h-258q-123 0 -209 86t-86 208v324h184v-324zM891 184v1454h184v-1638h-327l-388 1454h-16v-1454h-184v1638h329l383 -1454h19z" />
    <glyph glyph-name="Nj" unicode="&#x1cb;" horiz-adv-x="1769" 
d="M1622 1147v-1194q0 -113 -80 -193t-192 -79h-127v184h123q42 1 66 25t24 63v1194h186zM1618 1567v-217h-186v217h186zM891 184v1454h184v-1638h-327l-388 1454h-16v-1454h-184v1638h329l383 -1454h19z" />
    <glyph glyph-name="nj" unicode="&#x1cc;" horiz-adv-x="1587" 
d="M1440 -47q0 -113 -80 -193t-193 -79h-127v184h123q41 1 66 25t24 63v1194h187v-1194zM716 1165q95 0 152 -57t58 -139v-969h-185v913q0 66 -26 66q-39 0 -303 -111l-88 -34v-834h-185v1147h185v-127q297 145 392 145zM1436 1350h-187v217h187v-217z" />
    <glyph glyph-name="Oogonek" unicode="&#x1ea;" horiz-adv-x="1110" 
d="M313 274q0 -50 31 -80t80 -30h264q49 0 80 31t31 79v1082q0 49 -31 80t-80 30h-264q-49 0 -80 -30t-31 -80v-1082zM983 274q0 -122 -86 -208t-209 -86q-26 -7 -53 -36q-27 -30 -27 -67t27 -63t75 -25q48 0 121 59l99 -90q-66 -66 -114 -90t-109 -22q-100 0 -171 66
t-71 165q0 53 27 103h-68q-123 0 -209 86t-86 208v1082q0 123 86 209t209 86h264q123 0 209 -86t86 -209v-1082z" />
    <glyph glyph-name="oogonek" unicode="&#x1eb;" horiz-adv-x="1021" 
d="M303 252q0 -39 25 -64t63 -24h242q45 0 67 17t21 71v643q0 39 -25 63t-63 25h-242q-39 0 -63 -25t-25 -63v-643zM905 252q0 -113 -80 -193t-192 -79q-28 -7 -54 -36q-27 -30 -27 -67t28 -63t76 -25q48 0 120 59l98 -90q-66 -66 -114 -90t-109 -22q-100 0 -171 66t-70 165
q0 53 26 103h-45q-113 0 -193 80t-79 192v643q0 113 80 193t192 79h242q113 0 193 -80t79 -192v-643z" />
    <glyph glyph-name="DZ" unicode="&#x1f1;" horiz-adv-x="2138" 
d="M719 184q49 0 80 31t30 80v1061q1 46 -29 72t-81 26h-375v-1270h375zM1202 1454v184h873l-588 -1454h588v-184h-873l592 1454h-592zM719 1638q125 0 210 -80t85 -202v-1061q0 -123 -86 -209t-209 -86h-559v1638h559z" />
    <glyph glyph-name="Dz" unicode="&#x1f2;" horiz-adv-x="2058" 
d="M1214 963v184h768v-184l-567 -781h574v-182h-779v184l566 779h-562zM719 184q49 0 80 31t30 80v1061q1 46 -29 72t-81 26h-375v-1270h375zM719 1638q125 0 210 -80t85 -202v-1061q0 -123 -86 -209t-209 -86h-559v1638h559z" />
    <glyph glyph-name="dz" unicode="&#x1f3;" horiz-adv-x="1959" 
d="M719 895q0 41 -24 65t-62 23h-242q-39 0 -65 -25t-25 -61v-676q0 -55 31 -55q43 0 387 145v584zM1116 963v184h768v-184l-567 -781h573v-182h-778v184l565 779h-561zM903 1438v-1438h-184v127q-317 -147 -407 -147t-142 56q-51 56 -53 140v719q2 115 82 194t192 78h240
q49 0 88 -12v293h2v117h184v-127h-2z" />
    <glyph glyph-name="Aringacute" unicode="&#x1fa;" horiz-adv-x="1105" 
d="M629 1454h-150q-18 0 -20 -27l-142 -845h474l-142 845q-6 27 -20 27zM555 1839q-39 0 -67 -28q-28 -29 -28 -67t28 -66t67 -28t67 28t27 67q1 39 -27 67t-67 27zM319 1761q0 82 69 151q69 68 167 68t167 -68t69 -167q0 -61 -31 -119q39 -20 45 -57l266 -1569h-184
l-66 397h-534l-66 -397h-184l266 1569q6 35 47 59q-31 51 -31 133zM666 2062h-179l207 269h178z" />
    <glyph glyph-name="aringacute" unicode="&#x1fb;" horiz-adv-x="985" 
d="M254 258q0 -92 27 -92q36 0 303 108l88 37v256l-357 -84q-39 -16 -50 -52t-11 -112v-61zM70 358q0 140 51 202t151 95l400 86v152q0 90 -111 90h-149q-113 0 -113 -90v-39h-184v39q0 123 88 199t209 75h149q121 -1 208 -75t87 -197v-895h-184v127q-296 -147 -392 -147
t-153 57t-57 139v182zM498 1360q38 0 66 28t28 66t-28 67q-28 27 -66 27t-67 -28q-28 -28 -28 -66t28 -66t67 -28zM498 1219q-98 1 -167 69t-69 166t69 167t167 69t167 -69t69 -167t-69 -167q-69 -68 -167 -68zM795 2017l-207 -268h-178l206 268h179z" />
    <glyph glyph-name="AEacute" unicode="&#x1fc;" horiz-adv-x="1552" 
d="M477 1454q-14 0 -20 -27l-138 -845h422v872h-264zM926 1442v-447h491v-184h-491v-627h547v-184h-732v397h-448l-72 -397h-184l264 1569q4 27 31 49t57 20h1084v-196h-547zM1128 2058l-206 -268h-179l207 268h178z" />
    <glyph glyph-name="aeacute" unicode="&#x1fd;" horiz-adv-x="1558" 
d="M270 258q0 -92 27 -92q39 0 303 108l88 37v256l-356 -84q-39 -16 -50 -52t-12 -112v-61zM1290 731v164q0 39 -24 63t-64 25h-241q-39 -1 -64 -23t-25 -59v-170h418zM872 248q0 -39 25 -62t64 -22h241q39 0 64 24t24 64v147h185v-147q0 -113 -80 -193t-193 -79h-241
q-84 0 -151 44t-99 115l-23 -12q-297 -147 -392 -147t-153 57q-57 57 -57 139v182q0 96 29 158t66 87q38 26 108 52l399 86v162q-4 78 -113 78h-147q-113 0 -113 -88v-39h-184v39q0 127 88 201t209 73h147q121 0 203 -69q76 70 183 69h241q113 0 193 -80t80 -192v-348h-603
v-299zM1090 1567l-207 -269h-178l206 269h179z" />
    <glyph glyph-name="Oslashacute" unicode="&#x1fe;" horiz-adv-x="1101" 
d="M418 164h264q49 0 80 31t31 79v977l-422 -1079q29 -8 47 -8zM682 1466h-264q-49 0 -80 -30t-31 -80v-959l416 1063q-18 6 -41 6zM977 1356v-1082q0 -122 -86 -208t-209 -86h-264q-59 0 -115 22l-45 -117h-152l80 205q-63 84 -63 184v1082q0 123 86 209t209 86h264
q59 0 106 -21l56 139h151l-88 -223q70 -82 70 -190zM854 2058l-207 -268h-178l207 268h178z" />
    <glyph glyph-name="oslashacute" unicode="&#x1ff;" horiz-adv-x="1058" 
d="M670 164q44 0 66 17t22 71v620l-359 -704q20 -4 29 -4h242zM428 983q-40 0 -64 -25t-24 -63v-512l307 600h-219zM942 895v-643q0 -113 -80 -193t-192 -79h-242q-61 0 -111 24l-32 -63h-166l80 163q-43 70 -43 148v643q0 113 80 193t192 79h242q37 0 63 -8l25 49h168
l-62 -123q78 -78 78 -190zM854 1567l-207 -269h-178l207 269h178z" />
    <glyph glyph-name="Scommaaccent" unicode="&#x218;" horiz-adv-x="1050" 
d="M610 -430h-164v346h164v-346zM287 274q1 -50 31 -80t79 -30h244q49 0 80 31t31 79v158q0 151 -104 249q-78 72 -218 150q-8 4 -12 8t-19 9q-285 164 -284 395v113q0 123 86 209t209 86h243q123 0 209 -86t86 -209h-184q0 49 -31 80t-80 30h-243q-49 0 -80 -30t-31 -80
v-113q-1 -47 17 -75q18 -30 28 -44t34 -33t36 -29t45 -32q33 -20 45 -28t49 -27q37 -20 47 -27q336 -190 336 -516v-158q0 -122 -86 -208t-209 -86h-244q-123 0 -209 86t-86 208v304h185v-304z" />
    <glyph glyph-name="scommaaccent" unicode="&#x219;" horiz-adv-x="983" 
d="M575 -430h-163v346h163v-346zM283 252q1 -39 25 -64t63 -24h241q41 0 66 24t24 64v49q0 59 -56 102t-232 132t-246 157t-70 168v35q0 113 80 193t193 79h241q113 0 193 -80t80 -192v-41h-185v41q0 39 -24 63t-64 25h-241q-39 0 -64 -25t-24 -63v-21q0 -51 85 -103
q26 -15 44 -27t54 -31q36 -20 60 -35q211 -106 285 -179t74 -177v-70q0 -113 -80 -193t-193 -79h-241q-113 0 -193 80t-80 192v182h185v-182z" />
    <glyph glyph-name="uni021A" unicode="&#x21a;" horiz-adv-x="929" 
d="M549 -430h-164v346h164v-346zM16 1638h899v-184h-358v-1454h-184v1454h-357v184z" />
    <glyph glyph-name="uni021B" unicode="&#x21b;" horiz-adv-x="692" 
d="M430 -430h-164v346h164v-346zM381 252q0 -39 25 -64t65 -24h98v-184h-102q-113 0 -193 80t-79 192v713h-179v182h179v295h186v-295h295v-182h-295v-713z" />
    <glyph glyph-name="dotlessj" unicode="&#x237;" horiz-adv-x="534" 
d="M387 1147v-1194q0 -113 -80 -193t-192 -79h-127v184h123q41 1 65 25t25 63v1194h186z" />
    <glyph glyph-name="uni02BC" unicode="&#x2bc;" horiz-adv-x="864" 
d="M475 1221h-164v346h164v-346z" />
    <glyph glyph-name="circumflex" unicode="&#x2c6;" horiz-adv-x="747" 
d="M434 1608l254 -303h-164l-137 159h-6l-137 -159h-164l254 303h100z" />
    <glyph glyph-name="caron" unicode="&#x2c7;" horiz-adv-x="923" 
d="M326 1585l137 -160h6l137 160h164l-254 -303h-100l-254 303h164z" />
    <glyph glyph-name="breve" unicode="&#x2d8;" horiz-adv-x="505" 
d="M451 1536q1 -82 -57 -139t-140 -57t-139 56q-57 58 -58 140h144q0 -53 53 -53t53 53h144z" />
    <glyph glyph-name="dotaccent" unicode="&#x2d9;" horiz-adv-x="438" 
d="M219 1286q-41 0 -71 30t-30 70t30 72q30 31 71 31t72 -31t31 -72q0 -40 -31 -70t-72 -30z" />
    <glyph glyph-name="ring" unicode="&#x2da;" horiz-adv-x="583" 
d="M293 1360q39 0 67 28t27 66q0 38 -28 67q-29 27 -67 27t-66 -28t-28 -66t28 -66t67 -28zM293 1219q-98 1 -167 69t-69 166t69 167t167 69t167 -69q68 -69 68 -167t-68 -167q-69 -68 -167 -68z" />
    <glyph glyph-name="ogonek" unicode="&#x2db;" horiz-adv-x="1138" 
d="M494 -383q-100 0 -171 66q-71 67 -71 153t46 148t114 98l63 -131q-28 -7 -54 -36q-26 -31 -26 -67t27 -62q28 -26 76 -26t120 60l99 -90q-66 -66 -114 -90t-109 -23z" />
    <glyph glyph-name="tilde" unicode="&#x2dc;" horiz-adv-x="659" 
d="M480 1456q54 0 108 57l10 -155q-56 -66 -116 -66t-151 36t-147 36t-108 -55l-10 155q54 64 116 64t153 -36t145 -36z" />
    <glyph glyph-name="hungarumlaut" unicode="&#x2dd;" horiz-adv-x="765" 
d="M729 1567l-205 -269h-159l206 269h158zM483 1567l-204 -269h-160l207 269h157z" />
    <glyph glyph-name="dotbelowcomb" unicode="&#x323;" horiz-adv-x="0" 
d="M213 -438q-41 0 -71 30t-29 70q0 41 29 72q30 30 71 30t72 -30t31 -72q0 -41 -31 -71q-31 -29 -72 -29z" />
    <glyph glyph-name="commaaccentcomb" unicode="&#x326;" horiz-adv-x="0" 
d="M356 -430h-163v346h163v-346z" />
    <glyph glyph-name="tonos" unicode="&#x384;" horiz-adv-x="0" 
d="M586 1640l-105 -329h-174l105 329h174z" />
    <glyph glyph-name="dieresistonos" unicode="&#x385;" horiz-adv-x="0" 
d="M700 1298q-40 0 -68 28t-28 68t29 68t67 29q38 0 67 -29q28 -28 28 -68t-28 -68t-67 -28zM187 1298q-39 0 -67 28t-28 68t28 68t66 29q38 0 69 -29q30 -28 30 -68t-29 -68t-69 -28zM502 1311h-174l104 329h174z" />
    <glyph glyph-name="Alphatonos" unicode="&#x386;" horiz-adv-x="1105" 
d="M629 1454h-150q-18 0 -20 -27l-142 -845h474l-142 845q-6 27 -20 27zM717 1638q31 0 57 -22t31 -47l266 -1569h-184l-66 397h-534l-66 -397h-184l266 1569q4 27 31 49t57 20h326zM240 1638l-105 -329h-174l105 329h174z" />
    <glyph glyph-name="Epsilontonos" unicode="&#x388;" horiz-adv-x="954" 
d="M344 1454v-459h492v-184h-492v-627h547v-184h-731v1638h731v-184h-547zM133 1638l-104 -329h-176l104 329h176z" />
    <glyph glyph-name="Etatonos" unicode="&#x389;" horiz-adv-x="1165" 
d="M823 995v643h185v-1638h-185v813h-479v-813h-184v1638h184v-643h479zM119 1638l-105 -329h-174l105 329h174z" />
    <glyph glyph-name="Iotatonos" unicode="&#x38a;" horiz-adv-x="524" 
d="M170 0v1638h184v-1638h-184zM131 1638l-104 -329h-174l104 329h174z" />
    <glyph glyph-name="Omicrontonos" unicode="&#x38c;" horiz-adv-x="1110" 
d="M313 274q0 -50 31 -80t80 -30h264q49 0 80 31t31 79v1082q0 49 -31 80t-80 30h-264q-49 0 -80 -30t-31 -80v-1082zM127 1638l-104 -329h-175l105 329h174zM129 1356q0 123 86 209t209 86h264q123 0 209 -86t86 -209v-1082q0 -122 -86 -208t-209 -86h-264q-123 0 -209 86
t-86 208v1082z" />
    <glyph glyph-name="Upsilontonos" unicode="&#x38e;" horiz-adv-x="1107" 
d="M705 457h-58v-457h-182v457h-53q-37 0 -68 19t-35 48l-272 1114h188l240 -972q4 -27 20 -27h148q14 0 20 27l236 972h184l-264 -1114q-8 -29 -38 -48t-66 -19zM2 1638l-104 -329h-174l104 329h174z" />
    <glyph glyph-name="Omegatonos" unicode="&#x38f;" horiz-adv-x="1116" 
d="M150 1638l-105 -329h-174l104 329h175zM989 586q0 -141 -110 -232v-170h82v-184h-246v479q35 8 63 35t27 72v770q0 49 -31 80t-80 30h-270q-49 0 -80 -30t-31 -80v-770q0 -45 28 -73t62 -36v-477h-245v184h82v170q-111 88 -111 232v770q0 123 86 209t209 86h270
q123 0 209 -86t86 -209v-770z" />
    <glyph glyph-name="iotadieresistonos" unicode="&#x390;" horiz-adv-x="524" 
d="M170 0v1638h184v-1638h-184zM541 1790q-39 0 -68 28t-29 68t29 68t68 28t67 -28t27 -69q1 -39 -27 -67t-67 -28zM125 1885q-1 -39 -29 -67t-68 -28t-68 28t-28 68t28 68t67 28t69 -28t29 -69zM449 2132l-105 -330h-174l104 330h175z" />
    <glyph glyph-name="Alpha" unicode="&#x391;" horiz-adv-x="1105" 
d="M629 1454h-150q-18 0 -20 -27l-142 -845h474l-142 845q-6 27 -20 27zM717 1638q31 0 57 -22t31 -47l266 -1569h-184l-66 397h-534l-66 -397h-184l266 1569q4 27 31 49t57 20h326z" />
    <glyph glyph-name="Beta" unicode="&#x392;" horiz-adv-x="1130" 
d="M766 184q63 0 63 62v364q0 43 -24 90q-25 47 -64 64h-397v-580h422zM813 1094v299q0 27 -15 45t-44 18h-410v-508h399q70 31 70 146zM754 1638q102 0 174 -72t71 -173v-295q0 -78 -44 -145t-113 -97q76 -30 124 -96t48 -150v-364q0 -102 -73 -174t-173 -72h-608v1638h594
z" />
    <glyph glyph-name="Gamma" unicode="&#x393;" horiz-adv-x="905" 
d="M344 1454v-1454h-184v1638h729v-184h-545z" />
    <glyph glyph-name="Delta" unicode="&#x394;" horiz-adv-x="1105" 
d="M629 1454h-150q-18 0 -20 -27l-207 -1243h604l-207 1243q-6 27 -20 27zM717 1638q31 0 57 -22t31 -47l266 -1569h-1034l266 1569q4 27 31 49t57 20h326z" />
    <glyph glyph-name="Epsilon" unicode="&#x395;" horiz-adv-x="970" 
d="M891 1454h-547v-459h492v-184h-492v-627h547v-184h-731v1638h731v-184z" />
    <glyph glyph-name="Zeta" unicode="&#x396;" horiz-adv-x="995" 
d="M61 1638h873l-588 -1454h588v-184h-873l592 1454h-592v184z" />
    <glyph glyph-name="Eta" unicode="&#x397;" horiz-adv-x="1165" 
d="M344 995h479v643h185v-1638h-185v813h-479v-813h-184v1638h184v-643z" />
    <glyph glyph-name="Theta" unicode="&#x398;" horiz-adv-x="1110" 
d="M758 793h-404v141h404v-141zM313 274q0 -50 31 -80t80 -30h264q49 0 80 31t31 79v1082q0 49 -31 80t-80 30h-264q-49 0 -80 -30t-31 -80v-1082zM129 1356q0 123 86 209t209 86h264q123 0 209 -86t86 -209v-1082q0 -122 -86 -208t-209 -86h-264q-123 0 -209 86t-86 208
v1082z" />
    <glyph glyph-name="Iota" unicode="&#x399;" horiz-adv-x="524" 
d="M354 0h-184v1638h184v-1638z" />
    <glyph glyph-name="Kappa" unicode="&#x39a;" horiz-adv-x="1157" 
d="M342 995h254l346 643h193l-385 -725v-18l385 -895h-193l-346 813h-254v-813h-182v1638h182v-643z" />
    <glyph glyph-name="Lambda" unicode="&#x39b;" horiz-adv-x="1105" 
d="M717 1638q31 0 57 -22t31 -47l266 -1569h-184l-238 1427q-6 27 -20 27h-150q-18 0 -20 -27l-238 -1427h-184l266 1569q4 27 31 49t57 20h326z" />
    <glyph glyph-name="Mu" unicode="&#x39c;" horiz-adv-x="1548" 
d="M774 451l213 1187h365l61 -1638h-184l-60 1454h-20l-291 -1434h-168l-287 1434h-20l-61 -1454h-185l64 1638h358z" />
    <glyph glyph-name="Nu" unicode="&#x39d;" horiz-adv-x="1234" 
d="M891 184v1454h184v-1638h-327l-388 1454h-16v-1454h-184v1638h329l383 -1454h19z" />
    <glyph glyph-name="Xi" unicode="&#x39e;" horiz-adv-x="1329" 
d="M1169 0h-1009v676h184v-494h641v494h184v-676zM999 813h-671v182h671v-182zM1083 1229h-184v227h-477v-227h-184v409h845v-409z" />
    <glyph glyph-name="Omicron" unicode="&#x39f;" horiz-adv-x="1110" 
d="M313 274q0 -50 31 -80t80 -30h264q49 0 80 31t31 79v1082q0 49 -31 80t-80 30h-264q-49 0 -80 -30t-31 -80v-1082zM129 1356q0 123 86 209t209 86h264q123 0 209 -86t86 -209v-1082q0 -122 -86 -208t-209 -86h-264q-123 0 -209 86t-86 208v1082z" />
    <glyph glyph-name="Pi" unicode="&#x3a0;" horiz-adv-x="1163" 
d="M819 0v1456h-475v-1456h-184v1638h844v-1638h-185z" />
    <glyph glyph-name="Rho" unicode="&#x3a1;" horiz-adv-x="1062" 
d="M711 885q49 1 80 31t30 79v361q1 46 -29 72t-81 26h-367v-569h367zM711 1638q125 0 210 -80t85 -202v-361q0 -123 -86 -209t-209 -86h-367v-700h-184v1638h551z" />
    <glyph glyph-name="Sigma" unicode="&#x3a3;" horiz-adv-x="1062" 
d="M999 1454h-604l256 -629l-260 -641h604v-184h-870l346 823l-342 815h870v-184z" />
    <glyph glyph-name="Tau" unicode="&#x3a4;" horiz-adv-x="929" 
d="M16 1638h899v-184h-358v-1454h-184v1454h-357v184z" />
    <glyph glyph-name="Upsilon" unicode="&#x3a5;" horiz-adv-x="1107" 
d="M705 457h-58v-457h-182v457h-53q-37 0 -68 19t-35 48l-272 1114h188l240 -972q4 -27 20 -27h148q14 0 20 27l236 972h184l-264 -1114q-8 -29 -38 -48t-66 -19z" />
    <glyph glyph-name="Phi" unicode="&#x3a6;" horiz-adv-x="1214" 
d="M901 1151q0 49 -31 80t-79 31h-91v-893h91q49 1 79 31t31 79v672zM516 1262h-92q-49 0 -80 -31t-31 -80v-672q0 -49 31 -80t80 -30h92v893zM791 1446q123 0 209 -86t85 -209v-672q0 -123 -86 -209t-208 -86h-91v-184h-184v184h-92q-123 0 -209 86t-86 209v672
q0 123 86 209t209 86h92v192h184v-192h91z" />
    <glyph glyph-name="Chi" unicode="&#x3a7;" horiz-adv-x="1024" 
d="M799 0l-287 727l-287 -727h-188l364 891l-311 747h193l229 -596l229 596h193l-313 -745l366 -893h-188z" />
    <glyph glyph-name="Psi" unicode="&#x3a8;" horiz-adv-x="1212" 
d="M1085 1638v-612q0 -123 -86 -209t-208 -86h-93v-731h-184v731h-90q-123 0 -209 86t-86 209v612h184v-612q0 -49 31 -80t80 -31h90v723h184v-723h93q49 0 79 31t31 80v612h184z" />
    <glyph glyph-name="Omega" unicode="&#x3a9;" horiz-adv-x="1116" 
d="M989 586q0 -141 -110 -232v-170h82v-184h-246v479q35 8 63 35t27 72v770q0 49 -31 80t-80 30h-270q-49 0 -80 -30t-31 -80v-770q0 -45 28 -73t62 -36v-477h-245v184h82v170q-111 88 -111 232v770q0 123 86 209t209 86h270q123 0 209 -86t86 -209v-770z" />
    <glyph glyph-name="Iotadieresis" unicode="&#x3aa;" horiz-adv-x="524" 
d="M170 0v1638h184v-1638h-184zM379 1790q-39 0 -68 28t-29 68t29 68t68 28t67 -28t27 -69q1 -39 -27 -67t-67 -28zM240 1885q0 -39 -29 -67t-69 -28t-68 28t-27 68q0 40 28 68q29 28 67 28t68 -28t30 -69z" />
    <glyph glyph-name="Upsilondieresis" unicode="&#x3ab;" horiz-adv-x="1107" 
d="M705 457h-58v-457h-182v457h-53q-37 0 -68 19t-35 48l-272 1114h188l240 -972q4 -27 20 -27h148q14 0 20 27l236 972h184l-264 -1114q-8 -29 -38 -48t-66 -19zM680 1790q-39 0 -68 28q-28 28 -28 68t28 68q29 28 68 28q38 0 66 -28t28 -69q0 -39 -28 -67t-66 -28z
M541 1885q0 -39 -29 -67t-69 -28q-39 0 -67 28t-28 68t28 68t68 28t68 -28q29 -28 29 -69z" />
    <glyph glyph-name="alphatonos" unicode="&#x3ac;" horiz-adv-x="1105" 
d="M629 1454h-150q-18 0 -20 -27l-142 -845h474l-142 845q-6 27 -20 27zM717 1638q31 0 57 -22t31 -47l266 -1569h-184l-66 397h-534l-66 -397h-184l266 1569q4 27 31 49t57 20h326zM240 1638l-105 -329h-174l105 329h174z" />
    <glyph glyph-name="epsilontonos" unicode="&#x3ad;" horiz-adv-x="954" 
d="M344 995h492v-184h-492v-627h547v-184h-731v1638h731v-184h-547v-459zM117 1638l-105 -329h-174l105 329h174z" />
    <glyph glyph-name="etatonos" unicode="&#x3ae;" horiz-adv-x="1165" 
d="M823 1638h185v-1638h-185v813h-479v-813h-184v1638h184v-643h479v643zM104 1638l-104 -329h-174l104 329h174z" />
    <glyph glyph-name="iotatonos" unicode="&#x3af;" horiz-adv-x="524" 
d="M170 0v1638h184v-1638h-184zM137 1638l-104 -329h-174l104 329h174z" />
    <glyph glyph-name="upsilondieresistonos" unicode="&#x3b0;" horiz-adv-x="1107" 
d="M705 457h-58v-457h-182v457h-53q-37 0 -68 19t-35 48l-272 1114h188l240 -972q4 -27 20 -27h148q14 0 20 27l236 972h184l-264 -1114q-8 -29 -38 -48t-66 -19zM836 1790q-39 0 -68 28t-29 68t29 68t68 28q38 0 66 -28t28 -69q0 -39 -28 -67t-66 -28zM420 1885
q0 -39 -28 -67t-69 -28q-40 0 -68 28t-28 68t28 68t67 28q38 0 68 -28t30 -69zM743 2132l-104 -330h-174l104 330h174z" />
    <glyph glyph-name="alpha" unicode="&#x3b1;" horiz-adv-x="1105" 
d="M629 1454h-150q-18 0 -20 -27l-142 -845h474l-142 845q-6 27 -20 27zM717 1638q31 0 57 -22t31 -47l266 -1569h-184l-66 397h-534l-66 -397h-184l266 1569q4 27 31 49t57 20h326z" />
    <glyph glyph-name="beta" unicode="&#x3b2;" horiz-adv-x="1130" 
d="M766 184q63 0 63 62v364q0 43 -24 90q-25 47 -64 64h-397v-580h422zM813 1094v299q0 27 -15 45t-44 18h-410v-508h399q70 31 70 146zM754 1638q102 0 174 -72t71 -173v-295q0 -78 -44 -145t-113 -97q76 -30 124 -96t48 -150v-364q0 -102 -73 -174t-173 -72h-608v1638h594
z" />
    <glyph glyph-name="gamma" unicode="&#x3b3;" horiz-adv-x="905" 
d="M344 0h-184v1638h729v-184h-545v-1454z" />
    <glyph glyph-name="delta" unicode="&#x3b4;" horiz-adv-x="1105" 
d="M629 1454h-150q-18 0 -20 -27l-207 -1243h604l-207 1243q-6 27 -20 27zM717 1638q31 0 57 -22t31 -47l266 -1569h-1034l266 1569q4 27 31 49t57 20h326z" />
    <glyph glyph-name="epsilon" unicode="&#x3b5;" horiz-adv-x="954" 
d="M344 1454v-459h492v-184h-492v-627h547v-184h-731v1638h731v-184h-547z" />
    <glyph glyph-name="zeta" unicode="&#x3b6;" horiz-adv-x="995" 
d="M934 184v-184h-873l592 1454h-592v184h873l-588 -1454h588z" />
    <glyph glyph-name="eta" unicode="&#x3b7;" horiz-adv-x="1165" 
d="M823 995v643h185v-1638h-185v813h-479v-813h-184v1638h184v-643h479z" />
    <glyph glyph-name="theta" unicode="&#x3b8;" horiz-adv-x="1110" 
d="M354 793v141h404v-141h-404zM313 274q0 -50 31 -80t80 -30h264q49 0 80 31t31 79v1082q0 49 -31 80t-80 30h-264q-49 0 -80 -30t-31 -80v-1082zM129 1356q0 123 86 209t209 86h264q123 0 209 -86t86 -209v-1082q0 -122 -86 -208t-209 -86h-264q-123 0 -209 86t-86 208
v1082z" />
    <glyph glyph-name="iota" unicode="&#x3b9;" horiz-adv-x="524" 
d="M354 0h-184v1638h184v-1638z" />
    <glyph glyph-name="kappa" unicode="&#x3ba;" horiz-adv-x="1157" 
d="M342 813v-813h-182v1638h182v-643h254l346 643h193l-385 -725v-18l385 -895h-193l-346 813h-254z" />
    <glyph glyph-name="lambda" unicode="&#x3bb;" horiz-adv-x="1105" 
d="M717 1638q31 0 57 -22t31 -47l266 -1569h-184l-238 1427q-6 27 -20 27h-150q-18 0 -20 -27l-238 -1427h-184l266 1569q4 27 31 49t57 20h326z" />
    <glyph glyph-name="mu" unicode="&#x3bc;" horiz-adv-x="1548" 
d="M987 1638h365l61 -1638h-184l-60 1454h-20l-291 -1434h-168l-287 1434h-20l-61 -1454h-185l64 1638h358l215 -1187z" />
    <glyph glyph-name="nu" unicode="&#x3bd;" horiz-adv-x="1234" 
d="M891 184v1454h184v-1638h-327l-388 1454h-16v-1454h-184v1638h329l383 -1454h19z" />
    <glyph glyph-name="xi" unicode="&#x3be;" horiz-adv-x="1329" 
d="M160 0v676h184v-494h641v494h184v-676h-1009zM328 813v182h671v-182h-671zM899 1229v227h-477v-227h-184v409h845v-409h-184z" />
    <glyph glyph-name="omicron" unicode="&#x3bf;" horiz-adv-x="1110" 
d="M313 274q0 -50 31 -80t80 -30h264q49 0 80 31t31 79v1082q0 49 -31 80t-80 30h-264q-49 0 -80 -30t-31 -80v-1082zM129 1356q0 123 86 209t209 86h264q123 0 209 -86t86 -209v-1082q0 -122 -86 -208t-209 -86h-264q-123 0 -209 86t-86 208v1082z" />
    <glyph glyph-name="pi" unicode="&#x3c0;" horiz-adv-x="1163" 
d="M819 1456h-475v-1456h-184v1638h844v-1638h-185v1456z" />
    <glyph glyph-name="rho" unicode="&#x3c1;" horiz-adv-x="1062" 
d="M711 885q49 1 80 31t30 79v361q1 46 -29 72t-81 26h-367v-569h367zM711 1638q125 0 210 -80t85 -202v-361q0 -123 -86 -209t-209 -86h-367v-700h-184v1638h551z" />
    <glyph glyph-name="sigmafinal" unicode="&#x3c2;" horiz-adv-x="1062" 
d="M995 184v-184h-870l346 823l-342 815h870v-184h-604l256 -629l-260 -641h604z" />
    <glyph glyph-name="sigma" unicode="&#x3c3;" horiz-adv-x="1062" 
d="M995 184v-184h-870l346 823l-342 815h870v-184h-604l256 -629l-260 -641h604z" />
    <glyph glyph-name="tau" unicode="&#x3c4;" horiz-adv-x="929" 
d="M915 1638v-184h-358v-1454h-184v1454h-357v184h899z" />
    <glyph glyph-name="upsilon" unicode="&#x3c5;" horiz-adv-x="1107" 
d="M705 457h-58v-457h-182v457h-53q-37 0 -68 19t-35 48l-272 1114h188l240 -972q4 -27 20 -27h148q14 0 20 27l236 972h184l-264 -1114q-8 -29 -38 -48t-66 -19z" />
    <glyph glyph-name="phi" unicode="&#x3c6;" horiz-adv-x="1214" 
d="M901 1151q0 49 -31 80t-79 31h-91v-893h91q49 1 79 31t31 79v672zM424 1262q-49 0 -80 -31t-31 -80v-672q0 -49 31 -80t80 -30h92v893h-92zM791 1446q123 0 209 -86t85 -209v-672q0 -123 -86 -209t-208 -86h-91v-184h-184v184h-92q-123 0 -209 86t-86 209v672
q0 123 86 209t209 86h92v192h184v-192h91z" />
    <glyph glyph-name="chi" unicode="&#x3c7;" horiz-adv-x="1058" 
d="M512 727l-287 -727h-188l364 891l-311 747h193l229 -596l229 596h193l-313 -745l366 -893h-188z" />
    <glyph glyph-name="psi" unicode="&#x3c8;" horiz-adv-x="1212" 
d="M1085 1026q0 -123 -86 -209t-208 -86h-93v-731h-184v731h-90q-123 0 -209 86t-86 209v612h184v-612q0 -49 31 -80t80 -31h90v723h184v-723h93q49 0 79 31t31 80v612h184v-612z" />
    <glyph glyph-name="omega" unicode="&#x3c9;" horiz-adv-x="1116" 
d="M989 586q0 -141 -110 -232v-170h82v-184h-246v479q35 8 63 35t27 72v770q0 49 -31 80t-80 30h-270q-49 0 -80 -30t-31 -80v-770q0 -45 28 -73t62 -36v-477h-245v184h82v170q-111 88 -111 232v770q0 123 86 209t209 86h270q123 0 209 -86t86 -209v-770z" />
    <glyph glyph-name="iotadieresis" unicode="&#x3ca;" horiz-adv-x="524" 
d="M170 0v1638h184v-1638h-184zM381 1790q-39 0 -68 28t-29 68t29 68t68 28t67 -28t27 -69q1 -39 -27 -67t-67 -28zM242 1885q0 -39 -29 -67t-69 -28t-68 28t-27 68q0 40 28 68q27 28 67 28t69 -28t29 -69z" />
    <glyph glyph-name="upsilondieresis" unicode="&#x3cb;" horiz-adv-x="1107" 
d="M705 457h-58v-457h-182v457h-53q-37 0 -68 19t-35 48l-272 1114h188l240 -972q4 -27 20 -27h148q14 0 20 27l236 972h184l-264 -1114q-8 -29 -38 -48t-66 -19zM676 1790q-39 0 -68 28q-28 28 -28 68t28 68q29 28 68 28q38 0 66 -28t28 -69q0 -39 -28 -67t-66 -28z
M537 1885q0 -39 -29 -67t-69 -28q-39 0 -67 28t-28 68t28 68t68 28t68 -28q29 -28 29 -69z" />
    <glyph glyph-name="omicrontonos" unicode="&#x3cc;" horiz-adv-x="1110" 
d="M313 274q0 -50 31 -80t80 -30h264q49 0 80 31t31 79v1082q0 49 -31 80t-80 30h-264q-49 0 -80 -30t-31 -80v-1082zM125 1638l-105 -329h-174l105 329h174zM129 1356q0 123 86 209t209 86h264q123 0 209 -86t86 -209v-1082q0 -122 -86 -208t-209 -86h-264q-123 0 -209 86
t-86 208v1082z" />
    <glyph glyph-name="upsilontonos" unicode="&#x3cd;" horiz-adv-x="1107" 
d="M705 457h-58v-457h-182v457h-53q-37 0 -68 19t-35 48l-272 1114h188l240 -972q4 -27 20 -27h148q14 0 20 27l236 972h184l-264 -1114q-8 -29 -38 -48t-66 -19zM2 1638l-104 -329h-174l104 329h174z" />
    <glyph glyph-name="omegatonos" unicode="&#x3ce;" horiz-adv-x="1116" 
d="M131 1638l-104 -329h-174l104 329h174zM989 586q0 -141 -110 -232v-170h82v-184h-246v479q35 8 63 35t27 72v770q0 49 -31 80t-80 30h-270q-49 0 -80 -30t-31 -80v-770q0 -45 28 -73t62 -36v-477h-245v184h82v170q-111 88 -111 232v770q0 123 86 209t209 86h270
q123 0 209 -86t86 -209v-770z" />
    <glyph glyph-name="uni0401" unicode="&#x401;" horiz-adv-x="954" 
d="M344 1454v-459h492v-184h-492v-627h547v-184h-731v1638h731v-184h-547zM637 1790q-39 0 -68 28t-29 68t29 68t68 28t67 -28t27 -69q1 -39 -27 -67t-67 -28zM498 1885q0 -39 -29 -67t-69 -28t-68 28t-27 68q0 40 28 68q29 28 67 28t68 -28t30 -69z" />
    <glyph glyph-name="uni0402" unicode="&#x402;" horiz-adv-x="1298" 
d="M952 1165q96 0 152 -57q57 -57 57 -139v-1016q0 -113 -80 -193t-192 -79h-125v184h123q41 1 65 25t25 63v960q0 66 -27 66q-36 0 -303 -111l-88 -34v-834h-184v936h-2v518h-357v184h899v-184h-358v-307h2v-127q297 145 393 145z" />
    <glyph glyph-name="uni0403" unicode="&#x403;" horiz-adv-x="905" 
d="M344 1454v-1454h-184v1638h729v-184h-545zM756 2058l-207 -268h-178l207 268h178z" />
    <glyph glyph-name="uni0404" unicode="&#x404;" horiz-adv-x="1046" 
d="M688 1651q123 0 209 -86t86 -209v-174h-184v174q0 49 -31 80t-80 30h-264q-49 0 -80 -30t-31 -80v-402h564v-184h-564v-496q0 -50 31 -80t80 -30h264q49 0 80 31t31 79v238h184v-238q0 -122 -86 -208t-209 -86h-264q-123 0 -209 86t-86 208v1082q0 123 86 209t209 86h264
z" />
    <glyph glyph-name="uni0405" unicode="&#x405;" horiz-adv-x="1050" 
d="M287 274q1 -50 31 -80t79 -30h244q49 0 80 31t31 79v158q0 151 -104 249q-78 72 -218 150q-8 4 -12 8t-19 9q-285 164 -284 395v113q0 123 86 209t209 86h243q123 0 209 -86t86 -209h-184q0 49 -31 80t-80 30h-243q-49 0 -80 -30t-31 -80v-113q-1 -47 17 -75
q18 -30 28 -44t34 -33t36 -29t45 -32q33 -20 45 -28t49 -27q37 -20 47 -27q336 -190 336 -516v-158q0 -122 -86 -208t-209 -86h-244q-123 0 -209 86t-86 208v304h185v-304z" />
    <glyph glyph-name="uni0406" unicode="&#x406;" horiz-adv-x="524" 
d="M354 0h-184v1638h184v-1638z" />
    <glyph glyph-name="uni0407" unicode="&#x407;" horiz-adv-x="524" 
d="M170 0v1638h184v-1638h-184zM381 1790q-39 0 -68 28t-29 68t29 68t68 28t67 -28t27 -69q1 -39 -27 -67t-67 -28zM242 1885q0 -39 -29 -67t-69 -28t-68 28t-27 68q0 40 28 68q27 28 67 28t69 -28t29 -69z" />
    <glyph glyph-name="uni0408" unicode="&#x408;" horiz-adv-x="1019" 
d="M229 274q0 -50 31 -80t80 -30h258q49 0 80 31t31 79v1364h184v-1364q0 -122 -86 -208t-209 -86h-258q-123 0 -209 86t-86 208v324h184v-324z" />
    <glyph glyph-name="uni0409" unicode="&#x409;" horiz-adv-x="1828" 
d="M1513 926q0 55 -28 55q-37 0 -387 -145v-119h-2v-465q0 -41 24 -65t64 -23h241q39 0 64 24t24 62v676zM911 252v1198h2v6h-389l-53 -1188q-7 -147 -67 -209t-199 -73q-51 -4 -137 -4h-23v184h23q129 0 173 18t46 84l55 1372h756v-620q311 147 403 148q91 1 143 -56
t54 -141v-719q-2 -115 -82 -194t-193 -78h-239q-115 -2 -194 78t-79 194z" />
    <glyph glyph-name="uni040A" unicode="&#x40a;" horiz-adv-x="1728" 
d="M1413 926q0 55 -29 55q-37 0 -387 -145v-119h-2v-465q0 -41 24 -65t64 -23h242q39 0 64 24t24 62v676zM811 252v561h-467v-813h-184v1638h184v-643h467v455h2v188h184v-618q311 147 403 148t144 -56q51 -57 53 -141v-719q-1 -115 -81 -194t-193 -78h-240q-115 -2 -193 78
t-79 194z" />
    <glyph glyph-name="uni040B" unicode="&#x40b;" horiz-adv-x="1298" 
d="M952 1165q96 0 152 -57q57 -57 57 -139v-969h-184v913q0 66 -27 66q-36 0 -303 -111l-88 -34v-834h-184v936h-2v518h-357v184h899v-184h-358v-307h2v-127q297 145 393 145z" />
    <glyph glyph-name="uni040C" unicode="&#x40c;" horiz-adv-x="1193" 
d="M1169 1454q-20 0 -54 -13q-74 -29 -101 -75l-269 -453v-18l424 -895h-192l-385 813h-250v-813h-182v1638h182v-643h250l221 371q150 250 356 272v-184zM897 2058l-207 -268h-178l207 268h178z" />
    <glyph glyph-name="uni040E" unicode="&#x40e;" horiz-adv-x="1107" 
d="M397 451q-31 -1 -57 21t-31 48l-272 1118h188l240 -976q4 -27 20 -27h148q10 0 16 8l240 995h184l-393 -1638h-184l106 451h-205zM754 2028q0 -82 -58 -140t-139 -57q-82 0 -139 57t-58 140h144q0 -53 53 -54q53 0 53 54h144z" />
    <glyph glyph-name="uni040F" unicode="&#x40f;" horiz-adv-x="1163" 
d="M1004 0h-320v-319h-184v319h-340v1638h184v-1456h475v1456h185v-1638z" />
    <glyph glyph-name="uni0410" unicode="&#x410;" horiz-adv-x="1105" 
d="M629 1454h-150q-18 0 -20 -27l-142 -845h474l-142 845q-6 27 -20 27zM717 1638q31 0 57 -22t31 -47l266 -1569h-184l-66 397h-534l-66 -397h-184l266 1569q4 27 31 49t57 20h326z" />
    <glyph glyph-name="uni0411" unicode="&#x411;" horiz-adv-x="1073" 
d="M760 926q0 55 -29 55q-45 0 -389 -145v-584q0 -41 24 -65t64 -23h242q40 0 64 24t24 62v676zM158 252v1198h2v190h706v-184h-522v-436q312 147 404 148t143 -56t53 -141v-719q-2 -115 -82 -194t-192 -78h-240q-116 -2 -194 78t-78 194z" />
    <glyph glyph-name="uni0412" unicode="&#x412;" horiz-adv-x="1130" 
d="M766 184q63 0 63 62v364q0 43 -24 90q-25 47 -64 64h-397v-580h422zM813 1094v299q0 27 -15 45t-44 18h-410v-508h399q70 31 70 146zM754 1638q102 0 174 -72t71 -173v-295q0 -78 -44 -145t-113 -97q76 -30 124 -96t48 -150v-364q0 -102 -73 -174t-173 -72h-608v1638h594
z" />
    <glyph glyph-name="uni0413" unicode="&#x413;" horiz-adv-x="905" 
d="M889 1454h-545v-1454h-184v1638h729v-184z" />
    <glyph glyph-name="uni0414" unicode="&#x414;" horiz-adv-x="1425" 
d="M983 1456h-467l-47 -1024q-6 -164 -72 -250h586v1274zM1411 182v-368h-184v186h-1190v178h22q115 0 166 58t56 196l53 1208h833v-1458h244z" />
    <glyph glyph-name="uni0415" unicode="&#x415;" horiz-adv-x="970" 
d="M891 1454h-547v-459h492v-184h-492v-627h547v-184h-731v1638h731v-184z" />
    <glyph glyph-name="uni0416" unicode="&#x416;" horiz-adv-x="1652" 
d="M1618 1454q-18 0 -72 -20q-53 -20 -84 -68l-268 -453v-18l424 -895h-193l-385 813h-114v-813h-185v813h-127l-385 -813h-192l424 895v18l-268 453q-28 45 -81 66q-53 22 -75 22v184q207 -23 356 -272l221 -371h127v643h185v-643h114l222 371q150 250 356 272v-184z" />
    <glyph glyph-name="uni0417" unicode="&#x417;" horiz-adv-x="991" 
d="M582 1638q126 0 202 -64t76 -183v-250q0 -190 -117 -242q68 -25 100 -97t31 -149v-417q0 -119 -75 -183q-76 -63 -203 -63h-258q-127 0 -201 62t-74 184v342h185v-342q0 -34 20 -48t70 -14h256q96 0 96 62v417q0 39 -33 86t-77 47h-396v185h396q44 0 70 61t26 109v250
q0 61 -96 61h-512v186h514z" />
    <glyph glyph-name="uni0418" unicode="&#x418;" horiz-adv-x="1220" 
d="M1063 0h-184v1182l-535 -1114v-68h-184v1638h184v-1179l535 1114v65h184v-1638z" />
    <glyph glyph-name="uni0419" unicode="&#x419;" horiz-adv-x="1220" 
d="M879 0v1182l-535 -1114v-68h-184v1638h184v-1179l535 1114v65h184v-1638h-184zM809 2028q0 -82 -57 -140q-58 -58 -140 -57q-82 0 -139 57t-57 140h143q0 -53 53 -54q53 0 54 54h143z" />
    <glyph glyph-name="uni041A" unicode="&#x41a;" horiz-adv-x="1193" 
d="M1169 1454q-20 0 -54 -13q-74 -29 -101 -75l-269 -453v-18l424 -895h-192l-385 813h-250v-813h-182v1638h182v-643h250l221 371q150 250 356 272v-184z" />
    <glyph glyph-name="uni041B" unicode="&#x41b;" horiz-adv-x="1310" 
d="M1151 0h-184v1456h-443l-53 -1188q-7 -147 -67 -209t-199 -73q-51 -4 -137 -4h-23v184h23q129 0 173 18t46 84l55 1372h809v-1640z" />
    <glyph glyph-name="uni041C" unicode="&#x41c;" horiz-adv-x="1548" 
d="M774 451l213 1187h365l61 -1638h-184l-60 1454h-20l-291 -1434h-168l-287 1434h-20l-61 -1454h-185l64 1638h358z" />
    <glyph glyph-name="uni041D" unicode="&#x41d;" horiz-adv-x="1165" 
d="M344 995h479v643h185v-1638h-185v813h-479v-813h-184v1638h184v-643z" />
    <glyph glyph-name="uni041E" unicode="&#x41e;" horiz-adv-x="1110" 
d="M313 274q0 -50 31 -80t80 -30h264q49 0 80 31t31 79v1082q0 49 -31 80t-80 30h-264q-49 0 -80 -30t-31 -80v-1082zM129 1356q0 123 86 209t209 86h264q123 0 209 -86t86 -209v-1082q0 -122 -86 -208t-209 -86h-264q-123 0 -209 86t-86 208v1082z" />
    <glyph glyph-name="uni041F" unicode="&#x41f;" horiz-adv-x="1163" 
d="M1004 0h-185v1456h-475v-1456h-184v1638h844v-1638z" />
    <glyph glyph-name="uni0420" unicode="&#x420;" horiz-adv-x="1062" 
d="M711 885q49 1 80 31t30 79v361q1 46 -29 72t-81 26h-367v-569h367zM711 1638q125 0 210 -80t85 -202v-361q0 -123 -86 -209t-209 -86h-367v-700h-184v1638h551z" />
    <glyph glyph-name="uni0421" unicode="&#x421;" horiz-adv-x="1099" 
d="M129 1356q0 123 86 209t209 86h264q123 0 209 -86t86 -209v-258h-184v258q0 49 -31 80t-80 30h-264q-49 0 -80 -30t-31 -80v-1082q0 -50 31 -80t80 -30h268q79 0 93 32q14 26 14 78v324h184v-324q0 -122 -86 -208t-209 -86h-264q-123 0 -209 86t-86 208v1082z" />
    <glyph glyph-name="uni0422" unicode="&#x422;" horiz-adv-x="929" 
d="M16 1638h899v-184h-358v-1454h-184v1454h-357v184z" />
    <glyph glyph-name="uni0423" unicode="&#x423;" horiz-adv-x="1107" 
d="M397 451q-31 -1 -57 21t-31 48l-272 1118h188l240 -976q4 -27 20 -27h148q10 0 16 8l240 995h184l-393 -1638h-184l106 451h-205z" />
    <glyph glyph-name="uni0424" unicode="&#x424;" horiz-adv-x="1214" 
d="M901 1151q0 49 -31 80t-79 31h-91v-893h91q49 1 79 31t31 79v672zM516 369v893h-92q-49 0 -80 -31t-31 -80v-672q0 -49 31 -80t80 -30h92zM791 1446q123 0 209 -86t85 -209v-672q0 -123 -86 -209t-208 -86h-91v-184h-184v184h-92q-123 0 -209 86t-86 209v672
q0 123 86 209t209 86h92v192h184v-192h91z" />
    <glyph glyph-name="uni0425" unicode="&#x425;" horiz-adv-x="1024" 
d="M799 0l-287 727l-287 -727h-188l364 891l-311 747h193l229 -596l229 596h193l-313 -745l366 -893h-188z" />
    <glyph glyph-name="uni0426" unicode="&#x426;" horiz-adv-x="1193" 
d="M1180 182v-368h-185v186h-835v1638h184v-1456h475v1456h185v-1456h176z" />
    <glyph glyph-name="uni0427" unicode="&#x427;" horiz-adv-x="1110" 
d="M324 893q0 -92 41 -92t91 20q50 19 84 33t104 43t124 49v692h184v-1638h-184v762q-324 -148 -419 -148t-152 58t-58 139v827h185v-745z" />
    <glyph glyph-name="uni0428" unicode="&#x428;" horiz-adv-x="1566" 
d="M1407 0h-1247v1638h184v-1456h346v1456h184v-1456h349v1456h184v-1638z" />
    <glyph glyph-name="uni0429" unicode="&#x429;" horiz-adv-x="1595" 
d="M1579 182v-368h-184v186h-1235v1638h184v-1456h346v1456h184v-1456h349v1456h184v-1456h172z" />
    <glyph glyph-name="uni042A" unicode="&#x42a;" horiz-adv-x="1370" 
d="M1057 926q0 55 -29 55q-45 0 -389 -145v-584q0 -41 24 -65t64 -23h242q39 0 63 24t25 62v676zM455 252v1198h2v6h-441v184h625v-620q311 147 403 148t144 -56q51 -57 53 -141v-719q-2 -115 -82 -194t-192 -78h-240q-115 -2 -193 78t-79 194z" />
    <glyph glyph-name="uni042B" unicode="&#x42b;" horiz-adv-x="1519" 
d="M760 926q0 55 -29 55q-43 0 -387 -145v-119h-2v-465q0 -41 24 -65t64 -23h242q40 0 64 24t24 62v676zM1362 0h-184v1638h184v-1638zM158 252v1198h2v188h184v-618q312 147 404 148t143 -56t53 -141v-719q-2 -115 -82 -194t-192 -78h-240q-116 -2 -194 78t-78 194z" />
    <glyph glyph-name="uni042C" unicode="&#x42c;" horiz-adv-x="1032" 
d="M729 926q0 55 -29 55q-43 0 -387 -145v-119h-2v-465q0 -41 24 -65t64 -23h242q39 0 64 24t24 62v676zM127 252v1198h2v188h184v-618q311 147 403 148t144 -56q51 -57 53 -141v-719q-2 -115 -82 -194t-192 -78h-240q-115 -2 -193 78t-79 194z" />
    <glyph glyph-name="uni042D" unicode="&#x42d;" horiz-adv-x="1046" 
d="M358 1651h265q123 0 209 -86t86 -209v-1082q0 -122 -86 -208t-209 -86h-265q-122 0 -208 86t-87 208v238h185v-238q0 -50 31 -80t79 -30h265q49 0 79 31t31 79v496h-563v184h563v402q0 49 -31 80t-79 30h-265q-50 0 -80 -30t-30 -80v-174h-185v174q0 123 86 209t209 86z
" />
    <glyph glyph-name="uni042E" unicode="&#x42e;" horiz-adv-x="1685" 
d="M1372 1356q0 49 -31 80t-79 30h-265q-49 0 -79 -30t-31 -80v-1082q0 -50 31 -80t79 -30h265q50 0 80 31t30 79v1082zM1262 1651q122 0 208 -86t86 -209v-1082q0 -122 -86 -208t-208 -86h-265q-123 0 -209 86t-86 208v539h-358v-813h-184v1638h184v-643h358v361
q0 123 86 209t209 86h265z" />
    <glyph glyph-name="uni042F" unicode="&#x42f;" horiz-adv-x="1077" 
d="M365 987h366v467h-366q-51 0 -81 -26t-30 -72v-258q0 -49 31 -80t80 -31zM70 1356q0 121 85 202t210 80h550v-1638h-184v803h-213l-289 -803h-188l291 805q-113 10 -188 94t-74 199v258z" />
    <glyph glyph-name="uni0430" unicode="&#x430;" horiz-adv-x="1105" 
d="M629 1454h-150q-18 0 -20 -27l-142 -845h474l-142 845q-6 27 -20 27zM717 1638q31 0 57 -22t31 -47l266 -1569h-184l-66 397h-534l-66 -397h-184l266 1569q4 27 31 49t57 20h326z" />
    <glyph glyph-name="uni0431" unicode="&#x431;" horiz-adv-x="1073" 
d="M760 926q0 55 -29 55q-45 0 -389 -145v-584q0 -41 24 -65t64 -23h242q40 0 64 24t24 62v676zM158 252v1198h2v190h706v-184h-522v-436q312 147 404 148t143 -56t53 -141v-719q-2 -115 -82 -194t-192 -78h-240q-116 -2 -194 78t-78 194z" />
    <glyph glyph-name="uni0432" unicode="&#x432;" horiz-adv-x="1130" 
d="M766 184q63 0 63 62v364q0 43 -24 90q-25 47 -64 64h-397v-580h422zM813 1094v299q0 27 -15 45t-44 18h-410v-508h399q70 31 70 146zM754 1638q102 0 174 -72t71 -173v-295q0 -78 -44 -145t-113 -97q76 -30 124 -96t48 -150v-364q0 -102 -73 -174t-173 -72h-608v1638h594
z" />
    <glyph glyph-name="uni0433" unicode="&#x433;" horiz-adv-x="905" 
d="M344 1454v-1454h-184v1638h729v-184h-545z" />
    <glyph glyph-name="uni0434" unicode="&#x434;" horiz-adv-x="1425" 
d="M983 1456h-467l-47 -1024q-6 -164 -72 -250h586v1274zM1411 182v-368h-184v186h-1190v178h22q115 0 166 58t56 196l53 1208h833v-1458h244z" />
    <glyph glyph-name="uni0435" unicode="&#x435;" horiz-adv-x="954" 
d="M344 1454v-459h492v-184h-492v-627h547v-184h-731v1638h731v-184h-547z" />
    <glyph glyph-name="uni0436" unicode="&#x436;" horiz-adv-x="1652" 
d="M1618 1454q-18 0 -72 -20q-53 -20 -84 -68l-268 -453v-18l424 -895h-193l-385 813h-114v-813h-185v813h-127l-385 -813h-192l424 895v18l-268 453q-28 45 -81 66q-53 22 -75 22v184q207 -23 356 -272l221 -371h127v643h185v-643h114l222 371q150 250 356 272v-184z" />
    <glyph glyph-name="uni0437" unicode="&#x437;" horiz-adv-x="991" 
d="M582 1638q126 0 202 -64t76 -183v-250q0 -190 -117 -242q68 -25 100 -97t31 -149v-417q0 -119 -75 -183q-76 -63 -203 -63h-258q-127 0 -201 62t-74 184v342h185v-342q0 -34 20 -48t70 -14h256q96 0 96 62v417q0 39 -33 86t-77 47h-396v185h396q44 0 70 61t26 109v250
q0 61 -96 61h-512v186h514z" />
    <glyph glyph-name="uni0438" unicode="&#x438;" horiz-adv-x="1220" 
d="M879 0v1182l-535 -1114v-68h-184v1638h184v-1179l535 1114v65h184v-1638h-184z" />
    <glyph glyph-name="uni0439" unicode="&#x439;" horiz-adv-x="1220" 
d="M344 0h-184v1638h184v-1179l535 1114v65h184v-1638h-184v1182l-535 -1114v-68zM809 2028q0 -82 -57 -140q-58 -58 -140 -57q-82 0 -139 57t-57 140h143q0 -53 53 -54q53 0 54 54h143z" />
    <glyph glyph-name="uni043A" unicode="&#x43a;" horiz-adv-x="1193" 
d="M1169 1454q-20 0 -54 -13q-74 -29 -101 -75l-269 -453v-18l424 -895h-192l-385 813h-250v-813h-182v1638h182v-643h250l221 371q150 250 356 272v-184z" />
    <glyph glyph-name="uni043B" unicode="&#x43b;" horiz-adv-x="1310" 
d="M967 0v1456h-443l-53 -1188q-7 -147 -67 -209t-199 -73q-51 -4 -137 -4h-23v184h23q129 0 173 18t46 84l55 1372h809v-1640h-184z" />
    <glyph glyph-name="uni043C" unicode="&#x43c;" horiz-adv-x="1548" 
d="M987 1638h365l61 -1638h-184l-60 1454h-20l-291 -1434h-168l-287 1434h-20l-61 -1454h-185l64 1638h358l215 -1187z" />
    <glyph glyph-name="uni043D" unicode="&#x43d;" horiz-adv-x="1165" 
d="M823 995v643h185v-1638h-185v813h-479v-813h-184v1638h184v-643h479z" />
    <glyph glyph-name="uni043E" unicode="&#x43e;" horiz-adv-x="1110" 
d="M313 274q0 -50 31 -80t80 -30h264q49 0 80 31t31 79v1082q0 49 -31 80t-80 30h-264q-49 0 -80 -30t-31 -80v-1082zM129 1356q0 123 86 209t209 86h264q123 0 209 -86t86 -209v-1082q0 -122 -86 -208t-209 -86h-264q-123 0 -209 86t-86 208v1082z" />
    <glyph glyph-name="uni043F" unicode="&#x43f;" horiz-adv-x="1163" 
d="M819 0v1456h-475v-1456h-184v1638h844v-1638h-185z" />
    <glyph glyph-name="uni0440" unicode="&#x440;" horiz-adv-x="1062" 
d="M711 885q49 1 80 31t30 79v361q1 46 -29 72t-81 26h-367v-569h367zM711 1638q125 0 210 -80t85 -202v-361q0 -123 -86 -209t-209 -86h-367v-700h-184v1638h551z" />
    <glyph glyph-name="uni0441" unicode="&#x441;" horiz-adv-x="1099" 
d="M129 1356q0 123 86 209t209 86h264q123 0 209 -86t86 -209v-258h-184v258q0 49 -31 80t-80 30h-264q-49 0 -80 -30t-31 -80v-1082q0 -50 31 -80t80 -30h268q79 0 93 32q14 26 14 78v324h184v-324q0 -122 -86 -208t-209 -86h-264q-123 0 -209 86t-86 208v1082z" />
    <glyph glyph-name="uni0442" unicode="&#x442;" horiz-adv-x="929" 
d="M915 1638v-184h-358v-1454h-184v1454h-357v184h899z" />
    <glyph glyph-name="uni0443" unicode="&#x443;" horiz-adv-x="1107" 
d="M397 451q-31 -1 -57 21t-31 48l-272 1118h188l240 -976q4 -27 20 -27h148q10 0 16 8l240 995h184l-393 -1638h-184l106 451h-205z" />
    <glyph glyph-name="uni0444" unicode="&#x444;" horiz-adv-x="1214" 
d="M901 1151q0 49 -31 80t-79 31h-91v-893h91q49 1 79 31t31 79v672zM516 1262h-92q-49 0 -80 -31t-31 -80v-672q0 -49 31 -80t80 -30h92v893zM791 1446q123 0 209 -86t85 -209v-672q0 -123 -86 -209t-208 -86h-91v-184h-184v184h-92q-123 0 -209 86t-86 209v672
q0 123 86 209t209 86h92v192h184v-192h91z" />
    <glyph glyph-name="uni0445" unicode="&#x445;" horiz-adv-x="1058" 
d="M512 727l-287 -727h-188l364 891l-311 747h193l229 -596l229 596h193l-313 -745l366 -893h-188z" />
    <glyph glyph-name="uni0446" unicode="&#x446;" horiz-adv-x="1193" 
d="M1180 -186h-185v186h-835v1638h184v-1456h475v1456h185v-1456h176v-368z" />
    <glyph glyph-name="uni0447" unicode="&#x447;" horiz-adv-x="1110" 
d="M324 893q0 -92 41 -92t91 20q50 19 84 33t104 43t124 49v692h184v-1638h-184v762q-324 -148 -419 -148t-152 58t-58 139v827h185v-745z" />
    <glyph glyph-name="uni0448" unicode="&#x448;" horiz-adv-x="1566" 
d="M160 0v1638h184v-1456h346v1456h184v-1456h349v1456h184v-1638h-1247z" />
    <glyph glyph-name="uni0449" unicode="&#x449;" horiz-adv-x="1595" 
d="M1579 -186h-184v186h-1235v1638h184v-1456h346v1456h184v-1456h349v1456h184v-1456h172v-368z" />
    <glyph glyph-name="uni044A" unicode="&#x44a;" horiz-adv-x="1370" 
d="M1057 926q0 55 -29 55q-45 0 -389 -145v-584q0 -41 24 -65t64 -23h242q39 0 63 24t25 62v676zM455 252v1198h2v6h-441v184h625v-620q311 147 403 148t144 -56q51 -57 53 -141v-719q-2 -115 -82 -194t-192 -78h-240q-115 -2 -193 78t-79 194z" />
    <glyph glyph-name="uni044B" unicode="&#x44b;" horiz-adv-x="1519" 
d="M760 926q0 55 -29 55q-43 0 -387 -145v-119h-2v-465q0 -41 24 -65t64 -23h242q40 0 64 24t24 62v676zM1362 0h-184v1638h184v-1638zM158 252v1198h2v188h184v-618q312 147 404 148t143 -56t53 -141v-719q-2 -115 -82 -194t-192 -78h-240q-116 -2 -194 78t-78 194z" />
    <glyph glyph-name="uni044C" unicode="&#x44c;" horiz-adv-x="1032" 
d="M729 926q0 55 -29 55q-43 0 -387 -145v-119h-2v-465q0 -41 24 -65t64 -23h242q39 0 64 24t24 62v676zM127 252v1198h2v188h184v-618q311 147 403 148t144 -56q51 -57 53 -141v-719q-2 -115 -82 -194t-192 -78h-240q-115 -2 -193 78t-79 194z" />
    <glyph glyph-name="uni044D" unicode="&#x44d;" horiz-adv-x="1046" 
d="M358 1651h265q123 0 209 -86t86 -209v-1082q0 -122 -86 -208t-209 -86h-265q-122 0 -208 86t-87 208v238h185v-238q0 -50 31 -80t79 -30h265q49 0 79 31t31 79v496h-563v184h563v402q0 49 -31 80t-79 30h-265q-50 0 -80 -30t-30 -80v-174h-185v174q0 123 86 209t209 86z
" />
    <glyph glyph-name="uni044E" unicode="&#x44e;" horiz-adv-x="1685" 
d="M1372 1356q0 49 -31 80t-79 30h-265q-49 0 -79 -30t-31 -80v-1082q0 -50 31 -80t79 -30h265q50 0 80 31t30 79v1082zM1262 1651q122 0 208 -86t86 -209v-1082q0 -122 -86 -208t-208 -86h-265q-123 0 -209 86t-86 208v539h-358v-813h-184v1638h184v-643h358v361
q0 123 86 209t209 86h265z" />
    <glyph glyph-name="uni044F" unicode="&#x44f;" horiz-adv-x="1077" 
d="M365 987h366v467h-366q-51 0 -81 -26t-30 -72v-258q0 -49 31 -80t80 -31zM70 1356q0 121 85 202t210 80h550v-1638h-184v803h-213l-289 -803h-188l291 805q-113 10 -188 94t-74 199v258z" />
    <glyph glyph-name="uni0451" unicode="&#x451;" horiz-adv-x="954" 
d="M344 995h492v-184h-492v-627h547v-184h-731v1638h731v-184h-547v-459zM653 1790q-39 0 -67 28t-29 68q0 40 29 68q30 28 68 28t66 -28t28 -69q0 -39 -28 -67t-67 -28zM514 1885q0 -39 -28 -67t-69 -28q-40 0 -68 28q-27 28 -27 68t27 68q28 28 67 28q38 0 68 -28t30 -69z
" />
    <glyph glyph-name="uni0452" unicode="&#x452;" horiz-adv-x="1298" 
d="M952 1165q96 0 152 -57q57 -57 57 -139v-1016q0 -113 -80 -193t-192 -79h-125v184h123q41 1 65 25t25 63v960q0 66 -27 66q-36 0 -303 -111l-88 -34v-834h-184v936h-2v518h-357v184h899v-184h-358v-307h2v-127q297 145 393 145z" />
    <glyph glyph-name="uni0453" unicode="&#x453;" horiz-adv-x="905" 
d="M344 0h-184v1638h729v-184h-545v-1454zM836 2058l-207 -268h-178l206 268h179z" />
    <glyph glyph-name="uni0454" unicode="&#x454;" horiz-adv-x="1046" 
d="M688 1651q123 0 209 -86t86 -209v-174h-184v174q0 49 -31 80t-80 30h-264q-49 0 -80 -30t-31 -80v-402h564v-184h-564v-496q0 -50 31 -80t80 -30h264q49 0 80 31t31 79v238h184v-238q0 -122 -86 -208t-209 -86h-264q-123 0 -209 86t-86 208v1082q0 123 86 209t209 86h264
z" />
    <glyph glyph-name="uni0455" unicode="&#x455;" horiz-adv-x="1050" 
d="M287 274q1 -50 31 -80t79 -30h244q49 0 80 31t31 79v158q0 151 -104 249q-78 72 -218 150q-8 4 -12 8t-19 9q-285 164 -284 395v113q0 123 86 209t209 86h243q123 0 209 -86t86 -209h-184q0 49 -31 80t-80 30h-243q-49 0 -80 -30t-31 -80v-113q-1 -47 17 -75
q18 -30 28 -44t34 -33t36 -29t45 -32q33 -20 45 -28t49 -27q37 -20 47 -27q336 -190 336 -516v-158q0 -122 -86 -208t-209 -86h-244q-123 0 -209 86t-86 208v304h185v-304z" />
    <glyph glyph-name="uni0456" unicode="&#x456;" horiz-adv-x="524" 
d="M170 0v1638h184v-1638h-184z" />
    <glyph glyph-name="uni0457" unicode="&#x457;" horiz-adv-x="524" 
d="M170 1638h184v-1638h-184v1638zM381 1790q-39 0 -68 28t-29 68t29 68t68 28t67 -28t27 -69q1 -39 -27 -67t-67 -28zM242 1885q0 -39 -29 -67t-69 -28t-68 28t-27 68q0 40 28 68q27 28 67 28t69 -28t29 -69z" />
    <glyph glyph-name="uni0458" unicode="&#x458;" horiz-adv-x="1019" 
d="M229 274q0 -50 31 -80t80 -30h258q49 0 80 31t31 79v1364h184v-1364q0 -122 -86 -208t-209 -86h-258q-123 0 -209 86t-86 208v324h184v-324z" />
    <glyph glyph-name="uni0459" unicode="&#x459;" horiz-adv-x="1828" 
d="M1513 926q0 55 -28 55q-37 0 -387 -145v-119h-2v-465q0 -41 24 -65t64 -23h241q39 0 64 24t24 62v676zM911 252v1198h2v6h-389l-53 -1188q-7 -147 -67 -209t-199 -73q-51 -4 -137 -4h-23v184h23q129 0 173 18t46 84l55 1372h756v-620q311 147 403 148q91 1 143 -56
t54 -141v-719q-2 -115 -82 -194t-193 -78h-239q-115 -2 -194 78t-79 194z" />
    <glyph glyph-name="uni045A" unicode="&#x45a;" horiz-adv-x="1728" 
d="M1413 926q0 55 -29 55q-37 0 -387 -145v-119h-2v-465q0 -41 24 -65t64 -23h242q39 0 64 24t24 62v676zM811 252v561h-467v-813h-184v1638h184v-643h467v455h2v188h184v-618q311 147 403 148t144 -56q51 -57 53 -141v-719q-1 -115 -81 -194t-193 -78h-240q-115 -2 -193 78
t-79 194z" />
    <glyph glyph-name="uni045B" unicode="&#x45b;" horiz-adv-x="1298" 
d="M952 1165q96 0 152 -57q57 -57 57 -139v-969h-184v913q0 66 -27 66q-36 0 -303 -111l-88 -34v-834h-184v936h-2v518h-357v184h899v-184h-358v-307h2v-127q297 145 393 145z" />
    <glyph glyph-name="uni045C" unicode="&#x45c;" horiz-adv-x="1193" 
d="M1169 1454q-20 0 -54 -13q-74 -29 -101 -75l-269 -453v-18l424 -895h-192l-385 813h-250v-813h-182v1638h182v-643h250l221 371q150 250 356 272v-184zM897 2058l-207 -268h-178l207 268h178z" />
    <glyph glyph-name="uni045E" unicode="&#x45e;" horiz-adv-x="1107" 
d="M397 451q-31 -1 -57 21t-31 48l-272 1118h188l240 -976q4 -27 20 -27h148q10 0 16 8l240 995h184l-393 -1638h-184l106 451h-205zM754 2028q0 -82 -58 -140t-139 -57q-82 0 -139 57t-58 140h144q0 -53 53 -54q53 0 53 54h144z" />
    <glyph glyph-name="uni045F" unicode="&#x45f;" horiz-adv-x="1163" 
d="M684 0v-319h-184v319h-340v1638h184v-1456h475v1456h185v-1638h-320z" />
    <glyph glyph-name="Bdotaccent" unicode="&#x1e02;" horiz-adv-x="1130" 
d="M766 184q63 0 63 62v364q0 43 -24 90q-25 47 -64 64h-397v-580h422zM813 1094v299q0 27 -15 45t-44 18h-410v-508h399q70 31 70 146zM754 1638q102 0 174 -72t71 -173v-295q0 -78 -44 -145t-113 -97q76 -30 124 -96t48 -150v-364q0 -102 -73 -174t-173 -72h-608v1638h594
zM567 1778q-41 0 -71 30t-29 70q0 41 30 72q31 30 71 30t71 -30t31 -72q0 -40 -31 -70t-72 -30z" />
    <glyph glyph-name="bdotaccent" unicode="&#x1e03;" horiz-adv-x="1032" 
d="M729 926q0 55 -29 55q-45 0 -389 -145v-584q0 -41 24 -65t64 -23h242q39 0 64 24t24 62v676zM569 1286q-41 0 -71 30t-29 70q0 40 30 72q31 31 71 31t71 -31t31 -72q0 -40 -31 -70t-72 -30zM127 252v1198h2v117h184v-547q311 147 403 148t144 -56q51 -57 53 -141v-719
q-2 -115 -82 -194t-192 -78h-240q-115 -2 -193 78t-79 194z" />
    <glyph glyph-name="Ddotaccent" unicode="&#x1e0a;" horiz-adv-x="1140" 
d="M719 184q49 0 80 31t30 80v1061q1 46 -29 72t-81 26h-375v-1270h375zM719 1638q125 0 210 -80t85 -202v-1061q0 -123 -86 -209t-209 -86h-559v1638h559zM571 1778q-41 0 -71 30t-29 70q0 41 30 72q31 30 71 30t71 -30t31 -72q0 -40 -31 -70t-72 -30z" />
    <glyph glyph-name="ddotaccent" unicode="&#x1e0b;" horiz-adv-x="1042" 
d="M719 895q0 41 -24 65t-62 23h-242q-39 0 -65 -25t-25 -61v-676q0 -55 31 -55q43 0 387 145v584zM446 1286q-40 0 -70 30t-30 70t30 72q30 31 70 31t72 -31q31 -31 31 -72q0 -40 -31 -70t-72 -30zM903 1438v-1438h-184v127q-317 -147 -407 -147t-142 56q-51 56 -53 140
v719q2 115 82 194t192 78h240q49 0 88 -12v293h2v117h184v-127h-2z" />
    <glyph glyph-name="Ddotbelow" unicode="&#x1e0c;" horiz-adv-x="1140" 
d="M580 -438q-41 0 -71 30t-30 70q0 41 30 72q30 30 71 30q42 0 72 -30t30 -72q0 -40 -30 -70t-72 -30zM719 184q49 0 80 31t30 80v1061q1 46 -29 72t-81 26h-375v-1270h375zM719 1638q125 0 210 -80t85 -202v-1061q0 -123 -86 -209t-209 -86h-559v1638h559z" />
    <glyph glyph-name="ddotbelow" unicode="&#x1e0d;" horiz-adv-x="1042" 
d="M530 -438q-40 0 -70 30t-30 70q0 41 30 72q30 30 70 30t72 -30q31 -30 31 -72q0 -40 -31 -70t-72 -30zM719 895q0 41 -24 65t-62 23h-242q-39 0 -65 -25t-25 -61v-676q0 -55 31 -55q43 0 387 145v584zM903 1438v-1438h-184v127q-317 -147 -407 -147t-142 56
q-51 56 -53 140v719q2 115 82 194t192 78h240q49 0 88 -12v293h2v117h184v-127h-2z" />
    <glyph glyph-name="Fdotaccent" unicode="&#x1e1e;" horiz-adv-x="915" 
d="M893 1434h-549v-439h492v-184h-492v-811h-184v1638h733v-204zM532 1778q-40 0 -70 30t-30 70q0 41 30 72q30 30 70 30t72 -30q31 -30 31 -72q0 -40 -31 -70t-72 -30z" />
    <glyph glyph-name="fdotaccent" unicode="&#x1e1f;" horiz-adv-x="595" 
d="M455 1382q-41 0 -66 -24t-24 -64v-147h219v-182h-219v-1010q0 -113 -80 -193t-197 -79v184q41 1 66 25t24 63v1010h-153v182h153v147q0 113 80 193t193 80h145v-185h-141zM328 1778q-41 0 -71 30t-30 70q0 41 30 72q30 30 71 30q42 0 72 -30t30 -72q0 -40 -30 -70
t-72 -30z" />
    <glyph glyph-name="Hdotbelow" unicode="&#x1e24;" horiz-adv-x="1165" 
d="M594 -438q-41 0 -71 30t-29 70q0 41 29 72q30 30 71 30t72 -30q30 -30 30 -72q0 -41 -30 -71q-31 -29 -72 -29zM344 995h479v643h185v-1638h-185v813h-479v-813h-184v1638h184v-643z" />
    <glyph glyph-name="hdotbelow" unicode="&#x1e25;" horiz-adv-x="1052" 
d="M532 -438q-40 0 -70 30t-30 70q0 41 30 72q30 30 70 30t72 -30q31 -30 31 -72q0 -40 -31 -70t-72 -30zM716 1165q95 0 152 -57t58 -139v-969h-185v913q0 66 -26 66q-39 0 -303 -111l-88 -34v-834h-185v1567h185v-547q297 145 392 145z" />
    <glyph glyph-name="Mdotaccent" unicode="&#x1e40;" horiz-adv-x="1548" 
d="M774 451l213 1187h365l61 -1638h-184l-60 1454h-20l-291 -1434h-168l-287 1434h-20l-61 -1454h-185l64 1638h358zM760 1778q-41 0 -71 30t-30 70q0 41 30 72q30 30 71 30q42 0 72 -30t30 -72q0 -40 -30 -70t-72 -30z" />
    <glyph glyph-name="mdotaccent" unicode="&#x1e41;" horiz-adv-x="1538" 
d="M1214 1167q82 0 140 -58t57 -140v-969h-182v887q0 88 -29 88q-18 0 -102 -35t-158 -72l-74 -34v-834h-182v879q0 92 -27 92q-38 0 -260 -111l-73 -35v-825h-185v1147h185v-135q240 152 348 151q66 0 118 -42t70 -105v-2q51 42 178 98q127 55 176 55zM780 1286
q-40 0 -70 30t-30 70t30 72q30 31 70 31t72 -31q31 -31 31 -72q0 -40 -31 -70t-72 -30z" />
    <glyph glyph-name="Ndotaccent" unicode="&#x1e44;" horiz-adv-x="1234" 
d="M891 184v1454h184v-1638h-327l-388 1454h-16v-1454h-184v1638h329l383 -1454h19zM616 1778q-40 0 -70 30t-30 70q0 41 30 72q30 30 70 30t72 -30q31 -30 31 -72q0 -40 -31 -70t-72 -30z" />
    <glyph glyph-name="ndotaccent" unicode="&#x1e45;" horiz-adv-x="1052" 
d="M716 1165q95 0 152 -57t58 -139v-969h-185v913q0 66 -26 66q-39 0 -303 -111l-88 -34v-834h-185v1147h185v-127q297 145 392 145zM526 1286q-40 0 -70 30t-30 70t30 72q30 31 70 31t72 -31q31 -31 31 -72q0 -40 -31 -70t-72 -30z" />
    <glyph glyph-name="Pdotaccent" unicode="&#x1e56;" horiz-adv-x="1062" 
d="M711 885q49 1 80 31t30 79v361q1 46 -29 72t-81 26h-367v-569h367zM711 1638q125 0 210 -80t85 -202v-361q0 -123 -86 -209t-209 -86h-367v-700h-184v1638h551zM551 1778q-41 0 -71 30t-29 70q0 41 29 72q30 30 71 30t72 -30t31 -72q0 -41 -31 -71q-31 -29 -72 -29z" />
    <glyph glyph-name="pdotaccent" unicode="&#x1e57;" horiz-adv-x="1042" 
d="M741 926q0 55 -30 55q-43 0 -387 -145v-584q0 -41 24 -65t62 -23h241q39 0 65 24t25 62v676zM731 1167q90 0 141 -56t54 -140v-719q-2 -115 -82 -194t-193 -78h-239q-47 0 -88 12v-293h-185v1448h185v-127q317 147 407 147zM526 1286q-40 0 -70 30t-30 70t30 72
q30 31 70 31t72 -31q31 -31 31 -72q0 -40 -31 -70t-72 -30z" />
    <glyph glyph-name="Rdotbelow" unicode="&#x1e5a;" horiz-adv-x="1130" 
d="M559 -438q-41 0 -71 30t-29 70q0 41 29 72q30 30 71 30t72 -30t31 -72q0 -40 -31 -70t-72 -30zM813 1094v299q0 27 -19 45t-49 18h-401v-508h399q70 31 70 146zM754 1638q102 0 174 -72t71 -173v-295q0 -78 -44 -145t-113 -97q76 -30 124 -96t48 -150v-610h-185v610
q0 115 -88 154h-397v-764h-184v1638h594z" />
    <glyph glyph-name="rdotbelow" unicode="&#x1e5b;" horiz-adv-x="972" 
d="M238 -438q-41 0 -71 30t-30 70q0 41 30 72q30 30 71 30q42 0 72 -30t30 -72q0 -40 -30 -70t-72 -30zM716 1165q95 0 152 -57t58 -139v-205h-185v123q0 92 -26 92q-39 0 -303 -111l-88 -34v-834h-185v1147h185v-127q297 145 392 145z" />
    <glyph glyph-name="Sdotaccent" unicode="&#x1e60;" horiz-adv-x="1050" 
d="M287 274q1 -50 31 -80t79 -30h244q49 0 80 31t31 79v158q0 151 -104 249q-78 72 -218 150q-8 4 -12 8t-19 9q-285 164 -284 395v113q0 123 86 209t209 86h243q123 0 209 -86t86 -209h-184q0 49 -31 80t-80 30h-243q-49 0 -80 -30t-31 -80v-113q-1 -47 17 -75
q18 -30 28 -44t34 -33t36 -29t45 -32q33 -20 45 -28t49 -27q37 -20 47 -27q336 -190 336 -516v-158q0 -122 -86 -208t-209 -86h-244q-123 0 -209 86t-86 208v304h185v-304zM524 1778q-40 0 -70 30t-30 70q0 41 30 72q30 30 70 30t72 -30q31 -30 31 -72q0 -40 -31 -70
t-72 -30z" />
    <glyph glyph-name="sdotaccent" unicode="&#x1e61;" horiz-adv-x="983" 
d="M283 252q1 -39 25 -64t63 -24h241q41 0 66 24t24 64v49q0 59 -56 102t-232 132t-246 157t-70 168v35q0 113 80 193t193 79h241q113 0 193 -80t80 -192v-41h-185v41q0 39 -24 63t-64 25h-241q-39 0 -64 -25t-24 -63v-21q0 -51 85 -103q26 -15 44 -27t54 -31q36 -20 60 -35
q211 -106 285 -179t74 -177v-70q0 -113 -80 -193t-193 -79h-241q-113 0 -193 80t-80 192v182h185v-182zM492 1286q-41 0 -71 30t-30 70t30 72q30 31 71 31q42 0 72 -31t30 -72q0 -40 -30 -70t-72 -30z" />
    <glyph glyph-name="Sdotbelow" unicode="&#x1e62;" horiz-adv-x="1050" 
d="M530 -438q-40 0 -70 30t-30 70q0 41 30 72q30 30 70 30t72 -30q31 -30 31 -72q0 -40 -31 -70t-72 -30zM287 274q1 -50 31 -80t79 -30h244q49 0 80 31t31 79v158q0 151 -104 249q-78 72 -218 150q-8 4 -12 8t-19 9q-285 164 -284 395v113q0 123 86 209t209 86h243
q123 0 209 -86t86 -209h-184q0 49 -31 80t-80 30h-243q-49 0 -80 -30t-31 -80v-113q-1 -47 17 -75q18 -30 28 -44t34 -33t36 -29t45 -32q33 -20 45 -28t49 -27q37 -20 47 -27q336 -190 336 -516v-158q0 -122 -86 -208t-209 -86h-244q-123 0 -209 86t-86 208v304h185v-304z
" />
    <glyph glyph-name="sdotbelow" unicode="&#x1e63;" horiz-adv-x="983" 
d="M496 -438q-41 0 -71 30t-30 70q0 41 30 72q30 30 71 30q42 0 72 -30t30 -72q0 -40 -30 -70t-72 -30zM283 252q1 -39 25 -64t63 -24h241q41 0 66 24t24 64v49q0 59 -56 102t-232 132t-246 157t-70 168v35q0 113 80 193t193 79h241q113 0 193 -80t80 -192v-41h-185v41
q0 39 -24 63t-64 25h-241q-39 0 -64 -25t-24 -63v-21q0 -51 85 -103q26 -15 44 -27t54 -31q36 -20 60 -35q211 -106 285 -179t74 -177v-70q0 -113 -80 -193t-193 -79h-241q-113 0 -193 80t-80 192v182h185v-182z" />
    <glyph glyph-name="Tdotaccent" unicode="&#x1e6a;" horiz-adv-x="929" 
d="M16 1638h899v-184h-358v-1454h-184v1454h-357v184zM465 1778q-41 0 -71 30t-29 70q0 41 29 72q30 30 71 30t72 -30t31 -72q0 -41 -31 -71q-31 -29 -72 -29z" />
    <glyph glyph-name="tdotaccent" unicode="&#x1e6b;" horiz-adv-x="692" 
d="M381 252q0 -39 25 -64t65 -24h98v-184h-102q-113 0 -193 80t-79 192v713h-179v182h179v295h186v-295h295v-182h-295v-713zM289 1778q-41 0 -71 30t-30 70q0 41 30 72q30 30 71 30t71 -30t31 -72q-1 -40 -31 -70t-71 -30z" />
    <glyph glyph-name="Tdotbelow" unicode="&#x1e6c;" horiz-adv-x="929" 
d="M469 -438q-41 0 -71 30t-29 70q0 41 29 72q30 30 71 30t72 -30t31 -72q0 -41 -31 -71q-31 -29 -72 -29zM16 1638h899v-184h-358v-1454h-184v1454h-357v184z" />
    <glyph glyph-name="tdotbelow" unicode="&#x1e6d;" horiz-adv-x="692" 
d="M350 -438q-40 0 -70 30t-30 70q0 41 30 72q30 30 70 30t72 -30q31 -30 31 -72q0 -40 -31 -70t-72 -30zM381 252q0 -39 25 -64t65 -24h98v-184h-102q-113 0 -193 80t-79 192v713h-179v182h179v295h186v-295h295v-182h-295v-713z" />
    <glyph glyph-name="Wgrave" unicode="&#x1e80;" horiz-adv-x="1724" 
d="M322 274q0 -50 30 -80t80 -30h146q82 0 137 70t55 143v1261h184v-1261q0 -72 56 -143t137 -70h143q49 0 80 31t31 79v1364h184v-1364q0 -122 -86 -208t-209 -86h-143q-102 0 -180 60t-105 155q-27 -94 -104 -155q-78 -60 -180 -60h-146q-123 0 -209 86t-86 208v1364h185
v-1364zM748 2058l206 -268h-178l-207 268h179z" />
    <glyph glyph-name="wgrave" unicode="&#x1e81;" horiz-adv-x="1570" 
d="M1444 274q0 -126 -76 -210t-197 -84h-122q-92 0 -164 54t-99 146q-26 -92 -98 -146t-164 -54h-123q-121 0 -197 85t-75 209v873h184v-873q0 -111 88 -110h123q76 0 123 55t47 158v770h185v-770q0 -101 47 -157t123 -56h122q88 0 89 110v873h184v-873zM672 1567l207 -269
h-179l-206 269h178z" />
    <glyph glyph-name="Wacute" unicode="&#x1e82;" horiz-adv-x="1724" 
d="M322 274q0 -50 30 -80t80 -30h146q82 0 137 70t55 143v1261h184v-1261q0 -72 56 -143t137 -70h143q49 0 80 31t31 79v1364h184v-1364q0 -122 -86 -208t-209 -86h-143q-102 0 -180 60t-105 155q-27 -94 -104 -155q-78 -60 -180 -60h-146q-123 0 -209 86t-86 208v1364h185
v-1364zM1165 2058l-207 -268h-178l207 268h178z" />
    <glyph glyph-name="wacute" unicode="&#x1e83;" horiz-adv-x="1570" 
d="M1444 274q0 -126 -76 -210t-197 -84h-122q-92 0 -164 54t-99 146q-26 -92 -98 -146t-164 -54h-123q-121 0 -197 85t-75 209v873h184v-873q0 -111 88 -110h123q76 0 123 55t47 158v770h185v-770q0 -101 47 -157t123 -56h122q88 0 89 110v873h184v-873zM1090 1567
l-207 -269h-178l206 269h179z" />
    <glyph glyph-name="Wdieresis" unicode="&#x1e84;" horiz-adv-x="1724" 
d="M322 274q0 -50 30 -80t80 -30h146q82 0 137 70t55 143v1261h184v-1261q0 -72 56 -143t137 -70h143q49 0 80 31t31 79v1364h184v-1364q0 -122 -86 -208t-209 -86h-143q-102 0 -180 60t-105 155q-27 -94 -104 -155q-78 -60 -180 -60h-146q-123 0 -209 86t-86 208v1364h185
v-1364zM981 1790q-39 0 -68 28t-29 68t29 68t68 28t67 -28t28 -69q0 -39 -28 -67t-67 -28zM842 1885q0 -39 -29 -67t-69 -28t-68 28t-27 68q0 40 28 68q29 28 67 28t68 -28t30 -69z" />
    <glyph glyph-name="wdieresis" unicode="&#x1e85;" horiz-adv-x="1570" 
d="M1444 274q0 -126 -76 -210t-197 -84h-122q-92 0 -164 54t-99 146q-26 -92 -98 -146t-164 -54h-123q-121 0 -197 85t-75 209v873h184v-873q0 -111 88 -110h123q76 0 123 55t47 158v770h185v-770q0 -101 47 -157t123 -56h122q88 0 89 110v873h184v-873zM905 1298
q-39 0 -67 28t-29 68q0 40 29 68q30 28 68 29q38 0 66 -29q28 -28 28 -68t-28 -68t-67 -28zM573 1394q0 40 28 68t68 29q41 0 69 -29q28 -28 28 -68t-28 -68t-69 -28q-40 0 -68 28t-28 68z" />
    <glyph glyph-name="Zdotbelow" unicode="&#x1e92;" horiz-adv-x="995" 
d="M485 -438q-41 0 -71 30t-29 70q0 41 30 72q31 30 71 30t71 -30t31 -72q0 -40 -31 -70t-72 -30zM61 1638h873l-588 -1454h588v-184h-873l592 1454h-592v184z" />
    <glyph glyph-name="zdotbelow" unicode="&#x1e93;" horiz-adv-x="917" 
d="M469 -438q-41 0 -71 30t-29 70q0 41 29 72q30 30 71 30t72 -30t31 -72q0 -41 -31 -71q-31 -29 -72 -29zM74 963v184h768v-184l-568 -781h574v-182h-778v184l565 779h-561z" />
    <glyph glyph-name="Edotbelow" unicode="&#x1eb8;" horiz-adv-x="970" 
d="M477 -438q-41 0 -71 30t-29 70q0 41 30 72q31 30 71 30t71 -30t31 -72q0 -40 -31 -70t-72 -30zM891 1454h-547v-459h492v-184h-492v-627h547v-184h-731v1638h731v-184z" />
    <glyph glyph-name="edotbelow" unicode="&#x1eb9;" horiz-adv-x="987" 
d="M500 -438q-41 0 -71 30t-30 70q0 41 30 72q30 30 71 30q42 0 72 -30t30 -72q0 -40 -30 -70t-72 -30zM721 895q0 39 -25 63t-63 25h-242q-39 0 -63 -25t-25 -63v-164h418v164zM119 895q0 113 80 193t192 79h242q113 0 193 -80t79 -192v-348h-602v-295q0 -39 25 -64t63 -24
h242q39 0 63 24t25 64v147h184v-147q0 -113 -80 -193t-192 -79h-242q-113 0 -193 80t-79 192v643z" />
    <glyph glyph-name="Etilde" unicode="&#x1ebc;" horiz-adv-x="970" 
d="M891 1454h-547v-459h492v-184h-492v-627h547v-184h-731v1638h731v-184zM380 2019q62 0 154 -36q92 -35 145 -35q54 0 107 57l11 -156q-55 -65 -115 -65t-152 36t-148 36t-108 -56l-10 156q54 63 116 63z" />
    <glyph glyph-name="etilde" unicode="&#x1ebd;" horiz-adv-x="987" 
d="M721 895q0 39 -25 63t-63 25h-242q-39 0 -63 -25t-25 -63v-164h418v164zM119 895q0 113 80 193t192 79h242q113 0 193 -80t79 -192v-348h-602v-295q0 -39 25 -64t63 -24h242q39 0 63 24t25 64v147h184v-147q0 -113 -80 -193t-192 -79h-242q-113 0 -193 80t-79 192v643z
M646 1456q54 0 108 57l10 -155q-56 -66 -116 -66t-151 36t-148 36t-107 -55l-11 155q53 64 115 64t154 -36t146 -36z" />
    <glyph glyph-name="Idotbelow" unicode="&#x1eca;" horiz-adv-x="524" 
d="M270 -438q-40 0 -70 30t-30 70q0 41 30 72q30 30 70 30t72 -30q31 -30 31 -72q0 -40 -31 -70t-72 -30zM354 0h-184v1638h184v-1638z" />
    <glyph glyph-name="idotbelow" unicode="&#x1ecb;" horiz-adv-x="569" 
d="M307 -438q-41 0 -71 30t-29 70q0 41 30 72q31 30 71 30t71 -30t31 -72q0 -40 -31 -70t-72 -30zM334 252q0 -39 24 -64t66 -24h98v-184h-102q-113 0 -193 80t-80 192v895h187v-895zM334 1350h-184v217h184v-217z" />
    <glyph glyph-name="Odotbelow" unicode="&#x1ecc;" horiz-adv-x="1110" 
d="M557 -438q-41 0 -71 30t-29 70q0 41 29 72q30 30 71 30t72 -30t31 -72q0 -41 -31 -71q-31 -29 -72 -29zM313 274q0 -50 31 -80t80 -30h264q49 0 80 31t31 79v1082q0 49 -31 80t-80 30h-264q-49 0 -80 -30t-31 -80v-1082zM129 1356q0 123 86 209t209 86h264q123 0 209 -86
t86 -209v-1082q0 -122 -86 -208t-209 -86h-264q-123 0 -209 86t-86 208v1082z" />
    <glyph glyph-name="odotbelow" unicode="&#x1ecd;" horiz-adv-x="1021" 
d="M514 -438q-41 0 -71 30t-29 70q0 41 29 72q30 30 71 30t72 -30q30 -30 30 -72q0 -41 -30 -71q-31 -29 -72 -29zM303 252q0 -39 25 -64t63 -24h242q45 0 67 17t21 71v643q0 39 -25 63t-63 25h-242q-39 0 -63 -25t-25 -63v-643zM119 895q0 113 80 193t192 79h242
q113 0 193 -80t79 -192v-643q0 -113 -80 -193t-192 -79h-242q-113 0 -193 80t-79 192v643z" />
    <glyph glyph-name="Udotbelow" unicode="&#x1ee4;" horiz-adv-x="1130" 
d="M573 -438q-41 0 -71 30t-29 70q0 41 30 72q31 30 71 30t71 -30t31 -72q0 -40 -31 -70t-72 -30zM322 274q0 -50 30 -80t80 -30h266q49 0 80 31t31 79v1364h184v-1364q0 -122 -86 -208t-209 -86h-266q-123 0 -209 86t-86 208v1364h185v-1364z" />
    <glyph glyph-name="udotbelow" unicode="&#x1ee5;" horiz-adv-x="1052" 
d="M524 -438q-40 0 -70 30t-30 70q0 41 30 72q30 30 70 30t72 -30q31 -30 31 -72q0 -40 -31 -70t-72 -30zM337 -18q-95 0 -153 57q-57 57 -57 139v969h184v-914q0 -66 27 -65q39 0 303 108l88 37v834h184v-1147h-184v127q-297 -145 -392 -145z" />
    <glyph glyph-name="Ygrave" unicode="&#x1ef2;" horiz-adv-x="1107" 
d="M705 457h-58v-457h-182v457h-53q-37 0 -68 19t-35 48l-272 1114h188l240 -972q4 -27 20 -27h148q14 0 20 27l236 972h184l-264 -1114q-8 -29 -38 -48t-66 -19zM440 2058l207 -268h-178l-207 268h178z" />
    <glyph glyph-name="ygrave" unicode="&#x1ef3;" horiz-adv-x="913" 
d="M399 164h121q14 0 21 26l153 955h185l-244 -1464h-176l47 299h-195q-31 0 -57 22t-31 47l-186 1096h188l154 -955q0 -26 20 -26zM344 1567l207 -269h-178l-207 269h178z" />
    <glyph glyph-name="Ytilde" unicode="&#x1ef8;" horiz-adv-x="1107" 
d="M705 457h-58v-457h-182v457h-53q-37 0 -68 19t-35 48l-272 1114h188l240 -972q4 -27 20 -27h148q14 0 20 27l236 972h184l-264 -1114q-8 -29 -38 -48t-66 -19zM406 2019q62 0 154 -36q91 -35 145 -35t108 57l10 -156q-55 -65 -115 -65t-152 36t-148 36t-107 -56l-10 156
q53 63 115 63z" />
    <glyph glyph-name="ytilde" unicode="&#x1ef9;" horiz-adv-x="913" 
d="M399 164h121q14 0 21 26l153 955h185l-244 -1464h-176l47 299h-195q-31 0 -57 22t-31 47l-186 1096h188l154 -955q0 -26 20 -26zM607 1456q54 0 108 57l10 -155q-55 -66 -115 -66t-152 36q-91 36 -148 36t-107 -55l-10 155q53 64 115 64t154 -36t145 -36z" />
    <glyph glyph-name="endash" unicode="&#x2013;" horiz-adv-x="817" 
d="M803 811v-182h-787v182h787z" />
    <glyph glyph-name="emdash" unicode="&#x2014;" horiz-adv-x="1386" 
d="M1372 811v-182h-1356v182h1356z" />
    <glyph glyph-name="uni2015" unicode="&#x2015;" horiz-adv-x="2078" 
d="M2064 811v-182h-2048v182h2048z" />
    <glyph glyph-name="quoteleft" unicode="&#x2018;" horiz-adv-x="487" 
d="M279 1399q0 -70 92 -103l-95 -90q-158 57 -157 191q0 43 16 86l60 153l151 -32l-59 -156q-8 -25 -8 -49z" />
    <glyph glyph-name="quoteright" unicode="&#x2019;" horiz-adv-x="487" 
d="M209 1452q0 70 -92 102l94 91q158 -57 158 -191q0 -43 -17 -86l-59 -154l-152 33l60 156q8 25 8 49z" />
    <glyph glyph-name="quotesinglbase" unicode="&#x201a;" horiz-adv-x="487" 
d="M209 -84q0 70 -92 102l94 91q158 -57 158 -191q0 -43 -17 -86l-59 -154l-152 33l60 156q8 25 8 49z" />
    <glyph glyph-name="quotedblleft" unicode="&#x201c;" horiz-adv-x="753" 
d="M545 1399q0 -70 92 -103l-94 -90q-158 57 -158 191q0 43 16 86l60 153l151 -32l-59 -156q-8 -25 -8 -49zM279 1399q0 -70 92 -103l-95 -90q-158 57 -157 191q0 43 16 86l60 153l151 -32l-59 -156q-8 -25 -8 -49z" />
    <glyph glyph-name="quotedblright" unicode="&#x201d;" horiz-adv-x="753" 
d="M475 1452q0 70 -92 102l94 91q158 -57 158 -191q0 -43 -17 -86l-59 -154l-151 33l59 156q8 25 8 49zM209 1452q0 70 -92 102l94 91q158 -57 158 -191q0 -43 -17 -86l-59 -154l-152 33l60 156q8 25 8 49z" />
    <glyph glyph-name="quotedblbase" unicode="&#x201e;" horiz-adv-x="753" 
d="M475 -90q0 70 -92 102l94 90q158 -57 158 -190q0 -43 -17 -86l-59 -154l-151 33l59 156q8 25 8 49zM209 -90q0 70 -92 102l94 90q158 -57 158 -190q0 -43 -17 -86l-59 -154l-152 33l60 156q8 25 8 49z" />
    <glyph glyph-name="dagger" unicode="&#x2020;" horiz-adv-x="972" 
d="M129 1161v182h266v285h183v-285h268v-182h-268v-1151h-183v1151h-266z" />
    <glyph glyph-name="daggerdbl" unicode="&#x2021;" horiz-adv-x="972" 
d="M129 301v182h264v678h-264v182h264v285h185v-285h268v-182h-268v-678h268v-182h-268v-291h-185v291h-264z" />
    <glyph glyph-name="bullet" unicode="&#x2022;" horiz-adv-x="571" 
d="M287 516q-66 0 -112 47t-46 111t46 110q46 47 112 47q65 0 111 -47t46 -110q0 -62 -46 -110t-111 -48z" />
    <glyph glyph-name="ellipsis" unicode="&#x2026;" horiz-adv-x="1155" 
d="M825 100q0 41 30 72t71 31q42 0 72 -31t30 -72q0 -40 -31 -70t-71 -30t-71 30q-30 30 -30 70zM477 100q0 41 30 72t71 31q42 0 72 -31t30 -72q0 -40 -31 -70t-71 -30t-71 30q-30 30 -30 70zM129 100q0 41 30 72q31 31 71 31t71 -31t31 -72q0 -40 -31 -70t-72 -30t-71 30
t-29 70z" />
    <glyph glyph-name="perthousand" unicode="&#x2030;" horiz-adv-x="2545" 
d="M1913 254q0 -39 17 -69t40 -29h217q23 0 40 30t18 68v305q1 39 -17 69t-41 29h-217q-23 1 -40 -29t-17 -69v-305zM1151 254q0 -39 17 -69t40 -29h217q23 0 40 30t18 68v305q1 39 -17 69t-41 29h-217q-23 1 -40 -29t-17 -69v-305zM1739 559q0 115 67 194q68 79 164 78h217
q96 -1 164 -79t68 -193v-305q0 -113 -68 -193t-164 -79h-217q-96 0 -164 80t-67 192v305zM977 559q0 115 67 194q68 79 164 78h217q96 -1 164 -79t68 -193v-305q0 -113 -68 -193t-164 -79h-217q-96 0 -164 80t-67 192v305zM578 918q24 0 40 30t17 68v305q1 39 -17 69t-40 29
h-218q-24 1 -40 -29t-17 -69v-305q-1 -39 17 -69t40 -29h218zM360 743q-96 0 -164 80t-67 193v305q0 115 68 193t163 79h218q96 0 164 -79t67 -193v-305q0 -113 -68 -193t-163 -80h-218zM678 0h-184l630 1634h185z" />
    <glyph glyph-name="guilsinglleft" unicode="&#x2039;" horiz-adv-x="768" 
d="M641 721l-324 -232l324 -231l-149 -70l-412 301l412 302z" />
    <glyph glyph-name="guilsinglright" unicode="&#x203a;" horiz-adv-x="768" 
d="M129 721l150 70l411 -302l-411 -301l-150 70l324 231z" />
    <glyph glyph-name="fraction" unicode="&#x2044;" horiz-adv-x="833" 
d="M186 0h-170l631 1634h172z" />
    <glyph glyph-name="Euro" unicode="&#x20ac;" 
d="M823 1036v258q0 49 -30 80q-31 31 -80 31h-240q-49 0 -80 -31t-31 -80v-299h369v-143h-369v-74h369v-143h-369v-361q0 -50 31 -80t80 -30h240q57 0 82 26t24 84v324h189v-324q0 -122 -86 -208t-209 -86h-240q-123 0 -209 86t-86 208v361h-112v143h112v74h-112v143h112
v299q0 123 86 209t209 86h240q123 0 209 -86t86 -209v-258h-185z" />
    <glyph glyph-name="uni2116" unicode="&#x2116;" horiz-adv-x="1933" 
d="M1817 250h-596v141h596v-141zM1415 1047q-8 -1 -19 -11t-12 -20v-365q0 -12 12 -21t19 -9h205q8 0 19 9t12 21v365q-1 12 -11 21t-18 10h-207zM1630 1190q68 0 116 -47t48 -117v-385q0 -68 -48 -116t-116 -48h-225q-70 0 -117 48t-47 116v385q0 70 47 117t117 47h225z
M1075 0h-327l-388 1454h-16v-1454h-184v1638h329l383 -1454h19v1454h184v-1638z" />
    <glyph glyph-name="trademark" unicode="&#x2122;" horiz-adv-x="1478" 
d="M881 1638l133 -616l127 616h178l33 -827h-95l-30 735h-10l-162 -723h-84l-162 723h-10l-31 -735h-92l33 827h172zM129 1546v92h483v-92h-196v-735h-92v735h-195z" />
    <glyph glyph-name="minus" unicode="&#x2212;" 
d="M938 811v-182h-799v182h799z" />
    <glyph glyph-name="radical" unicode="&#x221a;" horiz-adv-x="1128" 
d="M987 1147v-1147h-184v127q-297 -145 -406 -145h-10v-29q0 -113 -80 -193t-192 -79h-127v184h125q41 1 65 25t25 63v197q-2 10 -2 28v969h184v-914q0 -66 27 -65q36 0 303 108l88 37v834h184z" />
    <glyph glyph-name="notequal" unicode="&#x2260;" 
d="M897 625v-185h-365l-40 -145h-166l41 145h-187v185h240l53 186h-293v184h344l35 121h166l-35 -121h207v-184h-258l-53 -186h311z" />
    <glyph glyph-name="lessequal" unicode="&#x2264;" 
d="M907 401v-182h-717v182h717zM907 1069l-411 -215l411 -215v-193l-737 408l737 408v-193z" />
    <glyph glyph-name="greaterequal" unicode="&#x2265;" 
d="M887 401v-182h-717v182h717zM582 854l-412 215v193l737 -408l-737 -408v193z" />
    <glyph glyph-name="apple" unicode="&#xf8ff;" horiz-adv-x="1325" 
d="M653 289q82 0 133 34q52 34 52 84q1 87 -158 161q-66 32 -132 67t-111 87q-46 52 -46 116q0 110 81 160t170 50q132 1 265 -87l-22 -89q-98 86 -219 86q-74 0 -119 -32t-45 -79q0 -48 47 -85t114 -65q67 -27 133 -59t112 -88t46 -132q0 -109 -91 -165t-209 -56t-281 79
l18 97q135 -84 262 -84zM664 1178q-228 0 -392 -163t-164 -392t163 -393q163 -162 393 -162t391 162q162 162 162 392t-162 393t-391 163zM663 1270q267 0 457 -190t190 -457t-190 -457t-457 -190t-457 188q-190 190 -190 458t190 458t457 190zM664 1339q-39 0 -58 -2
l-184 174h121l119 -125l120 125h123l-184 -174q-18 2 -57 2z" />
    <glyph glyph-name="I.ss01" horiz-adv-x="624" 
d="M219 182v1276h-106v182h397v-182h-107v-1276h107v-182h-397v182h106z" />
    <glyph glyph-name="Iacute.ss01" horiz-adv-x="624" 
d="M219 1458h-106v182h397v-182h-107v-1276h107v-182h-397v182h106v1276zM614 2058l-206 -268h-179l207 268h178z" />
    <glyph glyph-name="Ibreve.ss01" horiz-adv-x="624" 
d="M219 1458h-106v182h397v-182h-107v-1276h107v-182h-397v182h106v1276zM510 2028q0 -82 -57 -140t-139 -57q-82 0 -140 57q-57 57 -57 140h143q0 -53 53 -54q53 0 54 54h143z" />
    <glyph glyph-name="Icircumflex.ss01" horiz-adv-x="624" 
d="M219 1458h-106v182h397v-182h-107v-1276h107v-182h-397v182h106v1276zM362 2099l254 -303h-163l-138 160h-6l-137 -160h-164l254 303h100z" />
    <glyph glyph-name="Idieresis.ss01" horiz-adv-x="624" 
d="M219 1458h-106v182h397v-182h-107v-1276h107v-182h-397v182h106v1276zM432 1790q-40 0 -68 28t-28 68t29 68t67 28t67 -28q27 -28 27 -69q0 -39 -28 -67t-66 -28zM293 1885q-1 -39 -29 -67t-68 -28t-68 28t-28 68t28 68t67 28t69 -28t29 -69z" />
    <glyph glyph-name="Idotaccent.ss01" horiz-adv-x="624" 
d="M219 1458h-106v182h397v-182h-107v-1276h107v-182h-397v182h106v1276zM311 1778q-41 0 -71 30t-29 70q0 41 30 72q31 30 71 30t71 -30t31 -72q0 -40 -31 -70t-72 -30z" />
    <glyph glyph-name="Idotbelow.ss01" horiz-adv-x="624" 
d="M315 -438q-41 0 -71 30t-29 70q0 41 30 72q31 30 71 30t71 -30t31 -72q0 -40 -31 -70t-72 -30zM219 1458h-106v182h397v-182h-107v-1276h107v-182h-397v182h106v1276z" />
    <glyph glyph-name="Igrave.ss01" horiz-adv-x="624" 
d="M219 1458h-106v182h397v-182h-107v-1276h107v-182h-397v182h106v1276zM197 2058l206 -268h-178l-207 268h179z" />
    <glyph glyph-name="Imacron.ss01" horiz-adv-x="624" 
d="M219 1458h-106v182h397v-182h-107v-1276h107v-182h-397v182h106v1276zM539 1958v-141h-451v141h451z" />
    <glyph glyph-name="Iogonek.ss01" horiz-adv-x="624" 
d="M530 -334q-100 0 -171 66t-70 166q0 53 26 102h-202v182h106v1276h-106v182h397v-182h-107v-1276h107v-178l2 -4q-29 -7 -55 -37q-25 -29 -25 -65t27 -63q27 -25 75 -25t121 59l99 -90q-66 -65 -114 -89t-110 -24z" />
    <glyph glyph-name="Itilde.ss01" horiz-adv-x="624" 
d="M219 1458h-106v182h397v-182h-107v-1276h107v-182h-397v182h106v1276zM162 2019q62 0 154 -36q92 -35 146 -35t107 57l11 -156q-56 -65 -116 -65t-152 36t-148 36t-107 -56l-10 156q53 63 115 63z" />
    <glyph glyph-name="M.ss01" horiz-adv-x="1724" 
d="M1403 1364q0 49 -31 80t-80 31h-145q-82 0 -137 -71t-56 -142v-1262h-184v1262q0 72 -55 142t-137 71h-144q-49 0 -80 -31t-30 -80v-1364h-185v1364q0 123 86 209t209 86h144q102 -1 180 -61t104 -154q27 94 105 154t180 61h145q123 0 209 -86t86 -209v-1364h-184v1364z
" />
    <glyph glyph-name="Mdotaccent.ss01" horiz-adv-x="1724" 
d="M1403 1364q0 49 -31 80t-80 31h-145q-82 0 -137 -71t-56 -142v-1262h-184v1262q0 72 -55 142t-137 71h-144q-49 0 -80 -31t-30 -80v-1364h-185v1364q0 123 86 209t209 86h144q102 -1 180 -61t104 -154q27 94 105 154t180 61h145q123 0 209 -86t86 -209v-1364h-184v1364z
M848 1778q-41 0 -71 30t-29 70q0 41 29 72q30 30 71 30t72 -30q30 -30 30 -72q0 -41 -30 -71q-31 -29 -72 -29z" />
    <glyph glyph-name="R.ss01" horiz-adv-x="1077" 
d="M711 987q49 0 80 31t30 80v258q1 46 -29 72t-81 26h-367v-467h367zM344 803v-803h-184v1638h551q125 0 210 -80t85 -202v-258q0 -115 -74 -199t-187 -94l289 -805h-188l-289 803h-213z" />
    <glyph glyph-name="Racute.ss01" horiz-adv-x="1077" 
d="M711 987q49 0 80 31t30 80v258q1 46 -29 72t-81 26h-367v-467h367zM344 803v-803h-184v1638h551q125 0 210 -80t85 -202v-258q0 -115 -74 -199t-187 -94l289 -805h-188l-289 803h-213zM868 2058l-206 -268h-179l207 268h178z" />
    <glyph glyph-name="Rcaron.ss01" horiz-adv-x="1077" 
d="M711 987q49 0 80 31t30 80v258q1 46 -29 72t-81 26h-367v-467h367zM344 803v-803h-184v1638h551q125 0 210 -80t85 -202v-258q0 -115 -74 -199t-187 -94l289 -805h-188l-289 803h-213zM426 2077l137 -160h6l138 160h163l-254 -303h-100l-254 303h164z" />
    <glyph glyph-name="Rcommaaccent.ss01" horiz-adv-x="1077" 
d="M649 -430h-164v346h164v-346zM711 987q49 0 80 31t30 80v258q1 46 -29 72t-81 26h-367v-467h367zM344 803v-803h-184v1638h551q125 0 210 -80t85 -202v-258q0 -115 -74 -199t-187 -94l289 -805h-188l-289 803h-213z" />
    <glyph glyph-name="Rdotbelow.ss01" horiz-adv-x="1077" 
d="M569 -438q-41 0 -71 30t-29 70q0 41 30 72q31 30 71 30t71 -30t31 -72q0 -40 -31 -70t-72 -30zM711 987q49 0 80 31t30 80v258q1 46 -29 72t-81 26h-367v-467h367zM344 803v-803h-184v1638h551q125 0 210 -80t85 -202v-258q0 -115 -74 -199t-187 -94l289 -805h-188
l-289 803h-213z" />
    <glyph glyph-name="W.ss01" horiz-adv-x="1454" 
d="M1124 0h-188q-6 0 -10 23l-199 1169l-201 -1169q-4 -23 -10 -23h-186q-6 0 -11 23l-282 1615h186l201 -1187l211 1167h184l209 -1165l201 1185h188l-282 -1618q-2 -20 -11 -20z" />
    <glyph glyph-name="Wacute.ss01" horiz-adv-x="1454" 
d="M1124 0h-188q-6 0 -10 23l-199 1169l-201 -1169q-4 -23 -10 -23h-186q-6 0 -11 23l-282 1615h186l201 -1187l211 1167h184l209 -1165l201 1185h188l-282 -1618q-2 -20 -11 -20zM1030 2058l-207 -268h-178l207 268h178z" />
    <glyph glyph-name="Wcircumflex.ss01" horiz-adv-x="1454" 
d="M1124 0h-188q-6 0 -10 23l-199 1169l-201 -1169q-4 -23 -10 -23h-186q-6 0 -11 23l-282 1615h186l201 -1187l211 1167h184l209 -1165l201 1185h188l-282 -1618q-2 -20 -11 -20zM778 2099l254 -303h-164l-137 160h-6l-137 -160h-164l254 303h100z" />
    <glyph glyph-name="Wdieresis.ss01" horiz-adv-x="1454" 
d="M1124 0h-188q-6 0 -10 23l-199 1169l-201 -1169q-4 -23 -10 -23h-186q-6 0 -11 23l-282 1615h186l201 -1187l211 1167h184l209 -1165l201 1185h188l-282 -1618q-2 -20 -11 -20zM848 1790q-39 0 -68 28q-28 28 -28 68t28 68q29 28 68 28q38 0 66 -28t28 -69q0 -39 -28 -67
t-66 -28zM709 1885q0 -39 -29 -67t-69 -28q-39 0 -67 28t-28 68t28 68t68 28t68 -28q29 -28 29 -69z" />
    <glyph glyph-name="Wgrave.ss01" horiz-adv-x="1454" 
d="M1124 0h-188q-6 0 -10 23l-199 1169l-201 -1169q-4 -23 -10 -23h-186q-6 0 -11 23l-282 1615h186l201 -1187l211 1167h184l209 -1165l201 1185h188l-282 -1618q-2 -20 -11 -20zM612 2058l207 -268h-178l-207 268h178z" />
    <glyph glyph-name="i.loclTRK" horiz-adv-x="567" 
d="M334 252q0 -39 24 -64t66 -24h98v-184h-102q-113 0 -193 80t-80 192v895h187v-895zM242 1286q-41 0 -71 30t-30 70t30 72q30 31 71 31q42 0 72 -31t30 -72q0 -40 -30 -70t-72 -30z" />
    <glyph glyph-name="a.ss01" horiz-adv-x="1054" 
d="M303 176q0 -12 12 -12q115 0 406 170v563q0 41 -25 65t-63 23h-242q-39 1 -63 -23t-25 -65v-721zM1040 164v-184h-45q-77 0 -151 49t-101 121q-55 -37 -211 -104q-156 -66 -228 -66t-128 57q-57 57 -57 139v721q0 113 80 193t192 79h242q113 1 193 -79t79 -193v-639
q0 -41 27 -68t67 -26h41z" />
    <glyph glyph-name="aacute.ss01" horiz-adv-x="1054" 
d="M303 176q0 -12 12 -12q115 0 406 170v563q0 41 -25 65t-63 23h-242q-39 1 -63 -23t-25 -65v-721zM1040 -20h-45q-77 0 -151 49t-101 121q-55 -37 -211 -104q-156 -66 -228 -66t-128 57q-57 57 -57 139v721q0 113 80 193t192 79h242q113 1 193 -79t79 -193v-639
q0 -41 27 -68t67 -26h41v-184zM831 1567l-206 -269h-179l207 269h178z" />
    <glyph glyph-name="abreve.ss01" horiz-adv-x="1054" 
d="M303 176q0 -12 12 -12q115 0 406 170v563q0 41 -25 65t-63 23h-242q-39 1 -63 -23t-25 -65v-721zM1040 -20h-45q-77 0 -151 49t-101 121q-55 -37 -211 -104q-156 -66 -228 -66t-128 57q-57 57 -57 139v721q0 113 80 193t192 79h242q113 1 193 -79t79 -193v-639
q0 -41 27 -68t67 -26h41v-184zM725 1536q0 -82 -57 -139q-58 -57 -140 -57t-139 56q-57 58 -57 140h143q0 -53 53 -53t54 53h143z" />
    <glyph glyph-name="acircumflex.ss01" horiz-adv-x="1054" 
d="M303 176q0 -12 12 -12q115 0 406 170v563q0 41 -25 65t-63 23h-242q-39 1 -63 -23t-25 -65v-721zM1040 -20h-45q-77 0 -151 49t-101 121q-55 -37 -211 -104q-156 -66 -228 -66t-128 57q-57 57 -57 139v721q0 113 80 193t192 79h242q113 1 193 -79t79 -193v-639
q0 -41 27 -68t67 -26h41v-184zM578 1608l253 -303h-163l-138 159h-6l-137 -159h-164l254 303h101z" />
    <glyph glyph-name="adieresis.ss01" horiz-adv-x="1054" 
d="M303 176q0 -12 12 -12q115 0 406 170v563q0 41 -25 65t-63 23h-242q-39 1 -63 -23t-25 -65v-721zM1040 -20h-45q-77 0 -151 49t-101 121q-55 -37 -211 -104q-156 -66 -228 -66t-128 57q-57 57 -57 139v721q0 113 80 193t192 79h242q113 1 193 -79t79 -193v-639
q0 -41 27 -68t67 -26h41v-184zM647 1298q-39 0 -67 28t-29 68q0 40 29 68q30 28 68 29q38 0 66 -29q28 -28 28 -68t-28 -68t-67 -28zM315 1394q0 40 28 68t68 29q41 0 69 -29q28 -28 28 -68t-28 -68t-69 -28q-40 0 -68 28t-28 68z" />
    <glyph glyph-name="agrave.ss01" horiz-adv-x="1054" 
d="M303 176q0 -12 12 -12q115 0 406 170v563q0 41 -25 65t-63 23h-242q-39 1 -63 -23t-25 -65v-721zM1040 -20h-45q-77 0 -151 49t-101 121q-55 -37 -211 -104q-156 -66 -228 -66t-128 57q-57 57 -57 139v721q0 113 80 193t192 79h242q113 1 193 -79t79 -193v-639
q0 -41 27 -68t67 -26h41v-184zM414 1567l207 -269h-179l-206 269h178z" />
    <glyph glyph-name="amacron.ss01" horiz-adv-x="1054" 
d="M303 176q0 -12 12 -12q115 0 406 170v563q0 41 -25 65t-63 23h-242q-39 1 -63 -23t-25 -65v-721zM1040 -20h-45q-77 0 -151 49t-101 121q-55 -37 -211 -104q-156 -66 -228 -66t-128 57q-57 57 -57 139v721q0 113 80 193t192 79h242q113 1 193 -79t79 -193v-639
q0 -41 27 -68t67 -26h41v-184zM754 1466v-141h-451v141h451z" />
    <glyph glyph-name="aogonek.ss01" horiz-adv-x="1054" 
d="M721 897q0 41 -25 65t-63 23h-242q-39 1 -63 -23t-25 -65v-721q0 -12 12 -12q115 0 406 170v563zM817 -136q0 87 49 152q-90 47 -123 134q-55 -37 -211 -104q-156 -66 -228 -66t-128 57q-57 57 -57 139v721q0 113 80 193t192 79h242q113 1 193 -79t79 -193v-639
q0 -41 27 -68t67 -26h41v-184q-26 -7 -53 -36q-27 -30 -27 -67t28 -63q26 -26 75 -25q49 0 121 59l98 -90q-66 -66 -114 -90t-109 -22q-100 0 -171 66t-71 152z" />
    <glyph glyph-name="aring.ss01" horiz-adv-x="1054" 
d="M303 176q0 -12 12 -12q115 0 406 170v563q0 41 -25 65t-63 23h-242q-39 1 -63 -23t-25 -65v-721zM1040 -20h-45q-77 0 -151 49t-101 121q-55 -37 -211 -104q-156 -66 -228 -66t-128 57q-57 57 -57 139v721q0 113 80 193t192 79h242q113 1 193 -79t79 -193v-639
q0 -41 27 -68t67 -26h41v-184zM528 1360q39 0 67 28t28 66t-28 67q-28 27 -67 27q-38 0 -66 -28t-28 -66t28 -66t66 -28zM528 1219q-98 1 -167 69t-68 166q0 98 68 167q69 69 167 69t167 -69t69 -167t-69 -166t-167 -69z" />
    <glyph glyph-name="aringacute.ss01" horiz-adv-x="1054" 
d="M303 176q0 -12 12 -12q115 0 406 170v563q0 41 -25 65t-63 23h-242q-39 1 -63 -23t-25 -65v-721zM1040 -20h-45q-77 0 -151 49t-101 121q-55 -37 -211 -104q-156 -66 -228 -66t-128 57q-57 57 -57 139v721q0 113 80 193t192 79h242q113 1 193 -79t79 -193v-639
q0 -41 27 -68t67 -26h41v-184zM516 1360q39 0 67 28q27 28 27 66t-27 67q-28 27 -67 27q-38 0 -66 -28t-28 -66t28 -66t66 -28zM516 1219q-98 1 -167 69t-68 166q0 98 68 167q69 69 167 69t167 -69t69 -167t-69 -166t-167 -69zM809 2017l-207 -268h-178l207 268h178z" />
    <glyph glyph-name="atilde.ss01" horiz-adv-x="1054" 
d="M303 176q0 -12 12 -12q115 0 406 170v563q0 41 -25 65t-63 23h-242q-39 1 -63 -23t-25 -65v-721zM1040 -20h-45q-77 0 -151 49t-101 121q-55 -37 -211 -104q-156 -66 -228 -66t-128 57q-57 57 -57 139v721q0 113 80 193t192 79h242q113 1 193 -79t79 -193v-639
q0 -41 27 -68t67 -26h41v-184zM676 1456q54 0 108 57l11 -155q-55 -66 -115 -66t-152 36t-148 36t-108 -55l-10 155q54 64 116 64t153 -36t145 -36z" />
    <glyph glyph-name="g.ss01" horiz-adv-x="1044" 
d="M412 -2q-98 0 -99 -68v-24q0 -26 20 -42q20 -15 79 -16h241q31 0 48 2t33 16t18 40v24q0 68 -99 68h-241zM741 895q0 88 -77 88h-252q-88 0 -88 -88v-336q0 -47 4 -70q10 -57 84 -59h241q55 0 72 26q16 26 16 103v336zM967 1067h-103q61 -74 62 -172v-336
q0 -161 -60 -232q-27 -32 -81 -57t-132 -24h-84q-85 -2 -111 -9t-26 -33t20 -33t117 -9h84q117 0 195 -65t78 -167v-24q0 -102 -76 -167t-197 -65h-241q-121 0 -197 65t-76 167v24q0 78 44 132t106 75q-45 39 -45 80t14 64q-119 66 -119 278v336q0 113 80 193t193 79h555
v-100z" />
    <glyph glyph-name="gbreve.ss01" horiz-adv-x="1044" 
d="M412 -2q-98 0 -99 -68v-24q0 -26 20 -42q20 -15 79 -16h241q31 0 48 2t33 16t18 40v24q0 68 -99 68h-241zM741 895q0 88 -77 88h-252q-88 0 -88 -88v-336q0 -47 4 -70q10 -57 84 -59h241q55 0 72 26q16 26 16 103v336zM926 559q0 -161 -60 -232q-27 -32 -81 -57t-132 -24
h-84q-85 -2 -111 -9t-26 -33t20 -33t117 -9h84q117 0 195 -65t78 -167v-24q0 -102 -76 -167t-197 -65h-241q-121 0 -197 65t-76 167v24q0 78 44 132t106 75q-45 39 -45 80t14 64q-119 66 -119 278v336q0 113 80 193t193 79h555v-100h-103q61 -74 62 -172v-336zM735 1536
q0 -82 -57 -139t-139 -57q-81 0 -139 56q-58 58 -58 140h143q-1 -53 53 -53t54 53h143z" />
    <glyph glyph-name="gcircumflex.ss01" horiz-adv-x="1044" 
d="M412 -2q-98 0 -99 -68v-24q0 -26 20 -42q20 -15 79 -16h241q31 0 48 2t33 16t18 40v24q0 68 -99 68h-241zM741 895q0 88 -77 88h-252q-88 0 -88 -88v-336q0 -47 4 -70q10 -57 84 -59h241q55 0 72 26q16 26 16 103v336zM926 559q0 -161 -60 -232q-27 -32 -81 -57t-132 -24
h-84q-85 -2 -111 -9t-26 -33t20 -33t117 -9h84q117 0 195 -65t78 -167v-24q0 -102 -76 -167t-197 -65h-241q-121 0 -197 65t-76 167v24q0 78 44 132t106 75q-45 39 -45 80t14 64q-119 66 -119 278v336q0 113 80 193t193 79h555v-100h-103q61 -74 62 -172v-336zM588 1608
l254 -303h-164l-137 159h-6l-138 -159h-164l254 303h101z" />
    <glyph glyph-name="gcommaaccent.ss01" horiz-adv-x="1044" 
d="M412 -2q-98 0 -99 -68v-24q0 -26 20 -42q20 -15 79 -16h241q31 0 48 2t33 16t18 40v24q0 68 -99 68h-241zM741 895q0 88 -77 88h-252q-88 0 -88 -88v-336q0 -47 4 -70q10 -57 84 -59h241q55 0 72 26q16 26 16 103v336zM926 559q0 -161 -60 -232q-27 -32 -81 -57t-132 -24
h-84q-85 -2 -111 -9t-26 -33t20 -33t117 -9h84q117 0 195 -65t78 -167v-24q0 -102 -76 -167t-197 -65h-241q-121 0 -197 65t-76 167v24q0 78 44 132t106 75q-45 39 -45 80t14 64q-119 66 -119 278v336q0 113 80 193t193 79h555v-100h-103q61 -74 62 -172v-336zM614 1284
h-163v346h163v-346z" />
    <glyph glyph-name="gdotaccent.ss01" horiz-adv-x="1044" 
d="M412 -2q-98 0 -99 -68v-24q0 -26 20 -42q20 -15 79 -16h241q31 0 48 2t33 16t18 40v24q0 68 -99 68h-241zM741 895q0 88 -77 88h-252q-88 0 -88 -88v-336q0 -47 4 -70q10 -57 84 -59h241q55 0 72 26q16 26 16 103v336zM926 559q0 -161 -60 -232q-27 -32 -81 -57t-132 -24
h-84q-85 -2 -111 -9t-26 -33t20 -33t117 -9h84q117 0 195 -65t78 -167v-24q0 -102 -76 -167t-197 -65h-241q-121 0 -197 65t-76 167v24q0 78 44 132t106 75q-45 39 -45 80t14 64q-119 66 -119 278v336q0 113 80 193t193 79h555v-100h-103q61 -74 62 -172v-336zM537 1286
q-41 0 -71 30t-30 70t30 72q30 31 71 31t71 -31t31 -72q-1 -40 -31 -70t-71 -30z" />
    <glyph glyph-name="y.ss01" horiz-adv-x="1064" 
d="M926 -55q0 -113 -78 -192t-193 -79h-501v185h499q39 -1 64 23t24 65v178q-297 -145 -392 -145t-152 57t-58 139v971h185v-916q0 -66 26 -65q39 0 303 108l88 37v836h185v-1202z" />
    <glyph glyph-name="yacute.ss01" horiz-adv-x="1064" 
d="M926 -55q0 -113 -78 -192t-193 -79h-501v185h499q39 -1 64 23t24 65v178q-297 -145 -392 -145t-152 57t-58 139v971h185v-916q0 -66 26 -65q39 0 303 108l88 37v836h185v-1202zM842 1567l-207 -269h-178l207 269h178z" />
    <glyph glyph-name="ycircumflex.ss01" horiz-adv-x="1064" 
d="M926 -55q0 -113 -78 -192t-193 -79h-501v185h499q39 -1 64 23t24 65v178q-297 -145 -392 -145t-152 57t-58 139v971h185v-916q0 -66 26 -65q39 0 303 108l88 37v836h185v-1202zM588 1608l254 -303h-164l-137 159h-6l-138 -159h-164l254 303h101z" />
    <glyph glyph-name="ydieresis.ss01" horiz-adv-x="1064" 
d="M926 -55q0 -113 -78 -192t-193 -79h-501v185h499q39 -1 64 23t24 65v178q-297 -145 -392 -145t-152 57t-58 139v971h185v-916q0 -66 26 -65q39 0 303 108l88 37v836h185v-1202zM657 1298q-39 0 -67 28t-29 68q0 40 29 68q30 28 68 29q38 0 66 -29q28 -28 28 -68t-28 -68
t-67 -28zM420 1491q38 0 68 -29q30 -28 30 -68t-28 -68t-69 -28q-40 0 -68 28q-27 28 -27 68t28 68t66 29z" />
    <glyph glyph-name="ygrave.ss01" horiz-adv-x="1064" 
d="M926 -55q0 -113 -78 -192t-193 -79h-501v185h499q39 -1 64 23t24 65v178q-297 -145 -392 -145t-152 57t-58 139v971h185v-916q0 -66 26 -65q39 0 303 108l88 37v836h185v-1202zM424 1567l207 -269h-178l-207 269h178z" />
    <glyph glyph-name="ytilde.ss01" horiz-adv-x="1064" 
d="M926 -55q0 -113 -78 -192t-193 -79h-501v185h499q39 -1 64 23t24 65v178q-297 -145 -392 -145t-152 57t-58 139v971h185v-916q0 -66 26 -65q39 0 303 108l88 37v836h185v-1202zM687 1456q54 0 108 57l10 -155q-55 -66 -115 -66t-152 36q-91 36 -148 36t-107 -55l-11 155
q54 64 116 64t154 -36t145 -36z" />
    <glyph glyph-name="c_h" horiz-adv-x="1955" 
d="M1619 1165q95 0 153 -57t57 -139v-969h-184v887q0 92 -27 92q-39 0 -303 -111l-90 -34v-582q0 -113 -80 -193t-193 -79h-561q-113 0 -193 80t-79 192v643q0 113 80 193t192 79h242q113 0 193 -80t79 -192v-154h-184v154q0 39 -25 63t-63 25h-242q-39 0 -63 -25t-25 -63
v-643q0 -39 25 -64t63 -24h561q39 0 64 24t24 64v1315h185v-547q299 145 394 145z" />
    <glyph glyph-name="zero.lf" horiz-adv-x="1042" 
d="M401 1403q-41 0 -65 -24t-23 -64v-1063q0 -39 24 -64t64 -24h242q41 0 65 24t23 64v1063q1 41 -23 65t-65 23h-242zM643 1587q115 0 194 -79t78 -193v-1063q1 -113 -79 -193t-193 -79h-242q-113 0 -193 80t-79 192v1063q0 115 79 193t193 79h242z" />
    <glyph glyph-name="one.lf" horiz-adv-x="569" 
d="M412 0h-185v1382h-121v185h306v-1567z" />
    <glyph glyph-name="two.lf" horiz-adv-x="1032" 
d="M631 1589q123 0 209 -86t86 -209v-84q0 -189 -105 -312t-209 -202t-137 -110q-123 -113 -153 -194t-31 -208h635v-184h-820v102q0 216 50 348t180 257q41 39 128 103t138 108t95 122t44 170v84q0 49 -30 80q-31 31 -80 31h-230q-49 0 -79 -31t-31 -80h-185q0 123 86 209
t209 86h230z" />
    <glyph glyph-name="three.lf" horiz-adv-x="1034" 
d="M891 1100q0 -76 -27 -146t-88 -98q68 -26 98 -96t31 -148v-387q0 -119 -76 -182t-202 -63h-232q-127 0 -201 62t-73 183v353h184v-353q1 -33 21 -47t69 -14h230q96 0 96 61v387q0 39 -33 86t-78 47h-168v185h168q43 0 70 61t27 109v243q0 61 -97 62h-229q-90 0 -90 -62
v-40h-185v40q0 121 74 183t201 63h231q127 0 203 -63t76 -183v-243z" />
    <glyph glyph-name="four.lf" horiz-adv-x="1128" 
d="M694 459v923h-61l-357 -923h418zM879 459h106v-185h-106v-274h-185v274h-678l496 1293h367v-1108z" />
    <glyph glyph-name="five.lf" horiz-adv-x="1038" 
d="M932 1382h-557v-432h282q272 0 273 -313v-412q0 -119 -76 -182t-203 -63h-231q-127 0 -201 62t-74 183v353h185v-353q0 -33 20 -47t70 -14h229q96 0 96 61v412q0 63 -18 96t-70 33h-467v799h742v-183z" />
    <glyph glyph-name="six.lf" horiz-adv-x="1021" 
d="M401 705q-41 0 -65 -24t-23 -63v-364q0 -41 24 -65t64 -23h242q41 0 65 24t23 64v362q0 39 -23 64q-24 25 -65 25h-242zM731 1161v156q1 39 -23 63t-65 25h-242q-41 0 -65 -25t-23 -63v-449q35 20 88 21h242q113 0 193 -80t79 -193v-362q1 -113 -79 -193t-193 -79h-242
q-113 0 -193 80t-79 192v1063q0 113 79 193t193 79h242q115 0 194 -80t78 -192v-156h-184z" />
    <glyph glyph-name="seven.lf" horiz-adv-x="821" 
d="M16 1393v184h791l-488 -1577h-184l432 1393h-551z" />
    <glyph glyph-name="eight.lf" horiz-adv-x="1046" 
d="M735 610q0 55 -25 97q-26 41 -65 47h-242q-39 -6 -65 -47t-25 -97v-356q0 -41 24 -65t64 -23h246q41 0 65 24t23 64v356zM328 1098q0 -55 24 -94t62 -46h221q39 6 63 46t23 94v217q0 41 -25 65t-63 23h-217q-39 0 -64 -24t-24 -64v-217zM905 1098q0 -180 -137 -242
q74 -28 113 -94t39 -152v-356q0 -113 -80 -193t-193 -79h-246q-113 0 -193 80t-79 192v356q0 86 39 153t113 93q-137 61 -138 242v217q0 113 80 193t193 79h217q113 0 193 -80t79 -192v-217z" />
    <glyph glyph-name="nine.lf" horiz-adv-x="1021" 
d="M621 868q41 0 65 24t23 62v365q0 41 -25 65t-63 23h-242q-39 0 -64 -24t-24 -64v-363q1 -40 25 -64t63 -24h242zM621 1591q113 0 193 -80t79 -192v-1067q0 -113 -80 -193t-192 -79h-242q-113 0 -193 80t-80 192v156h185v-156q1 -39 25 -64t63 -24h242q39 0 63 24t25 64
v453q-35 -20 -88 -21h-242q-113 0 -193 80t-80 192v363q0 113 80 193t193 79h242z" />
    <glyph glyph-name="commaaccentinvert" horiz-adv-x="1021" 
d="M592 1638v-346h-164v346h164z" />
    </font>
</defs>
</svg>
