<?xml version="1.0" standalone="no"?>
<!DOCTYPE svg PUBLIC "-//W3C//DTD SVG 1.1//EN" "http://www.w3.org/Graphics/SVG/1.1/DTD/svg11.dtd" >
<svg xmlns="http://www.w3.org/2000/svg">
<metadata>
Created by FontPrep 20130207 at Sat Sep 17 12:45:06 2016
 By Mauricio Duran
Copyright 2004-2013 SUDTIPOS. Disenada por Alejandro Paul y Alfredo Graziani. Todos los derechos reservados.
</metadata>
<defs>
<font id="48b4f5ee397aa98e32acb2779285a3ea" horiz-adv-x='1024' >
  <font-face 
    font-family="Politica-Black"
    font-weight="900"
    font-stretch="normal"
    units-per-em="2048"
    panose-1="0 0 10 0 0 0 0 0 0 0"
    ascent="1638"
    descent="-410"
    x-height="1147"
    cap-height="1638"
    bbox="-418 -594 2640 2392"
    underline-thickness="102"
    underline-position="-102"
    unicode-range="U+0020-FB02"
  />
<missing-glyph horiz-adv-x="372" 
d="M164 23q0 23 22 22q23 -1 23 -23q-1 -22 -23 -22t-22 23zM186 963q-22 1 -22 23t22 22t23 -22q0 -22 -23 -23z" />
    <glyph glyph-name="fi" unicode="fi" horiz-adv-x="1310" 
d="M1096 1350h-328v217h328v-217zM1264 307v-327h-154q-143 -2 -244 98q-100 100 -100 241v504h-334v-796q-4 -141 -107 -241t-255 -99v327q35 0 34 41v768h-86v324h86v84q0 139 100 237t245 99h221v-328h-209q-29 0 -29 -31v-61h662v-807q0 -33 28 -33h142z" />
    <glyph glyph-name="fl" unicode="fl" horiz-adv-x="1380" 
d="M1331 307v-327h-153q-143 -2 -244 98q-100 100 -100 241v920h-373q-29 0 -29 -31v-61h148v-324h-148v-796q-4 -141 -107 -241t-255 -99v327q35 0 34 41v768h-86v324h86v84q0 139 100 237t245 99h702v-2h10v-1225q0 -33 29 -33h141z" />
    <glyph glyph-name=".notdef" horiz-adv-x="372" 
d="M164 23q0 23 22 22q23 -1 23 -23q-1 -22 -23 -22t-22 23zM186 963q-22 1 -22 23t22 22t23 -22q0 -22 -23 -23z" />
    <glyph glyph-name=".null" horiz-adv-x="0" 
 />
    <glyph glyph-name="nonmarkingreturn" horiz-adv-x="681" 
 />
    <glyph glyph-name="space" unicode=" " horiz-adv-x="454" 
 />
    <glyph glyph-name="exclam" unicode="!" horiz-adv-x="569" 
d="M449 217v-217h-328v217h328zM449 1630v-1208h-328v1208h328z" />
    <glyph glyph-name="quotedbl" unicode="&#x22;" horiz-adv-x="903" 
d="M805 1565v-529h-328v529h328zM426 1565v-529h-328v529h328z" />
    <glyph glyph-name="numbersign" unicode="#" horiz-adv-x="1505" 
d="M811 864h-158l-39 -129h158zM1313 735v-284h-297l-74 -248l-330 4l74 244h-156l-73 -248l-330 4l74 244h-78v284h164l37 129h-129v285h215l67 223h326l-66 -223h160l68 223h323l-65 -223h161v-285h-245l-39 -129h213z" />
    <glyph glyph-name="dollar" unicode="$" 
d="M662 1042v37q0 31 -29 31h-164q-31 0 -31 -31v-16q0 -19 8 -27l14 -14q5 -6 17 -12t26 -14t40 -20t49 -22t37 -16t63 -28t94 -41t58 -33q14 -13 44 -33q30 -19 37 -35t25 -42q39 -56 39 -179v-53q0 -123 -79 -205t-193 -82h-8v-207h-285v207h-41q-113 0 -193 80t-79 192
v125h327v-80q0 -31 31 -30h164q31 0 31 30v33q0 37 -22 53t-36 24t-53 24t-68 30t-93 41t-94 41q-101 50 -135 104q-52 85 -52 197v37q2 131 79 209q78 78 193 78h41v172h285v-172h8q115 0 193 -79t79 -194v-80h-327z" />
    <glyph glyph-name="percent" unicode="%" horiz-adv-x="1898" 
d="M1325 252q0 -29 33 -29h125q33 0 33 29v315q0 29 -33 29h-125q-33 0 -33 -29v-315zM1040 596q0 100 83 172t194 72h207q112 0 194 -71t82 -173v-375q0 -100 -82 -171t-194 -70h-207q-109 0 -193 72t-84 169v375zM539 971q35 0 34 28v316q0 29 -34 28h-123q-33 0 -33 -28
v-316q0 -29 33 -28h123zM375 727q-111 0 -194 72t-83 170v377q0 100 83 171t194 70h207q114 -1 194 -71t80 -170v-377q0 -100 -81 -171t-193 -71h-207zM1380 1634l-653 -1634h-182l653 1634h182z" />
    <glyph glyph-name="ampersand" unicode="&#x26;" horiz-adv-x="1302" 
d="M762 1587q123 0 209 -86t86 -209v-129h-328v90q0 29 -29 29h-227q-29 0 -29 -29v-254q0 -41 29 -41h133v-305h-151q-29 0 -29 -41v-286q0 -41 29 -41h241q33 0 33 41v632h533v-327h-205v-357q0 -122 -86 -208t-209 -86h-369q-123 0 -209 86t-86 208v342q0 160 127 207
q-109 41 -108 172v297q0 123 86 209t209 86h350z" />
    <glyph glyph-name="quotesingle" unicode="'" horiz-adv-x="524" 
d="M426 1565v-529h-328v529h328z" />
    <glyph glyph-name="parenleft" unicode="(" horiz-adv-x="778" 
d="M393 778q0 -485 367 -946h-359q-325 412 -325 952t325 940h359q-172 -212 -270 -456t-97 -490z" />
    <glyph glyph-name="parenright" unicode=")" horiz-adv-x="778" 
d="M385 778q0 246 -97 490t-270 456h359q326 -400 326 -940t-326 -952h-359q367 461 367 946z" />
    <glyph glyph-name="asterisk" unicode="*" horiz-adv-x="868" 
d="M301 1591h250v-151l219 59v-262l-184 -49l176 -176l-176 -178l-160 170l-137 -146l-189 168l166 162l-168 49v262l203 -59v151z" />
    <glyph glyph-name="plus" unicode="+" 
d="M193 543v360h178v152h362v-152h176v-360h-176v-205h-362v205h-178z" />
    <glyph glyph-name="comma" unicode="," horiz-adv-x="569" 
d="M449 -319h-328v636h328v-636z" />
    <glyph glyph-name="hyphen" unicode="-" horiz-adv-x="845" 
d="M754 883v-326h-662v326h662z" />
    <glyph glyph-name="period" unicode="." horiz-adv-x="538" 
d="M98 170q0 70 50 121t120 51t121 -51t51 -121t-51 -120t-121 -50t-120 50t-50 120z" />
    <glyph glyph-name="slash" unicode="/" horiz-adv-x="1052" 
d="M1034 1761l-729 -1884h-287l730 1884h286z" />
    <glyph glyph-name="zero" unicode="0" 
d="M467 1282q-29 0 -29 -29v-940q0 -29 29 -28h162q33 0 33 28v940q0 29 -33 29h-162zM694 1587q123 0 209 -86t86 -209v-1018q0 -122 -86 -208t-209 -86h-288q-123 0 -209 86t-86 208v1018q0 123 86 209t209 86h288z" />
    <glyph glyph-name="one" unicode="1" 
d="M1051 328v-328h-940v328h331v911h-331v328h659v-1239h281z" />
    <glyph glyph-name="two" unicode="2" 
d="M711 1589q123 0 209 -96t86 -233v-50q0 -255 -154 -424q-51 -55 -90 -85q-39 -29 -100 -75t-91 -69q-61 -45 -100 -112t-39 -117h574v-328h-912v174q0 434 213 598q37 27 128 87t129 91t76 92t38 134v71q0 37 -31 37h-192q-33 0 -33 -61h-328q0 154 86 260t209 106h322z
" />
    <glyph glyph-name="three" unicode="3" 
d="M979 1026q0 -125 -100 -162q111 -39 110 -182v-408q0 -122 -86 -208t-209 -86h-288q-123 0 -209 86t-86 208v301h327v-249q0 -41 35 -41h158q31 0 31 41v317q0 41 -31 41h-156v303h148q29 0 28 41v225q0 29 -28 29h-154q-31 0 -31 -29v-106h-327v145q0 123 86 209t209 86
h278q123 0 209 -86t86 -209v-266z" />
    <glyph glyph-name="four" unicode="4" 
d="M643 530v709h-29l-184 -709h213zM971 530h106v-327h-106v-203h-328v203h-659l417 1364h570v-1037z" />
    <glyph glyph-name="five" unicode="5" 
d="M989 1239h-504v-227h209q123 0 209 -86t86 -209v-443q0 -122 -86 -208t-209 -86h-288q-123 0 -209 86t-86 208v304h327v-265q0 -29 29 -28h162q33 0 33 28v342q0 29 -33 29h-471v881h831v-326z" />
    <glyph glyph-name="six" unicode="6" 
d="M467 584q-29 0 -29 -29v-242q0 -29 29 -28h162q33 0 33 28v242q0 29 -33 29h-162zM662 1161v92q0 29 -33 29h-162q-29 0 -29 -29v-364h256q123 0 209 -86t86 -209v-320q0 -122 -86 -208t-209 -86h-288q-123 0 -209 86t-86 208v1018q0 123 86 209t209 86h288
q123 0 209 -86t86 -209v-131h-327z" />
    <glyph glyph-name="seven" unicode="7" 
d="M154 1249v328h880l-499 -1577h-326l399 1249h-454z" />
    <glyph glyph-name="eight" unicode="8" 
d="M662 647q0 29 -33 29h-162q-29 0 -29 -29v-334q0 -29 29 -28h162q33 0 33 28v334zM446 1049q0 -29 31 -29h144q31 0 30 29v204q0 29 -30 29h-144q-31 0 -31 -29v-204zM979 1059q0 -135 -123 -201q133 -66 133 -207v-377q0 -122 -86 -208t-209 -86h-288q-123 0 -209 86
t-86 208v377q0 143 133 207q-125 61 -125 201v233q0 123 86 209t209 86h270q123 0 209 -86t86 -209v-233z" />
    <glyph glyph-name="nine" unicode="9" 
d="M633 993q29 0 29 29v242q0 29 -29 28h-162q-33 0 -33 -28v-242q0 -29 33 -29h162zM438 324q0 -29 33 -29h162q29 0 29 29v364h-256q-123 0 -209 86t-86 209v320q0 123 86 209t209 85h288q123 0 209 -86t86 -208v-1018q0 -123 -86 -209t-209 -86h-288q-123 0 -209 86
t-86 209v131h327v-92z" />
    <glyph glyph-name="colon" unicode=":" horiz-adv-x="538" 
d="M98 170q0 70 50 121t120 51t121 -51t51 -121t-51 -120t-121 -50t-120 50t-50 120zM268 694q-70 0 -120 50t-50 119t50 121t120 52t121 -51t51 -121t-51 -120t-121 -50z" />
    <glyph glyph-name="semicolon" unicode=";" horiz-adv-x="540" 
d="M98 -319v636h328v-636h-328zM270 750q-70 0 -120 49t-50 119t50 120t120 49q70 0 121 -50q51 -49 51 -119t-51 -119t-121 -49z" />
    <glyph glyph-name="less" unicode="&#x3c;" 
d="M637 1368l266 -111l-366 -413l383 -428l-265 -113l-473 541z" />
    <glyph glyph-name="equal" unicode="=" 
d="M909 664v-330h-716v330h716zM909 1104v-328h-716v328h716z" />
    <glyph glyph-name="greater" unicode="&#x3e;" 
d="M199 1257l268 111l453 -524l-471 -541l-267 113l383 428z" />
    <glyph glyph-name="question" unicode="?" horiz-adv-x="1050" 
d="M623 0h-328v217h328v-217zM713 1651q115 0 193 -80t79 -193v-280q0 -131 -73 -210t-193 -79h-66q-31 0 -30 -31v-379h-328v369q0 170 82 244t176 73h74q31 0 30 31v230q0 31 -30 30h-203q-31 0 -31 -30v-181h-327v213q0 113 79 193q80 80 193 80h375z" />
    <glyph glyph-name="at" unicode="@" horiz-adv-x="1701" 
d="M793 719q-23 0 -23 -21v-202q0 -37 25 -37q25 1 69 31t66 57v151q0 20 -21 21h-116zM995 1319q269 0 439 -171t170 -439v-258q0 -98 -92 -170t-214 -72h-368v127q-63 -48 -95 -68q-111 -71 -190 -70q-78 1 -123 55t-45 142v301q0 121 52 197t159 76h297q100 0 170 -80
t70 -193v-172h30q20 0 21 21v151q0 140 -82 228t-209 88h-295q-124 0 -194 -84t-70 -234v-301q0 -111 57 -174t156 -63h285v-308h-260q-264 0 -415 132t-151 360v348q0 297 157 464t433 167h307z" />
    <glyph glyph-name="A" unicode="A" horiz-adv-x="1226" 
d="M668 1311h-115q-25 0 -27 -39l-82 -619h332l-82 619q-2 39 -26 39zM852 1638q32 0 58 -22t30 -47l250 -1569h-328l-43 326h-418l-43 -326h-327l248 1569q5 27 31 49t57 20h485z" />
    <glyph glyph-name="B" unicode="B" horiz-adv-x="1161" 
d="M629 328q67 0 91 24t23 84v174q0 46 -16 64t-57 18h-221v-364h180zM651 1020q41 0 60 17q18 17 18 57v155q0 41 -18 53t-70 13h-192v-295h202zM635 1638q248 0 335 -78t87 -307v-155q0 -109 -39 -159t-119 -83q80 -18 126 -72t46 -174v-178q0 -256 -89 -344t-345 -88
h-516v1638h514z" />
    <glyph glyph-name="C" unicode="C" horiz-adv-x="1138" 
d="M98 1356q0 123 86 209t209 86h361q123 0 209 -86t86 -209v-258h-328v207q0 41 -33 41h-233q-29 0 -29 -41v-992q0 -29 29 -28h237q29 0 29 28v285h328v-324q0 -122 -86 -208t-209 -86h-361q-123 0 -209 86t-86 208v1082z" />
    <glyph glyph-name="D" unicode="D" horiz-adv-x="1169" 
d="M715 305q29 0 28 31v967q0 31 -28 30h-266v-1028h266zM776 1638q125 0 210 -80t85 -202v-1061q0 -123 -86 -209t-209 -86h-655v1638h655z" />
    <glyph glyph-name="E" unicode="E" horiz-adv-x="1009" 
d="M948 1638v-327h-499v-305h444v-328h-444v-350h499v-328h-827v1638h827z" />
    <glyph glyph-name="F" unicode="F" horiz-adv-x="968" 
d="M950 1638v-366h-501v-205h444v-328h-444v-739h-328v1638h829z" />
    <glyph glyph-name="G" unicode="G" horiz-adv-x="1124" 
d="M98 1356q0 123 86 209t209 86h350q123 0 209 -86t86 -209v-258h-327v219q0 29 -31 29h-225q-29 0 -29 -29v-1004q0 -29 29 -28h225q31 0 31 28v275h-189v327h516v-641q0 -122 -86 -208t-209 -86h-350q-123 0 -209 86t-86 208v1082z" />
    <glyph glyph-name="H" unicode="H" horiz-adv-x="1185" 
d="M449 1638v-571h288v571h328v-1638h-328v745h-288v-745h-328v1638h328z" />
    <glyph glyph-name="I" unicode="I" horiz-adv-x="585" 
d="M457 1638v-1638h-328v1638h328z" />
    <glyph glyph-name="J" unicode="J" horiz-adv-x="1075" 
d="M362 598v-283q0 -31 29 -30h230q29 0 28 30v1323h328v-1364q0 -122 -86 -208t-209 -86h-352q-123 0 -209 86t-86 208v324h327z" />
    <glyph glyph-name="K" unicode="K" horiz-adv-x="1247" 
d="M444 1638v-571h179l262 571h346l-361 -725v-18l361 -895h-346l-262 741h-179v-741h-323v1638h323z" />
    <glyph glyph-name="L" unicode="L" horiz-adv-x="958" 
d="M444 1638v-1310h500v-328h-823v1638h323z" />
    <glyph glyph-name="M" unicode="M" horiz-adv-x="1699" 
d="M713 1638l139 -1071l115 1071h567l61 -1638h-327l-41 1311h-19l-211 -1291h-292l-211 1291h-19l-43 -1311h-328l64 1638h545z" />
    <glyph glyph-name="N" unicode="N" horiz-adv-x="1314" 
d="M1194 1638v-1638h-545l-196 1311h-19l15 -1311h-328v1638h547l192 -1310h21l-15 1310h328z" />
    <glyph glyph-name="O" unicode="O" horiz-adv-x="1146" 
d="M426 313q0 -29 29 -28h235q31 0 31 28v1004q0 29 -31 29h-235q-29 0 -29 -29v-1004zM98 1356q0 123 86 209t209 86h361q123 0 209 -86t86 -209v-1082q0 -122 -86 -208t-209 -86h-361q-123 0 -209 86t-86 208v1082z" />
    <glyph glyph-name="P" unicode="P" horiz-adv-x="1107" 
d="M707 971q29 0 28 28v301q0 33 -30 33h-256v-362h258zM768 1638q125 0 210 -80t85 -202v-395q0 -123 -86 -209t-209 -86h-319v-666h-328v1638h647z" />
    <glyph glyph-name="Q" unicode="Q" horiz-adv-x="1146" 
d="M426 313q0 -29 29 -28h235q31 0 31 28v1004q0 29 -31 29h-235q-29 0 -29 -29v-1004zM754 1651q123 0 209 -86t86 -209v-1082q0 -122 -86 -208t-209 -86h-27v-297h-328v297h-6q-123 0 -209 86t-86 208v1082q0 123 86 209t209 86h361z" />
    <glyph glyph-name="R" unicode="R" horiz-adv-x="1171" 
d="M737 1309q0 31 -20 30h-268v-319h256q33 18 32 74v215zM821 1638q100 0 173 -72t73 -173v-295q0 -78 -44 -145t-114 -97q76 -30 124 -96t48 -150v-610h-327v598q0 70 -29 94h-276v-692h-328v1638h700z" />
    <glyph glyph-name="S" unicode="S" horiz-adv-x="1097" 
d="M408 578v-265q0 -29 28 -28h211q31 0 31 28v119q0 144 -104 235q-56 49 -96 73t-144 80t-172 168q-68 110 -68 255v113q0 123 86 209t209 86h334q123 0 209 -116t86 -286h-328q0 55 -8 75t-33 22h-196q-31 0 -31 -29v-74q0 -49 44 -95t82 -69t93 -51t61 -33
q136 -74 220 -218t84 -345v-158q0 -122 -86 -208t-209 -86h-336q-123 0 -209 86t-86 208v304h328z" />
    <glyph glyph-name="T" unicode="T" horiz-adv-x="1028" 
d="M18 1311v327h992v-327h-330v-1311h-328v1311h-334z" />
    <glyph glyph-name="U" unicode="U" horiz-adv-x="1159" 
d="M432 1638v-1314q0 -39 29 -39h237q29 0 29 39v1314h328v-1364q0 -122 -86 -208t-209 -86h-361q-123 0 -209 86t-86 208v1364h328z" />
    <glyph glyph-name="V" unicode="V" horiz-adv-x="1241" 
d="M571 281h105q25 0 31 47l167 1310h328l-258 -1589q-4 -23 -31 -47t-57 -22h-469q-31 0 -57 22t-31 47l-260 1589h336l166 -1310q6 -47 30 -47z" />
    <glyph glyph-name="W" unicode="W" horiz-adv-x="1751" 
d="M432 1638v-1325q0 -29 29 -28h129q59 0 90 57t31 125v1171h327v-1171q0 -66 32 -124t89 -58h129q31 0 31 28v1325h328v-1364q0 -122 -86 -208t-209 -86h-193q-100 0 -177 59t-108 156q-27 -96 -103 -156q-77 -59 -181 -59h-191q-123 0 -209 86t-86 208v1364h328z" />
    <glyph glyph-name="X" unicode="X" horiz-adv-x="1208" 
d="M1169 0h-335l-230 618l-229 -618h-336l373 864l-320 774h342l168 -594l172 594h344l-321 -796z" />
    <glyph glyph-name="Y" unicode="Y" horiz-adv-x="1234" 
d="M840 455h-54v-455h-325v455h-47q-96 0 -113 65l-262 1118h336l166 -860q6 -35 20 -35h131q18 0 21 35l155 860h328l-242 -1118q-8 -29 -40 -47t-74 -18z" />
    <glyph glyph-name="Z" unicode="Z" horiz-adv-x="1058" 
d="M47 1311v327h965l-508 -1310h508v-328h-965l512 1311h-512z" />
    <glyph glyph-name="bracketleft" unicode="[" horiz-adv-x="591" 
d="M573 1782v-328h-124v-1270h124v-327h-452v1925h452z" />
    <glyph glyph-name="backslash" unicode="\" horiz-adv-x="870" 
d="M358 1638l496 -1638h-344l-492 1638h340z" />
    <glyph glyph-name="bracketright" unicode="]" horiz-adv-x="591" 
d="M143 1454h-125v328h453v-1925h-453v327h125v1270z" />
    <glyph glyph-name="asciicircum" unicode="^" 
d="M676 1583l227 -278h-268l-76 131h-22l-76 -131h-268l229 278h254z" />
    <glyph glyph-name="underscore" unicode="_" horiz-adv-x="1040" 
d="M1022 -301h-1004v326h1004v-326z" />
    <glyph glyph-name="grave" unicode="`" horiz-adv-x="849" 
d="M397 1628l207 -330h-272l-252 330h317z" />
    <glyph glyph-name="a" unicode="a" horiz-adv-x="1042" 
d="M377 289q1 -21 33 -21t206 60v170l-188 -41q-51 -12 -51 -66v-102zM68 408q0 150 45 200t157 80l346 62v102q0 31 -30 31h-133q-31 0 -31 -31v-70h-309v109q0 133 94 205t221 71h205q125 3 218 -69t93 -203v-895h-315v104q-297 -124 -381 -124t-132 56t-48 140v232z" />
    <glyph glyph-name="b" unicode="b" horiz-adv-x="1067" 
d="M647 791q0 37 -24 36q-19 0 -83 -17t-114 -38v-475q0 -31 31 -31h159q31 0 31 31v494zM371 -20q-113 0 -193 80t-80 192v1315h328v-502q256 104 345 104t147 -59t57 -141v-717q2 -113 -79 -193t-194 -79h-331z" />
    <glyph glyph-name="c" unicode="c" horiz-adv-x="1015" 
d="M92 895q0 113 79 193t194 79h331q115 0 194 -80t79 -192v-154h-328v111q0 31 -31 31h-159q-31 0 -31 -31v-555q0 -31 31 -31h159q31 0 31 31v102h328v-147q0 -113 -80 -193t-193 -79h-331q-113 0 -193 80t-80 192v643z" />
    <glyph glyph-name="d" unicode="d" horiz-adv-x="1075" 
d="M641 850q0 31 -31 31h-161q-31 0 -31 -31v-494q0 -35 26 -34q63 0 197 53v475zM969 1565v-1565h-328v82q-252 -102 -344 -102t-150 58q-57 58 -57 140v719q0 113 80 193t192 79h279v396h328z" />
    <glyph glyph-name="e" unicode="e" horiz-adv-x="1032" 
d="M641 852q0 31 -29 31h-163q-29 0 -29 -31v-193h221v193zM92 895q0 113 79 193t194 79h331q115 0 194 -80t79 -192v-434h-549v-164q0 -31 31 -31h159q31 0 31 31v82h328v-127q0 -113 -79 -193t-194 -79h-331q-115 0 -194 80t-79 192v643z" />
    <glyph glyph-name="f" unicode="f" horiz-adv-x="669" 
d="M461 1239q-29 0 -29 -31v-61h148v-324h-148v-796q-4 -141 -107 -241t-255 -99v327q35 0 34 41v768h-86v324h86v84q0 139 100 237t245 99h221v-328h-209z" />
    <glyph glyph-name="g" unicode="g" horiz-adv-x="1067" 
d="M420 545q0 -35 24 -35q43 0 197 65v277q0 31 -31 31h-159q-31 0 -31 -31v-307zM420 -4q0 -31 31 -31h159q31 0 31 31v295q-258 -121 -346 -121t-145 59t-58 142v526q0 113 80 193t193 79h331q113 1 193 -79t80 -193v-944q0 -113 -79 -193t-194 -79h-331q-115 -1 -194 79
t-79 193v113h328v-70z" />
    <glyph glyph-name="h" unicode="h" horiz-adv-x="1083" 
d="M778 1167q92 0 150 -58t57 -140v-969h-328v791q0 35 -26 34q-63 0 -197 -53v-772h-328v1567h328v-502q252 102 344 102z" />
    <glyph glyph-name="i" unicode="i" horiz-adv-x="661" 
d="M442 340q0 -33 29 -33h141v-327h-153q-143 -2 -244 98q-100 100 -100 241v828h327v-807zM444 1567v-217h-327v217h327z" />
    <glyph glyph-name="j" unicode="j" horiz-adv-x="598" 
d="M481 1147v-1231q0 -240 -340 -240h-188v185h141q59 0 60 55v1231h327zM483 1567v-217h-331v217h331z" />
    <glyph glyph-name="k" unicode="k" horiz-adv-x="1144" 
d="M430 457v-457h-324v1567h324v-787h123l180 367h367l-303 -520v-17l348 -610h-375l-217 457h-123z" />
    <glyph glyph-name="l" unicode="l" horiz-adv-x="661" 
d="M612 307v-327h-153q-143 -2 -244 98q-100 100 -100 241v1246h327v-1225q0 -33 29 -33h141z" />
    <glyph glyph-name="m" unicode="m" horiz-adv-x="1499" 
d="M434 1147v-82q190 102 296 102t165 -106l4 -6q68 41 159 77q92 36 160 36t125 -59q57 -58 58 -140v-969h-328v791q0 35 -26 34q-35 0 -129 -53v-772h-328v791q0 35 -27 34q-35 0 -129 -53v-772h-328v1147h328z" />
    <glyph glyph-name="n" unicode="n" horiz-adv-x="1083" 
d="M434 1147v-82q252 102 344 102t150 -58t57 -140v-969h-328v791q0 35 -26 34q-63 0 -197 -53v-772h-328v1147h328z" />
    <glyph glyph-name="o" unicode="o" horiz-adv-x="1060" 
d="M420 297q0 -31 31 -31h159q31 0 31 31v555q0 31 -31 31h-159q-31 0 -31 -31v-555zM92 895q0 113 79 193t194 79h331q115 0 194 -80t79 -192v-643q0 -113 -80 -193t-193 -79h-331q-113 0 -193 80t-80 192v643z" />
    <glyph glyph-name="p" unicode="p" horiz-adv-x="1075" 
d="M657 791q0 35 -26 34q-63 0 -197 -53v-475q0 -31 31 -31h162q31 0 30 31v494zM778 1167q92 0 150 -58t57 -140v-719q0 -113 -80 -193t-192 -80h-279v-278h-328v1448h328v-82q252 102 344 102z" />
    <glyph glyph-name="q" unicode="q" horiz-adv-x="1067" 
d="M420 358q0 -37 24 -36q20 0 84 17t113 38v475q0 31 -31 31h-159q-31 0 -31 -31v-494zM696 1169q113 1 193 -79t80 -193v-1198h-328v385q-256 -104 -345 -104t-146 59t-58 141v717q-2 113 78 193t195 79h331z" />
    <glyph glyph-name="r" unicode="r" horiz-adv-x="1019" 
d="M434 1147v-82q252 102 344 102t150 -58t57 -140v-205h-328v27q0 35 -26 34q-63 0 -197 -53v-772h-328v1147h328z" />
    <glyph glyph-name="s" unicode="s" horiz-adv-x="1030" 
d="M403 377v-80q0 -31 31 -31h164q31 0 31 31v33q-1 37 -23 53q-22 15 -36 23t-52 25q-40 17 -68 31t-93 40q-65 27 -93 41q-101 50 -136 104q-52 85 -52 197v37q2 131 80 209t192 77h334q112 0 192 -80t80 -192v-80h-327v37q0 31 -29 31h-164q-31 0 -31 -31v-16
q1 -18 9 -26t15 -17q7 -8 43 -26q36 -17 50 -23q19 -9 146 -64q126 -54 141 -69q16 -15 46 -35t37 -36q7 -15 25 -41q39 -56 39 -180v-53q0 -123 -78 -205t-194 -81h-334q-112 0 -192 80t-80 192v125h327z" />
    <glyph glyph-name="t" unicode="t" horiz-adv-x="808" 
d="M483 823v-483q0 -33 29 -33h141v-327h-153q-143 -2 -244 98q-100 100 -100 241v504h-138v324h138v295h327v-295h308v-324h-308z" />
    <glyph glyph-name="u" unicode="u" horiz-adv-x="1083" 
d="M305 -20q-92 0 -149 58t-58 140v969h328v-791q0 -35 27 -34q63 0 196 53v772h328v-1147h-328v82q-252 -102 -344 -102z" />
    <glyph glyph-name="v" unicode="v" horiz-adv-x="1056" 
d="M496 266h71q18 0 23 31l92 850h328l-172 -1096q-4 -25 -31 -47t-57 -22h-433q-31 0 -57 22t-31 47l-180 1096h332l94 -850q4 -31 21 -31z" />
    <glyph glyph-name="w" unicode="w" horiz-adv-x="1568" 
d="M1470 1147v-873q0 -122 -86 -208t-208 -86h-132q-90 0 -160 59t-100 154q-25 -94 -95 -154q-71 -59 -165 -59h-131q-123 0 -209 86t-86 208v873h328v-852q0 -29 29 -29h69q96 0 97 148v733h327v-733q0 -68 25 -108t71 -40h68q31 0 31 29v852h327z" />
    <glyph glyph-name="x" unicode="x" horiz-adv-x="1073" 
d="M100 1147h349l90 -262l90 262h348l-266 -522l325 -625h-348l-149 311l-154 -311h-350l332 625z" />
    <glyph glyph-name="y" unicode="y" horiz-adv-x="1060" 
d="M489 266h91q18 0 20 31l90 850h330l-223 -1466h-314l47 296h-211q-31 0 -57 22t-31 48l-186 1100h330l96 -850q4 -31 18 -31z" />
    <glyph glyph-name="z" unicode="z" horiz-adv-x="976" 
d="M57 827v320h861v-320l-492 -501h498v-326h-871v328l490 499h-486z" />
    <glyph glyph-name="braceleft" unicode="{" horiz-adv-x="659" 
d="M541 1399v-295q0 -148 -38 -206t-122 -62v-33q86 -5 123 -61t37 -207v-293q0 -39 43 -45v-320q-195 20 -283 86t-88 187v385q0 117 -55 148q-40 22 -105 24v227q119 0 146 75q14 38 14 95v385q0 115 91 181t280 91v-319q-43 -2 -43 -43z" />
    <glyph glyph-name="bar" unicode="|" horiz-adv-x="569" 
d="M449 1741v-1843h-328v1843h328z" />
    <glyph glyph-name="braceright" unicode="}" horiz-adv-x="659" 
d="M446 1489v-385q0 -117 49 -143q49 -27 111 -27v-227q-117 0 -145 -77q-14 -38 -15 -95v-385q0 -121 -88 -187t-282 -86v320q43 6 43 45v293q0 151 37 207t123 61v33q-84 4 -122 62t-38 206v295q0 41 -43 43v319q188 -25 279 -91t91 -181z" />
    <glyph glyph-name="asciitilde" unicode="~" 
d="M400 1599q62 1 154 -35q91 -36 145 -36t108 57l10 -280q-55 -66 -115 -66t-152 36t-148 36t-107 -56l-10 281q53 63 115 63z" />
    <glyph glyph-name="DEL" horiz-adv-x="1024" 
 />
    <glyph glyph-name="exclamdown" unicode="&#xa1;" horiz-adv-x="569" 
d="M121 942h328v-1208h-328v1208zM121 1364h328v-217h-328v217z" />
    <glyph glyph-name="cent" unicode="&#xa2;" 
d="M375 518q0 -31 31 -31h40v615h-40q-31 0 -31 -31v-553zM725 963v108q0 31 -31 31h-47v-615h47q31 0 31 31v103h303v-148q0 -113 -80 -193t-192 -79h-45v-201h-328v201h-41q-112 0 -192 80t-80 192v643q0 113 80 193t192 80h41v176h328v-176h45q112 0 192 -80t80 -193
v-153h-303z" />
    <glyph glyph-name="sterling" unicode="&#xa3;" 
d="M1092 328v-328h-1065v328h266q-123 76 -123 211v129h-143v327h143v297q0 123 86 209t209 86h326q123 0 209 -86t85 -209v-196h-327v145q0 41 -33 41h-197q-31 0 -30 -41v-246h174v-327h-174v-119q0 -92 64 -157t155 -64h375z" />
    <glyph glyph-name="currency" unicode="&#xa4;" 
d="M657 526h-190v-213q0 -29 29 -28h219q31 0 30 28v285h328v-324q0 -122 -86 -208t-209 -86h-344q-123 0 -209 86t-86 208v252h-112v252h630v-252zM27 1104h112v188q0 123 86 209t209 86h344q123 0 209 -86t86 -209v-258h-328v207q0 41 -32 41h-217q-29 0 -29 -41v-137h190
v-252h-630v252z" />
    <glyph glyph-name="yen" unicode="&#xa5;" 
d="M152 336h798v-252h-231v-84h-324v84h-243v252zM719 696h231v-252h-798v252h243v90h-59q-32 0 -56 20t-32 50l-262 715h336l157 -518q10 -23 23 -23h110q12 0 23 23l149 520h332l-242 -717q-8 -26 -32 -48t-56 -22h-67v-90z" />
    <glyph glyph-name="brokenbar" unicode="&#xa6;" horiz-adv-x="530" 
d="M410 696v-798h-289v798h289zM410 1741v-799h-289v799h289z" />
    <glyph glyph-name="section" unicode="&#xa7;" horiz-adv-x="1075" 
d="M686 688q0 49 -283 139q-4 -16 -4 -22v-25q0 -44 188 -109q32 -11 95 -34q4 20 4 27v24zM649 1135v36q0 31 -28 31h-164q-31 0 -31 -31v-14q0 -41 56 -72t138 -57t162 -64q82 -38 138 -117t57 -190v-8q0 -96 -66 -174q66 -72 66 -192v-17q-2 -131 -80 -209t-192 -77h-334
q-113 0 -193 80t-80 192v121h328v-78q0 -31 29 -31h163q31 0 31 31v39q0 38 -56 66t-137 54t-163 62t-138 108q-56 73 -57 175v8q0 98 72 174q-72 78 -72 203v18q2 129 80 208t193 79h334q115 0 193 -79t79 -193v-82h-328z" />
    <glyph glyph-name="dieresis" unicode="&#xa8;" horiz-adv-x="724" 
d="M737 1431q0 -65 -46 -111q-47 -46 -111 -46t-111 46t-47 112t47 114t111 49q64 0 111 -50q46 -50 46 -114zM150 1274q-66 0 -113 46t-47 112t47 114t113 49q66 0 114 -50t47 -114q1 -65 -47 -111t-114 -46z" />
    <glyph glyph-name="copyright" unicode="&#xa9;" horiz-adv-x="1320" 
d="M391 764q0 45 30 77t73 31h333q43 0 74 -32t31 -76v-150h-184v58q0 27 -29 26h-103q-25 0 -24 -26v-201q0 -27 24 -27h103q29 0 29 27v55h184v-147q0 -45 -31 -76t-74 -31h-333q-39 0 -71 33t-32 74v385zM350 379q0 -68 42 -108t102 -40h333q59 0 103 40q43 40 43 108
v385q0 61 -40 105t-106 44h-333q-60 0 -102 -41t-42 -108v-385zM98 764q0 182 108 291t288 108h333q180 -1 288 -109t108 -290v-385q0 -182 -108 -291t-288 -108h-333q-180 0 -288 108t-108 291v385z" />
    <glyph glyph-name="ordfeminine" unicode="&#xaa;" horiz-adv-x="880" 
d="M782 551h-684v248h684v-248zM354 1126v-45q0 -20 17 -20q55 0 153 33v77l-145 -18q-25 -6 -25 -27zM145 1391q1 195 309 195t308 -165v-536h-238v61q-61 -16 -156 -44t-137 -29t-77 34t-35 84v162q0 119 119 133l286 31v74q0 27 -72 27t-71 -27v-25h-236v25z" />
    <glyph glyph-name="guillemotleft" unicode="&#xab;" horiz-adv-x="1333" 
d="M1235 692l-289 -203l289 -202l-238 -117l-444 319l444 324zM743 692l-288 -203l288 -202l-237 -117l-445 319l445 324z" />
    <glyph glyph-name="logicalnot" unicode="&#xac;" 
d="M1042 842v-484h-325v158h-660v326h985z" />
    <glyph glyph-name="registered" unicode="&#xae;" horiz-adv-x="1388" 
d="M623 1198v-98h127q18 14 18 49v31q0 18 -20 18h-125zM860 1305q41 0 76 -30t35 -69v-90q0 -68 -64 -96q68 -25 68 -98v-170h-207v170q0 27 -20 26h-125v-196h-209v553h446zM401 1372q-53 0 -53 -47v-582q0 -47 53 -47h586q53 0 53 47v582q0 47 -53 47h-586zM987 1622
q156 0 230 -73t73 -224v-582q0 -153 -74 -225t-229 -72h-586q-155 0 -229 73t-74 224v582q0 153 74 225t229 72h586z" />
    <glyph glyph-name="macron" unicode="&#xaf;" horiz-adv-x="651" 
d="M592 1538v-248h-533v248h533z" />
    <glyph glyph-name="degree" unicode="&#xb0;" horiz-adv-x="899" 
d="M367 1354q-16 0 -17 -17v-94q0 -16 17 -16h168q16 0 16 16v94q0 16 -16 17h-168zM535 1583q139 0 202 -63t64 -205v-49q1 -138 -63 -202t-203 -65h-168q-141 -1 -205 63t-64 204v49q0 141 64 205t205 63h168z" />
    <glyph glyph-name="plusminus" unicode="&#xb1;" 
d="M909 401v-325h-716v325h716zM193 666v360h178v152h362v-152h176v-360h-176v-205h-362v205h-178z" />
    <glyph glyph-name="twosuperior" unicode="&#xb2;" horiz-adv-x="841" 
d="M453 1579q111 0 189 -67t79 -160v-49q-2 -135 -127 -205q-23 -12 -69 -32q-45 -20 -69 -34q-24 -12 -44 -34t-21 -46h330v-229h-600v195q0 168 176 272q20 12 77 42q85 44 85 77v22q0 29 -25 29h-20q-25 0 -25 -29v-26h-262v47q0 94 79 160t189 67h58z" />
    <glyph glyph-name="threesuperior" unicode="&#xb3;" horiz-adv-x="808" 
d="M711 1307q0 -74 -58 -136q57 -61 58 -133v-88q0 -96 -79 -163t-190 -66h-75q-111 1 -190 67t-79 162v51h262v-30q0 -29 25 -29h39q25 0 25 29v63q0 29 -25 29h-129v186h129q25 0 25 29v53q0 29 -25 29h-39q-25 0 -25 -29v-26h-262v47q0 94 79 160t190 67h75
q111 0 190 -67t79 -160v-45z" />
    <glyph glyph-name="acute" unicode="&#xb4;" horiz-adv-x="849" 
d="M809 1628l-248 -330h-276l211 330h313z" />
    <glyph glyph-name="paragraph" unicode="&#xb6;" horiz-adv-x="1400" 
d="M451 1339q-31 0 -31 -32v-523q0 -33 31 -32h145v587h-145zM1280 -307h-303v1646h-78v-1646h-303v758h-231q-113 -1 -193 79t-80 193v643q0 113 79 193t194 79h915v-1945z" />
    <glyph glyph-name="periodcentered" unicode="&#xb7;" horiz-adv-x="538" 
d="M268 426q-70 0 -120 49t-50 119t50 120t120 50t121 -50t51 -120t-51 -119t-121 -49z" />
    <glyph glyph-name="cedilla" unicode="&#xb8;" horiz-adv-x="993" 
d="M513 -594q-126 0 -239 90l123 199q53 -45 103 -45q70 0 69 69q0 63 -127 64h-67l24 268h228l-13 -106q190 -70 191 -267q0 -112 -83 -192t-209 -80z" />
    <glyph glyph-name="onesuperior" unicode="&#xb9;" horiz-adv-x="600" 
d="M479 721h-278v608h-80v238h358v-846z" />
    <glyph glyph-name="ordmasculine" unicode="&#xba;" horiz-adv-x="870" 
d="M772 551h-672v248h672v-248zM379 1370q-33 0 -33 -29v-223q0 -29 33 -28h115q33 0 32 28v223q0 29 -32 29h-115zM535 1587q95 0 163 -59t68 -146v-307q0 -84 -70 -143t-161 -60h-199q-90 0 -160 60t-70 143v307q0 84 70 144t160 61h199z" />
    <glyph glyph-name="guillemotright" unicode="&#xbb;" horiz-adv-x="1333" 
d="M590 692l241 121l441 -324l-441 -319l-241 117l289 202zM98 692l242 121l440 -324l-440 -319l-242 117l289 202z" />
    <glyph glyph-name="onequarter" unicode="&#xbc;" horiz-adv-x="1538" 
d="M1130 397v219h-22l-61 -219h83zM1370 397h70v-235h-70v-164h-240v164h-368l239 680h369v-445zM457 721h-279v608h-80v238h359v-846zM555 0h-283l652 1634h282z" />
    <glyph glyph-name="onehalf" unicode="&#xbd;" horiz-adv-x="1579" 
d="M1212 856q111 0 190 -66t79 -161v-49q-2 -135 -127 -205q-23 -13 -69 -33t-70 -32t-44 -35q-20 -22 -20 -46h330v-229h-600v195q0 168 176 272q20 12 78 42t71 47q12 17 13 30v22q0 29 -25 29h-20q-25 0 -25 -29v-26h-262v47q0 94 79 161t189 66h57zM457 721h-279v608
h-80v238h359v-846zM555 0h-283l652 1634h282z" />
    <glyph glyph-name="threequarters" unicode="&#xbe;" horiz-adv-x="1724" 
d="M1317 616h-21l-63 -219h84v219zM1626 397v-235h-70v-164h-239v164h-369l240 680h368v-445h70zM711 950q0 -96 -79 -163t-190 -66h-75q-111 1 -190 67t-79 162v51h262v-30q0 -29 25 -29h39q25 0 25 29v63q0 29 -25 29h-129v186h129q25 0 25 29v53q0 29 -25 29h-39
q-25 0 -25 -29v-26h-262v47q0 94 79 160t190 67h75q111 0 190 -67t79 -160v-45q0 -74 -58 -136q57 -61 58 -133v-88zM1370 1634l-651 -1634h-285l653 1634h283z" />
    <glyph glyph-name="questiondown" unicode="&#xbf;" horiz-adv-x="1050" 
d="M338 -344q-113 0 -193 80t-79 192v281q0 131 72 210q73 79 194 79h65q31 0 31 30v379h328v-368q0 -170 -82 -244t-176 -74h-74q-31 0 -31 -31v-229q0 -31 31 -31h203q31 0 30 31v180h328v-213q0 -112 -79 -192t-193 -80h-375zM756 1307v-217h-328v217h328z" />
    <glyph glyph-name="Agrave" unicode="&#xc0;" horiz-adv-x="1226" 
d="M668 1311h-115q-25 0 -27 -39l-82 -619h332l-82 619q-2 39 -26 39zM852 1638q32 0 58 -22t30 -47l250 -1569h-328l-43 326h-418l-43 -326h-327l248 1569q5 27 31 49t57 20h485zM553 2120l207 -330h-273l-251 330h317z" />
    <glyph glyph-name="Aacute" unicode="&#xc1;" horiz-adv-x="1226" 
d="M668 1311h-115q-25 0 -27 -39l-82 -619h332l-82 619q-2 39 -26 39zM852 1638q32 0 58 -22t30 -47l250 -1569h-328l-43 326h-418l-43 -326h-327l248 1569q5 27 31 49t57 20h485zM987 2120l-248 -330h-276l211 330h313z" />
    <glyph glyph-name="Acircumflex" unicode="&#xc2;" horiz-adv-x="1226" 
d="M668 1311h-115q-25 0 -27 -39l-82 -619h332l-82 619q-2 39 -26 39zM852 1638q32 0 58 -22t30 -47l250 -1569h-328l-43 326h-418l-43 -326h-327l248 1569q5 27 31 49t57 20h485zM727 2075l227 -279h-268l-76 131h-22l-76 -131h-268l229 279h254z" />
    <glyph glyph-name="Atilde" unicode="&#xc3;" horiz-adv-x="1226" 
d="M668 1311h-115q-25 0 -27 -39l-82 -619h332l-82 619q-2 39 -26 39zM852 1638q32 0 58 -22t30 -47l250 -1569h-328l-43 326h-418l-43 -326h-327l248 1569q5 27 31 49t57 20h485zM471 2091q51 0 142 -26q91 -25 158 -25t126 37v-271q-68 -45 -132 -45q-63 0 -155 26
t-139 25q-84 0 -147 -55v271q63 63 147 63z" />
    <glyph glyph-name="Adieresis" unicode="&#xc4;" horiz-adv-x="1226" 
d="M668 1311h-115q-25 0 -27 -39l-82 -619h332l-82 619q-2 39 -26 39zM852 1638q32 0 58 -22t30 -47l250 -1569h-328l-43 326h-418l-43 -326h-327l248 1569q5 27 31 49t57 20h485zM826 1765q-64 0 -112 46q-46 46 -46 112t47 115t111 49t110 -50q46 -51 47 -115
q0 -64 -46 -111q-47 -46 -111 -46zM395 1765q-67 0 -113 46t-46 112t47 115t113 49t113 -50q48 -51 48 -115t-48 -110t-114 -47z" />
    <glyph glyph-name="Aring" unicode="&#xc5;" horiz-adv-x="1226" 
d="M668 1311h-115q-25 0 -27 -39l-82 -619h332l-82 619q-2 39 -26 39zM852 1638q32 0 58 -22t30 -47l250 -1569h-328l-43 326h-418l-43 -326h-327l248 1569q5 27 31 49t57 20h485zM612 1851q74 1 74 95t-74 94t-74 -94t74 -95zM608 1718q-108 0 -178 60t-70 169
q0 108 71 169t179 61t178 -61q70 -60 70 -168t-71 -169t-179 -61z" />
    <glyph glyph-name="AE" unicode="&#xc6;" horiz-adv-x="1611" 
d="M596 1323q-35 0 -43 -37l-80 -633h252v670h-129zM1550 1300h-497v-233h442v-328h-442v-411h497v-328h-825v326h-297l-61 -326h-328l246 1569q5 27 31 49t57 20h1177v-338z" />
    <glyph glyph-name="Ccedilla" unicode="&#xc7;" horiz-adv-x="1138" 
d="M721 1098v207q0 41 -33 41h-233q-29 0 -29 -41v-992q0 -29 29 -28h237q29 0 29 28v285h328v-324q0 -122 -86 -208t-209 -86h-66l-4 -35q190 -70 190 -267q0 -112 -82 -192t-209 -80q-126 0 -239 90l123 199q53 -45 102 -45q70 0 70 69q0 63 -127 64h-68l19 197h-70
q-123 0 -209 86t-86 208v1082q0 123 86 209t209 86h361q123 0 209 -86t86 -209v-258h-328z" />
    <glyph glyph-name="Egrave" unicode="&#xc8;" horiz-adv-x="1009" 
d="M948 1311h-499v-305h444v-328h-444v-350h499v-328h-827v1638h827v-327zM500 2120l207 -330h-273l-252 330h318z" />
    <glyph glyph-name="Eacute" unicode="&#xc9;" horiz-adv-x="1009" 
d="M948 1311h-499v-305h444v-328h-444v-350h499v-328h-827v1638h827v-327zM936 2120l-248 -330h-276l211 330h313z" />
    <glyph glyph-name="Ecircumflex" unicode="&#xca;" horiz-adv-x="1009" 
d="M948 1311h-499v-305h444v-328h-444v-350h499v-328h-827v1638h827v-327zM674 2075l227 -279h-268l-76 131h-22l-76 -131h-269l230 279h254z" />
    <glyph glyph-name="Edieresis" unicode="&#xcb;" horiz-adv-x="1009" 
d="M948 1311h-499v-305h444v-328h-444v-350h499v-328h-827v1638h827v-327zM772 1765q-64 0 -110 46t-48 112q0 66 48 115t111 49q65 0 111 -50q46 -51 46 -115t-46 -111q-48 -46 -112 -46zM342 1765q-66 0 -113 46t-47 112t47 115t113 49t114 -50q48 -51 48 -115t-48 -110
t-114 -47z" />
    <glyph glyph-name="Igrave" unicode="&#xcc;" horiz-adv-x="585" 
d="M457 0h-328v1638h328v-1638zM236 2120l206 -330h-272l-252 330h318z" />
    <glyph glyph-name="Iacute" unicode="&#xcd;" horiz-adv-x="585" 
d="M457 0h-328v1638h328v-1638zM672 2120l-248 -330h-277l211 330h314z" />
    <glyph glyph-name="Icircumflex" unicode="&#xce;" horiz-adv-x="585" 
d="M457 0h-328v1638h328v-1638zM410 2075l227 -279h-268l-76 131h-23l-75 -131h-269l230 279h254z" />
    <glyph glyph-name="Idieresis" unicode="&#xcf;" horiz-adv-x="585" 
d="M457 0h-328v1638h328v-1638zM508 1765q-64 0 -111 46t-47 112t47 115t111 49t112 -50q46 -51 46 -115t-46 -111q-48 -46 -112 -46zM78 1765q-66 0 -113 46t-47 112t47 115t113 49t114 -50q48 -51 48 -115t-48 -110t-114 -47z" />
    <glyph glyph-name="Eth" unicode="&#xd0;" horiz-adv-x="1177" 
d="M752 1303q0 31 -29 30h-266v-284h108v-326h-108v-418h266q29 0 29 31v967zM784 1638q125 0 210 -80t85 -202v-1061q0 -123 -86 -209t-209 -86h-655v723h-94v326h94v589h655z" />
    <glyph glyph-name="Ntilde" unicode="&#xd1;" horiz-adv-x="1314" 
d="M1194 1638v-1638h-545l-196 1311h-19l15 -1311h-328v1638h547l192 -1310h21l-15 1310h328zM518 2091q51 0 142 -26q91 -25 158 -25t126 37v-271q-68 -45 -132 -45t-156 26t-138 25q-84 0 -147 -55v271q63 63 147 63z" />
    <glyph glyph-name="Ograve" unicode="&#xd2;" horiz-adv-x="1146" 
d="M426 313q0 -29 29 -28h235q31 0 31 28v1004q0 29 -31 29h-235q-29 0 -29 -29v-1004zM98 1356q0 123 86 209t209 86h361q123 0 209 -86t86 -209v-1082q0 -122 -86 -208t-209 -86h-361q-123 0 -209 86t-86 208v1082zM518 2120l207 -330h-272l-252 330h317z" />
    <glyph glyph-name="Oacute" unicode="&#xd3;" horiz-adv-x="1146" 
d="M426 313q0 -29 29 -28h235q31 0 31 28v1004q0 29 -31 29h-235q-29 0 -29 -29v-1004zM98 1356q0 123 86 209t209 86h361q123 0 209 -86t86 -209v-1082q0 -122 -86 -208t-209 -86h-361q-123 0 -209 86t-86 208v1082zM954 2120l-247 -330h-277l211 330h313z" />
    <glyph glyph-name="Ocircumflex" unicode="&#xd4;" horiz-adv-x="1146" 
d="M426 313q0 -29 29 -28h235q31 0 31 28v1004q0 29 -31 29h-235q-29 0 -29 -29v-1004zM98 1356q0 123 86 209t209 86h361q123 0 209 -86t86 -209v-1082q0 -122 -86 -208t-209 -86h-361q-123 0 -209 86t-86 208v1082zM692 2075l228 -279h-269l-76 131h-22l-76 -131h-268
l229 279h254z" />
    <glyph glyph-name="Otilde" unicode="&#xd5;" horiz-adv-x="1146" 
d="M426 313q0 -29 29 -28h235q31 0 31 28v1004q0 29 -31 29h-235q-29 0 -29 -29v-1004zM98 1356q0 123 86 209t209 86h361q123 0 209 -86t86 -209v-1082q0 -122 -86 -208t-209 -86h-361q-123 0 -209 86t-86 208v1082zM436 2091q50 0 142 -26q92 -25 158 -25t126 37v-271
q-68 -45 -132 -45t-156 26t-138 25q-84 0 -147 -55v271q63 63 147 63z" />
    <glyph glyph-name="Odieresis" unicode="&#xd6;" horiz-adv-x="1146" 
d="M426 313q0 -29 29 -28h235q31 0 31 28v1004q0 29 -31 29h-235q-29 0 -29 -29v-1004zM98 1356q0 123 86 209t209 86h361q123 0 209 -86t86 -209v-1082q0 -122 -86 -208t-209 -86h-361q-123 0 -209 86t-86 208v1082zM948 1922q0 -64 -46 -110t-110 -47q-64 0 -112 46
q-47 46 -47 112t47 115q48 49 112 49t110 -50q46 -51 46 -115zM360 1765q-66 0 -112 46t-47 112q0 66 47 115q46 49 112 49t114 -50q48 -51 48 -115t-48 -110t-114 -47z" />
    <glyph glyph-name="multiply" unicode="&#xd7;" 
d="M315 713l-137 139l230 229l137 -139l153 154l230 -230l-154 -153l172 -168l-229 -230l-172 170l-156 -155l-233 229z" />
    <glyph glyph-name="Oslash" unicode="&#xd8;" horiz-adv-x="1214" 
d="M707 285q31 0 30 28v576l-254 -604h224zM471 1346q-29 0 -29 -29v-551l244 580h-215zM1065 1356v-1082q0 -122 -86 -208t-209 -86h-360q-18 0 -52 4l-39 -90h-243l90 215q-51 74 -51 165v1082q0 123 86 209t209 86h360q14 0 43 -4l55 131h242l-102 -246q57 -76 57 -176z
" />
    <glyph glyph-name="Ugrave" unicode="&#xd9;" horiz-adv-x="1159" 
d="M432 324q0 -39 29 -39h237q29 0 29 39v1314h328v-1364q0 -122 -86 -208t-209 -86h-361q-123 0 -209 86t-86 208v1364h328v-1314zM524 2120l207 -330h-272l-252 330h317z" />
    <glyph glyph-name="Uacute" unicode="&#xda;" horiz-adv-x="1159" 
d="M432 324q0 -39 29 -39h237q29 0 29 39v1314h328v-1364q0 -122 -86 -208t-209 -86h-361q-123 0 -209 86t-86 208v1364h328v-1314zM961 2120l-248 -330h-277l211 330h314z" />
    <glyph glyph-name="Ucircumflex" unicode="&#xdb;" horiz-adv-x="1159" 
d="M432 324q0 -39 29 -39h237q29 0 29 39v1314h328v-1364q0 -122 -86 -208t-209 -86h-361q-123 0 -209 86t-86 208v1364h328v-1314zM698 2075l228 -279h-269l-75 131h-23l-76 -131h-268l229 279h254z" />
    <glyph glyph-name="Udieresis" unicode="&#xdc;" horiz-adv-x="1159" 
d="M432 324q0 -39 29 -39h237q29 0 29 39v1314h328v-1364q0 -122 -86 -208t-209 -86h-361q-123 0 -209 86t-86 208v1364h328v-1314zM954 1922q0 -64 -46 -110t-110 -47q-64 0 -112 46q-47 46 -47 112t47 115q48 49 112 49t110 -50q46 -51 46 -115zM367 1765q-66 0 -113 46
t-47 112t47 115t113 49q65 0 113 -50q48 -51 48 -115t-48 -110t-113 -47z" />
    <glyph glyph-name="Yacute" unicode="&#xdd;" horiz-adv-x="1234" 
d="M840 455h-54v-455h-325v455h-47q-96 0 -113 65l-262 1118h336l166 -860q6 -35 20 -35h131q18 0 21 35l155 860h328l-242 -1118q-8 -29 -40 -47t-74 -18zM997 2120l-247 -330h-277l211 330h313z" />
    <glyph glyph-name="Thorn" unicode="&#xde;" horiz-adv-x="1118" 
d="M449 1001v-327h258q29 0 28 28v267q0 33 -28 32h-258zM449 1307h319q125 0 210 -81t85 -202v-360q0 -123 -86 -209t-209 -86h-319v-369h-328v1624h328v-317z" />
    <glyph glyph-name="germandbls" unicode="&#xdf;" horiz-adv-x="1134" 
d="M739 1587q123 0 209 -86t86 -209v-266q0 -123 -96 -162q106 -39 106 -182v-408q0 -122 -86 -208t-208 -86h-179v305h115q31 0 31 41v317q0 41 -31 41h-115v303h107q29 0 29 41v225q0 29 -29 29h-158q-29 0 -28 -29v-1233q0 -141 -100 -241t-242 -98h-132v327h115
q31 0 31 33v1251q0 123 86 209t207 86h282z" />
    <glyph glyph-name="agrave" unicode="&#xe0;" horiz-adv-x="1042" 
d="M377 289q1 -21 33 -21t206 60v170l-188 -41q-51 -12 -51 -66v-102zM68 408q0 150 45 200t157 80l346 62v102q0 31 -30 31h-133q-31 0 -31 -31v-70h-309v109q0 133 94 205t221 71h205q125 3 218 -69t93 -203v-895h-315v104q-297 -124 -381 -124t-132 56t-48 140v232z
M477 1628l207 -330h-272l-252 330h317z" />
    <glyph glyph-name="aacute" unicode="&#xe1;" horiz-adv-x="1042" 
d="M377 289q1 -21 33 -21t206 60v170l-188 -41q-51 -12 -51 -66v-102zM68 408q0 150 45 200t157 80l346 62v102q0 31 -30 31h-133q-31 0 -31 -31v-70h-309v109q0 133 94 205t221 71h205q125 3 218 -69t93 -203v-895h-315v104q-297 -124 -381 -124t-132 56t-48 140v232z
M911 1628l-247 -330h-277l211 330h313z" />
    <glyph glyph-name="acircumflex" unicode="&#xe2;" horiz-adv-x="1042" 
d="M377 289q1 -21 33 -21t206 60v170l-188 -41q-51 -12 -51 -66v-102zM68 408q0 150 45 200t157 80l346 62v102q0 31 -30 31h-133q-31 0 -31 -31v-70h-309v109q0 133 94 205t221 71h205q125 3 218 -69t93 -203v-895h-315v104q-297 -124 -381 -124t-132 56t-48 140v232z
M651 1583l228 -278h-269l-75 131h-23l-76 -131h-268l229 278h254z" />
    <glyph glyph-name="atilde" unicode="&#xe3;" horiz-adv-x="1042" 
d="M377 289q1 -21 33 -21t206 60v170l-188 -41q-51 -12 -51 -66v-102zM68 408q0 150 45 200t157 80l346 62v102q0 31 -30 31h-133q-31 0 -31 -31v-70h-309v109q0 133 94 205t221 71h205q125 3 218 -69t93 -203v-895h-315v104q-297 -124 -381 -124t-132 56t-48 140v232z
M395 1599q51 1 143 -25t158 -26t125 37v-270q-68 -45 -132 -45t-155 26t-139 25q-84 0 -147 -55v270q63 63 147 63z" />
    <glyph glyph-name="adieresis" unicode="&#xe4;" horiz-adv-x="1042" 
d="M377 289q1 -21 33 -21t206 60v170l-188 -41q-51 -12 -51 -66v-102zM68 408q0 150 45 200t157 80l346 62v102q0 31 -30 31h-133q-31 0 -31 -31v-70h-309v109q0 133 94 205t221 71h205q125 3 218 -69t93 -203v-895h-315v104q-297 -124 -381 -124t-132 56t-48 140v232z
M907 1431q0 -65 -46 -111q-47 -46 -111 -46t-111 46t-47 112t47 114t111 49q64 0 111 -50q46 -50 46 -114zM319 1274q-67 0 -113 46t-46 112t47 114t113 49q66 0 113 -50q48 -50 48 -114q0 -65 -48 -111t-114 -46z" />
    <glyph glyph-name="aring" unicode="&#xe5;" horiz-adv-x="1042" 
d="M377 289q1 -21 33 -21t206 60v170l-188 -41q-51 -12 -51 -66v-102zM68 408q0 150 45 200t157 80l346 62v102q0 31 -30 31h-133q-31 0 -31 -31v-70h-309v109q0 133 94 205t221 71h205q125 3 218 -69t93 -203v-895h-315v104q-297 -124 -381 -124t-132 56t-48 140v232z
M537 1360q74 0 73 94q0 94 -74 94t-73 -94q0 -94 74 -94zM534 1227q-108 0 -179 60t-71 168t71 169q71 62 179 62t179 -62q69 -62 69 -168q0 -108 -70 -169q-70 -60 -178 -60z" />
    <glyph glyph-name="ae" unicode="&#xe6;" horiz-adv-x="1558" 
d="M377 391v-102q1 -21 33 -21t206 60v170l-188 -41q-51 -12 -51 -66zM944 659h223v193q0 31 -30 31h-162q-31 0 -31 -31v-193zM944 461v-164q0 -31 31 -31h162q31 0 30 31v82h328v-127q0 -113 -80 -193t-192 -79h-334q-152 0 -232 131l-4 -2q-295 -129 -392 -129t-145 56
t-48 140v232q0 143 47 200t155 80l346 62v102q0 31 -30 31h-133q-31 0 -31 -31v-70h-309v109q0 131 95 204t220 72h205q68 2 139 -26q57 27 117 26h334q113 0 193 -80t79 -192v-434h-551z" />
    <glyph glyph-name="ccedilla" unicode="&#xe7;" horiz-adv-x="1015" 
d="M641 741v111q0 31 -31 31h-159q-31 0 -31 -31v-555q0 -31 31 -31h159q31 0 31 31v102h328v-147q0 -113 -80 -193t-193 -79h-84l-4 -35q190 -70 191 -267q0 -112 -83 -192t-209 -80t-239 90l123 199q53 -45 103 -45q70 0 69 69q0 63 -127 64h-67l18 197h-22
q-113 0 -193 80t-80 192v643q0 113 79 193t194 79h331q115 0 194 -80t79 -192v-154h-328z" />
    <glyph glyph-name="egrave" unicode="&#xe8;" horiz-adv-x="1032" 
d="M641 852q0 31 -29 31h-163q-29 0 -29 -31v-193h221v193zM92 895q0 113 79 193t194 79h331q115 0 194 -80t79 -192v-434h-549v-164q0 -31 31 -31h159q31 0 31 31v82h328v-127q0 -113 -79 -193t-194 -79h-331q-115 0 -194 80t-79 192v643zM461 1628l207 -330h-273l-252 330
h318z" />
    <glyph glyph-name="eacute" unicode="&#xe9;" horiz-adv-x="1032" 
d="M641 852q0 31 -29 31h-163q-29 0 -29 -31v-193h221v193zM92 895q0 113 79 193t194 79h331q115 0 194 -80t79 -192v-434h-549v-164q0 -31 31 -31h159q31 0 31 31v82h328v-127q0 -113 -79 -193t-194 -79h-331q-115 0 -194 80t-79 192v643zM895 1628l-248 -330h-276l211 330
h313z" />
    <glyph glyph-name="ecircumflex" unicode="&#xea;" horiz-adv-x="1032" 
d="M641 852q0 31 -29 31h-163q-29 0 -29 -31v-193h221v193zM92 895q0 113 79 193t194 79h331q115 0 194 -80t79 -192v-434h-549v-164q0 -31 31 -31h159q31 0 31 31v82h328v-127q0 -113 -79 -193t-194 -79h-331q-115 0 -194 80t-79 192v643zM635 1583l227 -278h-268l-76 131
h-22l-76 -131h-268l229 278h254z" />
    <glyph glyph-name="edieresis" unicode="&#xeb;" horiz-adv-x="1032" 
d="M641 852q0 31 -29 31h-163q-29 0 -29 -31v-193h221v193zM92 895q0 113 79 193t194 79h331q115 0 194 -80t79 -192v-434h-549v-164q0 -31 31 -31h159q31 0 31 31v82h328v-127q0 -113 -79 -193t-194 -79h-331q-115 0 -194 80t-79 192v643zM734 1274q-64 0 -112 46
q-46 46 -46 112t46 114q48 48 112 49q64 0 110 -50t47 -114q0 -64 -46 -111q-47 -46 -111 -46zM303 1274q-66 0 -113 46t-47 112t47 114t113 49q66 0 114 -50t48 -114q0 -65 -48 -111t-114 -46z" />
    <glyph glyph-name="igrave" unicode="&#xec;" horiz-adv-x="661" 
d="M442 340q0 -33 29 -33h141v-327h-153q-143 -2 -244 98q-100 100 -100 241v828h327v-807zM223 1628l207 -330h-272l-252 330h317z" />
    <glyph glyph-name="iacute" unicode="&#xed;" horiz-adv-x="661" 
d="M442 340q0 -33 29 -33h141v-327h-153q-143 -2 -244 98q-100 100 -100 241v828h327v-807zM659 1628l-247 -330h-277l211 330h313z" />
    <glyph glyph-name="icircumflex" unicode="&#xee;" horiz-adv-x="661" 
d="M442 340q0 -33 29 -33h141v-327h-153q-143 -2 -244 98q-100 100 -100 241v828h327v-807zM399 1583l228 -278h-269l-75 131h-23l-76 -131h-268l229 278h254z" />
    <glyph glyph-name="idieresis" unicode="&#xef;" horiz-adv-x="661" 
d="M442 340q0 -33 29 -33h141v-327h-153q-143 -2 -244 98q-100 100 -100 241v828h327v-807zM653 1431q0 -65 -46 -111q-47 -46 -111 -46t-111 46t-47 112t47 114t111 49q64 0 111 -50q46 -50 46 -114zM66 1274q-66 0 -113 46t-47 112t47 114t113 49q66 0 114 -50t47 -114
q1 -65 -47 -111t-114 -46z" />
    <glyph glyph-name="eth" unicode="&#xf0;" horiz-adv-x="1075" 
d="M643 573q0 35 -31 35h-159q-31 0 -31 -30v-281q0 -31 31 -31h159q31 0 31 31v276zM1057 1155v-201h-86v-698q0 -113 -80 -195t-193 -81h-331q-113 0 -193 82t-80 194v360q0 113 80 193t193 80h276v65h-164v201h164v133q0 37 -31 37h-161q-31 0 -31 -31v-116h-328v182
q0 104 75 177t179 73h332q125 0 209 -84t84 -209v-162h86z" />
    <glyph glyph-name="ntilde" unicode="&#xf1;" horiz-adv-x="1083" 
d="M778 1167q92 0 150 -58t57 -140v-969h-328v791q0 35 -26 34q-63 0 -197 -53v-772h-328v1147h328v-82q252 102 344 102zM403 1599q51 1 143 -25t158 -26t125 37v-270q-68 -45 -132 -45t-155 26t-139 25q-84 0 -147 -55v270q63 63 147 63z" />
    <glyph glyph-name="ograve" unicode="&#xf2;" horiz-adv-x="1060" 
d="M420 297q0 -31 31 -31h159q31 0 31 31v555q0 31 -31 31h-159q-31 0 -31 -31v-555zM92 895q0 113 79 193t194 79h331q115 0 194 -80t79 -192v-643q0 -113 -80 -193t-193 -79h-331q-113 0 -193 80t-80 192v643zM475 1628l207 -330h-272l-252 330h317z" />
    <glyph glyph-name="oacute" unicode="&#xf3;" horiz-adv-x="1060" 
d="M420 297q0 -31 31 -31h159q31 0 31 31v555q0 31 -31 31h-159q-31 0 -31 -31v-555zM92 895q0 113 79 193t194 79h331q115 0 194 -80t79 -192v-643q0 -113 -80 -193t-193 -79h-331q-113 0 -193 80t-80 192v643zM909 1628l-247 -330h-277l211 330h313z" />
    <glyph glyph-name="ocircumflex" unicode="&#xf4;" horiz-adv-x="1060" 
d="M420 297q0 -31 31 -31h159q31 0 31 31v555q0 31 -31 31h-159q-31 0 -31 -31v-555zM92 895q0 113 79 193t194 79h331q115 0 194 -80t79 -192v-643q0 -113 -80 -193t-193 -79h-331q-113 0 -193 80t-80 192v643zM649 1583l228 -278h-269l-76 131h-22l-76 -131h-268l229 278
h254z" />
    <glyph glyph-name="otilde" unicode="&#xf5;" horiz-adv-x="1060" 
d="M420 297q0 -31 31 -31h159q31 0 31 31v555q0 31 -31 31h-159q-31 0 -31 -31v-555zM92 895q0 113 79 193t194 79h331q115 0 194 -80t79 -192v-643q0 -113 -80 -193t-193 -79h-331q-113 0 -193 80t-80 192v643zM393 1599q51 1 143 -25t158 -26t125 37v-270
q-68 -45 -132 -45q-63 0 -155 26t-139 25q-84 0 -147 -55v270q63 63 147 63z" />
    <glyph glyph-name="odieresis" unicode="&#xf6;" horiz-adv-x="1060" 
d="M420 297q0 -31 31 -31h159q31 0 31 31v555q0 31 -31 31h-159q-31 0 -31 -31v-555zM92 895q0 113 79 193t194 79h331q115 0 194 -80t79 -192v-643q0 -113 -80 -193t-193 -79h-331q-113 0 -193 80t-80 192v643zM905 1431q0 -65 -46 -111q-47 -46 -111 -46t-111 46t-47 112
t47 114t111 49q64 0 111 -50q46 -50 46 -114zM317 1274q-67 0 -113 46t-46 112t47 114t113 49q66 0 113 -50q48 -50 48 -114q0 -65 -48 -111t-114 -46z" />
    <glyph glyph-name="divide" unicode="&#xf7;" 
d="M549 518q70 0 120 -51t50 -120t-50 -118t-120 -49t-119 49t-49 118t49 120t119 51zM909 557h-716v326h716v-326zM549 1268q70 0 120 -50t50 -120t-50 -119t-120 -49t-119 49t-49 119t49 120t119 50z" />
    <glyph glyph-name="oslash" unicode="&#xf8;" 
d="M627 266q31 0 30 31v330l-186 -361h156zM467 883q-31 0 -31 -31v-297l172 328h-141zM985 895v-643q0 -113 -80 -193t-192 -79h-332q-27 0 -39 2l-25 -48h-225l80 144q-63 74 -63 174v643q1 113 79 193t193 79h332q14 0 43 -4l4 8l2 -2l20 39h224l-80 -143q59 -72 59 -170
z" />
    <glyph glyph-name="ugrave" unicode="&#xf9;" horiz-adv-x="1083" 
d="M305 -20q-92 0 -149 58t-58 140v969h328v-791q0 -35 27 -34q63 0 196 53v772h328v-1147h-328v82q-252 -102 -344 -102zM485 1628l207 -330h-272l-252 330h317z" />
    <glyph glyph-name="uacute" unicode="&#xfa;" horiz-adv-x="1083" 
d="M305 -20q-92 0 -149 58t-58 140v969h328v-791q0 -35 27 -34q63 0 196 53v772h328v-1147h-328v82q-252 -102 -344 -102zM922 1628l-248 -330h-277l211 330h314z" />
    <glyph glyph-name="ucircumflex" unicode="&#xfb;" horiz-adv-x="1083" 
d="M305 -20q-92 0 -149 58t-58 140v969h328v-791q0 -35 27 -34q63 0 196 53v772h328v-1147h-328v82q-252 -102 -344 -102zM659 1583l228 -278h-269l-75 131h-23l-76 -131h-268l230 278h253z" />
    <glyph glyph-name="udieresis" unicode="&#xfc;" horiz-adv-x="1083" 
d="M305 -20q-92 0 -149 58t-58 140v969h328v-791q0 -35 27 -34q63 0 196 53v772h328v-1147h-328v82q-252 -102 -344 -102zM915 1431q0 -65 -46 -111q-47 -46 -111 -46t-111 46t-47 112t47 114t111 49q64 0 111 -50q46 -50 46 -114zM328 1274q-66 0 -113 46t-47 112t47 114
t113 49q66 0 114 -50t47 -114q1 -65 -47 -111t-114 -46z" />
    <glyph glyph-name="yacute" unicode="&#xfd;" horiz-adv-x="1060" 
d="M489 266h91q18 0 20 31l90 850h330l-223 -1466h-314l47 296h-211q-31 0 -57 22t-31 48l-186 1100h330l96 -850q4 -31 18 -31zM911 1628l-247 -330h-277l211 330h313z" />
    <glyph glyph-name="thorn" unicode="&#xfe;" horiz-adv-x="1075" 
d="M657 791q0 35 -26 34q-63 0 -197 -53v-475q0 -31 31 -31h162q31 0 30 31v494zM778 1167q92 0 150 -58t57 -140v-719q0 -113 -80 -193t-192 -80h-279v-278h-328v1866h328v-500q252 102 344 102z" />
    <glyph glyph-name="ydieresis" unicode="&#xff;" horiz-adv-x="1060" 
d="M489 266h91q18 0 20 31l90 850h330l-223 -1466h-314l47 296h-211q-31 0 -57 22t-31 48l-186 1100h330l96 -850q4 -31 18 -31zM905 1431q0 -65 -46 -111q-47 -46 -111 -46t-111 46t-47 112t47 114t111 49q64 0 111 -50q46 -50 46 -114zM317 1274q-67 0 -113 46t-46 112
t47 114t113 49q66 0 113 -50q48 -50 48 -114q0 -65 -48 -111t-114 -46z" />
    <glyph glyph-name="Amacron" unicode="&#x100;" horiz-adv-x="1226" 
d="M668 1311h-115q-25 0 -27 -39l-82 -619h332l-82 619q-2 39 -26 39zM852 1638q32 0 58 -22t30 -47l250 -1569h-328l-43 326h-418l-43 -326h-327l248 1569q5 27 31 49t57 20h485zM877 2030v-248h-533v248h533z" />
    <glyph glyph-name="amacron" unicode="&#x101;" horiz-adv-x="1042" 
d="M377 289q1 -21 33 -21t206 60v170l-188 -41q-51 -12 -51 -66v-102zM68 408q0 150 45 200t157 80l346 62v102q0 31 -30 31h-133q-31 0 -31 -31v-70h-309v109q0 133 94 205t221 71h205q125 3 218 -69t93 -203v-895h-315v104q-297 -124 -381 -124t-132 56t-48 140v232z
M801 1538v-248h-533v248h533z" />
    <glyph glyph-name="Abreve" unicode="&#x102;" horiz-adv-x="1226" 
d="M668 1311h-115q-25 0 -27 -39l-82 -619h332l-82 619q-2 39 -26 39zM852 1638q32 0 58 -22t30 -47l250 -1569h-328l-43 326h-418l-43 -326h-327l248 1569q5 27 31 49t57 20h485zM848 2058q0 -150 -57 -209t-181 -59t-180 59q-57 59 -57 209h202q0 -86 37 -86t37 86h199z
" />
    <glyph glyph-name="abreve" unicode="&#x103;" horiz-adv-x="1042" 
d="M377 289q1 -21 33 -21t206 60v170l-188 -41q-51 -12 -51 -66v-102zM68 408q0 150 45 200t157 80l346 62v102q0 31 -30 31h-133q-31 0 -31 -31v-70h-309v109q0 133 94 205t221 71h205q125 3 218 -69t93 -203v-895h-315v104q-297 -124 -381 -124t-132 56t-48 140v232z
M772 1567q0 -150 -57 -209q-57 -60 -180 -60t-181 60t-57 209h203q0 -86 37 -86t36 86h199z" />
    <glyph glyph-name="Aogonek" unicode="&#x104;" horiz-adv-x="1226" 
d="M668 1311h-115q-25 0 -27 -39l-82 -619h332l-82 619q-2 39 -26 39zM1082 -299q-118 0 -178 52t-60 123t33 124h-15l-43 326h-418l-43 -326h-327l248 1569q5 27 31 49t57 20h485q32 0 58 -22t30 -47l250 -1569h-4q-90 -8 -90 -63q0 -33 24 -33q35 0 94 47l99 -162
q-113 -88 -231 -88z" />
    <glyph glyph-name="aogonek" unicode="&#x105;" horiz-adv-x="1042" 
d="M377 391v-102q1 -21 33 -21t206 60v170l-188 -41q-51 -12 -51 -66zM840 -299q-118 0 -177 52q-61 52 -61 123t33 124h-6v104q-297 -124 -381 -124t-132 56t-48 140v232q0 150 45 200t157 80l346 62v102q0 31 -30 31h-133q-31 0 -31 -31v-70h-309v109q0 133 94 205t221 71
h205q125 3 218 -69t93 -203v-895q-90 -8 -90 -63q0 -33 25 -33q35 0 94 47l98 -162q-113 -88 -231 -88z" />
    <glyph glyph-name="Cacute" unicode="&#x106;" horiz-adv-x="1138" 
d="M98 1356q0 123 86 209t209 86h361q123 0 209 -86t86 -209v-258h-328v207q0 41 -33 41h-233q-29 0 -29 -41v-992q0 -29 29 -28h237q29 0 29 28v285h328v-324q0 -122 -86 -208t-209 -86h-361q-123 0 -209 86t-86 208v1082zM948 2120l-248 -330h-276l211 330h313z" />
    <glyph glyph-name="cacute" unicode="&#x107;" horiz-adv-x="1015" 
d="M92 895q0 113 79 193t194 79h331q115 0 194 -80t79 -192v-154h-328v111q0 31 -31 31h-159q-31 0 -31 -31v-555q0 -31 31 -31h159q31 0 31 31v102h328v-147q0 -113 -80 -193t-193 -79h-331q-113 0 -193 80t-80 192v643zM907 1628l-248 -330h-276l211 330h313z" />
    <glyph glyph-name="Ccircumflex" unicode="&#x108;" horiz-adv-x="1138" 
d="M98 1356q0 123 86 209t209 86h361q123 0 209 -86t86 -209v-258h-328v207q0 41 -33 41h-233q-29 0 -29 -41v-992q0 -29 29 -28h237q29 0 29 28v285h328v-324q0 -122 -86 -208t-209 -86h-361q-123 0 -209 86t-86 208v1082zM688 2075l227 -279h-268l-76 131h-22l-76 -131
h-268l229 279h254z" />
    <glyph glyph-name="ccircumflex" unicode="&#x109;" horiz-adv-x="1015" 
d="M92 895q0 113 79 193t194 79h331q115 0 194 -80t79 -192v-154h-328v111q0 31 -31 31h-159q-31 0 -31 -31v-555q0 -31 31 -31h159q31 0 31 31v102h328v-147q0 -113 -80 -193t-193 -79h-331q-113 0 -193 80t-80 192v643zM647 1583l227 -278h-268l-76 131h-22l-76 -131h-268
l229 278h254z" />
    <glyph glyph-name="Cdotaccent" unicode="&#x10a;" horiz-adv-x="1138" 
d="M98 1356q0 123 86 209t209 86h361q123 0 209 -86t86 -209v-258h-328v207q0 41 -33 41h-233q-29 0 -29 -41v-992q0 -29 29 -28h237q29 0 29 28v285h328v-324q0 -122 -86 -208t-209 -86h-361q-123 0 -209 86t-86 208v1082zM568 1743q-72 0 -120 49t-48 120t48 122
q50 51 120 51t120 -51q51 -51 51 -122t-50 -120t-121 -49z" />
    <glyph glyph-name="cdotaccent" unicode="&#x10b;" horiz-adv-x="1015" 
d="M92 895q0 113 79 193t194 79h331q115 0 194 -80t79 -192v-154h-328v111q0 31 -31 31h-159q-31 0 -31 -31v-555q0 -31 31 -31h159q31 0 31 31v102h328v-147q0 -113 -80 -193t-193 -79h-331q-113 0 -193 80t-80 192v643zM527 1251q-71 0 -119 49t-50 120q0 71 50 122
t118 51q70 0 121 -51t51 -122t-50 -120t-121 -49z" />
    <glyph glyph-name="Ccaron" unicode="&#x10c;" horiz-adv-x="1138" 
d="M98 1356q0 123 86 209t209 86h361q123 0 209 -86t86 -209v-258h-328v207q0 41 -33 41h-233q-29 0 -29 -41v-992q0 -29 29 -28h237q29 0 29 28v285h328v-324q0 -122 -86 -208t-209 -86h-361q-123 0 -209 86t-86 208v1082zM473 2056l76 -131h22l76 131h268l-229 -278h-254
l-227 278h268z" />
    <glyph glyph-name="ccaron" unicode="&#x10d;" horiz-adv-x="1015" 
d="M92 895q0 113 79 193t194 79h331q115 0 194 -80t79 -192v-154h-328v111q0 31 -31 31h-159q-31 0 -31 -31v-555q0 -31 31 -31h159q31 0 31 31v102h328v-147q0 -113 -80 -193t-193 -79h-331q-113 0 -193 80t-80 192v643zM432 1565l76 -131h22l76 131h268l-229 -279h-254
l-227 279h268z" />
    <glyph glyph-name="Dcaron" unicode="&#x10e;" horiz-adv-x="1169" 
d="M715 305q29 0 28 31v967q0 31 -28 30h-266v-1028h266zM776 1638q125 0 210 -80t85 -202v-1061q0 -123 -86 -209t-209 -86h-655v1638h655zM485 2056l76 -131h23l75 131h269l-230 -278h-254l-227 278h268z" />
    <glyph glyph-name="dcaron" unicode="&#x10f;" horiz-adv-x="1339" 
d="M641 850q0 31 -31 31h-161q-31 0 -31 -31v-494q0 -35 26 -34q63 0 197 53v475zM969 0h-328v82q-252 -102 -344 -102t-150 58q-57 58 -57 140v719q0 113 80 193t192 79h279v396h328v-1565zM1051 1143v428h288l-41 -428h-247z" />
    <glyph glyph-name="Dcroat" unicode="&#x110;" horiz-adv-x="1177" 
d="M752 1303q0 31 -29 30h-266v-284h108v-326h-108v-418h266q29 0 29 31v967zM784 1638q125 0 210 -80t85 -202v-1061q0 -123 -86 -209t-209 -86h-655v723h-94v326h94v589h655z" />
    <glyph glyph-name="dcroat" unicode="&#x111;" horiz-adv-x="1075" 
d="M641 850q0 31 -31 31h-161q-31 0 -31 -31v-494q0 -35 26 -34q63 0 197 53v475zM1075 1245h-106v-1245h-328v82q-252 -102 -344 -102t-150 58q-57 58 -57 140v719q0 113 80 193t192 79h279v76h-231v225h231v95h328v-95h106v-225z" />
    <glyph glyph-name="Emacron" unicode="&#x112;" horiz-adv-x="1009" 
d="M948 1311h-499v-305h444v-328h-444v-350h499v-328h-827v1638h827v-327zM823 2030v-248h-532v248h532z" />
    <glyph glyph-name="emacron" unicode="&#x113;" horiz-adv-x="1032" 
d="M641 852q0 31 -29 31h-163q-29 0 -29 -31v-193h221v193zM92 895q0 113 79 193t194 79h331q115 0 194 -80t79 -192v-434h-549v-164q0 -31 31 -31h159q31 0 31 31v82h328v-127q0 -113 -79 -193t-194 -79h-331q-115 0 -194 80t-79 192v643zM784 1538v-248h-532v248h532z" />
    <glyph glyph-name="Ebreve" unicode="&#x114;" horiz-adv-x="1009" 
d="M948 1311h-499v-305h444v-328h-444v-350h499v-328h-827v1638h827v-327zM795 2058q1 -150 -57 -209t-181 -59t-180 59t-58 209h203q0 -86 37 -86t37 86h199z" />
    <glyph glyph-name="ebreve" unicode="&#x115;" horiz-adv-x="1032" 
d="M641 852q0 31 -29 31h-163q-29 0 -29 -31v-193h221v193zM92 895q0 113 79 193t194 79h331q115 0 194 -80t79 -192v-434h-549v-164q0 -31 31 -31h159q31 0 31 31v82h328v-127q0 -113 -79 -193t-194 -79h-331q-115 0 -194 80t-79 192v643zM756 1567q0 -150 -58 -209
q-58 -60 -180 -60q-123 0 -180 60t-57 209h202q0 -86 37 -86t37 86h199z" />
    <glyph glyph-name="Edotaccent" unicode="&#x116;" horiz-adv-x="1009" 
d="M948 1311h-499v-305h444v-328h-444v-350h499v-328h-827v1638h827v-327zM556 1743q-71 0 -120 49t-49 120t49 122t119 51t121 -51t51 -122t-50 -120t-121 -49z" />
    <glyph glyph-name="edotaccent" unicode="&#x117;" horiz-adv-x="1032" 
d="M641 852q0 31 -29 31h-163q-29 0 -29 -31v-193h221v193zM92 895q0 113 79 193t194 79h331q115 0 194 -80t79 -192v-434h-549v-164q0 -31 31 -31h159q31 0 31 31v82h328v-127q0 -113 -79 -193t-194 -79h-331q-115 0 -194 80t-79 192v643zM515 1251q-71 0 -120 49t-49 120
t49 122t119 51t121 -51t51 -122t-50 -120t-121 -49z" />
    <glyph glyph-name="Eogonek" unicode="&#x118;" horiz-adv-x="1009" 
d="M845 -299q-117 0 -178 52t-61 123t33 124h-518v1638h827v-327h-499v-305h444v-328h-444v-350h499v-328q-90 -8 -90 -63q0 -33 25 -33q35 0 94 47l98 -162q-113 -88 -230 -88z" />
    <glyph glyph-name="eogonek" unicode="&#x119;" horiz-adv-x="1032" 
d="M420 659h221v193q0 31 -29 31h-163q-29 0 -29 -31v-193zM420 461v-164q0 -31 31 -31h159q31 0 31 31v82h328v-127q0 -113 -79 -193t-194 -79q-90 -8 -90 -64q0 -33 25 -33q35 0 94 47l98 -161q-113 -88 -230 -88t-178 52t-61 123t33 124h-22q-115 0 -194 80t-79 192v643
q0 113 79 193t194 79h331q115 0 194 -80t79 -192v-434h-549z" />
    <glyph glyph-name="Ecaron" unicode="&#x11a;" horiz-adv-x="1009" 
d="M948 1311h-499v-305h444v-328h-444v-350h499v-328h-827v1638h827v-327zM459 2056l76 -131h22l76 131h268l-229 -278h-254l-228 278h269z" />
    <glyph glyph-name="ecaron" unicode="&#x11b;" horiz-adv-x="1032" 
d="M641 852q0 31 -29 31h-163q-29 0 -29 -31v-193h221v193zM92 895q0 113 79 193t194 79h331q115 0 194 -80t79 -192v-434h-549v-164q0 -31 31 -31h159q31 0 31 31v82h328v-127q0 -113 -79 -193t-194 -79h-331q-115 0 -194 80t-79 192v643zM420 1565l76 -131h22l76 131h268
l-229 -279h-254l-227 279h268z" />
    <glyph glyph-name="Gcircumflex" unicode="&#x11c;" horiz-adv-x="1124" 
d="M98 1356q0 123 86 209t209 86h350q123 0 209 -86t86 -209v-258h-327v219q0 29 -31 29h-225q-29 0 -29 -29v-1004q0 -29 29 -28h225q31 0 31 28v275h-189v327h516v-641q0 -122 -86 -208t-209 -86h-350q-123 0 -209 86t-86 208v1082zM682 2075l227 -279h-268l-76 131h-22
l-76 -131h-268l229 279h254z" />
    <glyph glyph-name="gcircumflex" unicode="&#x11d;" horiz-adv-x="1067" 
d="M420 545q0 -35 24 -35q43 0 197 65v277q0 31 -31 31h-159q-31 0 -31 -31v-307zM420 -4q0 -31 31 -31h159q31 0 31 31v295q-258 -121 -346 -121t-145 59t-58 142v526q0 113 80 193t193 79h331q113 1 193 -79t80 -193v-944q0 -113 -79 -193t-194 -79h-331q-115 -1 -194 79
t-79 193v113h328v-70zM649 1583l228 -278h-269l-76 131h-22l-76 -131h-268l229 278h254z" />
    <glyph glyph-name="Gbreve" unicode="&#x11e;" horiz-adv-x="1124" 
d="M98 1356q0 123 86 209t209 86h350q123 0 209 -86t86 -209v-258h-327v219q0 29 -31 29h-225q-29 0 -29 -29v-1004q0 -29 29 -28h225q31 0 31 28v275h-189v327h516v-641q0 -122 -86 -208t-209 -86h-350q-123 0 -209 86t-86 208v1082zM803 2058q1 -150 -57 -209t-181 -59
t-180 59t-57 209h202q0 -86 37 -86t37 86h199z" />
    <glyph glyph-name="gbreve" unicode="&#x11f;" horiz-adv-x="1067" 
d="M420 545q0 -35 24 -35q43 0 197 65v277q0 31 -31 31h-159q-31 0 -31 -31v-307zM420 -4q0 -31 31 -31h159q31 0 31 31v295q-258 -121 -346 -121t-145 59t-58 142v526q0 113 80 193t193 79h331q113 1 193 -79t80 -193v-944q0 -113 -79 -193t-194 -79h-331q-115 -1 -194 79
t-79 193v113h328v-70zM770 1567q0 -150 -57 -209q-57 -60 -181 -60t-180 60q-57 60 -57 209h203q0 -86 37 -86t36 86h199z" />
    <glyph glyph-name="Gdotaccent" unicode="&#x120;" horiz-adv-x="1124" 
d="M98 1356q0 123 86 209t209 86h350q123 0 209 -86t86 -209v-258h-327v219q0 29 -31 29h-225q-29 0 -29 -29v-1004q0 -29 29 -28h225q31 0 31 28v275h-189v327h516v-641q0 -122 -86 -208t-209 -86h-350q-123 0 -209 86t-86 208v1082zM562 1743q-71 0 -120 49t-49 120
t49 122t119 51t121 -51t51 -122t-50 -120t-121 -49z" />
    <glyph glyph-name="gdotaccent" unicode="&#x121;" horiz-adv-x="1067" 
d="M420 545q0 -35 24 -35q43 0 197 65v277q0 31 -31 31h-159q-31 0 -31 -31v-307zM420 -4q0 -31 31 -31h159q31 0 31 31v295q-258 -121 -346 -121t-145 59t-58 142v526q0 113 80 193t193 79h331q113 1 193 -79t80 -193v-944q0 -113 -79 -193t-194 -79h-331q-115 -1 -194 79
t-79 193v113h328v-70zM529 1251q-71 0 -119 49t-50 120q0 71 50 122t118 51q70 0 121 -51t51 -122t-50 -120t-121 -49z" />
    <glyph glyph-name="Gcommaaccent" unicode="&#x122;" horiz-adv-x="1124" 
d="M401 -430v346h297l-45 -346h-252zM98 1356q0 123 86 209t209 86h350q123 0 209 -86t86 -209v-258h-327v219q0 29 -31 29h-225q-29 0 -29 -29v-1004q0 -29 29 -28h225q31 0 31 28v275h-189v327h516v-641q0 -122 -86 -208t-209 -86h-350q-123 0 -209 86t-86 208v1082z" />
    <glyph glyph-name="gcommaaccent" unicode="&#x123;" horiz-adv-x="1067" 
d="M420 545q0 -35 24 -35q43 0 197 65v277q0 31 -31 31h-159q-31 0 -31 -31v-307zM420 -4q0 -31 31 -31h159q31 0 31 31v295q-258 -121 -346 -121t-145 59t-58 142v526q0 113 80 193t193 79h331q113 1 193 -79t80 -193v-944q0 -113 -79 -193t-194 -79h-331q-115 -1 -194 79
t-79 193v113h328v-70zM672 1638v-346h-297l45 346h252z" />
    <glyph glyph-name="Hcircumflex" unicode="&#x124;" horiz-adv-x="1185" 
d="M449 1067h288v571h328v-1638h-328v745h-288v-745h-328v1638h328v-571zM721 2075l227 -279h-268l-76 131h-22l-76 -131h-268l229 279h254z" />
    <glyph glyph-name="hcircumflex" unicode="&#x125;" horiz-adv-x="1083" 
d="M778 1167q92 0 150 -58t57 -140v-969h-328v791q0 35 -26 34q-63 0 -197 -53v-772h-328v1567h328v-502q252 102 344 102zM406 2075l227 -279h-268l-76 131h-23l-76 -131h-268l230 279h254z" />
    <glyph glyph-name="Hbar" unicode="&#x126;" horiz-adv-x="1218" 
d="M754 1221h-289v-154h289v154zM1184 1221h-103v-1221h-327v745h-289v-745h-328v1221h-102v321h102v96h328v-96h289v96h327v-96h103v-321z" />
    <glyph glyph-name="hbar" unicode="&#x127;" horiz-adv-x="1083" 
d="M778 1167q92 0 150 -58t57 -140v-969h-328v791q0 35 -26 34q-63 0 -197 -53v-772h-328v1225h-106v245h106v97h328v-97h232v-245h-232v-160q252 102 344 102z" />
    <glyph glyph-name="Itilde" unicode="&#x128;" horiz-adv-x="585" 
d="M457 0h-328v1638h328v-1638zM154 2091q51 0 142 -26q92 -25 158 -25t126 37v-271q-68 -45 -132 -45t-156 26q-91 26 -138 25q-84 0 -148 -55v271q63 63 148 63z" />
    <glyph glyph-name="itilde" unicode="&#x129;" horiz-adv-x="661" 
d="M442 340q0 -33 29 -33h141v-327h-153q-143 -2 -244 98q-100 100 -100 241v828h327v-807zM141 1599q51 1 143 -25t158 -26t125 37v-270q-68 -45 -132 -45t-155 26t-139 25q-84 0 -147 -55v270q63 63 147 63z" />
    <glyph glyph-name="Imacron" unicode="&#x12a;" horiz-adv-x="585" 
d="M457 0h-328v1638h328v-1638zM559 2030v-248h-532v248h532z" />
    <glyph glyph-name="imacron" unicode="&#x12b;" horiz-adv-x="661" 
d="M442 340q0 -33 29 -33h141v-327h-153q-143 -2 -244 98q-100 100 -100 241v828h327v-807zM547 1538v-248h-533v248h533z" />
    <glyph glyph-name="Ibreve" unicode="&#x12c;" horiz-adv-x="585" 
d="M457 0h-328v1638h328v-1638zM530 2058q0 -150 -57 -209t-180 -59t-180 59t-58 209h203q0 -86 37 -86t37 86h198z" />
    <glyph glyph-name="ibreve" unicode="&#x12d;" horiz-adv-x="661" 
d="M442 340q0 -33 29 -33h141v-327h-153q-143 -2 -244 98q-100 100 -100 241v828h327v-807zM518 1567q0 -150 -57 -209q-57 -60 -180 -60t-181 60t-57 209h203q0 -86 37 -86t36 86h199z" />
    <glyph glyph-name="Iogonek" unicode="&#x12e;" horiz-adv-x="585" 
d="M352 -299q-118 0 -179 52q-60 52 -60 123t32 124h-16v1638h328v-1638h-2q-90 -8 -90 -63q0 -33 24 -33q35 0 94 47l99 -162q-112 -88 -230 -88z" />
    <glyph glyph-name="iogonek" unicode="&#x12f;" horiz-adv-x="661" 
d="M509 -319q-117 0 -178 52t-61 133t54 140q-94 39 -152 124q-57 85 -57 189v828h327v-807q0 -33 29 -33h141v-327q-90 -8 -90 -64q0 -33 25 -33q35 0 94 47l98 -161q-113 -88 -230 -88zM444 1350h-327v217h327v-217z" />
    <glyph glyph-name="Idotaccent" unicode="&#x130;" horiz-adv-x="585" 
d="M457 0h-328v1638h328v-1638zM292 1743q-71 0 -120 49t-49 120t49 122t119 51t121 -51t51 -122t-50 -120t-121 -49z" />
    <glyph glyph-name="dotlessi" unicode="&#x131;" horiz-adv-x="661" 
d="M442 340q0 -33 29 -33h141v-327h-153q-143 -2 -244 98q-100 100 -100 241v828h327v-807z" />
    <glyph glyph-name="IJ" unicode="&#x132;" horiz-adv-x="1660" 
d="M948 598v-283q0 -31 29 -30h229q29 0 29 30v1323h328v-1364q0 -122 -86 -208t-209 -86h-353q-123 0 -209 86t-85 208v324h327zM457 0h-328v1638h328v-1638z" />
    <glyph glyph-name="ij" unicode="&#x133;" horiz-adv-x="1261" 
d="M1143 1147v-1231q0 -240 -340 -240h-189v185h142q59 0 59 55v1231h328zM442 340q0 -33 29 -33h141v-327h-153q-143 -2 -244 98q-100 100 -100 241v828h327v-807zM1145 1567v-217h-332v217h332zM444 1350h-327v217h327v-217z" />
    <glyph glyph-name="Jcircumflex" unicode="&#x134;" horiz-adv-x="1075" 
d="M362 315q0 -31 29 -30h230q29 0 28 30v1323h328v-1364q0 -122 -86 -208t-209 -86h-352q-123 0 -209 86t-86 208v324h327v-283zM915 2075l228 -279h-269l-75 131h-23l-76 -131h-268l230 279h253z" />
    <glyph glyph-name="jcircumflex" unicode="&#x135;" horiz-adv-x="595" 
d="M481 -84q0 -240 -340 -240h-188v185h141q59 0 60 55v1231h327v-1231zM434 1583l228 -278h-269l-76 131h-22l-76 -131h-268l229 278h254z" />
    <glyph glyph-name="Kcommaaccent" unicode="&#x136;" horiz-adv-x="1247" 
d="M492 -430v346h296l-45 -346h-251zM444 1067h179l262 571h346l-361 -725v-18l361 -895h-346l-262 741h-179v-741h-323v1638h323v-571z" />
    <glyph glyph-name="kcommaaccent" unicode="&#x137;" horiz-adv-x="1144" 
d="M440 -430v346h297l-45 -346h-252zM430 457v-457h-324v1567h324v-787h123l180 367h367l-303 -520v-17l348 -610h-375l-217 457h-123z" />
    <glyph glyph-name="kgreenlandic" unicode="&#x138;" horiz-adv-x="1144" 
d="M430 1147v-367h123l180 367h367l-303 -520v-17l348 -610h-375l-217 457h-123v-457h-324v1147h324z" />
    <glyph glyph-name="Lacute" unicode="&#x139;" horiz-adv-x="958" 
d="M444 328h500v-328h-823v1638h323v-1310zM676 2120l-248 -330h-276l210 330h314z" />
    <glyph glyph-name="lacute" unicode="&#x13a;" horiz-adv-x="661" 
d="M612 -20h-153q-143 -2 -244 98q-100 100 -100 241v1246h327v-1225q0 -33 29 -33h141v-327zM647 2120l-248 -330h-276l211 330h313z" />
    <glyph glyph-name="Lcommaaccent" unicode="&#x13b;" horiz-adv-x="958" 
d="M309 -430v346h297l-45 -346h-252zM444 328h500v-328h-823v1638h323v-1310z" />
    <glyph glyph-name="lcommaaccent" unicode="&#x13c;" horiz-adv-x="661" 
d="M190 -430v346h297l-45 -346h-252zM612 -20h-153q-143 -2 -244 98q-100 100 -100 241v1246h327v-1225q0 -33 29 -33h141v-327z" />
    <glyph glyph-name="Lcaron" unicode="&#x13d;" horiz-adv-x="958" 
d="M621 1161v410h288l-45 -410h-243zM444 328h500v-328h-823v1638h323v-1310z" />
    <glyph glyph-name="lcaron" unicode="&#x13e;" horiz-adv-x="819" 
d="M612 -20h-153q-143 -2 -244 98q-100 100 -100 241v1246h327v-1225q0 -33 29 -33h141v-327zM559 1161v410h289l-45 -410h-244z" />
    <glyph glyph-name="Ldot" unicode="&#x13f;" horiz-adv-x="958" 
d="M754 1112q70 0 120 -50t52 -120q0 -70 -51 -119t-121 -49t-120 49t-50 119t50 120t120 50zM444 328h500v-328h-823v1638h323v-1310z" />
    <glyph glyph-name="ldot" unicode="&#x140;" horiz-adv-x="788" 
d="M649 774q-70 0 -120 49t-50 119t50 120t120 50t121 -50t51 -120t-51 -119t-121 -49zM610 -20h-153q-143 -2 -244 98q-100 100 -100 241v1246h327v-1225q0 -33 29 -33h141v-327z" />
    <glyph glyph-name="Lslash" unicode="&#x141;" horiz-adv-x="958" 
d="M944 328v-328h-823v649l-78 -28v325l78 29v663h323v-544l154 57v-326l-154 -57v-440h500z" />
    <glyph glyph-name="lslash" unicode="&#x142;" horiz-adv-x="698" 
d="M627 307v-327h-154q-143 -2 -244 98q-100 100 -100 241v336l-96 -34v325l96 35v584h328v-463l131 49v-326l-131 -49v-436q0 -33 28 -33h142z" />
    <glyph glyph-name="Nacute" unicode="&#x143;" horiz-adv-x="1314" 
d="M1194 1638v-1638h-545l-196 1311h-19l15 -1311h-328v1638h547l192 -1310h21l-15 1310h328zM1036 2120l-248 -330h-276l211 330h313z" />
    <glyph glyph-name="nacute" unicode="&#x144;" horiz-adv-x="1083" 
d="M778 1167q92 0 150 -58t57 -140v-969h-328v791q0 35 -26 34q-63 0 -197 -53v-772h-328v1147h328v-82q252 102 344 102zM922 1628l-248 -330h-277l211 330h314z" />
    <glyph glyph-name="Ncommaaccent" unicode="&#x145;" horiz-adv-x="1314" 
d="M496 -430v346h297l-45 -346h-252zM1194 1638v-1638h-545l-196 1311h-19l15 -1311h-328v1638h547l192 -1310h21l-15 1310h328z" />
    <glyph glyph-name="ncommaaccent" unicode="&#x146;" horiz-adv-x="1083" 
d="M379 -430v346h297l-45 -346h-252zM778 1167q92 0 150 -58t57 -140v-969h-328v791q0 35 -26 34q-63 0 -197 -53v-772h-328v1147h328v-82q252 102 344 102z" />
    <glyph glyph-name="Ncaron" unicode="&#x147;" horiz-adv-x="1314" 
d="M1194 1638v-1638h-545l-196 1311h-19l15 -1311h-328v1638h547l192 -1310h21l-15 1310h328zM561 2056l76 -131h22l76 131h269l-230 -278h-254l-227 278h268z" />
    <glyph glyph-name="ncaron" unicode="&#x148;" horiz-adv-x="1083" 
d="M778 1167q92 0 150 -58t57 -140v-969h-328v791q0 35 -26 34q-63 0 -197 -53v-772h-328v1147h328v-82q252 102 344 102zM444 1565l76 -131h23l75 131h269l-230 -279h-254l-227 279h268z" />
    <glyph glyph-name="napostrophe" unicode="&#x149;" horiz-adv-x="1208" 
d="M905 1167q91 0 149 -58t58 -140v-969h-328v791q0 35 -26 34q-63 0 -197 -53v-772h-328v1147h328v-82q252 102 344 102zM-39 1161v410h289l-45 -410h-244z" />
    <glyph glyph-name="Eng" unicode="&#x14a;" horiz-adv-x="1314" 
d="M623 -324v185h208q57 0 58 55v84h-240l-196 1311h-19l15 -1311h-328v1638h547l192 -1310h21l-15 1310h328v-1722q2 -131 -91 -187t-249 -53h-231z" />
    <glyph glyph-name="eng" unicode="&#x14b;" horiz-adv-x="1083" 
d="M778 1167q92 0 150 -58t57 -140v-1053q0 -240 -340 -240h-233v185h186q59 0 59 55v875q0 35 -26 34q-63 0 -197 -53v-772h-328v1147h328v-82q252 102 344 102z" />
    <glyph glyph-name="Omacron" unicode="&#x14c;" horiz-adv-x="1146" 
d="M426 313q0 -29 29 -28h235q31 0 31 28v1004q0 29 -31 29h-235q-29 0 -29 -29v-1004zM98 1356q0 123 86 209t209 86h361q123 0 209 -86t86 -209v-1082q0 -122 -86 -208t-209 -86h-361q-123 0 -209 86t-86 208v1082zM842 2030v-248h-533v248h533z" />
    <glyph glyph-name="omacron" unicode="&#x14d;" horiz-adv-x="1060" 
d="M420 297q0 -31 31 -31h159q31 0 31 31v555q0 31 -31 31h-159q-31 0 -31 -31v-555zM92 895q0 113 79 193t194 79h331q115 0 194 -80t79 -192v-643q0 -113 -80 -193t-193 -79h-331q-113 0 -193 80t-80 192v643zM799 1538v-248h-533v248h533z" />
    <glyph glyph-name="Obreve" unicode="&#x14e;" horiz-adv-x="1146" 
d="M426 313q0 -29 29 -28h235q31 0 31 28v1004q0 29 -31 29h-235q-29 0 -29 -29v-1004zM98 1356q0 123 86 209t209 86h361q123 0 209 -86t86 -209v-1082q0 -122 -86 -208t-209 -86h-361q-123 0 -209 86t-86 208v1082zM813 2058q0 -150 -57 -209q-56 -59 -180 -59t-181 59
t-57 209h203q0 -86 37 -86t36 86h199z" />
    <glyph glyph-name="obreve" unicode="&#x14f;" horiz-adv-x="1060" 
d="M420 297q0 -31 31 -31h159q31 0 31 31v555q0 31 -31 31h-159q-31 0 -31 -31v-555zM92 895q0 113 79 193t194 79h331q115 0 194 -80t79 -192v-643q0 -113 -80 -193t-193 -79h-331q-113 0 -193 80t-80 192v643zM770 1567q0 -150 -57 -209q-57 -60 -181 -60t-180 60
q-57 60 -57 209h203q0 -86 37 -86t36 86h199z" />
    <glyph glyph-name="Ohungarumlaut" unicode="&#x150;" horiz-adv-x="1146" 
d="M426 313q0 -29 29 -28h235q31 0 31 28v1004q0 29 -31 29h-235q-29 0 -29 -29v-1004zM98 1356q0 123 86 209t209 86h361q123 0 209 -86t86 -209v-1082q0 -122 -86 -208t-209 -86h-361q-123 0 -209 86t-86 208v1082zM1057 2120l-226 -330h-221l191 330h256zM754 2120
l-205 -330h-221l190 330h236z" />
    <glyph glyph-name="ohungarumlaut" unicode="&#x151;" horiz-adv-x="1060" 
d="M420 297q0 -31 31 -31h159q31 0 31 31v555q0 31 -31 31h-159q-31 0 -31 -31v-555zM92 895q0 113 79 193t194 79h331q115 0 194 -80t79 -192v-643q0 -113 -80 -193t-193 -79h-331q-113 0 -193 80t-80 192v643zM1014 1628l-226 -330h-221l191 330h256zM711 1628l-205 -330
h-221l190 330h236z" />
    <glyph glyph-name="OE" unicode="&#x152;" horiz-adv-x="1617" 
d="M700 279q29 0 29 30v1008q0 29 -29 29h-245q-29 0 -29 -29v-1010q0 -29 29 -28h245zM1057 1311v-244h444v-328h-444v-411h499v-328h-716q-33 -23 -78 -23h-369q-123 0 -209 86t-86 207v1086q0 123 86 209t209 86h369q31 0 63 -13h731v-327h-499z" />
    <glyph glyph-name="oe" unicode="&#x153;" horiz-adv-x="1583" 
d="M969 659h223v193q0 31 -29 31h-164q-31 0 -30 -31v-193zM641 852q0 31 -31 31h-159q-31 0 -31 -31v-555q0 -31 31 -31h159q31 0 31 31v555zM969 461v-164q0 -31 30 -31h162q31 0 31 31v82h328v-127q0 -113 -80 -193t-193 -79h-334q-57 0 -108 22q-55 -23 -109 -22h-331
q-113 0 -193 80t-80 192v643q0 113 79 193t194 79h331q57 0 109 -22q51 23 108 22h334q113 0 193 -80t80 -192v-434h-551z" />
    <glyph glyph-name="Racute" unicode="&#x154;" horiz-adv-x="1171" 
d="M737 1309q0 31 -20 30h-268v-319h256q33 18 32 74v215zM821 1638q100 0 173 -72t73 -173v-295q0 -78 -44 -145t-114 -97q76 -30 124 -96t48 -150v-610h-327v598q0 70 -29 94h-276v-692h-328v1638h700zM948 2120l-248 -330h-276l211 330h313z" />
    <glyph glyph-name="racute" unicode="&#x155;" horiz-adv-x="1019" 
d="M778 1167q92 0 150 -58t57 -140v-205h-328v27q0 35 -26 34q-63 0 -197 -53v-772h-328v1147h328v-82q252 102 344 102zM670 1628l-248 -330h-277l211 330h314z" />
    <glyph glyph-name="Rcommaaccent" unicode="&#x156;" horiz-adv-x="1171" 
d="M459 -430v346h297l-45 -346h-252zM737 1309q0 31 -20 30h-268v-319h256q33 18 32 74v215zM821 1638q100 0 173 -72t73 -173v-295q0 -78 -44 -145t-114 -97q76 -30 124 -96t48 -150v-610h-327v598q0 70 -29 94h-276v-692h-328v1638h700z" />
    <glyph glyph-name="rcommaaccent" unicode="&#x157;" horiz-adv-x="1019" 
d="M113 -430v346h297l-45 -346h-252zM778 1167q92 0 150 -58t57 -140v-205h-328v27q0 35 -26 34q-63 0 -197 -53v-772h-328v1147h328v-82q252 102 344 102z" />
    <glyph glyph-name="Rcaron" unicode="&#x158;" horiz-adv-x="1171" 
d="M737 1309q0 31 -20 30h-268v-319h256q33 18 32 74v215zM821 1638q100 0 173 -72t73 -173v-295q0 -78 -44 -145t-114 -97q76 -30 124 -96t48 -150v-610h-327v598q0 70 -29 94h-276v-692h-328v1638h700zM473 2056l76 -131h22l76 131h268l-229 -278h-254l-227 278h268z" />
    <glyph glyph-name="rcaron" unicode="&#x159;" horiz-adv-x="1019" 
d="M778 1167q92 0 150 -58t57 -140v-205h-328v27q0 35 -26 34q-63 0 -197 -53v-772h-328v1147h328v-82q252 102 344 102zM193 1565l75 -131h23l76 131h268l-229 -279h-254l-228 279h269z" />
    <glyph glyph-name="Sacute" unicode="&#x15a;" horiz-adv-x="1097" 
d="M408 313q0 -29 28 -28h211q31 0 31 28v119q0 144 -104 235q-56 49 -96 73t-144 80t-172 168q-68 110 -68 255v113q0 123 86 209t209 86h334q123 0 209 -116t86 -286h-328q0 55 -8 75t-33 22h-196q-31 0 -31 -29v-74q0 -49 44 -95t82 -69t93 -51t61 -33q136 -74 220 -218
t84 -345v-158q0 -122 -86 -208t-209 -86h-336q-123 0 -209 86t-86 208v304h328v-265zM928 2120l-248 -330h-277l211 330h314z" />
    <glyph glyph-name="sacute" unicode="&#x15b;" horiz-adv-x="1030" 
d="M403 297q0 -31 31 -31h164q31 0 31 31v33q-1 37 -23 53q-22 15 -36 23t-52 25q-40 17 -68 31t-93 40q-65 27 -93 41q-101 50 -136 104q-52 85 -52 197v37q2 131 80 209t192 77h334q112 0 192 -80t80 -192v-80h-327v37q0 31 -29 31h-164q-31 0 -31 -31v-16q1 -18 9 -26
t15 -17q7 -8 43 -26q36 -17 50 -23q19 -9 146 -64q126 -54 141 -69q16 -15 46 -35t37 -36q7 -15 25 -41q39 -56 39 -180v-53q0 -123 -78 -205t-194 -81h-334q-112 0 -192 80t-80 192v125h327v-80zM895 1628l-248 -330h-276l211 330h313z" />
    <glyph glyph-name="Scircumflex" unicode="&#x15c;" horiz-adv-x="1097" 
d="M408 313q0 -29 28 -28h211q31 0 31 28v119q0 144 -104 235q-56 49 -96 73t-144 80t-172 168q-68 110 -68 255v113q0 123 86 209t209 86h334q123 0 209 -116t86 -286h-328q0 55 -8 75t-33 22h-196q-31 0 -31 -29v-74q0 -49 44 -95t82 -69t93 -51t61 -33q136 -74 220 -218
t84 -345v-158q0 -122 -86 -208t-209 -86h-336q-123 0 -209 86t-86 208v304h328v-265zM668 2075l227 -279h-268l-76 131h-23l-75 -131h-269l230 279h254z" />
    <glyph glyph-name="scircumflex" unicode="&#x15d;" horiz-adv-x="1030" 
d="M403 297q0 -31 31 -31h164q31 0 31 31v33q-1 37 -23 53q-22 15 -36 23t-52 25q-40 17 -68 31t-93 40q-65 27 -93 41q-101 50 -136 104q-52 85 -52 197v37q2 131 80 209t192 77h334q112 0 192 -80t80 -192v-80h-327v37q0 31 -29 31h-164q-31 0 -31 -31v-16q1 -18 9 -26
t15 -17q7 -8 43 -26q36 -17 50 -23q19 -9 146 -64q126 -54 141 -69q16 -15 46 -35t37 -36q7 -15 25 -41q39 -56 39 -180v-53q0 -123 -78 -205t-194 -81h-334q-112 0 -192 80t-80 192v125h327v-80zM633 1583l227 -278h-268l-76 131h-22l-76 -131h-268l229 278h254z" />
    <glyph glyph-name="Scedilla" unicode="&#x15e;" horiz-adv-x="1097" 
d="M422 1243q0 -49 44 -95t82 -69t93 -51t61 -33q136 -74 220 -218t84 -345v-158q0 -122 -86 -208t-209 -86h-39l-4 -35q190 -70 190 -267q0 -112 -83 -192t-209 -80t-238 90l123 199q53 -45 102 -45q70 0 70 69q0 63 -127 64h-68l18 197h-71q-123 0 -209 86t-86 208v304
h328v-265q0 -29 28 -28h211q31 0 31 28v119q0 144 -104 235q-56 49 -96 73t-144 80t-172 168q-68 110 -68 255v113q0 123 86 209t209 86h334q123 0 209 -116t86 -286h-328q0 55 -8 75t-33 22h-196q-31 0 -31 -29v-74z" />
    <glyph glyph-name="scedilla" unicode="&#x15f;" horiz-adv-x="1030" 
d="M627 815v37q0 31 -29 31h-164q-31 0 -31 -31v-16q1 -18 9 -26t15 -17q7 -8 43 -26q36 -17 50 -23q19 -9 146 -64q126 -54 141 -69q16 -15 46 -35t37 -36q7 -15 25 -41q39 -56 39 -180v-53q0 -123 -78 -205t-194 -81h-49l-4 -35q190 -70 190 -267q0 -112 -83 -192
q-82 -80 -208 -80t-239 90l123 199q53 -45 102 -45q70 0 70 69q0 63 -127 64h-68l19 197h-60q-112 0 -192 80t-80 192v125h327v-80q0 -31 31 -31h164q31 0 31 31v33q-1 37 -23 53q-22 15 -36 23t-52 25q-40 17 -68 31t-93 40q-65 27 -93 41q-101 50 -136 104q-52 85 -52 197
v37q2 131 80 209t192 77h334q112 0 192 -80t80 -192v-80h-327z" />
    <glyph glyph-name="Scaron" unicode="&#x160;" horiz-adv-x="1097" 
d="M408 313q0 -29 28 -28h211q31 0 31 28v119q0 144 -104 235q-56 49 -96 73t-144 80t-172 168q-68 110 -68 255v113q0 123 86 209t209 86h334q123 0 209 -116t86 -286h-328q0 55 -8 75t-33 22h-196q-31 0 -31 -29v-74q0 -49 44 -95t82 -69t93 -51t61 -33q136 -74 220 -218
t84 -345v-158q0 -122 -86 -208t-209 -86h-336q-123 0 -209 86t-86 208v304h328v-265zM451 2056l75 -131h23l76 131h268l-229 -278h-254l-228 278h269z" />
    <glyph glyph-name="scaron" unicode="&#x161;" horiz-adv-x="1030" 
d="M403 297q0 -31 31 -31h164q31 0 31 31v33q-1 37 -23 53q-22 15 -36 23t-52 25q-40 17 -68 31t-93 40q-65 27 -93 41q-101 50 -136 104q-52 85 -52 197v37q2 131 80 209t192 77h334q112 0 192 -80t80 -192v-80h-327v37q0 31 -29 31h-164q-31 0 -31 -31v-16q1 -18 9 -26
t15 -17q7 -8 43 -26q36 -17 50 -23q19 -9 146 -64q126 -54 141 -69q16 -15 46 -35t37 -36q7 -15 25 -41q39 -56 39 -180v-53q0 -123 -78 -205t-194 -81h-334q-112 0 -192 80t-80 192v125h327v-80zM418 1565l76 -131h22l76 131h268l-229 -279h-254l-227 279h268z" />
    <glyph glyph-name="Tcedilla" unicode="&#x162;" horiz-adv-x="1028" 
d="M819 -322q0 -112 -83 -192q-82 -80 -208 -80t-239 90l123 199q53 -45 102 -45q70 0 70 69q0 63 -127 64h-68l21 217h-58v1311h-334v327h992v-327h-330v-1311h-45l-6 -55q190 -70 190 -267z" />
    <glyph glyph-name="tcedilla" unicode="&#x163;" horiz-adv-x="808" 
d="M483 823v-483q0 -33 29 -33h141v-327h-131l-4 -35q190 -70 191 -267q0 -112 -83 -192t-209 -80t-239 90l123 199q53 -45 102 -45q70 0 70 69q0 63 -127 64h-67v12l22 246q-145 102 -145 278v504h-138v324h138v295h327v-295h308v-324h-308z" />
    <glyph glyph-name="Tcaron" unicode="&#x164;" horiz-adv-x="1028" 
d="M18 1638h992v-327h-330v-1311h-328v1311h-334v327zM418 2056l76 -131h22l76 131h268l-229 -278h-254l-227 278h268z" />
    <glyph glyph-name="tcaron" unicode="&#x165;" horiz-adv-x="1024" 
d="M483 340q0 -33 29 -33h141v-327h-153q-143 -2 -244 98q-100 100 -100 241v504h-138v324h138v295h327v-295h308v-324h-308v-483zM797 1161v410h288l-45 -410h-243z" />
    <glyph glyph-name="Tbar" unicode="&#x166;" horiz-adv-x="1028" 
d="M680 1311v-406h268v-321h-268v-584h-328v584h-270v321h270v406h-334v327h992v-327h-330z" />
    <glyph glyph-name="tbar" unicode="&#x167;" horiz-adv-x="808" 
d="M483 823v-98h305v-287h-305v-98q0 -33 29 -33h141v-327h-153q-143 -2 -244 98q-100 100 -100 241v119h-133v287h133v98h-138v324h138v295h327v-295h308v-324h-308z" />
    <glyph glyph-name="Utilde" unicode="&#x168;" horiz-adv-x="1159" 
d="M432 324q0 -39 29 -39h237q29 0 29 39v1314h328v-1364q0 -122 -86 -208t-209 -86h-361q-123 0 -209 86t-86 208v1364h328v-1314zM442 2091q50 0 142 -26q92 -25 158 -25t126 37v-271q-68 -45 -132 -45t-155 26t-139 25q-84 0 -147 -55v271q63 63 147 63z" />
    <glyph glyph-name="utilde" unicode="&#x169;" horiz-adv-x="1083" 
d="M305 -20q-92 0 -149 58t-58 140v969h328v-791q0 -35 27 -34q63 0 196 53v772h328v-1147h-328v82q-252 -102 -344 -102zM403 1599q51 1 143 -25t158 -26t125 37v-270q-68 -45 -132 -45t-155 26t-139 25q-84 0 -147 -55v270q63 63 147 63z" />
    <glyph glyph-name="Umacron" unicode="&#x16a;" horiz-adv-x="1159" 
d="M432 324q0 -39 29 -39h237q29 0 29 39v1314h328v-1364q0 -122 -86 -208t-209 -86h-361q-123 0 -209 86t-86 208v1364h328v-1314zM848 2030v-248h-533v248h533z" />
    <glyph glyph-name="umacron" unicode="&#x16b;" horiz-adv-x="1083" 
d="M305 -20q-92 0 -149 58t-58 140v969h328v-791q0 -35 27 -34q63 0 196 53v772h328v-1147h-328v82q-252 -102 -344 -102zM809 1538v-248h-533v248h533z" />
    <glyph glyph-name="Ubreve" unicode="&#x16c;" horiz-adv-x="1159" 
d="M432 324q0 -39 29 -39h237q29 0 29 39v1314h328v-1364q0 -122 -86 -208t-209 -86h-361q-123 0 -209 86t-86 208v1364h328v-1314zM819 2058q0 -150 -57 -209t-180 -59t-181 59q-57 59 -57 209h203q0 -86 37 -86t37 86h198z" />
    <glyph glyph-name="ubreve" unicode="&#x16d;" horiz-adv-x="1083" 
d="M305 -20q-92 0 -149 58t-58 140v969h328v-791q0 -35 27 -34q63 0 196 53v772h328v-1147h-328v82q-252 -102 -344 -102zM780 1567q0 -150 -57 -209q-57 -60 -180 -60t-181 60t-57 209h203q0 -86 37 -86t37 86h198z" />
    <glyph glyph-name="Uring" unicode="&#x16e;" horiz-adv-x="1159" 
d="M432 324q0 -39 29 -39h237q29 0 29 39v1314h328v-1364q0 -122 -86 -208t-209 -86h-361q-123 0 -209 86t-86 208v1364h328v-1314zM584 1851q74 1 74 95t-74 94t-74 -94t74 -95zM580 1718q-108 0 -178 60t-70 169q0 108 70 169q72 61 180 61t178 -61q70 -60 70 -168
t-72 -169q-70 -61 -178 -61z" />
    <glyph glyph-name="uring" unicode="&#x16f;" horiz-adv-x="1083" 
d="M305 -20q-92 0 -149 58t-58 140v969h328v-791q0 -35 27 -34q63 0 196 53v772h328v-1147h-328v82q-252 -102 -344 -102zM545 1360q74 0 73 94q0 94 -74 94t-73 -94q0 -94 74 -94zM791 1456q0 -108 -71 -168q-70 -60 -178 -61q-108 0 -178 60t-71 168q0 108 71 169
q71 62 179 62t178 -62q70 -60 70 -168z" />
    <glyph glyph-name="Uhungarumlaut" unicode="&#x170;" horiz-adv-x="1159" 
d="M432 324q0 -39 29 -39h237q29 0 29 39v1314h328v-1364q0 -122 -86 -208t-209 -86h-361q-123 0 -209 86t-86 208v1364h328v-1314zM1063 2120l-225 -330h-222l191 330h256zM760 2120l-205 -330h-221l190 330h236z" />
    <glyph glyph-name="uhungarumlaut" unicode="&#x171;" horiz-adv-x="1083" 
d="M305 -20q-92 0 -149 58t-58 140v969h328v-791q0 -35 27 -34q63 0 196 53v772h328v-1147h-328v82q-252 -102 -344 -102zM1024 1628l-225 -330h-221l190 330h256zM721 1628l-205 -330h-221l190 330h236z" />
    <glyph glyph-name="Uogonek" unicode="&#x172;" horiz-adv-x="1159" 
d="M1055 1638v-1364q0 -122 -86 -208t-209 -86q-90 -8 -90 -64q0 -33 24 -33q35 0 94 47l99 -161q-113 -88 -231 -88t-178 52t-60 123t33 124h-52q-123 0 -209 86t-86 208v1364h328v-1314q0 -39 29 -39h237q29 0 29 39v1314h328z" />
    <glyph glyph-name="uogonek" unicode="&#x173;" horiz-adv-x="1083" 
d="M872 -299q-118 0 -179 52q-60 52 -60 123t33 124h-17v82q-252 -102 -344 -102t-149 58t-58 140v969h328v-791q0 -35 27 -34q63 0 196 53v772h328v-1147h-2q-90 -8 -90 -63q0 -33 24 -33q35 0 95 47l98 -162q-112 -88 -230 -88z" />
    <glyph glyph-name="Wcircumflex" unicode="&#x174;" horiz-adv-x="1751" 
d="M432 313q0 -29 29 -28h129q59 0 90 57t31 125v1171h327v-1171q0 -66 32 -124t89 -58h129q31 0 31 28v1325h328v-1364q0 -122 -86 -208t-209 -86h-193q-100 0 -177 59t-108 156q-27 -96 -103 -156q-77 -59 -181 -59h-191q-123 0 -209 86t-86 208v1364h328v-1325zM993 2075
l228 -279h-269l-75 131h-23l-76 -131h-268l229 279h254z" />
    <glyph glyph-name="wcircumflex" unicode="&#x175;" horiz-adv-x="1568" 
d="M1470 274q0 -122 -86 -208t-208 -86h-132q-90 0 -160 59t-100 154q-25 -94 -95 -154q-71 -59 -165 -59h-131q-123 0 -209 86t-86 208v873h328v-852q0 -29 29 -29h69q96 0 97 148v733h327v-733q0 -68 25 -108t71 -40h68q31 0 31 29v852h327v-873zM901 1583l227 -278h-268
l-76 131h-22l-76 -131h-268l229 278h254z" />
    <glyph glyph-name="Ycircumflex" unicode="&#x176;" horiz-adv-x="1234" 
d="M840 455h-54v-455h-325v455h-47q-96 0 -113 65l-262 1118h336l166 -860q6 -35 20 -35h131q18 0 21 35l155 860h328l-242 -1118q-8 -29 -40 -47t-74 -18zM737 2075l228 -279h-269l-75 131h-23l-76 -131h-268l229 279h254z" />
    <glyph glyph-name="ycircumflex" unicode="&#x177;" horiz-adv-x="1060" 
d="M489 266h91q18 0 20 31l90 850h330l-223 -1466h-314l47 296h-211q-31 0 -57 22t-31 48l-186 1100h330l96 -850q4 -31 18 -31zM651 1583l228 -278h-269l-75 131h-23l-76 -131h-268l229 278h254z" />
    <glyph glyph-name="Ydieresis" unicode="&#x178;" horiz-adv-x="1234" 
d="M840 455h-54v-455h-325v455h-47q-96 0 -113 65l-262 1118h336l166 -860q6 -35 20 -35h131q18 0 21 35l155 860h328l-242 -1118q-8 -29 -40 -47t-74 -18zM991 1922q0 -64 -46 -110q-47 -46 -111 -47q-64 0 -111 46t-47 112t47 115t111 49t111 -50q46 -51 46 -115z
M403 1765q-67 0 -113 46t-46 112t47 115t113 49t113 -50q48 -51 48 -115t-48 -110t-114 -47z" />
    <glyph glyph-name="Zacute" unicode="&#x179;" horiz-adv-x="1058" 
d="M47 1638h965l-508 -1310h508v-328h-965l512 1311h-512v327zM909 2120l-247 -330h-277l211 330h313z" />
    <glyph glyph-name="zacute" unicode="&#x17a;" horiz-adv-x="976" 
d="M57 827v320h861v-320l-492 -501h498v-326h-871v328l490 499h-486zM868 1628l-247 -330h-277l211 330h313z" />
    <glyph glyph-name="Zdotaccent" unicode="&#x17b;" horiz-adv-x="1058" 
d="M47 1638h965l-508 -1310h508v-328h-965l512 1311h-512v327zM529 1743q-71 0 -119 49t-50 120q0 71 50 122t118 51q70 0 121 -51t51 -122t-50 -120t-121 -49z" />
    <glyph glyph-name="zdotaccent" unicode="&#x17c;" horiz-adv-x="976" 
d="M57 827v320h861v-320l-492 -501h498v-326h-871v328l490 499h-486zM488 1251q-72 0 -120 49t-48 120t48 122q50 51 120 51t120 -51q51 -51 51 -122t-50 -120t-121 -49z" />
    <glyph glyph-name="Zcaron" unicode="&#x17d;" horiz-adv-x="1058" 
d="M47 1638h965l-508 -1310h508v-328h-965l512 1311h-512v327zM432 2056l76 -131h22l76 131h268l-229 -278h-254l-227 278h268z" />
    <glyph glyph-name="zcaron" unicode="&#x17e;" horiz-adv-x="976" 
d="M57 827v320h861v-320l-492 -501h498v-326h-871v328l490 499h-486zM391 1565l76 -131h22l76 131h269l-230 -279h-254l-227 279h268z" />
    <glyph glyph-name="longs" unicode="&#x17f;" horiz-adv-x="669" 
d="M70 14q35 0 34 41v768h-86v324h86v84q0 139 100 237t245 99h221v-328h-209q-29 0 -29 -31v-1181q-4 -141 -107 -241t-255 -99v327z" />
    <glyph glyph-name="florin" unicode="&#x192;" horiz-adv-x="768" 
d="M670 1221h-156q-31 0 -31 -31v-258h101v-326h-101v-586q1 -139 -109 -238t-259 -99v327q35 0 35 31v565h-52v326h52v280q0 140 100 238t244 98h176v-327z" />
    <glyph glyph-name="DZcaron" unicode="&#x1c4;" horiz-adv-x="2228" 
d="M715 305q29 0 28 31v967q0 31 -28 30h-266v-1028h266zM1217 1311v327h964l-508 -1310h508v-328h-964l512 1311h-512zM776 1638q125 0 210 -80t85 -202v-1061q0 -123 -86 -209t-209 -86h-655v1638h655zM1602 2056l75 -131h23l76 131h268l-229 -278h-254l-228 278h269z" />
    <glyph glyph-name="Dzcaron" unicode="&#x1c5;" horiz-adv-x="2146" 
d="M1227 827v320h860v-320l-492 -501h498v-326h-870v328l489 499h-485zM715 305q29 0 28 31v967q0 31 -28 30h-266v-1028h266zM1561 1565l75 -131h23l76 131h268l-229 -279h-254l-228 279h269zM776 1638q125 0 210 -80t85 -202v-1061q0 -123 -86 -209t-209 -86h-655v1638
h655z" />
    <glyph glyph-name="dzcaron" unicode="&#x1c6;" horiz-adv-x="2052" 
d="M641 850q0 31 -31 31h-161q-31 0 -31 -31v-494q0 -35 26 -34q63 0 197 53v475zM1133 827v320h860v-320l-492 -501h498v-326h-871v328l490 499h-485zM1466 1565l76 -131h23l75 131h269l-230 -279h-254l-227 279h268zM969 0h-328v82q-252 -102 -344 -102t-150 58
q-57 58 -57 140v719q0 113 80 193t192 79h279v396h328v-1565z" />
    <glyph glyph-name="LJ" unicode="&#x1c7;" horiz-adv-x="2033" 
d="M1321 315q0 -31 29 -30h229q29 0 29 30v1323h327v-1364q0 -122 -86 -208t-209 -86h-352q-123 0 -209 86t-86 208v324h328v-283zM444 328h500v-328h-823v1638h323v-1310z" />
    <glyph glyph-name="Lj" unicode="&#x1c8;" horiz-adv-x="1556" 
d="M1440 1147v-1231q0 -240 -340 -240h-189v185h142q59 0 59 55v1231h328zM1442 1567v-217h-332v217h332zM444 328h500v-328h-823v1638h323v-1310z" />
    <glyph glyph-name="lj" unicode="&#x1c9;" horiz-adv-x="1259" 
d="M1143 -84q0 -240 -340 -240h-189v185h142q59 0 59 55v1231h328v-1231zM612 -20h-153q-143 -2 -244 98q-100 100 -100 241v1246h327v-1225q0 -33 29 -33h141v-327zM1145 1350h-332v217h332v-217z" />
    <glyph glyph-name="NJ" unicode="&#x1ca;" horiz-adv-x="2390" 
d="M1677 315q0 -31 29 -30h229q29 0 29 30v1323h328v-1364q0 -122 -86 -208t-209 -86h-352q-123 0 -209 86t-86 208v324h327v-283zM1194 1638v-1638h-545l-196 1311h-19l15 -1311h-328v1638h547l192 -1310h21l-15 1310h328z" />
    <glyph glyph-name="Nj" unicode="&#x1cb;" horiz-adv-x="1912" 
d="M1796 1147v-1231q0 -240 -340 -240h-188v185h141q59 0 59 55v1231h328zM1798 1567v-217h-332v217h332zM1194 1638v-1638h-545l-196 1311h-19l15 -1311h-328v1638h547l192 -1310h21l-15 1310h328z" />
    <glyph glyph-name="nj" unicode="&#x1cc;" horiz-adv-x="1681" 
d="M1565 -84q0 -240 -340 -240h-189v185h142q59 0 59 55v1231h328v-1231zM778 1167q92 0 150 -58t57 -140v-969h-328v791q0 35 -26 34q-63 0 -197 -53v-772h-328v1147h328v-82q252 102 344 102zM1567 1350h-332v217h332v-217z" />
    <glyph glyph-name="Oogonek" unicode="&#x1ea;" horiz-adv-x="1146" 
d="M426 313q0 -29 29 -28h235q31 0 31 28v1004q0 29 -31 29h-235q-29 0 -29 -29v-1004zM754 1651q123 0 209 -86t86 -209v-1082q0 -122 -86 -208t-209 -86q-90 -8 -90 -64q0 -33 24 -33q35 0 94 47l99 -161q-113 -88 -231 -88t-178 52t-60 123t32 124h-51q-123 0 -209 86
t-86 208v1082q0 123 86 209t209 86h361z" />
    <glyph glyph-name="oogonek" unicode="&#x1eb;" horiz-adv-x="1060" 
d="M420 297q0 -31 31 -31h159q31 0 31 31v555q0 31 -31 31h-159q-31 0 -31 -31v-555zM696 1167q115 0 194 -80t79 -192v-643q0 -113 -80 -193t-193 -79q-90 -8 -90 -64q0 -33 25 -33q35 0 94 47l98 -161q-113 -88 -230 -88t-178 52t-61 123t33 124h-22q-113 0 -193 80
t-80 192v643q0 113 79 193t194 79h331z" />
    <glyph glyph-name="DZ" unicode="&#x1f1;" horiz-adv-x="2228" 
d="M715 305q29 0 28 31v967q0 31 -28 30h-266v-1028h266zM1217 1311v327h964l-508 -1310h508v-328h-964l512 1311h-512zM776 1638q125 0 210 -80t85 -202v-1061q0 -123 -86 -209t-209 -86h-655v1638h655z" />
    <glyph glyph-name="Dz" unicode="&#x1f2;" horiz-adv-x="2146" 
d="M1227 827v320h860v-320l-492 -501h498v-326h-870v328l489 499h-485zM715 305q29 0 28 31v967q0 31 -28 30h-266v-1028h266zM776 1638q125 0 210 -80t85 -202v-1061q0 -123 -86 -209t-209 -86h-655v1638h655z" />
    <glyph glyph-name="dz" unicode="&#x1f3;" horiz-adv-x="2052" 
d="M641 850q0 31 -31 31h-161q-31 0 -31 -31v-494q0 -35 26 -34q63 0 197 53v475zM1133 827v320h860v-320l-492 -501h498v-326h-871v328l490 499h-485zM969 0h-328v82q-252 -102 -344 -102t-150 58q-57 58 -57 140v719q0 113 80 193t192 79h279v396h328v-1565z" />
    <glyph glyph-name="Aringacute" unicode="&#x1fa;" horiz-adv-x="1226" 
d="M668 1311h-115q-25 0 -27 -39l-82 -619h332l-82 619q-2 39 -26 39zM621 1839q-74 0 -74 -94t74 -94t73 94q1 94 -73 94zM618 1976q108 0 179 -61q70 -61 69 -170q0 -61 -24 -107h10q32 0 58 -22t30 -47l250 -1569h-328l-43 326h-418l-43 -326h-327l248 1569q5 27 31 49
t57 20h26q-25 47 -24 107q0 109 70 170q71 61 179 61zM721 2062h-277l211 330h314z" />
    <glyph glyph-name="aringacute" unicode="&#x1fb;" horiz-adv-x="1042" 
d="M377 289q1 -21 33 -21t206 60v170l-188 -41q-51 -12 -51 -66v-102zM68 408q0 150 45 200t157 80l346 62v102q0 31 -30 31h-133q-31 0 -31 -31v-70h-309v109q0 133 94 205t221 71h205q125 3 218 -69t93 -203v-895h-315v104q-297 -124 -381 -124t-132 56t-48 140v232z
M549 1360q74 0 74 94t-74 94t-74 -94t74 -94zM795 1456q0 -108 -71 -168q-70 -60 -178 -61q-108 0 -178 60t-71 168q0 108 71 169q71 62 179 62t178 -62q70 -60 70 -168zM952 2079l-247 -330h-277l211 330h313z" />
    <glyph glyph-name="AEacute" unicode="&#x1fc;" horiz-adv-x="1611" 
d="M596 1323q-35 0 -43 -37l-80 -633h252v670h-129zM1053 1300v-233h442v-328h-442v-411h497v-328h-825v326h-297l-61 -326h-328l246 1569q5 27 31 49t57 20h1177v-338h-497zM1194 2120l-248 -330h-276l211 330h313z" />
    <glyph glyph-name="aeacute" unicode="&#x1fd;" horiz-adv-x="1558" 
d="M377 391v-102q1 -21 33 -21t206 60v170l-188 -41q-51 -12 -51 -66zM1167 659v193q0 31 -30 31h-162q-31 0 -31 -31v-193h223zM944 297q0 -31 31 -31h162q31 0 30 31v82h328v-127q0 -113 -80 -193t-192 -79h-334q-152 0 -232 131l-4 -2q-295 -129 -392 -129t-145 56
t-48 140v232q0 143 47 200t155 80l346 62v102q0 31 -30 31h-133q-31 0 -31 -31v-70h-309v109q0 131 95 204t220 72h205q68 2 139 -26q57 27 117 26h334q113 0 193 -80t79 -192v-434h-551v-164zM1165 1622l-247 -330h-277l211 330h313z" />
    <glyph glyph-name="Oslashacute" unicode="&#x1fe;" horiz-adv-x="1214" 
d="M707 285q31 0 30 28v576l-254 -604h224zM471 1346q-29 0 -29 -29v-551l244 580h-215zM1065 1356v-1082q0 -122 -86 -208t-209 -86h-360q-18 0 -52 4l-39 -90h-243l90 215q-51 74 -51 165v1082q0 123 86 209t209 86h360q14 0 43 -4l55 131h242l-102 -246q57 -76 57 -176z
M1016 2120l-248 -330h-276l210 330h314z" />
    <glyph glyph-name="oslashacute" unicode="&#x1ff;" 
d="M627 266q31 0 30 31v330l-186 -361h156zM467 883q-31 0 -31 -31v-297l172 328h-141zM985 895v-643q0 -113 -80 -193t-192 -79h-332q-27 0 -39 2l-25 -48h-225l80 144q-63 74 -63 174v643q1 113 79 193t193 79h332q14 0 43 -4l4 8l2 -2l20 39h224l-80 -143q59 -72 59 -170
zM965 1622l-248 -330h-277l211 330h314z" />
    <glyph glyph-name="Scommaaccent" unicode="&#x218;" horiz-adv-x="1097" 
d="M391 -430v346h297l-45 -346h-252zM408 313q0 -29 28 -28h211q31 0 31 28v119q0 144 -104 235q-56 49 -96 73t-144 80t-172 168q-68 110 -68 255v113q0 123 86 209t209 86h334q123 0 209 -116t86 -286h-328q0 55 -8 75t-33 22h-196q-31 0 -31 -29v-74q0 -49 44 -95t82 -69
t93 -51t61 -33q136 -74 220 -218t84 -345v-158q0 -122 -86 -208t-209 -86h-336q-123 0 -209 86t-86 208v304h328v-265z" />
    <glyph glyph-name="scommaaccent" unicode="&#x219;" horiz-adv-x="1030" 
d="M352 -430v346h297l-45 -346h-252zM403 297q0 -31 31 -31h164q31 0 31 31v33q-1 37 -23 53q-22 15 -36 23t-52 25q-40 17 -68 31t-93 40q-65 27 -93 41q-101 50 -136 104q-52 85 -52 197v37q2 131 80 209t192 77h334q112 0 192 -80t80 -192v-80h-327v37q0 31 -29 31h-164
q-31 0 -31 -31v-16q1 -18 9 -26t15 -17q7 -8 43 -26q36 -17 50 -23q19 -9 146 -64q126 -54 141 -69q16 -15 46 -35t37 -36q7 -15 25 -41q39 -56 39 -180v-53q0 -123 -78 -205t-194 -81h-334q-112 0 -192 80t-80 192v125h327v-80z" />
    <glyph glyph-name="uni021A" unicode="&#x21a;" horiz-adv-x="1028" 
d="M352 -430v346h297l-45 -346h-252zM18 1638h992v-327h-330v-1311h-328v1311h-334v327z" />
    <glyph glyph-name="uni021B" unicode="&#x21b;" horiz-adv-x="808" 
d="M242 -430v346h297l-45 -346h-252zM483 340q0 -33 29 -33h141v-327h-153q-143 -2 -244 98q-100 100 -100 241v504h-138v324h138v295h327v-295h308v-324h-308v-483z" />
    <glyph glyph-name="dotlessj" unicode="&#x237;" horiz-adv-x="595" 
d="M481 1147v-1231q0 -240 -340 -240h-188v185h141q59 0 60 55v1231h327z" />
    <glyph glyph-name="uni02BC" unicode="&#x2bc;" horiz-adv-x="1257" 
d="M319 1161v410h289l-45 -410h-244z" />
    <glyph glyph-name="circumflex" unicode="&#x2c6;" horiz-adv-x="864" 
d="M561 1583l227 -278h-268l-76 131h-22l-76 -131h-268l229 278h254z" />
    <glyph glyph-name="caron" unicode="&#x2c7;" horiz-adv-x="1026" 
d="M420 1565l76 -131h22l76 131h268l-229 -279h-254l-227 279h268z" />
    <glyph glyph-name="breve" unicode="&#x2d8;" horiz-adv-x="512" 
d="M494 1567q0 -150 -58 -209q-58 -60 -180 -60q-123 0 -180 60t-58 209h203q0 -86 37 -86t37 86h199z" />
    <glyph glyph-name="dotaccent" unicode="&#x2d9;" horiz-adv-x="583" 
d="M292 1251q-71 0 -120 49t-49 120t49 122t119 51t121 -51t51 -122t-50 -120t-121 -49z" />
    <glyph glyph-name="ring" unicode="&#x2da;" horiz-adv-x="657" 
d="M332 1360q74 0 74 94t-74 94t-74 -94t74 -94zM578 1456q0 -108 -71 -168t-179 -61q-108 0 -178 60t-70 168t71 169q71 62 179 62t178 -62q70 -60 70 -168z" />
    <glyph glyph-name="ogonek" unicode="&#x2db;" horiz-adv-x="1220" 
d="M542 -375q-118 0 -178 52t-61 128q0 123 93 181t220 73l29 -135q-90 -8 -90 -63q0 -33 25 -33q35 0 94 47l98 -162q-112 -88 -230 -88z" />
    <glyph glyph-name="tilde" unicode="&#x2dc;" horiz-adv-x="665" 
d="M195 1599q51 1 142 -25t157 -26t127 37v-270q-69 -45 -133 -45t-155 26t-138 25q-84 0 -148 -55v270q63 63 148 63z" />
    <glyph glyph-name="hungarumlaut" unicode="&#x2dd;" horiz-adv-x="966" 
d="M899 1628l-225 -330h-221l190 330h256zM596 1628l-205 -330h-221l190 330h236z" />
    <glyph glyph-name="dotbelowcomb" unicode="&#x323;" horiz-adv-x="0" 
d="M296 -436q-71 0 -120 49t-49 120t49 122t119 51t121 -51t51 -122t-50 -120t-121 -49z" />
    <glyph glyph-name="commaaccentcomb" unicode="&#x326;" horiz-adv-x="0" 
d="M176 -430v346h297l-45 -346h-252z" />
    <glyph glyph-name="tonos" unicode="&#x384;" horiz-adv-x="0" 
d="M725 1645l-104 -330h-312l109 330h307z" />
    <glyph glyph-name="dieresistonos" unicode="&#x385;" horiz-adv-x="0" 
d="M996 1274q-66 0 -112 46t-46 112t47 114t112 49q65 0 111 -50t47 -114q0 -64 -46 -111q-47 -46 -113 -46zM254 1274q-66 0 -113 46t-47 112t47 114t113 49q66 0 114 -50t48 -114q0 -65 -48 -111t-114 -46zM741 1315h-311l109 330h307z" />
    <glyph glyph-name="Alphatonos" unicode="&#x386;" horiz-adv-x="1226" 
d="M668 1311h-115q-25 0 -27 -39l-82 -619h332l-82 619q-2 39 -26 39zM852 1638q32 0 58 -22t30 -47l250 -1569h-328l-43 326h-418l-43 -326h-327l248 1569q5 27 31 49t57 20h485zM227 1638l-104 -329h-311l108 329h307z" />
    <glyph glyph-name="Epsilontonos" unicode="&#x388;" horiz-adv-x="1005" 
d="M449 1311v-305h444v-328h-444v-350h499v-328h-827v1638h827v-327h-499zM100 1638l-104 -329h-311l108 329h307z" />
    <glyph glyph-name="Etatonos" unicode="&#x389;" horiz-adv-x="1185" 
d="M737 1067v571h328v-1638h-328v745h-288v-745h-328v1638h328v-571h288zM98 1638l-104 -329h-311l108 329h307z" />
    <glyph glyph-name="Iotatonos" unicode="&#x38a;" horiz-adv-x="585" 
d="M129 0v1638h328v-1638h-328zM90 1638l-104 -329h-312l109 329h307z" />
    <glyph glyph-name="Omicrontonos" unicode="&#x38c;" horiz-adv-x="1146" 
d="M426 313q0 -29 29 -28h235q31 0 31 28v1004q0 29 -31 29h-235q-29 0 -29 -29v-1004zM125 1638l-105 -329h-311l109 329h307zM98 1356q0 123 86 209t209 86h361q123 0 209 -86t86 -209v-1082q0 -122 -86 -208t-209 -86h-361q-123 0 -209 86t-86 208v1082z" />
    <glyph glyph-name="Upsilontonos" unicode="&#x38e;" horiz-adv-x="1234" 
d="M840 455h-54v-455h-325v455h-47q-96 0 -113 65l-262 1118h336l166 -860q6 -35 20 -35h131q18 0 21 35l155 860h328l-242 -1118q-8 -29 -40 -47t-74 -18zM-2 1638l-104 -329h-312l109 329h307z" />
    <glyph glyph-name="Omegatonos" unicode="&#x38f;" horiz-adv-x="1222" 
d="M158 1638l-105 -329h-311l108 329h308zM1124 0h-401v608h25q16 23 16 47v660q0 31 -31 31h-244q-31 0 -30 -31v-660q0 -25 16 -49h25v-606h-402v328h133v86q-100 82 -100 166v776q0 123 86 209t209 86h371q123 0 209 -86t86 -209v-776q0 -78 -101 -166v-86h133v-328z" />
    <glyph glyph-name="iotadieresistonos" unicode="&#x390;" horiz-adv-x="585" 
d="M129 0v1638h328v-1638h-328zM698 1765q-66 0 -112 46t-47 112q0 66 47 115t112 49q66 0 112 -50q46 -51 46 -115t-46 -111q-46 -46 -112 -46zM-45 1765q-66 0 -113 46t-47 112t47 115t113 49t114 -50q48 -51 48 -115t-48 -110t-114 -47zM549 2136l-105 -330h-311l109 330
h307z" />
    <glyph glyph-name="Alpha" unicode="&#x391;" horiz-adv-x="1226" 
d="M668 1311h-115q-25 0 -27 -39l-82 -619h332l-82 619q-2 39 -26 39zM852 1638q32 0 58 -22t30 -47l250 -1569h-328l-43 326h-418l-43 -326h-327l248 1569q5 27 31 49t57 20h485z" />
    <glyph glyph-name="Beta" unicode="&#x392;" horiz-adv-x="1161" 
d="M629 328q67 0 91 24t23 84v174q0 46 -16 64t-57 18h-221v-364h180zM651 1020q41 0 60 17q18 17 18 57v155q0 41 -18 53t-70 13h-192v-295h202zM635 1638q248 0 335 -78t87 -307v-155q0 -109 -39 -159t-119 -83q80 -18 126 -72t46 -174v-178q0 -256 -89 -344t-345 -88
h-516v1638h514z" />
    <glyph glyph-name="Gamma" unicode="&#x393;" horiz-adv-x="962" 
d="M449 1311v-1311h-328v1638h823v-327h-495z" />
    <glyph glyph-name="Delta" unicode="&#x394;" horiz-adv-x="1234" 
d="M676 1311h-115q-25 0 -26 -39l-125 -944h417l-125 944q-2 39 -26 39zM860 1638q31 0 58 -22t30 -47l250 -1569h-1159l248 1569q5 27 31 49t57 20h485z" />
    <glyph glyph-name="Epsilon" unicode="&#x395;" horiz-adv-x="1009" 
d="M948 1311h-499v-305h444v-328h-444v-350h499v-328h-827v1638h827v-327z" />
    <glyph glyph-name="Zeta" unicode="&#x396;" horiz-adv-x="1058" 
d="M47 1638h965l-508 -1310h508v-328h-965l512 1311h-512v327z" />
    <glyph glyph-name="Eta" unicode="&#x397;" horiz-adv-x="1185" 
d="M449 1067h288v571h328v-1638h-328v745h-288v-745h-328v1638h328v-571z" />
    <glyph glyph-name="Theta" unicode="&#x398;" horiz-adv-x="1146" 
d="M698 702h-249v250h249v-250zM426 313q0 -29 29 -28h235q31 0 31 28v1004q0 29 -31 29h-235q-29 0 -29 -29v-1004zM98 1356q0 123 86 209t209 86h361q123 0 209 -86t86 -209v-1082q0 -122 -86 -208t-209 -86h-361q-123 0 -209 86t-86 208v1082z" />
    <glyph glyph-name="Iota" unicode="&#x399;" horiz-adv-x="585" 
d="M457 0h-328v1638h328v-1638z" />
    <glyph glyph-name="Kappa" unicode="&#x39a;" horiz-adv-x="1247" 
d="M444 1067h179l262 571h346l-361 -725v-18l361 -895h-346l-262 741h-179v-741h-323v1638h323v-571z" />
    <glyph glyph-name="Lambda" unicode="&#x39b;" horiz-adv-x="1234" 
d="M860 1638q31 0 58 -22t30 -47l250 -1569h-328l-168 1272q-2 39 -26 39h-115q-25 0 -26 -39l-168 -1272h-328l248 1569q5 27 31 49t57 20h485z" />
    <glyph glyph-name="Mu" unicode="&#x39c;" horiz-adv-x="1699" 
d="M852 567l115 1071h567l61 -1638h-327l-41 1311h-19l-211 -1291h-292l-211 1291h-19l-43 -1311h-328l64 1638h545z" />
    <glyph glyph-name="Nu" unicode="&#x39d;" horiz-adv-x="1314" 
d="M1194 1638v-1638h-545l-196 1311h-19l15 -1311h-328v1638h547l192 -1310h21l-15 1310h328z" />
    <glyph glyph-name="Xi" unicode="&#x39e;" horiz-adv-x="1345" 
d="M1225 0h-1104v676h328v-350h448v350h328v-676zM1055 741h-766v326h766v-326zM1139 1157h-328v156h-285v-156h-327v481h940v-481z" />
    <glyph glyph-name="Omicron" unicode="&#x39f;" horiz-adv-x="1146" 
d="M426 313q0 -29 29 -28h235q31 0 31 28v1004q0 29 -31 29h-235q-29 0 -29 -29v-1004zM98 1356q0 123 86 209t209 86h361q123 0 209 -86t86 -209v-1082q0 -122 -86 -208t-209 -86h-361q-123 0 -209 86t-86 208v1082z" />
    <glyph glyph-name="Pi" unicode="&#x3a0;" horiz-adv-x="1179" 
d="M731 0v1315h-282v-1315h-328v1638h938v-1638h-328z" />
    <glyph glyph-name="Rho" unicode="&#x3a1;" horiz-adv-x="1107" 
d="M707 971q29 0 28 28v301q0 33 -30 33h-256v-362h258zM768 1638q125 0 210 -80t85 -202v-395q0 -123 -86 -209t-209 -86h-319v-666h-328v1638h647z" />
    <glyph glyph-name="Sigma" unicode="&#x3a3;" horiz-adv-x="1110" 
d="M1063 1311h-508l141 -477l-151 -506h510v-328h-961l264 827l-256 811h961v-327z" />
    <glyph glyph-name="Tau" unicode="&#x3a4;" horiz-adv-x="1028" 
d="M18 1638h992v-327h-330v-1311h-328v1311h-334v327z" />
    <glyph glyph-name="Upsilon" unicode="&#x3a5;" horiz-adv-x="1234" 
d="M840 455h-54v-455h-325v455h-47q-96 0 -113 65l-262 1118h336l166 -860q6 -35 20 -35h131q18 0 21 35l155 860h328l-242 -1118q-8 -29 -40 -47t-74 -18z" />
    <glyph glyph-name="Phi" unicode="&#x3a6;" horiz-adv-x="1415" 
d="M989 1112q0 29 -31 29h-86v-652h86q31 0 31 29v594zM545 1141h-90q-29 0 -29 -29v-594q0 -29 29 -29h90v652zM1022 1446q123 0 209 -86t86 -209v-672q0 -123 -86 -209t-209 -86h-150v-184h-327v184h-152q-123 0 -209 86t-86 209v672q0 123 86 209t209 86h152v192h327
v-192h150z" />
    <glyph glyph-name="Chi" unicode="&#x3a7;" horiz-adv-x="1208" 
d="M834 0l-230 618l-229 -618h-336l373 864l-320 774h342l168 -594l172 594h344l-321 -796l372 -842h-335z" />
    <glyph glyph-name="Psi" unicode="&#x3a8;" horiz-adv-x="1406" 
d="M1309 1642v-616q-1 -141 -63 -218t-232 -77h-146v-731h-327v731h-148q-123 0 -209 86t-86 209v616h328v-595q0 -29 31 -29h84v620h327v-620h82q31 0 31 29v595h328z" />
    <glyph glyph-name="Omega" unicode="&#x3a9;" horiz-adv-x="1222" 
d="M1124 328v-328h-401v608h25q16 23 16 47v660q0 31 -31 31h-244q-31 0 -30 -31v-660q0 -25 16 -49h25v-606h-402v328h133v86q-100 82 -100 166v776q0 123 86 209t209 86h371q123 0 209 -86t86 -209v-776q0 -78 -101 -166v-86h133z" />
    <glyph glyph-name="Iotadieresis" unicode="&#x3aa;" horiz-adv-x="585" 
d="M129 0v1638h328v-1638h-328zM512 1765q-64 0 -111 46t-47 112t47 115t111 49t112 -50q46 -51 46 -115t-46 -111q-48 -46 -112 -46zM82 1765q-66 0 -113 46t-47 112t47 115t113 49t114 -50q48 -51 48 -115t-48 -110t-114 -47z" />
    <glyph glyph-name="Upsilondieresis" unicode="&#x3ab;" horiz-adv-x="1234" 
d="M840 455h-54v-455h-325v455h-47q-96 0 -113 65l-262 1118h336l166 -860q6 -35 20 -35h131q18 0 21 35l155 860h328l-242 -1118q-8 -29 -40 -47t-74 -18zM995 1922q0 -64 -46 -110q-47 -46 -111 -47q-64 0 -111 46t-47 112t47 115t111 49t111 -50q46 -51 46 -115z
M408 1765q-66 0 -113 46t-47 112t47 115t113 49t114 -50q48 -51 47 -115q1 -64 -47 -110t-114 -47z" />
    <glyph glyph-name="alphatonos" unicode="&#x3ac;" horiz-adv-x="1226" 
d="M668 1311h-115q-25 0 -27 -39l-82 -619h332l-82 619q-2 39 -26 39zM852 1638q32 0 58 -22t30 -47l250 -1569h-328l-43 326h-418l-43 -326h-327l248 1569q5 27 31 49t57 20h485zM227 1638l-104 -329h-311l108 329h307z" />
    <glyph glyph-name="epsilontonos" unicode="&#x3ad;" horiz-adv-x="1005" 
d="M449 1006h444v-328h-444v-350h499v-328h-827v1638h827v-327h-499v-305zM84 1638l-104 -329h-312l109 329h307z" />
    <glyph glyph-name="etatonos" unicode="&#x3ae;" horiz-adv-x="1185" 
d="M737 1638h328v-1638h-328v745h-288v-745h-328v1638h328v-571h288v571zM74 1638l-105 -329h-311l109 329h307z" />
    <glyph glyph-name="iotatonos" unicode="&#x3af;" horiz-adv-x="585" 
d="M129 0v1638h328v-1638h-328zM82 1638l-105 -329h-311l109 329h307z" />
    <glyph glyph-name="upsilondieresistonos" unicode="&#x3b0;" horiz-adv-x="1234" 
d="M840 455h-54v-455h-325v455h-47q-96 0 -113 65l-262 1118h336l166 -860q6 -35 20 -35h131q18 0 21 35l155 860h328l-242 -1118q-8 -29 -40 -47t-74 -18zM1036 1765q-66 0 -112 46t-47 112q0 66 47 115t112 49q66 0 112 -50q46 -51 46 -115t-46 -111q-46 -46 -112 -46z
M293 1765q-66 0 -113 46t-47 112t47 115t113 49t114 -50q48 -51 48 -115t-48 -110t-114 -47zM887 2136l-105 -330h-311l109 330h307z" />
    <glyph glyph-name="alpha" unicode="&#x3b1;" horiz-adv-x="1226" 
d="M668 1311h-115q-25 0 -27 -39l-82 -619h332l-82 619q-2 39 -26 39zM852 1638q32 0 58 -22t30 -47l250 -1569h-328l-43 326h-418l-43 -326h-327l248 1569q5 27 31 49t57 20h485z" />
    <glyph glyph-name="beta" unicode="&#x3b2;" horiz-adv-x="1161" 
d="M629 328q67 0 91 24t23 84v174q0 46 -16 64t-57 18h-221v-364h180zM651 1020q41 0 60 17q18 17 18 57v155q0 41 -18 53t-70 13h-192v-295h202zM635 1638q248 0 335 -78t87 -307v-155q0 -109 -39 -159t-119 -83q80 -18 126 -72t46 -174v-178q0 -256 -89 -344t-345 -88
h-516v1638h514z" />
    <glyph glyph-name="gamma" unicode="&#x3b3;" horiz-adv-x="962" 
d="M449 0h-328v1638h823v-327h-495v-1311z" />
    <glyph glyph-name="delta" unicode="&#x3b4;" horiz-adv-x="1234" 
d="M676 1311h-115q-25 0 -26 -39l-125 -944h417l-125 944q-2 39 -26 39zM860 1638q31 0 58 -22t30 -47l250 -1569h-1159l248 1569q5 27 31 49t57 20h485z" />
    <glyph glyph-name="epsilon" unicode="&#x3b5;" horiz-adv-x="1005" 
d="M449 1311v-305h444v-328h-444v-350h499v-328h-827v1638h827v-327h-499z" />
    <glyph glyph-name="zeta" unicode="&#x3b6;" horiz-adv-x="1058" 
d="M1012 328v-328h-965l512 1311h-512v327h965l-508 -1310h508z" />
    <glyph glyph-name="eta" unicode="&#x3b7;" horiz-adv-x="1185" 
d="M737 1067v571h328v-1638h-328v745h-288v-745h-328v1638h328v-571h288z" />
    <glyph glyph-name="theta" unicode="&#x3b8;" horiz-adv-x="1146" 
d="M449 702v250h249v-250h-249zM426 313q0 -29 29 -28h235q31 0 31 28v1004q0 29 -31 29h-235q-29 0 -29 -29v-1004zM98 1356q0 123 86 209t209 86h361q123 0 209 -86t86 -209v-1082q0 -122 -86 -208t-209 -86h-361q-123 0 -209 86t-86 208v1082z" />
    <glyph glyph-name="iota" unicode="&#x3b9;" horiz-adv-x="585" 
d="M457 0h-328v1638h328v-1638z" />
    <glyph glyph-name="kappa" unicode="&#x3ba;" horiz-adv-x="1247" 
d="M444 741v-741h-323v1638h323v-571h179l262 571h346l-361 -725v-18l361 -895h-346l-262 741h-179z" />
    <glyph glyph-name="lambda" unicode="&#x3bb;" horiz-adv-x="1234" 
d="M860 1638q31 0 58 -22t30 -47l250 -1569h-328l-168 1272q-2 39 -26 39h-115q-25 0 -26 -39l-168 -1272h-328l248 1569q5 27 31 49t57 20h485z" />
    <glyph glyph-name="mu" unicode="&#x3bc;" horiz-adv-x="1699" 
d="M967 1638h567l61 -1638h-327l-41 1311h-19l-211 -1291h-292l-211 1291h-19l-43 -1311h-328l64 1638h545l139 -1071z" />
    <glyph glyph-name="nu" unicode="&#x3bd;" horiz-adv-x="1314" 
d="M1194 1638v-1638h-545l-196 1311h-19l15 -1311h-328v1638h547l192 -1310h21l-15 1310h328z" />
    <glyph glyph-name="xi" unicode="&#x3be;" horiz-adv-x="1345" 
d="M121 0v676h328v-350h448v350h328v-676h-1104zM289 741v326h766v-326h-766zM811 1157v156h-285v-156h-327v481h940v-481h-328z" />
    <glyph glyph-name="omicron" unicode="&#x3bf;" horiz-adv-x="1146" 
d="M426 313q0 -29 29 -28h235q31 0 31 28v1004q0 29 -31 29h-235q-29 0 -29 -29v-1004zM98 1356q0 123 86 209t209 86h361q123 0 209 -86t86 -209v-1082q0 -122 -86 -208t-209 -86h-361q-123 0 -209 86t-86 208v1082z" />
    <glyph glyph-name="pi" unicode="&#x3c0;" horiz-adv-x="1179" 
d="M731 1315h-282v-1315h-328v1638h938v-1638h-328v1315z" />
    <glyph glyph-name="rho" unicode="&#x3c1;" horiz-adv-x="1107" 
d="M707 971q29 0 28 28v301q0 33 -30 33h-256v-362h258zM768 1638q125 0 210 -80t85 -202v-395q0 -123 -86 -209t-209 -86h-319v-666h-328v1638h647z" />
    <glyph glyph-name="sigmafinal" unicode="&#x3c2;" horiz-adv-x="1110" 
d="M1055 328v-328h-961l264 827l-256 811h961v-327h-508l141 -477l-151 -506h510z" />
    <glyph glyph-name="sigma" unicode="&#x3c3;" horiz-adv-x="1110" 
d="M1055 328v-328h-961l264 827l-256 811h961v-327h-508l141 -477l-151 -506h510z" />
    <glyph glyph-name="tau" unicode="&#x3c4;" horiz-adv-x="1028" 
d="M1010 1638v-327h-330v-1311h-328v1311h-334v327h992z" />
    <glyph glyph-name="upsilon" unicode="&#x3c5;" horiz-adv-x="1234" 
d="M840 455h-54v-455h-325v455h-47q-96 0 -113 65l-262 1118h336l166 -860q6 -35 20 -35h131q18 0 21 35l155 860h328l-242 -1118q-8 -29 -40 -47t-74 -18z" />
    <glyph glyph-name="phi" unicode="&#x3c6;" horiz-adv-x="1415" 
d="M989 1112q0 29 -31 29h-86v-652h86q31 0 31 29v594zM455 1141q-29 0 -29 -29v-594q0 -29 29 -29h90v652h-90zM1022 1446q123 0 209 -86t86 -209v-672q0 -123 -86 -209t-209 -86h-150v-184h-327v184h-152q-123 0 -209 86t-86 209v672q0 123 86 209t209 86h152v192h327
v-192h150z" />
    <glyph glyph-name="chi" unicode="&#x3c7;" horiz-adv-x="1247" 
d="M604 618l-229 -618h-336l373 864l-320 774h342l168 -594l172 594h344l-321 -796l372 -842h-335z" />
    <glyph glyph-name="psi" unicode="&#x3c8;" horiz-adv-x="1406" 
d="M1309 1026q-1 -141 -63 -218t-232 -77h-146v-731h-327v731h-148q-123 0 -209 86t-86 209v616h328v-595q0 -29 31 -29h84v620h327v-620h82q31 0 31 29v595h328v-616z" />
    <glyph glyph-name="omega" unicode="&#x3c9;" horiz-adv-x="1222" 
d="M1124 0h-401v608h25q16 23 16 47v660q0 31 -31 31h-244q-31 0 -30 -31v-660q0 -25 16 -49h25v-606h-402v328h133v86q-100 82 -100 166v776q0 123 86 209t209 86h371q123 0 209 -86t86 -209v-776q0 -78 -101 -166v-86h133v-328z" />
    <glyph glyph-name="iotadieresis" unicode="&#x3ca;" horiz-adv-x="585" 
d="M129 0v1638h328v-1638h-328zM655 1922q0 -64 -46 -110q-47 -46 -111 -47q-64 0 -111 46t-47 112t47 115t111 49t111 -50q46 -51 46 -115zM68 1765q-66 0 -113 46t-47 112t47 115t113 49t114 -50q48 -51 47 -115q1 -64 -47 -110t-114 -47z" />
    <glyph glyph-name="upsilondieresis" unicode="&#x3cb;" horiz-adv-x="1234" 
d="M840 455h-54v-455h-325v455h-47q-96 0 -113 65l-262 1118h336l166 -860q6 -35 20 -35h131q18 0 21 35l155 860h328l-242 -1118q-8 -29 -40 -47t-74 -18zM993 1922q0 -64 -46 -110q-47 -46 -111 -47q-64 0 -111 46t-47 112t47 115t111 49t111 -50q46 -51 46 -115z
M406 1765q-66 0 -113 46t-47 112t47 115t113 49t114 -50q48 -51 47 -115q1 -64 -47 -110t-114 -47z" />
    <glyph glyph-name="omicrontonos" unicode="&#x3cc;" horiz-adv-x="1146" 
d="M426 313q0 -29 29 -28h235q31 0 31 28v1004q0 29 -31 29h-235q-29 0 -29 -29v-1004zM113 1638l-105 -329h-311l108 329h308zM98 1356q0 123 86 209t209 86h361q123 0 209 -86t86 -209v-1082q0 -122 -86 -208t-209 -86h-361q-123 0 -209 86t-86 208v1082z" />
    <glyph glyph-name="upsilontonos" unicode="&#x3cd;" horiz-adv-x="1234" 
d="M840 455h-54v-455h-325v455h-47q-96 0 -113 65l-262 1118h336l166 -860q6 -35 20 -35h131q18 0 21 35l155 860h328l-242 -1118q-8 -29 -40 -47t-74 -18zM12 1638l-104 -329h-311l108 329h307z" />
    <glyph glyph-name="omegatonos" unicode="&#x3ce;" horiz-adv-x="1222" 
d="M133 1638l-104 -329h-312l109 329h307zM723 0v608h25q16 23 16 47v660q0 31 -31 31h-244q-31 0 -30 -31v-660q0 -25 16 -49h25v-606h-402v328h133v86q-100 82 -100 166v776q0 123 86 209t209 86h371q123 0 209 -86t86 -209v-776q0 -78 -101 -166v-86h133v-328h-401z" />
    <glyph glyph-name="uni0401" unicode="&#x401;" horiz-adv-x="1005" 
d="M449 1311v-305h444v-328h-444v-350h499v-328h-827v1638h827v-327h-499zM946 1922q0 -64 -46 -110t-110 -47q-64 0 -112 46q-47 46 -47 112t47 115q48 49 112 49t110 -50q46 -51 46 -115zM358 1765q-66 0 -112 46t-47 112q0 66 47 115q46 49 112 49t114 -50
q48 -51 48 -115t-48 -110t-114 -47z" />
    <glyph glyph-name="uni0402" unicode="&#x402;" horiz-adv-x="1337" 
d="M1024 1167q92 0 150 -58t57 -140v-1053q0 -240 -340 -240h-234v185h187q59 0 59 55v875q0 35 -26 34q-63 0 -197 -53v-772h-328v1311h-334v327h996v-327h-334v-246q252 102 344 102z" />
    <glyph glyph-name="uni0403" unicode="&#x403;" horiz-adv-x="962" 
d="M449 1311v-1311h-328v1638h823v-327h-495zM842 2120l-248 -330h-277l211 330h314z" />
    <glyph glyph-name="uni0404" unicode="&#x404;" horiz-adv-x="1097" 
d="M754 1651q123 0 209 -86t86 -209v-174h-328v123q0 41 -33 41h-233q-29 0 -29 -41v-314h516v-327h-516v-351q0 -29 29 -28h237q29 0 29 28v199h328v-238q0 -122 -86 -208t-209 -86h-361q-123 0 -209 86t-86 208v1082q0 123 86 209t209 86h361z" />
    <glyph glyph-name="uni0405" unicode="&#x405;" horiz-adv-x="1097" 
d="M408 313q0 -29 28 -28h211q31 0 31 28v119q0 144 -104 235q-56 49 -96 73t-144 80t-172 168q-68 110 -68 255v113q0 123 86 209t209 86h334q123 0 209 -116t86 -286h-328q0 55 -8 75t-33 22h-196q-31 0 -31 -29v-74q0 -49 44 -95t82 -69t93 -51t61 -33q136 -74 220 -218
t84 -345v-158q0 -122 -86 -208t-209 -86h-336q-123 0 -209 86t-86 208v304h328v-265z" />
    <glyph glyph-name="uni0406" unicode="&#x406;" horiz-adv-x="585" 
d="M457 0h-328v1638h328v-1638z" />
    <glyph glyph-name="uni0407" unicode="&#x407;" horiz-adv-x="585" 
d="M129 0v1638h328v-1638h-328zM508 1765q-64 0 -111 46t-47 112t47 115t111 49t112 -50q46 -51 46 -115t-46 -111q-48 -46 -112 -46zM78 1765q-66 0 -113 46t-47 112t47 115t113 49t114 -50q48 -51 48 -115t-48 -110t-114 -47z" />
    <glyph glyph-name="uni0408" unicode="&#x408;" horiz-adv-x="1075" 
d="M362 315q0 -31 29 -30h230q29 0 28 30v1323h328v-1364q0 -122 -86 -208t-209 -86h-352q-123 0 -209 86t-86 208v324h327v-283z" />
    <glyph glyph-name="uni0409" unicode="&#x409;" horiz-adv-x="1927" 
d="M1501 791q0 37 -24 36q-19 0 -83 -17t-114 -38v-475q0 -31 31 -31h159q31 0 31 31v494zM1225 -20q-113 0 -193 80t-80 192v1061h-295l-39 -776q-18 -339 -134 -444q-44 -39 -81 -61q-85 -50 -350 -50h-18v327h18q135 2 178 41t50 172l51 1118h948v-575q256 104 345 104
t147 -59t57 -141v-717q2 -113 -78 -193t-195 -79h-331z" />
    <glyph glyph-name="uni040A" unicode="&#x40a;" horiz-adv-x="1724" 
d="M1296 791q0 37 -24 36q-20 0 -84 -17t-113 -38v-475q0 -31 31 -31h160q31 0 30 31v494zM1020 -20q-113 0 -193 80t-79 192v493h-299v-745h-328v1638h328v-571h299v571h327v-573q256 104 345 104q88 0 146 -59t58 -141v-717q2 -113 -78 -193t-194 -79h-332z" />
    <glyph glyph-name="uni040B" unicode="&#x40b;" horiz-adv-x="1337" 
d="M1024 1167q92 0 150 -58t57 -140v-969h-328v791q0 35 -26 34q-63 0 -197 -53v-772h-328v1311h-334v327h996v-327h-334v-246q252 102 344 102z" />
    <glyph glyph-name="uni040C" unicode="&#x40c;" horiz-adv-x="1320" 
d="M444 743v-743h-323v1638h323v-571h162l64 102q156 248 305 349q150 100 311 116v-323q-188 -35 -248 -135l-176 -263v-16l443 -897h-347l-354 743h-160zM1032 2120l-248 -330h-276l211 330h313z" />
    <glyph glyph-name="uni040E" unicode="&#x40e;" horiz-adv-x="1236" 
d="M389 449q-31 -1 -57 21t-31 48l-262 1120h336l172 -825q6 -35 18 -35h129q14 0 21 35l157 825h328l-356 -1638h-332l96 449h-219zM860 2058q0 -150 -57 -209t-180 -59t-181 59q-57 59 -57 209h203q0 -86 37 -86t37 86h198z" />
    <glyph glyph-name="uni040F" unicode="&#x40f;" horiz-adv-x="1179" 
d="M1059 0h-293v-319h-328v319h-317v1638h328v-1314h282v1314h328v-1638z" />
    <glyph glyph-name="uni0410" unicode="&#x410;" horiz-adv-x="1226" 
d="M668 1311h-115q-25 0 -27 -39l-82 -619h332l-82 619q-2 39 -26 39zM852 1638q32 0 58 -22t30 -47l250 -1569h-328l-43 326h-418l-43 -326h-327l248 1569q5 27 31 49t57 20h485z" />
    <glyph glyph-name="uni0411" unicode="&#x411;" horiz-adv-x="1097" 
d="M670 791q0 37 -25 36q-19 0 -83 -17t-113 -38v-475q0 -31 30 -31h160q31 0 31 31v494zM393 -20q-113 0 -193 80t-79 192v1388h799v-327h-471v-248q256 104 345 104t146 -59t57 -141v-717q3 -113 -77 -193t-195 -79h-332z" />
    <glyph glyph-name="uni0412" unicode="&#x412;" horiz-adv-x="1161" 
d="M629 328q67 0 91 24t23 84v174q0 46 -16 64t-57 18h-221v-364h180zM651 1020q41 0 60 17q18 17 18 57v155q0 41 -18 53t-70 13h-192v-295h202zM635 1638q248 0 335 -78t87 -307v-155q0 -109 -39 -159t-119 -83q80 -18 126 -72t46 -174v-178q0 -256 -89 -344t-345 -88
h-516v1638h514z" />
    <glyph glyph-name="uni0413" unicode="&#x413;" horiz-adv-x="962" 
d="M944 1311h-495v-1311h-328v1638h823v-327z" />
    <glyph glyph-name="uni0414" unicode="&#x414;" horiz-adv-x="1572" 
d="M956 1313h-299l-41 -815q-8 -143 -32 -172h372v987zM1556 326v-512h-327v186h-1190v317h14q213 0 230 187l53 1136h948v-1314h272z" />
    <glyph glyph-name="uni0415" unicode="&#x415;" horiz-adv-x="1009" 
d="M948 1311h-499v-305h444v-328h-444v-350h499v-328h-827v1638h827v-327z" />
    <glyph glyph-name="uni0416" unicode="&#x416;" horiz-adv-x="1804" 
d="M1067 743v-743h-330v743h-61l-289 -743h-348l385 897v16l-139 238q-49 92 -99 122t-129 38v323q162 -6 285 -103t268 -362l64 -102h63v571h330v-571h57l70 102q160 267 279 363t274 102v-323q-63 -8 -113 -41t-100 -111l-154 -246v-16l385 -897h-348l-295 743h-55z" />
    <glyph glyph-name="uni0417" unicode="&#x417;" horiz-adv-x="1046" 
d="M653 1638q123 0 209 -86t86 -209v-264q0 -123 -96 -161q106 -39 106 -183v-461q0 -122 -86 -208t-208 -86h-320q-123 0 -209 86t-86 208v301h328v-249q0 -41 33 -41h190q31 0 31 41v348q0 41 -31 41h-407v327h399q29 0 29 41v209q0 31 -29 31h-522v315h583z" />
    <glyph glyph-name="uni0418" unicode="&#x418;" horiz-adv-x="1292" 
d="M1171 0h-327v891l-395 -825v-66h-328v1638h328v-890l395 827v63h327v-1638z" />
    <glyph glyph-name="uni0419" unicode="&#x419;" horiz-adv-x="1292" 
d="M844 0v891l-395 -825v-66h-328v1638h328v-890l395 827v63h327v-1638h-327zM885 2058q1 -150 -57 -209t-181 -59t-180 59t-57 209h202q0 -86 37 -86t37 86h199z" />
    <glyph glyph-name="uni041A" unicode="&#x41a;" horiz-adv-x="1320" 
d="M444 743v-743h-323v1638h323v-571h162l64 102q156 248 305 349q150 100 311 116v-323q-188 -35 -248 -135l-176 -263v-16l443 -897h-347l-354 743h-160z" />
    <glyph glyph-name="uni041B" unicode="&#x41b;" horiz-adv-x="1353" 
d="M1231 0h-328v1313h-246l-39 -776q-18 -339 -134 -444q-44 -39 -81 -61q-85 -50 -350 -50h-18v327h18q135 2 178 41t50 172l51 1118h899v-1640z" />
    <glyph glyph-name="uni041C" unicode="&#x41c;" horiz-adv-x="1699" 
d="M852 567l115 1071h567l61 -1638h-327l-41 1311h-19l-211 -1291h-292l-211 1291h-19l-43 -1311h-328l64 1638h545z" />
    <glyph glyph-name="uni041D" unicode="&#x41d;" horiz-adv-x="1185" 
d="M449 1067h288v571h328v-1638h-328v745h-288v-745h-328v1638h328v-571z" />
    <glyph glyph-name="uni041E" unicode="&#x41e;" horiz-adv-x="1146" 
d="M426 313q0 -29 29 -28h235q31 0 31 28v1004q0 29 -31 29h-235q-29 0 -29 -29v-1004zM98 1356q0 123 86 209t209 86h361q123 0 209 -86t86 -209v-1082q0 -122 -86 -208t-209 -86h-361q-123 0 -209 86t-86 208v1082z" />
    <glyph glyph-name="uni041F" unicode="&#x41f;" horiz-adv-x="1179" 
d="M1059 0h-328v1315h-282v-1315h-328v1638h938v-1638z" />
    <glyph glyph-name="uni0420" unicode="&#x420;" horiz-adv-x="1107" 
d="M707 971q29 0 28 28v301q0 33 -30 33h-256v-362h258zM768 1638q125 0 210 -80t85 -202v-395q0 -123 -86 -209t-209 -86h-319v-666h-328v1638h647z" />
    <glyph glyph-name="uni0421" unicode="&#x421;" horiz-adv-x="1138" 
d="M98 1356q0 123 86 209t209 86h361q123 0 209 -86t86 -209v-258h-328v207q0 41 -33 41h-233q-29 0 -29 -41v-992q0 -29 29 -28h237q29 0 29 28v285h328v-324q0 -122 -86 -208t-209 -86h-361q-123 0 -209 86t-86 208v1082z" />
    <glyph glyph-name="uni0422" unicode="&#x422;" horiz-adv-x="1028" 
d="M18 1638h992v-327h-330v-1311h-328v1311h-334v327z" />
    <glyph glyph-name="uni0423" unicode="&#x423;" horiz-adv-x="1236" 
d="M389 449q-31 -1 -57 21t-31 48l-262 1120h336l172 -825q6 -35 18 -35h129q14 0 21 35l157 825h328l-356 -1638h-332l96 449h-219z" />
    <glyph glyph-name="uni0424" unicode="&#x424;" horiz-adv-x="1415" 
d="M989 1112q0 29 -31 29h-86v-652h86q31 0 31 29v594zM545 489v652h-90q-29 0 -29 -29v-594q0 -29 29 -29h90zM1022 1446q123 0 209 -86t86 -209v-672q0 -123 -86 -209t-209 -86h-150v-184h-327v184h-152q-123 0 -209 86t-86 209v672q0 123 86 209t209 86h152v192h327v-192
h150z" />
    <glyph glyph-name="uni0425" unicode="&#x425;" horiz-adv-x="1208" 
d="M834 0l-230 618l-229 -618h-336l373 864l-320 774h342l168 -594l172 594h344l-321 -796l372 -842h-335z" />
    <glyph glyph-name="uni0426" unicode="&#x426;" horiz-adv-x="1292" 
d="M1274 326v-512h-328v186h-825v1638h328v-1314h282v1314h328v-1312h215z" />
    <glyph glyph-name="uni0427" unicode="&#x427;" horiz-adv-x="1136" 
d="M1016 0h-328v629q-90 -33 -220 -69t-165 -36q-82 0 -139 60t-58 141v913h328v-735q0 -37 27 -37l22 4q145 29 205 52v716h328v-1638z" />
    <glyph glyph-name="uni0428" unicode="&#x428;" horiz-adv-x="1587" 
d="M1464 0h-1343v1638h328v-1312h182v1312h327v-1312h179v1312h327v-1638z" />
    <glyph glyph-name="uni0429" unicode="&#x429;" horiz-adv-x="1705" 
d="M1653 326v-512h-328v186h-1204v1638h328v-1312h182v1312h327v-1312h179v1312h327v-1312h189z" />
    <glyph glyph-name="uni042A" unicode="&#x42a;" horiz-adv-x="1402" 
d="M977 791q0 37 -25 36q-20 0 -84 -17t-112 -38v-475q0 -31 30 -31h160q31 0 31 31v494zM700 -20q-112 0 -192 80t-80 192v1061h-410v327h738v-575q256 104 345 104t146 -59t58 -141v-717q2 -113 -78 -193t-195 -79h-332z" />
    <glyph glyph-name="uni042B" unicode="&#x42b;" horiz-adv-x="1595" 
d="M670 791q0 37 -25 36q-19 0 -83 -17t-113 -38v-475q0 -31 30 -31h160q31 0 31 31v494zM1475 0h-328v1638h328v-1638zM393 -20q-113 0 -193 80t-79 192v1386h328v-573q256 104 345 104t146 -59t57 -141v-717q3 -113 -77 -193t-195 -79h-332z" />
    <glyph glyph-name="uni042C" unicode="&#x42c;" horiz-adv-x="1067" 
d="M647 791q0 37 -24 36q-19 0 -83 -17t-114 -38v-475q0 -31 31 -31h159q31 0 31 31v494zM371 -20q-113 0 -193 80t-80 192v1386h328v-573q256 104 345 104t147 -59t57 -141v-717q2 -113 -79 -193t-194 -79h-331z" />
    <glyph glyph-name="uni042D" unicode="&#x42d;" horiz-adv-x="1097" 
d="M344 1651h361q123 0 209 -86t85 -209v-1082q0 -122 -86 -208t-208 -86h-361q-123 0 -209 86t-86 208v238h328v-199q0 -29 29 -28h237q29 0 29 28v351h-516v327h516v314q0 41 -29 41h-233q-33 0 -33 -41v-123h-328v174q0 123 86 209t209 86z" />
    <glyph glyph-name="uni042E" unicode="&#x42e;" horiz-adv-x="1769" 
d="M1343 1317q0 29 -30 29h-236q-29 0 -28 -29v-1004q0 -29 28 -28h236q31 0 30 28v1004zM1376 1651q123 0 209 -86t86 -209v-1082q0 -122 -86 -208t-209 -86h-360q-123 0 -209 86t-86 208v471h-272v-745h-328v1638h328v-571h272v289q0 123 86 209t209 86h360z" />
    <glyph glyph-name="uni042F" unicode="&#x42f;" horiz-adv-x="1169" 
d="M432 1309v-215q0 -55 33 -74h256v319h-268q-21 1 -21 -30zM106 1356q0 121 85 202t210 80h648v-1638h-328v760h-160l-192 -760h-336l237 795q-74 35 -118 107t-46 161v293z" />
    <glyph glyph-name="uni0430" unicode="&#x430;" horiz-adv-x="1226" 
d="M668 1311h-115q-25 0 -27 -39l-82 -619h332l-82 619q-2 39 -26 39zM852 1638q32 0 58 -22t30 -47l250 -1569h-328l-43 326h-418l-43 -326h-327l248 1569q5 27 31 49t57 20h485z" />
    <glyph glyph-name="uni0431" unicode="&#x431;" horiz-adv-x="1097" 
d="M670 791q0 37 -25 36q-19 0 -83 -17t-113 -38v-475q0 -31 30 -31h160q31 0 31 31v494zM393 -20q-113 0 -193 80t-79 192v1388h799v-327h-471v-248q256 104 345 104t146 -59t57 -141v-717q3 -113 -77 -193t-195 -79h-332z" />
    <glyph glyph-name="uni0432" unicode="&#x432;" horiz-adv-x="1161" 
d="M629 328q67 0 91 24t23 84v174q0 46 -16 64t-57 18h-221v-364h180zM651 1020q41 0 60 17q18 17 18 57v155q0 41 -18 53t-70 13h-192v-295h202zM635 1638q248 0 335 -78t87 -307v-155q0 -109 -39 -159t-119 -83q80 -18 126 -72t46 -174v-178q0 -256 -89 -344t-345 -88
h-516v1638h514z" />
    <glyph glyph-name="uni0433" unicode="&#x433;" horiz-adv-x="962" 
d="M449 1311v-1311h-328v1638h823v-327h-495z" />
    <glyph glyph-name="uni0434" unicode="&#x434;" horiz-adv-x="1572" 
d="M956 1313h-299l-41 -815q-8 -143 -32 -172h372v987zM1556 326v-512h-327v186h-1190v317h14q213 0 230 187l53 1136h948v-1314h272z" />
    <glyph glyph-name="uni0435" unicode="&#x435;" horiz-adv-x="1005" 
d="M449 1311v-305h444v-328h-444v-350h499v-328h-827v1638h827v-327h-499z" />
    <glyph glyph-name="uni0436" unicode="&#x436;" horiz-adv-x="1804" 
d="M1067 743v-743h-330v743h-61l-289 -743h-348l385 897v16l-139 238q-49 92 -99 122t-129 38v323q162 -6 285 -103t268 -362l64 -102h63v571h330v-571h57l70 102q160 267 279 363t274 102v-323q-63 -8 -113 -41t-100 -111l-154 -246v-16l385 -897h-348l-295 743h-55z" />
    <glyph glyph-name="uni0437" unicode="&#x437;" horiz-adv-x="1046" 
d="M653 1638q123 0 209 -86t86 -209v-264q0 -123 -96 -161q106 -39 106 -183v-461q0 -122 -86 -208t-208 -86h-320q-123 0 -209 86t-86 208v301h328v-249q0 -41 33 -41h190q31 0 31 41v348q0 41 -31 41h-407v327h399q29 0 29 41v209q0 31 -29 31h-522v315h583z" />
    <glyph glyph-name="uni0438" unicode="&#x438;" horiz-adv-x="1292" 
d="M844 0v891l-395 -825v-66h-328v1638h328v-890l395 827v63h327v-1638h-327z" />
    <glyph glyph-name="uni0439" unicode="&#x439;" horiz-adv-x="1292" 
d="M449 0h-328v1638h328v-890l395 827v63h327v-1638h-327v891l-395 -825v-66zM891 2058q0 -150 -57 -209q-56 -59 -180 -59t-181 59t-57 209h202q0 -86 37 -86t37 86h199z" />
    <glyph glyph-name="uni043A" unicode="&#x43a;" horiz-adv-x="1320" 
d="M444 743v-743h-323v1638h323v-571h162l64 102q156 248 305 349q150 100 311 116v-323q-188 -35 -248 -135l-176 -263v-16l443 -897h-347l-354 743h-160z" />
    <glyph glyph-name="uni043B" unicode="&#x43b;" horiz-adv-x="1353" 
d="M903 0v1313h-246l-39 -776q-18 -339 -134 -444q-44 -39 -81 -61q-85 -50 -350 -50h-18v327h18q135 2 178 41t50 172l51 1118h899v-1640h-328z" />
    <glyph glyph-name="uni043C" unicode="&#x43c;" horiz-adv-x="1699" 
d="M967 1638h567l61 -1638h-327l-41 1311h-19l-211 -1291h-292l-211 1291h-19l-43 -1311h-328l64 1638h545l139 -1071z" />
    <glyph glyph-name="uni043D" unicode="&#x43d;" horiz-adv-x="1185" 
d="M737 1067v571h328v-1638h-328v745h-288v-745h-328v1638h328v-571h288z" />
    <glyph glyph-name="uni043E" unicode="&#x43e;" horiz-adv-x="1146" 
d="M426 313q0 -29 29 -28h235q31 0 31 28v1004q0 29 -31 29h-235q-29 0 -29 -29v-1004zM98 1356q0 123 86 209t209 86h361q123 0 209 -86t86 -209v-1082q0 -122 -86 -208t-209 -86h-361q-123 0 -209 86t-86 208v1082z" />
    <glyph glyph-name="uni043F" unicode="&#x43f;" horiz-adv-x="1179" 
d="M731 0v1315h-282v-1315h-328v1638h938v-1638h-328z" />
    <glyph glyph-name="uni0440" unicode="&#x440;" horiz-adv-x="1107" 
d="M707 971q29 0 28 28v301q0 33 -30 33h-256v-362h258zM768 1638q125 0 210 -80t85 -202v-395q0 -123 -86 -209t-209 -86h-319v-666h-328v1638h647z" />
    <glyph glyph-name="uni0441" unicode="&#x441;" horiz-adv-x="1138" 
d="M98 1356q0 123 86 209t209 86h361q123 0 209 -86t86 -209v-258h-328v207q0 41 -33 41h-233q-29 0 -29 -41v-992q0 -29 29 -28h237q29 0 29 28v285h328v-324q0 -122 -86 -208t-209 -86h-361q-123 0 -209 86t-86 208v1082z" />
    <glyph glyph-name="uni0442" unicode="&#x442;" horiz-adv-x="1028" 
d="M1010 1638v-327h-330v-1311h-328v1311h-334v327h992z" />
    <glyph glyph-name="uni0443" unicode="&#x443;" horiz-adv-x="1236" 
d="M389 449q-31 -1 -57 21t-31 48l-262 1120h336l172 -825q6 -35 18 -35h129q14 0 21 35l157 825h328l-356 -1638h-332l96 449h-219z" />
    <glyph glyph-name="uni0444" unicode="&#x444;" horiz-adv-x="1415" 
d="M989 1112q0 29 -31 29h-86v-652h86q31 0 31 29v594zM545 1141h-90q-29 0 -29 -29v-594q0 -29 29 -29h90v652zM1022 1446q123 0 209 -86t86 -209v-672q0 -123 -86 -209t-209 -86h-150v-184h-327v184h-152q-123 0 -209 86t-86 209v672q0 123 86 209t209 86h152v192h327
v-192h150z" />
    <glyph glyph-name="uni0445" unicode="&#x445;" horiz-adv-x="1218" 
d="M604 618l-229 -618h-336l373 864l-320 774h342l168 -594l172 594h344l-321 -796l372 -842h-335z" />
    <glyph glyph-name="uni0446" unicode="&#x446;" horiz-adv-x="1292" 
d="M1274 -186h-328v186h-825v1638h328v-1314h282v1314h328v-1312h215v-512z" />
    <glyph glyph-name="uni0447" unicode="&#x447;" horiz-adv-x="1136" 
d="M688 0v629q-90 -33 -220 -69t-165 -36q-82 0 -139 60t-58 141v913h328v-735q0 -37 27 -37l22 4q145 29 205 52v716h328v-1638h-328z" />
    <glyph glyph-name="uni0448" unicode="&#x448;" horiz-adv-x="1587" 
d="M121 0v1638h328v-1312h182v1312h327v-1312h179v1312h327v-1638h-1343z" />
    <glyph glyph-name="uni0449" unicode="&#x449;" horiz-adv-x="1705" 
d="M1653 -186h-328v186h-1204v1638h328v-1312h182v1312h327v-1312h179v1312h327v-1312h189v-512z" />
    <glyph glyph-name="uni044A" unicode="&#x44a;" horiz-adv-x="1402" 
d="M977 791q0 37 -25 36q-20 0 -84 -17t-112 -38v-475q0 -31 30 -31h160q31 0 31 31v494zM700 -20q-112 0 -192 80t-80 192v1061h-410v327h738v-575q256 104 345 104t146 -59t58 -141v-717q2 -113 -78 -193t-195 -79h-332z" />
    <glyph glyph-name="uni044B" unicode="&#x44b;" horiz-adv-x="1593" 
d="M670 791q0 37 -25 36q-19 0 -83 -17t-113 -38v-475q0 -31 30 -31h160q31 0 31 31v494zM1473 0h-328v1638h328v-1638zM393 -20q-113 0 -193 80t-79 192v1386h328v-573q256 104 345 104t146 -59t57 -141v-717q3 -113 -77 -193t-195 -79h-332z" />
    <glyph glyph-name="uni044C" unicode="&#x44c;" horiz-adv-x="1067" 
d="M647 791q0 37 -24 36q-19 0 -83 -17t-114 -38v-475q0 -31 31 -31h159q31 0 31 31v494zM371 -20q-113 0 -193 80t-80 192v1386h328v-573q256 104 345 104t147 -59t57 -141v-717q2 -113 -79 -193t-194 -79h-331z" />
    <glyph glyph-name="uni044D" unicode="&#x44d;" horiz-adv-x="1097" 
d="M344 1651h361q123 0 209 -86t85 -209v-1082q0 -122 -86 -208t-208 -86h-361q-123 0 -209 86t-86 208v238h328v-199q0 -29 29 -28h237q29 0 29 28v351h-516v327h516v314q0 41 -29 41h-233q-33 0 -33 -41v-123h-328v174q0 123 86 209t209 86z" />
    <glyph glyph-name="uni044E" unicode="&#x44e;" horiz-adv-x="1769" 
d="M1343 1317q0 29 -30 29h-236q-29 0 -28 -29v-1004q0 -29 28 -28h236q31 0 30 28v1004zM1376 1651q123 0 209 -86t86 -209v-1082q0 -122 -86 -208t-209 -86h-360q-123 0 -209 86t-86 208v471h-272v-745h-328v1638h328v-571h272v289q0 123 86 209t209 86h360z" />
    <glyph glyph-name="uni044F" unicode="&#x44f;" horiz-adv-x="1169" 
d="M432 1309v-215q0 -55 33 -74h256v319h-268q-21 1 -21 -30zM106 1356q0 121 85 202t210 80h648v-1638h-328v760h-160l-192 -760h-336l237 795q-74 35 -118 107t-46 161v293z" />
    <glyph glyph-name="uni0451" unicode="&#x451;" horiz-adv-x="1005" 
d="M449 1006h444v-328h-444v-350h499v-328h-827v1638h827v-327h-499v-305zM770 1765q-64 0 -111 46t-47 112t47 115t111 49t112 -50q46 -51 46 -115t-46 -111q-48 -46 -112 -46zM340 1765q-66 0 -113 46t-47 112t47 115t113 49t114 -50q48 -51 48 -115t-48 -110t-114 -47z
" />
    <glyph glyph-name="uni0452" unicode="&#x452;" horiz-adv-x="1337" 
d="M1024 1167q92 0 150 -58t57 -140v-1053q0 -240 -340 -240h-234v185h187q59 0 59 55v875q0 35 -26 34q-63 0 -197 -53v-772h-328v1311h-334v327h996v-327h-334v-246q252 102 344 102z" />
    <glyph glyph-name="uni0453" unicode="&#x453;" horiz-adv-x="962" 
d="M449 0h-328v1638h823v-327h-495v-1311zM954 2120l-247 -330h-277l211 330h313z" />
    <glyph glyph-name="uni0454" unicode="&#x454;" horiz-adv-x="1097" 
d="M754 1651q123 0 209 -86t86 -209v-174h-328v123q0 41 -33 41h-233q-29 0 -29 -41v-314h516v-327h-516v-351q0 -29 29 -28h237q29 0 29 28v199h328v-238q0 -122 -86 -208t-209 -86h-361q-123 0 -209 86t-86 208v1082q0 123 86 209t209 86h361z" />
    <glyph glyph-name="uni0455" unicode="&#x455;" horiz-adv-x="1097" 
d="M408 313q0 -29 28 -28h211q31 0 31 28v119q0 144 -104 235q-56 49 -96 73t-144 80t-172 168q-68 110 -68 255v113q0 123 86 209t209 86h334q123 0 209 -116t86 -286h-328q0 55 -8 75t-33 22h-196q-31 0 -31 -29v-74q0 -49 44 -95t82 -69t93 -51t61 -33q136 -74 220 -218
t84 -345v-158q0 -122 -86 -208t-209 -86h-336q-123 0 -209 86t-86 208v304h328v-265z" />
    <glyph glyph-name="uni0456" unicode="&#x456;" horiz-adv-x="585" 
d="M129 0v1638h328v-1638h-328z" />
    <glyph glyph-name="uni0457" unicode="&#x457;" horiz-adv-x="585" 
d="M129 1638h328v-1638h-328v1638zM510 1765q-64 0 -111 46t-47 112t47 115t111 49t112 -50q46 -51 46 -115t-46 -111q-48 -46 -112 -46zM80 1765q-66 0 -113 46t-47 112t47 115t113 49t114 -50q48 -51 48 -115t-48 -110t-114 -47z" />
    <glyph glyph-name="uni0458" unicode="&#x458;" horiz-adv-x="1075" 
d="M362 315q0 -31 29 -30h230q29 0 28 30v1323h328v-1364q0 -122 -86 -208t-209 -86h-352q-123 0 -209 86t-86 208v324h327v-283z" />
    <glyph glyph-name="uni0459" unicode="&#x459;" horiz-adv-x="1927" 
d="M1501 791q0 37 -24 36q-19 0 -83 -17t-114 -38v-475q0 -31 31 -31h159q31 0 31 31v494zM1225 -20q-113 0 -193 80t-80 192v1061h-295l-39 -776q-18 -339 -134 -444q-44 -39 -81 -61q-85 -50 -350 -50h-18v327h18q135 2 178 41t50 172l51 1118h948v-575q256 104 345 104
t147 -59t57 -141v-717q2 -113 -78 -193t-195 -79h-331z" />
    <glyph glyph-name="uni045A" unicode="&#x45a;" horiz-adv-x="1724" 
d="M1296 791q0 37 -24 36q-20 0 -84 -17t-113 -38v-475q0 -31 31 -31h160q31 0 30 31v494zM1020 -20q-113 0 -193 80t-79 192v493h-299v-745h-328v1638h328v-571h299v571h327v-573q256 104 345 104q88 0 146 -59t58 -141v-717q2 -113 -78 -193t-194 -79h-332z" />
    <glyph glyph-name="uni045B" unicode="&#x45b;" horiz-adv-x="1337" 
d="M1024 1167q92 0 150 -58t57 -140v-969h-328v791q0 35 -26 34q-63 0 -197 -53v-772h-328v1311h-334v327h996v-327h-334v-246q252 102 344 102z" />
    <glyph glyph-name="uni045C" unicode="&#x45c;" horiz-adv-x="1320" 
d="M444 743v-743h-323v1638h323v-571h162l64 102q156 248 305 349q150 100 311 116v-323q-188 -35 -248 -135l-176 -263v-16l443 -897h-347l-354 743h-160zM1055 2120l-248 -330h-277l211 330h314z" />
    <glyph glyph-name="uni045E" unicode="&#x45e;" horiz-adv-x="1236" 
d="M389 449q-31 -1 -57 21t-31 48l-262 1120h336l172 -825q6 -35 18 -35h129q14 0 21 35l157 825h328l-356 -1638h-332l96 449h-219zM856 2058q0 -150 -57 -209t-181 -59t-180 59q-57 59 -57 209h203q0 -86 37 -86t36 86h199z" />
    <glyph glyph-name="uni045F" unicode="&#x45f;" horiz-adv-x="1179" 
d="M766 0v-319h-328v319h-317v1638h328v-1314h282v1314h328v-1638h-293z" />
    <glyph glyph-name="Bdotaccent" unicode="&#x1e02;" horiz-adv-x="1161" 
d="M629 328q67 0 91 24t23 84v174q0 46 -16 64t-57 18h-221v-364h180zM651 1020q41 0 60 17q18 17 18 57v155q0 41 -18 53t-70 13h-192v-295h202zM635 1638q248 0 335 -78t87 -307v-155q0 -109 -39 -159t-119 -83q80 -18 126 -72t46 -174v-178q0 -256 -89 -344t-345 -88
h-516v1638h514zM574 1743q-72 0 -120 49t-48 120t49 122t119 51t120 -51q51 -51 51 -122t-50 -120t-121 -49z" />
    <glyph glyph-name="bdotaccent" unicode="&#x1e03;" horiz-adv-x="1067" 
d="M647 791q0 37 -24 36q-19 0 -83 -17t-114 -38v-475q0 -31 31 -31h159q31 0 31 31v494zM371 -20q-113 0 -193 80t-80 192v1315h328v-502q256 104 345 104t147 -59t57 -141v-717q2 -113 -79 -193t-194 -79h-331zM681 1251q-71 0 -120 49t-49 120t49 122t119 51t121 -51
t51 -122t-50 -120t-121 -49z" />
    <glyph glyph-name="Ddotaccent" unicode="&#x1e0a;" horiz-adv-x="1169" 
d="M715 305q29 0 28 31v967q0 31 -28 30h-266v-1028h266zM776 1638q125 0 210 -80t85 -202v-1061q0 -123 -86 -209t-209 -86h-655v1638h655zM580 2085q70 0 120 -51t52 -122q0 -71 -50 -120t-121 -49t-120 49t-49 120t49 122t119 51z" />
    <glyph glyph-name="ddotaccent" unicode="&#x1e0b;" horiz-adv-x="1075" 
d="M641 850q0 31 -31 31h-161q-31 0 -31 -31v-494q0 -35 26 -34q63 0 197 53v475zM969 0h-328v82q-252 -102 -344 -102t-150 58q-57 58 -57 140v719q0 113 80 193t192 79h279v396h328v-1565zM357 1251q-71 0 -119 49t-50 120q0 71 50 122t118 51q70 0 121 -51t51 -122
t-50 -120t-121 -49z" />
    <glyph glyph-name="Ddotbelow" unicode="&#x1e0c;" horiz-adv-x="1169" 
d="M595 -436q-71 0 -120 49t-49 120t49 122t119 51t121 -51t51 -122t-50 -120t-121 -49zM715 305q29 0 28 31v967q0 31 -28 30h-266v-1028h266zM776 1638q125 0 210 -80t85 -202v-1061q0 -123 -86 -209t-209 -86h-655v1638h655z" />
    <glyph glyph-name="ddotbelow" unicode="&#x1e0d;" horiz-adv-x="1075" 
d="M507 -436q-71 0 -120 49t-49 120t49 122t119 51t121 -51t51 -122t-50 -120t-121 -49zM641 850q0 31 -31 31h-161q-31 0 -31 -31v-494q0 -35 26 -34q63 0 197 53v475zM969 0h-328v82q-252 -102 -344 -102t-150 58q-57 58 -57 140v719q0 113 80 193t192 79h279v396h328
v-1565z" />
    <glyph glyph-name="Fdotaccent" unicode="&#x1e1e;" horiz-adv-x="968" 
d="M950 1272h-501v-205h444v-328h-444v-739h-328v1638h829v-366zM521 1743q-71 0 -120 49t-49 120t49 122t119 51t121 -51t51 -122t-50 -120t-121 -49z" />
    <glyph glyph-name="fdotaccent" unicode="&#x1e1f;" horiz-adv-x="669" 
d="M461 1239q-29 0 -29 -31v-61h148v-324h-148v-796q-4 -141 -107 -241t-255 -99v327q35 0 34 41v768h-86v324h86v84q0 139 100 237t245 99h221v-328h-209zM339 1743q-71 0 -120 49t-49 120t49 122t119 51t121 -51t51 -122t-50 -120t-121 -49z" />
    <glyph glyph-name="Hdotbelow" unicode="&#x1e24;" horiz-adv-x="1185" 
d="M595 -436q-71 0 -120 49t-49 120t49 122t119 51t121 -51t51 -122t-50 -120t-121 -49zM449 1067h288v571h328v-1638h-328v745h-288v-745h-328v1638h328v-571z" />
    <glyph glyph-name="hdotbelow" unicode="&#x1e25;" horiz-adv-x="1083" 
d="M587 -436q-71 0 -120 49t-49 120t49 122t119 51t121 -51t51 -122t-50 -120t-121 -49zM778 1167q92 0 150 -58t57 -140v-969h-328v791q0 35 -26 34q-63 0 -197 -53v-772h-328v1567h328v-502q252 102 344 102z" />
    <glyph glyph-name="Mdotaccent" unicode="&#x1e40;" horiz-adv-x="1699" 
d="M852 567l115 1071h567l61 -1638h-327l-41 1311h-19l-211 -1291h-292l-211 1291h-19l-43 -1311h-328l64 1638h545zM859 1743q-71 0 -120 49t-49 120t49 122t119 51t121 -51t51 -122t-50 -120t-121 -49z" />
    <glyph glyph-name="mdotaccent" unicode="&#x1e41;" horiz-adv-x="1499" 
d="M730 1167q106 0 165 -106l4 -6q68 41 159 77q92 36 160 36t125 -59q57 -58 58 -140v-969h-328v791q0 35 -26 34q-35 0 -129 -53v-772h-328v791q0 35 -27 34q-35 0 -129 -53v-772h-328v1147h328v-82q190 102 296 102zM765 1251q-71 0 -120 49t-49 120t49 122t119 51
t121 -51t51 -122t-50 -120t-121 -49z" />
    <glyph glyph-name="Ndotaccent" unicode="&#x1e44;" horiz-adv-x="1314" 
d="M1194 1638v-1638h-545l-196 1311h-19l15 -1311h-328v1638h547l192 -1310h21l-15 1310h328zM656 1743q-72 0 -120 49t-48 120t48 122q50 51 120 51t120 -51q51 -51 51 -122t-50 -120t-121 -49z" />
    <glyph glyph-name="ndotaccent" unicode="&#x1e45;" horiz-adv-x="1083" 
d="M778 1167q92 0 150 -58t57 -140v-969h-328v791q0 35 -26 34q-63 0 -197 -53v-772h-328v1147h328v-82q252 102 344 102zM542 1251q-71 0 -120 49t-49 120t49 122t119 51t121 -51t51 -122t-50 -120t-121 -49z" />
    <glyph glyph-name="Pdotaccent" unicode="&#x1e56;" horiz-adv-x="1107" 
d="M707 971q29 0 28 28v301q0 33 -30 33h-256v-362h258zM768 1638q125 0 210 -80t85 -202v-395q0 -123 -86 -209t-209 -86h-319v-666h-328v1638h647zM574 1743q-72 0 -120 49t-48 120t49 122t119 51t120 -51q51 -51 51 -122t-50 -120t-121 -49z" />
    <glyph glyph-name="pdotaccent" unicode="&#x1e57;" horiz-adv-x="1075" 
d="M657 791q0 35 -26 34q-63 0 -197 -53v-475q0 -31 31 -31h162q31 0 30 31v494zM778 1167q92 0 150 -58t57 -140v-719q0 -113 -80 -193t-192 -80h-279v-278h-328v1448h328v-82q252 102 344 102zM533 1251q-71 0 -119 49t-49 120q0 71 49 122q48 51 118 51t121 -51t51 -122
t-50 -120t-121 -49z" />
    <glyph glyph-name="Rdotbelow" unicode="&#x1e5a;" horiz-adv-x="1171" 
d="M623 -94q71 0 121 -51t50 -122t-49 -120q-50 -49 -121 -49t-120 49t-49 120t49 122t119 51zM737 1309q0 31 -20 30h-268v-319h256q33 18 32 74v215zM821 1638q100 0 173 -72t73 -173v-295q0 -78 -44 -145t-114 -97q76 -30 124 -96t48 -150v-610h-327v598q0 70 -29 94
h-276v-692h-328v1638h700z" />
    <glyph glyph-name="rdotbelow" unicode="&#x1e5b;" horiz-adv-x="1019" 
d="M277 -436q-71 0 -119 49t-49 120q0 71 49 122q48 51 118 51t121 -51t51 -122t-50 -120t-121 -49zM778 1167q92 0 150 -58t57 -140v-205h-328v27q0 35 -26 34q-63 0 -197 -53v-772h-328v1147h328v-82q252 102 344 102z" />
    <glyph glyph-name="Sdotaccent" unicode="&#x1e60;" horiz-adv-x="1097" 
d="M408 313q0 -29 28 -28h211q31 0 31 28v119q0 144 -104 235q-56 49 -96 73t-144 80t-172 168q-68 110 -68 255v113q0 123 86 209t209 86h334q123 0 209 -116t86 -286h-328q0 55 -8 75t-33 22h-196q-31 0 -31 -29v-74q0 -49 44 -95t82 -69t93 -51t61 -33q136 -74 220 -218
t84 -345v-158q0 -122 -86 -208t-209 -86h-336q-123 0 -209 86t-86 208v304h328v-265zM548 1743q-71 0 -120 49t-49 120t49 122t119 51t121 -51t51 -122t-50 -120t-121 -49z" />
    <glyph glyph-name="sdotaccent" unicode="&#x1e61;" horiz-adv-x="1030" 
d="M403 297q0 -31 31 -31h164q31 0 31 31v33q-1 37 -23 53q-22 15 -36 23t-52 25q-40 17 -68 31t-93 40q-65 27 -93 41q-101 50 -136 104q-52 85 -52 197v37q2 131 80 209t192 77h334q112 0 192 -80t80 -192v-80h-327v37q0 31 -29 31h-164q-31 0 -31 -31v-16q1 -18 9 -26
t15 -17q7 -8 43 -26q36 -17 50 -23q19 -9 146 -64q126 -54 141 -69q16 -15 46 -35t37 -36q7 -15 25 -41q39 -56 39 -180v-53q0 -123 -78 -205t-194 -81h-334q-112 0 -192 80t-80 192v125h327v-80zM515 1251q-71 0 -120 49t-49 120t49 122t119 51t121 -51t51 -122t-50 -120
t-121 -49z" />
    <glyph glyph-name="Sdotbelow" unicode="&#x1e62;" horiz-adv-x="1097" 
d="M554 -436q-71 0 -120 49t-49 120t49 122t119 51t121 -51t51 -122t-50 -120t-121 -49zM408 313q0 -29 28 -28h211q31 0 31 28v119q0 144 -104 235q-56 49 -96 73t-144 80t-172 168q-68 110 -68 255v113q0 123 86 209t209 86h334q123 0 209 -116t86 -286h-328q0 55 -8 75
t-33 22h-196q-31 0 -31 -29v-74q0 -49 44 -95t82 -69t93 -51t61 -33q136 -74 220 -218t84 -345v-158q0 -122 -86 -208t-209 -86h-336q-123 0 -209 86t-86 208v304h328v-265z" />
    <glyph glyph-name="sdotbelow" unicode="&#x1e63;" horiz-adv-x="1030" 
d="M515 -436q-71 0 -120 49t-49 120t49 122t119 51t121 -51t51 -122t-50 -120t-121 -49zM403 297q0 -31 31 -31h164q31 0 31 31v33q-1 37 -23 53q-22 15 -36 23t-52 25q-40 17 -68 31t-93 40q-65 27 -93 41q-101 50 -136 104q-52 85 -52 197v37q2 131 80 209t192 77h334
q112 0 192 -80t80 -192v-80h-327v37q0 31 -29 31h-164q-31 0 -31 -31v-16q1 -18 9 -26t15 -17q7 -8 43 -26q36 -17 50 -23q19 -9 146 -64q126 -54 141 -69q16 -15 46 -35t37 -36q7 -15 25 -41q39 -56 39 -180v-53q0 -123 -78 -205t-194 -81h-334q-112 0 -192 80t-80 192v125
h327v-80z" />
    <glyph glyph-name="Tdotaccent" unicode="&#x1e6a;" horiz-adv-x="1028" 
d="M18 1638h992v-327h-330v-1311h-328v1311h-334v327zM513 1743q-71 0 -120 49t-49 120t49 122t119 51t121 -51t51 -122t-50 -120t-121 -49z" />
    <glyph glyph-name="tdotaccent" unicode="&#x1e6b;" horiz-adv-x="808" 
d="M483 340q0 -33 29 -33h141v-327h-153q-143 -2 -244 98q-100 100 -100 241v504h-138v324h138v295h327v-295h308v-324h-308v-483zM324 2085q70 0 120 -51t52 -122q0 -71 -50 -120t-121 -49t-120 49t-49 120t49 122t119 51z" />
    <glyph glyph-name="Tdotbelow" unicode="&#x1e6c;" horiz-adv-x="1028" 
d="M515 -436q-71 0 -120 49t-49 120t49 122t119 51t121 -51t51 -122t-50 -120t-121 -49zM18 1638h992v-327h-330v-1311h-328v1311h-334v327z" />
    <glyph glyph-name="tdotbelow" unicode="&#x1e6d;" horiz-adv-x="808" 
d="M404 -436q-72 0 -120 49t-48 120t49 122t119 51t120 -51q51 -51 51 -122t-50 -120t-121 -49zM483 340q0 -33 29 -33h141v-327h-153q-143 -2 -244 98q-100 100 -100 241v504h-138v324h138v295h327v-295h308v-324h-308v-483z" />
    <glyph glyph-name="Wgrave" unicode="&#x1e80;" horiz-adv-x="1751" 
d="M432 313q0 -29 29 -28h129q59 0 90 57t31 125v1171h327v-1171q0 -66 32 -124t89 -58h129q31 0 31 28v1325h328v-1364q0 -122 -86 -208t-209 -86h-193q-100 0 -177 59t-108 156q-27 -96 -103 -156q-77 -59 -181 -59h-191q-123 0 -209 86t-86 208v1364h328v-1325zM819 2120
l207 -330h-272l-252 330h317z" />
    <glyph glyph-name="wgrave" unicode="&#x1e81;" horiz-adv-x="1568" 
d="M1470 274q0 -122 -86 -208t-208 -86h-132q-90 0 -160 59t-100 154q-25 -94 -95 -154q-71 -59 -165 -59h-131q-123 0 -209 86t-86 208v873h328v-852q0 -29 29 -29h69q96 0 97 148v733h327v-733q0 -68 25 -108t71 -40h68q31 0 31 29v852h327v-873zM727 1628l207 -330h-272
l-252 330h317z" />
    <glyph glyph-name="Wacute" unicode="&#x1e82;" horiz-adv-x="1751" 
d="M432 313q0 -29 29 -28h129q59 0 90 57t31 125v1171h327v-1171q0 -66 32 -124t89 -58h129q31 0 31 28v1325h328v-1364q0 -122 -86 -208t-209 -86h-193q-100 0 -177 59t-108 156q-27 -96 -103 -156q-77 -59 -181 -59h-191q-123 0 -209 86t-86 208v1364h328v-1325z
M1253 2120l-247 -330h-277l211 330h313z" />
    <glyph glyph-name="wacute" unicode="&#x1e83;" horiz-adv-x="1568" 
d="M1470 274q0 -122 -86 -208t-208 -86h-132q-90 0 -160 59t-100 154q-25 -94 -95 -154q-71 -59 -165 -59h-131q-123 0 -209 86t-86 208v873h328v-852q0 -29 29 -29h69q96 0 97 148v733h327v-733q0 -68 25 -108t71 -40h68q31 0 31 29v852h327v-873zM1163 1628l-248 -330
h-276l211 330h313z" />
    <glyph glyph-name="Wdieresis" unicode="&#x1e84;" horiz-adv-x="1751" 
d="M432 313q0 -29 29 -28h129q59 0 90 57t31 125v1171h327v-1171q0 -66 32 -124t89 -58h129q31 0 31 28v1325h328v-1364q0 -122 -86 -208t-209 -86h-193q-100 0 -177 59t-108 156q-27 -96 -103 -156q-77 -59 -181 -59h-191q-123 0 -209 86t-86 208v1364h328v-1325z
M1249 1922q0 -64 -46 -110q-47 -46 -111 -47q-64 0 -111 46t-47 112t47 115t111 49t111 -50q46 -51 46 -115zM662 1765q-66 0 -113 46t-47 112t47 115t113 49t114 -50q48 -51 47 -115q1 -64 -47 -110t-114 -47z" />
    <glyph glyph-name="wdieresis" unicode="&#x1e85;" horiz-adv-x="1568" 
d="M1470 274q0 -122 -86 -208t-208 -86h-132q-90 0 -160 59t-100 154q-25 -94 -95 -154q-71 -59 -165 -59h-131q-123 0 -209 86t-86 208v873h328v-852q0 -29 29 -29h69q96 0 97 148v733h327v-733q0 -68 25 -108t71 -40h68q31 0 31 29v852h327v-873zM1000 1274q-64 0 -112 46
q-46 46 -46 112t47 114t111 49q64 0 110 -50t47 -114q0 -64 -46 -111q-47 -46 -111 -46zM569 1274q-67 0 -113 46t-46 112t47 114t113 49q66 0 113 -50q48 -50 48 -114q0 -65 -48 -111t-114 -46z" />
    <glyph glyph-name="Zdotbelow" unicode="&#x1e92;" horiz-adv-x="1058" 
d="M537 -94q71 0 121 -51t50 -122t-49 -120q-50 -49 -121 -49t-120 49t-49 120t49 122t119 51zM47 1638h965l-508 -1310h508v-328h-965l512 1311h-512v327z" />
    <glyph glyph-name="zdotbelow" unicode="&#x1e93;" horiz-adv-x="976" 
d="M443 -436q-71 0 -119 49t-50 120q0 71 50 122t118 51q70 0 121 -51t51 -122t-50 -120t-121 -49zM57 827v320h861v-320l-492 -501h498v-326h-871v328l490 499h-486z" />
    <glyph glyph-name="Edotbelow" unicode="&#x1eb8;" horiz-adv-x="1009" 
d="M484 -436q-72 0 -120 49t-48 120t48 122q50 51 120 51t120 -51q51 -51 51 -122t-50 -120t-121 -49zM948 1311h-499v-305h444v-328h-444v-350h499v-328h-827v1638h827v-327z" />
    <glyph glyph-name="edotbelow" unicode="&#x1eb9;" horiz-adv-x="1032" 
d="M517 -436q-71 0 -120 49t-49 120t49 122t119 51t121 -51t51 -122t-50 -120t-121 -49zM641 852q0 31 -29 31h-163q-29 0 -29 -31v-193h221v193zM92 895q0 113 79 193t194 79h331q115 0 194 -80t79 -192v-434h-549v-164q0 -31 31 -31h159q31 0 31 31v82h328v-127
q0 -113 -79 -193t-194 -79h-331q-115 0 -194 80t-79 192v643z" />
    <glyph glyph-name="Etilde" unicode="&#x1ebc;" horiz-adv-x="1009" 
d="M948 1311h-499v-305h444v-328h-444v-350h499v-328h-827v1638h827v-327zM418 2091q51 0 142 -26q92 -25 158 -25t126 37v-271q-68 -45 -132 -45t-156 26q-91 26 -138 25q-84 0 -148 -55v271q63 63 148 63z" />
    <glyph glyph-name="etilde" unicode="&#x1ebd;" horiz-adv-x="1032" 
d="M641 852q0 31 -29 31h-163q-29 0 -29 -31v-193h221v193zM92 895q0 113 79 193t194 79h331q115 0 194 -80t79 -192v-434h-549v-164q0 -31 31 -31h159q31 0 31 31v82h328v-127q0 -113 -79 -193t-194 -79h-331q-115 0 -194 80t-79 192v643zM379 1599q51 1 142 -25t157 -26
t127 37v-270q-69 -45 -133 -45t-155 26t-138 25q-84 0 -148 -55v270q63 63 148 63z" />
    <glyph glyph-name="Idotbelow" unicode="&#x1eca;" horiz-adv-x="585" 
d="M288 -436q-71 0 -120 49t-49 120t49 122t119 51t121 -51t51 -122t-50 -120t-121 -49zM457 0h-328v1638h328v-1638z" />
    <glyph glyph-name="idotbelow" unicode="&#x1ecb;" horiz-adv-x="661" 
d="M275 -436q-71 0 -119 49t-50 120q0 71 50 122t118 51q70 0 121 -51t51 -122t-50 -120t-121 -49zM442 340q0 -33 29 -33h141v-327h-153q-143 -2 -244 98q-100 100 -100 241v828h327v-807zM444 1350h-327v217h327v-217z" />
    <glyph glyph-name="Odotbelow" unicode="&#x1ecc;" horiz-adv-x="1146" 
d="M570 -436q-72 0 -120 49t-48 120t48 122q50 51 120 51t120 -51q51 -51 51 -122t-50 -120t-121 -49zM426 313q0 -29 29 -28h235q31 0 31 28v1004q0 29 -31 29h-235q-29 0 -29 -29v-1004zM98 1356q0 123 86 209t209 86h361q123 0 209 -86t86 -209v-1082q0 -122 -86 -208
t-209 -86h-361q-123 0 -209 86t-86 208v1082z" />
    <glyph glyph-name="odotbelow" unicode="&#x1ecd;" horiz-adv-x="1060" 
d="M537 -94q71 0 121 -51t50 -122t-49 -120q-50 -49 -121 -49t-120 49t-49 120t49 122t119 51zM420 297q0 -31 31 -31h159q31 0 31 31v555q0 31 -31 31h-159q-31 0 -31 -31v-555zM92 895q0 113 79 193t194 79h331q115 0 194 -80t79 -192v-643q0 -113 -80 -193t-193 -79h-331
q-113 0 -193 80t-80 192v643z" />
    <glyph glyph-name="Udotbelow" unicode="&#x1ee4;" horiz-adv-x="1159" 
d="M585 -436q-71 0 -120 49t-49 120t49 122t119 51t121 -51t51 -122t-50 -120t-121 -49zM432 324q0 -39 29 -39h237q29 0 29 39v1314h328v-1364q0 -122 -86 -208t-209 -86h-361q-123 0 -209 86t-86 208v1364h328v-1314z" />
    <glyph glyph-name="udotbelow" unicode="&#x1ee5;" horiz-adv-x="1083" 
d="M537 -94q71 0 121 -51t50 -122t-49 -120q-50 -49 -121 -49t-120 49t-49 120t49 122t119 51zM305 -20q-92 0 -149 58t-58 140v969h328v-791q0 -35 27 -34q63 0 196 53v772h328v-1147h-328v82q-252 -102 -344 -102z" />
    <glyph glyph-name="Ygrave" unicode="&#x1ef2;" horiz-adv-x="1234" 
d="M840 455h-54v-455h-325v455h-47q-96 0 -113 65l-262 1118h336l166 -860q6 -35 20 -35h131q18 0 21 35l155 860h328l-242 -1118q-8 -29 -40 -47t-74 -18zM561 2120l207 -330h-272l-252 330h317z" />
    <glyph glyph-name="ygrave" unicode="&#x1ef3;" horiz-adv-x="1060" 
d="M489 266h91q18 0 20 31l90 850h330l-223 -1466h-314l47 296h-211q-31 0 -57 22t-31 48l-186 1100h330l96 -850q4 -31 18 -31zM475 1628l207 -330h-272l-252 330h317z" />
    <glyph glyph-name="Ytilde" unicode="&#x1ef8;" horiz-adv-x="1234" 
d="M840 455h-54v-455h-325v455h-47q-96 0 -113 65l-262 1118h336l166 -860q6 -35 20 -35h131q18 0 21 35l155 860h328l-242 -1118q-8 -29 -40 -47t-74 -18zM479 2091q51 0 143 -26q92 -25 158 -25t125 37v-271q-68 -45 -132 -45q-63 0 -155 26t-139 25q-84 0 -147 -55v271
q63 63 147 63z" />
    <glyph glyph-name="ytilde" unicode="&#x1ef9;" horiz-adv-x="1060" 
d="M489 266h91q18 0 20 31l90 850h330l-223 -1466h-314l47 296h-211q-31 0 -57 22t-31 48l-186 1100h330l96 -850q4 -31 18 -31zM393 1599q51 1 143 -25t158 -26t125 37v-270q-68 -45 -132 -45q-63 0 -155 26t-139 25q-84 0 -147 -55v270q63 63 147 63z" />
    <glyph glyph-name="endash" unicode="&#x2013;" horiz-adv-x="913" 
d="M895 883v-326h-877v326h877z" />
    <glyph glyph-name="emdash" unicode="&#x2014;" horiz-adv-x="1482" 
d="M1464 883v-326h-1446v326h1446z" />
    <glyph glyph-name="uni2015" unicode="&#x2015;" horiz-adv-x="2084" 
d="M2066 883v-326h-2048v326h2048z" />
    <glyph glyph-name="quoteleft" unicode="&#x2018;" horiz-adv-x="530" 
d="M371 1402q0 -24 22 -48l-151 -154q-150 66 -150 191q0 43 23 106l55 139l270 -53l-57 -131q-12 -26 -12 -50z" />
    <glyph glyph-name="quoteright" unicode="&#x2019;" horiz-adv-x="530" 
d="M147 1399q28 58 -10 98l152 154q150 -66 149 -191q0 -43 -22 -106l-56 -140l-270 54z" />
    <glyph glyph-name="quotesinglbase" unicode="&#x201a;" horiz-adv-x="530" 
d="M147 -141q28 58 -10 98l152 154q150 -66 149 -191q0 -43 -22 -106l-56 -140l-270 54z" />
    <glyph glyph-name="quotedblleft" unicode="&#x201c;" horiz-adv-x="870" 
d="M709 1402q0 -24 22 -48l-151 -154q-150 66 -150 191q0 43 23 106l55 139l270 -53l-57 -131q-12 -26 -12 -50zM371 1402q0 -24 22 -48l-151 -154q-150 66 -150 191q0 43 23 106l55 139l270 -53l-57 -131q-12 -26 -12 -50z" />
    <glyph glyph-name="quotedblright" unicode="&#x201d;" horiz-adv-x="849" 
d="M479 1448q0 24 -22 49l151 154q150 -66 150 -191q0 -43 -23 -106l-55 -140l-270 54l57 131q12 25 12 49zM90 1268l57 131q28 58 -10 98l152 154q150 -66 149 -191q0 -43 -22 -106l-56 -140z" />
    <glyph glyph-name="quotedblbase" unicode="&#x201e;" horiz-adv-x="872" 
d="M432 -285l57 131q28 59 -10 99l152 153q150 -66 149 -190q0 -43 -22 -107l-56 -139zM90 -285l57 131q28 59 -10 99l152 153q150 -66 149 -190q0 -43 -22 -107l-56 -139z" />
    <glyph glyph-name="dagger" unicode="&#x2020;" horiz-adv-x="913" 
d="M98 1055v325h197v248h323v-248h197v-325h-197v-1045h-323v1045h-197z" />
    <glyph glyph-name="daggerdbl" unicode="&#x2021;" horiz-adv-x="913" 
d="M98 268v324h193v465h-193v323h193v248h327v-248h197v-323h-197v-465h197v-324h-197v-258h-327v258h-193z" />
    <glyph glyph-name="bullet" unicode="&#x2022;" horiz-adv-x="583" 
d="M485 639q0 -79 -56 -137t-135 -58t-137 58q-59 58 -59 136q0 79 58 136t137 57q80 0 136 -56t56 -136z" />
    <glyph glyph-name="ellipsis" unicode="&#x2026;" horiz-adv-x="1306" 
d="M866 170q0 70 50 121t120 51t121 -51t51 -121t-51 -120t-121 -50t-120 50t-50 120zM483 170q0 70 49 121t120 51t122 -51t51 -121t-52 -120t-122 -50t-119 50t-49 120zM98 170q0 70 50 121t120 51t121 -51t51 -121t-51 -120t-121 -50t-120 50t-50 120z" />
    <glyph glyph-name="perthousand" unicode="&#x2030;" horiz-adv-x="2738" 
d="M2165 252q0 -29 33 -29h124q33 0 33 29v315q0 29 -33 29h-124q-33 0 -33 -29v-315zM1325 252q0 -29 33 -29h125q33 0 33 29v315q0 29 -33 29h-125q-33 0 -33 -29v-315zM1880 596q0 102 83 173t194 71h206q113 0 195 -71t82 -173v-375q0 -100 -82 -171t-195 -70h-206
q-111 0 -194 72t-83 169v375zM1040 596q0 100 83 172t194 72h207q112 0 194 -71t82 -173v-375q0 -100 -82 -171t-194 -70h-207q-109 0 -193 72t-84 169v375zM539 971q35 0 34 28v316q0 29 -34 28h-123q-33 0 -33 -28v-316q0 -29 33 -28h123zM375 727q-111 0 -194 72t-83 170
v377q0 100 83 171t194 70h207q114 -1 194 -71t80 -170v-377q0 -100 -81 -171t-193 -71h-207zM727 0h-182l653 1634h182z" />
    <glyph glyph-name="guilsinglleft" unicode="&#x2039;" horiz-adv-x="872" 
d="M774 692l-289 -203l289 -202l-268 -117l-445 319l445 324z" />
    <glyph glyph-name="guilsinglright" unicode="&#x203a;" horiz-adv-x="872" 
d="M98 692l273 121l440 -324l-440 -319l-273 117l289 202z" />
    <glyph glyph-name="fraction" unicode="&#x2044;" horiz-adv-x="991" 
d="M322 0h-304l652 1634h305z" />
    <glyph glyph-name="Euro" unicode="&#x20ac;" 
d="M657 526h-190v-213q0 -29 29 -28h219q31 0 30 28v285h328v-324q0 -122 -86 -208t-209 -86h-344q-123 0 -209 86t-86 208v252h-112v252h630v-252zM27 1104h112v188q0 123 86 209t209 86h344q123 0 209 -86t86 -209v-258h-328v207q0 41 -32 41h-217q-29 0 -29 -41v-137h190
v-252h-630v252z" />
    <glyph glyph-name="uni2116" unicode="&#x2116;" horiz-adv-x="2088" 
d="M1997 201h-684v248h684v-248zM1585 985q-12 0 -12 -18v-258q0 -18 12 -19h137q12 0 13 19v258q0 18 -15 18h-135zM1810 1194q68 0 116 -47t48 -117v-385q0 -68 -48 -116t-116 -48h-313q-70 0 -117 48t-47 116v385q0 70 47 117t117 47h313zM1194 0h-555l-172 1311h-18
v-1311h-328v1638h559l168 -1310h18v1310h328v-1638z" />
    <glyph glyph-name="trademark" unicode="&#x2122;" horiz-adv-x="1650" 
d="M971 1640l153 -520l140 520h241l47 -835h-157l-31 629h-23l-157 -623h-123l-164 623h-20l-29 -629h-160l53 835h230zM98 1485v155h531v-155h-187v-680h-157v680h-187z" />
    <glyph glyph-name="minus" unicode="&#x2212;" 
d="M985 883v-326h-870v326h870z" />
    <glyph glyph-name="radical" unicode="&#x221a;" horiz-adv-x="1107" 
d="M1004 1147v-1147h-328v82q-113 -47 -223 -78v-88q0 -240 -340 -240h-160v185h113q59 0 59 55v1231h328v-791q0 -35 26 -34q63 0 197 53v772h328z" />
    <glyph glyph-name="notequal" unicode="&#x2260;" 
d="M909 670v-320h-311l-20 -90h-295l20 90h-110v320h188l22 98h-210v317h286l17 68h295l-17 -68h135v-317h-211l-22 -98h233z" />
    <glyph glyph-name="lessequal" unicode="&#x2264;" 
d="M920 401v-325h-717v325h717zM920 934l-160 -84l160 -64v-346l-738 410l738 434v-350z" />
    <glyph glyph-name="greaterequal" unicode="&#x2265;" 
d="M905 401v-325h-717v325h717zM350 850l-178 84v350l754 -434l-740 -410v346z" />
    <glyph glyph-name="apple" unicode="&#xf8ff;" horiz-adv-x="1331" 
d="M655 289q82 0 133 34q52 34 52 84q1 87 -158 161q-66 32 -132 67t-111 87q-46 52 -46 116q0 110 81 160t170 50q132 1 265 -87l-22 -89q-98 86 -219 86q-74 0 -119 -32t-45 -79q0 -48 47 -85t114 -65q67 -27 133 -59t112 -88t46 -132q0 -109 -91 -165t-209 -56t-281 79
l18 97q135 -84 262 -84zM666 1178q-228 0 -392 -163t-164 -392t162 -393q162 -162 392 -162t393 162q162 162 162 392t-162 393t-391 163zM666 1270q268 0 457 -190t189 -457t-188 -457q-190 -190 -458 -190t-458 188q-190 190 -190 458t190 458t458 190zM666 1339
q-39 0 -58 -2l-184 174h121l119 -125l120 125h123l-184 -174q-18 2 -57 2z" />
    <glyph glyph-name="I.ss01" horiz-adv-x="694" 
d="M184 326v989h-98v325h522v-325h-96v-989h96v-326h-522v326h98z" />
    <glyph glyph-name="Iacute.ss01" horiz-adv-x="694" 
d="M184 1315h-98v325h522v-325h-96v-989h96v-326h-522v326h98v989zM725 2120l-248 -330h-276l211 330h313z" />
    <glyph glyph-name="Ibreve.ss01" horiz-adv-x="694" 
d="M184 1315h-98v325h522v-325h-96v-989h96v-326h-522v326h98v989zM584 2058q0 -150 -58 -209t-180 -59q-123 0 -180 59t-57 209h202q0 -86 37 -86t37 86h199z" />
    <glyph glyph-name="Icircumflex.ss01" horiz-adv-x="694" 
d="M184 1315h-98v325h522v-325h-96v-989h96v-326h-522v326h98v989zM465 2075l227 -279h-268l-76 131h-22l-76 -131h-268l229 279h254z" />
    <glyph glyph-name="Idieresis.ss01" horiz-adv-x="694" 
d="M184 1315h-98v325h522v-325h-96v-989h96v-326h-522v326h98v989zM562 1765q-64 0 -112 46q-46 46 -46 112t46 115q48 49 112 49t110 -50q46 -51 47 -115q0 -64 -46 -111q-47 -46 -111 -46zM131 1765q-66 0 -113 46t-47 112t47 115t113 49t114 -50q48 -51 48 -115t-48 -110
t-114 -47z" />
    <glyph glyph-name="Idotaccent.ss01" horiz-adv-x="694" 
d="M184 1315h-98v325h522v-325h-96v-989h96v-326h-522v326h98v989zM345 1743q-71 0 -120 49t-49 120t49 122t119 51t121 -51t51 -122t-50 -120t-121 -49z" />
    <glyph glyph-name="Idotbelow.ss01" horiz-adv-x="694" 
d="M343 -436q-71 0 -120 49t-49 120t49 122t119 51t121 -51t51 -122t-50 -120t-121 -49zM184 1315h-98v325h522v-325h-96v-989h96v-326h-522v326h98v989z" />
    <glyph glyph-name="Igrave.ss01" horiz-adv-x="694" 
d="M184 1315h-98v325h522v-325h-96v-989h96v-326h-522v326h98v989zM289 2120l207 -330h-273l-252 330h318z" />
    <glyph glyph-name="Imacron.ss01" horiz-adv-x="694" 
d="M184 1315h-98v325h522v-325h-96v-989h96v-326h-522v326h98v989zM612 2030v-248h-532v248h532z" />
    <glyph glyph-name="Iogonek.ss01" horiz-adv-x="694" 
d="M503 -299q-117 0 -178 52t-61 123t33 124h-211v326h98v989h-98v325h522v-325h-96v-989h96v-326h-2q-90 -8 -90 -63q0 -33 25 -33q35 0 94 47l98 -162q-113 -88 -230 -88z" />
    <glyph glyph-name="Itilde.ss01" horiz-adv-x="694" 
d="M184 1315h-98v325h522v-325h-96v-989h96v-326h-522v326h98v989zM207 2091q51 0 142 -26q91 -25 157 -25t127 37v-271q-69 -45 -133 -45t-155 26t-138 25q-84 0 -148 -55v271q63 63 148 63z" />
    <glyph glyph-name="M.ss01" horiz-adv-x="1751" 
d="M1319 1325q0 29 -29 29h-129q-59 0 -90 -58t-31 -125v-1171h-327v1171q0 66 -32 124t-89 59h-129q-31 0 -31 -29v-1325h-328v1364q0 123 86 209t209 86h193q100 1 177 -59t108 -156q27 96 103 155q77 59 181 60h191q123 0 209 -86t86 -209v-1364h-328v1325z" />
    <glyph glyph-name="Mdotaccent.ss01" horiz-adv-x="1751" 
d="M1319 1325q0 29 -29 29h-129q-59 0 -90 -58t-31 -125v-1171h-327v1171q0 66 -32 124t-89 59h-129q-31 0 -31 -29v-1325h-328v1364q0 123 86 209t209 86h193q100 1 177 -59t108 -156q27 96 103 155q77 59 181 60h191q123 0 209 -86t86 -209v-1364h-328v1325zM892 1743
q-71 0 -120 49t-49 120t49 122t119 51t121 -51t51 -122t-50 -120t-121 -49z" />
    <glyph glyph-name="R.ss01" horiz-adv-x="1169" 
d="M737 1309q0 31 -20 30h-268v-319h256q33 18 32 74v215zM449 760v-760h-328v1638h647q125 0 210 -80t85 -202v-293q0 -88 -45 -161t-119 -107l238 -795h-336l-193 760h-159z" />
    <glyph glyph-name="Racute.ss01" horiz-adv-x="1169" 
d="M737 1309q0 31 -20 30h-268v-319h256q33 18 32 74v215zM449 760v-760h-328v1638h647q125 0 210 -80t85 -202v-293q0 -88 -45 -161t-119 -107l238 -795h-336l-193 760h-159zM969 2120l-248 -330h-277l211 330h314z" />
    <glyph glyph-name="Rcaron.ss01" horiz-adv-x="1169" 
d="M737 1309q0 31 -20 30h-268v-319h256q33 18 32 74v215zM449 760v-760h-328v1638h647q125 0 210 -80t85 -202v-293q0 -88 -45 -161t-119 -107l238 -795h-336l-193 760h-159zM492 2056l75 -131h23l76 131h268l-229 -278h-254l-228 278h269z" />
    <glyph glyph-name="Rcommaaccent.ss01" horiz-adv-x="1169" 
d="M426 -430v346h297l-45 -346h-252zM737 1309q0 31 -20 30h-268v-319h256q33 18 32 74v215zM449 760v-760h-328v1638h647q125 0 210 -80t85 -202v-293q0 -88 -45 -161t-119 -107l238 -795h-336l-193 760h-159z" />
    <glyph glyph-name="Rdotbelow.ss01" horiz-adv-x="1169" 
d="M591 -436q-71 0 -120 49t-49 120t49 122t119 51t121 -51t51 -122t-50 -120t-121 -49zM737 1309q0 31 -20 30h-268v-319h256q33 18 32 74v215zM449 760v-760h-328v1638h647q125 0 210 -80t85 -202v-293q0 -88 -45 -161t-119 -107l238 -795h-336l-193 760h-159z" />
    <glyph glyph-name="W.ss01" horiz-adv-x="1626" 
d="M1280 0h-315q-37 0 -43 33l-105 1108l-108 -1108q-6 -33 -45 -33h-312q-39 0 -45 33l-268 1605h338l121 -1171l90 1143h465l82 -1123l116 1151h338l-262 -1605q-8 -33 -47 -33z" />
    <glyph glyph-name="Wacute.ss01" horiz-adv-x="1626" 
d="M1280 0h-315q-37 0 -43 33l-105 1108l-108 -1108q-6 -33 -45 -33h-312q-39 0 -45 33l-268 1605h338l121 -1171l90 1143h465l82 -1123l116 1151h338l-262 -1605q-8 -33 -47 -33zM1210 2120l-247 -330h-277l211 330h313z" />
    <glyph glyph-name="Wcircumflex.ss01" horiz-adv-x="1626" 
d="M1280 0h-315q-37 0 -43 33l-105 1108l-108 -1108q-6 -33 -45 -33h-312q-39 0 -45 33l-268 1605h338l121 -1171l90 1143h465l82 -1123l116 1151h338l-262 -1605q-8 -33 -47 -33zM950 2075l228 -279h-269l-75 131h-23l-76 -131h-268l229 279h254z" />
    <glyph glyph-name="Wdieresis.ss01" horiz-adv-x="1626" 
d="M1280 0h-315q-37 0 -43 33l-105 1108l-108 -1108q-6 -33 -45 -33h-312q-39 0 -45 33l-268 1605h338l121 -1171l90 1143h465l82 -1123l116 1151h338l-262 -1605q-8 -33 -47 -33zM1204 1922q0 -64 -46 -110t-110 -47q-64 0 -112 46q-47 46 -47 112t47 115q48 49 112 49
t110 -50q46 -51 46 -115zM616 1765q-66 0 -112 46t-47 112q0 66 47 115q46 49 112 49t114 -50q48 -51 48 -115t-48 -110t-114 -47z" />
    <glyph glyph-name="Wgrave.ss01" horiz-adv-x="1626" 
d="M1280 0h-315q-37 0 -43 33l-105 1108l-108 -1108q-6 -33 -45 -33h-312q-39 0 -45 33l-268 1605h338l121 -1171l90 1143h465l82 -1123l116 1151h338l-262 -1605q-8 -33 -47 -33zM776 2120l207 -330h-272l-252 330h317z" />
    <glyph glyph-name="i.loclTRK" horiz-adv-x="661" 
d="M442 340q0 -33 29 -33h141v-327h-153q-143 -2 -244 98q-100 100 -100 241v828h327v-807zM279 1593q71 0 121 -51t50 -122t-49 -120q-50 -49 -121 -49t-120 49t-49 120t49 122t119 51z" />
    <glyph glyph-name="a.ss01" horiz-adv-x="1087" 
d="M420 365q0 -35 24 -35q33 0 197 80v442q0 31 -31 31h-159q-31 0 -31 -31v-487zM1069 307v-327h-82q-78 -2 -162 43t-129 114q-86 -47 -219 -102t-201 -55t-126 59q-57 59 -58 141v717q0 113 80 193t193 79h331q113 1 193 -79t80 -193v-561q0 -29 26 -29h74z" />
    <glyph glyph-name="aacute.ss01" horiz-adv-x="1087" 
d="M420 365q0 -35 24 -35q33 0 197 80v442q0 31 -31 31h-159q-31 0 -31 -31v-487zM1069 -20h-82q-78 -2 -162 43t-129 114q-86 -47 -219 -102t-201 -55t-126 59q-57 59 -58 141v717q0 113 80 193t193 79h331q113 1 193 -79t80 -193v-561q0 -29 26 -29h74v-327zM907 1622
l-248 -330h-276l211 330h313z" />
    <glyph glyph-name="abreve.ss01" horiz-adv-x="1087" 
d="M420 365q0 -35 24 -35q33 0 197 80v442q0 31 -31 31h-159q-31 0 -31 -31v-487zM1069 -20h-82q-78 -2 -162 43t-129 114q-86 -47 -219 -102t-201 -55t-126 59q-57 59 -58 141v717q0 113 80 193t193 79h331q113 1 193 -79t80 -193v-561q0 -29 26 -29h74v-327zM766 1561
q0 -150 -57 -209q-57 -60 -181 -60t-180 60q-57 60 -57 209h203q0 -86 36 -86t37 86h199z" />
    <glyph glyph-name="acircumflex.ss01" horiz-adv-x="1087" 
d="M420 365q0 -35 24 -35q33 0 197 80v442q0 31 -31 31h-159q-31 0 -31 -31v-487zM1069 -20h-82q-78 -2 -162 43t-129 114q-86 -47 -219 -102t-201 -55t-126 59q-57 59 -58 141v717q0 113 80 193t193 79h331q113 1 193 -79t80 -193v-561q0 -29 26 -29h74v-327zM645 1577
l227 -279h-268l-76 132h-22l-76 -132h-268l229 279h254z" />
    <glyph glyph-name="adieresis.ss01" horiz-adv-x="1087" 
d="M420 365q0 -35 24 -35q33 0 197 80v442q0 31 -31 31h-159q-31 0 -31 -31v-487zM1069 -20h-82q-78 -2 -162 43t-129 114q-86 -47 -219 -102t-201 -55t-126 59q-57 59 -58 141v717q0 113 80 193t193 79h331q113 1 193 -79t80 -193v-561q0 -29 26 -29h74v-327zM744 1589
q64 0 110 -50q46 -51 47 -115q-1 -64 -47 -110t-110 -46t-112 46q-46 46 -46 112t47 114q47 49 111 49zM313 1268q-67 0 -113 46t-46 112t47 114q47 49 113 49t113 -50q48 -51 48 -115t-48 -110t-114 -46z" />
    <glyph glyph-name="agrave.ss01" horiz-adv-x="1087" 
d="M420 365q0 -35 24 -35q33 0 197 80v442q0 31 -31 31h-159q-31 0 -31 -31v-487zM1069 -20h-82q-78 -2 -162 43t-129 114q-86 -47 -219 -102t-201 -55t-126 59q-57 59 -58 141v717q0 113 80 193t193 79h331q113 1 193 -79t80 -193v-561q0 -29 26 -29h74v-327zM471 1622
l207 -330h-272l-252 330h317z" />
    <glyph glyph-name="amacron.ss01" horiz-adv-x="1087" 
d="M420 365q0 -35 24 -35q33 0 197 80v442q0 31 -31 31h-159q-31 0 -31 -31v-487zM1069 -20h-82q-78 -2 -162 43t-129 114q-86 -47 -219 -102t-201 -55t-126 59q-57 59 -58 141v717q0 113 80 193t193 79h331q113 1 193 -79t80 -193v-561q0 -29 26 -29h74v-327zM795 1532
v-248h-533v248h533z" />
    <glyph glyph-name="aogonek.ss01" horiz-adv-x="1087" 
d="M641 852q0 31 -31 31h-159q-31 0 -31 -31v-487q0 -35 24 -35q33 0 197 80v442zM964 -319q-118 0 -179 52q-60 52 -60 128q0 106 82 172q-70 41 -111 104q-86 -47 -219 -102t-201 -55t-126 59q-57 59 -58 141v717q0 113 80 193t193 79h331q113 1 193 -79t80 -193v-561
q0 -29 26 -29h74v-327h-2q-90 -8 -90 -64q0 -33 24 -33q35 0 95 47l98 -161q-112 -88 -230 -88z" />
    <glyph glyph-name="aring.ss01" horiz-adv-x="1087" 
d="M420 365q0 -35 24 -35q33 0 197 80v442q0 31 -31 31h-159q-31 0 -31 -31v-487zM1069 -20h-82q-78 -2 -162 43t-129 114q-86 -47 -219 -102t-201 -55t-126 59q-57 59 -58 141v717q0 113 80 193t193 79h331q113 1 193 -79t80 -193v-561q0 -29 26 -29h74v-327zM530 1354
q74 0 74 94t-74 94t-74 -94t74 -94zM526 1221q-108 0 -178 60t-70 168t71 169t179 61t178 -61q70 -60 70 -168t-70 -169q-72 -60 -180 -60z" />
    <glyph glyph-name="aringacute.ss01" horiz-adv-x="1087" 
d="M420 365q0 -35 24 -35q33 0 197 80v442q0 31 -31 31h-159q-31 0 -31 -31v-487zM1069 -20h-82q-78 -2 -162 43t-129 114q-86 -47 -219 -102t-201 -55t-126 59q-57 59 -58 141v717q0 113 80 193t193 79h331q113 1 193 -79t80 -193v-561q0 -29 26 -29h74v-327zM561 1360
q74 0 74 94t-74 94t-74 -94t74 -94zM807 1456q0 -108 -71 -168q-70 -60 -178 -61q-108 0 -178 60t-71 168q0 108 71 169q71 62 179 62t178 -62q70 -60 70 -168zM952 2079l-247 -330h-277l211 330h313z" />
    <glyph glyph-name="atilde.ss01" horiz-adv-x="1087" 
d="M420 365q0 -35 24 -35q33 0 197 80v442q0 31 -31 31h-159q-31 0 -31 -31v-487zM1069 -20h-82q-78 -2 -162 43t-129 114q-86 -47 -219 -102t-201 -55t-126 59q-57 59 -58 141v717q0 113 80 193t193 79h331q113 1 193 -79t80 -193v-561q0 -29 26 -29h74v-327zM389 1593
q51 1 142 -25t158 -26t126 37v-270q-68 -45 -132 -45q-63 0 -155 26t-139 25q-84 0 -147 -55v270q63 63 147 63z" />
    <glyph glyph-name="g.ss01" horiz-adv-x="1087" 
d="M465 72q-31 0 -31 -31v-100q0 -31 31 -31h162q31 0 30 31v100q0 31 -30 31h-162zM657 852q0 31 -30 31h-162q-31 0 -31 -31v-182q0 -31 31 -31h162q31 0 30 31v182zM1026 999h-80q39 -59 39 -122v-250q0 -113 -80 -193t-192 -80h-138q-43 0 -43 -24t43 -25h138
q123 0 197 -63t75 -166v-172q0 -102 -75 -164t-197 -64h-334q-125 0 -199 62t-74 166v172q0 139 127 200q-16 23 -16 55t25 60q-61 35 -99 98q-37 63 -37 138v268q0 113 80 193t193 79h647v-168z" />
    <glyph glyph-name="gbreve.ss01" horiz-adv-x="1087" 
d="M465 72q-31 0 -31 -31v-100q0 -31 31 -31h162q31 0 30 31v100q0 31 -30 31h-162zM657 852q0 31 -30 31h-162q-31 0 -31 -31v-182q0 -31 31 -31h162q31 0 30 31v182zM985 877v-250q0 -113 -80 -193t-192 -80h-138q-43 0 -43 -24t43 -25h138q123 0 197 -63t75 -166v-172
q0 -102 -75 -164t-197 -64h-334q-125 0 -199 62t-74 166v172q0 139 127 200q-16 23 -16 55t25 60q-61 35 -99 98q-37 63 -37 138v268q0 113 80 193t193 79h647v-168h-80q39 -59 39 -122zM799 1567q1 -150 -57 -209q-58 -60 -181 -60t-180 60t-57 209h202q0 -86 37 -86t37 86
h199z" />
    <glyph glyph-name="gcircumflex.ss01" horiz-adv-x="1087" 
d="M465 72q-31 0 -31 -31v-100q0 -31 31 -31h162q31 0 30 31v100q0 31 -30 31h-162zM657 852q0 31 -30 31h-162q-31 0 -31 -31v-182q0 -31 31 -31h162q31 0 30 31v182zM985 877v-250q0 -113 -80 -193t-192 -80h-138q-43 0 -43 -24t43 -25h138q123 0 197 -63t75 -166v-172
q0 -102 -75 -164t-197 -64h-334q-125 0 -199 62t-74 166v172q0 139 127 200q-16 23 -16 55t25 60q-61 35 -99 98q-37 63 -37 138v268q0 113 80 193t193 79h647v-168h-80q39 -59 39 -122zM680 1583l227 -278h-268l-76 131h-22l-76 -131h-268l229 278h254z" />
    <glyph glyph-name="gcommaaccent.ss01" horiz-adv-x="1087" 
d="M465 72q-31 0 -31 -31v-100q0 -31 31 -31h162q31 0 30 31v100q0 31 -30 31h-162zM657 852q0 31 -30 31h-162q-31 0 -31 -31v-182q0 -31 31 -31h162q31 0 30 31v182zM985 877v-250q0 -113 -80 -193t-192 -80h-138q-43 0 -43 -24t43 -25h138q123 0 197 -63t75 -166v-172
q0 -102 -75 -164t-197 -64h-334q-125 0 -199 62t-74 166v172q0 139 127 200q-16 23 -16 55t25 60q-61 35 -99 98q-37 63 -37 138v268q0 113 80 193t193 79h647v-168h-80q39 -59 39 -122zM428 1262v346h297l-45 -346h-252z" />
    <glyph glyph-name="gdotaccent.ss01" horiz-adv-x="1087" 
d="M465 72q-31 0 -31 -31v-100q0 -31 31 -31h162q31 0 30 31v100q0 31 -30 31h-162zM657 852q0 31 -30 31h-162q-31 0 -31 -31v-182q0 -31 31 -31h162q31 0 30 31v182zM985 877v-250q0 -113 -80 -193t-192 -80h-138q-43 0 -43 -24t43 -25h138q123 0 197 -63t75 -166v-172
q0 -102 -75 -164t-197 -64h-334q-125 0 -199 62t-74 166v172q0 139 127 200q-16 23 -16 55t25 60q-61 35 -99 98q-37 63 -37 138v268q0 113 80 193t193 79h647v-168h-80q39 -59 39 -122zM560 1251q-71 0 -120 49t-49 120t49 122t119 51t121 -51t51 -122t-50 -120t-121 -49z
" />
    <glyph glyph-name="y.ss01" horiz-adv-x="1093" 
d="M987 -47q0 -113 -80 -193t-192 -79h-609v319h523q31 0 30 31v178q-272 -121 -354 -121t-139 59t-57 142v858h327v-682q0 -37 27 -37q33 0 196 68v651h328v-1194z" />
    <glyph glyph-name="yacute.ss01" horiz-adv-x="1093" 
d="M987 -47q0 -113 -80 -193t-192 -79h-609v319h523q31 0 30 31v178q-272 -121 -354 -121t-139 59t-57 142v858h327v-682q0 -37 27 -37q33 0 196 68v651h328v-1194zM930 1628l-248 -330h-276l210 330h314z" />
    <glyph glyph-name="ycircumflex.ss01" horiz-adv-x="1093" 
d="M987 -47q0 -113 -80 -193t-192 -79h-609v319h523q31 0 30 31v178q-272 -121 -354 -121t-139 59t-57 142v858h327v-682q0 -37 27 -37q33 0 196 68v651h328v-1194zM670 1583l227 -278h-268l-76 131h-23l-75 -131h-269l230 278h254z" />
    <glyph glyph-name="ydieresis.ss01" horiz-adv-x="1093" 
d="M987 -47q0 -113 -80 -193t-192 -79h-609v319h523q31 0 30 31v178q-272 -121 -354 -121t-139 59t-57 142v858h327v-682q0 -37 27 -37q33 0 196 68v651h328v-1194zM766 1274q-64 0 -111 46t-47 112t47 114t111 49q64 0 112 -50q46 -50 46 -114t-46 -111q-48 -46 -112 -46z
M336 1274q-66 0 -113 46t-47 112t47 114t113 49q66 0 114 -50t48 -114q0 -65 -48 -111t-114 -46z" />
    <glyph glyph-name="ygrave.ss01" horiz-adv-x="1093" 
d="M987 -47q0 -113 -80 -193t-192 -79h-609v319h523q31 0 30 31v178q-272 -121 -354 -121t-139 59t-57 142v858h327v-682q0 -37 27 -37q33 0 196 68v651h328v-1194zM494 1628l206 -330h-272l-252 330h318z" />
    <glyph glyph-name="ytilde.ss01" horiz-adv-x="1093" 
d="M987 -47q0 -113 -80 -193t-192 -79h-609v319h523q31 0 30 31v178q-272 -121 -354 -121t-139 59t-57 142v858h327v-682q0 -37 27 -37q33 0 196 68v651h328v-1194zM412 1599q51 1 142 -25q92 -26 158 -26t126 37v-270q-68 -45 -132 -45t-156 26q-91 26 -138 25
q-84 0 -148 -55v270q63 63 148 63z" />
    <glyph glyph-name="c_h" horiz-adv-x="2050" 
d="M1746 1167q91 0 148 -58t58 -140v-969h-328v791q0 35 -25 34q-63 0 -196 -53v-520q0 -113 -80 -193t-193 -79h-765q-113 0 -193 80t-80 192v643q0 113 79 193t194 79h331q115 0 194 -80t79 -192v-154h-328v111q0 31 -31 31h-159q-31 0 -31 -31v-555q0 -31 31 -31h593
q31 0 31 31v1270h328v-502q252 102 343 102z" />
    <glyph glyph-name="zero.lf" horiz-adv-x="1075" 
d="M455 1282q-29 0 -29 -29v-940q0 -29 29 -28h161q33 0 33 28v940q0 29 -33 29h-161zM682 1587q123 0 209 -86t86 -209v-1018q0 -122 -86 -208t-209 -86h-289q-123 0 -209 86t-86 208v1018q0 123 86 209t209 86h289z" />
    <glyph glyph-name="one.lf" horiz-adv-x="686" 
d="M565 0h-327v1239h-158v328h485v-1567z" />
    <glyph glyph-name="two.lf" horiz-adv-x="1073" 
d="M696 1589q123 0 209 -96t86 -233v-50q0 -180 -72 -314q-30 -54 -81 -110t-89 -85q-39 -29 -101 -75t-91 -69q-61 -43 -99 -111t-38 -118h571v-328h-909v174q0 438 213 598q35 27 127 87t129 91t75 92t38 134v71q0 37 -31 37h-191q-33 0 -32 -61h-328q0 154 86 260
t209 106h319z" />
    <glyph glyph-name="three.lf" horiz-adv-x="1056" 
d="M948 1026q0 -125 -100 -162q111 -39 110 -182v-408q0 -122 -86 -208t-208 -86h-287q-123 0 -209 86t-86 208v301h328v-249q0 -41 32 -41h158q31 0 31 41v317q0 41 -31 41h-156v303h148q29 0 29 41v225q0 29 -29 29h-154q-29 0 -28 -29v-106h-328v145q0 123 86 209t209 86
h276q123 0 209 -86t86 -209v-266z" />
    <glyph glyph-name="four.lf" horiz-adv-x="1220" 
d="M676 530v709h-27l-184 -709h211zM1004 530h106v-327h-106v-203h-328v203h-658l416 1364h570v-1037z" />
    <glyph glyph-name="five.lf" horiz-adv-x="1071" 
d="M989 1239h-506v-227h211q123 0 209 -86t86 -209v-443q0 -122 -86 -208t-209 -86h-288q-123 0 -209 86t-86 208v304h327v-265q0 -29 29 -28h162q33 0 33 28v342q0 29 -33 29h-473v881h833v-326z" />
    <glyph glyph-name="six.lf" horiz-adv-x="1056" 
d="M455 584q-29 0 -29 -29v-242q0 -29 29 -28h161q33 0 33 28v242q0 29 -33 29h-161zM649 1161v92q0 29 -33 29h-161q-29 0 -29 -29v-364h256q123 0 209 -86t86 -209v-320q0 -122 -86 -208t-209 -86h-289q-123 0 -209 86t-86 208v1018q0 123 86 209t209 86h289
q123 0 209 -86t86 -209v-131h-328z" />
    <glyph glyph-name="seven.lf" horiz-adv-x="923" 
d="M25 1249v328h880l-499 -1577h-326l399 1249h-454z" />
    <glyph glyph-name="eight.lf" horiz-adv-x="1075" 
d="M649 647q0 29 -33 29h-161q-29 0 -29 -29v-334q0 -29 29 -28h161q33 0 33 28v334zM434 1049q0 -29 31 -29h143q31 0 31 29v204q0 29 -31 29h-143q-31 0 -31 -29v-204zM967 1059q0 -135 -123 -201q133 -66 133 -207v-377q0 -122 -86 -208t-209 -86h-289q-123 0 -209 86
t-86 208v377q0 143 135 207q-127 59 -127 201v233q0 123 86 209t209 86h271q123 0 209 -86t86 -209v-233z" />
    <glyph glyph-name="nine.lf" horiz-adv-x="1056" 
d="M602 993q29 0 29 29v242q0 29 -29 28h-162q-31 0 -30 -28v-242q0 -29 30 -29h162zM664 1597q122 0 208 -86t86 -208v-1029q0 -122 -86 -208t-208 -86h-287q-123 0 -209 86t-86 208v134h328v-95q0 -29 30 -28h162q29 0 29 28v375h-254q-123 0 -209 86t-86 209v320
q0 123 86 209t209 85h287z" />
    <glyph glyph-name="commaaccentinvert" horiz-adv-x="1003" 
d="M653 1638v-346h-297l45 346h252z" />
    </font>
</defs>
</svg>
