<?xml version="1.0" standalone="no"?>
<!DOCTYPE svg PUBLIC "-//W3C//DTD SVG 1.1//EN" "http://www.w3.org/Graphics/SVG/1.1/DTD/svg11.dtd" >
<svg>
<metadata>
Created by FontForge 20090914 at Fri May 11 01:45:28 2012
 By www-data
Copyright &#194;&#169; 1994 Miles Inc. All rights reserved.
</metadata>
<defs>
<font id="BenguiatFrisky" horiz-adv-x="1229" >
  <font-face 
    font-family="Benguiat Frisky"
    font-weight="400"
    font-stretch="normal"
    units-per-em="2048"
    panose-1="3 6 8 2 3 4 2 2 2 4"
    ascent="1638"
    descent="-410"
    x-height="774.002"
    cap-height="1458"
    bbox="-197 -688 2039 1935"
    underline-thickness="105"
    underline-position="-355"
    unicode-range="U+0020-U+F004"
  />
<missing-glyph horiz-adv-x="1024" 
d="M128 0v1638h768v-1638h-768zM256 128h512v1382h-512v-1382z" />
    <glyph glyph-name=".notdef" horiz-adv-x="1024" 
d="M128 0v1638h768v-1638h-768zM256 128h512v1382h-512v-1382z" />
    <glyph glyph-name="space" unicode=" " horiz-adv-x="492" 
 />
    <glyph glyph-name="exclam" unicode="!" horiz-adv-x="547" 
d="M147 422c0 221.333 3.66504 427.666 10.998 618.999c0.666992 22 3.33398 73.667 8.00098 155c4 64.667 6 116.667 6 156c0 4.66699 -3.16699 10.834 -9.5 18.501s-9.5 16.167 -9.5 25.5c0 36 15.333 54 46 54c22.667 0 70.334 -9 143.001 -27
c47.333 -11.333 71.666 -17.333 72.999 -18c30.667 -11.333 46 -28.333 46 -51c0 -10.667 -5.33301 -21.334 -16 -32.001c-14.667 -14.667 -23 -24 -25 -28c-16 -27.333 -27 -77.666 -33 -150.999c-11.333 -130 -22.333 -291.333 -33 -484c-8 -144.667 -12 -214 -12 -208
c0 -11.333 2.66699 -27 8 -47s8 -35 8 -45c0 -20.667 -22.333 -31 -67 -31c4.66699 0 -11.666 4.66699 -48.999 14c-63.333 16 -95 42.667 -95 80zM147.998 -9c0 92 13.9971 147.002 41.9971 165.002c10.667 1.33301 26 4.66602 46 9.99902c0.666992 0 10.334 5 29.001 15
c8.66699 4.66699 20.667 7 36 7c19.333 0 33.666 -4.66699 42.999 -14c12.667 -12.667 20.334 -19.334 23.001 -20.001c7.33301 -2 18 -6.33301 32 -13l21 -39c17.333 -32.667 26 -63.334 26 -92.001c0 -29.333 -23 -60.666 -69 -93.999l-23 -23c-8 -8 -17.667 -12 -29 -12
c-6 0 -16.167 1 -30.5 3s-25.166 3 -32.499 3c-17.333 0 -40.666 12.333 -69.999 37s-44 47 -44 67z" />
    <glyph glyph-name="quotedbl" unicode="&#x22;" horiz-adv-x="614" 
d="M123 778c-9.33301 0 -18.332 5.00195 -26.999 15.002c-3.33301 154 -9.33301 313 -18 477c-2.66699 42.667 -8 77.334 -16 104.001c-6 17.333 -9 23.666 -9 18.999c0 30 15.667 45 47 45c5.33301 0 12 -1.66699 20 -5s13.667 -5.33301 17 -6c56 -6 88 -9 96 -9
c24 0 36 -11.667 36 -35c0 -3.33301 -1.83301 -8.33301 -5.5 -15s-5.5 -12 -5.5 -16c-8 -191.333 -12 -326 -12 -404c0 -14.667 2.16699 -36.334 6.5 -65.001s6.5 -50.334 6.5 -65.001c0 -19.333 -9 -29 -27 -29c-4 0 -10.5 1 -19.5 3s-15.833 3 -20.5 3
c-8 0 -19.833 -2.83301 -35.5 -8.5s-26.834 -8.5 -33.501 -8.5zM409.001 778.002c-9.33301 0 -18.332 5.00195 -26.999 15.002c-3.33301 154 -9.33301 313 -18 477c-2.66699 42.667 -8 77.334 -16 104.001c-6 17.333 -9 23.666 -9 18.999c0 30 15.667 45 47 45
c5.33301 0 12 -1.66699 20 -5s13.667 -5.33301 17 -6c56 -6 88 -9 96 -9c24 0 36 -11.667 36 -35c0 -3.33301 -1.83301 -8.33301 -5.5 -15s-5.5 -12 -5.5 -16c-8 -191.333 -12 -326 -12 -404c0 -14.667 2.16699 -36.334 6.5 -65.001s6.5 -50.334 6.5 -65.001
c0 -19.333 -9 -29 -27 -29c-4 0 -10.5 1 -19.5 3s-15.833 3 -20.5 3c-8 0 -19.833 -2.83301 -35.5 -8.5s-26.834 -8.5 -33.501 -8.5z" />
    <glyph glyph-name="numbersign" unicode="#" horiz-adv-x="758" 
d="M209 203h-86l47 284h-147l12 76h147l41 246h-147l14 78h146l49 284h90l-49 -284h180l49 284h86l-45 -284h139l-14 -78h-141l-41 -246h139l-12 -76h-142l-49 -284h-88l51 284h-180zM492 809h-179l-43 -246h181z" />
    <glyph glyph-name="dollar" unicode="$" horiz-adv-x="778" 
d="M365 1386l-0.00292969 118.994c0 22 13.667 36.333 41 43c22 5.33301 29.333 8 22 8c14 0 21 -8.66699 21 -26v-273c16 -1.33301 37 -6.66602 63 -15.999c68 -24 110.333 -49.333 127 -76c15.333 -23.333 23 -71.666 23 -144.999c0 -53.333 -1.66699 -88 -5 -104
c-9.33301 -40.667 -30.666 -61 -63.999 -61c-56 0 -88.333 16.667 -97 50l-10 147c-6 72.667 -23.333 109 -52 109c-4 0 -9.66699 -1.5 -17 -4.5s-12.666 -4.83301 -15.999 -5.5c-32.667 -5.33301 -60 -35 -82 -89c-19.333 -46 -28.666 -89 -27.999 -129v-38
c0 -78 34 -136.667 102 -176l188 -74c67.333 -27.333 101 -65.666 101 -114.999c0 -32 -13.5 -62.5 -40.5 -91.5s-56.5 -46.167 -88.5 -51.5c-26.667 -4 -69 -8.66699 -127 -14c1.33301 -58.667 2 -106.667 2 -144c0 -115.333 -3.33301 -185 -10 -209
c-4 -12 -11.667 -18 -23 -18c-6.66699 0 -14 6 -22 18c-10 14.667 -16.667 71.667 -20 171c-2.66699 82.667 -3 143.334 -1 182.001c-48.667 0 -121 4.66699 -217 14c-30 6 -45 25.667 -45 59c0 12.667 4.33301 26.834 13 42.501s18.667 23.5 30 23.5
c22 0 56.167 -9.5 102.5 -28.5s87.833 -28.5 124.5 -28.5c97.333 0 146 23 146 69c0 16.667 -35 39.334 -105 68.001l-137 51c-56.667 26.667 -96 64 -118 112c-18.667 39.333 -28 94 -28 164c0 42.667 9.66699 101.667 29 177c30.667 117.333 92.667 176 186 176
c10.667 0 22 -0.666992 34 -2c-1.33301 47.333 -2 86 -2 116z" />
    <glyph glyph-name="percent" unicode="%" 
d="M1092 232c0 -65.333 -13.334 -122.999 -40.001 -172.999c-32.667 -60.667 -79 -91 -139 -91c-14 0 -39.667 3 -77 9c-16.667 2 -41.334 6.33301 -74.001 13c-51.333 16.667 -89.666 41 -114.999 73c-42 55.333 -62.333 113.666 -61 174.999v8
c5.33301 238.667 76.333 358 213 358c-13.333 0 8.33398 -4.66699 65.001 -14c12.667 -1.33301 30.667 -4 54 -8c116 -40 174 -156.667 174 -350zM970.999 268.001c0 52.667 -8 100 -24 142c-22 57.333 -55 86 -99 86c-40.667 0 -71.667 -28.667 -93 -86
c-16 -42 -24 -87.333 -24 -136c0 -148.667 39 -223 117 -223c82 0 123 72.333 123 217zM1023 1458c0 -4 -3.66895 -10.667 -11.002 -20c-9.33301 -12 -14.666 -19 -15.999 -21l-173 -350l-312 -600c-56 -110 -142.667 -270.333 -260 -481c-13.333 -22 -33.333 -33 -60 -33
c-11.333 0 -25.833 9.5 -43.5 28.5s-26.5 34.167 -26.5 45.5c0 8.66699 4.33301 18 13 28c13.333 16 20.333 24.5 21 25.5s53 97.5 157 289.5l326 607l134 248c50.667 96.667 89.334 182 116.001 256c0.666992 7.33301 4.66699 17.333 12 30c10 8 21.667 12 35 12
c20 0 39 -5.66699 57 -17c20.667 -13.333 31 -29.333 31 -48zM591.997 1153c0 -65.333 -13.334 -122.999 -40.001 -172.999c-32.667 -60.667 -79 -91 -139 -91c-14 0 -39.667 3 -77 9c-16.667 2 -41.334 6.33301 -74.001 13c-51.333 16.667 -89.666 41 -114.999 73
c-42 55.333 -62.333 113.666 -61 174.999v8c5.33301 238.667 76.333 358 213 358c-13.333 0 8.33398 -4.66699 65.001 -14c12.667 -1.33301 30.667 -4 54 -8c116 -40 174 -156.667 174 -350zM470.996 1189c0 52.667 -8 100 -24 142c-22 57.333 -55 86 -99 86
c-40.667 0 -71.667 -28.667 -93 -86c-16 -42 -24 -87.333 -24 -136c0 -148.667 39 -223 117 -223c82 0 123 72.333 123 217z" />
    <glyph glyph-name="ampersand" unicode="&#x26;" horiz-adv-x="1233" 
d="M39 195c0 88.667 28.002 175.999 84.002 261.999c18 26.667 76.667 99 176 217c-68 86 -102 196.667 -102 332c0 110 40.833 209.167 122.5 297.5s177.167 132.5 286.5 132.5c68 0 132.333 -16 193 -48c72 -38.667 108 -89 108 -151c0 -76.667 -144.667 -283 -434 -619
c41.333 -62.667 102.666 -128.334 183.999 -197.001l213 -169c60.667 56.667 112 123.334 154 200.001c45.333 82.667 71.333 162 78 238v82c0 25.333 8.66699 38 26 38c30 0 53.667 -25.333 71 -76c13.333 -38 20 -75 20 -111c0 -76 -24.667 -161.667 -74 -257
c-46 -89.333 -99.333 -161.333 -160 -216l123 -84c6.66699 -7.33301 17 -17.666 31 -30.999c6 -5.33301 30.333 -23.666 73 -54.999c14 -10 21 -16.333 21 -19c0 -18 -13 -27 -39 -27c-40.667 0 -89.334 18 -146.001 54c-8 5.33301 -51.333 37.333 -130 96
c-67.333 -54.667 -143 -100.667 -227 -138c-94 -42 -178.333 -63 -253 -63c-76 0 -147.667 19.333 -215 58s-119 91 -155 157c-19.333 35.333 -29 67.666 -29 96.999zM408.002 523.999c-139.333 -176.667 -209.001 -305.667 -209.001 -387c0 -38 13.333 -68 40 -90
s59.667 -33 99 -33c136.667 0 290.334 56 461.001 168c-148 115.333 -278.333 229.333 -391 342zM733.001 1255c0 41.333 -26.668 62.001 -80.001 62.001c-77.333 0 -145.666 -41.333 -204.999 -124c-54 -76 -81 -154.333 -81 -235c0 -82.667 10 -147.334 30 -194.001
l188 233c98.667 130 148 216 148 258z" />
    <glyph glyph-name="quotesingle" unicode="'" horiz-adv-x="492" 
d="M211 778c-9.33301 0 -18.332 5.00195 -26.999 15.002c-3.33301 154 -9.33301 313 -18 477c-2.66699 42.667 -8 77.334 -16 104.001c-6 17.333 -9 23.666 -9 18.999c0 30 15.667 45 47 45c5.33301 0 12 -1.66699 20 -5s13.667 -5.33301 17 -6c56 -6 88 -9 96 -9
c24 0 36 -11.667 36 -35c0 -3.33301 -1.83301 -8.33301 -5.5 -15s-5.5 -12 -5.5 -16c-8 -191.333 -12 -326 -12 -404c0 -14.667 2.16699 -36.334 6.5 -65.001s6.5 -50.334 6.5 -65.001c0 -19.333 -9 -29 -27 -29c-4 0 -10.5 1 -19.5 3s-15.833 3 -20.5 3
c-8 0 -19.833 -2.83301 -35.5 -8.5s-26.834 -8.5 -33.501 -8.5z" />
    <glyph glyph-name="parenleft" unicode="(" horiz-adv-x="492" 
d="M409 1540c21.333 0 39.668 -12.334 55.001 -37.001c14 -22 21 -44.667 21 -68c0 -18.667 -8.66699 -38.334 -26 -59.001c-22.667 -28 -35.667 -45.667 -39 -53c-94.667 -202 -142 -518.667 -142 -950c0 -229.333 29.667 -409.666 89 -540.999
c5.33301 -12.667 27.333 -32.667 66 -60c32 -24 48 -49 48 -75c0 -25.333 -9.33301 -48.166 -28 -68.499s-40.334 -30.5 -65.001 -30.5c-22.667 0 -45.667 7.66699 -69 23c-141.333 94.667 -212 383.667 -212 867c0 168 11.333 344 34 528
c30.667 257.333 75.667 417 135 479c28.667 30 73 45 133 45z" />
    <glyph glyph-name="parenright" unicode=")" horiz-adv-x="492" 
d="M61 1446c0 12 15 24.3311 45 36.998c27.333 10.667 49 16 65 16c61.333 0 100.666 -30 117.999 -90c62.667 -217.333 94 -487.666 94 -810.999c0 -198.667 -14 -380.667 -42 -546c-48 -283.333 -128.667 -425 -242 -425c-16 0 -31.667 9.33301 -47 28s-23 36.667 -23 54
c0 24 13 44 39 60c50.667 30 85.334 96 104.001 198c27.333 147.333 41 305.333 41 474c0 216.667 -4 375 -12 475c-15.333 184.667 -48.333 338 -99 460c-2 5.33301 -10 16 -24 32c-11.333 12.667 -17 25.334 -17 38.001z" />
    <glyph glyph-name="asterisk" unicode="*" horiz-adv-x="492" 
d="M207 1288l16.001 94.999c12 42 30.667 63 56 63c29.333 0 44 -18 44 -54c0 -6 -8.66699 -42.667 -26 -110c68.667 44 108.667 66 120 66c23.333 0 35 -10 35 -30c0 -13.333 -17.333 -32.333 -52 -57l-74 -47c88.667 -38.667 133 -71 133 -97s-15.667 -39 -47 -39
c-24.667 0 -67 21.667 -127 65c4 -37.333 6 -75.666 6 -114.999c0 -38 -16.333 -57 -49 -57c-34.667 0 -52 19 -52 57c0 14.667 3.66699 51 11 109l-58 -57c-26.667 -25.333 -48.334 -38 -65.001 -38c-26.667 0 -40 12.667 -40 38c0 20.667 42 62.667 126 126l-70 37
c-31.333 19.333 -47 38 -47 56c0 29.333 13.667 44 41 44c19.333 0 59 -18.333 119 -55z" />
    <glyph glyph-name="plus" unicode="+" 
d="M678 -20h-135v385h-385v129h385v385h135v-385h383v-129h-383v-385z" />
    <glyph glyph-name="comma" unicode="," horiz-adv-x="492" 
d="M261 275c16.667 0 50.5 -17.832 101.5 -53.499s76.5 -60.5 76.5 -74.5c0 -8.66699 -4.33301 -17.334 -13 -26.001c-70.667 -68 -126 -152.667 -166 -254c-18 -45.333 -37 -113 -57 -203c-4 -17.333 -11.667 -26 -23 -26c-18 0 -44 10.667 -78 32s-51 40 -51 56
c0 13.333 27.667 98.333 83 255c52.667 148.667 85.667 239 99 271c6.66699 15.333 16 23 28 23z" />
    <glyph glyph-name="hyphen" unicode="-" horiz-adv-x="547" 
d="M72 437c0 16 8 23.999 24 23.999c9.33301 0 24 -1.33301 44 -4s35.333 -4 46 -4c26 0 65.333 2.33301 118 7s92 7 118 7c16.667 0 31 -19 43 -57c10 -31.333 15 -58.333 15 -81c0 -19.333 -6.33301 -29 -19 -29c-4.66699 0 -10.5 2.5 -17.5 7.5s-12.833 7.5 -17.5 7.5
c-14 0 -58.333 -3.33301 -133 -10c-12.667 -1.33301 -41 -5.66602 -85 -12.999c-37.333 -6 -64.333 -9 -81 -9s-30.667 22 -42 66c-8.66699 34.667 -13 64 -13 88z" />
    <glyph glyph-name="period" unicode="." horiz-adv-x="492" 
d="M94 95c0 92.667 14.334 147.668 43.001 165.001c10 2 25 5.33301 45 10l30 15c8.66699 4.66699 20.667 7 36 7c19.333 0 33.666 -4.33301 42.999 -13c12 -12.667 19.333 -19.667 22 -21c8 -2 19 -6 33 -12c4.66699 -9.33301 11.667 -22.333 21 -39
c17.333 -33.333 26 -64 26 -92c0 -29.333 -23 -61 -69 -95l-24 -23c-8 -8 -17.333 -12 -28 -12c-6.66699 0 -17 1 -31 3s-24.667 3 -32 3c-17.333 0 -40.333 12.333 -69 37c-30.667 25.333 -46 47.666 -46 66.999z" />
    <glyph glyph-name="slash" unicode="/" horiz-adv-x="614" 
d="M55 -84c-26.667 0 -50.667 7.66797 -72 23.001c-23.333 16.667 -35 38 -35 64c0 12.667 3.66699 28 11 46l128 296l259 624c5.33301 12.667 51.333 130.667 138 354c14.667 32 33.667 79.667 57 143c8 31.333 13 48 15 50c7.33301 10.667 25.333 16 54 16
c77.333 0 116 -16.667 116 -50l-425 -1023c-47.333 -104 -114.333 -260.333 -201 -469c-1.33301 -12.667 -5.33301 -30.334 -12 -53.001c-6.66699 -14 -17.667 -21 -33 -21z" />
    <glyph glyph-name="zero" unicode="0" 
d="M55 672c0 326.667 100.998 583.334 302.998 770.001c24.667 22 66 33 124 33c15.333 0 36.333 -3 63 -9c29.333 -7.33301 50.333 -11.333 63 -12c-6.66699 0.666992 25.666 1 96.999 1c90.667 0 185.334 -42.667 284.001 -128c24.667 -20.667 50.667 -61.667 78 -123
c73.333 -162.667 110 -319.334 110 -470.001c0 -147.333 -19.333 -283 -58 -407c-48 -152.667 -120.667 -265.667 -218 -339c-32.667 -25.333 -74 -38 -124 -38c-20.667 0 -51.834 3.83301 -93.501 11.5s-73.5 11.5 -95.5 11.5c-7.33301 0 -18.166 -0.666992 -32.499 -2
s-25.166 -2 -32.499 -2c-49.333 0 -96.666 14.333 -141.999 43c-217.333 139.333 -326 359.333 -326 660zM1018 682c0 158.667 -25.667 301.999 -77 429.999c-69.333 173.333 -171.333 260 -306 260c-128 0 -228 -89.667 -300 -269c-55.333 -137.333 -83 -281 -83 -431
c0 -90 13 -176.667 39 -260c28.667 -91.333 71 -170.666 127 -237.999c70.667 -84.667 146.334 -127 227.001 -127c121.333 0 217.666 79.667 288.999 239c56 125.333 84 257.333 84 396z" />
    <glyph glyph-name="one" unicode="1" horiz-adv-x="743" 
d="M307 1102l-56.002 -78.001c-28.667 -35.333 -51 -53 -67 -53c-13.333 0 -31.666 10 -54.999 30c0 -0.666992 19.667 32.333 59 99c28 46.667 55.333 106.334 82 179.001c37.333 100.667 60.666 161 69.999 181c6 13.333 13 20 21 20c7.33301 0 14.833 -2.5 22.5 -7.5
s12.834 -7.83301 15.501 -8.5l60 -14c5.33301 -3.33301 19.666 -19 42.999 -47c8 -10 11.667 -19.333 11 -28l-1 -17c-12.667 -239.333 -19 -507 -19 -803c0 -269.333 1.66699 -436 5 -500c0 -9.33301 3.66699 -24.333 11 -45s11 -35.667 11 -45
c0 -2 -6.66699 -5.83301 -20 -11.5s-21.666 -8.5 -24.999 -8.5c-5.33301 0 -11.833 2.5 -19.5 7.5s-13.5 7.83301 -17.5 8.5c-31.333 3.33301 -62.666 6.33301 -93.999 9c-28.667 6.66699 -43 31.667 -43 75c0 278.667 2 631 6 1057z" />
    <glyph glyph-name="two" unicode="2" 
d="M274 774c-41.333 0 -66.332 26.3311 -74.999 78.998c-2 9.33301 -3 52 -3 128c0 53.333 1.66699 104 5 152c6 101.333 56.667 186.333 152 255c88.667 64 186 96 292 96c113.333 0 209 -19.667 287 -59c100 -50.667 150 -127.667 150 -231c0 -120.667 -70 -278 -210 -472
l-333 -425c-29.333 -38.667 -50.333 -67.667 -63 -87c-28 -42.667 -43.333 -73 -46 -91l8 -15c201.333 6 345 9 431 9c136 0 204 -21.333 204 -64c0 -5.33301 -5.33301 -8.66602 -16 -9.99902l-291 -39c-14 -2 -80 -13.333 -198 -34c-87.333 -16 -151 -24 -191 -24
c-26 0 -59.667 13.333 -101 40c-44.667 28.667 -67 55 -67 79c0 40.667 59 137.334 177 290.001c173.333 224 282.666 370.667 327.999 440c118 179.333 177 322 177 428c0 114.667 -52 172 -156 172c-87.333 0 -165 -26.667 -233 -80
c-85.333 -66.667 -129.666 -146 -132.999 -238c-1.33301 -34.667 -2 -109.667 -2 -225c0 -26 -6.33301 -43.667 -19 -53c-16.667 -14 -41.334 -21 -74.001 -21z" />
    <glyph glyph-name="three" unicode="3" 
d="M418 819c0 -10.667 -5.50098 -20.832 -16.501 -30.499s-21.833 -14.5 -32.5 -14.5c-8.66699 0 -17.667 2.33301 -27 7c-11.333 6.66699 -19.666 10.667 -24.999 12c-10.667 -0.666992 -27.667 2 -51 8c-18 10 -32 54 -42 132c-7.33301 54 -11 104 -11 150
c0 100 38 191.333 114 274s163.667 124 263 124c127.333 0 231.666 -36.333 312.999 -109c84.667 -74.667 127 -175 127 -301c0 -116.667 -34.667 -223.334 -104 -320.001c-64 -90 -150.667 -162 -260 -216v-11c106 -34.667 185 -70 237 -106
c82 -57.333 123 -128.333 123 -213c0 -103.333 -52 -179 -156 -227c-77.333 -36 -174.666 -54 -291.999 -54c-74 0 -146.333 11 -217 33c-83.333 25.333 -145.666 60.666 -186.999 105.999c-2 2.66699 -3 6.33398 -3 11.001c0 15.333 4.66699 30.833 14 46.5
s21 23.5 35 23.5c12 0 50.833 -22 116.5 -66s133.167 -66 202.5 -66c72.667 0 137.667 13.667 195 41c73.333 34.667 110 84.667 110 150c0 66.667 -35.333 126 -106 178c-64 48 -131 73.333 -201 76c-37.333 -0.666992 -91.333 2.66602 -162 9.99902
c-21.333 4.66699 -32 18 -32 40c0 20 10.667 34.667 32 44c33.333 10.667 82.333 29 147 55c213.333 104 320 268.667 320 494c0 70 -14 131.333 -42 184c-34.667 64 -84.334 96 -149.001 96c-75.333 0 -138 -33.333 -188 -100c-45.333 -61.333 -68 -130.666 -68 -207.999
c0 -28.667 3.83301 -71 11.5 -127s11.5 -98 11.5 -126z" />
    <glyph glyph-name="four" unicode="4" 
d="M676 1464c38 0 79.665 -4.33301 124.998 -13c64 -12.667 96 -30 96 -52c0 -4 -3.83301 -7.66699 -11.5 -11s-12 -6.5 -13 -9.5s-6.5 -55.5 -16.5 -157.5c-22 -226.667 -33 -460 -33 -700c0 -62 1.33301 -127 4 -195c216.667 0 344.334 -8.33301 383.001 -25
c22 -9.33301 33 -28.333 33 -57c0 -5.33301 -6 -8 -18 -8c-87.333 -2.66699 -217.666 -7 -390.999 -13c0.666992 -15.333 3.66699 -57.666 9 -126.999c4.66699 -52 7 -94.333 7 -127c0 -21.333 -10 -34 -30 -38h-59c-52 0 -77.667 0 -77 0c-30 4.66699 -45 20 -45 46
c0 20.667 0.666992 51.5 2 92.5s2 72.167 2 93.5v50c-196 -15.333 -328.333 -23 -397 -23c-108.667 40 -171 64 -187 72c-6.66699 3.33301 -10 10.333 -10 21c0 7.33301 4 18.666 12 33.999c77.333 146.667 169 331.667 275 555l266 560c8.66699 16.667 19 27 31 31
c4 0.666992 18.333 1 43 1zM650.998 326l6 831l-401 -838z" />
    <glyph glyph-name="five" unicode="5" 
d="M215 809l0.000976562 455.001c0 13.333 -3.66699 32.333 -11 57s-11 43 -11 55c0 24 20.333 38.333 61 43c72.667 8.66699 170 13 292 13c164.667 0 311 -3 439 -9c53.333 -2 80 -16.333 80 -43c0 -4.66699 -7.66699 -14 -23 -28s-26 -21.667 -32 -23
c-53.333 -13.333 -142.333 -22.666 -267 -27.999c-159.333 -7.33301 -252 -12.333 -278 -15c-28 -2.66699 -43.667 -12.334 -47 -29.001c-7.33301 -32.667 -11 -123.334 -11 -272.001c0 -28.667 1.5 -71 4.5 -127s4.5 -98 4.5 -126c0 -4 -4.33301 -30.333 -13 -79
c46 18 106 27 180 27c137.333 0 260.333 -35.333 369 -106c124.667 -80.667 187 -186 187 -316c0 -106 -37 -189 -111 -249c-68.667 -55.333 -157.334 -83 -266.001 -83c-110.667 0 -228.667 14 -354 42c-144 31.333 -253.333 73.333 -328 126c-11.333 8 -17 17.667 -17 29
c0 30 29 45 87 45c8 0 65.5 -23.5 172.5 -70.5s198.833 -70.5 275.5 -70.5c96 0 178.667 21.333 248 64c82 50 123 120 123 210c0 83.333 -39.667 152 -119 206c-70 48.667 -148.667 73 -236 73c-46 0 -89 -12.667 -129 -38c-22.667 -14 -49 -37 -79 -69
c-24 -24.667 -40 -37 -48 -37c-5.33301 0 -26 8 -62 24s-57.667 26.667 -65 32c-11.333 8 -17.333 20 -18 36c-2 36 -2.33301 83 -1 141c2 78 3 124.667 3 140z" />
    <glyph glyph-name="six" unicode="6" 
d="M115 573c0 164 27.667 331.666 83 502.999c70 218 165 349.333 285 394c24.667 9.33301 45.334 14 62.001 14c58 0 135.667 -19.667 233 -59c63.333 -25.333 111.666 -76.666 144.999 -153.999c28 -64.667 42 -136 42 -214c0 -56.667 -19.333 -85 -58 -85
c-38 0 -70.667 7.66699 -98 23c-20 11.333 -32.333 40 -37 86c-9.33301 88 -17.333 144.667 -24 170c-20 76.667 -53 115 -99 115c-43.333 0 -91 -29.667 -143 -89c-40.667 -46 -72.667 -95 -96 -147c-59.333 -128 -96.333 -277.333 -111 -448
c188.667 76.667 347 115 475 115c93.333 0 177.333 -24 252 -72c86 -55.333 129 -127 129 -215c0 -134 -44.667 -262 -134 -384c-97.333 -132 -211 -198 -341 -198c-24 0 -78.667 9.66699 -164 29c-120 26.667 -197 56.667 -231 90c-113.333 110.667 -170 286 -170 526z
M989 521.999c0 58.667 -19.668 106.167 -59.001 142.5s-88.666 54.5 -147.999 54.5c-84 0 -171 -19.333 -261 -58s-162.667 -89 -218 -151c41.333 -329.333 141 -494 299 -494c94.667 0 184.667 62 270 186c78 114 117 220.667 117 320z" />
    <glyph glyph-name="seven" unicode="7" horiz-adv-x="1081" 
d="M756 1290c-324 -8 -538.998 -12 -644.998 -12c-24.667 0 -37 13 -37 39c0 35.333 19 56.333 57 63c221.333 40 424 60 608 60c45.333 0 96.666 -7.33301 153.999 -22c76 -20 114 -45.667 114 -77c0 -4.66699 -1 -9.33398 -3 -14.001
c-134.667 -269.333 -223 -452 -265 -548c-92 -210 -156.667 -401.667 -194 -575c-19.333 -87.333 -29 -151.333 -29 -192c0 -3.33301 1.66699 -8.66602 5 -15.999s5 -14.333 5 -21c0 -8.66699 -10.333 -18 -31 -28s-36.334 -15 -47.001 -15c-27.333 0 -65.333 7 -114 21
c-19.333 5.33301 -29 20.333 -29 45c0 5.33301 11.333 52 34 140c66.667 256.667 205.667 640.667 417 1152z" />
    <glyph glyph-name="eight" unicode="8" horiz-adv-x="1303" 
d="M729 -57c-104.667 0 -208.999 28.001 -312.999 84.001c-122 66 -183 147 -183 243c0 63.333 22 127 66 191c14 20.667 57.667 73 131 157c-132.667 115.333 -207.667 181.333 -225 198c-97.333 97.333 -146 177 -146 239c0 122 118 224.333 354 307
c187.333 65.333 357.666 98 510.999 98c136 0 243.667 -38 323 -114c6.66699 -6.66699 10 -14.334 10 -23.001c0 -14.667 -7.16699 -31 -21.5 -49s-28.5 -27 -42.5 -27c4 0 -23.333 17.167 -82 51.5s-119 51.5 -181 51.5c-73.333 0 -152 -10 -236 -30
c-96 -23.333 -185.667 -57.333 -269 -102c-118 -63.333 -177 -130 -177 -200c0 -57.333 29.333 -119.666 88 -186.999c21.333 -24 73.333 -73 156 -147c70.667 71.333 192.334 173.666 365.001 306.999c200.667 154.667 324 232 370 232c7.33301 0 19.333 -7 36 -21
s25 -24.333 25 -31l-20 -12c-197.333 -116.667 -415.333 -309.667 -654 -579c82.667 -58 157 -121.667 223 -191c92 -96 138 -175.667 138 -239c0 -61.333 -26.333 -112 -79 -152c-48.667 -36.667 -104.334 -55 -167.001 -55zM807.001 180.001c0 80.667 -84 192 -252 334
c-99.333 -109.333 -149 -204.333 -149 -285c0 -53.333 26 -96 78 -128c44.667 -28 95.667 -42 153 -42c41.333 0 78.333 9.66699 111 29c39.333 23.333 59 54 59 92z" />
    <glyph glyph-name="nine" unicode="9" 
d="M598 412c-125.333 0 -237.999 34.332 -337.999 102.999c-112 77.333 -168 176 -168 296c0 140.667 37.667 281.667 113 423c88.667 167.333 197 251 325 251c22.667 0 66 -6.66699 130 -20c66.667 -13.333 108 -24.333 124 -33c115.333 -64 206 -184.333 272 -361
c55.333 -148 83 -299.667 83 -455c0 -192 -59.5 -347.167 -178.5 -465.5s-274.5 -177.5 -466.5 -177.5c-160 0 -309.667 42.333 -449 127c-12 8 -18 15 -18 21c0 24 24.333 36 73 36c6 0 55.167 -18.667 147.5 -56s170.833 -56 235.5 -56c133.333 0 244 54 332 162
c82 100.667 123 219.334 123 356.001c-33.333 -42.667 -85 -79 -155 -109c-66.667 -28 -128.334 -42 -185.001 -42zM596.001 1350c-91.333 0 -171.002 -66.334 -239.002 -199.001c-58 -113.333 -87 -220.666 -87 -321.999c0 -86 22.333 -161.667 67 -227
c50.667 -73.333 117.334 -110 200.001 -110c110.667 0 244.334 65.333 401.001 196v36c1.33301 116.667 -26.667 242.667 -84 378c-70 165.333 -156 248 -258 248z" />
    <glyph glyph-name="colon" unicode=":" horiz-adv-x="492" 
d="M94 95c0 92.667 14.334 147.668 43.001 165.001c10 2 25 5.33301 45 10l30 15c8.66699 4.66699 20.667 7 36 7c19.333 0 33.666 -4.33301 42.999 -13c12 -12.667 19.333 -19.667 22 -21c8 -2 19 -6 33 -12c4.66699 -9.33301 11.667 -22.333 21 -39
c17.333 -33.333 26 -64 26 -92c0 -29.333 -23 -61 -69 -95l-24 -23c-8 -8 -17.333 -12 -28 -12c-6.66699 0 -17 1 -31 3s-24.667 3 -32 3c-17.333 0 -40.333 12.333 -69 37c-30.667 25.333 -46 47.666 -46 66.999zM94.001 608.001c0 92.667 14.334 147.668 43.001 165.001
c10 2 25 5.33301 45 10l30 15c8.66699 4.66699 20.667 7 36 7c19.333 0 33.666 -4.33301 42.999 -13c12 -12.667 19.333 -19.667 22 -21c8 -2 19 -6 33 -12c4.66699 -9.33301 11.667 -22.333 21 -39c17.333 -33.333 26 -64 26 -92c0 -29.333 -23 -61 -69 -95l-24 -23
c-8 -8 -17.333 -12 -28 -12c-6.66699 0 -17 1 -31 3s-24.667 3 -32 3c-17.333 0 -40.333 12.333 -69 37c-30.667 25.333 -46 47.666 -46 66.999z" />
    <glyph glyph-name="semicolon" unicode=";" horiz-adv-x="492" 
d="M261 275c16.667 0 50.5 -17.832 101.5 -53.499s76.5 -60.5 76.5 -74.5c0 -8.66699 -4.33301 -17.334 -13 -26.001c-70.667 -68 -126 -152.667 -166 -254c-18 -45.333 -37 -113 -57 -203c-4 -17.333 -11.667 -26 -23 -26c-18 0 -44 10.667 -78 32s-51 40 -51 56
c0 13.333 27.667 98.333 83 255c52.667 148.667 85.667 239 99 271c6.66699 15.333 16 23 28 23zM94 608.001c0 92.667 14.334 147.668 43.001 165.001c10 2 25 5.33301 45 10l30 15c8.66699 4.66699 20.667 7 36 7c19.333 0 33.666 -4.33301 42.999 -13
c12 -12.667 19.333 -19.667 22 -21c8 -2 19 -6 33 -12c4.66699 -9.33301 11.667 -22.333 21 -39c17.333 -33.333 26 -64 26 -92c0 -29.333 -23 -61 -69 -95l-24 -23c-8 -8 -17.333 -12 -28 -12c-6.66699 0 -17 1 -31 3s-24.667 3 -32 3c-17.333 0 -40.333 12.333 -69 37
c-30.667 25.333 -46 47.666 -46 66.999z" />
    <glyph glyph-name="less" unicode="&#x3c;" horiz-adv-x="2048" 
d="M412 682v-148l1225 -549v162l-1014 461l1014 456v165z" />
    <glyph glyph-name="equal" unicode="=" 
d="M686 184h-135v385h-385v129h385v385h135v-385h383v-129h-383v-385zM686 -225h-135v385h-385v129h385v385h135v-385h383v-129h-383v-385z" />
    <glyph glyph-name="greater" unicode="&#x3e;" horiz-adv-x="2048" 
d="M1637 688v-148l-1225 -549v162l1014 461l-1014 456v165z" />
    <glyph glyph-name="question" unicode="?" horiz-adv-x="1516" 
d="M227 616c-118.667 0 -177.997 47.333 -177.997 142c0 153.333 56 292.666 168 417.999c100 112 227.667 195.333 383 250c125.333 43.333 260.666 65 405.999 65c113.333 0 219.333 -23 318 -69c124.667 -58.667 187 -138 187 -238c0 -79.333 -49 -156.666 -147 -231.999
c-46.667 -36.667 -130 -86.334 -250 -149.001c-202.667 -106.667 -315.334 -166.667 -338.001 -180c-169.333 -100 -254 -174.667 -254 -224c0 -21.333 16.833 -41.833 50.5 -61.5s50.5 -35.834 50.5 -48.501c0 -18 -19.667 -27 -59 -27
c-50.667 0 -96.334 13.667 -137.001 41c-46 30.667 -69 70.334 -69 119.001c0 54 34.333 116 103 186c53.333 54 111.333 99.667 174 137l400 222c197.333 120.667 296 214.667 296 282c0 79.333 -76 119 -228 119c-230 0 -418.333 -42.667 -565 -128
c-181.333 -105.333 -272 -264.666 -272 -477.999c0 -11.333 1 -28.333 3 -51s3 -40 3 -52c0 -28.667 -15 -43 -45 -43zM346.003 38c0 28 11.667 58.168 35 90.501s48.333 48.5 75 48.5l85 1c32 0 62.5 -17.833 91.5 -53.5s43.5 -69.834 43.5 -102.501
c0 -36 -18 -70.167 -54 -102.5s-72 -48.5 -108 -48.5c-40 0 -78 17.833 -114 53.5s-54 73.5 -54 113.5z" />
    <glyph glyph-name="at" unicode="@" horiz-adv-x="2048" 
d="M1217 1124l180.001 0.000976562v-508c0 -152.667 39.667 -229 119 -229c117.333 0 176 134.667 176 404c0 198 -55.333 358.667 -166 482c-116 128.667 -271.667 193 -467 193c-96.667 0 -189 -17.667 -277 -53c-284 -115.333 -426 -351 -426 -707
c0 -229.333 64 -411 192 -545c130 -136 309 -204 537 -204c91.333 0 192.666 13.667 303.999 41v-170c-104.667 -27.333 -203.667 -41 -297 -41c-286 0 -512.833 83 -680.5 249s-251.5 391.667 -251.5 677c0 270 83.333 491 250 663s385 258 655 258
c254.667 0 456.667 -80.333 606 -241c144.667 -156.667 217 -363.667 217 -621c0 -148.667 -27.333 -272.334 -82 -371.001c-68.667 -122.667 -171.667 -184 -309 -184c-132 0 -217.333 65.667 -256 197c-42.667 -127.333 -137 -191 -283 -191c-122 0 -216 49.333 -282 148
c-56 84.667 -84 191 -84 319c0 128.667 30.667 235 92 319c69.333 94.667 166.333 142 291 142c99.333 0 180 -47.667 242 -143v116zM778.001 684.001c0 -86 14 -156.999 42 -212.999c36.667 -72.667 93.667 -109 171 -109c80 0 138.667 36.667 176 110
c28.667 56.667 43 129 43 217c0 83.333 -14.333 153.666 -43 210.999c-37.333 73.333 -94 110 -170 110c-146 0 -219 -108.667 -219 -326z" />
    <glyph glyph-name="A" unicode="A" horiz-adv-x="1186" 
d="M524 1436c12.667 0 31.498 -2.16797 56.498 -6.50098s43.833 -6.5 56.5 -6.5c8 0 19.833 1.5 35.5 4.5s27.834 4.5 36.501 4.5c60.667 0 94 -20 100 -60c4.66699 -44.667 13.667 -112.334 27 -203.001c81.333 -436 191 -819 329 -1149c2 -3.33301 3 -6.66602 3 -9.99902
c0 -12 -6.33301 -18 -19 -18c-5.33301 0 -13.333 1 -24 3s-19 3 -25 3l-44.5 -13.5c-29.667 -9 -55.167 -13.5 -76.5 -13.5c-38 0 -60.667 15 -68 45c-29.333 129.333 -60.666 252.333 -93.999 369l-477 -35c-32.667 -92 -67.334 -227 -104.001 -405
c-4.66699 -20.667 -15.667 -31 -33 -31c-40.667 0 -69 4.33301 -85 13l-65 50c-12 9.33301 -18 24 -18 44c0 22.667 42.667 151.334 128 386.001l156 424l96 272c34.667 106 60.334 198.333 77.001 277l4 37c4 12.667 13.333 19 28 19zM785.998 495.999l-157 647l-250 -672z
" />
    <glyph glyph-name="B" unicode="B" horiz-adv-x="1210" 
d="M125 1419c0 24.667 17.6689 41.0039 53.002 49.0039c97.333 23.333 222.666 35 375.999 35c304.667 0 490.667 -96.333 558 -289c16.667 -46.667 25 -84.334 25 -113.001c0 -86.667 -28.667 -157.334 -86 -212.001c-135.333 -128.667 -296 -216.667 -482 -264v-7
c275.333 -32.667 455.666 -121.334 540.999 -266.001c8.66699 -14.667 13 -45 13 -91c0 -99.333 -81 -184.666 -243 -255.999c-134 -59.333 -257.667 -89 -371 -89c-33.333 0 -93 8.66699 -179 26c-94 18.667 -148.333 35.5 -163 50.5s-22 37.167 -22 66.5
c0 87.333 2.5 217.833 7.5 391.5s7.5 304.167 7.5 391.5c0 309.333 -4.33301 484.666 -13 525.999c-0.666992 5.33301 -4.5 13.666 -11.5 24.999s-10.5 20 -10.5 26zM627.002 1346c-72.667 0 -144.331 -13.001 -214.998 -39.001
c-34.667 -12.667 -53.334 -36.667 -56.001 -72c0 -37.333 -0.666992 -92.666 -2 -165.999c-2.66699 -168.667 -4 -290 -4 -364c135.333 40 265.666 97.667 390.999 173c172 103.333 258 203.333 258 300c0 58.667 -50 103.667 -150 135c-71.333 22 -145.333 33 -222 33z
M344.005 485.003c1.33301 -92 5.33301 -229.667 12 -413c101.333 0 220.333 18.333 357 55c176 46.667 264 104.667 264 174c0 36 -52.333 72.667 -157 110c-74 26 -142.667 44 -206 54c-78.667 12 -168.667 18.667 -270 20z" />
    <glyph glyph-name="C" unicode="C" horiz-adv-x="1032" 
d="M82 526c0 180 23.334 349.334 70.001 508.001c56.667 190.667 140.334 337 251.001 439c29.333 26.667 61.666 40 96.999 40c64 0 146.667 -15.667 248 -47c70.667 -21.333 113.667 -59.333 129 -114c32.667 -119.333 49 -263.333 49 -432
c0 -76.667 -6.33301 -137.667 -19 -183c-6 -23.333 -22.333 -35 -49 -35c-86 0 -129 27.333 -129 82c0 20 1 50.167 3 90.5s3 70.5 3 90.5c0 270 -39 405 -117 405c-32.667 0 -65.334 -18.333 -98.001 -55c-156.667 -179.333 -235 -449.333 -235 -810
c0 -119.333 18.667 -219 56 -299c49.333 -107.333 126.666 -161 231.999 -161c70 0 152 25.333 246 76s141.333 76 142 76c21.333 0 32 -20 32 -60c0 -18 -7.33301 -35.667 -22 -53c-38 -44.667 -93 -82 -165 -112c-68 -28 -133.333 -42 -196 -42
c-79.333 0 -157.666 22 -234.999 66c-1.33301 0.666992 -28.333 13 -81 37c-32 15.333 -56.333 31.666 -73 48.999c-92.667 98 -139 246 -139 444z" />
    <glyph glyph-name="D" unicode="D" horiz-adv-x="1241" 
d="M131 1414c0 28 16.3301 41.999 48.9971 41.999c16 0 39.833 -1.33301 71.5 -4s55.5 -4 71.5 -4c22 0 54.833 1 98.5 3s76.5 3 98.5 3c162.667 0 290.334 -49.833 383.001 -149.5s157.667 -183.167 195 -250.5c53.333 -94 80 -195.333 80 -304
c0 -147.333 -41 -278 -123 -392c-147.333 -204.667 -315.333 -341.667 -504 -411c-63.333 -23.333 -117.333 -35 -162 -35c-13.333 0 -30.333 2.33301 -51 7c-26.667 6.66699 -43.667 10.334 -51 11.001c-69.333 9.33301 -106.666 15 -111.999 17
c-39.333 12.667 -58.333 39.667 -57 81l1 9c3.33301 73.333 15 250.666 35 531.999c15.333 218.667 23 396.334 23 533.001c0 116 -2.33301 191.667 -7 227c-1.33301 10 -8.16602 23.833 -20.499 41.5s-18.5 32.167 -18.5 43.5zM345.997 221.999v-128.002
c73.333 0 154 24 242 72c128.667 70 231.334 166.333 308.001 289c78.667 126 118 261 118 405c0 184 -82.667 319.333 -248 406c-34 18 -70.667 27 -110 27c-99.333 0 -160.333 -2.33301 -183 -7c-29.333 -5.33301 -49 -15.333 -59 -30
c-8.66699 -11.333 -14.334 -32.666 -17.001 -63.999c-8.66699 -159.333 -23 -397.666 -43 -714.999c-5.33301 -82 -8 -167 -8 -255z" />
    <glyph glyph-name="E" unicode="E" horiz-adv-x="1006" 
d="M152 1313c0 15.333 -3.99902 34.1689 -11.999 56.502s-12 36.5 -12 42.5c0 20 17.333 30 52 30c122.667 0 219.667 -1.33301 291 -4c94 -2.66699 224.333 -10.334 391 -23.001c32.667 -4.66699 49 -22.334 49 -53.001c0 -23.333 -17 -37.666 -51 -42.999
c-49.333 -8 -118 -14.667 -206 -20c-100.667 -5.33301 -170.167 -10.333 -208.5 -15s-59.166 -19 -62.499 -43c-0.666992 -3.33301 -4.33398 -80.333 -11.001 -231l-20 -461l345 -6c30.667 1.33301 74.667 0.666016 132 -2.00098c26 -4 39 -20.333 39 -49
c0 -32 -13.667 -50.667 -41 -56c-22.667 -4.66699 -140 -17 -352 -37c-27.333 -3.33301 -68.333 -7.33301 -123 -12c-2.66699 -99.333 -4 -181.333 -4 -246c0 -42 19.333 -63 58 -63c54 0 135.167 0.333008 243.5 1s189.5 1 243.5 1c45.333 0 68 -14.333 68 -43
c0 -23.333 -18 -39 -54 -47c-66.667 -16 -174 -33.667 -322 -53c-151.333 -19.333 -258 -29 -320 -29c-86.667 0 -129.334 40.667 -128.001 122v11c10 474.667 15 898.667 15 1272z" />
    <glyph glyph-name="F" unicode="F" horiz-adv-x="973" 
d="M167 1443c0 25.333 25.6689 37.998 77.002 37.998c13.333 0 32.666 -2.66699 57.999 -8s44 -8.33301 56 -9c119.333 -2.66699 298.333 -8 537 -16c36.667 -1.33301 55 -18.333 55 -51c0 -24 -12.333 -39.667 -37 -47c-36 -11.333 -106 -21 -210 -29
c-125.333 -9.33301 -201.333 -16.333 -228 -21c-39.333 -6 -60.333 -22.333 -63 -49c-16 -154.667 -36 -414 -60 -778c203.333 -5.33301 356.333 -8 459 -8c14.667 0 29.667 -6 45 -18s23 -25 23 -39c0 -24 -16.667 -39.333 -50 -46c-52 -10 -120.333 -18 -205 -24
c-116.667 -8.66699 -185.334 -14 -206.001 -16c-45.333 -5.33301 -68 -17.666 -68 -36.999c0 -31.333 2.83301 -78.166 8.5 -140.499s8.5 -107.833 8.5 -136.5c0 -34 -15 -51 -45 -51h-142c-28.667 0 -43 25.333 -43 76c0 -16 6 125 18 423c8.66699 192.667 19 481 31 865
l1 12c0 18.667 -3.33301 39 -10 61s-10 38.333 -10 49z" />
    <glyph glyph-name="G" unicode="G" horiz-adv-x="1182" 
d="M690 -117c-408 0 -611.999 190 -611.999 570c0 162 32.333 332.333 97 511c70.667 194.667 161 341 271 439c23.333 20.667 72 31 146 31c36.667 0 70 -8.33301 100 -25c24 -7.33301 60.333 -19.666 109 -36.999c8 -6 21.667 -14 41 -24c7.33301 0 18 -2.33301 32 -7
c54 -30 97 -110.667 129 -242c24 -100.667 36 -195.334 36 -284.001c0 -40 -6.33301 -64 -19 -72c-22.667 -13.333 -53.334 -20 -92.001 -20c-6.66699 0 -25.334 4 -56.001 12c-20.667 6 -32.667 30 -36 72c-13.333 150.667 -20.666 231 -21.999 241
c-15.333 92 -45.666 165.333 -90.999 220c-18 21.333 -40.667 32 -68 32c-18 0 -41 -8.5 -69 -25.5s-48 -33.5 -60 -49.5c-165.333 -221.333 -248 -487.666 -248 -798.999c0 -116.667 26.667 -218.667 80 -306c62.667 -103.333 148.667 -155 258 -155
c74 0 141 24.667 201 74c53.333 44 95 102.667 125 176c4.66699 10.667 6.66699 22.667 6 36v21c-20 -0.666992 -79 -3.33398 -177 -8.00098c-72.667 -4 -131.667 -6 -177 -6c-20 0 -40.333 7.5 -61 22.5s-31 32.167 -31 51.5c0 28.667 13 46.334 39 53.001
c111.333 27.333 271.333 41 480 41c11.333 0 23.333 -5.33301 36 -16c27.333 -24.667 44 -43.334 50 -56.001c7.33301 -14.667 11 -39.667 11 -75c0 -107.333 -45 -201 -135 -281c-86.667 -76.667 -184.334 -115 -293.001 -115z" />
    <glyph glyph-name="H" unicode="H" horiz-adv-x="1239" 
d="M129 1323c0 16 2.33008 27.0039 6.99707 33.0039v0c4.66699 6.66699 15.667 10 33 10c21.333 0 53 -0.333008 95 -1s73.333 -1 94 -1c29.333 0 44 -9 44 -27l-1 -8l-42 -385c-14 -138.667 -21 -267.667 -21 -387c138 17.333 303.333 25 496 23
c2 89.333 7.33301 195.666 16 318.999l22 264c8.66699 105.333 13 193.333 13 264c0 4.66699 -1.33301 10.5 -4 17.5s-4 12.833 -4 17.5c0 14 10 21 30 21c12 0 29.833 -3 53.5 -9s40.834 -9.33301 51.501 -10c-4.66699 0.666992 15.333 1 60 1c16 0 32 -4 48 -12
c19.333 -9.33301 29 -21.333 29 -36c0 -8.66699 -3 -18 -9 -28c-8 -10.667 -12.667 -19 -14 -25c-60 -246.667 -90 -530.667 -90 -852c0 -198.667 9.66699 -340.667 29 -426c0.666992 -3.33301 2.83398 -8.83301 6.50098 -16.5s5.5 -13.834 5.5 -18.501
c0 -20 -12.667 -32 -38 -36c-2 -0.666992 -21.333 -1 -58 -1c-12.667 0 -31.167 -2 -55.5 -6s-42.833 -6 -55.5 -6c-34 0 -51 13 -51 39c0 55.333 2.33301 128.333 7 219c5.33301 114.667 8.66602 187.667 9.99902 219l-498 -12
c2.66699 -177.333 12.334 -331.666 29.001 -462.999c0.666992 -6.66699 1 -12.334 1 -17.001c0 -26 -13.667 -39 -41 -39c-8 0 -20.333 1.83301 -37 5.5s-29.334 5.5 -38.001 5.5c-6 0 -14.667 -1 -26 -3s-19.666 -3 -24.999 -3c-49.333 0 -74 24 -74 72
c0 -1.33301 4 80.667 12 246c6.66699 152.667 10.334 295 11.001 427v174c0 111.333 -3 210.666 -9 297.999c-0.666992 9.33301 -3 34.666 -7 75.999c-3.33301 32 -5 57.667 -5 77z" />
    <glyph glyph-name="I" unicode="I" horiz-adv-x="504" 
d="M147 1233l-0.000976562 159.998c0 3.33301 -1.66699 8.33301 -5 15s-5 12.334 -5 17.001c0 10 11 18.333 33 25c16.667 5.33301 31.334 8 44.001 8c-13.333 0 11.667 -4 75 -12c79.333 -10.667 119 -29.667 119 -57c0 -6 -2.66699 -12.333 -8 -19
c-6 -9.33301 -9.66699 -15.333 -11 -18c-7.33301 -22.667 -17 -102.667 -29 -240c-28.667 -347.333 -43 -562.333 -43 -645c0 -222 1.66699 -353 5 -393c0 -5.33301 2.33301 -12.666 7 -21.999s7 -16 7 -20c0 -31.333 -22.333 -47 -67 -47c-104 0 -156 29 -156 87
c0 20.667 1.33301 48.667 4 84c3.33301 44.667 5.33301 72.667 6 84c16 324 24 655 24 993z" />
    <glyph glyph-name="J" unicode="J" horiz-adv-x="733" 
d="M340 1403c0 36.667 19.668 55 59.001 55c6 0 14.167 -1.83301 24.5 -5.5s17.833 -5.83398 22.5 -6.50098c70.667 -8 109.667 -12 117 -12c31.333 0 47 -12.333 47 -37c0 -6.66699 -1.83301 -14.667 -5.5 -24s-5.83398 -16.333 -6.50098 -21
c-9.33301 -124.667 -14 -305.667 -14 -543c0 -62.667 1.33301 -156.5 4 -281.5s4 -218.833 4 -281.5c0 -96 -25.667 -175 -77 -237c-55.333 -66.667 -129.333 -99.334 -222 -98.001l-25 1c-43.333 0.666992 -107 13.334 -191 38.001c-100 28.667 -150 57.334 -150 86.001
c0 30.667 16.667 46 50 46c21.333 0 53.333 -4.16699 96 -12.5s75 -12.5 97 -12.5c57.333 0 100.666 9.33301 129.999 28c34 20.667 57.667 57.334 71 110.001c16.667 65.333 25 237.333 25 516c0 74.667 -8.33301 254 -25 538c-1.33301 32 -7.66602 75 -18.999 129
c-8 19.333 -12 27.666 -12 24.999z" />
    <glyph glyph-name="K" unicode="K" horiz-adv-x="1116" 
d="M152 1364c0 6 -1.83496 15.002 -5.50195 27.002s-5.5 21.333 -5.5 28c0 24.667 17.667 37 53 37c130.667 0 196 -16.667 196 -50c0 -8 -7.16699 -17.5 -21.5 -28.5s-21.833 -20.833 -22.5 -29.5c-0.666992 -46.667 -2 -115.667 -4 -207
c-3.33301 -112.667 -10 -263.667 -20 -453l320 483l185 271c4.66699 5.33301 10.667 8 18 8c8 0 34.333 -10 79 -30c42 -19.333 67.833 -32 77.5 -38s14.5 -16 14.5 -30c0 -2 -11 -11 -33 -27c-36 -26.667 -110.667 -121.667 -224 -285
c-115.333 -165.333 -173 -263 -173 -293c0 -22.667 72.333 -108.334 217 -257.001c104.667 -107.333 192.667 -194.333 264 -261c8.66699 -4.66699 19.667 -13.334 33 -26.001c6 -10 9 -21 9 -33c0 -16 -17 -35.333 -51 -58c-31.333 -21.333 -55.666 -32 -72.999 -32
c-12 0 -26.333 8 -43 24l-485 478l-121 -183c-4 -154.667 -6 -247.334 -6 -278.001c0 -14 3.66699 -33.667 11 -59s11 -41.333 11 -48c0 -26.667 -8 -40 -24 -40c-4.66699 0 -11.334 1.5 -20.001 4.5s-15 4.83301 -19 5.5c-33.333 -0.666992 -66.666 -1 -99.999 -1
c-41.333 3.33301 -62 21.333 -62 54c0 30 1 69.333 3 118c2.66699 61.333 4.33398 101 5.00098 119c1.33301 51.333 4 218 8 500c6 342.667 9 539.334 9 590.001z" />
    <glyph glyph-name="L" unicode="L" horiz-adv-x="879" 
d="M146 1006c0 166.667 -2.33301 275.668 -7 327.001c-0.666992 6.66699 -3.16699 16.334 -7.5 29.001s-6.5 23 -6.5 31c0 32.667 21.667 49 65 49c8.66699 0 20 -2 34 -6c16.667 -4.66699 28 -7.66699 34 -9c6 -0.666992 14 -0.333984 24 0.999023
c12.667 1.33301 20.667 2 24 2c17.333 0 34.166 -5 50.499 -15s24.5 -23 24.5 -39c0 -7.33301 -2.33301 -17 -7 -29c-5.33301 -14 -8.33301 -23.333 -9 -28c-11.333 -55.333 -17.666 -105.333 -18.999 -150c-5.33301 -220 -8 -409 -8 -567c0 -162.667 3.33301 -334 10 -514
c188.667 -6 333.334 -14.333 434.001 -25c54 -5.33301 81 -28 81 -68c0 -14.667 -8.33301 -23.334 -25 -26.001c-58.667 -1.33301 -146.334 -5.33301 -263.001 -12c-120 -10 -223 -27 -309 -51c-89.333 74.667 -134 144 -134 208c0 99.333 2.33301 248 7 446
s7 346.667 7 446z" />
    <glyph glyph-name="M" unicode="M" horiz-adv-x="1393" 
d="M152 -47c0 152 4.66602 380.331 13.999 684.998s14 533 14 685c0 4 -2.66699 9 -8 15s-8 12 -8 18c0 7.33301 7.33301 14.333 22 21s26.334 10 35.001 10c10.667 0 27 -3 49 -9s37.667 -9.33301 47 -10l71 -4c30.667 -3.33301 52.334 -11 65.001 -23
c8 -7.33301 13.333 -25 16 -53c36.667 -407.333 106.334 -752 209.001 -1034h12c38.667 70.667 77 187.334 115 350.001l80 371c22.667 102.667 61.334 254.334 116.001 455.001c8 22.667 24.667 34 50 34c9.33301 0 22.666 -2.16699 39.999 -6.5
s29.666 -6.83301 36.999 -7.5c20 0.666992 48.667 0 86 -2c18 -3.33301 27 -13 27 -29c0 -5.33301 -3.16699 -11 -9.5 -17s-9.83301 -11.333 -10.5 -16c-0.666992 -37.333 -2 -91.333 -4 -162c-7.33301 -219.333 -11 -355.333 -11 -408v-46
c0.666992 -136 7.33398 -300 20.001 -492c1.33301 -36 5 -89 11 -159c0.666992 -6 4.16699 -15.167 10.5 -27.5s9.5 -20.833 9.5 -25.5c0 -19.333 -8 -29 -24 -29c-8 0 -20.333 1 -37 3s-30.667 3 -42 3c-4.66699 0 -11.334 1 -20.001 3s-15.334 3 -20.001 3
c-3.33301 0 -8.66602 -0.833008 -15.999 -2.5s-12.666 -2.5 -15.999 -2.5c-35.333 0 -54 18 -56 54c-8 166.667 -10.667 455 -8 865h-8c-37.333 -178 -98.333 -443.667 -183 -797c-14 -53.333 -37 -80 -69 -80c-8 0 -19 2.83301 -33 8.5s-25 8.5 -33 8.5
c-6 0 -15.167 -0.833008 -27.5 -2.5s-21.5 -2.5 -27.5 -2.5c-33.333 0 -58 15 -74 45c-101.333 189.333 -167.333 446.666 -198 771.999h-11c-3.33301 -136.667 -5 -267.667 -5 -393c0 -315.333 8.66699 -503.666 26 -564.999c0.666992 -3.33301 3.5 -7.33301 8.5 -12
s7.5 -9.66699 7.5 -15c0 -8 -10.667 -15.333 -32 -22c-17.333 -4.66699 -32 -7 -44 -7c-14.667 0 -36.834 1.5 -66.501 4.5s-51.834 4.5 -66.501 4.5c-20 0 -30 14.333 -30 43z" />
    <glyph glyph-name="N" unicode="N" horiz-adv-x="1202" 
d="M212 1402c9.33301 0 22.668 -1.83105 40.001 -5.49805s30.333 -5.5 39 -5.5c3.33301 0 7.66602 1.33301 12.999 4s9.66602 4 12.999 4c2.66699 0 15.667 -2 39 -6c43.333 -8 65.333 -12 66 -12c20.667 -8 31 -25.333 31 -52c0 -4.66699 -2.16699 -10.5 -6.5 -17.5
s-6.5 -12.833 -6.5 -17.5c0 -112 46.667 -322 140 -630c63.333 -211.333 144.333 -375.333 243 -492c8 -9.33301 15.667 -14 23 -14c10.667 0 16 10 16 30c0 402 -7.33301 764 -22 1086c0 31.333 -2 77 -6 137c-0.666992 4.66699 -2.66699 10.667 -6 18s-5 14.333 -5 21
c0 15.333 25.333 23 76 23c10.667 0 25.5 -1.5 44.5 -4.5s33.833 -4.5 44.5 -4.5c30.667 0 46 -13.667 46 -41c0 -38.667 -1.5 -96.834 -4.5 -174.501s-4.5 -135.834 -4.5 -174.501c0 -88.667 2.66699 -221.334 8 -398.001s8 -309.334 8 -398.001
c0 -164 -29.667 -250 -89 -258c-12 -1.33301 -30.333 -2 -55 -2c-108 0 -181.667 25.333 -221 76c-154.667 200 -264 484 -328 852h-14l-1 -214c0 -169.333 1.66699 -305.333 5 -408c2.66699 -94 5 -153.333 7 -178c5.33301 -78.667 14 -135.667 26 -171
c0.666992 -2.66699 4 -8.33398 10 -17.001c4 -7.33301 6 -13.666 6 -18.999c0 -9.33301 -4.66699 -15.333 -14 -18c-7.33301 -1.33301 -17.666 -1.33301 -30.999 0c-16.667 2 -25.667 3 -27 3c-7.33301 0 -18.333 -1 -33 -3s-25.667 -3 -33 -3
c-69.333 0 -104 28.667 -104 86c0 150.667 2.5 376.334 7.5 677.001s7.5 526.334 7.5 677.001c0 29.333 17.333 44 52 44z" />
    <glyph glyph-name="O" unicode="O" horiz-adv-x="1202" 
d="M421 1441c17.333 0 40.334 -4.00293 69.001 -12.0029c34.667 -9.33301 57.667 -14.666 69 -15.999c30 -0.666992 74.333 -4 133 -10c140.667 -28 250.667 -123 330 -285c66.667 -135.333 100 -283.333 100 -444c0 -143.333 -26.667 -283.666 -80 -420.999
c-62 -158 -146.667 -269 -254 -333c-40.667 -24.667 -82.667 -37 -126 -37c-2.66699 0 -51.334 9.66699 -146.001 29c-40 4.66699 -99.333 18.334 -178 41.001c-179.333 80 -269 279.667 -269 599c0 62 3 130 9 204c10 136.667 35.667 263.334 77 380.001
c54 155.333 125.333 253.666 214 294.999c14 6.66699 31.333 10 52 10zM602.001 1311c-116 0 -204.334 -95.333 -265.001 -286c-44.667 -138 -67 -282.333 -67 -433c0 -140 16.667 -263 50 -369c48.667 -156.667 126.334 -235 233.001 -235c138.667 0 244 84 316 252
c54 126.667 81 270 81 430c0 248.667 -51.667 426.667 -155 534c-68.667 71.333 -133 107 -193 107z" />
    <glyph glyph-name="P" unicode="P" horiz-adv-x="967" 
d="M151 1129c0 161.333 -1.33203 256.67 -3.99902 286.003c0 4.66699 -1.66699 11.5 -5 20.5s-5 14.5 -5 16.5c0 17.333 10.333 26 31 26c4 0 10.667 -1 20 -3s16.333 -3 21 -3c13.333 0 33.166 0.833008 59.499 2.5s45.833 2.5 58.5 2.5c154 0 286 -31.667 396 -95
c134 -77.333 201 -187 201 -329c0 -150 -58 -283.167 -174 -399.5s-248.667 -174.5 -398 -174.5c-2.66699 -46 -4 -84 -4 -114c0 -154.667 6.33301 -266 19 -334c4 -22.667 6 -32.334 6 -29.001c0 -22 -14.667 -33 -44 -33c-8 0 -17.833 2.5 -29.5 7.5
s-20.167 7.5 -25.5 7.5c-4 0 -10 -1.16699 -18 -3.5s-14 -3.5 -18 -3.5c-16 0 -39.333 7.66699 -70 23c-34 16.667 -51 32 -51 46c0 4.66699 1.5 11.5 4.5 20.5s4.83301 15.5 5.5 19.5c5.33301 69.333 12 311.666 20 726.999c2.66699 131.333 4 236.666 4 315.999z
M518.001 1322c-37.333 0 -68.667 -1.66602 -94 -4.99902c-27.333 -3.33301 -45 -9.33301 -53 -18s-13 -26.667 -15 -54c-9.33301 -182.667 -14 -389.334 -14 -620.001c0 -23.333 10.333 -35 31 -35c32.667 0 72.667 14.667 120 44c74.667 46.667 135.667 108.667 183 186
c48 80 73.333 162.333 76 247v19c4 157.333 -74 236 -234 236z" />
    <glyph glyph-name="Q" unicode="Q" horiz-adv-x="1202" 
d="M53 662c0 121.333 21.002 254.669 63.002 400.002c39.333 138 90.666 263.333 153.999 376c14.667 26 44 39 88 39c24 0 55.667 -5.33301 95 -16c45.333 -12 76.666 -19 93.999 -21c26 -1.33301 65 -4 117 -8c98 -14.667 174.333 -45 229 -91l22 -28
c13.333 -7.33301 32 -21 56 -41c58 -70.667 102.667 -167.667 134 -291c26.667 -105.333 40 -212 40 -320c0 -248 -60.667 -450 -182 -606c-29.333 -37.333 -79.333 -70 -150 -98c68.667 -72.667 135.667 -150.334 201 -233.001l59 -62c28.667 -30 43 -51 43 -63
c0 -12.667 -8 -23.834 -24 -33.501s-30.333 -14.5 -43 -14.5c-23.333 0 -48 11 -74 33l-373 316c-42 -4.66699 -81 -7 -117 -7c-155.333 0 -271.333 94.667 -348 284c-56 139.333 -84 301 -84 485zM967.002 709.003c0 150 -27.6689 286.666 -83.002 409.999
c-71.333 159.333 -172.666 239 -303.999 239c-99.333 0 -181.666 -96.333 -246.999 -289c-51.333 -151.333 -77 -289.333 -77 -414c0 -147.333 17.667 -282 53 -404c52.667 -179.333 134.667 -269 246 -269c132 0 237.667 92.667 317 278
c63.333 146.667 95 296.334 95 449.001z" />
    <glyph glyph-name="R" unicode="R" horiz-adv-x="1167" 
d="M161 1399c0 3.33301 -2.66699 7.50195 -8 12.502s-8 9.5 -8 13.5c0 14 1.33301 23 4 27c6 10 32.333 18.667 79 26c38 6 68.333 9 91 9c80 0 170.667 -7.66699 272 -23l111 -32c18.667 -4.66699 46.667 -13 84 -25c71.333 -32 140 -86.667 206 -164
c71.333 -84.667 107 -162.334 107 -233.001c0 -88.667 -29.667 -166.334 -89 -233.001c-35.333 -40 -90.666 -83 -165.999 -129c-59.333 -36.667 -89 -62 -89 -76s42 -75.667 126 -185c78 -100.667 129.667 -164 155 -190c8.66699 -9.33301 25 -17 49 -23
c-50.667 -56 -92.334 -84 -125.001 -84c-18.667 0 -37 9 -55 27l-400 387c-56.667 -16.667 -112 -27 -166 -31c1.33301 -108 3 -210.667 5 -308c-0.666992 -28 0.333008 -68 3 -120c0.666992 -4 2.66699 -8.16699 6 -12.5s5 -10.5 5 -18.5s-18.333 -16.333 -55 -25
c-31.333 -8 -54 -12 -68 -12c-16.667 0 -38.667 4.66699 -66 14c-32.667 12 -49 24.667 -49 38c0 -24 4.66699 58 14 246c7.33301 141.333 13 297.333 17 468c6.66699 294 10 512.667 10 656zM433 1325c-33.333 0 -54.334 -23.332 -63.001 -69.999
c-23.333 -128.667 -33.666 -327.334 -30.999 -596.001v-53c132 10 261 58 387 144c143.333 97.333 215 206.333 215 327c0 109.333 -62.333 182.333 -187 219c-67.333 19.333 -174.333 29 -321 29z" />
    <glyph glyph-name="S" unicode="S" horiz-adv-x="1079" 
d="M67 971c0 171.333 73.0029 327.004 219.003 467.004c42.667 40.667 96 61 160 61c34 0 88.667 -12.333 164 -37c66 -22 118.333 -43 157 -63c114.667 -58.667 172 -236.334 172 -533.001c0 -24 -2.83301 -39.833 -8.5 -47.5s-19.834 -14.167 -42.501 -19.5l-41 -11
c-24.667 0 -47.667 8.66699 -69 26c-23.333 18 -35 39 -35 63c0 133.333 -5.33301 229 -16 287c-24 130 -74.667 195 -152 195c-84 0 -158 -48 -222 -144c-57.333 -86.667 -86 -174.334 -86 -263.001c0 -86 33.667 -181.333 101 -286c37.333 -58.667 83 -111 137 -157
c27.333 -24 82.666 -65.333 165.999 -124l184 -124c76.667 -60.667 115 -118.334 115 -173.001c0 -68.667 -38 -120.667 -114 -156c-58.667 -27.333 -127 -41 -205 -41c-82.667 0 -196.334 15.333 -341.001 46c-126 26 -237.667 55.333 -335 88
c-16.667 5.33301 -25 14 -25 26c0 18.667 13 35.667 39 51c23.333 13.333 45 19.666 65 18.999h13c22 -0.666992 50.667 -6.66699 86 -18l84 -28c133.333 -38 243.333 -57 330 -57c132 0 198 31 198 93c0 44.667 -60.333 109 -181 193c-167.333 116 -279.333 203 -336 261
c-120.667 124.667 -181 260 -181 406z" />
    <glyph glyph-name="T" unicode="T" horiz-adv-x="1126" 
d="M12 1403c0 10.667 9.66504 20.334 28.998 29.001c16 7.33301 30.333 11.333 43 12c360.667 8 588.667 12 684 12c58.667 0 125.334 -3.66699 200.001 -11c110 -10.667 165 -25.334 165 -44.001c0 -15.333 -9.66699 -25.666 -29 -30.999
c-1.33301 -0.666992 -20.333 -2.66699 -57 -6c-177.333 -18 -289.333 -37.667 -336 -59c-17.333 -8 -27 -25.333 -29 -52c-1.33301 -16 -3.33301 -78.667 -6 -188c-13.333 -530.667 -20 -807.667 -20 -831c0 -114 0.333008 -178.333 1 -193c0.666992 -8 5 -18 13 -30
s12 -20.667 12 -26c0 -21.333 -34.333 -32 -103 -32c-56 0 -91.667 2 -107 6c-40.667 10 -61 34.333 -61 73c0 8.66699 1.66699 19.667 5 33c4.66699 16 7.33398 27 8.00098 33c8.66699 73.333 14 148.666 16 225.999c16.667 503.333 25 810.333 25 921
c0 29.333 -9 46.333 -27 51c-122.667 16 -253.667 36.667 -393 62c-22 12 -33 27 -33 45z" />
    <glyph glyph-name="U" unicode="U" horiz-adv-x="1178" 
d="M166 1296c0 4.66699 -2.66895 11.001 -8.00195 19.001s-8 15.333 -8 22c0 8.66699 11.333 16.667 34 24c19.333 6 34.333 9 45 9c6.66699 0 15.834 -1.16699 27.501 -3.5s19.834 -3.83301 24.501 -4.5c42.667 -4.66699 71 -9.66699 85 -15c31.333 -12 47 -33.333 47 -64
c0 -12 -3.33301 -25.667 -10 -41c-8 -18 -12.667 -30.667 -14 -38c-26 -148.667 -39 -318.667 -39 -510c0 -144 12.333 -287.333 37 -430c21.333 -122.667 105 -184 251 -184c56 0 108.333 11.667 157 35c20 558.667 30 969.667 30 1233c0 3.33301 -2.33301 8 -7 14
s-7 12 -7 18c0 15.333 6 23 18 23c2.66699 0 6.16699 -1 10.5 -3s8.5 -3 12.5 -3c1.33301 0 6.5 1.66699 15.5 5s16.167 5 21.5 5c8.66699 0 21.667 -4.33301 39 -13s31 -13 41 -13c3.33301 0 8.83301 1 16.5 3s13.5 3 17.5 3c42 0 63 -17.333 63 -52
c0 -10.667 -3 -40.667 -9 -90c-40.667 -326.667 -61 -620.334 -61 -881.001c0 -170 5.33301 -297.333 16 -382c0.666992 -6 3.16699 -14.833 7.5 -26.5s6.5 -21.5 6.5 -29.5c0 -32.667 -41.667 -49 -125 -49c-3.33301 0 -7.83301 1 -13.5 3s-10.167 3 -13.5 3
c-2.66699 0 -7.33398 -0.666992 -14.001 -2s-11.334 -2 -14.001 -2c-27.333 0 -43.666 10 -48.999 30c-1.33301 3.33301 -2.66602 24.333 -3.99902 63v30c-76.667 -5.33301 -134 -8 -172 -8c-201.333 0 -334.333 56 -399 168c-46 78 -69 222.667 -69 434
c0 78 2.16699 194.833 6.5 350.5s6.5 272.167 6.5 349.5z" />
    <glyph glyph-name="V" unicode="V" horiz-adv-x="1077" 
d="M22 1331c0 24.667 20 36.998 60 36.998c4.66699 0 11.5 1.33301 20.5 4s15.833 4 20.5 4c7.33301 0 17.666 -2 30.999 -6s23.333 -6 30 -6c20 0 44 -4 72 -12c35.333 -9.33301 53 -21 53 -35c0 -2 -4.83301 -7 -14.5 -15s-14.5 -18.667 -14.5 -32
c0 -50.667 93.667 -390.667 281 -1020h8c57.333 230.667 107.333 417.667 150 561c38.667 129.333 94 296.666 166 501.999c6 17.333 8.33301 32.666 7 45.999c-1.33301 18.667 -1.66602 30 -0.999023 34c5.33301 6.66699 10 10 14 10c4.66699 0 9.5 -1.66699 14.5 -5
s9.16699 -5 12.5 -5c2 0 5.33301 0.666992 10 2s8 2 10 2c8 0 19.167 -1.33301 33.5 -4s25.166 -4 32.499 -4c-3.33301 0 6.33398 -7 29.001 -21c18.667 -11.333 28 -18.666 28 -21.999c0 6.66699 -4 -1.66602 -12 -24.999c-0.666992 -5.33301 -2 -13.666 -4 -24.999
l-76 -196c-6.66699 -18 -13.334 -40 -20.001 -66l-68 -213l-122 -375c-46.667 -147.333 -79.667 -274 -99 -380l-8 -73c-6.66699 -25.333 -24.667 -38 -54 -38c-3.33301 0 -8.16602 1.5 -14.499 4.5s-10.833 4.83301 -13.5 5.5c-35.333 2.66699 -87.333 12.334 -156 29.001
c-14 5.33301 -25 23 -33 53l-200 741c-6 20.667 -37 118 -93 292c-53.333 165.333 -80 249 -80 251z" />
    <glyph glyph-name="W" unicode="W" horiz-adv-x="1491" 
d="M39 1292c0 10 19.333 18.332 58 24.999c30.667 6 55.334 9 74.001 9c33.333 0 55 -2.33301 65 -7c14.667 -6 27.334 -22.333 38.001 -49c6.66699 -15.333 11 -30.333 13 -45l133 -975l8 -4c40 238.667 79 437.334 117 596.001l53 202c26.667 104 40 166.333 40 187
c0 28.667 20 43 60 43c21.333 0 48.666 -2.66699 81.999 -8c42.667 -7.33301 65.167 -15.166 67.5 -23.499s18.166 -93.833 47.499 -256.5c31.333 -174 62.666 -358 93.999 -552h6c88 397.333 172 704.666 252 921.999c8 20.667 18.333 34 31 40c8.66699 3.33301 26 5 52 5
c8.66699 0 20.834 -1.66699 36.501 -5s29 -5 40 -5s28.5 -5 52.5 -15c26.667 -10.667 40 -20.667 40 -30c0 -4 -4.33301 -10.333 -13 -19l-18 -18c-52 -78 -122.333 -289.667 -211 -635c-22.667 -89.333 -45.667 -203.333 -69 -342c-34 -200 -54 -314.667 -60 -344
c-2 -11.333 -4.33301 -18.666 -7 -21.999s-17.5 -9 -44.5 -17s-43.167 -12 -48.5 -12c-60.667 0 -92.667 5.33301 -96 16c-4 31.333 -10.333 76.333 -19 135l-61 299l-139 600h-8c-26 -120.667 -47.333 -225 -64 -313c-17.333 -74.667 -40.666 -186.667 -69.999 -336
c-8 -52.667 -25 -181.667 -51 -387c-3.33301 -28 -12 -46.333 -26 -55c-22 -14 -62.333 -21 -121 -21c-48.667 0 -76.667 19.667 -84 59l-109 676c-16.667 109.333 -44.667 273 -84 491c-6 39.333 -19 95 -39 167c-0.666992 2 -3.83398 5.16699 -9.50098 9.5
s-8.5 9.16602 -8.5 14.499z" />
    <glyph glyph-name="X" unicode="X" horiz-adv-x="1100" 
d="M393 842c-209.333 318 -313.996 488.671 -313.996 512.004c0 5.33301 8.83301 13.166 26.5 23.499s29.5 15.5 35.5 15.5c57.333 0 95 -12.333 113 -37c21.333 -30 45.666 -72 72.999 -126c36 -70 58.667 -113.333 68 -130l74 -119c128 204.667 195.333 312 202 322
c101.333 153.333 176.666 247.333 225.999 282c115.333 -60.667 173 -102.334 173 -125.001c0 -11.333 -11 -21 -33 -29c-26.667 -10 -42.667 -18 -48 -24c-94 -110 -233.333 -314 -418 -612c111.333 -176 207.666 -320.333 288.999 -433c52 -72 114.333 -152.333 187 -241
c2.66699 -2.66699 8.66699 -4.33398 18 -5.00098c4 0 6 -6 6 -18c0 -7.33301 2.33301 -12.5 7 -15.5s7 -5.83301 7 -8.5c0 -4 -6.66699 -6.66699 -20 -8c-8 -1.33301 -19.5 -4.5 -34.5 -9.5s-26.5 -7.5 -34.5 -7.5c-16.667 0 -30.667 5.66699 -42 17
c-154 159.333 -302.667 358.666 -446 597.999c-91.333 -177.333 -163 -327 -215 -449l-94 -231c-5.33301 -11.333 -15.333 -17 -30 -17c-10 0 -24.833 1.66699 -44.5 5s-34.834 5 -45.501 5c-34.667 0 -52 17.333 -52 52c0 53.333 51.333 188 154 404
c86 180 156.667 316.333 212 409z" />
    <glyph glyph-name="Y" unicode="Y" horiz-adv-x="1227" 
d="M14 1360c0 7.33301 5.16699 15.3311 15.5 23.998s19.5 13 27.5 13c88 0 146.667 -27.333 176 -82c101.333 -188.667 212.666 -414 333.999 -676l6 2c53.333 102 149.333 271.667 288 509l155 263c8.66699 14 22.334 21 41.001 21c4.66699 0 29.5 -10.333 74.5 -31
s69.833 -33 74.5 -37c8.66699 -7.33301 13 -17.666 13 -30.999c0 -6 -12 -18 -36 -36c-26.667 -19.333 -42 -32.333 -46 -39c-178 -264.667 -330.333 -540.667 -457 -828c-2 -39.333 -3 -85.666 -3 -138.999c0 -82 3 -154 9 -216c0.666992 -6.66699 3 -21.667 7 -45
c3.33301 -19.333 5 -34 5 -44c0 -16.667 -38 -25 -114 -25c-67.333 0 -101 22 -101 66c0 18.667 1.16699 46.667 3.5 84s3.5 65.333 3.5 84c0 148 -13 251.667 -39 311c-90 201.333 -185.333 398.333 -286 591c-24 49.333 -62.667 121.333 -116 216
c-1.33301 2 -8 9.33301 -20 22c-10 9.33301 -15 17 -15 23z" />
    <glyph glyph-name="Z" unicode="Z" horiz-adv-x="981" 
d="M33 1386c0 6.66699 22.333 11.666 67 14.999c224 14.667 376 22 456 22c122.667 0 214.334 -4 275.001 -12c44 -6 66 -28.333 66 -67c0 -31.333 -9.66699 -65.666 -29 -102.999l-305 -575c-178.667 -334.667 -268 -503.334 -268 -506.001c0 -6.66699 6 -11 18 -13
c8.66699 -1.33301 21 -1.66602 37 -0.999023c22.667 1.33301 32.667 2 30 2c16 0 105.667 -1.66699 269 -5c48 1.33301 118.333 -1.33398 211 -8.00098c40 -6 60 -24.333 60 -55c0 -18 -10.333 -29.667 -31 -35c-4.66699 -1.33301 -61.667 -7.66602 -171 -18.999
c-140 -14.667 -260.667 -28.667 -362 -42c-32.667 -4.66699 -67 -7 -103 -7c-52.667 0 -84.334 1.33301 -95.001 4c-25.333 6.66699 -50 25.334 -74 56.001c-19.333 24.667 -29 50.667 -29 78c0 22 101.833 216.5 305.5 583.5s305.5 557.167 305.5 570.5
c0 10.667 -13 17 -39 19c-38 3.33301 -88 5 -150 5v0c-86 -0.666992 -205.333 3.33301 -358 12c-36 5.33301 -58.667 11.666 -68 18.999c-12 10 -18 30.667 -18 62z" />
    <glyph glyph-name="bracketleft" unicode="[" horiz-adv-x="528" 
d="M452 -355c51.333 0 77.001 16.665 77.001 49.998c0 22.667 -43 36.334 -129 41.001c-52 6 -78 27 -78 63v1495c0 36.667 22 55 66 55v0c-1.33301 0 19.667 -1.33301 63 -4c25.333 -2 43.666 -0.333008 54.999 5c15.333 6.66699 23 20.334 23 41.001
c0 18.667 -15.667 30.667 -47 36c-102.667 19.333 -173 29 -211 29c-78 0 -117 -43 -117 -129l6 -1583c0 -68 62 -102 186 -102c15.333 0 35.333 0.5 60 1.5s40 1.5 46 1.5z" />
    <glyph glyph-name="backslash" unicode="\" horiz-adv-x="614" 
d="M454 -122c-26.667 0 -43.333 5.33496 -50 16.002c-5.33301 6.66699 -8 23.667 -8 51c0 19.333 -17.333 101 -52 245l-65 267c-47.333 226.667 -122 566 -224 1018c-0.666992 3.33301 -4 12.666 -10 27.999c-5.33301 11.333 -8 21.333 -8 30c0 25.333 16 38 48 38h55
c46.667 0 73 -13 79 -39c-1.33301 6 -2 -7 -2 -39c0 1.33301 10.333 -49.334 31 -152.001l76 -372c53.333 -255.333 127 -580.333 221 -975c2 -9.33301 3 -18.333 3 -27c0 -36 -10.667 -58.333 -32 -67c-33.333 -14.667 -54 -22 -62 -22z" />
    <glyph glyph-name="bracketright" unicode="]" horiz-adv-x="528" 
d="M83 -355c-51.333 0 -77.001 16.665 -77.001 49.998c0 22.667 43 36.334 129 41.001c52 6 78 27 78 63v1495c0 36.667 -22 55 -66 55v0c1.33301 0 -19.667 -1.33301 -63 -4c-25.333 -2 -43.666 -0.333008 -54.999 5c-15.333 6.66699 -23 20.334 -23 41.001
c0 18.667 15.667 30.667 47 36c102.667 19.333 173 29 211 29c78 0 117 -43 117 -129l-6 -1583c0 -68 -62 -102 -186 -102c-15.333 0 -35.333 0.5 -60 1.5s-40 1.5 -46 1.5z" />
    <glyph glyph-name="asciicircum" unicode="^" horiz-adv-x="1024" 
d="M98 993v94.001c100 78.667 172 144.334 216 197.001c54 64.667 102.333 148.667 145 252h104c45.333 -104.667 94 -188.334 146 -251.001c45.333 -54.667 117 -120.667 215 -198v-94c-158 61.333 -295.333 151 -412 269c-74 -74.667 -137 -128.834 -189 -162.501
s-127 -69.167 -225 -106.5z" />
    <glyph glyph-name="underscore" unicode="_" horiz-adv-x="1024" 
d="M1024 -154v-102h-1024v102h1024z" />
    <glyph glyph-name="grave" unicode="`" horiz-adv-x="475" 
d="M8 1262c0 25.333 37.002 38 111.002 38c11.333 0 18.666 -2 21.999 -6c109.333 -125.333 209.666 -215.333 300.999 -270c12.667 -7.33301 19 -11.333 19 -12c0 -6.66699 -15.5 -18.667 -46.5 -36s-51.167 -26 -60.5 -26c-12.667 0 -22 2 -28 6
c-49.333 34 -109.333 82.333 -180 145c-92 81.333 -138 135 -138 161z" />
    <glyph glyph-name="a" unicode="a" horiz-adv-x="807" 
d="M206 493c-22.667 0 -44 7.33105 -64 21.998c-22 16.667 -33 35.334 -33 56.001c0 104.667 18.333 185.334 55 242.001c41.333 64.667 88 97 140 97c11.333 0 27.666 -2.5 48.999 -7.5s37.333 -7.5 48 -7.5c6.66699 0 16.334 0.333008 29.001 1s21.334 1 26.001 1
c18.667 0 35 -4.66699 49 -14c17.333 -10.667 30.666 -17 39.999 -19c104.667 -22.667 157 -102.334 157 -239.001c0 -40.667 -2 -101.5 -6 -182.5s-6 -141.833 -6 -182.5v-136c0 -18.667 1.83301 -46.667 5.5 -84s5.5 -65 5.5 -83c0 -34 -14 -51 -42 -51
c-11.333 0 -28.333 0.333008 -51 1h-50c-36 0 -54 8 -54 24c0 6 5.16699 16.5 15.5 31.5s15.5 28.833 15.5 41.5c0 12 -1 21.667 -3 29c-53.333 -4 -99.333 -6 -138 -6c-77.333 0 -130 2.33301 -158 7c-54.667 10 -100.667 33.333 -138 70c-6.66699 2 -16 9.66699 -28 23
c-10 20.667 -15 41 -15 61c0 76 56 144.333 168 205c38 20.667 92.667 31 164 31c34.667 0 83 -8.33301 145 -25c-2 82 -4.33301 164.333 -7 247c-14 115.333 -51.667 173 -113 173c-57.333 0 -94.333 -36.333 -111 -109c-8 -33.333 -12 -91.666 -12 -174.999
c0 -12 -11 -22.667 -33 -32c-17.333 -6.66699 -34 -10 -50 -10zM539 314.998l-42 1c-83.333 2 -150 -13.333 -200 -46c-16 -10 -31.667 -25.667 -47 -47c-16.667 -24 -25 -44.333 -25 -61c0 -36.667 61 -55 183 -55c48.667 0 93 4.66699 133 14z" />
    <glyph glyph-name="b" unicode="b" horiz-adv-x="774" 
d="M67 1247c0 16.667 25.999 25 77.999 25c4 0 10 -1.33301 18 -4s14.333 -4 19 -4h58c26.667 0 40 -13.667 40 -41c0 -116 -4.66699 -263.667 -14 -443c44.667 20.667 81.667 31 111 31c57.333 0 107 -9 149 -27c110.667 -47.333 166 -175 166 -383
c0 -192 -51.333 -312.667 -154 -362c-29.333 -14 -95.666 -21 -198.999 -21c-10.667 0 -38.667 5 -84 15c0.666992 -4.66699 3 -15 7 -31s6 -25 6 -27c0 -25.333 -23.333 -38 -70 -38c-92 0 -138 12 -138 36c0 10 3.16699 27.667 9.5 53s9.5 44 9.5 56
c5.33301 130 8.33301 306.667 9 530v285c0 178 -3 284.667 -9 320c0 3.33301 -2 7.83301 -6 13.5s-6 11.167 -6 16.5zM397.999 740c-69.333 0 -114 -62.333 -134 -187c-8 -50 -12 -139 -12 -267c0 -18.667 -0.5 -46 -1.5 -82s-1.5 -63 -1.5 -81c0 -29.333 22 -44 66 -44
c131.333 0 197 105.333 197 316c0 230 -38 345 -114 345z" />
    <glyph glyph-name="c" unicode="c" horiz-adv-x="752" 
d="M69 355c0 162.667 27.6689 318.003 83.002 466.003c17.333 48 70 72 158 72c70 0 137.667 -13.667 203 -41c82 -34.667 126.667 -81 134 -139c12.667 -100.667 19 -167.667 19 -201c0 -34.667 -3.16699 -54.667 -9.5 -60s-26.5 -8 -60.5 -8
c-4.66699 0 -11.167 -0.666992 -19.5 -2s-14.833 -2 -19.5 -2c-50 0 -75 38.667 -75 116c0 9.33301 0.333008 22.166 1 38.499s1 27.5 1 33.5c0 110 -23.333 165 -70 165c-27.333 0 -61 -31 -101 -93c-20 -30.667 -38 -91.334 -54 -182.001c-14 -80 -21 -144 -21 -192
c0 -62.667 9.33301 -117.334 28 -164.001c26 -62.667 65.667 -94 119 -94c47.333 0 99.166 21.5 155.499 64.5s89.833 64.5 100.5 64.5c11.333 0 25.666 -4.33301 42.999 -13c20.667 -9.33301 31 -18.666 31 -27.999c0 -10.667 -16.333 -31.334 -49 -62.001
c-70 -64 -155.333 -96 -256 -96c-121.333 0 -209 29.667 -263 89c-52 56.667 -78 146 -78 268z" />
    <glyph glyph-name="d" unicode="d" horiz-adv-x="817" 
d="M63 259c0 99.333 16.334 200.669 49.001 304.002c38.667 122 90.667 208.667 156 260c19.333 15.333 33 23 41 23c45.333 0 128 -13.667 248 -41c0.666992 60 0.666992 138.333 0 235c-1.33301 122 -2 200.667 -2 236c0 23.333 20.333 35 61 35
c8.66699 0 20 -3.5 34 -10.5s24 -11.167 30 -12.5l71 -8c29.333 -7.33301 44 -23.333 44 -48c0 -4 -2.83301 -10.667 -8.5 -20s-9.16699 -15.333 -10.5 -18c-6.66699 -20.667 -11.334 -52.667 -14.001 -96c-31.333 -458.667 -47 -758.667 -47 -900
c0 -108.667 2 -198.667 6 -270c0 -6.66699 2.16699 -16.834 6.5 -30.501s6.5 -23.834 6.5 -30.501c0 -8 -12.667 -16.333 -38 -25c-21.333 -6.66699 -37.666 -10 -48.999 -10c-4.66699 0 -11.167 1.33301 -19.5 4s-14.833 4 -19.5 4c-2.66699 0 -7.16699 -0.5 -13.5 -1.5
s-10.833 -1.5 -13.5 -1.5c-23.333 0 -36 19.667 -38 59c-0.666992 4 0.666016 32.667 3.99902 86c-82.667 -10.667 -157 -16 -223 -16c-2 0 -35 6 -99 18c-108 20 -162 111.667 -162 275zM551.001 576.003c0 36 -7.33301 67.333 -22 94c-18 32.667 -43.333 49 -76 49
c-74.667 0 -133.667 -68 -177 -204c-32.667 -102 -49 -201.333 -49 -298c0 -116 43.667 -174 131 -174c50 0 113 19 189 57v167c0 34 0.666992 85.5 2 154.5s2 120.5 2 154.5z" />
    <glyph glyph-name="e" unicode="e" horiz-adv-x="748" 
d="M63 303c0 128.667 39.666 279.667 118.999 453c2 7.33301 6.33301 18 13 32c4 5.33301 20.833 13.666 50.5 24.999s48.167 17 55.5 17c8 0 18.833 -1.66699 32.5 -5s23.167 -5.33301 28.5 -6c36 -2 72 -4.33301 108 -7c45.333 -5.33301 77.666 -18 96.999 -38
c62.667 -64 94 -188 94 -372c0 -68 -0.333008 -103.333 -1 -106c-5.33301 -47.333 -23.333 -71 -54 -71c-176 0 -303.667 -1.33301 -383 -4c-0.666992 -62.667 12 -114.667 38 -156c30.667 -48.667 75.334 -73 134.001 -73c40.667 0 91.834 18.333 153.501 55
s100.167 55 115.5 55c12 0 26.667 -3 44 -9c20.667 -8 31 -17 31 -27c0 -16.667 -29.667 -41.667 -89 -75c-48.667 -28 -85.667 -46 -111 -54c-18.667 -6.66699 -41 -10 -67 -10c-13.333 0 -31 0.666992 -53 2c-26.667 2 -44 3 -52 3c-84 3.33301 -142 12 -174 26
c-48 22.667 -81.667 68.834 -101 138.501s-29 138.5 -29 206.5zM224.999 295l38.001 -1c67.333 -0.666992 147.666 4.33301 240.999 15c9.33301 53.333 14 104.666 14 153.999c0 180 -30.667 270 -92 270c-44 0 -86 -39 -126 -117c-28 -56 -48.667 -114.667 -62 -176
c-8.66699 -37.333 -13 -85.666 -13 -144.999z" />
    <glyph glyph-name="f" unicode="f" horiz-adv-x="547" 
d="M156 709l-1.00098 68.999c-1.33301 114.667 0.333984 186.334 5.00098 215.001c10.667 80 41.334 141.667 92.001 185c27.333 23.333 51 35 71 35c37.333 0 81 -12.333 131 -37c48 -23.333 85.667 -49.333 113 -78c30 -32 45 -52 45 -60c0 -18 -11 -27 -33 -27
c-12 0 -30.333 10.667 -55 32s-48.334 32 -71.001 32c-83.333 0 -125 -118.667 -125 -356c50 2.66699 91 4 123 4c92 0 142.333 -13.667 151 -41c0.666992 -2 2.83398 -5.33301 6.50098 -10s5.5 -9 5.5 -13c0 -21.333 -56 -32 -168 -32c-36.667 0 -77.334 2 -122.001 6
c-6 -154.667 -9 -295 -9 -421c0 -91.333 2.33301 -160.666 7 -207.999c0 -6.66699 2 -17.334 6 -32.001s6 -25.667 6 -33c0 -12 -11.333 -18 -34 -18c-8 0 -19.833 1.5 -35.5 4.5s-27.5 4.5 -35.5 4.5c-8.66699 0 -21.5 -2.33301 -38.5 -7s-29.167 -7 -36.5 -7
c-5.33301 0 -10.333 2 -15 6c-16 7.33301 -24 15 -24 23c0 6.66699 1.83301 16.5 5.5 29.5s5.83398 22.167 6.50098 27.5c18 180.667 27 387 27 619c-42.667 -2 -77 -3 -103 -3c-34 0 -51 22.667 -51 68c0 10.667 6.66699 16 20 16c45.333 0 90.666 2.33301 135.999 7z" />
    <glyph glyph-name="g" unicode="g" horiz-adv-x="889" 
d="M299 195c-120 14.667 -180 86.334 -180 215.001c0 188.667 47.667 336 143 442c14 15.333 31.667 23 53 23c26.667 0 63.667 -5.66699 111 -17c52 -12 89.667 -18.667 113 -20c7.33301 2.66699 52.666 22 135.999 58c77.333 33.333 117.333 50 120 50
c12.667 0 30.834 -8 54.501 -24s35.5 -29.667 35.5 -41c0 -22.667 -70.333 -67 -211 -133c44.667 -82 67 -158.667 67 -230c0 -166 -58.667 -274.333 -176 -325c-37.333 -12.667 -92.666 -35.334 -165.999 -68.001c-70.667 -40 -106 -67.333 -106 -82
c0 -12.667 22.333 -22.334 67 -29.001l232 -28c115.333 -17.333 204.333 -41 267 -71c85.333 -41.333 128 -95.666 128 -162.999c0 -57.333 -50.333 -103.666 -151 -138.999c-78 -27.333 -153.333 -41 -226 -41c-184 0 -334 14.333 -450 43c-58 14 -96.667 26 -116 36
c-40.667 21.333 -61.334 51.666 -62.001 90.999l-1 11c-1.33301 64.667 78.667 134 240 208c-66.667 18.667 -100 48.667 -100 90c0 74 59.333 122 178 144zM586 547c0 50 -6.99902 95 -20.999 135c-19.333 56 -49.333 84 -90 84c-54.667 0 -104 -44.333 -148 -133
c-38 -76.667 -57 -145.667 -57 -207c0 -53.333 10.667 -97.333 32 -132c25.333 -43.333 62.666 -65 111.999 -65c114.667 0 172 106 172 318zM811.001 -240c0 29.333 -61.668 64.001 -185.001 104.001c-111.333 36 -189 54 -233 54c-33.333 0 -81.666 -20 -144.999 -60
c-67.333 -42 -101 -78 -101 -108c0 -70.667 93 -106 279 -106c60 0 131.667 8.33301 215 25c113.333 23.333 170 53.666 170 90.999z" />
    <glyph glyph-name="h" unicode="h" horiz-adv-x="889" 
d="M150 1136c0 10.667 -1.16895 26.3359 -3.50195 47.0029s-3.5 36 -3.5 46c0 22 22.667 33 68 33c26.667 0 56 -1.66699 88 -5c15.333 -0.666992 38.333 -7.33398 69 -20.001c36 -14 54 -26.333 54 -37l-24.5 -26c-16.333 -17.333 -28.833 -43.333 -37.5 -78
c-24.667 -102 -43 -221 -55 -357c27.333 22 58 33 92 33c12.667 0 48.334 -6 107.001 -18c164 -34.667 251.333 -93.334 262 -176.001c4 -32 6 -78 6 -138c0 -38.667 -2.66699 -98 -8 -178s-8 -140.667 -8 -182c0 -42.667 2 -74.667 6 -96
c0.666992 -3.33301 2.83398 -8.66602 6.50098 -15.999s5.5 -12.333 5.5 -15c0 -14 -8.66699 -21 -26 -21c-6 0 -15.667 1.83301 -29 5.5s-23.666 5.5 -30.999 5.5c-3.33301 0 -8.83301 -1.5 -16.5 -4.5s-13.834 -4.5 -18.501 -4.5c-56 0 -84 11.333 -84 34
c0 3.33301 0.666992 8.66602 2 15.999c20.667 98 31 239.333 31 424c0 10 0.333008 26 1 48s1 38.667 1 50c0 116 -46.333 174 -139 174c-38.667 0 -76.667 -15 -114 -45s-58 -64.333 -62 -103c-6.66699 -60 -10 -145.333 -10 -256c0 -32 1.66699 -80.667 5 -146
s5 -114.333 5 -147c0 -10.667 -5.33301 -20.334 -16 -29.001s-21.667 -13 -33 -13c-10 0 -25 0.666992 -45 2s-35 2 -45 2c-54.667 0 -82 13 -82 39c0 4.66699 2.5 10.167 7.5 16.5s7.83301 10.833 8.5 13.5c6 19.333 10 44 12 74c36 462.667 54 812 54 1048z" />
    <glyph glyph-name="i" unicode="i" horiz-adv-x="436" 
d="M148 557c0 90.667 -5 164.334 -15 221.001c-2.66699 15.333 -4 24.333 -4 27c0 10 6.66699 18.667 20 26s25.333 11 36 11c9.33301 0 20.666 -1.66699 33.999 -5c16 -3.33301 27 -5.33301 33 -6l71 -6c34.667 -6 52 -17.333 52 -34
c0 -7.33301 -4.16699 -14.833 -12.5 -22.5s-13.166 -13.834 -14.499 -18.501c-7.33301 -25.333 -15 -82 -23 -170c-20 -234 -30 -398.333 -30 -493c0 -20 3 -38.667 9 -56s9 -25.666 9 -24.999c0 -21.333 -30.667 -32 -92 -32c-82 0 -123 12.667 -123 38
c0 5.33301 1.66699 12.833 5 22.5s5 16.5 5 20.5c26.667 183.333 40 350.666 40 501.999zM98 1061c0 34.667 12.5 67.167 37.5 97.5s54.167 45.5 87.5 45.5c24.667 0 49.667 -8.66699 75 -26c28 -19.333 42 -40.333 42 -63c0 -42 -9.66699 -79 -29 -111
c-23.333 -37.333 -55 -56 -95 -56c-28.667 0 -55.5 11.5 -80.5 34.5s-37.5 49.167 -37.5 78.5z" />
    <glyph glyph-name="j" unicode="j" horiz-adv-x="424" 
d="M139 597c0 113.333 -2.33203 184.666 -6.99902 213.999c-0.666992 3.33301 -3.33398 7.83301 -8.00098 13.5s-7 10.834 -7 15.501c0 8.66699 8 16.667 24 24c13.333 6 25.333 9 36 9c94.667 0 149 -7 163 -21c8.66699 -8 13 -18.333 13 -31
c0 -5.33301 -2.5 -12.333 -7.5 -21s-8.16699 -14.667 -9.5 -18c-6 -22 -10.667 -78 -14 -168c-10 -272.667 -15 -472 -15 -598c0 -132.667 2.33301 -233.667 7 -303c2.66699 -35.333 4 -48.333 4 -39c0 -30 -22.333 -45 -67 -45c-5.33301 0 -13.5 1.83301 -24.5 5.5
s-19.5 5.5 -25.5 5.5s-14.833 -1.83301 -26.5 -5.5s-20.5 -5.5 -26.5 -5.5c-22 0 -33 15 -33 45c0 8.66699 1.33301 21.167 4 37.5s4 28.5 4 36.5c10.667 317.333 16 600.333 16 849zM119.001 1061c0 34.667 12.5 67.167 37.5 97.5s54.167 45.5 87.5 45.5
c24.667 0 49.667 -8.66699 75 -26c28 -19.333 42 -40.333 42 -63c0 -42 -9.66699 -79 -29 -111c-23.333 -37.333 -55 -56 -95 -56c-28.667 0 -55.5 11.5 -80.5 34.5s-37.5 49.167 -37.5 78.5z" />
    <glyph glyph-name="k" unicode="k" horiz-adv-x="788" 
d="M84 1229c0 19.333 16.333 28.9951 49 28.9951l154 1c31.333 0 47 -11.333 47 -34c0 -4 -2.66699 -8 -8 -12s-8.33301 -7.66699 -9 -11c-14.667 -78.667 -25.334 -224.667 -32.001 -438c-2.66699 -88 -4 -176.667 -4 -266c27.333 48 79.666 117 156.999 207
c72 82.667 132 146 180 190c12.667 10.667 32 16 58 16c6.66699 0 17.334 -2.5 32.001 -7.5s27.334 -7.5 38.001 -7.5c22.667 0 34 -10.333 34 -31c0 -7.33301 -6.66699 -17 -20 -29c-56.667 -50.667 -117.334 -111.667 -182.001 -183
c-89.333 -98.667 -134 -164.334 -134 -197.001c0 -36 36 -99.333 108 -190c68 -85.333 121 -139.333 159 -162c20 -12 39 -20 57 -24c8.66699 -1.33301 17.834 -2.66602 27.501 -3.99902s14.5 -6.66602 14.5 -15.999c0 -17.333 -25.333 -33.666 -76 -48.999
c-42.667 -12.667 -75.667 -19 -99 -19c-40.667 0 -106.334 51 -197.001 153c-65.333 74 -120.666 145 -165.999 213c0.666992 -74.667 4.33398 -186.334 11.001 -335.001c0 -7.33301 2 -18.666 6 -33.999s6 -26.666 6 -33.999c0 -12.667 -10.333 -19 -31 -19
c-7.33301 0 -17.833 1.83301 -31.5 5.5s-23.5 5.5 -29.5 5.5c-6.66699 0 -16.334 -1.16699 -29.001 -3.5s-22.334 -3.5 -29.001 -3.5c-33.333 0 -49.666 14 -48.999 42v8c2 56 8 157.667 18 305c8.66699 128.667 13 230.667 13 306c0 -4 -6 156 -18 480
c-0.666992 16.667 -5 43.334 -13 80.001s-12 59.334 -12 68.001z" />
    <glyph glyph-name="l" unicode="l" horiz-adv-x="438" 
d="M147 805c0 42 -2.33203 105.167 -6.99902 189.5s-7 147.5 -7 189.5c0 32 10 48 30 48c7.33301 0 27.5 -5.16699 60.5 -15.5s62.833 -15.5 89.5 -15.5c38 0 57 -13.333 57 -40c0 -6.66699 -5.83301 -20.834 -17.5 -42.501s-17.834 -37.5 -18.501 -47.5
c-20 -211.333 -30 -429.666 -30 -654.999c0 -40 0.5 -99.333 1.5 -178s1.5 -137.667 1.5 -177c0 -6 2.5 -14.667 7.5 -26s7.5 -20.333 7.5 -27c0 -26 -14 -39 -42 -39c-120 0 -180 15.667 -180 47c0 5.33301 2 12.5 6 21.5s6 15.5 6 19.5c23.333 178.667 35 428 35 748z" />
    <glyph glyph-name="m" unicode="m" horiz-adv-x="1378" 
d="M125 679c0 88.667 -0.667969 149.008 -2.00098 181.008c-0.666992 11.333 -4.33398 21.166 -11.001 29.499s-10 14.166 -10 17.499c0 15.333 18 24 54 26c-17.333 -0.666992 6.33398 -1 71.001 -1c6.66699 0 16.167 1.33301 28.5 4s21.833 4 28.5 4
c12 0 25.667 -4.33301 41 -13s23 -18.667 23 -30c0 -4.66699 -2.66699 -9 -8 -13c-7.33301 -6 -11.333 -10 -12 -12c-6.66699 -11.333 -13 -35 -19 -71c56.667 13.333 105.334 20 146.001 20c118 0 199.667 -26.667 245 -80c68.667 56 145.334 84 230.001 84
c45.333 0 85.666 -3.33301 120.999 -10c114.667 -22.667 185.667 -79.334 213 -170.001c8 -28 12 -49.667 12 -65c0 -30.667 -1.5 -76.834 -4.5 -138.501s-4.5 -108.167 -4.5 -139.5c0 -116 1.66699 -197.667 5 -245c0 -4.66699 1.83301 -12.167 5.5 -22.5
s5.5 -18.5 5.5 -24.5c0 -29.333 -11 -44 -33 -44c-5.33301 0 -13.333 1.5 -24 4.5s-18.667 4.5 -24 4.5c-6 0 -15.167 -1.33301 -27.5 -4s-21.5 -4 -27.5 -4c-14.667 0 -32 2.66699 -52 8c-25.333 6.66699 -38 15 -38 25c0 4 3.16699 7.83301 9.5 11.5s9.83301 6.5 10.5 8.5
c20 54 30 226 30 516c0 57.333 -9.66699 105.666 -29 144.999c-26 51.333 -65 77 -117 77c-30 0 -64.667 -17.667 -104 -53c-35.333 -32.667 -59 -64.334 -71 -95.001c-24 -64.667 -36 -169.667 -36 -315c0 -96 5.33301 -168.333 16 -217
c0.666992 -3.33301 3 -9.33301 7 -18s6 -15.334 6 -20.001c0 -14.667 -12.667 -22 -38 -22c-4.66699 0 -11.5 1.5 -20.5 4.5s-15.833 4.5 -20.5 4.5c-6.66699 0 -16.334 -1.5 -29.001 -4.5s-22.334 -4.5 -29.001 -4.5c-46.667 0 -70 33.333 -70 100c0 48 4 124.167 12 228.5
s12 182.5 12 234.5c0 118 -30.333 177 -91 177c-95.333 0 -157.666 -54 -186.999 -162c-14 -52.667 -21 -145 -21 -277c0 -99.333 6 -172.333 18 -219c11.333 -40.667 17 -56.334 17 -47.001c0 -18 -14.667 -27 -44 -27c-6 0 -14.167 1.83301 -24.5 5.5
s-18.166 5.5 -23.499 5.5c-6.66699 0 -16 -0.833008 -28 -2.5s-21 -2.5 -27 -2.5c-56.667 0 -85 10.333 -85 31c0 8.66699 1.66699 20 5 34c3.33301 16.667 5.33301 28 6 34c9.33301 106 14 225 14 357v191z" />
    <glyph glyph-name="n" unicode="n" horiz-adv-x="897" 
d="M122 657c0 116 -1.00098 182.999 -3.00098 200.999c-0.666992 2.66699 -2.16699 6.33398 -4.5 11.001s-3.5 8.66699 -3.5 12c0 6.66699 2 11 6 13s9.33301 2.33301 16 1l14 -2c4 0 9.66699 1 17 3s12.666 3 15.999 3c105.333 0 158 -15.667 158 -47
c0 -4 -7 -16.333 -21 -37s-21 -39 -21 -55c0 -4 1 -9.66699 3 -17c65.333 30.667 152.333 46 261 46c151.333 0 227 -90.667 227 -272c0 -53.333 -1.5 -133.666 -4.5 -240.999s-4.5 -187.666 -4.5 -240.999c0 -6 2.5 -14.833 7.5 -26.5s7.5 -19.5 7.5 -23.5
c0 -9.33301 -7.66699 -14 -23 -14c-8.66699 0 -22.167 -2 -40.5 -6s-32.166 -6 -41.499 -6c-2.66699 0 -6.66699 0.666992 -12 2s-9.33301 2 -12 2c-25.333 0 -40.666 1 -45.999 3c-12.667 4.66699 -19 17.667 -19 39l1 11c15.333 176 23 278.667 23 308
c0 61.333 -5 158.666 -15 291.999c-5.33301 70 -38.333 105 -99 105c-80.667 0 -141.667 -40 -183 -120c-32.667 -62.667 -49 -138.334 -49 -227.001c0 -180.667 4 -289.667 12 -327c0.666992 -2.66699 2.16699 -5.83398 4.5 -9.50098s3.5 -7.16699 3.5 -10.5
c0 -11.333 -21.333 -17 -64 -17c-4.66699 0 -12 1.66699 -22 5s-17.667 5 -23 5c-4.66699 0 -11.667 -1 -21 -3s-16.666 -3 -21.999 -3c-8.66699 0 -19.334 3 -32.001 9c-15.333 6 -23 12.667 -23 20c0 2 1.66699 4.83301 5 8.5s5 6.83398 5 9.50098
c14.667 97.333 22 296 22 596z" />
    <glyph glyph-name="o" unicode="o" horiz-adv-x="795" 
d="M63 307c0 196.667 41.0029 362 123.003 496c6.66699 12.667 17 29 31 49c41.333 16.667 65.666 25 72.999 25c13.333 0 32.166 -3.5 56.499 -10.5s41.833 -11.167 52.5 -12.5c32.667 -2 82 -11 148 -27c78 -33.333 130.333 -106 157 -218
c15.333 -64.667 23 -159.667 23 -285c0 -66.667 -11.667 -134.334 -35 -203.001c-28 -84 -65.333 -138.667 -112 -164c-33.333 -18 -74.333 -27 -123 -27c-12 0 -28.167 3.66699 -48.5 11s-35.833 11.333 -46.5 12c-24.667 0.666992 -61.334 5.33398 -110.001 14.001
c-75.333 24.667 -127.333 69 -156 133c-22 48 -33 117 -33 207zM554.003 474c0 182.667 -48.668 274.001 -146.001 274.001c-58 0 -102 -60.333 -132 -181c-20 -82 -30 -164.667 -30 -248c0 -203.333 43 -305 129 -305c68.667 0 118.334 63 149.001 189
c20 81.333 30 171.666 30 270.999z" />
    <glyph glyph-name="p" unicode="p" horiz-adv-x="782" 
d="M130 749c0 24.667 -2.00293 61.501 -6.00293 110.501s-6 85.833 -6 110.5c0 15.333 5.66699 24.333 17 27c38 10 83.667 15 137 15c49.333 0 74 -24 74 -72c0 -6.66699 -2.83301 -15.334 -8.5 -26.001s-8.83398 -18.334 -9.50098 -23.001
c-2.66699 -24.667 -9 -61.667 -19 -111c35.333 12.667 64 19 86 19c6.66699 0 43.667 -7.66699 111 -23c20.667 -3.33301 51.334 -12 92.001 -26c44.667 -24 78.334 -76.667 101.001 -158c17.333 -62 26 -127 26 -195c0 -100.667 -21.667 -187.667 -65 -261
c-52 -88 -125.333 -132 -220 -132c-35.333 0 -85.666 13 -150.999 39c2.66699 -154 8 -270 16 -348c0.666992 -20 2 -50 4 -90c0.666992 -4.66699 3.33398 -11.5 8.00098 -20.5s7 -16.5 7 -22.5c0 -23.333 -13.667 -35 -41 -35c-6 0 -13.167 3.16699 -21.5 9.5
s-17.5 9.5 -27.5 9.5c-5.33301 0 -13.333 -0.833008 -24 -2.5s-18.667 -2.5 -24 -2.5c-54.667 0 -82 20.333 -82 61v9c1.33301 112.667 6.33301 302.334 15 569.001c7.33301 244 11 433.667 11 569zM411.997 725.001c-61.333 0 -100.334 -65.333 -117.001 -196
c-4.66699 -41.333 -7 -129.333 -7 -264c0 -76 -0.333008 -105.333 -1 -88c1.33301 -41.333 8.83301 -65.5 22.5 -72.5s28.834 -10.5 45.501 -10.5c128 0 192 114 192 342c0 192.667 -45 289 -135 289z" />
    <glyph glyph-name="q" unicode="q" horiz-adv-x="825" 
d="M78 472c0 216.667 101.666 324.999 304.999 324.999c18.667 0 67.667 -9.66699 147 -29l1 19c0.666992 16 -4.33301 33.167 -15 51.5s-16 29.5 -16 33.5c0 21.333 23.333 32 70 32c10 0 25.333 -1 46 -3s36 -3 46 -3c64 0 96 -15.333 96 -46
c0 1.33301 -6.83301 -9.16699 -20.5 -31.5s-21.167 -43.833 -22.5 -64.5c-26 -432 -39 -768 -39 -1008c0 -93.333 0.666992 -151.333 2 -174c0.666992 -10 9.66699 -31 27 -63c0 -16 -14.667 -24 -44 -24c-5.33301 0 -12.833 0.833008 -22.5 2.5s-17.167 2.5 -22.5 2.5
c-8.66699 0 -22.334 -0.666992 -41.001 -2s-32.667 -2 -42 -2c-36 0 -54 12.333 -54 37c0 3.33301 2.33301 10.5 7 21.5s7.33398 19.5 8.00098 25.5c4 86 7.33301 232 10 438c-41.333 -2.66699 -75.666 -4 -102.999 -4c-118 0 -193.667 22.667 -227 68
c-64 86.667 -96 219.334 -96 398.001zM445.999 716.999c-72 0 -125 -37.335 -159 -112.002c-26 -55.333 -39 -124 -39 -206c0 -210 46.333 -315 139 -315s139 102.333 139 307c0 30.667 1.5 76.834 4.5 138.501s4.5 107.834 4.5 138.501c0 13.333 -12 25.333 -36 36
c-19.333 8.66699 -37 13 -53 13z" />
    <glyph glyph-name="r" unicode="r" horiz-adv-x="559" 
d="M130 626c0 74.667 -3.66309 132.336 -10.9961 173.003c-0.666992 2.66699 -3 7 -7 13s-6 11 -6 15c0 18.667 10.667 28 32 28c5.33301 0 13.166 -0.833008 23.499 -2.5s17.833 -2.5 22.5 -2.5c7.33301 0 18 0.5 32 1.5s24.333 1.5 31 1.5c74 0 111 -16 111 -48l-28.5 -34
c-19 -22.667 -28.5 -46.334 -28.5 -71.001c18 4 32.667 5.66699 44 5h11c45.333 -2.66699 98.666 -32.334 159.999 -89.001c38 -34.667 57 -58.334 57 -71.001c0 -10.667 -12.833 -22.167 -38.5 -34.5s-44.834 -18.5 -57.501 -18.5c-32 0 -53 8 -63 24
c-0.666992 0.666992 -8.33398 23.334 -23.001 68.001c-70.667 -16 -106 -63.333 -106 -142v-387c0 -6.66699 2.33301 -16.5 7 -29.5s7 -22.833 7 -29.5c0 -32.667 -15.333 -49 -46 -49c-114 0 -171 18 -171 54c0 4.66699 1.16699 11.667 3.5 21s3.83301 15.666 4.5 18.999
c26.667 205.333 40 400.333 40 585z" />
    <glyph glyph-name="s" unicode="s" horiz-adv-x="715" 
d="M86 493c0 66.667 7.66699 130.666 23 191.999c20.667 80 50.667 135.667 90 167c7.33301 1.33301 18.666 4 33.999 8c4 1.33301 8.33301 5.33301 13 12c3.33301 4.66699 10.333 7 21 7c18 0 41.667 -4 71 -12c34.667 -8.66699 58.667 -13.667 72 -15
c5.33301 -0.666992 13.5 -0.5 24.5 0.5s18.167 1.5 21.5 1.5c6.66699 0 13.667 -0.666992 21 -2c108 -23.333 162 -86.666 162 -189.999c0 -119.333 -15.667 -185 -47 -197c-8.66699 -3.33301 -19 -5 -31 -5c-20 0 -41.333 6.33301 -64 19c-26 14.667 -39 31.334 -39 50.001
c0 9.33301 1 23.833 3 43.5s3 34.5 3 44.5c0 102 -18 153 -54 153c-38.667 0 -74 -29.667 -106 -89c-29.333 -52.667 -43.666 -101.334 -42.999 -146.001l1 -62c1.33301 -66.667 35 -117.334 101 -152.001l184 -70c66 -28 99 -67.667 99 -119
c0 -100 -100.667 -150 -302 -150c-88 0 -171.333 6.66699 -250 20c-32.667 6 -49 25 -49 57c0 42.667 18.667 64 56 64c14.667 0 46.667 -10.667 96 -32s92.333 -32 129 -32c96.667 0 145 22 145 66c0 24.667 -33.333 48.334 -100 71.001
c-90 30.667 -151.667 58.667 -185 84c-66.667 50 -100 121 -100 213z" />
    <glyph glyph-name="t" unicode="t" horiz-adv-x="535" 
d="M168 748c-60 -7.33301 -91.3311 -11 -93.998 -11c-12.667 0 -24.334 9.33301 -35.001 28c-8.66699 16 -13 31 -13 45c0 13.333 21.667 23 65 29c27.333 2 55 4.33301 83 7v207c0 8.66699 -4.16699 21.667 -12.5 39s-12.5 27 -12.5 29c0 20 7 30 21 30c2 0 5 -1 9 -3
s7 -3 9 -3c2.66699 0 6.16699 0.666992 10.5 2s7.83301 2 10.5 2c9.33301 0 23.333 -2.66699 42 -8s32.667 -8 42 -8c3.33301 0 8.66602 0.333008 15.999 1s13 1 17 1c35.333 0 53 -9.66699 53 -29c0 -8 -3.16699 -18.833 -9.5 -32.5s-10.166 -24.167 -11.499 -31.5
c-4.66699 -46 -9.33398 -106 -14.001 -180c87.333 2.66699 141.333 4 162 4c28.667 0 43 -19 43 -57c0 -3.33301 0.666992 -7.66602 2 -12.999s2 -9.33301 2 -12l-4 -10c-12.667 -9.33301 -83 -14 -211 -14c-8.66699 -211.333 -13 -399.333 -13 -564
c0 -80.667 3.66699 -131 11 -151c8 -22.667 12 -31.667 12 -27c0 -17.333 -53.333 -26 -160 -26c-11.333 0 -24.333 3.66699 -39 11s-22 16.333 -22 27c4.66699 17.333 10 40.666 16 69.999c16.667 236 25 452 25 648z" />
    <glyph glyph-name="u" unicode="u" horiz-adv-x="883" 
d="M104 231c0 58 1.16699 145.169 3.5 261.502s3.5 203.5 3.5 261.5c0 3.33301 -1.83301 8.5 -5.5 15.5s-5.5 11.833 -5.5 14.5c0 23.333 21.333 35 64 35c10.667 0 27 -1 49 -3s38.667 -3 50 -3c6 0 14.333 1.5 25 4.5s18.667 4.5 24 4.5c1.33301 0 5 -4 11 -12
s9 -13 9 -15c0 -8 -2.5 -16 -7.5 -24s-8.16699 -14.333 -9.5 -19c-30 -146.667 -45 -311.667 -45 -495c0 -112.667 37.333 -169 112 -169c62.667 0 131.334 25.333 206.001 76v244c0 192 -1.33301 305.333 -4 340c-0.666992 4 -2.83398 9.83301 -6.50098 17.5
s-5.5 13.5 -5.5 17.5c0 20 18.333 30 55 30c25.333 0 61 -6 107 -18c56.667 -14.667 85 -30.334 85 -47.001c0 -7.33301 -7.5 -19.5 -22.5 -36.5s-23.167 -32.167 -24.5 -45.5c-5.33301 -65.333 -8 -169 -8 -311v-121c0 -28.667 1 -70.834 3 -126.501s3 -97.5 3 -125.5
c0 -13.333 5.16699 -28 15.5 -44l15.5 -24c0 -20.667 -22.667 -31 -68 -31c-109.333 0 -164 15.667 -164 47c0 10.667 1.5 26.5 4.5 47.5s4.5 36.833 4.5 47.5c-65.333 -24.667 -121.333 -37 -168 -37c-88.667 0 -159.667 18 -213 54c-62 42.667 -93 105.667 -93 189z" />
    <glyph glyph-name="v" unicode="v" horiz-adv-x="672" 
d="M22 785c0 20 41.6689 29.9971 125.002 29.9971c22.667 0 43.334 -5 62.001 -15c23.333 -12 35 -28 35 -48c0 -5.33301 -1.5 -13.666 -4.5 -24.999s-4.5 -19.666 -4.5 -24.999c0 -118 34.333 -307 103 -567h8c40 230 77.667 409 113 537c19.333 70 30.333 122.333 33 157
c0 4 -0.666992 9.33301 -2 16s-2 11.334 -2 14.001c0 19.333 10.667 29 32 29c4.66699 0 11.5 -1.5 20.5 -4.5s15.833 -4.5 20.5 -4.5c19.333 0 38.666 -4 57.999 -12c24 -10 36 -23.333 36 -40c0 -12.667 -4.33301 -27 -13 -43c-12 -20.667 -19 -34.334 -21 -41.001
c-91.333 -280 -137 -516.333 -137 -709c0 -23.333 -9.66699 -35 -29 -35c-2.66699 0 -6.83398 0.833008 -12.501 2.5s-9.83398 2.5 -12.501 2.5c-3.33301 0 -8 -1.33301 -14 -4s-11 -4 -15 -4c-4.66699 0 -11.334 2 -20.001 6s-15.667 6 -21 6s-13.166 -1.33301 -23.499 -4
s-18.166 -4 -23.499 -4c-7.33301 0 -19 1.16699 -35 3.5s-28 3.5 -36 3.5c-20.667 0 -31 9.33301 -31 28c0 22.667 -4 50.334 -12 83.001c-6.66699 28 -13.667 55.667 -21 83c-24.667 118 -74.334 302.333 -149.001 553c-4.66699 14.667 -7 25 -7 31z" />
    <glyph glyph-name="w" unicode="w" horiz-adv-x="997" 
d="M33 811c0 7.33301 9.50195 15.666 28.502 24.999s32.833 14 41.5 14c7.33301 0 20 -0.833008 38 -2.5s31.667 -2.5 41 -2.5c58 0 87 -14.667 87 -44c0 -4.66699 -3.83301 -19.667 -11.5 -45s-11.5 -48 -11.5 -68c0 -195.333 6 -354.333 18 -477h6l70 309
c18 76.667 27 117.667 27 123s3.16699 13.5 9.5 24.5s12.166 16.5 17.499 16.5c9.33301 0 23.833 -2 43.5 -6s34.167 -6 43.5 -6c8 0 19.5 1.33301 34.5 4s26.167 4 33.5 4c16.667 0 26.667 -5 30 -15c0.666992 -2.66699 1 -14.667 1 -36
c0 -57.333 41.667 -231.666 125 -522.999h6c55.333 487.333 87.333 736.833 96 748.5s31 17.5 67 17.5c4.66699 0 10.834 -1.5 18.501 -4.5s13.167 -4.83301 16.5 -5.5c54 -5.33301 81 -23.666 81 -54.999c0 -9.33301 -2.33301 -16.333 -7 -21
c-6.66699 -6.66699 -10.667 -11.334 -12 -14.001c-18 -39.333 -42 -139 -72 -299l-72 -485c-6.66699 -10 -34.667 -15 -84 -15c-4.66699 0 -11.334 1.83301 -20.001 5.5s-15.667 5.5 -21 5.5c-6 0 -15 -1.16699 -27 -3.5s-21.333 -3.5 -28 -3.5
c-33.333 0 -53 4.66699 -59 14c-4 7.33301 -6 16.666 -6 27.999s-5.66699 29.666 -17 54.999c-16.667 38.667 -33 95.334 -49 170.001c-3.33301 15.333 -17.666 101.333 -42.999 258h-6l-88 -410c-1.33301 -5.33301 -2 -10.333 -2 -15c0 -5.33301 1 -13.333 3 -24
s3 -18 3 -22c0 -8 -15.333 -16 -46 -24c-26 -6 -45.333 -9 -58 -9c-6.66699 0 -16.334 1 -29.001 3s-22.334 3 -29.001 3c-28.667 0 -45.667 0.666992 -51 2c-17.333 4 -27 15.667 -29 35c-18 174 -35 324.333 -51 451c-5.33301 66 -19 162.667 -41 290
c-0.666992 3.33301 -3.5 7.83301 -8.5 13.5s-7.5 10.834 -7.5 15.501z" />
    <glyph glyph-name="x" unicode="x" horiz-adv-x="741" 
d="M254 422l-158.003 289.003c-9.33301 16.667 -14 22.667 -14 18c0 13.333 22.667 25.666 68 36.999c36.667 8.66699 65.667 13 87 13c15.333 0 33.666 -28 54.999 -84c26.667 -70 44 -110.667 52 -122c38.667 57.333 105 150.333 199 279c20 4.66699 38.667 7 56 7
c4.66699 0 24.834 -6.83301 60.501 -20.5s54.834 -22.167 57.501 -25.5s4 -7 4 -11c0 -8.66699 -3.33301 -14.667 -10 -18c-12.667 -6.66699 -19.667 -10.667 -21 -12c-32.667 -30 -77.667 -86.667 -135 -170l-129 -188c101.333 -160.667 188.666 -270.667 261.999 -330
c19.333 -15.333 29 -25 29 -29c0 -20.667 -37 -33.667 -111 -39c-6.66699 0 -17.167 -2.5 -31.5 -7.5s-25.166 -7.5 -32.499 -7.5c-14 0 -82.667 91 -206 273c-57.333 -91.333 -101.666 -183.333 -132.999 -276c1.33301 5.33301 2 -6.33398 2 -35.001
c0 -6.66699 -7.66699 -10 -23 -10c-2.66699 0 -6.66699 -1 -12 -3s-9.33301 -3 -12 -3c-5.33301 0 -10.666 3.66699 -15.999 11s-10.333 11 -15 11c-3.33301 0 -7.66602 -1.66699 -12.999 -5s-11.333 -5 -18 -5c-10.667 0 -24 3 -40 9c-18.667 8 -28 16 -28 24
c0 11.333 33 78.666 99 201.999c59.333 110.667 101.666 186.667 126.999 228z" />
    <glyph glyph-name="y" unicode="y" horiz-adv-x="870" 
d="M101 619c0 66 -1.00195 106.66 -3.00195 121.993c0 2.66699 -0.833008 6.33398 -2.5 11.001s-2.5 8.33398 -2.5 11.001c0 22.667 22.333 34 67 34c6.66699 2.66699 12 4 16 4c-8 0 1 -2.66699 27 -8h65c29.333 0 44 -18.333 44 -55
c0 -5.33301 -4.16699 -14.166 -12.5 -26.499s-13.166 -21.5 -14.499 -27.5c-6 -29.333 -9 -70.666 -9 -123.999c0 -154 5.66699 -285.333 17 -394c5.33301 -54 39 -81 101 -81c48.667 0 113.334 23 194.001 69c0 190.667 -5 351.667 -15 483c-2 30 -8.66699 75 -20 135
c-8 26 -12 37.667 -12 35c0 16.667 7 25 21 25c3.33301 0 8.5 -1.16699 15.5 -3.5s12.833 -3.5 17.5 -3.5c8 0 19.833 1 35.5 3s27.5 3 35.5 3c7.33301 0 18.666 -0.666992 33.999 -2s27 -2 35 -2c24.667 0 37 -12 37 -36c0 -7.33301 -4 -17.333 -12 -30
s-12 -22.667 -12 -30c0 -130.667 2.66699 -268.667 8 -414c0.666992 -20 3.33398 -71.667 8.00098 -155c4 -63.333 6 -115 6 -155c0 -245.333 -99.667 -368 -299 -368c-39.333 0 -99 6.33301 -179 19c-82 12.667 -141 25 -177 37c-18 6 -27 18 -27 36
c0 14 6.33301 26.5 19 37.5s26 16.5 40 16.5c7.33301 0 38.5 -8.16699 93.5 -24.5s99.167 -24.5 132.5 -24.5c52.667 0 98.667 9.66699 138 29c50 24.667 75 60.667 75 108c0 12.667 0.333008 31.834 1 57.501s1 44.834 1 57.501c0 4 -0.333008 10.333 -1 19
s-1 15.334 -1 20.001c-65.333 -24.667 -122.333 -37 -171 -37c-77.333 0 -143.666 16.333 -198.999 49c-64.667 38 -100.334 92.667 -107.001 164c-5.33301 52 -8 190.667 -8 416z" />
    <glyph glyph-name="z" unicode="z" horiz-adv-x="743" 
d="M73 734c0 8 4.16406 16.335 12.4971 25.002s16.5 13 24.5 13c12.667 0 32.5 -1.83301 59.5 -5.5s47.167 -5.5 60.5 -5.5c33.333 0 83.166 2.16699 149.499 6.5s115.833 6.5 148.5 6.5c21.333 0 48.333 -7.5 81 -22.5s55 -30.5 67 -46.5
c0 -0.666992 5 -5.33398 15 -14.001c6 -6 9 -11.667 9 -17c0 -1.33301 -8.66699 -13 -26 -35c-131.333 -163.333 -264.666 -346.333 -399.999 -549c206 22 323 33 351 33c16.667 0 31.667 -10.333 45 -31c12 -18 18 -36.333 18 -55c0 -22 -17.333 -33 -52 -33
c-21.333 0 -53.833 1.66699 -97.5 5s-76.5 5 -98.5 5c-35.333 0 -88.666 -3.33301 -159.999 -10s-124.666 -10 -159.999 -10c-17.333 0 -33.166 8.16699 -47.499 24.5s-21.5 33.166 -21.5 50.499c0 10.667 2.66699 19.667 8 27l424 557c-49.333 7.33301 -89.333 11 -120 11
c-16 0 -36.667 -1 -62 -3c-32.667 -2 -53 -3.33301 -61 -4c-14 0 -35 -5.16699 -63 -15.5s-43.667 -15.5 -47 -15.5c-18.667 0 -33.667 14 -45 42c-8 20.667 -12 42.667 -12 66z" />
    <glyph glyph-name="braceleft" unicode="{" horiz-adv-x="909" 
d="M199 466c66 -24 111.666 -52.167 136.999 -84.5s40.333 -82.5 45 -150.5c4.66699 -48.667 6.66699 -95.667 6 -141v-188c0.666992 -120 13.667 -204 39 -252c38.667 -72.667 110.334 -112.334 215.001 -119.001c28.667 -2 70 -3 124 -3v156l-57 4
c-62.667 4.66699 -102 26.334 -118 65.001c-10 25.333 -15.333 73.333 -16 144v193c0 77.333 -4.33301 144.333 -13 201c-5.33301 41.333 -19 83.666 -41 126.999c-17.333 36 -38.333 66.667 -63 92l-36 33v0c76.667 68 123.667 157 141 267
c8.66699 46.667 12.667 103.334 12 170.001v180v110c3.33301 44 12.833 75.667 28.5 95s45.5 32 89.5 38l73 6v156c-112.667 -2.66699 -193 -16 -241 -40c-74 -36 -117 -102.333 -129 -199c-5.33301 -46 -8 -104 -8 -174v-171c-0.666992 -93.333 -9 -167.333 -25 -222
c-18 -63.333 -72.333 -109 -163 -137v-156v0z" />
    <glyph glyph-name="bar" unicode="|" horiz-adv-x="1024" 
d="M563 1536v-2048h-104v2048h104z" />
    <glyph glyph-name="braceright" unicode="}" horiz-adv-x="909" 
d="M711 466c-66 -24 -111.666 -52.167 -136.999 -84.5s-40.333 -82.5 -45 -150.5c-4.66699 -48.667 -6.66699 -95.667 -6 -141v-188c-0.666992 -120 -13.667 -204 -39 -252c-38.667 -72.667 -110.334 -112.334 -215.001 -119.001c-28.667 -2 -70 -3 -124 -3v156l57 4
c62.667 4.66699 102 26.334 118 65.001c10 25.333 15.333 73.333 16 144v193c0 77.333 4.33301 144.333 13 201c5.33301 41.333 19 83.666 41 126.999c17.333 36 38.333 66.667 63 92l36 33v0c-76.667 68 -123.667 157 -141 267
c-8.66699 46.667 -12.667 103.334 -12 170.001v180v110c-3.33301 44 -12.833 75.667 -28.5 95s-45.5 32 -89.5 38l-73 6v156c112.667 -2.66699 193 -16 241 -40c74 -36 117 -102.333 129 -199c5.33301 -46 8 -104 8 -174v-171c0.666992 -93.333 9 -167.333 25 -222
c18 -63.333 72.333 -109 163 -137v-156v0z" />
    <glyph glyph-name="asciitilde" unicode="~" horiz-adv-x="2048" 
d="M416 527c76.667 134.667 187 202.332 331 202.999c68 -1.33301 160 -23.333 276 -66l124 -45c68.667 -24.667 127.667 -36.667 177 -36c66.667 0.666992 131.667 30.667 195 90l22 21l107 -89c-94.667 -114 -206.667 -171 -336 -171c-60 -0.666992 -115.333 10 -166 32
l-133 56c-98.667 39.333 -179 59 -241 59c-108 0.666992 -191.333 -52.666 -250 -159.999l-123 75z" />
    <glyph glyph-name="nonbreakingspace" unicode="&#xa0;" horiz-adv-x="492" 
 />
    <glyph glyph-name="exclamdown" unicode="&#xa1;" horiz-adv-x="547" 
d="M410 891c0 -221.333 -3.66504 -427.666 -10.998 -618.999c-0.666992 -22 -3.33398 -73.667 -8.00098 -155c-4 -64.667 -6 -116.667 -6 -156c0 -4.66699 3.16699 -10.834 9.5 -18.501s9.5 -16.167 9.5 -25.5c0 -36 -15.333 -54 -46 -54c-22.667 0 -70.334 9 -143.001 27
c-47.333 11.333 -71.666 17.333 -72.999 18c-30.667 11.333 -46 28.333 -46 51c0 10.667 5.33301 21.334 16 32.001c14.667 14.667 23 24 25 28c16 27.333 27 77.666 33 150.999c11.333 130 22.333 291.333 33 484c8 144.667 12 214 12 208c0 11.333 -2.66699 27 -8 47
s-8 35 -8 45c0 20.667 22.333 31 67 31c-4.66699 0 11.666 -4.66699 48.999 -14c63.333 -16 95 -42.667 95 -80zM409.002 1322c0 -92 -13.9971 -147.002 -41.9971 -165.002c-10.667 -1.33301 -26 -4.66602 -46 -9.99902c-0.666992 0 -10.334 -5 -29.001 -15
c-8.66699 -4.66699 -20.667 -7 -36 -7c-19.333 0 -33.666 4.66699 -42.999 14c-12.667 12.667 -20.334 19.334 -23.001 20.001c-7.33301 2 -18 6.33301 -32 13l-21 39c-17.333 32.667 -26 63.334 -26 92.001c0 29.333 23 60.666 69 93.999l23 23c8 8 17.667 12 29 12
c6 0 16.167 -1 30.5 -3s25.166 -3 32.499 -3c17.333 0 40.666 -12.333 69.999 -37s44 -47 44 -67z" />
    <glyph glyph-name="cent" unicode="&#xa2;" horiz-adv-x="778" 
d="M348 416c-82 5.33301 -147.499 33.998 -196.499 85.998s-73.5 119 -73.5 201c0 130.667 29.333 283.334 88 458.001c18 53.333 69.667 80 155 80c10.667 0 20.334 -0.666992 29.001 -2v238c0 40.667 15.333 60.667 46 60l18 -1c16 -0.666992 24 -11 24 -31v-276
c98.667 -28.667 162.334 -60.667 191.001 -96c30.667 -38 46 -107 46 -207c0 -28 -1.66699 -46.333 -5 -55c-6.66699 -15.333 -22 -23 -46 -23c-3.33301 0 -8.5 1 -15.5 3s-12.5 3 -16.5 3c-3.33301 0 -8.5 -0.5 -15.5 -1.5s-12.167 -1.5 -15.5 -1.5
c-28.667 0 -47.334 11.333 -56.001 34c-4 12 -6 34.667 -6 68c0 60.667 -2.66699 100.667 -8 120c-12 45.333 -39.667 68 -83 68c-50.667 0 -93 -55.333 -127 -166c-26 -86 -39 -161 -39 -225c0 -66 9 -121.667 27 -167c26 -64 66.667 -96 122 -96
c43.333 0 92.166 23 146.499 69s85.5 69 93.5 69c52 0 78 -13.333 78 -40c0 -2.66699 -0.666992 -6 -2 -10c-18.667 -42.667 -57.334 -80 -116.001 -112c-54 -29.333 -106.333 -45 -157 -47c-4 -72 -6 -167.667 -6 -287c0 -32.667 -9 -49 -27 -49
c-28.667 0 -46 49.333 -52 148c-0.666992 6.66699 -1 69.334 -1 188.001z" />
    <glyph glyph-name="sterling" unicode="&#xa3;" 
d="M118 516c0 28 11.9971 44.3311 35.9971 48.998l286 39c-8.66699 56 -13 106 -13 150c0 100 24.333 204 73 312c58.667 132 131.667 198 219 198c44.667 0 103.334 -15 176.001 -45c82.667 -34.667 124 -70.667 124 -108c0 -50 -23.667 -75 -71 -75
c-14 0 -33.167 8.16699 -57.5 24.5s-44.833 24.5 -61.5 24.5c-68 0 -124.667 -34.667 -170 -104c-40 -61.333 -60.333 -128.333 -61 -201v-170l41 1c139.333 1.33301 209 -19.334 209 -62.001c0 -4 -1.33301 -9.16699 -4 -15.5s-4 -11.5 -4 -15.5
c0 -2.66699 0.666992 -6.83398 2 -12.501s2 -10.167 2 -13.5c0 -12 -23.667 -18.333 -71 -19c-30 1.33301 -60 2.33301 -90 3l-85 -1c2 -36.667 3 -71.667 3 -105c0 -49.333 -5.66699 -107 -17 -173c48.667 -7.33301 88 -15.666 118 -24.999
c9.33301 -2.66699 66 -25 170 -67c74.667 -30.667 130.667 -46 168 -46c26.667 0 50.334 12 71.001 36s34 36 40 36c18 0 27 -14 27 -42c0 -31.333 -16 -69 -48 -113c-34.667 -46.667 -67.334 -70 -98.001 -70c-67.333 0 -158.5 21.167 -273.5 63.5
s-199.167 63.5 -252.5 63.5l-79.5 -58.5c-27 -19.667 -67.5 -29.5 -121.5 -29.5c-50 0 -92.333 15 -127 45c-39.333 34 -59 57.667 -59 71c0 10 4.66699 18.333 14 25c40 28.667 89.667 49.334 149 62.001l158 26c15.333 50.667 23 99 23 145c0 38.667 -2 89.334 -6 152.001
c-132 -15.333 -224.667 -23 -278 -23c-14 0 -22.333 1.66699 -25 5c-1.33301 0.666992 -2.66602 3.83398 -3.99902 9.50098s-3.66602 8.5 -6.99902 8.5c-16.667 0 -25 15 -25 45z" />
    <glyph glyph-name="currency" unicode="&#xa4;" horiz-adv-x="1063" 
d="M92 1219l136.002 -137v0l47 33c30.667 19.333 67.667 34.833 111 46.5s86.333 17.5 129 17.5c41.333 0 83.666 -5.83301 126.999 -17.5s80.666 -27.167 111.999 -46.5l47 -33v0l136 137l65 -65l-138 -137v0l24 -33c47.333 -70.667 71.333 -153 72 -247
c-1.33301 -103.333 -26.333 -189.666 -75 -258.999l-21 -28v0l137 -138l-63 -62l-137 136v0l-40 -27c-76 -46.667 -158.333 -70.334 -247 -71.001c-87.333 0 -169 23.667 -245 71l-41 27v0l-137 -136l-63 62l137 138v0l-21 28c-49.333 69.333 -74.333 156 -75 260
c0 90 24.333 172 73 246l23 33v0l-138 137zM168.002 732c0.666992 -97.333 34.6699 -179.001 102.003 -245.001s148.666 -99.333 243.999 -100c94.667 0 176 33.667 244 101s102.333 149 103 245c-0.666992 95.333 -34.834 176.833 -102.501 244.5
s-149.167 101.834 -244.5 102.501c-136.667 -1.33301 -236.334 -59.333 -299.001 -174c-32 -56.667 -47.667 -114.667 -47 -174z" />
    <glyph glyph-name="yen" unicode="&#xa5;" horiz-adv-x="1245" 
d="M406 627l-9.99707 -0.00585938c-20 0.666992 -47.667 -0.333008 -83 -3c-38.667 -2 -66.334 -3 -83.001 -3c-19.333 0 -36.666 8.83301 -51.999 26.5s-23 36.834 -23 57.501s20.333 32.334 61 35.001l86 -2l57 1c-62.667 130.667 -162.334 322.667 -299.001 576
c-1.33301 2 -8 9 -20 21c-10 10 -15 18 -15 24c0 7.33301 5.16699 15.333 15.5 24s19.5 13 27.5 13c89.333 0 148.333 -27.333 177 -82c118 -224.667 229 -450 333 -676l7 2c116 225.333 263.333 482.666 442 771.999c8.66699 14 18.667 21 30 21
c8.66699 0 36 -9.83301 82 -29.5s72 -32.5 78 -38.5c8.66699 -8 13 -18.333 13 -31c0 -6 -12 -17.667 -36 -35c-26.667 -20 -42 -33.333 -46 -40c-98.667 -151.333 -201.667 -323.666 -309 -516.999c14.667 0 37 -0.333008 67 -1s52.667 -1 68 -1
c10.667 0 20.167 -6.66699 28.5 -20s12.5 -25.666 12.5 -36.999c0 -40.667 -14.333 -61 -43 -61c-80.667 0 -142.334 4 -185.001 12c-16 -28.667 -41 -78.667 -75 -150c28 0 71.333 -0.333008 130 -1s102.667 -1 132 -1c10.667 0 20.167 -6.66699 28.5 -20
s12.5 -25.666 12.5 -36.999c0 -40.667 -14.333 -61 -43 -61c-31.333 0 -78.333 2 -141 6s-109.334 6 -140.001 6c-2.66699 -84.667 -4 -130 -4 -136c0 -61.333 3.33301 -119.666 10 -174.999c8.66699 -66 13 -92 13 -78c0 -16.667 -42 -25 -126 -25c-60 0 -90 22 -90 66
c0 18.667 1.16699 46.667 3.5 84s3.5 65.333 3.5 84c0 34 -3 91.333 -9 172h-13c-30 0.666992 -71.333 -0.333008 -124 -3c-59.333 -2.66699 -101 -4 -125 -4c-19.333 0 -36.666 9 -51.999 27s-23 37 -23 57c0 23.333 15 35 45 35l190 -1c35.333 0 64.666 0.333008 87.999 1
c-15.333 32.667 -39.333 81.334 -72 146.001z" />
    <glyph glyph-name="brokenbar" unicode="&#xa6;" horiz-adv-x="1024" 
d="M563 1536v-2048h-104v2048h104zM563 1536v-2048h-104v2048h104z" />
    <glyph glyph-name="section" unicode="&#xa7;" horiz-adv-x="958" 
d="M885 586c0 -38 -9.00195 -80.3281 -27.002 -126.995c-19.333 -50.667 -42.666 -86.334 -69.999 -107.001c-19.333 -14.667 -69.666 -34.334 -150.999 -59.001c58.667 -34.667 98.334 -67.334 119.001 -98.001c24.667 -35.333 37 -85.333 37 -150
c0 -94 -38.667 -168 -116 -222c-67.333 -47.333 -150.333 -71 -249 -71c-172 0 -298.333 48 -379 144c-10.667 12 -16 22.667 -16 32c0 12.667 4.83301 24.5 14.5 35.5s20.5 16.5 32.5 16.5c24 0 60.167 -21.667 108.5 -65s104.166 -65 167.499 -65
c66 0 121.333 15.667 166 47c50.667 35.333 76 84.666 76 147.999c0 85.333 -38.333 144 -115 176l-184 66c-75.333 28 -131 59 -167 93c-48.667 45.333 -73 103 -73 173c0 187.333 82 295.333 246 324c-114.667 45.333 -172 120.333 -172 225c0 83.333 15 147.333 45 192
c14 21.333 27.5 36.166 40.5 44.499l41.5 25.5c40.667 30 107.667 45 201 45c50 0 118 -14.667 204 -44c102.667 -34.667 154 -72 154 -112c0 -28.667 -13 -43 -39 -43c-34 0 -74 18.167 -120 54.5s-91.333 54.5 -136 54.5c-56.667 0 -103 -22.333 -139 -67
c-34 -42 -51 -92 -51 -150c0 -84 47.667 -142.333 143 -175l265 -83c95.333 -48.667 143 -134.667 143 -258zM693.998 567.005c0 139.333 -95.333 229.666 -286 270.999c-59.333 -26 -101.333 -54 -126 -84c-28 -35.333 -42 -82.666 -42 -141.999
c0 -84 30.333 -148.667 91 -194c36.667 -27.333 104.667 -56 204 -86c106 34.667 159 113 159 235z" />
    <glyph glyph-name="dieresis" unicode="&#xa8;" horiz-adv-x="623" 
d="M12 1083c0 4.66699 3.83105 16.667 11.498 36s13.167 29.833 16.5 31.5l17 8.5c1.33301 0.666992 5.33301 8.66699 12 24c4.66699 10.667 16.334 16 35.001 16c101.333 0 152 -45.333 152 -136c0 -26 -3.66699 -44.667 -11 -56c-6 -8.66699 -20.667 -20 -44 -34
c-31.333 -18.667 -49.666 -28 -54.999 -28c-0.666992 0 -17.334 4.33301 -50.001 13c-30 8.66699 -47.167 15.5 -51.5 20.5s-10.166 22.833 -17.499 53.5c-10 40.667 -15 57.667 -15 51zM469.998 1185c6.66699 0 13.833 2.16895 21.5 6.50195s13.834 6.5 18.501 6.5
c-0.666992 0 7.66602 -5.33301 24.999 -16c47.333 -30.667 71 -72.334 71 -125.001c0 -24 -14.833 -47 -44.5 -69s-56.834 -33 -81.501 -33c-25.333 0 -51.666 12 -78.999 36s-41 48 -41 72c0 26.667 5.66699 52 17 76c14 29.333 32.333 45.666 55 48.999
c-10.667 -2 2 -3 38 -3z" />
    <glyph glyph-name="copyright" unicode="&#xa9;" horiz-adv-x="1024" 
d="M79 1286c40.667 74 98.499 132.502 173.499 175.502s155.167 64.5 240.5 64.5s165.333 -21.333 240 -64s133.334 -101.334 176.001 -176.001s64 -154.667 64 -240c0 -86 -21.333 -166.333 -64 -241s-101 -133.334 -175 -176.001s-153.667 -63.667 -239 -63
c-132 -0.666992 -245 45.333 -339 138s-141 206.667 -141 342c0 82.667 21.333 162.667 64 240zM85.999 1047c-0.666992 -70.667 17.668 -139.001 55.001 -205.001c34.667 -63.333 84 -113.333 148 -150s132.333 -55 205 -55c112.667 -0.666992 208.667 39.333 288 120
s119.333 177.334 120 290.001c-0.666992 112 -40.834 207.833 -120.501 287.5s-175.5 119.834 -287.5 120.501c-112.667 -0.666992 -208.667 -40.334 -288 -119.001s-119.333 -175 -120 -289zM715.001 867.001l-17.999 -16.001c-54.667 -44 -114.334 -66 -179.001 -66
c-75.333 0 -138.5 27 -189.5 81s-76.5 118.667 -76.5 194c-0.666992 72.667 24.166 136.334 74.499 191.001s112.833 82.334 187.5 83.001c63.333 0 121 -19.667 173 -59l21 -17l-61 -63l-24 23c-32 26 -68 39.667 -108 41
c-53.333 -0.666992 -98.166 -20.834 -134.499 -60.501s-54.166 -86.5 -53.499 -140.5c-0.666992 -53.333 16.666 -99.666 51.999 -138.999s79.333 -59 132 -59c44 -0.666992 82.333 13.666 115 42.999l28 27z" />
    <glyph glyph-name="ordfeminine" unicode="&#xaa;" horiz-adv-x="614" 
d="M184 1193c-14 0 -27.001 4.33398 -39.001 13.001c-14 9.33301 -21 20.333 -21 33c0 48.667 9 92 27 130c22.667 49.333 55.667 74 99 74c10 0 25.167 -1.5 45.5 -4.5s36.333 -4.5 48 -4.5s21.834 -2.33301 30.501 -7c9.33301 -6.66699 17 -10.667 23 -12
c67.333 -13.333 101 -61 101 -143c0 -25.333 -1.5 -63.333 -4.5 -114s-4.5 -88.667 -4.5 -114c0 -19.333 1.16699 -48.333 3.5 -87s3.5 -67.667 3.5 -87c0 -20 -8.33301 -30 -25 -30c-8 0 -22 0.333008 -42 1h-41l-11 5c-3.33301 2.66699 -5 5.66699 -5 9
c0 1.33301 3.16699 8.66602 9.5 21.999s9.5 27 9.5 41c-38 -3.33301 -69.333 -5 -94 -5c-86.667 0 -146.667 16 -180 48c-18 16.667 -27 33 -27 49c0 44.667 35.667 85.667 107 123c23.333 12 57.333 18 102 18c23.333 0 54 -4.66699 92 -14c-2 49.333 -3.66699 99 -5 149
c-8 68.667 -32 103 -72 103c-50.667 0 -76 -54.667 -76 -164c0 -21.333 -18 -32 -54 -32zM394.999 1085l-26 1c-38 0.666992 -73.333 -5.33301 -106 -18c-44 -16.667 -66 -41.667 -66 -75c0 -20.667 38.333 -31 115 -31c30 0 57.667 2.33301 83 7v116z" />
    <glyph glyph-name="guillemotleft" unicode="&#xab;" horiz-adv-x="696" 
d="M61 463c0 2.66699 3.66797 6.66797 11.001 12.001l128 111c72 62.667 110.333 94 115 94c14 0 25.667 -11.333 35 -34c7.33301 -18 11 -35 11 -51s-4.33301 -27.333 -13 -34c-91.333 -72 -137 -111.667 -137 -119c0 -2.66699 51.333 -57 154 -163
c6.66699 -2.66699 10 -6.33398 10 -11.001c0 -6 -10.333 -17.667 -31 -35s-34.334 -26 -41.001 -26c-17.333 0 -62 38.333 -134 115s-108 123.667 -108 141zM305.001 436.001c0 8 3.33203 15.001 9.99902 21.001c156.667 139.333 242.667 209 258 209
c30.667 0 46 -31.667 46 -95c0 -8 -2.33301 -14 -7 -18c-7.33301 -7.33301 -33 -26 -77 -56c-32.667 -22.667 -56 -44.334 -70 -65.001c2 -10.667 27.667 -33 77 -67c44.667 -30.667 76.334 -50 95.001 -58l6 -12l-6 -12c-1.33301 -1.33301 -11 -13.333 -29 -36
c-14.667 -17.333 -24.667 -26 -30 -26c-20 0 -70.5 31.667 -151.5 95s-121.5 103.333 -121.5 120z" />
    <glyph glyph-name="logicalnot" unicode="&#xac;" 
d="M160 555v129h903v-510h-129v381h-774z" />
    <glyph glyph-name="sfthyphen" unicode="&#xad;" horiz-adv-x="547" 
d="M72 437c0 16 8 23.999 24 23.999c9.33301 0 24 -1.33301 44 -4s35.333 -4 46 -4c26 0 65.333 2.33301 118 7s92 7 118 7c16.667 0 31 -19 43 -57c10 -31.333 15 -58.333 15 -81c0 -19.333 -6.33301 -29 -19 -29c-4.66699 0 -10.5 2.5 -17.5 7.5s-12.833 7.5 -17.5 7.5
c-14 0 -58.333 -3.33301 -133 -10c-12.667 -1.33301 -41 -5.66602 -85 -12.999c-37.333 -6 -64.333 -9 -81 -9s-30.667 22 -42 66c-8.66699 34.667 -13 64 -13 88z" />
    <glyph glyph-name="registered" unicode="&#xae;" horiz-adv-x="1024" 
d="M79 1286c40.667 74 98.499 132.502 173.499 175.502s155.167 64.5 240.5 64.5s165.333 -21.333 240 -64s133.334 -101.334 176.001 -176.001s64 -154.667 64 -240c0 -86 -21.333 -166.333 -64 -241s-101 -133.334 -175 -176.001s-153.667 -63.667 -239 -63
c-132 -0.666992 -245 45.333 -339 138s-141 206.667 -141 342c0 82.667 21.333 162.667 64 240zM85.999 1047c-0.666992 -70.667 17.668 -139.001 55.001 -205.001c34.667 -63.333 84 -113.333 148 -150s132.333 -55 205 -55c112.667 -0.666992 208.667 39.333 288 120
s119.333 177.334 120 290.001c-0.666992 112 -40.834 207.833 -120.501 287.5s-175.5 119.834 -287.5 120.501c-112.667 -0.666992 -208.667 -40.334 -288 -119.001s-119.333 -175 -120 -289zM334.001 1311h170c106.667 -4 160 -52.667 160 -146
c-1.33301 -54.667 -20.333 -94 -57 -118l-27 -15l90 -224h-96l-80 207h-85v-207h-75v503zM409.001 1236v-146h99c52 0 79 24.333 81 73c1.33301 48 -25.667 72.333 -81 73h-99z" />
    <glyph glyph-name="overscore" unicode="&#xaf;" horiz-adv-x="1024" 
d="M1024 1894v-102h-1024v102h1024z" />
    <glyph glyph-name="degree" unicode="&#xb0;" horiz-adv-x="614" 
d="M27 1175c0 86 21.665 155.668 64.998 209.001c46.667 58 112.334 87 197.001 87c80.667 0 146.834 -26.333 198.501 -79s77.5 -119.334 77.5 -200.001c0 -74 -23.667 -135.167 -71 -183.5s-108 -72.5 -182 -72.5c-72 0 -136.333 21.333 -193 64
c-61.333 46.667 -92 105 -92 175zM306.998 1356c-44 0 -81.167 -16.667 -111.5 -50s-45.5 -72 -45.5 -116c0 -38 16.667 -71.333 50 -100s69 -43 107 -43c40.667 0 75.167 14.5 103.5 43.5s42.5 63.833 42.5 104.5s-14.333 77.667 -43 111s-63 50 -103 50z" />
    <glyph glyph-name="plusminus" unicode="&#xb1;" 
d="M686 -20h-135v385h-385v129h385v385h135v-385h383v-129h-383v-385zM686 -688h-135v385h-385v129h385v385h135v-385h383v-129h-383v-385z" />
    <glyph glyph-name="twosuperior" unicode="&#xb2;" horiz-adv-x="694" 
d="M639 1264c0 -71.333 -31.335 -145.999 -94.002 -223.999l-248 -309c-23.333 -26.667 -47.333 -60.667 -72 -102l8 -8c181.333 4 264 6 248 6c92 0 143.333 -14.333 154 -43c-2 -4 -5.33301 -6 -10 -6c-41.333 -6 -103 -14.333 -185 -25
c-13.333 -1.33301 -53.666 -8 -120.999 -20c-50.667 -9.33301 -91 -14 -121 -14c-23.333 0 -49.166 11.667 -77.499 35s-42.5 46.333 -42.5 69c0 26 36.667 82.333 110 169c111.333 131.333 179.666 214.666 204.999 249.999c74 102.667 111 186.334 111 251.001
c0 60.667 -30 91 -90 91c-51.333 0 -98 -15 -140 -45c-58 -42 -87 -102.667 -87 -182v0c0 -10.667 1 -29 3 -55c1.33301 -20.667 1.33301 -35.334 0 -44.001c-1.33301 -13.333 -5.33301 -22.666 -12 -27.999c-10 -8 -25.667 -12 -47 -12c-26 0 -42 15.333 -48 46
c-1.33301 7.33301 -2 33.333 -2 78c0 30.667 1 61 3 91c4.66699 61.333 37.334 112.666 98.001 153.999c54.667 38 114.667 57 180 57c184.667 0 277 -60 277 -180z" />
    <glyph glyph-name="threesuperior" unicode="&#xb3;" horiz-adv-x="694" 
d="M627 1208c0 -141.333 -76.6641 -248.338 -229.997 -321.005v-6c150.667 -46 226 -109.667 226 -191c0 -113.333 -94.333 -170 -283 -170c-38.667 0 -84.334 7 -137.001 21c-65.333 17.333 -104.333 38.333 -117 63c-1.33301 2 -2 5 -2 9c0 28 11 42 33 42
c5.33301 0 28.5 -12.5 69.5 -37.5s83.833 -37.5 128.5 -37.5c114.667 0 172 36 172 108c0 40.667 -18.667 76.334 -56 107.001c-34.667 28 -73.334 43 -116.001 45c-28 -2 -64.333 0.666992 -109 8c-8 4.66699 -12 13.667 -12 27c0 9.33301 15.667 20 47 32l64 23
c122 56.667 183 158.334 183 305.001c0 106.667 -33.667 160 -101 160c-46.667 0 -85.334 -19.667 -116.001 -59c-28 -36 -42 -78 -42 -126c0 -17.333 2.5 -42.666 7.5 -75.999s7.5 -58.333 7.5 -75c0 -19.333 -11.667 -29 -35 -29c-4.66699 0 -10.5 1.83301 -17.5 5.5
s-12.167 5.83398 -15.5 6.50098c-6.66699 0 -17 1.66699 -31 5c-22.667 12.667 -34 69.334 -34 170.001c0 60 24.333 114.5 73 163.5s103.334 73.5 164.001 73.5c4.66699 0 13.667 -1.33301 27 -4c81.333 -16.667 140.666 -40 177.999 -70c49.333 -38.667 74 -96 74 -172z
" />
    <glyph glyph-name="acute" unicode="&#xb4;" horiz-adv-x="506" 
d="M387 1317c18.667 0 40.333 -8.00098 65 -24.001s37 -32.667 37 -50c0 -9.33301 -59 -58.666 -177 -147.999c-120.667 -91.333 -191.334 -137 -212.001 -137c-15.333 0 -34.5 10 -57.5 30s-34.5 37.333 -34.5 52c0 4.66699 5 7 15 7c34 18 92 57 174 117
c86.667 63.333 140.334 107.333 161.001 132c11.333 14 21 21 29 21z" />
    <glyph glyph-name="mu" unicode="&#xb5;" horiz-adv-x="1138" 
d="M-107 -296c48.667 114 82.667 195.332 102 243.999c39.333 98.667 70.333 188 93 268l27 93l196 673h196l-175 -581c-6 -18 -11.333 -38.667 -16 -62c-8 -32.667 -11.667 -61 -11 -85c0 -43.333 15.833 -78 47.5 -104s69.5 -38.667 113.5 -38
c84.667 -1.33301 155.667 44.667 213 138c34.667 56.667 65 120.334 91 191.001c20 54.667 39 112.667 57 174l108 367h187l-148 -512c-21.333 -72 -40.333 -158.667 -57 -260c-11.333 -62.667 -17 -117.334 -17 -164.001v-46h-186v19c0 36.667 1 69.667 3 99l4 48l-30 -46
c-67.333 -99.333 -146.666 -148.666 -237.999 -147.999c-54 0 -96.667 14 -128 42c-22.667 20 -44.334 59.667 -65.001 119l-173 -471h-212z" />
    <glyph glyph-name="paragraph" unicode="&#xb6;" 
d="M1037 1442l-138 -0.000976562v-1768h-79v1768h-99v-1768h-79v897l-63 13c-118 25.333 -211 77.333 -279 156c-73.333 84 -109.666 183.667 -108.999 299c-0.666992 74.667 15.333 143.667 48 207c73.333 144.667 203.666 232.334 390.999 263.001
c70 11.333 143.333 17 220 17h187v-84z" />
    <glyph glyph-name="periodcentered" unicode="&#xb7;" horiz-adv-x="492" 
d="M67 635c0 108 17.3311 172.668 51.998 194.001c11.333 2.66699 28.333 7 51 13c6 2 16.667 7.66699 32 17c10 5.33301 24 8 42 8c24 0 41.333 -4.66699 52 -14c17.333 -16 27.333 -24.667 30 -26c8.66699 -2 21.667 -6.66699 39 -14
c4.66699 -10.667 12 -26.334 22 -47.001c21.333 -39.333 32 -67 32 -83c0 -52 -27 -97.333 -81 -136l-26 -26c-10 -10 -20.333 -15 -31 -15c-5.33301 0 -16.666 1.16699 -33.999 3.5s-31.666 3.5 -42.999 3.5c-15.333 0 -39.833 12.333 -73.5 37s-53.167 44 -58.5 58
c-3.33301 8.66699 -5 17.667 -5 27z" />
    <glyph glyph-name="periodcentered" unicode="&#x2219;" horiz-adv-x="492" 
d="M67 635c0 108 17.3311 172.668 51.998 194.001c11.333 2.66699 28.333 7 51 13c6 2 16.667 7.66699 32 17c10 5.33301 24 8 42 8c24 0 41.333 -4.66699 52 -14c17.333 -16 27.333 -24.667 30 -26c8.66699 -2 21.667 -6.66699 39 -14
c4.66699 -10.667 12 -26.334 22 -47.001c21.333 -39.333 32 -67 32 -83c0 -52 -27 -97.333 -81 -136l-26 -26c-10 -10 -20.333 -15 -31 -15c-5.33301 0 -16.666 1.16699 -33.999 3.5s-31.666 3.5 -42.999 3.5c-15.333 0 -39.833 12.333 -73.5 37s-53.167 44 -58.5 58
c-3.33301 8.66699 -5 17.667 -5 27z" />
    <glyph glyph-name="cedilla" unicode="&#xb8;" horiz-adv-x="444" 
d="M184 63c36 0 54 -13.332 54 -39.999c0 7.33301 -20.667 -38 -62 -136l13 1c57.333 0 109.333 -9.66699 156 -29c62 -25.333 93 -63 93 -113c0 -62 -43.667 -114.667 -131 -158c-73.333 -36.667 -144.333 -55 -213 -55c-20.667 0 -41.334 5.33301 -62.001 16
c-24 12.667 -36 28.667 -36 48c0 6 4 15.333 12 28c10.667 16 24.334 24.667 41.001 26c-12.667 -0.666992 4 -1 50 -1c71.333 0 141.333 30 210 90c-52 28.667 -96.333 43 -133 43c-17.333 0 -36 -4.5 -56 -13.5l-30 -13.5c-6 0 -18.167 5.66699 -36.5 17
s-27.5 19.666 -27.5 24.999c0 -2.66699 29.667 70 89 218c12.667 31.333 35.667 47 69 47z" />
    <glyph glyph-name="onesuperior" unicode="&#xb9;" horiz-adv-x="610" 
d="M248 1255l-37.001 -48c-16.667 -20 -32.334 -30 -47.001 -30c-7.33301 0 -17 6.33301 -29 19l37 57c17.333 28 34.666 63.667 51.999 107c26.667 67.333 41.334 104 44.001 110c4 8.66699 8.66699 13 14 13c-6 0 4.33301 -3.33301 31 -10c48 -12.667 72 -30.667 72 -54
c0 -51.333 -2 -128.5 -6 -231.5s-6 -180.167 -6 -231.5c0 -240 6 -367.667 18 -383c-16 -8 -25.667 -12 -29 -12c6.66699 0 -1.33301 3.33301 -24 10c-7.33301 2.66699 -16.666 4 -27.999 4v0c-25.333 0.666992 -40.666 2 -45.999 4c-13.333 4.66699 -20 18 -20 40
c0 250 1.33301 462 4 636z" />
    <glyph glyph-name="ordmasculine" unicode="&#xba;" horiz-adv-x="614" 
d="M92 1104c0 132 32.667 241.331 98 327.998c4.66699 0.666992 12.667 3.33398 24 8.00098c9.33301 4.66699 16.666 7 21.999 7c8 0 19.833 -2.5 35.5 -7.5s26.834 -7.5 33.501 -7.5c20 -0.666992 50.667 -5.66699 92 -15c76.667 -31.333 115 -132.333 115 -303
c0 -63.333 -12.667 -116.333 -38 -159c-30.667 -50.667 -75.334 -76 -134.001 -76c-7.33301 0 -17.5 1.83301 -30.5 5.5s-22.5 5.83398 -28.5 6.50098c-69.333 4.66699 -118.166 23.667 -146.499 57s-42.5 85.333 -42.5 156zM402 1205c0 108.667 -29 163 -87 163
c-38.667 0 -67.667 -34.333 -87 -103c-14 -47.333 -21 -97 -21 -149c0 -125.333 27.333 -188 82 -188c42.667 0 74 37.333 94 112c12.667 49.333 19 104.333 19 165z" />
    <glyph glyph-name="guillemotright" unicode="&#xbb;" horiz-adv-x="696" 
d="M637 418c0 -2.66699 -3.66797 -6.66797 -11.001 -12.001l-128 -111c-72 -62.667 -110.333 -94 -115 -94c-14 0 -25.667 11.333 -35 34c-7.33301 18 -11 35 -11 51s4.33301 27.333 13 34c91.333 72 137 111.667 137 119c0 2.66699 -51.333 57 -154 163
c-6.66699 2.66699 -10 6.33398 -10 11.001c0 6 10.333 17.667 31 35s34.334 26 41.001 26c17.333 0 62 -38.333 134 -115s108 -123.667 108 -141zM392.999 444.999c0 -8 -3.33203 -15.001 -9.99902 -21.001c-156.667 -139.333 -242.667 -209 -258 -209
c-30.667 0 -46 31.667 -46 95c0 8 2.33301 14 7 18c7.33301 7.33301 33 26 77 56c32.667 22.667 56 44.334 70 65.001c-2 10.667 -27.667 33 -77 67c-44.667 30.667 -76.334 50 -95.001 58l-6 12l6 12c1.33301 1.33301 11 13.333 29 36c14.667 17.333 24.667 26 30 26
c20 0 70.5 -31.667 151.5 -95s121.5 -103.333 121.5 -120z" />
    <glyph glyph-name="onequarter" unicode="&#xbc;" horiz-adv-x="1659" 
d="M340 1255l-37.001 -48c-16.667 -20 -32.334 -30 -47.001 -30c-7.33301 0 -17 6.33301 -29 19l37 57c17.333 28 34.666 63.667 51.999 107c26.667 67.333 41.334 104 44.001 110c4 8.66699 8.66699 13 14 13c-6 0 4.33301 -3.33301 31 -10c48 -12.667 72 -30.667 72 -54
c0 -51.333 -2 -128.5 -6 -231.5s-6 -180.167 -6 -231.5c0 -240 6 -367.667 18 -383c-16 -8 -25.667 -12 -29 -12c6.66699 0 -1.33301 3.33301 -24 10c-7.33301 2.66699 -16.666 4 -27.999 4v0c-25.333 0.666992 -40.666 2 -45.999 4c-13.333 4.66699 -20 18 -20 40
c0 250 1.33301 462 4 636zM1251 1458c0 -4 -3.66895 -10.667 -11.002 -20c-9.33301 -12 -14.666 -19 -15.999 -21l-173 -350l-312 -600c-56 -110 -142.667 -270.333 -260 -481c-13.333 -22 -33.333 -33 -60 -33c-11.333 0 -25.833 9.5 -43.5 28.5s-26.5 34.167 -26.5 45.5
c0 8.66699 4.33301 18 13 28c13.333 16 20.333 24.5 21 25.5s53 97.5 157 289.5l326 607l134 248c50.667 96.667 89.334 182 116.001 256c0.666992 7.33301 4.66699 17.333 12 30c10 8 21.667 12 35 12c20 0 39 -5.66699 57 -17c20.667 -13.333 31 -29.333 31 -48zM1617 145
l-258.001 -12.001c0.666992 -12.667 2.66699 -38.334 6 -77.001c2.66699 -32 4 -57.333 4 -76c0 -15.333 -15.667 -23 -47 -23c-6.66699 0 -17.167 0.333008 -31.5 1s-24.833 1 -31.5 1c-15.333 0 -23 9 -23 27c1.33301 62 2 109 2 141c-136 -9.33301 -219.333 -14 -250 -14
c-2.66699 0 -20.667 6.33301 -54 19l-64 24l-7 12c0.666992 4.66699 3.66699 11.334 9 20.001c68 124 147.667 279 239 465l101 205c6.66699 12.667 22.334 19 47.001 19c92.667 0 139 -13 139 -39c0 -2 -2.16699 -4 -6.5 -6s-6.83301 -4.33301 -7.5 -7
c-22 -71.333 -33 -242 -33 -512c0 -37.333 1.33301 -76.666 4 -117.999h39c109.333 0.666992 177 -4.33301 203 -15c10 -4 16.667 -15.667 20 -35zM1253 708.999l-265 -519l256 5z" />
    <glyph glyph-name="onehalf" unicode="&#xbd;" horiz-adv-x="1659" 
d="M213 1255l-37.001 -48c-16.667 -20 -32.334 -30 -47.001 -30c-7.33301 0 -17 6.33301 -29 19l37 57c17.333 28 34.666 63.667 51.999 107c26.667 67.333 41.334 104 44.001 110c4 8.66699 8.66699 13 14 13c-6 0 4.33301 -3.33301 31 -10c48 -12.667 72 -30.667 72 -54
c0 -51.333 -2 -128.5 -6 -231.5s-6 -180.167 -6 -231.5c0 -240 6 -367.667 18 -383c-16 -8 -25.667 -12 -29 -12c6.66699 0 -1.33301 3.33301 -24 10c-7.33301 2.66699 -16.666 4 -27.999 4v0c-25.333 0.666992 -40.666 2 -45.999 4c-13.333 4.66699 -20 18 -20 40
c0 250 1.33301 462 4 636zM1118 1458c0 -4 -3.66895 -10.667 -11.002 -20c-9.33301 -12 -14.666 -19 -15.999 -21l-173 -350l-312 -600c-56 -110 -142.667 -270.333 -260 -481c-13.333 -22 -33.333 -33 -60 -33c-11.333 0 -25.833 9.5 -43.5 28.5s-26.5 34.167 -26.5 45.5
c0 8.66699 4.33301 18 13 28c13.333 16 20.333 24.5 21 25.5s53 97.5 157 289.5l326 607l134 248c50.667 96.667 89.334 182 116.001 256c0.666992 7.33301 4.66699 17.333 12 30c10 8 21.667 12 35 12c20 0 39 -5.66699 57 -17c20.667 -13.333 31 -29.333 31 -48zM1466 711
c0 -71.333 -31.335 -145.999 -94.002 -223.999l-248 -309c-23.333 -26.667 -47.333 -60.667 -72 -102l8 -8c181.333 4 264 6 248 6c92 0 143.333 -14.333 154 -43c-2 -4 -5.33301 -6 -10 -6c-41.333 -6 -103 -14.333 -185 -25c-13.333 -1.33301 -53.666 -8 -120.999 -20
c-50.667 -9.33301 -91 -14 -121 -14c-23.333 0 -49.166 11.667 -77.499 35s-42.5 46.333 -42.5 69c0 26 36.667 82.333 110 169c111.333 131.333 179.666 214.666 204.999 249.999c74 102.667 111 186.334 111 251.001c0 60.667 -30 91 -90 91c-51.333 0 -98 -15 -140 -45
c-58 -42 -87 -102.667 -87 -182v0c0 -10.667 1 -29 3 -55c1.33301 -20.667 1.33301 -35.334 0 -44.001c-1.33301 -13.333 -5.33301 -22.666 -12 -27.999c-10 -8 -25.667 -12 -47 -12c-26 0 -42 15.333 -48 46c-1.33301 7.33301 -2 33.333 -2 78c0 30.667 1 61 3 91
c4.66699 61.333 37.334 112.666 98.001 153.999c54.667 38 114.667 57 180 57c184.667 0 277 -60 277 -180z" />
    <glyph glyph-name="threequarters" unicode="&#xbe;" horiz-adv-x="1659" 
d="M623 1208c0 -141.333 -76.6641 -248.338 -229.997 -321.005v-6c150.667 -46 226 -109.667 226 -191c0 -113.333 -94.333 -170 -283 -170c-38.667 0 -84.334 7 -137.001 21c-65.333 17.333 -104.333 38.333 -117 63c-1.33301 2 -2 5 -2 9c0 28 11 42 33 42
c5.33301 0 28.5 -12.5 69.5 -37.5s83.833 -37.5 128.5 -37.5c114.667 0 172 36 172 108c0 40.667 -18.667 76.334 -56 107.001c-34.667 28 -73.334 43 -116.001 45c-28 -2 -64.333 0.666992 -109 8c-8 4.66699 -12 13.667 -12 27c0 9.33301 15.667 20 47 32l64 23
c122 56.667 183 158.334 183 305.001c0 106.667 -33.667 160 -101 160c-46.667 0 -85.334 -19.667 -116.001 -59c-28 -36 -42 -78 -42 -126c0 -17.333 2.5 -42.666 7.5 -75.999s7.5 -58.333 7.5 -75c0 -19.333 -11.667 -29 -35 -29c-4.66699 0 -10.5 1.83301 -17.5 5.5
s-12.167 5.83398 -15.5 6.50098c-6.66699 0 -17 1.66699 -31 5c-22.667 12.667 -34 69.334 -34 170.001c0 60 24.333 114.5 73 163.5s103.334 73.5 164.001 73.5c4.66699 0 13.667 -1.33301 27 -4c81.333 -16.667 140.666 -40 177.999 -70c49.333 -38.667 74 -96 74 -172z
M1300 1458c0 -4 -3.66895 -10.667 -11.002 -20c-9.33301 -12 -14.666 -19 -15.999 -21l-173 -350l-312 -600c-56 -110 -142.667 -270.333 -260 -481c-13.333 -22 -33.333 -33 -60 -33c-11.333 0 -25.833 9.5 -43.5 28.5s-26.5 34.167 -26.5 45.5c0 8.66699 4.33301 18 13 28
c13.333 16 20.333 24.5 21 25.5s53 97.5 157 289.5l326 607l134 248c50.667 96.667 89.334 182 116.001 256c0.666992 7.33301 4.66699 17.333 12 30c10 8 21.667 12 35 12c20 0 39 -5.66699 57 -17c20.667 -13.333 31 -29.333 31 -48zM1610 144.995l-258.001 -12.001
c0.666992 -12.667 2.66699 -38.334 6 -77.001c2.66699 -32 4 -57.333 4 -76c0 -15.333 -15.667 -23 -47 -23c-6.66699 0 -17.167 0.333008 -31.5 1s-24.833 1 -31.5 1c-15.333 0 -23 9 -23 27c1.33301 62 2 109 2 141c-136 -9.33301 -219.333 -14 -250 -14
c-2.66699 0 -20.667 6.33301 -54 19l-64 24l-7 12c0.666992 4.66699 3.66699 11.334 9 20.001c68 124 147.667 279 239 465l101 205c6.66699 12.667 22.334 19 47.001 19c92.667 0 139 -13 139 -39c0 -2 -2.16699 -4 -6.5 -6s-6.83301 -4.33301 -7.5 -7
c-22 -71.333 -33 -242 -33 -512c0 -37.333 1.33301 -76.666 4 -117.999h39c109.333 0.666992 177 -4.33301 203 -15c10 -4 16.667 -15.667 20 -35zM1246 708.994l-265 -519l256 5z" />
    <glyph glyph-name="questiondown" unicode="&#xbf;" horiz-adv-x="1516" 
d="M1303 713c118.667 0 177.997 -47.333 177.997 -142c0 -153.333 -56 -292.666 -168 -417.999c-100 -112 -227.667 -195.333 -383 -250c-125.333 -43.333 -260.666 -65 -405.999 -65c-113.333 0 -219.333 23 -318 69c-124.667 58.667 -187 138 -187 238
c0 79.333 49 156.666 147 231.999c46.667 36.667 130 86.334 250 149.001c202.667 106.667 315.334 166.667 338.001 180c169.333 100 254 174.667 254 224c0 21.333 -16.833 41.833 -50.5 61.5s-50.5 35.834 -50.5 48.501c0 18 19.667 27 59 27
c50.667 0 96.334 -13.667 137.001 -41c46 -30.667 69 -70.334 69 -119.001c0 -54 -34.333 -116 -103 -186c-53.333 -54 -111.333 -99.667 -174 -137l-400 -222c-197.333 -120.667 -296 -214.667 -296 -282c0 -79.333 76 -119 228 -119c230 0 418.333 42.667 565 128
c181.333 105.333 272 264.666 272 477.999c0 11.333 -1 28.333 -3 51s-3 40 -3 52c0 28.667 15 43 45 43zM1184 1291c0 -28 -11.667 -58.168 -35 -90.501s-48.333 -48.5 -75 -48.5l-85 -1c-32 0 -62.5 17.833 -91.5 53.5s-43.5 69.834 -43.5 102.501
c0 36 18 70.167 54 102.5s72 48.5 108 48.5c40 0 78 -17.833 114 -53.5s54 -73.5 54 -113.5z" />
    <glyph glyph-name="Agrave" unicode="&#xc0;" horiz-adv-x="1186" 
d="M524 1436c12.667 0 31.498 -2.16797 56.498 -6.50098s43.833 -6.5 56.5 -6.5c8 0 19.833 1.5 35.5 4.5s27.834 4.5 36.501 4.5c60.667 0 94 -20 100 -60c4.66699 -44.667 13.667 -112.334 27 -203.001c81.333 -436 191 -819 329 -1149c2 -3.33301 3 -6.66602 3 -9.99902
c0 -12 -6.33301 -18 -19 -18c-5.33301 0 -13.333 1 -24 3s-19 3 -25 3l-44.5 -13.5c-29.667 -9 -55.167 -13.5 -76.5 -13.5c-38 0 -60.667 15 -68 45c-29.333 129.333 -60.666 252.333 -93.999 369l-477 -35c-32.667 -92 -67.334 -227 -104.001 -405
c-4.66699 -20.667 -15.667 -31 -33 -31c-40.667 0 -69 4.33301 -85 13l-65 50c-12 9.33301 -18 24 -18 44c0 22.667 42.667 151.334 128 386.001l156 424l96 272c34.667 106 60.334 198.333 77.001 277l4 37c4 12.667 13.333 19 28 19zM785.998 495.999l-157 647l-250 -672z
M410.998 1875c0 25.333 37.002 38 111.002 38c11.333 0 18.666 -2 21.999 -6c109.333 -125.333 209.666 -215.333 300.999 -270c12.667 -7.33301 19 -11.333 19 -12c0 -6.66699 -15.5 -18.667 -46.5 -36s-51.167 -26 -60.5 -26c-12.667 0 -22 2 -28 6
c-49.333 34 -109.333 82.333 -180 145c-92 81.333 -138 135 -138 161z" />
    <glyph glyph-name="Aacute" unicode="&#xc1;" horiz-adv-x="1186" 
d="M524 1436c12.667 0 31.498 -2.16797 56.498 -6.50098s43.833 -6.5 56.5 -6.5c8 0 19.833 1.5 35.5 4.5s27.834 4.5 36.501 4.5c60.667 0 94 -20 100 -60c4.66699 -44.667 13.667 -112.334 27 -203.001c81.333 -436 191 -819 329 -1149c2 -3.33301 3 -6.66602 3 -9.99902
c0 -12 -6.33301 -18 -19 -18c-5.33301 0 -13.333 1 -24 3s-19 3 -25 3l-44.5 -13.5c-29.667 -9 -55.167 -13.5 -76.5 -13.5c-38 0 -60.667 15 -68 45c-29.333 129.333 -60.666 252.333 -93.999 369l-477 -35c-32.667 -92 -67.334 -227 -104.001 -405
c-4.66699 -20.667 -15.667 -31 -33 -31c-40.667 0 -69 4.33301 -85 13l-65 50c-12 9.33301 -18 24 -18 44c0 22.667 42.667 151.334 128 386.001l156 424l96 272c34.667 106 60.334 198.333 77.001 277l4 37c4 12.667 13.333 19 28 19zM785.998 495.999l-157 647l-250 -672z
M765.998 1925c18.667 0 40.333 -8.00098 65 -24.001s37 -32.667 37 -50c0 -9.33301 -59 -58.666 -177 -147.999c-120.667 -91.333 -191.334 -137 -212.001 -137c-15.333 0 -34.5 10 -57.5 30s-34.5 37.333 -34.5 52c0 4.66699 5 7 15 7c34 18 92 57 174 117
c86.667 63.333 140.334 107.333 161.001 132c11.333 14 21 21 29 21z" />
    <glyph glyph-name="Acircumflex" unicode="&#xc2;" horiz-adv-x="1186" 
d="M524 1436c12.667 0 31.498 -2.16797 56.498 -6.50098s43.833 -6.5 56.5 -6.5c8 0 19.833 1.5 35.5 4.5s27.834 4.5 36.501 4.5c60.667 0 94 -20 100 -60c4.66699 -44.667 13.667 -112.334 27 -203.001c81.333 -436 191 -819 329 -1149c2 -3.33301 3 -6.66602 3 -9.99902
c0 -12 -6.33301 -18 -19 -18c-5.33301 0 -13.333 1 -24 3s-19 3 -25 3l-44.5 -13.5c-29.667 -9 -55.167 -13.5 -76.5 -13.5c-38 0 -60.667 15 -68 45c-29.333 129.333 -60.666 252.333 -93.999 369l-477 -35c-32.667 -92 -67.334 -227 -104.001 -405
c-4.66699 -20.667 -15.667 -31 -33 -31c-40.667 0 -69 4.33301 -85 13l-65 50c-12 9.33301 -18 24 -18 44c0 22.667 42.667 151.334 128 386.001l156 424l96 272c34.667 106 60.334 198.333 77.001 277l4 37c4 12.667 13.333 19 28 19zM785.998 495.999l-157 647l-250 -672z
M647.998 1689c-145.333 -80 -221 -120 -227 -120c-8.66699 0 -19.167 8 -31.5 24s-18.5 28.333 -18.5 37c0 4.66699 4.33301 11 13 19c73.333 66 159.333 139 258 219c6.66699 0 47 -33 121 -99c82.667 -74 128.334 -114 137.001 -120c12 -16.667 18 -25.667 18 -27
c0 -4 -7 -12 -21 -24s-23.333 -18 -28 -18s-78.334 36.333 -221.001 109z" />
    <glyph glyph-name="Atilde" unicode="&#xc3;" horiz-adv-x="1186" 
d="M524 1436c12.667 0 31.498 -2.16797 56.498 -6.50098s43.833 -6.5 56.5 -6.5c8 0 19.833 1.5 35.5 4.5s27.834 4.5 36.501 4.5c60.667 0 94 -20 100 -60c4.66699 -44.667 13.667 -112.334 27 -203.001c81.333 -436 191 -819 329 -1149c2 -3.33301 3 -6.66602 3 -9.99902
c0 -12 -6.33301 -18 -19 -18c-5.33301 0 -13.333 1 -24 3s-19 3 -25 3l-44.5 -13.5c-29.667 -9 -55.167 -13.5 -76.5 -13.5c-38 0 -60.667 15 -68 45c-29.333 129.333 -60.666 252.333 -93.999 369l-477 -35c-32.667 -92 -67.334 -227 -104.001 -405
c-4.66699 -20.667 -15.667 -31 -33 -31c-40.667 0 -69 4.33301 -85 13l-65 50c-12 9.33301 -18 24 -18 44c0 22.667 42.667 151.334 128 386.001l156 424l96 272c34.667 106 60.334 198.333 77.001 277l4 37c4 12.667 13.333 19 28 19zM785.998 495.999l-157 647l-250 -672z
M445.998 1595c-11.333 0 -23.167 5.33301 -35.5 16s-18.5 21.334 -18.5 32.001c0 5.33301 1.66699 11.666 5 18.999c43.333 102.667 95.666 154 156.999 154c28 0 66.5 -10 115.5 -30s87.167 -30 114.5 -30c14.667 0 29 10 43 30s27 30 39 30
c15.333 0 29.333 -6.33301 42 -19s19 -27 19 -43c0 -30 -18.167 -65 -54.5 -105s-70.166 -60 -101.499 -60c-32.667 0 -75 12.833 -127 38.5s-84.667 38.5 -98 38.5c-22 0 -41.833 -11.833 -59.5 -35.5s-31.167 -35.5 -40.5 -35.5z" />
    <glyph glyph-name="Adieresis" unicode="&#xc4;" horiz-adv-x="1186" 
d="M524 1436c12.667 0 31.498 -2.16797 56.498 -6.50098s43.833 -6.5 56.5 -6.5c8 0 19.833 1.5 35.5 4.5s27.834 4.5 36.501 4.5c60.667 0 94 -20 100 -60c4.66699 -44.667 13.667 -112.334 27 -203.001c81.333 -436 191 -819 329 -1149c2 -3.33301 3 -6.66602 3 -9.99902
c0 -12 -6.33301 -18 -19 -18c-5.33301 0 -13.333 1 -24 3s-19 3 -25 3l-44.5 -13.5c-29.667 -9 -55.167 -13.5 -76.5 -13.5c-38 0 -60.667 15 -68 45c-29.333 129.333 -60.666 252.333 -93.999 369l-477 -35c-32.667 -92 -67.334 -227 -104.001 -405
c-4.66699 -20.667 -15.667 -31 -33 -31c-40.667 0 -69 4.33301 -85 13l-65 50c-12 9.33301 -18 24 -18 44c0 22.667 42.667 151.334 128 386.001l156 424l96 272c34.667 106 60.334 198.333 77.001 277l4 37c4 12.667 13.333 19 28 19zM785.998 495.999l-157 647l-250 -672z
M335.998 1689c0 4.66699 3.83105 16.667 11.498 36s13.167 29.833 16.5 31.5l17 8.5c1.33301 0.666992 5.33301 8.66699 12 24c4.66699 10.667 16.334 16 35.001 16c101.333 0 152 -45.333 152 -136c0 -26 -3.66699 -44.667 -11 -56c-6 -8.66699 -20.667 -20 -44 -34
c-31.333 -18.667 -49.666 -28 -54.999 -28c-0.666992 0 -17.334 4.33301 -50.001 13c-30 8.66699 -47.167 15.5 -51.5 20.5s-10.166 22.833 -17.499 53.5c-10 40.667 -15 57.667 -15 51zM793.996 1791c6.66699 0 13.833 2.16895 21.5 6.50195s13.834 6.5 18.501 6.5
c-0.666992 0 7.66602 -5.33301 24.999 -16c47.333 -30.667 71 -72.334 71 -125.001c0 -24 -14.833 -47 -44.5 -69s-56.834 -33 -81.501 -33c-25.333 0 -51.666 12 -78.999 36s-41 48 -41 72c0 26.667 5.66699 52 17 76c14 29.333 32.333 45.666 55 48.999
c-10.667 -2 2 -3 38 -3z" />
    <glyph glyph-name="Aring" unicode="&#xc5;" horiz-adv-x="1186" 
d="M524 1436c12.667 0 31.498 -2.16797 56.498 -6.50098s43.833 -6.5 56.5 -6.5c8 0 19.833 1.5 35.5 4.5s27.834 4.5 36.501 4.5c60.667 0 94 -20 100 -60c4.66699 -44.667 13.667 -112.334 27 -203.001c81.333 -436 191 -819 329 -1149c2 -3.33301 3 -6.66602 3 -9.99902
c0 -12 -6.33301 -18 -19 -18c-5.33301 0 -13.333 1 -24 3s-19 3 -25 3l-44.5 -13.5c-29.667 -9 -55.167 -13.5 -76.5 -13.5c-38 0 -60.667 15 -68 45c-29.333 129.333 -60.666 252.333 -93.999 369l-477 -35c-32.667 -92 -67.334 -227 -104.001 -405
c-4.66699 -20.667 -15.667 -31 -33 -31c-40.667 0 -69 4.33301 -85 13l-65 50c-12 9.33301 -18 24 -18 44c0 22.667 42.667 151.334 128 386.001l156 424l96 272c34.667 106 60.334 198.333 77.001 277l4 37c4 12.667 13.333 19 28 19zM785.998 495.999l-157 647l-250 -672z
M459.998 1715c0 58.667 14.668 105.668 44.001 141.001c31.333 38.667 76 58 134 58c52 0 95.833 -18.167 131.5 -54.5s53.5 -80.833 53.5 -133.5c0 -50.667 -16.333 -92.167 -49 -124.5s-74.334 -48.5 -125.001 -48.5c-49.333 0 -92.333 14.667 -129 44
c-40 31.333 -60 70.666 -60 117.999zM644.999 1816c-25.333 0 -45.668 -8.83301 -61.001 -26.5s-23 -39.167 -23 -64.5c0 -20.667 8.5 -38.667 25.5 -54s36.5 -23 58.5 -23s40.5 7.83301 55.5 23.5s22.5 34.834 22.5 57.501c0 21.333 -7.66699 41.166 -23 59.499
s-33.666 27.5 -54.999 27.5z" />
    <glyph glyph-name="AE" unicode="&#xc6;" horiz-adv-x="1642" 
d="M823 1442c123.333 0 220.332 -1.33203 290.999 -3.99902c88 -2.66699 218.333 -10.334 391 -23.001c32.667 -4 49 -21.667 49 -53c0 -24 -17 -38.333 -51 -43c-92 -6.66699 -229.667 -18.334 -413 -35.001c-40 -4 -61.333 -18.333 -64 -43
c-0.666992 -4 -4 -73.333 -10 -208l-21 -484l330 -6c33.333 0.666992 82.666 0 147.999 -2c25.333 -3.33301 38 -19.666 38 -48.999c0 -32 -13.167 -50.5 -39.5 -55.5s-144.166 -17.5 -353.499 -37.5c-27.333 -3.33301 -68.333 -7.33301 -123 -12
c-2.66699 -99.333 -4 -181.333 -4 -246c0 -42 19.333 -63 58 -63c54 0 135.167 0.333008 243.5 1s189.5 1 243.5 1c45.333 0 68 -14.333 68 -43c0 -23.333 -18 -39 -54 -47c-104.667 -24 -308 -50.667 -610 -80c-12 -1.33301 -22.333 -2 -31 -2c-86 0 -129 40.333 -129 121
c0 34 2.33301 86.333 7 157c4 68.667 6 120.667 6 156v39l-428 -31c-60.667 -126 -99 -232.333 -115 -319c-2.66699 -20 -7.33398 -48.667 -14.001 -86c-5.33301 -20.667 -16.333 -31 -33 -31c-39.333 0 -67.333 4.33301 -84 13c-6.66699 3.33301 -28.667 20 -66 50
c-12 10 -18 24.667 -18 44c0 10 1.33301 18.667 4 26c54.667 174 166 434 334 780l131 269c48.667 106.667 81.334 200 98.001 280c6.66699 32 11.167 48.833 13.5 50.5s19.833 2.5 52.5 2.5c17.333 0 43.333 2.16699 78 6.5s60.334 6.5 77.001 6.5zM790.999 496.001l2 778
l-390 -803z" />
    <glyph glyph-name="Ccedilla" unicode="&#xc7;" horiz-adv-x="1032" 
d="M82 526c0 180 23.334 349.334 70.001 508.001c56.667 190.667 140.334 337 251.001 439c29.333 26.667 61.666 40 96.999 40c64 0 146.667 -15.667 248 -47c70.667 -21.333 113.667 -59.333 129 -114c32.667 -119.333 49 -263.333 49 -432
c0 -76.667 -6.33301 -137.667 -19 -183c-6 -23.333 -22.333 -35 -49 -35c-86 0 -129 27.333 -129 82c0 20 1 50.167 3 90.5s3 70.5 3 90.5c0 270 -39 405 -117 405c-32.667 0 -65.334 -18.333 -98.001 -55c-156.667 -179.333 -235 -449.333 -235 -810
c0 -119.333 18.667 -219 56 -299c49.333 -107.333 126.666 -161 231.999 -161c70 0 152 25.333 246 76s141.333 76 142 76c21.333 0 32 -20 32 -60c0 -18 -7.33301 -35.667 -22 -53c-38 -44.667 -93 -82 -165 -112c-68 -28 -133.333 -42 -196 -42
c-79.333 0 -157.666 22 -234.999 66c-1.33301 0.666992 -28.333 13 -81 37c-32 15.333 -56.333 31.666 -73 48.999c-92.667 98 -139 246 -139 444zM579.001 38.001c36 0 54 -13.332 54 -39.999c0 7.33301 -20.667 -38 -62 -136l13 1c57.333 0 109.333 -9.66699 156 -29
c62 -25.333 93 -63 93 -113c0 -62 -43.667 -114.667 -131 -158c-73.333 -36.667 -144.333 -55 -213 -55c-20.667 0 -41.334 5.33301 -62.001 16c-24 12.667 -36 28.667 -36 48c0 6 4 15.333 12 28c10.667 16 24.334 24.667 41.001 26c-12.667 -0.666992 4 -1 50 -1
c71.333 0 141.333 30 210 90c-52 28.667 -96.333 43 -133 43c-17.333 0 -36 -4.5 -56 -13.5l-30 -13.5c-6 0 -18.167 5.66699 -36.5 17s-27.5 19.666 -27.5 24.999c0 -2.66699 29.667 70 89 218c12.667 31.333 35.667 47 69 47z" />
    <glyph glyph-name="Egrave" unicode="&#xc8;" horiz-adv-x="1042" 
d="M152 1313c0 15.333 -3.99902 34.1689 -11.999 56.502s-12 36.5 -12 42.5c0 20 17.333 30 52 30c122.667 0 219.667 -1.33301 291 -4c94 -2.66699 224.333 -10.334 391 -23.001c32.667 -4.66699 49 -22.334 49 -53.001c0 -23.333 -17 -37.666 -51 -42.999
c-49.333 -8 -118 -14.667 -206 -20c-100.667 -5.33301 -170.167 -10.333 -208.5 -15s-59.166 -19 -62.499 -43c-0.666992 -3.33301 -4.33398 -80.333 -11.001 -231l-20 -461l345 -6c30.667 1.33301 74.667 0.666016 132 -2.00098c26 -4 39 -20.333 39 -49
c0 -32 -13.667 -50.667 -41 -56c-22.667 -4.66699 -140 -17 -352 -37c-27.333 -3.33301 -68.333 -7.33301 -123 -12c-2.66699 -99.333 -4 -181.333 -4 -246c0 -42 19.333 -63 58 -63c54 0 135.167 0.333008 243.5 1s189.5 1 243.5 1c45.333 0 68 -14.333 68 -43
c0 -23.333 -18 -39 -54 -47c-66.667 -16 -174 -33.667 -322 -53c-151.333 -19.333 -258 -29 -320 -29c-86.667 0 -129.334 40.667 -128.001 122v11c10 474.667 15 898.667 15 1272zM260.001 1863c0 25.333 37.002 38 111.002 38c11.333 0 18.666 -2 21.999 -6
c109.333 -125.333 209.666 -215.333 300.999 -270c12.667 -7.33301 19 -11.333 19 -12c0 -6.66699 -15.5 -18.667 -46.5 -36s-51.167 -26 -60.5 -26c-12.667 0 -22 2 -28 6c-49.333 34 -109.333 82.333 -180 145c-92 81.333 -138 135 -138 161z" />
    <glyph glyph-name="Eacute" unicode="&#xc9;" horiz-adv-x="1042" 
d="M152 1313c0 15.333 -3.99902 34.1689 -11.999 56.502s-12 36.5 -12 42.5c0 20 17.333 30 52 30c122.667 0 219.667 -1.33301 291 -4c94 -2.66699 224.333 -10.334 391 -23.001c32.667 -4.66699 49 -22.334 49 -53.001c0 -23.333 -17 -37.666 -51 -42.999
c-49.333 -8 -118 -14.667 -206 -20c-100.667 -5.33301 -170.167 -10.333 -208.5 -15s-59.166 -19 -62.499 -43c-0.666992 -3.33301 -4.33398 -80.333 -11.001 -231l-20 -461l345 -6c30.667 1.33301 74.667 0.666016 132 -2.00098c26 -4 39 -20.333 39 -49
c0 -32 -13.667 -50.667 -41 -56c-22.667 -4.66699 -140 -17 -352 -37c-27.333 -3.33301 -68.333 -7.33301 -123 -12c-2.66699 -99.333 -4 -181.333 -4 -246c0 -42 19.333 -63 58 -63c54 0 135.167 0.333008 243.5 1s189.5 1 243.5 1c45.333 0 68 -14.333 68 -43
c0 -23.333 -18 -39 -54 -47c-66.667 -16 -174 -33.667 -322 -53c-151.333 -19.333 -258 -29 -320 -29c-86.667 0 -129.334 40.667 -128.001 122v11c10 474.667 15 898.667 15 1272zM738.001 1921c18.667 0 40.333 -8.00098 65 -24.001s37 -32.667 37 -50
c0 -9.33301 -59 -58.666 -177 -147.999c-120.667 -91.333 -191.334 -137 -212.001 -137c-15.333 0 -34.5 10 -57.5 30s-34.5 37.333 -34.5 52c0 4.66699 5 7 15 7c34 18 92 57 174 117c86.667 63.333 140.334 107.333 161.001 132c11.333 14 21 21 29 21z" />
    <glyph glyph-name="Ecircumflex" unicode="&#xca;" horiz-adv-x="1042" 
d="M152 1313c0 15.333 -3.99902 34.1689 -11.999 56.502s-12 36.5 -12 42.5c0 20 17.333 30 52 30c122.667 0 219.667 -1.33301 291 -4c94 -2.66699 224.333 -10.334 391 -23.001c32.667 -4.66699 49 -22.334 49 -53.001c0 -23.333 -17 -37.666 -51 -42.999
c-49.333 -8 -118 -14.667 -206 -20c-100.667 -5.33301 -170.167 -10.333 -208.5 -15s-59.166 -19 -62.499 -43c-0.666992 -3.33301 -4.33398 -80.333 -11.001 -231l-20 -461l345 -6c30.667 1.33301 74.667 0.666016 132 -2.00098c26 -4 39 -20.333 39 -49
c0 -32 -13.667 -50.667 -41 -56c-22.667 -4.66699 -140 -17 -352 -37c-27.333 -3.33301 -68.333 -7.33301 -123 -12c-2.66699 -99.333 -4 -181.333 -4 -246c0 -42 19.333 -63 58 -63c54 0 135.167 0.333008 243.5 1s189.5 1 243.5 1c45.333 0 68 -14.333 68 -43
c0 -23.333 -18 -39 -54 -47c-66.667 -16 -174 -33.667 -322 -53c-151.333 -19.333 -258 -29 -320 -29c-86.667 0 -129.334 40.667 -128.001 122v11c10 474.667 15 898.667 15 1272zM539.001 1690c-145.333 -80 -221 -120 -227 -120c-8.66699 0 -19.167 8 -31.5 24
s-18.5 28.333 -18.5 37c0 4.66699 4.33301 11 13 19c73.333 66 159.333 139 258 219c6.66699 0 47 -33 121 -99c82.667 -74 128.334 -114 137.001 -120c12 -16.667 18 -25.667 18 -27c0 -4 -7 -12 -21 -24s-23.333 -18 -28 -18s-78.334 36.333 -221.001 109z" />
    <glyph glyph-name="Edieresis" unicode="&#xcb;" horiz-adv-x="1042" 
d="M152 1313c0 15.333 -3.99902 34.1689 -11.999 56.502s-12 36.5 -12 42.5c0 20 17.333 30 52 30c122.667 0 219.667 -1.33301 291 -4c94 -2.66699 224.333 -10.334 391 -23.001c32.667 -4.66699 49 -22.334 49 -53.001c0 -23.333 -17 -37.666 -51 -42.999
c-49.333 -8 -118 -14.667 -206 -20c-100.667 -5.33301 -170.167 -10.333 -208.5 -15s-59.166 -19 -62.499 -43c-0.666992 -3.33301 -4.33398 -80.333 -11.001 -231l-20 -461l345 -6c30.667 1.33301 74.667 0.666016 132 -2.00098c26 -4 39 -20.333 39 -49
c0 -32 -13.667 -50.667 -41 -56c-22.667 -4.66699 -140 -17 -352 -37c-27.333 -3.33301 -68.333 -7.33301 -123 -12c-2.66699 -99.333 -4 -181.333 -4 -246c0 -42 19.333 -63 58 -63c54 0 135.167 0.333008 243.5 1s189.5 1 243.5 1c45.333 0 68 -14.333 68 -43
c0 -23.333 -18 -39 -54 -47c-66.667 -16 -174 -33.667 -322 -53c-151.333 -19.333 -258 -29 -320 -29c-86.667 0 -129.334 40.667 -128.001 122v11c10 474.667 15 898.667 15 1272zM229.001 1700c0 4.66699 3.83105 16.667 11.498 36s13.167 29.833 16.5 31.5l17 8.5
c1.33301 0.666992 5.33301 8.66699 12 24c4.66699 10.667 16.334 16 35.001 16c101.333 0 152 -45.333 152 -136c0 -26 -3.66699 -44.667 -11 -56c-6 -8.66699 -20.667 -20 -44 -34c-31.333 -18.667 -49.666 -28 -54.999 -28c-0.666992 0 -17.334 4.33301 -50.001 13
c-30 8.66699 -47.167 15.5 -51.5 20.5s-10.166 22.833 -17.499 53.5c-10 40.667 -15 57.667 -15 51zM686.999 1802c6.66699 0 13.833 2.16895 21.5 6.50195s13.834 6.5 18.501 6.5c-0.666992 0 7.66602 -5.33301 24.999 -16c47.333 -30.667 71 -72.334 71 -125.001
c0 -24 -14.833 -47 -44.5 -69s-56.834 -33 -81.501 -33c-25.333 0 -51.666 12 -78.999 36s-41 48 -41 72c0 26.667 5.66699 52 17 76c14 29.333 32.333 45.666 55 48.999c-10.667 -2 2 -3 38 -3z" />
    <glyph glyph-name="Igrave" unicode="&#xcc;" horiz-adv-x="504" 
d="M147 1233l-0.000976562 159.998c0 3.33301 -1.66699 8.33301 -5 15s-5 12.334 -5 17.001c0 10 11 18.333 33 25c16.667 5.33301 31.334 8 44.001 8c-13.333 0 11.667 -4 75 -12c79.333 -10.667 119 -29.667 119 -57c0 -6 -2.66699 -12.333 -8 -19
c-6 -9.33301 -9.66699 -15.333 -11 -18c-7.33301 -22.667 -17 -102.667 -29 -240c-28.667 -347.333 -43 -562.333 -43 -645c0 -222 1.66699 -353 5 -393c0 -5.33301 2.33301 -12.666 7 -21.999s7 -16 7 -20c0 -31.333 -22.333 -47 -67 -47c-104 0 -156 29 -156 87
c0 20.667 1.33301 48.667 4 84c3.33301 44.667 5.33301 72.667 6 84c16 324 24 655 24 993zM57.999 1881c0 25.333 37.002 38 111.002 38c11.333 0 18.666 -2 21.999 -6c109.333 -125.333 209.666 -215.333 300.999 -270c12.667 -7.33301 19 -11.333 19 -12
c0 -6.66699 -15.5 -18.667 -46.5 -36s-51.167 -26 -60.5 -26c-12.667 0 -22 2 -28 6c-49.333 34 -109.333 82.333 -180 145c-92 81.333 -138 135 -138 161z" />
    <glyph glyph-name="Iacute" unicode="&#xcd;" horiz-adv-x="504" 
d="M147 1233l-0.000976562 159.998c0 3.33301 -1.66699 8.33301 -5 15s-5 12.334 -5 17.001c0 10 11 18.333 33 25c16.667 5.33301 31.334 8 44.001 8c-13.333 0 11.667 -4 75 -12c79.333 -10.667 119 -29.667 119 -57c0 -6 -2.66699 -12.333 -8 -19
c-6 -9.33301 -9.66699 -15.333 -11 -18c-7.33301 -22.667 -17 -102.667 -29 -240c-28.667 -347.333 -43 -562.333 -43 -645c0 -222 1.66699 -353 5 -393c0 -5.33301 2.33301 -12.666 7 -21.999s7 -16 7 -20c0 -31.333 -22.333 -47 -67 -47c-104 0 -156 29 -156 87
c0 20.667 1.33301 48.667 4 84c3.33301 44.667 5.33301 72.667 6 84c16 324 24 655 24 993zM447.999 1923c18.667 0 40.333 -8.00098 65 -24.001s37 -32.667 37 -50c0 -9.33301 -59 -58.666 -177 -147.999c-120.667 -91.333 -191.334 -137 -212.001 -137
c-15.333 0 -34.5 10 -57.5 30s-34.5 37.333 -34.5 52c0 4.66699 5 7 15 7c34 18 92 57 174 117c86.667 63.333 140.334 107.333 161.001 132c11.333 14 21 21 29 21z" />
    <glyph glyph-name="Icircumflex" unicode="&#xce;" horiz-adv-x="504" 
d="M147 1233l-0.000976562 159.998c0 3.33301 -1.66699 8.33301 -5 15s-5 12.334 -5 17.001c0 10 11 18.333 33 25c16.667 5.33301 31.334 8 44.001 8c-13.333 0 11.667 -4 75 -12c79.333 -10.667 119 -29.667 119 -57c0 -6 -2.66699 -12.333 -8 -19
c-6 -9.33301 -9.66699 -15.333 -11 -18c-7.33301 -22.667 -17 -102.667 -29 -240c-28.667 -347.333 -43 -562.333 -43 -645c0 -222 1.66699 -353 5 -393c0 -5.33301 2.33301 -12.666 7 -21.999s7 -16 7 -20c0 -31.333 -22.333 -47 -67 -47c-104 0 -156 29 -156 87
c0 20.667 1.33301 48.667 4 84c3.33301 44.667 5.33301 72.667 6 84c16 324 24 655 24 993zM285.999 1682c-145.333 -80 -221 -120 -227 -120c-8.66699 0 -19.167 8 -31.5 24s-18.5 28.333 -18.5 37c0 4.66699 4.33301 11 13 19c73.333 66 159.333 139 258 219
c6.66699 0 47 -33 121 -99c82.667 -74 128.334 -114 137.001 -120c12 -16.667 18 -25.667 18 -27c0 -4 -7 -12 -21 -24s-23.333 -18 -28 -18s-78.334 36.333 -221.001 109z" />
    <glyph glyph-name="Idieresis" unicode="&#xcf;" horiz-adv-x="504" 
d="M147 1233l-0.000976562 159.998c0 3.33301 -1.66699 8.33301 -5 15s-5 12.334 -5 17.001c0 10 11 18.333 33 25c16.667 5.33301 31.334 8 44.001 8c-13.333 0 11.667 -4 75 -12c79.333 -10.667 119 -29.667 119 -57c0 -6 -2.66699 -12.333 -8 -19
c-6 -9.33301 -9.66699 -15.333 -11 -18c-7.33301 -22.667 -17 -102.667 -29 -240c-28.667 -347.333 -43 -562.333 -43 -645c0 -222 1.66699 -353 5 -393c0 -5.33301 2.33301 -12.666 7 -21.999s7 -16 7 -20c0 -31.333 -22.333 -47 -67 -47c-104 0 -156 29 -156 87
c0 20.667 1.33301 48.667 4 84c3.33301 44.667 5.33301 72.667 6 84c16 324 24 655 24 993zM-13.001 1699c0 4.66699 3.83105 16.667 11.498 36s13.167 29.833 16.5 31.5l17 8.5c1.33301 0.666992 5.33301 8.66699 12 24c4.66699 10.667 16.334 16 35.001 16
c101.333 0 152 -45.333 152 -136c0 -26 -3.66699 -44.667 -11 -56c-6 -8.66699 -20.667 -20 -44 -34c-31.333 -18.667 -49.666 -28 -54.999 -28c-0.666992 0 -17.334 4.33301 -50.001 13c-30 8.66699 -47.167 15.5 -51.5 20.5s-10.166 22.833 -17.499 53.5
c-10 40.667 -15 57.667 -15 51zM444.997 1801c6.66699 0 13.833 2.16895 21.5 6.50195s13.834 6.5 18.501 6.5c-0.666992 0 7.66602 -5.33301 24.999 -16c47.333 -30.667 71 -72.334 71 -125.001c0 -24 -14.833 -47 -44.5 -69s-56.834 -33 -81.501 -33
c-25.333 0 -51.666 12 -78.999 36s-41 48 -41 72c0 26.667 5.66699 52 17 76c14 29.333 32.333 45.666 55 48.999c-10.667 -2 2 -3 38 -3z" />
    <glyph glyph-name="Eth" unicode="&#xd0;" horiz-adv-x="1241" 
d="M350 592c172 2.66699 248.668 4.00098 230.001 4.00098c21.333 0 34.333 -5.66699 39 -17c1.33301 -4 2 -17.333 2 -40c0 -6.66699 2.16699 -16.334 6.5 -29.001s6.5 -22.334 6.5 -29.001c-0.666992 -3.33301 -1.66699 -7.33301 -3 -12c-3.33301 -4 -17.333 -6 -42 -6
s-64 -0.333008 -118 -1c-46.667 -0.666992 -86.334 -1 -119.001 -1c-4 -144.667 -6 -267 -6 -367c73.333 0 154 24 242 72c128.667 70 231.334 166.333 308.001 289c78.667 126 118 261 118 405c0 180 -82.667 315.333 -248 406c-32.667 18 -69.334 27 -110.001 27
c-95.333 0 -156.333 -2.33301 -183 -7c-48 -7.33301 -73.333 -38.666 -76 -93.999c-11.333 -133.333 -27 -333.333 -47 -600zM8.00098 547.001c0 21.333 18.334 33.9971 55.001 37.9971c27.333 1.33301 54.666 2.33301 81.999 3c20 242.667 30 444.667 30 606
c0 69.333 -1.66699 114.333 -5 135c-1.33301 10 -8.33301 24.333 -21 43c-12 16.667 -18 30.667 -18 42c0 28 16.333 42 49 42c16 0 39.833 -1.33301 71.5 -4s55.5 -4 71.5 -4c22 0 54.833 1 98.5 3s76.5 3 98.5 3c162.667 0 290.334 -50 383.001 -150
s157.667 -183.333 195 -250c53.333 -94 80 -195.333 80 -304c0 -147.333 -41 -278 -123 -392c-147.333 -204.667 -315.333 -341.667 -504 -411c-62.667 -23.333 -116.667 -35 -162 -35c-13.333 0 -30.333 2.33301 -51 7c-26 6.66699 -43 10.334 -51 11.001
c-70 9.33301 -108 15 -114 17c-36 14 -54 44 -54 90c0 54.667 4 125.334 12 212.001c11.333 122.667 17.666 193.334 18.999 212.001c-10.667 0 -26.167 -0.333008 -46.5 -1s-35.833 -1 -46.5 -1c-32.667 0 -49 29.333 -49 88z" />
    <glyph glyph-name="Eth" unicode="&#x110;" horiz-adv-x="1241" 
d="M350 592c172 2.66699 248.668 4.00098 230.001 4.00098c21.333 0 34.333 -5.66699 39 -17c1.33301 -4 2 -17.333 2 -40c0 -6.66699 2.16699 -16.334 6.5 -29.001s6.5 -22.334 6.5 -29.001c-0.666992 -3.33301 -1.66699 -7.33301 -3 -12c-3.33301 -4 -17.333 -6 -42 -6
s-64 -0.333008 -118 -1c-46.667 -0.666992 -86.334 -1 -119.001 -1c-4 -144.667 -6 -267 -6 -367c73.333 0 154 24 242 72c128.667 70 231.334 166.333 308.001 289c78.667 126 118 261 118 405c0 180 -82.667 315.333 -248 406c-32.667 18 -69.334 27 -110.001 27
c-95.333 0 -156.333 -2.33301 -183 -7c-48 -7.33301 -73.333 -38.666 -76 -93.999c-11.333 -133.333 -27 -333.333 -47 -600zM8.00098 547.001c0 21.333 18.334 33.9971 55.001 37.9971c27.333 1.33301 54.666 2.33301 81.999 3c20 242.667 30 444.667 30 606
c0 69.333 -1.66699 114.333 -5 135c-1.33301 10 -8.33301 24.333 -21 43c-12 16.667 -18 30.667 -18 42c0 28 16.333 42 49 42c16 0 39.833 -1.33301 71.5 -4s55.5 -4 71.5 -4c22 0 54.833 1 98.5 3s76.5 3 98.5 3c162.667 0 290.334 -50 383.001 -150
s157.667 -183.333 195 -250c53.333 -94 80 -195.333 80 -304c0 -147.333 -41 -278 -123 -392c-147.333 -204.667 -315.333 -341.667 -504 -411c-62.667 -23.333 -116.667 -35 -162 -35c-13.333 0 -30.333 2.33301 -51 7c-26 6.66699 -43 10.334 -51 11.001
c-70 9.33301 -108 15 -114 17c-36 14 -54 44 -54 90c0 54.667 4 125.334 12 212.001c11.333 122.667 17.666 193.334 18.999 212.001c-10.667 0 -26.167 -0.333008 -46.5 -1s-35.833 -1 -46.5 -1c-32.667 0 -49 29.333 -49 88z" />
    <glyph glyph-name="Ntilde" unicode="&#xd1;" horiz-adv-x="1202" 
d="M212 1402c9.33301 0 22.668 -1.83105 40.001 -5.49805s30.333 -5.5 39 -5.5c3.33301 0 7.66602 1.33301 12.999 4s9.66602 4 12.999 4c2.66699 0 15.667 -2 39 -6c43.333 -8 65.333 -12 66 -12c20.667 -8 31 -25.333 31 -52c0 -4.66699 -2.16699 -10.5 -6.5 -17.5
s-6.5 -12.833 -6.5 -17.5c0 -112 46.667 -322 140 -630c63.333 -211.333 144.333 -375.333 243 -492c8 -9.33301 15.667 -14 23 -14c10.667 0 16 10 16 30c0 402 -7.33301 764 -22 1086c0 31.333 -2 77 -6 137c-0.666992 4.66699 -2.66699 10.667 -6 18s-5 14.333 -5 21
c0 15.333 25.333 23 76 23c10.667 0 25.5 -1.5 44.5 -4.5s33.833 -4.5 44.5 -4.5c30.667 0 46 -13.667 46 -41c0 -38.667 -1.5 -96.834 -4.5 -174.501s-4.5 -135.834 -4.5 -174.501c0 -88.667 2.66699 -221.334 8 -398.001s8 -309.334 8 -398.001
c0 -164 -29.667 -250 -89 -258c-12 -1.33301 -30.333 -2 -55 -2c-108 0 -181.667 25.333 -221 76c-154.667 200 -264 484 -328 852h-14l-1 -214c0 -169.333 1.66699 -305.333 5 -408c2.66699 -94 5 -153.333 7 -178c5.33301 -78.667 14 -135.667 26 -171
c0.666992 -2.66699 4 -8.33398 10 -17.001c4 -7.33301 6 -13.666 6 -18.999c0 -9.33301 -4.66699 -15.333 -14 -18c-7.33301 -1.33301 -17.666 -1.33301 -30.999 0c-16.667 2 -25.667 3 -27 3c-7.33301 0 -18.333 -1 -33 -3s-25.667 -3 -33 -3
c-69.333 0 -104 28.667 -104 86c0 150.667 2.5 376.334 7.5 677.001s7.5 526.334 7.5 677.001c0 29.333 17.333 44 52 44zM406.002 1551c-11.333 0 -23.167 5.33301 -35.5 16s-18.5 21.334 -18.5 32.001c0 5.33301 1.66699 11.666 5 18.999
c43.333 102.667 95.666 154 156.999 154c28 0 66.5 -10 115.5 -30s87.167 -30 114.5 -30c14.667 0 29 10 43 30s27 30 39 30c15.333 0 29.333 -6.33301 42 -19s19 -27 19 -43c0 -30 -18.167 -65 -54.5 -105s-70.166 -60 -101.499 -60c-32.667 0 -75 12.833 -127 38.5
s-84.667 38.5 -98 38.5c-22 0 -41.833 -11.833 -59.5 -35.5s-31.167 -35.5 -40.5 -35.5z" />
    <glyph glyph-name="Ograve" unicode="&#xd2;" horiz-adv-x="1202" 
d="M421 1441c17.333 0 40.334 -4.00293 69.001 -12.0029c34.667 -9.33301 57.667 -14.666 69 -15.999c30 -0.666992 74.333 -4 133 -10c140.667 -28 250.667 -123 330 -285c66.667 -135.333 100 -283.333 100 -444c0 -143.333 -26.667 -283.666 -80 -420.999
c-62 -158 -146.667 -269 -254 -333c-40.667 -24.667 -82.667 -37 -126 -37c-2.66699 0 -51.334 9.66699 -146.001 29c-40 4.66699 -99.333 18.334 -178 41.001c-179.333 80 -269 279.667 -269 599c0 62 3 130 9 204c10 136.667 35.667 263.334 77 380.001
c54 155.333 125.333 253.666 214 294.999c14 6.66699 31.333 10 52 10zM602.001 1311c-116 0 -204.334 -95.333 -265.001 -286c-44.667 -138 -67 -282.333 -67 -433c0 -140 16.667 -263 50 -369c48.667 -156.667 126.334 -235 233.001 -235c138.667 0 244 84 316 252
c54 126.667 81 270 81 430c0 248.667 -51.667 426.667 -155 534c-68.667 71.333 -133 107 -193 107zM405 1868c0 25.333 37.002 38 111.002 38c11.333 0 18.666 -2 21.999 -6c109.333 -125.333 209.666 -215.333 300.999 -270c12.667 -7.33301 19 -11.333 19 -12
c0 -6.66699 -15.5 -18.667 -46.5 -36s-51.167 -26 -60.5 -26c-12.667 0 -22 2 -28 6c-49.333 34 -109.333 82.333 -180 145c-92 81.333 -138 135 -138 161z" />
    <glyph glyph-name="Oacute" unicode="&#xd3;" horiz-adv-x="1202" 
d="M421 1441c17.333 0 40.334 -4.00293 69.001 -12.0029c34.667 -9.33301 57.667 -14.666 69 -15.999c30 -0.666992 74.333 -4 133 -10c140.667 -28 250.667 -123 330 -285c66.667 -135.333 100 -283.333 100 -444c0 -143.333 -26.667 -283.666 -80 -420.999
c-62 -158 -146.667 -269 -254 -333c-40.667 -24.667 -82.667 -37 -126 -37c-2.66699 0 -51.334 9.66699 -146.001 29c-40 4.66699 -99.333 18.334 -178 41.001c-179.333 80 -269 279.667 -269 599c0 62 3 130 9 204c10 136.667 35.667 263.334 77 380.001
c54 155.333 125.333 253.666 214 294.999c14 6.66699 31.333 10 52 10zM602.001 1311c-116 0 -204.334 -95.333 -265.001 -286c-44.667 -138 -67 -282.333 -67 -433c0 -140 16.667 -263 50 -369c48.667 -156.667 126.334 -235 233.001 -235c138.667 0 244 84 316 252
c54 126.667 81 270 81 430c0 248.667 -51.667 426.667 -155 534c-68.667 71.333 -133 107 -193 107zM850 1926c18.667 0 40.333 -8.00098 65 -24.001s37 -32.667 37 -50c0 -9.33301 -59 -58.666 -177 -147.999c-120.667 -91.333 -191.334 -137 -212.001 -137
c-15.333 0 -34.5 10 -57.5 30s-34.5 37.333 -34.5 52c0 4.66699 5 7 15 7c34 18 92 57 174 117c86.667 63.333 140.334 107.333 161.001 132c11.333 14 21 21 29 21z" />
    <glyph glyph-name="Ocircumflex" unicode="&#xd4;" horiz-adv-x="1202" 
d="M421 1441c17.333 0 40.334 -4.00293 69.001 -12.0029c34.667 -9.33301 57.667 -14.666 69 -15.999c30 -0.666992 74.333 -4 133 -10c140.667 -28 250.667 -123 330 -285c66.667 -135.333 100 -283.333 100 -444c0 -143.333 -26.667 -283.666 -80 -420.999
c-62 -158 -146.667 -269 -254 -333c-40.667 -24.667 -82.667 -37 -126 -37c-2.66699 0 -51.334 9.66699 -146.001 29c-40 4.66699 -99.333 18.334 -178 41.001c-179.333 80 -269 279.667 -269 599c0 62 3 130 9 204c10 136.667 35.667 263.334 77 380.001
c54 155.333 125.333 253.666 214 294.999c14 6.66699 31.333 10 52 10zM602.001 1311c-116 0 -204.334 -95.333 -265.001 -286c-44.667 -138 -67 -282.333 -67 -433c0 -140 16.667 -263 50 -369c48.667 -156.667 126.334 -235 233.001 -235c138.667 0 244 84 316 252
c54 126.667 81 270 81 430c0 248.667 -51.667 426.667 -155 534c-68.667 71.333 -133 107 -193 107zM641 1684c-145.333 -80 -221 -120 -227 -120c-8.66699 0 -19.167 8 -31.5 24s-18.5 28.333 -18.5 37c0 4.66699 4.33301 11 13 19c73.333 66 159.333 139 258 219
c6.66699 0 47 -33 121 -99c82.667 -74 128.334 -114 137.001 -120c12 -16.667 18 -25.667 18 -27c0 -4 -7 -12 -21 -24s-23.333 -18 -28 -18s-78.334 36.333 -221.001 109z" />
    <glyph glyph-name="Otilde" unicode="&#xd5;" horiz-adv-x="1202" 
d="M421 1441c17.333 0 40.334 -4.00293 69.001 -12.0029c34.667 -9.33301 57.667 -14.666 69 -15.999c30 -0.666992 74.333 -4 133 -10c140.667 -28 250.667 -123 330 -285c66.667 -135.333 100 -283.333 100 -444c0 -143.333 -26.667 -283.666 -80 -420.999
c-62 -158 -146.667 -269 -254 -333c-40.667 -24.667 -82.667 -37 -126 -37c-2.66699 0 -51.334 9.66699 -146.001 29c-40 4.66699 -99.333 18.334 -178 41.001c-179.333 80 -269 279.667 -269 599c0 62 3 130 9 204c10 136.667 35.667 263.334 77 380.001
c54 155.333 125.333 253.666 214 294.999c14 6.66699 31.333 10 52 10zM602.001 1311c-116 0 -204.334 -95.333 -265.001 -286c-44.667 -138 -67 -282.333 -67 -433c0 -140 16.667 -263 50 -369c48.667 -156.667 126.334 -235 233.001 -235c138.667 0 244 84 316 252
c54 126.667 81 270 81 430c0 248.667 -51.667 426.667 -155 534c-68.667 71.333 -133 107 -193 107zM414 1580c-11.333 0 -23.167 5.33301 -35.5 16s-18.5 21.334 -18.5 32.001c0 5.33301 1.66699 11.666 5 18.999c43.333 102.667 95.666 154 156.999 154
c28 0 66.5 -10 115.5 -30s87.167 -30 114.5 -30c14.667 0 29 10 43 30s27 30 39 30c15.333 0 29.333 -6.33301 42 -19s19 -27 19 -43c0 -30 -18.167 -65 -54.5 -105s-70.166 -60 -101.499 -60c-32.667 0 -75 12.833 -127 38.5s-84.667 38.5 -98 38.5
c-22 0 -41.833 -11.833 -59.5 -35.5s-31.167 -35.5 -40.5 -35.5z" />
    <glyph glyph-name="Odieresis" unicode="&#xd6;" horiz-adv-x="1202" 
d="M421 1441c17.333 0 40.334 -4.00293 69.001 -12.0029c34.667 -9.33301 57.667 -14.666 69 -15.999c30 -0.666992 74.333 -4 133 -10c140.667 -28 250.667 -123 330 -285c66.667 -135.333 100 -283.333 100 -444c0 -143.333 -26.667 -283.666 -80 -420.999
c-62 -158 -146.667 -269 -254 -333c-40.667 -24.667 -82.667 -37 -126 -37c-2.66699 0 -51.334 9.66699 -146.001 29c-40 4.66699 -99.333 18.334 -178 41.001c-179.333 80 -269 279.667 -269 599c0 62 3 130 9 204c10 136.667 35.667 263.334 77 380.001
c54 155.333 125.333 253.666 214 294.999c14 6.66699 31.333 10 52 10zM602.001 1311c-116 0 -204.334 -95.333 -265.001 -286c-44.667 -138 -67 -282.333 -67 -433c0 -140 16.667 -263 50 -369c48.667 -156.667 126.334 -235 233.001 -235c138.667 0 244 84 316 252
c54 126.667 81 270 81 430c0 248.667 -51.667 426.667 -155 534c-68.667 71.333 -133 107 -193 107zM321 1683c0 4.66699 3.83105 16.667 11.498 36s13.167 29.833 16.5 31.5l17 8.5c1.33301 0.666992 5.33301 8.66699 12 24c4.66699 10.667 16.334 16 35.001 16
c101.333 0 152 -45.333 152 -136c0 -26 -3.66699 -44.667 -11 -56c-6 -8.66699 -20.667 -20 -44 -34c-31.333 -18.667 -49.666 -28 -54.999 -28c-0.666992 0 -17.334 4.33301 -50.001 13c-30 8.66699 -47.167 15.5 -51.5 20.5s-10.166 22.833 -17.499 53.5
c-10 40.667 -15 57.667 -15 51zM778.998 1785c6.66699 0 13.833 2.16895 21.5 6.50195s13.834 6.5 18.501 6.5c-0.666992 0 7.66602 -5.33301 24.999 -16c47.333 -30.667 71 -72.334 71 -125.001c0 -24 -14.833 -47 -44.5 -69s-56.834 -33 -81.501 -33
c-25.333 0 -51.666 12 -78.999 36s-41 48 -41 72c0 26.667 5.66699 52 17 76c14 29.333 32.333 45.666 55 48.999c-10.667 -2 2 -3 38 -3z" />
    <glyph glyph-name="multiply" unicode="&#xd7;" 
d="M694 440l355 -360l-109 -100l-336 348l-336 -348l-108 100l354 360l-354 361l108 100l336 -348l336 348l109 -100z" />
    <glyph glyph-name="Oslash" unicode="&#xd8;" horiz-adv-x="1202" 
d="M1010 1167c84.667 -150 127 -314.336 127 -493.003c0 -144.667 -27 -284.667 -81 -420c-61.333 -156.667 -145.666 -268 -252.999 -334c-40 -24.667 -82.333 -37 -127 -37c-20 0 -44.333 3.66699 -73 11l-73 18c-84.667 16.667 -131 26.334 -139 29.001
c-30.667 9.33301 -74.334 31 -131.001 65l-52 -76c-24 -30 -48.333 -45 -73 -45c-11.333 0 -30.166 10.5 -56.499 31.5s-39.5 37.833 -39.5 50.5c0 4.66699 39.667 62.667 119 174c-50.667 114.667 -76 244.334 -76 389.001c0 456.667 97 755 291 895
c14 10.667 34.667 16 62 16c17.333 0 40.333 -4 69 -12c34.667 -9.33301 57.667 -14.666 69 -15.999c30 0 74.667 -3.33301 134 -10c75.333 -15.333 142.666 -50.333 201.999 -105c4.66699 6.66699 28.667 49 72 127c10 7.33301 22.333 11 37 11
c22 0 45.333 -6.66699 70 -20c28.667 -15.333 43 -32.666 43 -51.999c0 -4.66699 -4.33301 -11.667 -13 -21c-12 -12.667 -18 -19.334 -18 -20.001zM920 1014c-12.667 -22 -61 -100.334 -145 -235.001l-251 -398l-159 -229c0 -4.66699 2 -11.667 6 -21
c42 -95.333 107.333 -143 196 -143c138.667 0 244 84 316 252c54.667 126.667 82 270 82 430c0 116.667 -15 231.334 -45 344.001zM836 1176c-74.667 90 -148.001 135 -220.001 135c-115.333 0 -203.666 -95.333 -264.999 -286c-44 -138 -66 -282.333 -66 -433
c0 -97.333 6.66699 -177.333 20 -240c117.333 165.333 234.666 342.333 351.999 531c42.667 64 102.334 161.667 179.001 293z" />
    <glyph glyph-name="Ugrave" unicode="&#xd9;" horiz-adv-x="1178" 
d="M166 1296c0 4.66699 -2.66895 11.001 -8.00195 19.001s-8 15.333 -8 22c0 8.66699 11.333 16.667 34 24c19.333 6 34.333 9 45 9c6.66699 0 15.834 -1.16699 27.501 -3.5s19.834 -3.83301 24.501 -4.5c42.667 -4.66699 71 -9.66699 85 -15c31.333 -12 47 -33.333 47 -64
c0 -12 -3.33301 -25.667 -10 -41c-8 -18 -12.667 -30.667 -14 -38c-26 -148.667 -39 -318.667 -39 -510c0 -144 12.333 -287.333 37 -430c21.333 -122.667 105 -184 251 -184c56 0 108.333 11.667 157 35c20 558.667 30 969.667 30 1233c0 3.33301 -2.33301 8 -7 14
s-7 12 -7 18c0 15.333 6 23 18 23c2.66699 0 6.16699 -1 10.5 -3s8.5 -3 12.5 -3c1.33301 0 6.5 1.66699 15.5 5s16.167 5 21.5 5c8.66699 0 21.667 -4.33301 39 -13s31 -13 41 -13c3.33301 0 8.83301 1 16.5 3s13.5 3 17.5 3c42 0 63 -17.333 63 -52
c0 -10.667 -3 -40.667 -9 -90c-40.667 -326.667 -61 -620.334 -61 -881.001c0 -170 5.33301 -297.333 16 -382c0.666992 -6 3.16699 -14.833 7.5 -26.5s6.5 -21.5 6.5 -29.5c0 -32.667 -41.667 -49 -125 -49c-3.33301 0 -7.83301 1 -13.5 3s-10.167 3 -13.5 3
c-2.66699 0 -7.33398 -0.666992 -14.001 -2s-11.334 -2 -14.001 -2c-27.333 0 -43.666 10 -48.999 30c-1.33301 3.33301 -2.66602 24.333 -3.99902 63v30c-76.667 -5.33301 -134 -8 -172 -8c-201.333 0 -334.333 56 -399 168c-46 78 -69 222.667 -69 434
c0 78 2.16699 194.833 6.5 350.5s6.5 272.167 6.5 349.5zM382.998 1875c0 25.333 37.002 38 111.002 38c11.333 0 18.666 -2 21.999 -6c109.333 -125.333 209.666 -215.333 300.999 -270c12.667 -7.33301 19 -11.333 19 -12c0 -6.66699 -15.5 -18.667 -46.5 -36
s-51.167 -26 -60.5 -26c-12.667 0 -22 2 -28 6c-49.333 34 -109.333 82.333 -180 145c-92 81.333 -138 135 -138 161z" />
    <glyph glyph-name="Uacute" unicode="&#xda;" horiz-adv-x="1178" 
d="M166 1296c0 4.66699 -2.66895 11.001 -8.00195 19.001s-8 15.333 -8 22c0 8.66699 11.333 16.667 34 24c19.333 6 34.333 9 45 9c6.66699 0 15.834 -1.16699 27.501 -3.5s19.834 -3.83301 24.501 -4.5c42.667 -4.66699 71 -9.66699 85 -15c31.333 -12 47 -33.333 47 -64
c0 -12 -3.33301 -25.667 -10 -41c-8 -18 -12.667 -30.667 -14 -38c-26 -148.667 -39 -318.667 -39 -510c0 -144 12.333 -287.333 37 -430c21.333 -122.667 105 -184 251 -184c56 0 108.333 11.667 157 35c20 558.667 30 969.667 30 1233c0 3.33301 -2.33301 8 -7 14
s-7 12 -7 18c0 15.333 6 23 18 23c2.66699 0 6.16699 -1 10.5 -3s8.5 -3 12.5 -3c1.33301 0 6.5 1.66699 15.5 5s16.167 5 21.5 5c8.66699 0 21.667 -4.33301 39 -13s31 -13 41 -13c3.33301 0 8.83301 1 16.5 3s13.5 3 17.5 3c42 0 63 -17.333 63 -52
c0 -10.667 -3 -40.667 -9 -90c-40.667 -326.667 -61 -620.334 -61 -881.001c0 -170 5.33301 -297.333 16 -382c0.666992 -6 3.16699 -14.833 7.5 -26.5s6.5 -21.5 6.5 -29.5c0 -32.667 -41.667 -49 -125 -49c-3.33301 0 -7.83301 1 -13.5 3s-10.167 3 -13.5 3
c-2.66699 0 -7.33398 -0.666992 -14.001 -2s-11.334 -2 -14.001 -2c-27.333 0 -43.666 10 -48.999 30c-1.33301 3.33301 -2.66602 24.333 -3.99902 63v30c-76.667 -5.33301 -134 -8 -172 -8c-201.333 0 -334.333 56 -399 168c-46 78 -69 222.667 -69 434
c0 78 2.16699 194.833 6.5 350.5s6.5 272.167 6.5 349.5zM838.998 1916c18.667 0 40.333 -8.00098 65 -24.001s37 -32.667 37 -50c0 -9.33301 -59 -58.666 -177 -147.999c-120.667 -91.333 -191.334 -137 -212.001 -137c-15.333 0 -34.5 10 -57.5 30s-34.5 37.333 -34.5 52
c0 4.66699 5 7 15 7c34 18 92 57 174 117c86.667 63.333 140.334 107.333 161.001 132c11.333 14 21 21 29 21z" />
    <glyph glyph-name="Ucircumflex" unicode="&#xdb;" horiz-adv-x="1178" 
d="M166 1296c0 4.66699 -2.66895 11.001 -8.00195 19.001s-8 15.333 -8 22c0 8.66699 11.333 16.667 34 24c19.333 6 34.333 9 45 9c6.66699 0 15.834 -1.16699 27.501 -3.5s19.834 -3.83301 24.501 -4.5c42.667 -4.66699 71 -9.66699 85 -15c31.333 -12 47 -33.333 47 -64
c0 -12 -3.33301 -25.667 -10 -41c-8 -18 -12.667 -30.667 -14 -38c-26 -148.667 -39 -318.667 -39 -510c0 -144 12.333 -287.333 37 -430c21.333 -122.667 105 -184 251 -184c56 0 108.333 11.667 157 35c20 558.667 30 969.667 30 1233c0 3.33301 -2.33301 8 -7 14
s-7 12 -7 18c0 15.333 6 23 18 23c2.66699 0 6.16699 -1 10.5 -3s8.5 -3 12.5 -3c1.33301 0 6.5 1.66699 15.5 5s16.167 5 21.5 5c8.66699 0 21.667 -4.33301 39 -13s31 -13 41 -13c3.33301 0 8.83301 1 16.5 3s13.5 3 17.5 3c42 0 63 -17.333 63 -52
c0 -10.667 -3 -40.667 -9 -90c-40.667 -326.667 -61 -620.334 -61 -881.001c0 -170 5.33301 -297.333 16 -382c0.666992 -6 3.16699 -14.833 7.5 -26.5s6.5 -21.5 6.5 -29.5c0 -32.667 -41.667 -49 -125 -49c-3.33301 0 -7.83301 1 -13.5 3s-10.167 3 -13.5 3
c-2.66699 0 -7.33398 -0.666992 -14.001 -2s-11.334 -2 -14.001 -2c-27.333 0 -43.666 10 -48.999 30c-1.33301 3.33301 -2.66602 24.333 -3.99902 63v30c-76.667 -5.33301 -134 -8 -172 -8c-201.333 0 -334.333 56 -399 168c-46 78 -69 222.667 -69 434
c0 78 2.16699 194.833 6.5 350.5s6.5 272.167 6.5 349.5zM637.998 1688c-145.333 -80 -221 -120 -227 -120c-8.66699 0 -19.167 8 -31.5 24s-18.5 28.333 -18.5 37c0 4.66699 4.33301 11 13 19c73.333 66 159.333 139 258 219c6.66699 0 47 -33 121 -99
c82.667 -74 128.334 -114 137.001 -120c12 -16.667 18 -25.667 18 -27c0 -4 -7 -12 -21 -24s-23.333 -18 -28 -18s-78.334 36.333 -221.001 109z" />
    <glyph glyph-name="Udieresis" unicode="&#xdc;" horiz-adv-x="1178" 
d="M166 1296c0 4.66699 -2.66895 11.001 -8.00195 19.001s-8 15.333 -8 22c0 8.66699 11.333 16.667 34 24c19.333 6 34.333 9 45 9c6.66699 0 15.834 -1.16699 27.501 -3.5s19.834 -3.83301 24.501 -4.5c42.667 -4.66699 71 -9.66699 85 -15c31.333 -12 47 -33.333 47 -64
c0 -12 -3.33301 -25.667 -10 -41c-8 -18 -12.667 -30.667 -14 -38c-26 -148.667 -39 -318.667 -39 -510c0 -144 12.333 -287.333 37 -430c21.333 -122.667 105 -184 251 -184c56 0 108.333 11.667 157 35c20 558.667 30 969.667 30 1233c0 3.33301 -2.33301 8 -7 14
s-7 12 -7 18c0 15.333 6 23 18 23c2.66699 0 6.16699 -1 10.5 -3s8.5 -3 12.5 -3c1.33301 0 6.5 1.66699 15.5 5s16.167 5 21.5 5c8.66699 0 21.667 -4.33301 39 -13s31 -13 41 -13c3.33301 0 8.83301 1 16.5 3s13.5 3 17.5 3c42 0 63 -17.333 63 -52
c0 -10.667 -3 -40.667 -9 -90c-40.667 -326.667 -61 -620.334 -61 -881.001c0 -170 5.33301 -297.333 16 -382c0.666992 -6 3.16699 -14.833 7.5 -26.5s6.5 -21.5 6.5 -29.5c0 -32.667 -41.667 -49 -125 -49c-3.33301 0 -7.83301 1 -13.5 3s-10.167 3 -13.5 3
c-2.66699 0 -7.33398 -0.666992 -14.001 -2s-11.334 -2 -14.001 -2c-27.333 0 -43.666 10 -48.999 30c-1.33301 3.33301 -2.66602 24.333 -3.99902 63v30c-76.667 -5.33301 -134 -8 -172 -8c-201.333 0 -334.333 56 -399 168c-46 78 -69 222.667 -69 434
c0 78 2.16699 194.833 6.5 350.5s6.5 272.167 6.5 349.5zM322.998 1689c0 4.66699 3.83105 16.667 11.498 36s13.167 29.833 16.5 31.5l17 8.5c1.33301 0.666992 5.33301 8.66699 12 24c4.66699 10.667 16.334 16 35.001 16c101.333 0 152 -45.333 152 -136
c0 -26 -3.66699 -44.667 -11 -56c-6 -8.66699 -20.667 -20 -44 -34c-31.333 -18.667 -49.666 -28 -54.999 -28c-0.666992 0 -17.334 4.33301 -50.001 13c-30 8.66699 -47.167 15.5 -51.5 20.5s-10.166 22.833 -17.499 53.5c-10 40.667 -15 57.667 -15 51zM780.996 1791
c6.66699 0 13.833 2.16895 21.5 6.50195s13.834 6.5 18.501 6.5c-0.666992 0 7.66602 -5.33301 24.999 -16c47.333 -30.667 71 -72.334 71 -125.001c0 -24 -14.833 -47 -44.5 -69s-56.834 -33 -81.501 -33c-25.333 0 -51.666 12 -78.999 36s-41 48 -41 72
c0 26.667 5.66699 52 17 76c14 29.333 32.333 45.666 55 48.999c-10.667 -2 2 -3 38 -3z" />
    <glyph glyph-name="Yacute" unicode="&#xdd;" horiz-adv-x="1227" 
d="M14 1360c0 7.33301 5.16699 15.3311 15.5 23.998s19.5 13 27.5 13c88 0 146.667 -27.333 176 -82c101.333 -188.667 212.666 -414 333.999 -676l6 2c53.333 102 149.333 271.667 288 509l155 263c8.66699 14 22.334 21 41.001 21c4.66699 0 29.5 -10.333 74.5 -31
s69.833 -33 74.5 -37c8.66699 -7.33301 13 -17.666 13 -30.999c0 -6 -12 -18 -36 -36c-26.667 -19.333 -42 -32.333 -46 -39c-178 -264.667 -330.333 -540.667 -457 -828c-2 -39.333 -3 -85.666 -3 -138.999c0 -82 3 -154 9 -216c0.666992 -6.66699 3 -21.667 7 -45
c3.33301 -19.333 5 -34 5 -44c0 -16.667 -38 -25 -114 -25c-67.333 0 -101 22 -101 66c0 18.667 1.16699 46.667 3.5 84s3.5 65.333 3.5 84c0 148 -13 251.667 -39 311c-90 201.333 -185.333 398.333 -286 591c-24 49.333 -62.667 121.333 -116 216
c-1.33301 2 -8 9.33301 -20 22c-10 9.33301 -15 17 -15 23zM835 1891c18.667 0 40.333 -8.00098 65 -24.001s37 -32.667 37 -50c0 -9.33301 -59 -58.666 -177 -147.999c-120.667 -91.333 -191.334 -137 -212.001 -137c-15.333 0 -34.5 10 -57.5 30s-34.5 37.333 -34.5 52
c0 4.66699 5 7 15 7c34 18 92 57 174 117c86.667 63.333 140.334 107.333 161.001 132c11.333 14 21 21 29 21z" />
    <glyph glyph-name="Thorn" unicode="&#xde;" horiz-adv-x="1077" 
d="M561 1083c-68.667 0 -113.001 -1.33398 -133.001 -4.00098c-28 -3.33301 -45.833 -9 -53.5 -17s-12.5 -26 -14.5 -54c-9.33301 -149.333 -14 -361 -14 -635c0 -23.333 10.333 -35 31 -35c32.667 0 77 13 133 39c88.667 42.667 161.334 100.334 218.001 173.001
c62 80 93 165.667 93 257c0 85.333 -21.667 152.333 -65 201c-45.333 50 -110.333 75 -195 75zM368.999 1192c45.333 5.33301 87.665 7.99902 126.998 7.99902c181.333 0 312.333 -41.667 393 -125c78 -80.667 117 -174.667 117 -282c0 -154 -70.667 -288.333 -212 -403
c-133.333 -108.667 -279.333 -163 -438 -163v-115c0 -12 2.83301 -30.5 8.5 -55.5s8.5 -43.167 8.5 -54.5c0 -22 -14.667 -33 -44 -33c-8.66699 0 -18.667 2.5 -30 7.5s-19.666 7.5 -24.999 7.5c-4 0 -10 -1.16699 -18 -3.5s-14 -3.5 -18 -3.5c-16 0 -39.333 7.66699 -70 23
c-34 16.667 -51 32 -51 46c0 4.66699 1.66699 11.5 5 20.5s5 15.5 5 19.5c8 114.667 15.667 354.334 23 719.001c4 222 6 418 6 588c0 3.33301 -1.83301 8.33301 -5.5 15s-5.5 12.334 -5.5 17.001c0 10 11 18.333 33 25c16.667 5.33301 31.667 8 45 8
c29.333 0 63.333 -5.33301 102 -16c49.333 -14.667 74 -32.334 74 -53.001c0 -6.66699 -3.66699 -13.5 -11 -20.5s-11.666 -12.5 -12.999 -16.5c-4.66699 -15.333 -7 -59.333 -7 -132z" />
    <glyph glyph-name="germandbls" unicode="&#xdf;" horiz-adv-x="918" 
d="M856 315c0 -108 -23.001 -193.669 -69.001 -257.002c-52.667 -71.333 -130.667 -107 -234 -107c-8.66699 0 -20 2 -34 6c-16.667 4.66699 -28 7.33398 -34 8.00098c-54.667 8 -82 24.333 -82 49c0 23.333 9 35 27 35c6.66699 0 16.5 -1.66699 29.5 -5s22.833 -5 29.5 -5
c122 0 183 102.333 183 307c0 212 -59.333 318 -178 318c-8 0 -19.333 -1.33301 -34 -4s-26 -4 -34 -4c-36 0 -54 16 -54 48c0 22 33.667 33 101 33c92.667 0 139 68.333 139 205c0 147.333 -46.333 221 -139 221c-41.333 0 -71.666 -19.667 -90.999 -59
c-11.333 -22 -21.333 -60.333 -30 -115c-16 -100 -26 -220.667 -30 -362c-1.33301 -122 -3 -243.667 -5 -365c-1.33301 -68.667 -2 -150.667 -2 -246c0 -7.33301 1.83301 -18.166 5.5 -32.499s5.5 -25.166 5.5 -32.499c0 -12 -11.333 -18 -34 -18
c-7.33301 0 -18.5 1.66699 -33.5 5s-26.167 5 -33.5 5c-8.66699 0 -21.5 -2.5 -38.5 -7.5s-29.167 -7.5 -36.5 -7.5c-6 0 -11 2 -15 6c-16 5.33301 -24 13 -24 23c0 6.66699 1.83301 16.5 5.5 29.5s5.83398 22.167 6.50098 27.5c18 156 27 358.333 27 607
c-42.667 -2 -77 -3 -103 -3c-12 0 -22.833 6.33301 -32.5 19s-14.5 25 -14.5 37c0 18.667 6.66699 28 20 28c42.667 0 86.667 2.33301 132 7c-1.33301 26.667 -2 59 -2 97c0 215.333 30 353.666 90 414.999c20 20 66.333 30 139 30c15.333 0 35 -2.66699 59 -8
c30 -6.66699 49.333 -10.667 58 -12c94.667 -12.667 163.667 -39.334 207 -80.001c47.333 -45.333 71 -115 71 -209c0 -72.667 -20 -127.667 -60 -165c-32.667 -30.667 -86.334 -54.667 -161.001 -72v-5c117.333 -13.333 190.333 -39.666 219 -78.999
c56 -76.667 84 -178.667 84 -306z" />
    <glyph glyph-name="agrave" unicode="&#xe0;" horiz-adv-x="807" 
d="M206 493c-22.667 0 -44 7.33105 -64 21.998c-22 16.667 -33 35.334 -33 56.001c0 104.667 18.333 185.334 55 242.001c41.333 64.667 88 97 140 97c11.333 0 27.666 -2.5 48.999 -7.5s37.333 -7.5 48 -7.5c6.66699 0 16.334 0.333008 29.001 1s21.334 1 26.001 1
c18.667 0 35 -4.66699 49 -14c17.333 -10.667 30.666 -17 39.999 -19c104.667 -22.667 157 -102.334 157 -239.001c0 -40.667 -2 -101.5 -6 -182.5s-6 -141.833 -6 -182.5v-136c0 -18.667 1.83301 -46.667 5.5 -84s5.5 -65 5.5 -83c0 -34 -14 -51 -42 -51
c-11.333 0 -28.333 0.333008 -51 1h-50c-36 0 -54 8 -54 24c0 6 5.16699 16.5 15.5 31.5s15.5 28.833 15.5 41.5c0 12 -1 21.667 -3 29c-53.333 -4 -99.333 -6 -138 -6c-77.333 0 -130 2.33301 -158 7c-54.667 10 -100.667 33.333 -138 70c-6.66699 2 -16 9.66699 -28 23
c-10 20.667 -15 41 -15 61c0 76 56 144.333 168 205c38 20.667 92.667 31 164 31c34.667 0 83 -8.33301 145 -25c-2 82 -4.33301 164.333 -7 247c-14 115.333 -51.667 173 -113 173c-57.333 0 -94.333 -36.333 -111 -109c-8 -33.333 -12 -91.666 -12 -174.999
c0 -12 -11 -22.667 -33 -32c-17.333 -6.66699 -34 -10 -50 -10zM539 314.998l-42 1c-83.333 2 -150 -13.333 -200 -46c-16 -10 -31.667 -25.667 -47 -47c-16.667 -24 -25 -44.333 -25 -61c0 -36.667 61 -55 183 -55c48.667 0 93 4.66699 133 14zM217 1262
c0 25.333 37.002 38 111.002 38c11.333 0 18.666 -2 21.999 -6c109.333 -125.333 209.666 -215.333 300.999 -270c12.667 -7.33301 19 -11.333 19 -12c0 -6.66699 -15.5 -18.667 -46.5 -36s-51.167 -26 -60.5 -26c-12.667 0 -22 2 -28 6
c-49.333 34 -109.333 82.333 -180 145c-92 81.333 -138 135 -138 161z" />
    <glyph glyph-name="aacute" unicode="&#xe1;" horiz-adv-x="807" 
d="M206 493c-22.667 0 -44 7.33105 -64 21.998c-22 16.667 -33 35.334 -33 56.001c0 104.667 18.333 185.334 55 242.001c41.333 64.667 88 97 140 97c11.333 0 27.666 -2.5 48.999 -7.5s37.333 -7.5 48 -7.5c6.66699 0 16.334 0.333008 29.001 1s21.334 1 26.001 1
c18.667 0 35 -4.66699 49 -14c17.333 -10.667 30.666 -17 39.999 -19c104.667 -22.667 157 -102.334 157 -239.001c0 -40.667 -2 -101.5 -6 -182.5s-6 -141.833 -6 -182.5v-136c0 -18.667 1.83301 -46.667 5.5 -84s5.5 -65 5.5 -83c0 -34 -14 -51 -42 -51
c-11.333 0 -28.333 0.333008 -51 1h-50c-36 0 -54 8 -54 24c0 6 5.16699 16.5 15.5 31.5s15.5 28.833 15.5 41.5c0 12 -1 21.667 -3 29c-53.333 -4 -99.333 -6 -138 -6c-77.333 0 -130 2.33301 -158 7c-54.667 10 -100.667 33.333 -138 70c-6.66699 2 -16 9.66699 -28 23
c-10 20.667 -15 41 -15 61c0 76 56 144.333 168 205c38 20.667 92.667 31 164 31c34.667 0 83 -8.33301 145 -25c-2 82 -4.33301 164.333 -7 247c-14 115.333 -51.667 173 -113 173c-57.333 0 -94.333 -36.333 -111 -109c-8 -33.333 -12 -91.666 -12 -174.999
c0 -12 -11 -22.667 -33 -32c-17.333 -6.66699 -34 -10 -50 -10zM539 314.998l-42 1c-83.333 2 -150 -13.333 -200 -46c-16 -10 -31.667 -25.667 -47 -47c-16.667 -24 -25 -44.333 -25 -61c0 -36.667 61 -55 183 -55c48.667 0 93 4.66699 133 14zM645 1317
c18.667 0 40.333 -8.00098 65 -24.001s37 -32.667 37 -50c0 -9.33301 -59 -58.666 -177 -147.999c-120.667 -91.333 -191.334 -137 -212.001 -137c-15.333 0 -34.5 10 -57.5 30s-34.5 37.333 -34.5 52c0 4.66699 5 7 15 7c34 18 92 57 174 117
c86.667 63.333 140.334 107.333 161.001 132c11.333 14 21 21 29 21z" />
    <glyph glyph-name="acircumflex" unicode="&#xe2;" horiz-adv-x="807" 
d="M206 493c-22.667 0 -44 7.33105 -64 21.998c-22 16.667 -33 35.334 -33 56.001c0 104.667 18.333 185.334 55 242.001c41.333 64.667 88 97 140 97c11.333 0 27.666 -2.5 48.999 -7.5s37.333 -7.5 48 -7.5c6.66699 0 16.334 0.333008 29.001 1s21.334 1 26.001 1
c18.667 0 35 -4.66699 49 -14c17.333 -10.667 30.666 -17 39.999 -19c104.667 -22.667 157 -102.334 157 -239.001c0 -40.667 -2 -101.5 -6 -182.5s-6 -141.833 -6 -182.5v-136c0 -18.667 1.83301 -46.667 5.5 -84s5.5 -65 5.5 -83c0 -34 -14 -51 -42 -51
c-11.333 0 -28.333 0.333008 -51 1h-50c-36 0 -54 8 -54 24c0 6 5.16699 16.5 15.5 31.5s15.5 28.833 15.5 41.5c0 12 -1 21.667 -3 29c-53.333 -4 -99.333 -6 -138 -6c-77.333 0 -130 2.33301 -158 7c-54.667 10 -100.667 33.333 -138 70c-6.66699 2 -16 9.66699 -28 23
c-10 20.667 -15 41 -15 61c0 76 56 144.333 168 205c38 20.667 92.667 31 164 31c34.667 0 83 -8.33301 145 -25c-2 82 -4.33301 164.333 -7 247c-14 115.333 -51.667 173 -113 173c-57.333 0 -94.333 -36.333 -111 -109c-8 -33.333 -12 -91.666 -12 -174.999
c0 -12 -11 -22.667 -33 -32c-17.333 -6.66699 -34 -10 -50 -10zM539 314.998l-42 1c-83.333 2 -150 -13.333 -200 -46c-16 -10 -31.667 -25.667 -47 -47c-16.667 -24 -25 -44.333 -25 -61c0 -36.667 61 -55 183 -55c48.667 0 93 4.66699 133 14zM447 1087
c-145.333 -80 -221 -120 -227 -120c-8.66699 0 -19.167 8 -31.5 24s-18.5 28.333 -18.5 37c0 4.66699 4.33301 11 13 19c73.333 66 159.333 139 258 219c6.66699 0 47 -33 121 -99c82.667 -74 128.334 -114 137.001 -120c12 -16.667 18 -25.667 18 -27c0 -4 -7 -12 -21 -24
s-23.333 -18 -28 -18s-78.334 36.333 -221.001 109z" />
    <glyph glyph-name="atilde" unicode="&#xe3;" horiz-adv-x="807" 
d="M206 493c-22.667 0 -44 7.33105 -64 21.998c-22 16.667 -33 35.334 -33 56.001c0 104.667 18.333 185.334 55 242.001c41.333 64.667 88 97 140 97c11.333 0 27.666 -2.5 48.999 -7.5s37.333 -7.5 48 -7.5c6.66699 0 16.334 0.333008 29.001 1s21.334 1 26.001 1
c18.667 0 35 -4.66699 49 -14c17.333 -10.667 30.666 -17 39.999 -19c104.667 -22.667 157 -102.334 157 -239.001c0 -40.667 -2 -101.5 -6 -182.5s-6 -141.833 -6 -182.5v-136c0 -18.667 1.83301 -46.667 5.5 -84s5.5 -65 5.5 -83c0 -34 -14 -51 -42 -51
c-11.333 0 -28.333 0.333008 -51 1h-50c-36 0 -54 8 -54 24c0 6 5.16699 16.5 15.5 31.5s15.5 28.833 15.5 41.5c0 12 -1 21.667 -3 29c-53.333 -4 -99.333 -6 -138 -6c-77.333 0 -130 2.33301 -158 7c-54.667 10 -100.667 33.333 -138 70c-6.66699 2 -16 9.66699 -28 23
c-10 20.667 -15 41 -15 61c0 76 56 144.333 168 205c38 20.667 92.667 31 164 31c34.667 0 83 -8.33301 145 -25c-2 82 -4.33301 164.333 -7 247c-14 115.333 -51.667 173 -113 173c-57.333 0 -94.333 -36.333 -111 -109c-8 -33.333 -12 -91.666 -12 -174.999
c0 -12 -11 -22.667 -33 -32c-17.333 -6.66699 -34 -10 -50 -10zM539 314.998l-42 1c-83.333 2 -150 -13.333 -200 -46c-16 -10 -31.667 -25.667 -47 -47c-16.667 -24 -25 -44.333 -25 -61c0 -36.667 61 -55 183 -55c48.667 0 93 4.66699 133 14zM217 968.998
c-11.333 0 -23.167 5.33301 -35.5 16s-18.5 21.334 -18.5 32.001c0 5.33301 1.66699 11.666 5 18.999c43.333 102.667 95.666 154 156.999 154c28 0 66.5 -10 115.5 -30s87.167 -30 114.5 -30c14.667 0 29 10 43 30s27 30 39 30c15.333 0 29.333 -6.33301 42 -19
s19 -27 19 -43c0 -30 -18.167 -65 -54.5 -105s-70.166 -60 -101.499 -60c-32.667 0 -75 12.833 -127 38.5s-84.667 38.5 -98 38.5c-22 0 -41.833 -11.833 -59.5 -35.5s-31.167 -35.5 -40.5 -35.5z" />
    <glyph glyph-name="adieresis" unicode="&#xe4;" horiz-adv-x="807" 
d="M206 493c-22.667 0 -44 7.33105 -64 21.998c-22 16.667 -33 35.334 -33 56.001c0 104.667 18.333 185.334 55 242.001c41.333 64.667 88 97 140 97c11.333 0 27.666 -2.5 48.999 -7.5s37.333 -7.5 48 -7.5c6.66699 0 16.334 0.333008 29.001 1s21.334 1 26.001 1
c18.667 0 35 -4.66699 49 -14c17.333 -10.667 30.666 -17 39.999 -19c104.667 -22.667 157 -102.334 157 -239.001c0 -40.667 -2 -101.5 -6 -182.5s-6 -141.833 -6 -182.5v-136c0 -18.667 1.83301 -46.667 5.5 -84s5.5 -65 5.5 -83c0 -34 -14 -51 -42 -51
c-11.333 0 -28.333 0.333008 -51 1h-50c-36 0 -54 8 -54 24c0 6 5.16699 16.5 15.5 31.5s15.5 28.833 15.5 41.5c0 12 -1 21.667 -3 29c-53.333 -4 -99.333 -6 -138 -6c-77.333 0 -130 2.33301 -158 7c-54.667 10 -100.667 33.333 -138 70c-6.66699 2 -16 9.66699 -28 23
c-10 20.667 -15 41 -15 61c0 76 56 144.333 168 205c38 20.667 92.667 31 164 31c34.667 0 83 -8.33301 145 -25c-2 82 -4.33301 164.333 -7 247c-14 115.333 -51.667 173 -113 173c-57.333 0 -94.333 -36.333 -111 -109c-8 -33.333 -12 -91.666 -12 -174.999
c0 -12 -11 -22.667 -33 -32c-17.333 -6.66699 -34 -10 -50 -10zM539 314.998l-42 1c-83.333 2 -150 -13.333 -200 -46c-16 -10 -31.667 -25.667 -47 -47c-16.667 -24 -25 -44.333 -25 -61c0 -36.667 61 -55 183 -55c48.667 0 93 4.66699 133 14zM137 1083
c0 4.66699 3.83105 16.667 11.498 36s13.167 29.833 16.5 31.5l17 8.5c1.33301 0.666992 5.33301 8.66699 12 24c4.66699 10.667 16.334 16 35.001 16c101.333 0 152 -45.333 152 -136c0 -26 -3.66699 -44.667 -11 -56c-6 -8.66699 -20.667 -20 -44 -34
c-31.333 -18.667 -49.666 -28 -54.999 -28c-0.666992 0 -17.334 4.33301 -50.001 13c-30 8.66699 -47.167 15.5 -51.5 20.5s-10.166 22.833 -17.499 53.5c-10 40.667 -15 57.667 -15 51zM594.998 1185c6.66699 0 13.833 2.16895 21.5 6.50195s13.834 6.5 18.501 6.5
c-0.666992 0 7.66602 -5.33301 24.999 -16c47.333 -30.667 71 -72.334 71 -125.001c0 -24 -14.833 -47 -44.5 -69s-56.834 -33 -81.501 -33c-25.333 0 -51.666 12 -78.999 36s-41 48 -41 72c0 26.667 5.66699 52 17 76c14 29.333 32.333 45.666 55 48.999
c-10.667 -2 2 -3 38 -3z" />
    <glyph glyph-name="aring" unicode="&#xe5;" horiz-adv-x="807" 
d="M206 493c-22.667 0 -44 7.33105 -64 21.998c-22 16.667 -33 35.334 -33 56.001c0 104.667 18.333 185.334 55 242.001c41.333 64.667 88 97 140 97c11.333 0 27.666 -2.5 48.999 -7.5s37.333 -7.5 48 -7.5c6.66699 0 16.334 0.333008 29.001 1s21.334 1 26.001 1
c18.667 0 35 -4.66699 49 -14c17.333 -10.667 30.666 -17 39.999 -19c104.667 -22.667 157 -102.334 157 -239.001c0 -40.667 -2 -101.5 -6 -182.5s-6 -141.833 -6 -182.5v-136c0 -18.667 1.83301 -46.667 5.5 -84s5.5 -65 5.5 -83c0 -34 -14 -51 -42 -51
c-11.333 0 -28.333 0.333008 -51 1h-50c-36 0 -54 8 -54 24c0 6 5.16699 16.5 15.5 31.5s15.5 28.833 15.5 41.5c0 12 -1 21.667 -3 29c-53.333 -4 -99.333 -6 -138 -6c-77.333 0 -130 2.33301 -158 7c-54.667 10 -100.667 33.333 -138 70c-6.66699 2 -16 9.66699 -28 23
c-10 20.667 -15 41 -15 61c0 76 56 144.333 168 205c38 20.667 92.667 31 164 31c34.667 0 83 -8.33301 145 -25c-2 82 -4.33301 164.333 -7 247c-14 115.333 -51.667 173 -113 173c-57.333 0 -94.333 -36.333 -111 -109c-8 -33.333 -12 -91.666 -12 -174.999
c0 -12 -11 -22.667 -33 -32c-17.333 -6.66699 -34 -10 -50 -10zM539 314.998l-42 1c-83.333 2 -150 -13.333 -200 -46c-16 -10 -31.667 -25.667 -47 -47c-16.667 -24 -25 -44.333 -25 -61c0 -36.667 61 -55 183 -55c48.667 0 93 4.66699 133 14zM262 1120
c0 58.667 14.668 105.668 44.001 141.001c31.333 38.667 76 58 134 58c52 0 95.833 -18.167 131.5 -54.5s53.5 -80.833 53.5 -133.5c0 -50.667 -16.333 -92.167 -49 -124.5s-74.334 -48.5 -125.001 -48.5c-49.333 0 -92.333 14.667 -129 44
c-40 31.333 -60 70.666 -60 117.999zM447.001 1221c-25.333 0 -45.668 -8.83301 -61.001 -26.5s-23 -39.167 -23 -64.5c0 -20.667 8.5 -38.667 25.5 -54s36.5 -23 58.5 -23s40.5 7.83301 55.5 23.5s22.5 34.834 22.5 57.501c0 21.333 -7.66699 41.166 -23 59.499
s-33.666 27.5 -54.999 27.5z" />
    <glyph glyph-name="ae" unicode="&#xe6;" 
d="M698 -53l-14 -30.0039c-6 -7.33301 -15.667 -11 -29 -11c-11.333 0 -28.333 0.333008 -51 1h-50c-36 0 -54 8 -54 24c0 6 5 16.5 15 31.5s15 28.833 15 41.5c0 12 -0.666992 21.667 -2 29c-53.333 -4 -99.333 -6 -138 -6c-77.333 0 -130 2.33301 -158 7
c-56 10 -102 33.333 -138 70c-6.66699 2 -16 9.66699 -28 23c-10 21.333 -15 41.666 -15 60.999c0 76 56 144.333 168 205c38 20.667 92.667 31 164 31c34.667 0 83 -8.33301 145 -25c0 8.66699 -0.333008 21.334 -1 38.001v68c-0.666992 209.333 -40 314 -118 314
c-57.333 0 -94.666 -36 -111.999 -108c-8 -33.333 -12 -91.333 -12 -174c0 -13.333 -10.667 -24.333 -32 -33c-18 -7.33301 -35 -11 -51 -11c-22.667 0 -44 7.33301 -64 22c-22 16.667 -33 35.334 -33 56.001c0 76.667 13 146.334 39 209.001
c33.333 82.667 81.666 125.667 144.999 129l11 1c11.333 0.666992 27.833 -1.66602 49.5 -6.99902s37.5 -8 47.5 -8c7.33301 0 17.333 0.333008 30 1s21.667 1 27 1c16.667 0 32.334 -4.66699 47.001 -14c17.333 -10.667 30.666 -17 39.999 -19
c38 -8 78.333 -33.333 121 -76c3.33301 4.66699 20.166 12.834 50.499 24.501s48.833 17.5 55.5 17.5c8 0 19.167 -1.66699 33.5 -5s24.166 -5.33301 29.499 -6c36.667 -2 73 -4.33301 109 -7c45.333 -5.33301 77.333 -18 96 -38c62.667 -64 94 -188 94 -372
c0 -68 -0.333008 -103.333 -1 -106c-5.33301 -47.333 -23.333 -71 -54 -71c-176 0 -303.667 -1.33301 -383 -4c-0.666992 -62.667 12 -114.667 38 -156c30.667 -48.667 75.334 -73 134.001 -73c40.667 0 91.834 18.333 153.501 55s100.167 55 115.5 55c12 0 26.667 -3 44 -9
c20.667 -8 31 -17 31 -27c0 -16.667 -29.667 -41.667 -89 -75c-48 -27.333 -85 -45.333 -111 -54c-18.667 -6.66699 -41 -10 -67 -10c-115.333 0 -196.333 6.66699 -243 20zM535 314.996l-42 1c-83.333 2 -150 -13.333 -200 -46c-16 -10 -31.667 -25.667 -47 -47
c-16.667 -24 -25 -44.333 -25 -61c0 -36.667 61 -55 183 -55c48 0 92.333 4.66699 133 14zM690 294.996l38.001 -1c67.333 -0.666992 147.666 4.33301 240.999 15c9.33301 53.333 14 104.666 14 153.999c0 180 -30.667 270 -92 270c-44 0 -86 -39 -126 -117
c-28 -56 -49 -114.667 -63 -176c-8 -37.333 -12 -85.666 -12 -144.999z" />
    <glyph glyph-name="ccedilla" unicode="&#xe7;" horiz-adv-x="752" 
d="M69 355c0 162.667 27.6689 318.003 83.002 466.003c17.333 48 70 72 158 72c70 0 137.667 -13.667 203 -41c82 -34.667 126.667 -81 134 -139c12.667 -100.667 19 -167.667 19 -201c0 -34.667 -3.16699 -54.667 -9.5 -60s-26.5 -8 -60.5 -8
c-4.66699 0 -11.167 -0.666992 -19.5 -2s-14.833 -2 -19.5 -2c-50 0 -75 38.667 -75 116c0 9.33301 0.333008 22.166 1 38.499s1 27.5 1 33.5c0 110 -23.333 165 -70 165c-27.333 0 -61 -31 -101 -93c-20 -30.667 -38 -91.334 -54 -182.001c-14 -80 -21 -144 -21 -192
c0 -62.667 9.33301 -117.334 28 -164.001c26 -62.667 65.667 -94 119 -94c47.333 0 99.166 21.5 155.499 64.5s89.833 64.5 100.5 64.5c11.333 0 25.666 -4.33301 42.999 -13c20.667 -9.33301 31 -18.666 31 -27.999c0 -10.667 -16.333 -31.334 -49 -62.001
c-70 -64 -155.333 -96 -256 -96c-121.333 0 -209 29.667 -263 89c-52 56.667 -78 146 -78 268zM378.002 63.0029c36 0 54 -13.332 54 -39.999c0 7.33301 -20.667 -38 -62 -136l13 1c57.333 0 109.333 -9.66699 156 -29c62 -25.333 93 -63 93 -113
c0 -62 -43.667 -114.667 -131 -158c-73.333 -36.667 -144.333 -55 -213 -55c-20.667 0 -41.334 5.33301 -62.001 16c-24 12.667 -36 28.667 -36 48c0 6 4 15.333 12 28c10.667 16 24.334 24.667 41.001 26c-12.667 -0.666992 4 -1 50 -1c71.333 0 141.333 30 210 90
c-52 28.667 -96.333 43 -133 43c-17.333 0 -36 -4.5 -56 -13.5l-30 -13.5c-6 0 -18.167 5.66699 -36.5 17s-27.5 19.666 -27.5 24.999c0 -2.66699 29.667 70 89 218c12.667 31.333 35.667 47 69 47z" />
    <glyph glyph-name="egrave" unicode="&#xe8;" horiz-adv-x="748" 
d="M63 303c0 128.667 39.666 279.667 118.999 453c2 7.33301 6.33301 18 13 32c4 5.33301 20.833 13.666 50.5 24.999s48.167 17 55.5 17c8 0 18.833 -1.66699 32.5 -5s23.167 -5.33301 28.5 -6c36 -2 72 -4.33301 108 -7c45.333 -5.33301 77.666 -18 96.999 -38
c62.667 -64 94 -188 94 -372c0 -68 -0.333008 -103.333 -1 -106c-5.33301 -47.333 -23.333 -71 -54 -71c-176 0 -303.667 -1.33301 -383 -4c-0.666992 -62.667 12 -114.667 38 -156c30.667 -48.667 75.334 -73 134.001 -73c40.667 0 91.834 18.333 153.501 55
s100.167 55 115.5 55c12 0 26.667 -3 44 -9c20.667 -8 31 -17 31 -27c0 -16.667 -29.667 -41.667 -89 -75c-48.667 -28 -85.667 -46 -111 -54c-18.667 -6.66699 -41 -10 -67 -10c-13.333 0 -31 0.666992 -53 2c-26.667 2 -44 3 -52 3c-84 3.33301 -142 12 -174 26
c-48 22.667 -81.667 68.834 -101 138.501s-29 138.5 -29 206.5zM224.999 295l38.001 -1c67.333 -0.666992 147.666 4.33301 240.999 15c9.33301 53.333 14 104.666 14 153.999c0 180 -30.667 270 -92 270c-44 0 -86 -39 -126 -117c-28 -56 -48.667 -114.667 -62 -176
c-8.66699 -37.333 -13 -85.666 -13 -144.999zM160 1262c0 25.333 37.002 38 111.002 38c11.333 0 18.666 -2 21.999 -6c109.333 -125.333 209.666 -215.333 300.999 -270c12.667 -7.33301 19 -11.333 19 -12c0 -6.66699 -15.5 -18.667 -46.5 -36s-51.167 -26 -60.5 -26
c-12.667 0 -22 2 -28 6c-49.333 34 -109.333 82.333 -180 145c-92 81.333 -138 135 -138 161z" />
    <glyph glyph-name="eacute" unicode="&#xe9;" horiz-adv-x="748" 
d="M63 303c0 128.667 39.666 279.667 118.999 453c2 7.33301 6.33301 18 13 32c4 5.33301 20.833 13.666 50.5 24.999s48.167 17 55.5 17c8 0 18.833 -1.66699 32.5 -5s23.167 -5.33301 28.5 -6c36 -2 72 -4.33301 108 -7c45.333 -5.33301 77.666 -18 96.999 -38
c62.667 -64 94 -188 94 -372c0 -68 -0.333008 -103.333 -1 -106c-5.33301 -47.333 -23.333 -71 -54 -71c-176 0 -303.667 -1.33301 -383 -4c-0.666992 -62.667 12 -114.667 38 -156c30.667 -48.667 75.334 -73 134.001 -73c40.667 0 91.834 18.333 153.501 55
s100.167 55 115.5 55c12 0 26.667 -3 44 -9c20.667 -8 31 -17 31 -27c0 -16.667 -29.667 -41.667 -89 -75c-48.667 -28 -85.667 -46 -111 -54c-18.667 -6.66699 -41 -10 -67 -10c-13.333 0 -31 0.666992 -53 2c-26.667 2 -44 3 -52 3c-84 3.33301 -142 12 -174 26
c-48 22.667 -81.667 68.834 -101 138.501s-29 138.5 -29 206.5zM224.999 295l38.001 -1c67.333 -0.666992 147.666 4.33301 240.999 15c9.33301 53.333 14 104.666 14 153.999c0 180 -30.667 270 -92 270c-44 0 -86 -39 -126 -117c-28 -56 -48.667 -114.667 -62 -176
c-8.66699 -37.333 -13 -85.666 -13 -144.999zM592 1317c18.667 0 40.333 -8.00098 65 -24.001s37 -32.667 37 -50c0 -9.33301 -59 -58.666 -177 -147.999c-120.667 -91.333 -191.334 -137 -212.001 -137c-15.333 0 -34.5 10 -57.5 30s-34.5 37.333 -34.5 52
c0 4.66699 5 7 15 7c34 18 92 57 174 117c86.667 63.333 140.334 107.333 161.001 132c11.333 14 21 21 29 21z" />
    <glyph glyph-name="ecircumflex" unicode="&#xea;" horiz-adv-x="748" 
d="M63 303c0 128.667 39.666 279.667 118.999 453c2 7.33301 6.33301 18 13 32c4 5.33301 20.833 13.666 50.5 24.999s48.167 17 55.5 17c8 0 18.833 -1.66699 32.5 -5s23.167 -5.33301 28.5 -6c36 -2 72 -4.33301 108 -7c45.333 -5.33301 77.666 -18 96.999 -38
c62.667 -64 94 -188 94 -372c0 -68 -0.333008 -103.333 -1 -106c-5.33301 -47.333 -23.333 -71 -54 -71c-176 0 -303.667 -1.33301 -383 -4c-0.666992 -62.667 12 -114.667 38 -156c30.667 -48.667 75.334 -73 134.001 -73c40.667 0 91.834 18.333 153.501 55
s100.167 55 115.5 55c12 0 26.667 -3 44 -9c20.667 -8 31 -17 31 -27c0 -16.667 -29.667 -41.667 -89 -75c-48.667 -28 -85.667 -46 -111 -54c-18.667 -6.66699 -41 -10 -67 -10c-13.333 0 -31 0.666992 -53 2c-26.667 2 -44 3 -52 3c-84 3.33301 -142 12 -174 26
c-48 22.667 -81.667 68.834 -101 138.501s-29 138.5 -29 206.5zM224.999 295l38.001 -1c67.333 -0.666992 147.666 4.33301 240.999 15c9.33301 53.333 14 104.666 14 153.999c0 180 -30.667 270 -92 270c-44 0 -86 -39 -126 -117c-28 -56 -48.667 -114.667 -62 -176
c-8.66699 -37.333 -13 -85.666 -13 -144.999zM397 1087c-145.333 -80 -221 -120 -227 -120c-8.66699 0 -19.167 8 -31.5 24s-18.5 28.333 -18.5 37c0 4.66699 4.33301 11 13 19c73.333 66 159.333 139 258 219c6.66699 0 47 -33 121 -99
c82.667 -74 128.334 -114 137.001 -120c12 -16.667 18 -25.667 18 -27c0 -4 -7 -12 -21 -24s-23.333 -18 -28 -18s-78.334 36.333 -221.001 109z" />
    <glyph glyph-name="edieresis" unicode="&#xeb;" horiz-adv-x="748" 
d="M63 303c0 128.667 39.666 279.667 118.999 453c2 7.33301 6.33301 18 13 32c4 5.33301 20.833 13.666 50.5 24.999s48.167 17 55.5 17c8 0 18.833 -1.66699 32.5 -5s23.167 -5.33301 28.5 -6c36 -2 72 -4.33301 108 -7c45.333 -5.33301 77.666 -18 96.999 -38
c62.667 -64 94 -188 94 -372c0 -68 -0.333008 -103.333 -1 -106c-5.33301 -47.333 -23.333 -71 -54 -71c-176 0 -303.667 -1.33301 -383 -4c-0.666992 -62.667 12 -114.667 38 -156c30.667 -48.667 75.334 -73 134.001 -73c40.667 0 91.834 18.333 153.501 55
s100.167 55 115.5 55c12 0 26.667 -3 44 -9c20.667 -8 31 -17 31 -27c0 -16.667 -29.667 -41.667 -89 -75c-48.667 -28 -85.667 -46 -111 -54c-18.667 -6.66699 -41 -10 -67 -10c-13.333 0 -31 0.666992 -53 2c-26.667 2 -44 3 -52 3c-84 3.33301 -142 12 -174 26
c-48 22.667 -81.667 68.834 -101 138.501s-29 138.5 -29 206.5zM224.999 295l38.001 -1c67.333 -0.666992 147.666 4.33301 240.999 15c9.33301 53.333 14 104.666 14 153.999c0 180 -30.667 270 -92 270c-44 0 -86 -39 -126 -117c-28 -56 -48.667 -114.667 -62 -176
c-8.66699 -37.333 -13 -85.666 -13 -144.999zM102 1083c0 4.66699 3.83105 16.667 11.498 36s13.167 29.833 16.5 31.5l17 8.5c1.33301 0.666992 5.33301 8.66699 12 24c4.66699 10.667 16.334 16 35.001 16c101.333 0 152 -45.333 152 -136c0 -26 -3.66699 -44.667 -11 -56
c-6 -8.66699 -20.667 -20 -44 -34c-31.333 -18.667 -49.666 -28 -54.999 -28c-0.666992 0 -17.334 4.33301 -50.001 13c-30 8.66699 -47.167 15.5 -51.5 20.5s-10.166 22.833 -17.499 53.5c-10 40.667 -15 57.667 -15 51zM559.998 1185
c6.66699 0 13.833 2.16895 21.5 6.50195s13.834 6.5 18.501 6.5c-0.666992 0 7.66602 -5.33301 24.999 -16c47.333 -30.667 71 -72.334 71 -125.001c0 -24 -14.833 -47 -44.5 -69s-56.834 -33 -81.501 -33c-25.333 0 -51.666 12 -78.999 36s-41 48 -41 72
c0 26.667 5.66699 52 17 76c14 29.333 32.333 45.666 55 48.999c-10.667 -2 2 -3 38 -3z" />
    <glyph glyph-name="igrave" unicode="&#xec;" horiz-adv-x="522" 
d="M183 557c0 90.667 -5 164.334 -15 221.001c-2.66699 15.333 -4 24.333 -4 27c0 10 6.66699 18.667 20 26s25.333 11 36 11c9.33301 0 20.666 -1.66699 33.999 -5c16 -3.33301 27 -5.33301 33 -6l71 -6c34.667 -6 52 -17.333 52 -34
c0 -7.33301 -4.16699 -14.833 -12.5 -22.5s-13.166 -13.834 -14.499 -18.501c-7.33301 -25.333 -15 -82 -23 -170c-20 -234 -30 -398.333 -30 -493c0 -20 3 -38.667 9 -56s9 -25.666 9 -24.999c0 -21.333 -30.667 -32 -92 -32c-82 0 -123 12.667 -123 38
c0 5.33301 1.66699 12.833 5 22.5s5 16.5 5 20.5c26.667 183.333 40 350.666 40 501.999zM41 1262c0 25.333 37.002 38 111.002 38c11.333 0 18.666 -2 21.999 -6c109.333 -125.333 209.666 -215.333 300.999 -270c12.667 -7.33301 19 -11.333 19 -12
c0 -6.66699 -15.5 -18.667 -46.5 -36s-51.167 -26 -60.5 -26c-12.667 0 -22 2 -28 6c-49.333 34 -109.333 82.333 -180 145c-92 81.333 -138 135 -138 161z" />
    <glyph glyph-name="iacute" unicode="&#xed;" horiz-adv-x="522" 
d="M183 557c0 90.667 -5 164.334 -15 221.001c-2.66699 15.333 -4 24.333 -4 27c0 10 6.66699 18.667 20 26s25.333 11 36 11c9.33301 0 20.666 -1.66699 33.999 -5c16 -3.33301 27 -5.33301 33 -6l71 -6c34.667 -6 52 -17.333 52 -34
c0 -7.33301 -4.16699 -14.833 -12.5 -22.5s-13.166 -13.834 -14.499 -18.501c-7.33301 -25.333 -15 -82 -23 -170c-20 -234 -30 -398.333 -30 -493c0 -20 3 -38.667 9 -56s9 -25.666 9 -24.999c0 -21.333 -30.667 -32 -92 -32c-82 0 -123 12.667 -123 38
c0 5.33301 1.66699 12.833 5 22.5s5 16.5 5 20.5c26.667 183.333 40 350.666 40 501.999zM428 1317c18.667 0 40.333 -8.00098 65 -24.001s37 -32.667 37 -50c0 -9.33301 -59 -58.666 -177 -147.999c-120.667 -91.333 -191.334 -137 -212.001 -137
c-15.333 0 -34.5 10 -57.5 30s-34.5 37.333 -34.5 52c0 4.66699 5 7 15 7c34 18 92 57 174 117c86.667 63.333 140.334 107.333 161.001 132c11.333 14 21 21 29 21z" />
    <glyph glyph-name="icircumflex" unicode="&#xee;" horiz-adv-x="522" 
d="M183 557c0 90.667 -5 164.334 -15 221.001c-2.66699 15.333 -4 24.333 -4 27c0 10 6.66699 18.667 20 26s25.333 11 36 11c9.33301 0 20.666 -1.66699 33.999 -5c16 -3.33301 27 -5.33301 33 -6l71 -6c34.667 -6 52 -17.333 52 -34
c0 -7.33301 -4.16699 -14.833 -12.5 -22.5s-13.166 -13.834 -14.499 -18.501c-7.33301 -25.333 -15 -82 -23 -170c-20 -234 -30 -398.333 -30 -493c0 -20 3 -38.667 9 -56s9 -25.666 9 -24.999c0 -21.333 -30.667 -32 -92 -32c-82 0 -123 12.667 -123 38
c0 5.33301 1.66699 12.833 5 22.5s5 16.5 5 20.5c26.667 183.333 40 350.666 40 501.999zM285 1087c-145.333 -80 -221 -120 -227 -120c-8.66699 0 -19.167 8 -31.5 24s-18.5 28.333 -18.5 37c0 4.66699 4.33301 11 13 19c73.333 66 159.333 139 258 219
c6.66699 0 47 -33 121 -99c82.667 -74 128.334 -114 137.001 -120c12 -16.667 18 -25.667 18 -27c0 -4 -7 -12 -21 -24s-23.333 -18 -28 -18s-78.334 36.333 -221.001 109z" />
    <glyph glyph-name="idieresis" unicode="&#xef;" horiz-adv-x="522" 
d="M183 557c0 90.667 -5 164.334 -15 221.001c-2.66699 15.333 -4 24.333 -4 27c0 10 6.66699 18.667 20 26s25.333 11 36 11c9.33301 0 20.666 -1.66699 33.999 -5c16 -3.33301 27 -5.33301 33 -6l71 -6c34.667 -6 52 -17.333 52 -34
c0 -7.33301 -4.16699 -14.833 -12.5 -22.5s-13.166 -13.834 -14.499 -18.501c-7.33301 -25.333 -15 -82 -23 -170c-20 -234 -30 -398.333 -30 -493c0 -20 3 -38.667 9 -56s9 -25.666 9 -24.999c0 -21.333 -30.667 -32 -92 -32c-82 0 -123 12.667 -123 38
c0 5.33301 1.66699 12.833 5 22.5s5 16.5 5 20.5c26.667 183.333 40 350.666 40 501.999zM-8 1083c0 4.66699 3.83105 16.667 11.498 36s13.167 29.833 16.5 31.5l17 8.5c1.33301 0.666992 5.33301 8.66699 12 24c4.66699 10.667 16.334 16 35.001 16
c101.333 0 152 -45.333 152 -136c0 -26 -3.66699 -44.667 -11 -56c-6 -8.66699 -20.667 -20 -44 -34c-31.333 -18.667 -49.666 -28 -54.999 -28c-0.666992 0 -17.334 4.33301 -50.001 13c-30 8.66699 -47.167 15.5 -51.5 20.5s-10.166 22.833 -17.499 53.5
c-10 40.667 -15 57.667 -15 51zM449.998 1185c6.66699 0 13.833 2.16895 21.5 6.50195s13.834 6.5 18.501 6.5c-0.666992 0 7.66602 -5.33301 24.999 -16c47.333 -30.667 71 -72.334 71 -125.001c0 -24 -14.833 -47 -44.5 -69s-56.834 -33 -81.501 -33
c-25.333 0 -51.666 12 -78.999 36s-41 48 -41 72c0 26.667 5.66699 52 17 76c14 29.333 32.333 45.666 55 48.999c-10.667 -2 2 -3 38 -3z" />
    <glyph glyph-name="eth" unicode="&#xf0;" horiz-adv-x="795" 
d="M733 375c0 -76.667 -9.33301 -149.335 -28 -218.002c-23.333 -89.333 -58.333 -152 -105 -188c-33.333 -26 -81 -39 -143 -39c-12 0 -28.167 3.66699 -48.5 11s-35.833 11.333 -46.5 12c-24.667 0.666992 -61.334 5.33398 -110.001 14.001
c-74.667 24 -126.667 68.333 -156 133c-22 48.667 -33 117.667 -33 207c0 176.667 31.667 315.334 95 416.001c14.667 23.333 40.667 41 78 53c5.33301 2 25.333 11.667 60 29c20 9.33301 45 14 75 14c65.333 0 110.333 -12.333 135 -37c-16 70 -45.333 143 -88 219
l-187 -88c-5.33301 0 -15.166 7.33301 -29.499 22s-21.5 24.667 -21.5 30c0 12.667 29 31.334 87 56.001l112 46c-2.66699 4 -22.334 27 -59.001 69c-32 36.667 -48 56.667 -48 60c0 7.33301 3.5 16 10.5 26s13.833 15 20.5 15c32 0 90.667 -41 176 -123
c114.667 53.333 177.667 80 189 80c4 0 8 -4.33301 12 -13c5.33301 -11.333 8.33301 -17.5 9 -18.5s5.33398 -4.16699 14.001 -9.5c6.66699 -4.66699 10 -9.33398 10 -14.001c0 -10 -5.66699 -17.667 -17 -23l-164 -65c134 -202.667 201 -428 201 -676zM553 452.999
c0 188 -43 281.999 -129 281.999c-68 0 -117.333 -58 -148 -174c-20 -75.333 -30 -160.666 -30 -255.999c0 -194 43 -291 129 -291c69.333 0 119 59.333 149 178c19.333 75.333 29 162.333 29 261z" />
    <glyph glyph-name="ntilde" unicode="&#xf1;" horiz-adv-x="897" 
d="M122 657c0 116 -1.00098 182.999 -3.00098 200.999c-0.666992 2.66699 -2.16699 6.33398 -4.5 11.001s-3.5 8.66699 -3.5 12c0 6.66699 2 11 6 13s9.33301 2.33301 16 1l14 -2c4 0 9.66699 1 17 3s12.666 3 15.999 3c105.333 0 158 -15.667 158 -47
c0 -4 -7 -16.333 -21 -37s-21 -39 -21 -55c0 -4 1 -9.66699 3 -17c65.333 30.667 152.333 46 261 46c151.333 0 227 -90.667 227 -272c0 -53.333 -1.5 -133.666 -4.5 -240.999s-4.5 -187.666 -4.5 -240.999c0 -6 2.5 -14.833 7.5 -26.5s7.5 -19.5 7.5 -23.5
c0 -9.33301 -7.66699 -14 -23 -14c-8.66699 0 -22.167 -2 -40.5 -6s-32.166 -6 -41.499 -6c-2.66699 0 -6.66699 0.666992 -12 2s-9.33301 2 -12 2c-25.333 0 -40.666 1 -45.999 3c-12.667 4.66699 -19 17.667 -19 39l1 11c15.333 176 23 278.667 23 308
c0 61.333 -5 158.666 -15 291.999c-5.33301 70 -38.333 105 -99 105c-80.667 0 -141.667 -40 -183 -120c-32.667 -62.667 -49 -138.334 -49 -227.001c0 -180.667 4 -289.667 12 -327c0.666992 -2.66699 2.16699 -5.83398 4.5 -9.50098s3.5 -7.16699 3.5 -10.5
c0 -11.333 -21.333 -17 -64 -17c-4.66699 0 -12 1.66699 -22 5s-17.667 5 -23 5c-4.66699 0 -11.667 -1 -21 -3s-16.666 -3 -21.999 -3c-8.66699 0 -19.334 3 -32.001 9c-15.333 6 -23 12.667 -23 20c0 2 1.66699 4.83301 5 8.5s5 6.83398 5 9.50098
c14.667 97.333 22 296 22 596zM278.999 968.999c-11.333 0 -23.167 5.33301 -35.5 16s-18.5 21.334 -18.5 32.001c0 5.33301 1.66699 11.666 5 18.999c43.333 102.667 95.666 154 156.999 154c28 0 66.5 -10 115.5 -30s87.167 -30 114.5 -30c14.667 0 29 10 43 30
s27 30 39 30c15.333 0 29.333 -6.33301 42 -19s19 -27 19 -43c0 -30 -18.167 -65 -54.5 -105s-70.166 -60 -101.499 -60c-32.667 0 -75 12.833 -127 38.5s-84.667 38.5 -98 38.5c-22 0 -41.833 -11.833 -59.5 -35.5s-31.167 -35.5 -40.5 -35.5z" />
    <glyph glyph-name="ograve" unicode="&#xf2;" horiz-adv-x="795" 
d="M63 307c0 196.667 41.0029 362 123.003 496c6.66699 12.667 17 29 31 49c41.333 16.667 65.666 25 72.999 25c13.333 0 32.166 -3.5 56.499 -10.5s41.833 -11.167 52.5 -12.5c32.667 -2 82 -11 148 -27c78 -33.333 130.333 -106 157 -218
c15.333 -64.667 23 -159.667 23 -285c0 -66.667 -11.667 -134.334 -35 -203.001c-28 -84 -65.333 -138.667 -112 -164c-33.333 -18 -74.333 -27 -123 -27c-12 0 -28.167 3.66699 -48.5 11s-35.833 11.333 -46.5 12c-24.667 0.666992 -61.334 5.33398 -110.001 14.001
c-75.333 24.667 -127.333 69 -156 133c-22 48 -33 117 -33 207zM554.003 474c0 182.667 -48.668 274.001 -146.001 274.001c-58 0 -102 -60.333 -132 -181c-20 -82 -30 -164.667 -30 -248c0 -203.333 43 -305 129 -305c68.667 0 118.334 63 149.001 189
c20 81.333 30 171.666 30 270.999zM172.002 1262c0 25.333 37.002 38 111.002 38c11.333 0 18.666 -2 21.999 -6c109.333 -125.333 209.666 -215.333 300.999 -270c12.667 -7.33301 19 -11.333 19 -12c0 -6.66699 -15.5 -18.667 -46.5 -36s-51.167 -26 -60.5 -26
c-12.667 0 -22 2 -28 6c-49.333 34 -109.333 82.333 -180 145c-92 81.333 -138 135 -138 161z" />
    <glyph glyph-name="oacute" unicode="&#xf3;" horiz-adv-x="795" 
d="M63 307c0 196.667 41.0029 362 123.003 496c6.66699 12.667 17 29 31 49c41.333 16.667 65.666 25 72.999 25c13.333 0 32.166 -3.5 56.499 -10.5s41.833 -11.167 52.5 -12.5c32.667 -2 82 -11 148 -27c78 -33.333 130.333 -106 157 -218
c15.333 -64.667 23 -159.667 23 -285c0 -66.667 -11.667 -134.334 -35 -203.001c-28 -84 -65.333 -138.667 -112 -164c-33.333 -18 -74.333 -27 -123 -27c-12 0 -28.167 3.66699 -48.5 11s-35.833 11.333 -46.5 12c-24.667 0.666992 -61.334 5.33398 -110.001 14.001
c-75.333 24.667 -127.333 69 -156 133c-22 48 -33 117 -33 207zM554.003 474c0 182.667 -48.668 274.001 -146.001 274.001c-58 0 -102 -60.333 -132 -181c-20 -82 -30 -164.667 -30 -248c0 -203.333 43 -305 129 -305c68.667 0 118.334 63 149.001 189
c20 81.333 30 171.666 30 270.999zM633.002 1317c18.667 0 40.333 -8.00098 65 -24.001s37 -32.667 37 -50c0 -9.33301 -59 -58.666 -177 -147.999c-120.667 -91.333 -191.334 -137 -212.001 -137c-15.333 0 -34.5 10 -57.5 30s-34.5 37.333 -34.5 52c0 4.66699 5 7 15 7
c34 18 92 57 174 117c86.667 63.333 140.334 107.333 161.001 132c11.333 14 21 21 29 21z" />
    <glyph glyph-name="ocircumflex" unicode="&#xf4;" horiz-adv-x="795" 
d="M63 307c0 196.667 41.0029 362 123.003 496c6.66699 12.667 17 29 31 49c41.333 16.667 65.666 25 72.999 25c13.333 0 32.166 -3.5 56.499 -10.5s41.833 -11.167 52.5 -12.5c32.667 -2 82 -11 148 -27c78 -33.333 130.333 -106 157 -218
c15.333 -64.667 23 -159.667 23 -285c0 -66.667 -11.667 -134.334 -35 -203.001c-28 -84 -65.333 -138.667 -112 -164c-33.333 -18 -74.333 -27 -123 -27c-12 0 -28.167 3.66699 -48.5 11s-35.833 11.333 -46.5 12c-24.667 0.666992 -61.334 5.33398 -110.001 14.001
c-75.333 24.667 -127.333 69 -156 133c-22 48 -33 117 -33 207zM554.003 474c0 182.667 -48.668 274.001 -146.001 274.001c-58 0 -102 -60.333 -132 -181c-20 -82 -30 -164.667 -30 -248c0 -203.333 43 -305 129 -305c68.667 0 118.334 63 149.001 189
c20 81.333 30 171.666 30 270.999zM418.002 1087c-145.333 -80 -221 -120 -227 -120c-8.66699 0 -19.167 8 -31.5 24s-18.5 28.333 -18.5 37c0 4.66699 4.33301 11 13 19c73.333 66 159.333 139 258 219c6.66699 0 47 -33 121 -99c82.667 -74 128.334 -114 137.001 -120
c12 -16.667 18 -25.667 18 -27c0 -4 -7 -12 -21 -24s-23.333 -18 -28 -18s-78.334 36.333 -221.001 109z" />
    <glyph glyph-name="otilde" unicode="&#xf5;" horiz-adv-x="795" 
d="M63 307c0 196.667 41.0029 362 123.003 496c6.66699 12.667 17 29 31 49c41.333 16.667 65.666 25 72.999 25c13.333 0 32.166 -3.5 56.499 -10.5s41.833 -11.167 52.5 -12.5c32.667 -2 82 -11 148 -27c78 -33.333 130.333 -106 157 -218
c15.333 -64.667 23 -159.667 23 -285c0 -66.667 -11.667 -134.334 -35 -203.001c-28 -84 -65.333 -138.667 -112 -164c-33.333 -18 -74.333 -27 -123 -27c-12 0 -28.167 3.66699 -48.5 11s-35.833 11.333 -46.5 12c-24.667 0.666992 -61.334 5.33398 -110.001 14.001
c-75.333 24.667 -127.333 69 -156 133c-22 48 -33 117 -33 207zM554.003 474c0 182.667 -48.668 274.001 -146.001 274.001c-58 0 -102 -60.333 -132 -181c-20 -82 -30 -164.667 -30 -248c0 -203.333 43 -305 129 -305c68.667 0 118.334 63 149.001 189
c20 81.333 30 171.666 30 270.999zM205.002 969.001c-11.333 0 -23.167 5.33301 -35.5 16s-18.5 21.334 -18.5 32.001c0 5.33301 1.66699 11.666 5 18.999c43.333 102.667 95.666 154 156.999 154c28 0 66.5 -10 115.5 -30s87.167 -30 114.5 -30c14.667 0 29 10 43 30
s27 30 39 30c15.333 0 29.333 -6.33301 42 -19s19 -27 19 -43c0 -30 -18.167 -65 -54.5 -105s-70.166 -60 -101.499 -60c-32.667 0 -75 12.833 -127 38.5s-84.667 38.5 -98 38.5c-22 0 -41.833 -11.833 -59.5 -35.5s-31.167 -35.5 -40.5 -35.5z" />
    <glyph glyph-name="odieresis" unicode="&#xf6;" horiz-adv-x="795" 
d="M63 307c0 196.667 41.0029 362 123.003 496c6.66699 12.667 17 29 31 49c41.333 16.667 65.666 25 72.999 25c13.333 0 32.166 -3.5 56.499 -10.5s41.833 -11.167 52.5 -12.5c32.667 -2 82 -11 148 -27c78 -33.333 130.333 -106 157 -218
c15.333 -64.667 23 -159.667 23 -285c0 -66.667 -11.667 -134.334 -35 -203.001c-28 -84 -65.333 -138.667 -112 -164c-33.333 -18 -74.333 -27 -123 -27c-12 0 -28.167 3.66699 -48.5 11s-35.833 11.333 -46.5 12c-24.667 0.666992 -61.334 5.33398 -110.001 14.001
c-75.333 24.667 -127.333 69 -156 133c-22 48 -33 117 -33 207zM554.003 474c0 182.667 -48.668 274.001 -146.001 274.001c-58 0 -102 -60.333 -132 -181c-20 -82 -30 -164.667 -30 -248c0 -203.333 43 -305 129 -305c68.667 0 118.334 63 149.001 189
c20 81.333 30 171.666 30 270.999zM114.002 1083c0 4.66699 3.83105 16.667 11.498 36s13.167 29.833 16.5 31.5l17 8.5c1.33301 0.666992 5.33301 8.66699 12 24c4.66699 10.667 16.334 16 35.001 16c101.333 0 152 -45.333 152 -136c0 -26 -3.66699 -44.667 -11 -56
c-6 -8.66699 -20.667 -20 -44 -34c-31.333 -18.667 -49.666 -28 -54.999 -28c-0.666992 0 -17.334 4.33301 -50.001 13c-30 8.66699 -47.167 15.5 -51.5 20.5s-10.166 22.833 -17.499 53.5c-10 40.667 -15 57.667 -15 51zM572 1185c6.66699 0 13.833 2.16895 21.5 6.50195
s13.834 6.5 18.501 6.5c-0.666992 0 7.66602 -5.33301 24.999 -16c47.333 -30.667 71 -72.334 71 -125.001c0 -24 -14.833 -47 -44.5 -69s-56.834 -33 -81.501 -33c-25.333 0 -51.666 12 -78.999 36s-41 48 -41 72c0 26.667 5.66699 52 17 76
c14 29.333 32.333 45.666 55 48.999c-10.667 -2 2 -3 38 -3z" />
    <glyph glyph-name="divide" unicode="&#xf7;" 
d="M1069 365h-903v129h903v-129zM508 137c0 30.667 11.332 59.832 33.999 87.499s49 41.5 79 41.5c20.667 0 42.667 -8 66 -24c26 -18 39 -37 39 -57c0 -37.333 -9 -70.666 -27 -99.999c-21.333 -34 -49.666 -51 -84.999 -51c-26 0 -50.167 10.667 -72.5 32
s-33.5 45 -33.5 71zM503.999 697.998c0 31.333 11.333 60.667 34 88s48.667 41 78 41c22 0 44.667 -7.66699 68 -23c26 -17.333 39 -36.333 39 -57c0 -39.333 -9.33301 -73 -28 -101c-20.667 -32.667 -49.667 -49 -87 -49c-26 0 -49.833 10.5 -71.5 31.5
s-32.5 44.167 -32.5 69.5z" />
    <glyph glyph-name="oslash" unicode="&#xf8;" horiz-adv-x="764" 
d="M100 78c-31.333 40 -47.001 116.331 -47.001 228.998c0 92 12.333 186.667 37 284c28.667 112.667 67.667 199.667 117 261c6.66699 1.33301 17 4 31 8c2.66699 1.33301 8.33398 5 17.001 11c5.33301 4 13.666 6 24.999 6c12.667 0 30.667 -3.33301 54 -10
c26 -7.33301 44.333 -11.666 55 -12.999c56 -5.33301 91.667 -9.66602 107 -12.999c38.667 -8.66699 70.667 -24 96 -46l74 127c8.66699 3.33301 16.667 5 24 5c14.667 0 31 -4.66699 49 -14c21.333 -10 32 -21 32 -33c0 2 -7 -6.66699 -21 -26
c-18.667 -33.333 -48 -81.666 -88 -144.999c36.667 -94.667 55 -223 55 -385c0 -66.667 -11.667 -134.334 -35 -203.001c-28 -83.333 -65.667 -138 -113 -164c-31.333 -18 -72.333 -27 -123 -27c-12 0 -28 3.66699 -48 11s-35.333 11.333 -46 12c-60 4 -118.667 19 -176 45
l-41 -59c-19.333 -24.667 -37.666 -37 -54.999 -37l-40 23c-18 11.333 -27 22.333 -27 33zM234.999 319.998l1 -54.001l276 402c-23.333 53.333 -61.333 80 -114 80c-58 0 -102 -60.333 -132 -181c-20.667 -81.333 -31 -163.666 -31 -246.999zM259.999 108.997
c22 -63.333 56.9971 -95.001 104.997 -95.001c68.667 0 118.334 63.333 149.001 190c20.667 84.667 30.334 175.667 29.001 273v45l-135 -211c-53.333 -81.333 -102.666 -148.666 -147.999 -201.999z" />
    <glyph glyph-name="ugrave" unicode="&#xf9;" horiz-adv-x="883" 
d="M104 231c0 58 1.16699 145.169 3.5 261.502s3.5 203.5 3.5 261.5c0 3.33301 -1.83301 8.5 -5.5 15.5s-5.5 11.833 -5.5 14.5c0 23.333 21.333 35 64 35c10.667 0 27 -1 49 -3s38.667 -3 50 -3c6 0 14.333 1.5 25 4.5s18.667 4.5 24 4.5c1.33301 0 5 -4 11 -12
s9 -13 9 -15c0 -8 -2.5 -16 -7.5 -24s-8.16699 -14.333 -9.5 -19c-30 -146.667 -45 -311.667 -45 -495c0 -112.667 37.333 -169 112 -169c62.667 0 131.334 25.333 206.001 76v244c0 192 -1.33301 305.333 -4 340c-0.666992 4 -2.83398 9.83301 -6.50098 17.5
s-5.5 13.5 -5.5 17.5c0 20 18.333 30 55 30c25.333 0 61 -6 107 -18c56.667 -14.667 85 -30.334 85 -47.001c0 -7.33301 -7.5 -19.5 -22.5 -36.5s-23.167 -32.167 -24.5 -45.5c-5.33301 -65.333 -8 -169 -8 -311v-121c0 -28.667 1 -70.834 3 -126.501s3 -97.5 3 -125.5
c0 -13.333 5.16699 -28 15.5 -44l15.5 -24c0 -20.667 -22.667 -31 -68 -31c-109.333 0 -164 15.667 -164 47c0 10.667 1.5 26.5 4.5 47.5s4.5 36.833 4.5 47.5c-65.333 -24.667 -121.333 -37 -168 -37c-88.667 0 -159.667 18 -213 54c-62 42.667 -93 105.667 -93 189z
M192 1267c0 25.333 37.002 38 111.002 38c11.333 0 18.666 -2 21.999 -6c109.333 -125.333 209.666 -215.333 300.999 -270c12.667 -7.33301 19 -11.333 19 -12c0 -6.66699 -15.5 -18.667 -46.5 -36s-51.167 -26 -60.5 -26c-12.667 0 -22 2 -28 6
c-49.333 34 -109.333 82.333 -180 145c-92 81.333 -138 135 -138 161z" />
    <glyph glyph-name="uacute" unicode="&#xfa;" horiz-adv-x="883" 
d="M104 231c0 58 1.16699 145.169 3.5 261.502s3.5 203.5 3.5 261.5c0 3.33301 -1.83301 8.5 -5.5 15.5s-5.5 11.833 -5.5 14.5c0 23.333 21.333 35 64 35c10.667 0 27 -1 49 -3s38.667 -3 50 -3c6 0 14.333 1.5 25 4.5s18.667 4.5 24 4.5c1.33301 0 5 -4 11 -12
s9 -13 9 -15c0 -8 -2.5 -16 -7.5 -24s-8.16699 -14.333 -9.5 -19c-30 -146.667 -45 -311.667 -45 -495c0 -112.667 37.333 -169 112 -169c62.667 0 131.334 25.333 206.001 76v244c0 192 -1.33301 305.333 -4 340c-0.666992 4 -2.83398 9.83301 -6.50098 17.5
s-5.5 13.5 -5.5 17.5c0 20 18.333 30 55 30c25.333 0 61 -6 107 -18c56.667 -14.667 85 -30.334 85 -47.001c0 -7.33301 -7.5 -19.5 -22.5 -36.5s-23.167 -32.167 -24.5 -45.5c-5.33301 -65.333 -8 -169 -8 -311v-121c0 -28.667 1 -70.834 3 -126.501s3 -97.5 3 -125.5
c0 -13.333 5.16699 -28 15.5 -44l15.5 -24c0 -20.667 -22.667 -31 -68 -31c-109.333 0 -164 15.667 -164 47c0 10.667 1.5 26.5 4.5 47.5s4.5 36.833 4.5 47.5c-65.333 -24.667 -121.333 -37 -168 -37c-88.667 0 -159.667 18 -213 54c-62 42.667 -93 105.667 -93 189z
M686 1317c18.667 0 40.333 -8.00098 65 -24.001s37 -32.667 37 -50c0 -9.33301 -59 -58.666 -177 -147.999c-120.667 -91.333 -191.334 -137 -212.001 -137c-15.333 0 -34.5 10 -57.5 30s-34.5 37.333 -34.5 52c0 4.66699 5 7 15 7c34 18 92 57 174 117
c86.667 63.333 140.334 107.333 161.001 132c11.333 14 21 21 29 21z" />
    <glyph glyph-name="ucircumflex" unicode="&#xfb;" horiz-adv-x="883" 
d="M104 231c0 58 1.16699 145.169 3.5 261.502s3.5 203.5 3.5 261.5c0 3.33301 -1.83301 8.5 -5.5 15.5s-5.5 11.833 -5.5 14.5c0 23.333 21.333 35 64 35c10.667 0 27 -1 49 -3s38.667 -3 50 -3c6 0 14.333 1.5 25 4.5s18.667 4.5 24 4.5c1.33301 0 5 -4 11 -12
s9 -13 9 -15c0 -8 -2.5 -16 -7.5 -24s-8.16699 -14.333 -9.5 -19c-30 -146.667 -45 -311.667 -45 -495c0 -112.667 37.333 -169 112 -169c62.667 0 131.334 25.333 206.001 76v244c0 192 -1.33301 305.333 -4 340c-0.666992 4 -2.83398 9.83301 -6.50098 17.5
s-5.5 13.5 -5.5 17.5c0 20 18.333 30 55 30c25.333 0 61 -6 107 -18c56.667 -14.667 85 -30.334 85 -47.001c0 -7.33301 -7.5 -19.5 -22.5 -36.5s-23.167 -32.167 -24.5 -45.5c-5.33301 -65.333 -8 -169 -8 -311v-121c0 -28.667 1 -70.834 3 -126.501s3 -97.5 3 -125.5
c0 -13.333 5.16699 -28 15.5 -44l15.5 -24c0 -20.667 -22.667 -31 -68 -31c-109.333 0 -164 15.667 -164 47c0 10.667 1.5 26.5 4.5 47.5s4.5 36.833 4.5 47.5c-65.333 -24.667 -121.333 -37 -168 -37c-88.667 0 -159.667 18 -213 54c-62 42.667 -93 105.667 -93 189z
M463 1087c-145.333 -80 -221 -120 -227 -120c-8.66699 0 -19.167 8 -31.5 24s-18.5 28.333 -18.5 37c0 4.66699 4.33301 11 13 19c73.333 66 159.333 139 258 219c6.66699 0 47 -33 121 -99c82.667 -74 128.334 -114 137.001 -120c12 -16.667 18 -25.667 18 -27
c0 -4 -7 -12 -21 -24s-23.333 -18 -28 -18s-78.334 36.333 -221.001 109z" />
    </font>
</defs>
</svg>
