<?xml version="1.0" standalone="no"?>
<!DOCTYPE svg PUBLIC "-//W3C//DTD SVG 1.1//EN" "http://www.w3.org/Graphics/SVG/1.1/DTD/svg11.dtd" >
<svg>
<metadata>
Created by FontForge 20090914 at Thu Jan 24 15:07:42 2013
 By www-data
&#194;&#169; 2011 Bernd Montag
</metadata>
<defs>
<font id="SansationRegular" horiz-adv-x="1205" >
  <font-face 
    font-family="Sansation"
    font-weight="400"
    font-stretch="normal"
    units-per-em="2048"
    panose-1="2 0 0 0 0 0 0 0 0 0"
    ascent="1638"
    descent="-410"
    x-height="1050"
    cap-height="1430"
    bbox="-160 -434 2442 1854"
    underline-thickness="150"
    underline-position="-89"
    unicode-range="U+0020-U+FB02"
  />
<missing-glyph horiz-adv-x="1124" 
d="M50 0v1280h1024v-1280h-1024zM82 32h960v1216h-960v-1216z" />
    <glyph glyph-name="ffi" unicode="ffi" horiz-adv-x="1778" 
d="M1608 1050l-0.000976562 -1050h-185v910h-451v-910h-185v910h-452v-910h-185v1111c0 254 127.333 381 382 381c59.333 0 117.333 -13.333 174 -40v-150c-52.667 26.667 -111 40 -175 40c-130.667 0 -196 -71 -196 -213v-79h452v51c0 267.333 147.333 401 442 401
c92.667 0 190.667 -20 294 -60v-150c-99.333 40 -197.666 60 -294.999 60c-170.667 0 -256 -77.667 -256 -233v-69h636z" />
    <glyph glyph-name="ffl" unicode="ffl" horiz-adv-x="1821" 
d="M787 910h-451.999v-910h-185v1111c0 254 127.333 381 382 381c59.333 0 117.333 -13.333 174 -40v-150c-52.667 26.667 -111 40 -175 40c-130.667 0 -196 -71 -196 -213v-79h452v51c0 267.333 164 401 492 401c119.333 0 246.666 -24 381.999 -72v-1430h-185v1333
c-73.333 12.667 -139.333 19 -198 19c-204 0 -306 -81 -306 -243v-59h315v-140h-315v-910h-185v910z" />
    <glyph glyph-name="ff" unicode="ff" horiz-adv-x="1268" 
d="M787 910h-451.999v-910h-185v1101c0 254 127.333 381 382 381c59.333 0 117.333 -13.333 174 -40v-150c-52.667 26.667 -111 40 -175 40c-130.667 0 -196 -71 -196 -213v-69h452v61c0 254 137.333 381 412 381c79.333 0 150.666 -13.333 213.999 -40v-150
c-59.333 26.667 -131 40 -215 40c-150.667 0 -226 -74.333 -226 -223v-69h315v-140h-315v-910h-185v910z" />
    <glyph glyph-name="fj" unicode="fj" horiz-adv-x="1131" 
d="M776 910h-441.001v-910h-185v1101c0 267.333 147.333 401 442 401c92.667 0 190.667 -20 294 -60v-150c-99.333 40 -197.666 60 -294.999 60c-170.667 0 -256 -77.667 -256 -233v-69h626v-970c0 -212 -51.667 -371.333 -155 -478l-155 105c83.333 90 125 214.333 125 373
v830z" />
    <glyph glyph-name="ffj" unicode="ffj" horiz-adv-x="1778" 
d="M787 1050l-0.000976562 51c0 267.333 147.333 401 442 401c92.667 0 190.667 -20 294 -60v-150c-99.333 40 -197.666 60 -294.999 60c-170.667 0 -256 -77.667 -256 -233v-69h636v-970c0 -212 -51.667 -371.333 -155 -478l-155 105c83.333 90 125 214.333 125 373v830
h-451v-910h-185v910h-452v-910h-185v1111c0 254 127.333 381 382 381c59.333 0 117.333 -13.333 174 -40v-150c-52.667 26.667 -111 40 -175 40c-130.667 0 -196 -71 -196 -213v-79h452z" />
    <glyph glyph-name="fb" unicode="fb" horiz-adv-x="1877" 
d="M1024 183c60.667 -19.333 134.333 -29 221 -29c233.333 0 350 133 350 399c0 224.667 -105.667 337 -317 337c-96 0 -180.667 -18 -254 -54v-653zM838.999 1333c-73.333 12.667 -139.332 19 -197.999 19c-204 0 -306 -81 -306 -243v-59h315v-150h-315v-900h-185v1101
c0 267.333 164 401 492 401c119.333 0 246.666 -24 381.999 -72v-430c79.333 33.333 164.333 50 255 50c332 0 498 -168 498 -504c0 -364 -174.333 -546 -523 -546c-150.667 -0 -289 14.333 -415 43v1290z" />
    <glyph glyph-name="ffb" unicode="ffb" horiz-adv-x="2514" 
d="M1661 183c60.667 -19.333 134.333 -29 221 -29c233.333 0 350 133 350 399c0 224.667 -105.667 337 -317 337c-96 0 -180.667 -18 -254 -54v-653zM786.999 910h-451.999v-910h-185v1111c0 254 127.333 381 382 381c59.333 0 117.333 -13.333 174 -40v-150
c-52.667 26.667 -111 40 -175 40c-130.667 0 -196 -71 -196 -213v-79h452v51c0 267.333 164 401 492 401c119.333 0 246.666 -24 381.999 -72v-430c79.333 33.333 164.333 50 255 50c332 0 498 -168 498 -504c0 -364 -174.333 -546 -523 -546
c-150.667 -0 -289 14.333 -415 43v1290c-73.333 12.667 -139.333 19 -198 19c-204 0 -306 -81 -306 -243v-59h315v-140h-315v-910h-185v910z" />
    <glyph glyph-name="fh" unicode="fh" horiz-adv-x="1894" 
d="M839 1333c-73.333 12.667 -139.332 19 -197.999 19c-204 0 -306 -81 -306 -243v-59h315v-150h-315v-900h-185v1101c0 267.333 164 401 492 401c119.333 0 246.666 -24 381.999 -72v-494c89.333 76 198.333 114 327 114c262 0 393 -130.333 393 -391v-659h-185v662
c0 156 -77.667 234 -233 234c-106 0 -206.667 -44.333 -302 -133v-763h-185v1333z" />
    <glyph glyph-name="ffh" unicode="ffh" horiz-adv-x="2531" 
d="M787 910h-451.999v-910h-185v1111c0 254 127.333 381 382 381c59.333 0 117.333 -13.333 174 -40v-150c-52.667 26.667 -111 40 -175 40c-130.667 0 -196 -71 -196 -213v-79h452v51c0 267.333 164 401 492 401c119.333 0 246.666 -24 381.999 -72v-494
c89.333 76 198.333 114 327 114c262 0 393 -130.333 393 -391v-659h-185v662c0 156 -77.667 234 -233 234c-106 0 -206.667 -44.333 -302 -133v-763h-185v1333c-73.333 12.667 -139.333 19 -198 19c-204 0 -306 -81 -306 -243v-59h315v-140h-315v-910h-185v910z" />
    <glyph glyph-name="fk" unicode="fk" horiz-adv-x="1870" 
d="M839 1333c-73.333 12.667 -139.333 19 -198 19c-204 0 -306 -81 -306 -243v-59h315v-150h-315v-900h-185v1101c0 267.333 164 401 492 401c119.333 0 246.666 -24 381.999 -72v-462c102 54.667 219.667 82 353 82c261.333 0 392 -101 392 -303
c0 -146.667 -100 -248 -300 -304l336 -443h-234l-334 445v83c231.333 20.667 347 94 347 220c0 101.333 -73.333 152 -220 152c-115.333 0 -228.666 -31.333 -339.999 -94v-806h-185v1333z" />
    <glyph glyph-name="ffk" unicode="ffk" horiz-adv-x="2507" 
d="M787 910h-452v-910h-185v1111c0 254 127.333 381 382 381c59.333 0 117.333 -13.333 174 -40v-150c-52.667 26.667 -111 40 -175 40c-130.667 0 -196 -71 -196 -213v-79h452v51c0 267.333 164 401 492 401c119.333 0 246.666 -24 381.999 -72v-462
c102 54.667 219.667 82 353 82c261.333 0 392 -101 392 -303c0 -146.667 -100 -248 -300 -304l336 -443h-234l-334 445v83c231.333 20.667 347 94 347 220c0 101.333 -73.333 152 -220 152c-115.333 0 -228.666 -31.333 -339.999 -94v-806h-185v1333
c-73.333 12.667 -139.333 19 -198 19c-204 0 -306 -81 -306 -243v-59h315v-140h-315v-910h-185v910z" />
    <glyph glyph-name="fi" unicode="fi" horiz-adv-x="1131" 
d="M335 910l-0.000976562 -910h-185v1101c0 267.333 147.333 401 442 401c92.667 0 190.667 -20 294 -60v-150c-99.333 40 -197.666 60 -294.999 60c-170.667 0 -256 -77.667 -256 -233v-69h626v-1050h-185v910h-441z" />
    <glyph glyph-name="fl" unicode="fl" horiz-adv-x="1184" 
d="M839 1333c-73.333 12.667 -139.332 19 -197.999 19c-204 0 -306 -81 -306 -243v-59h315v-150h-315v-900h-185v1101c0 267.333 164 401 492 401c119.333 0 246.666 -24 381.999 -72v-1430h-185v1333z" />
    <glyph glyph-name=".notdef" horiz-adv-x="1124" 
d="M50 0v1280h1024v-1280h-1024zM82 32h960v1216h-960v-1216z" />
    <glyph glyph-name="space" unicode=" " horiz-adv-x="500" 
 />
    <glyph glyph-name="exclam" unicode="!" horiz-adv-x="485" 
d="M335 1430v-1060h-185v1060h185zM335 185v-185h-185v185h185z" />
    <glyph glyph-name="quotedbl" unicode="&#x22;" horiz-adv-x="755" 
d="M655 1430l-30 -435h-125l-30 435h185zM285 1430l-30 -435h-125l-30 435h185z" />
    <glyph glyph-name="numbersign" unicode="#" horiz-adv-x="1893" 
d="M803 876l-90 -378h377l90 378h-377zM403 -5l89 349h-392l30 154h402l89 378h-401l30 154h412l100 395h180l-100 -395h378l102 400h180l-101 -400h392l-30 -154h-402l-89 -378h401l-30 -154h-412l-90 -349h-180l90 349h-378l-90 -349h-180z" />
    <glyph glyph-name="dollar" unicode="$" horiz-adv-x="1050" 
d="M469 1238v192h175v-194c89.333 -6.66699 178 -22 266 -46v-160c-123.333 40 -247.666 60 -372.999 60c-174.667 0 -262 -50 -262 -150c0 -93.333 55 -140 165 -140h150c240 0 360 -103.333 360 -310c0 -167.333 -102 -264.666 -306 -291.999v-198h-175v191
c-110.667 3.33301 -220.334 19.666 -329.001 48.999v160c123.333 -40 248 -60 374 -60c167.333 0 251 50 251 150c0 93.333 -58.333 140 -175 140h-150c-226.667 0 -340 103.333 -340 310c0 184 123 283.333 369 298z" />
    <glyph glyph-name="percent" unicode="%" horiz-adv-x="1422" 
d="M305 0h-205l1017 1430h205zM378 1035c96 0 144 49 144 147c0 96 -48 144 -144 144c-98.667 0 -148 -48 -148 -144c0 -98 49.333 -147 148 -147zM100 1180c0 173.333 92.667 260 278 260c182.667 0 274 -86.667 274 -260c0 -172.667 -91.333 -259 -274 -259
c-185.333 0 -278 86.333 -278 259zM1048 104c96 0 144 49 144 147c0 96 -48 144 -144 144c-98.667 0 -148 -48 -148 -144c0 -98 49.333 -147 148 -147zM770 249c0 173.333 92.667 260 278 260c182.667 0 274 -86.667 274 -260c0 -172.667 -91.333 -259 -274 -259
c-185.333 0 -278 86.333 -278 259z" />
    <glyph glyph-name="ampersand" unicode="&#x26;" horiz-adv-x="1275" 
d="M100 1045c0 256.667 170.001 385 510.001 385c123.333 0 243.333 -16.667 360 -50v-150c-116.667 33.333 -232.334 50 -347.001 50c-225.333 0 -338 -76.667 -338 -230c0 -166.667 85 -250 255 -250h388v142h63l102 -142h182v-150h-162v-160
c0 -328.667 -172.667 -493 -518 -493c-330 0 -495 132.333 -495 397c0 164.667 64.333 275.667 193 333c-128.667 56.667 -193 162.667 -193 318zM542.001 650c-171.333 0 -257 -83.667 -257 -251c0 -166 100.333 -249 301 -249c228 0 342 114 342 342v158h-386z" />
    <glyph glyph-name="quotesingle" unicode="'" horiz-adv-x="385" 
d="M285 1430l-30 -435h-125l-30 435h185z" />
    <glyph glyph-name="parenleft" unicode="(" horiz-adv-x="585" 
d="M485 1430c-133.333 -301.333 -200 -603 -200 -905s66.667 -603.667 200 -905h-185c-133.333 301.333 -200 603 -200 905s66.667 603.667 200 905h185z" />
    <glyph glyph-name="parenright" unicode=")" horiz-adv-x="585" 
d="M285 1430c133.333 -301.333 200 -603 200 -905s-66.667 -603.667 -200 -905h-185c133.333 301.333 200 603 200 905s-66.667 603.667 -200 905h185z" />
    <glyph glyph-name="asterisk" unicode="*" horiz-adv-x="810" 
d="M328 1430h156l-30 -232l209 101l48 -147l-228 -43l159 -170l-123 -92l-113 205l-113 -204l-124 89l161 171l-230 42l48 150l211 -103z" />
    <glyph glyph-name="plus" unicode="+" horiz-adv-x="950" 
d="M400 600v300h150v-300h300v-150h-300v-300h-150v300h-300v150h300z" />
    <glyph glyph-name="comma" unicode="," horiz-adv-x="385" 
d="M360 185l-150 -435h-185l150 435h185z" />
    <glyph glyph-name="hyphen" unicode="-" horiz-adv-x="700" 
d="M600 600v-150h-500v150h500z" />
    <glyph glyph-name="hyphen" unicode="&#x2010;" horiz-adv-x="700" 
d="M600 600v-150h-500v150h500z" />
    <glyph glyph-name="period" unicode="." horiz-adv-x="385" 
d="M285 185v-185h-185v185h185z" />
    <glyph glyph-name="slash" unicode="/" horiz-adv-x="980" 
d="M230 0h-205l725 1430h205z" />
    <glyph glyph-name="zero" unicode="0" horiz-adv-x="1445" 
d="M728 140c274.667 0 412 193 412 579c0 380.667 -137.333 571 -412 571c-282 0 -423 -190.333 -423 -571c0 -386 141 -579 423 -579zM110 713c0 484.667 206 727 618 727c404.667 0 607 -242.333 607 -727c0 -482 -202.333 -723 -607 -723c-412 0 -618 241 -618 723z" />
    <glyph glyph-name="one" unicode="1" horiz-adv-x="645" 
d="M250 0v1251h-150v89l335 100v-1440h-185z" />
    <glyph glyph-name="two" unicode="2" horiz-adv-x="1145" 
d="M60 0v150c530 364.667 795 654.667 795 870c0 180 -113.333 270 -340 270c-146.667 0 -285 -36.667 -415 -110v160c130 66.667 268.333 100 415 100c350 0 525 -140 525 -420c0 -246.667 -238.333 -536.667 -715 -870h715v-150h-980z" />
    <glyph glyph-name="three" unicode="3" horiz-adv-x="1150" 
d="M100 1380c133.333 40 266.666 59.999 399.999 59.999c343.333 0 515 -130 515 -390c0 -157.333 -62.667 -265.666 -188 -324.999c125.333 -56.667 188 -165 188 -325c0 -273.333 -171.667 -410 -515 -410c-133.333 0 -266.666 20 -399.999 60v160
c133.333 -46.667 266.666 -70 399.999 -70c220 0 330 86.667 330 260c0 166.667 -84 250 -252 250h-328v150h325c170 0 255 83.333 255 250c0 160 -110 240 -330 240c-133.333 0 -266.666 -23.333 -399.999 -70v160z" />
    <glyph glyph-name="four" unicode="4" horiz-adv-x="1220" 
d="M997 0h-185v340h-752v150l575 940h194l-576 -940h559v508h185v-508l148 -76v-74h-148v-340z" />
    <glyph glyph-name="five" unicode="5" horiz-adv-x="1175" 
d="M155 1430h864.001v-150h-706l-24 -442c78 14.667 160 22 246 22c360 0 540 -136.667 540 -410c0 -306.667 -186.667 -460 -560 -460c-126.667 0 -256.667 20 -390 60v160c133.333 -46.667 266.666 -70 399.999 -70c243.333 0 365 103.333 365 310
c0 173.333 -118.333 260 -355 260c-150 0 -286.667 -13.333 -410 -40z" />
    <glyph glyph-name="six" unicode="6" horiz-adv-x="1260" 
d="M100 550c0 370.667 219.333 678.333 658 923l96 -127c-241.333 -117.333 -412.666 -277 -513.999 -479c87.333 35.333 192.666 53 315.999 53c342.667 0 514 -150 514 -450c0 -320 -181 -480 -543 -480c-351.333 0 -527 186.667 -527 560zM636 139.999
c235.333 0 353.001 110 353.001 330c0 200 -114 300 -342 300c-142.667 0 -257.334 -16 -344.001 -48c-18.667 -40 -28 -95.333 -28 -166c0 -277.333 120.333 -416 361 -416z" />
    <glyph glyph-name="seven" unicode="7" horiz-adv-x="1090" 
d="M65 1430h950v-150l-602 -1280h-201l622 1280h-769v150z" />
    <glyph glyph-name="eight" unicode="8" horiz-adv-x="1240" 
d="M100 424c0 148.667 70.667 255.667 212 321c-114.667 70 -172 181 -172 333c0 244 160 366 480 366s480 -122 480 -366c0 -152 -59 -263 -177 -333c144.667 -65.333 217 -172.333 217 -321c0 -289.333 -173.333 -434 -520 -434s-520 144.667 -520 434zM915 1058
c0 154.667 -101 232 -303 232c-191.333 0 -287 -77.333 -287 -232c0 -158.667 100 -238 300 -238c193.333 0 290 79.333 290 238zM955 418c0 168 -114.333 252 -343 252c-218 0 -327 -84 -327 -252c0 -185.333 113.333 -278 340 -278c220 0 330 92.667 330 278z" />
    <glyph glyph-name="nine" unicode="9" horiz-adv-x="1260" 
d="M1170 873c0 -370.667 -219.333 -678.333 -658 -923l-96 127c241.333 117.333 412.666 277 513.999 479c-87.333 -42 -192.666 -63 -315.999 -63c-342.667 0 -514 153.333 -514 460c0 320 181 480 543 480c351.333 0 527 -186.667 527 -560zM634 1283
c-235.333 0 -353.001 -110 -353.001 -330c0 -200 114 -300 342 -300c142.667 0 257.334 16 344.001 48c18.667 40 28 95.333 28 166c0 277.333 -120.333 416 -361 416z" />
    <glyph glyph-name="colon" unicode=":" horiz-adv-x="435" 
d="M335 1050v-185h-185v185h185zM335 185v-185h-185v185h185z" />
    <glyph glyph-name="semicolon" unicode=";" horiz-adv-x="535" 
d="M435 1050v-185h-185v185h185zM435 185l-150 -435h-185l150 435h185z" />
    <glyph glyph-name="less" unicode="&#x3c;" horiz-adv-x="1100" 
d="M100 450v150l900 400v-150l-743 -329l743 -321v-150z" />
    <glyph glyph-name="equal" unicode="=" horiz-adv-x="950" 
d="M850 450v-150h-750v150h750zM850 750v-150h-750v150h750z" />
    <glyph glyph-name="greater" unicode="&#x3e;" horiz-adv-x="1100" 
d="M100 50v150l743 321l-743 329v150l900 -400v-150z" />
    <glyph glyph-name="question" unicode="?" horiz-adv-x="1115" 
d="M435 185v-185h-185v185h185zM100 1380c140 33.333 273.333 50 400 50c343.333 0 515 -130 515 -390s-165.667 -390 -497 -390h-83v-280h-185v430h265c210 0 315 80 315 240s-110 240 -330 240c-126.667 0 -260 -16.667 -400 -50v150z" />
    <glyph glyph-name="at" unicode="@" horiz-adv-x="2150" 
d="M625 317c0 215.333 142 323 426 323c104.667 0 196 -6.66699 274 -20v109c0 114 -94.333 171 -283 171c-108 0 -218.667 -16.667 -332 -50v150c113.333 33.333 224 50 332 50c312 0 468 -112 468 -336v-626c0 -58.667 33.333 -88 100 -88c136.667 0 205 180 205 540
c0 500 -242 750 -726 750c-502.667 0 -754 -250 -754 -750c0 -513.333 228.333 -770 685 -770v-150c-580 0 -870 306.667 -870 920c0 600 308 900 924 900c617.333 0 926 -300 926 -900c0 -460 -142.333 -690 -427 -690c-160.667 0 -241 81.333 -241 244
c-98 -62.667 -208.667 -94 -332 -94c-250 0 -375 105.667 -375 317zM1051 490c-160.667 0 -241.001 -56.667 -241.001 -170s63.333 -170 190 -170c128 0 236.333 34 325 102v218c-73.333 13.333 -164.666 20 -273.999 20z" />
    <glyph glyph-name="A" unicode="A" horiz-adv-x="1472" 
d="M217 0h-192l607 1430h205l610 -1430h-205l-185 450h-473l51 150h360l-267 648z" />
    <glyph glyph-name="B" unicode="B" horiz-adv-x="1330" 
d="M170 0v1430h610c272 0 408 -111 408 -333c0 -162.667 -88.667 -279 -266 -349c189.333 -35.333 284 -143.666 284 -324.999c0 -282 -149 -423 -447 -423h-589zM748 149.999c170.667 0 256 86.666 256 259.999c0 168.667 -114.333 253 -343 253h-80v121
c273.333 36.667 410 135.334 410 296.001c0 133.333 -76 200 -228 200h-408v-1130h393z" />
    <glyph glyph-name="C" unicode="C" horiz-adv-x="1385" 
d="M1250 50c-123.333 -40 -256.666 -60 -399.999 -60c-500 0 -750 248.333 -750 745c0 470 250 705 750 705c143.333 0 276.666 -20 399.999 -60v-160c-123.333 46.667 -250 70 -380 70c-390 0 -585 -185 -585 -555c0 -396.667 195 -595 585 -595
c130 0 256.667 23.333 380 70v-160z" />
    <glyph glyph-name="D" unicode="D" horiz-adv-x="1500" 
d="M690 150c350 0 525 201.333 525 604c0 350.667 -175 526 -525 526h-335v-1130h335zM170 0v1430h520c473.333 0 710 -225.333 710 -676c0 -502.667 -236.667 -754 -710 -754h-520z" />
    <glyph glyph-name="E" unicode="E" horiz-adv-x="1230" 
d="M1105 1430v-150h-750v-480h715v-150h-715v-500h765v-150h-950v1430h935z" />
    <glyph glyph-name="F" unicode="F" horiz-adv-x="1155" 
d="M1105 1430v-150h-750v-480h715v-150h-715v-650h-185v1430h935z" />
    <glyph glyph-name="G" unicode="G" horiz-adv-x="1385" 
d="M1250 56c-115.333 -44 -239.666 -66 -372.999 -66c-518 0 -777 248.333 -777 745c0 470 250 705 750 705c143.333 0 276.666 -20 399.999 -60v-160c-123.333 46.667 -250 70 -380 70c-390 0 -585 -185 -585 -555c0 -396.667 192 -595 576 -595c61.333 0 129.333 8 204 24
v486h185v-594z" />
    <glyph glyph-name="H" unicode="H" horiz-adv-x="1555" 
d="M170 0v1430h185v-630h845v630h185v-1430h-185v650h-845v-650h-185z" />
    <glyph glyph-name="I" unicode="I" horiz-adv-x="585" 
d="M385 1430v-1430h-185v1430h185z" />
    <glyph glyph-name="J" unicode="J" horiz-adv-x="690" 
d="M510 1430v-1018c0 -274.667 -161.667 -412 -485 -412v150c200 0 300 87.333 300 262v1018h185z" />
    <glyph glyph-name="K" unicode="K" horiz-adv-x="1400" 
d="M355 1430v-1430h-185v1430h185zM1361 1430l-644 -675l658 -755h-257l-583 688v112l592 630h234z" />
    <glyph glyph-name="L" unicode="L" horiz-adv-x="1153" 
d="M355 1430v-1280h748v-150h-933v1430h185z" />
    <glyph glyph-name="M" unicode="M" horiz-adv-x="1840" 
d="M170 0v1430h235l525 -1193l515 1193h225v-1430h-165v1173l-508 -1173h-146l-516 1173v-1173h-165z" />
    <glyph glyph-name="N" unicode="N" horiz-adv-x="1575" 
d="M170 0v1430h185l875 -1152v1152h175v-1430h-185l-875 1162v-1162h-175z" />
    <glyph glyph-name="O" unicode="O" horiz-adv-x="1665" 
d="M838 140c341.333 0 512 193 512 579c0 380.667 -170.667 571 -512 571c-348.667 0 -523 -190.333 -523 -571c0 -386 174.333 -579 523 -579zM120 713c0 484.667 239.333 727 718 727c471.333 0 707 -242.333 707 -727c0 -482 -235.667 -723 -707 -723
c-478.667 0 -718 241 -718 723z" />
    <glyph glyph-name="P" unicode="P" horiz-adv-x="1263" 
d="M170 0v1430h580c292 0 438 -127.667 438 -383c0 -278 -199.667 -447.667 -599 -509l-38 156c293.333 43.333 440 158.333 440 345c0 158.667 -86 238 -258 238h-378v-1277h-185z" />
    <glyph glyph-name="Q" unicode="Q" horiz-adv-x="1665" 
d="M838 140c341.333 0 512 193 512 579c0 380.667 -170.667 571 -512 571c-348.667 0 -523 -190.333 -523 -571c0 -386 174.333 -579 523 -579zM120 713c0 484.667 239.333 727 718 727c471.333 0 707 -242.333 707 -727c0 -398.667 -161.667 -634 -485 -706l232 -270
l-144 -108l-310 361c-478.667 0 -718 241 -718 723z" />
    <glyph glyph-name="R" unicode="R" horiz-adv-x="1305" 
d="M170 0v1430h610c272 0 408 -114.333 408 -343c0 -186 -133 -323.667 -399 -413l491 -674h-244l-455 643v121c273.333 43.333 410 148.333 410 315c0 132 -76 198 -228 198h-408v-1277h-185z" />
    <glyph glyph-name="S" unicode="S" horiz-adv-x="1290" 
d="M150 50v170c150 -53.333 312 -80 486 -80c246 0 369 90 369 270c0 153.333 -90.667 230 -272 230h-184c-299.333 0 -449 130 -449 390c0 273.333 191.667 410 575 410c166.667 0 321.667 -20 465 -60v-170c-143.333 53.333 -298.333 80 -465 80
c-260 0 -390 -86.667 -390 -260c0 -153.333 88 -230 264 -230h184c304.667 0 457 -130 457 -390c0 -280 -184.667 -420 -554 -420c-174 0 -336 20 -486 60z" />
    <glyph glyph-name="T" unicode="T" horiz-adv-x="1185" 
d="M1135 1430v-150h-450v-1280h-185v1280h-450v150h1085z" />
    <glyph glyph-name="U" unicode="U" horiz-adv-x="1510" 
d="M160 552v878h185v-878c0 -274.667 136.667 -412 410 -412s410 137.333 410 412v878h185v-878c0 -374.667 -198.333 -562 -595 -562s-595 187.333 -595 562z" />
    <glyph glyph-name="V" unicode="V" horiz-adv-x="1472" 
d="M1447 1430l-607 -1430h-205l-610 1430h195l524 -1238l511 1238h192z" />
    <glyph glyph-name="W" unicode="W" horiz-adv-x="1900" 
d="M50 1430h179l201 -1244l404 1244h185l433 -1244l227 1244h171l-269 -1430h-252l-404 1198l-391 -1198h-249z" />
    <glyph glyph-name="X" unicode="X" horiz-adv-x="1410" 
d="M588 715l-563 715h225l450 -572l450 572h225l-562 -715l562 -715h-225l-450 572l-450 -572h-225z" />
    <glyph glyph-name="Y" unicode="Y" horiz-adv-x="1300" 
d="M25 1430h205l412 -747l418 747h215l-546 -930v-500h-185v500z" />
    <glyph glyph-name="Z" unicode="Z" horiz-adv-x="1330" 
d="M1205 1430v-150l-857 -1130h837v-150h-1060v150l884 1130h-864v150h1060z" />
    <glyph glyph-name="bracketleft" unicode="[" horiz-adv-x="650" 
d="M600 1430v-150h-265v-1510h265v-150h-450v1810h450z" />
    <glyph glyph-name="backslash" unicode="\" horiz-adv-x="980" 
d="M25 1430h205l725 -1430h-205z" />
    <glyph glyph-name="bracketright" unicode="]" horiz-adv-x="650" 
d="M500 1430v-1810h-450v150h265v1510h-265v150h450z" />
    <glyph glyph-name="asciicircum" unicode="^" horiz-adv-x="1050" 
d="M450 1430h150l400 -730h-150l-329 603l-321 -603h-150z" />
    <glyph glyph-name="underscore" unicode="_" horiz-adv-x="1050" 
d="M1025 0v-150h-1000v150h1000z" />
    <glyph glyph-name="grave" unicode="`" horiz-adv-x="603" 
d="M503 1191h-164l-239 239h239z" />
    <glyph glyph-name="a" unicode="a" horiz-adv-x="1135" 
d="M100 317c0 215.333 142.001 323 426.001 323c91.333 0 182.666 -6.66699 273.999 -20v99c0 120.667 -94.333 181 -283 181c-108 0 -218.667 -16.667 -332 -50v150c113.333 33.333 224 50 332 50c312 0 468 -108.667 468 -326v-724h-104l-64 104
c-104.667 -69.333 -218.667 -104 -342 -104c-250 0 -375 105.667 -375 317zM526.001 490c-160.667 0 -241.001 -56.667 -241.001 -170s63.333 -170 190 -170c128 0 236.333 34 325 102v218c-91.333 13.333 -182.666 20 -273.999 20z" />
    <glyph glyph-name="b" unicode="b" horiz-adv-x="1188" 
d="M335 183c60.667 -19.333 134.333 -29 221 -29c233.333 0 350 133 350 399c0 224.667 -105.667 337 -317 337c-96 0 -180.667 -18 -254 -54v-653zM149.999 1430h185v-430c79.333 33.333 164.333 50 255 50c332 0 498 -168 498 -504c0 -364 -174.333 -546 -523 -546
c-150.667 -0 -289 14.333 -415 43v1387z" />
    <glyph glyph-name="c" unicode="c" horiz-adv-x="1025" 
d="M940 30c-86.667 -20 -180 -30 -280 -30c-373.333 0 -560 181.667 -560 545c0 336.667 186.667 505 560 505c100 0 193.333 -10 280 -30v-150c-86.667 20 -183.334 30 -290.001 30c-243.333 0 -365 -118.333 -365 -355c0 -263.333 121.667 -395 365 -395
c106.667 0 203.334 10 290.001 30v-150z" />
    <glyph glyph-name="d" unicode="d" horiz-adv-x="1190" 
d="M855 836c-74.667 36 -160 54 -256 54c-211.333 0 -317 -112.333 -317 -337c0 -266 105.667 -399 317 -399c96 0 181.333 13 256 39v643zM1040 63c-127.333 -42 -284.334 -63 -471.001 -63c-312.667 0 -469 182 -469 546c0 336 166 504 498 504
c90.667 0 176.334 -16.667 257.001 -50v430h185v-1367z" />
    <glyph glyph-name="e" unicode="e" horiz-adv-x="1130" 
d="M583 1050c298.667 0 448.001 -147.667 448.001 -443c0 -42 -3 -87 -9 -135h-737c0 -214.667 125.333 -322 376 -322c119.333 0 225.333 13.333 318 40v-150c-92.667 -26.667 -205.334 -40 -338.001 -40c-360.667 0 -541 179 -541 537c0 342 161 513 483 513zM285.001 626
h568c-4 184 -94 276 -270 276c-186.667 0 -286 -92 -298 -276z" />
    <glyph glyph-name="f" unicode="f" horiz-adv-x="661" 
d="M150 0v1101c0 254 144 381 432 381c79.333 0 154 -13.333 224 -40v-150c-66 26.667 -141 40 -225 40c-164 0 -246 -74.333 -246 -223v-59h325v-150h-325v-900h-185z" />
    <glyph glyph-name="g" unicode="g" horiz-adv-x="1187" 
d="M852 872c-63.333 16 -141.667 24 -235 24c-223.333 0 -335 -121 -335 -363c0 -248.667 105.667 -373 317 -373c96 0 180.333 18 253 54v658zM1037 0c0 -253.333 -160.999 -380 -482.999 -380c-129.333 0 -244 16.667 -344 50v150c102 -33.333 217.333 -50 346 -50
c197.333 0 296 76.667 296 230v50c-78.667 -33.333 -163.334 -50 -254.001 -50c-332 0 -498 177 -498 531c0 346 175 519 525 519c142 0 279.333 -14.333 412 -43v-1007z" />
    <glyph glyph-name="h" unicode="h" 
d="M150 0v1430h185v-494c89.333 76 198.333 114 327 114c262 0 393 -130.333 393 -391v-659h-185v662c0 156 -77.667 234 -233 234c-106 0 -206.667 -44.333 -302 -133v-763h-185z" />
    <glyph glyph-name="i" unicode="i" horiz-adv-x="525" 
d="M355 1050v-1050h-185v1050h185zM355 1430v-175h-185v175h185z" />
    <glyph glyph-name="j" unicode="j" horiz-adv-x="525" 
d="M355 1050v-970c0 -212 -51.667 -371.333 -155 -478l-155 105c83.333 90 125 214.333 125 373v970h185zM355 1430v-175h-185v175h185z" />
    <glyph glyph-name="k" unicode="k" horiz-adv-x="1181" 
d="M150 0l-0.000976562 1430h185v-462c102 54.667 219.667 82 353 82c261.333 0 392 -101 392 -303c0 -146.667 -100 -248 -300 -304l336 -443h-234l-334 445v83c231.333 20.667 347 94 347 220c0 101.333 -73.333 152 -220 152c-115.333 0 -228.666 -31.333 -339.999 -94
v-806h-185z" />
    <glyph glyph-name="l" unicode="l" horiz-adv-x="505" 
d="M345 1430v-1430h-185v1430h185z" />
    <glyph glyph-name="m" unicode="m" horiz-adv-x="1805" 
d="M150 0l-0.000976562 1050h125l31 -132c100.667 88 210.334 132 329.001 132c152 0 255.667 -48 311 -144c114 96 229.667 144 347 144c241.333 0 362 -133 362 -399v-651h-185v661c0 156.667 -66 235 -198 235c-98.667 0 -191 -45.333 -277 -136v-760h-185v658
c0 158.667 -65.333 238 -196 238c-104 0 -197 -45.333 -279 -136v-760h-185z" />
    <glyph glyph-name="n" unicode="n" 
d="M150 0v1050h125l33 -134c107.333 89.333 225.333 134 354 134c262 0 393 -130.333 393 -391v-659h-185v662c0 156 -77.667 234 -233 234c-106 0 -206.667 -44.333 -302 -133v-763h-185z" />
    <glyph glyph-name="o" unicode="o" horiz-adv-x="1200" 
d="M600 150c210 0 315 126.333 315 379c0 247.333 -105 371 -315 371s-315 -123.667 -315 -371c0 -252.667 105 -379 315 -379zM100 525c0 350 166.667 525 500 525s500 -175 500 -525c0 -349.333 -166.667 -524 -500 -524c-332 0 -498.667 174.667 -500 524z" />
    <glyph glyph-name="p" unicode="p" horiz-adv-x="1187" 
d="M335 214c72.667 -36 153.667 -54 243 -54c218 0 327 131 327 393c0 228.667 -108.333 343 -325 343c-93.333 0 -175 -8 -245 -24v-658zM150 1007c139.333 28.667 283.333 43 432 43c336.667 0 505 -166.333 505 -499c0 -367.333 -169.333 -551 -508 -551
c-84 0 -165.333 16.667 -244 50v-430h-185v1387z" />
    <glyph glyph-name="q" unicode="q" horiz-adv-x="1187" 
d="M852 872c-63.333 16 -141.667 24 -235 24c-223.333 0 -335 -121 -335 -363c0 -248.667 105.667 -373 317 -373c96 0 180.333 18 253 54v658zM1037 -380h-184.999v430c-78.667 -33.333 -163.334 -50 -254.001 -50c-332 0 -498 177 -498 531c0 346 175 519 525 519
c142 0 279.333 -14.333 412 -43v-1387z" />
    <glyph glyph-name="r" unicode="r" horiz-adv-x="675" 
d="M150 0v1050h125l33 -134c92 89.333 202.667 134 332 134v-154c-125.333 0 -227 -44.333 -305 -133v-763h-185z" />
    <glyph glyph-name="s" unicode="s" horiz-adv-x="1050" 
d="M140 50v160c123.333 -40 248 -60 374 -60c167.333 0 251 50 251 150c0 93.333 -58.333 140 -175 140h-150c-226.667 0 -340 103.333 -340 310c0 200 145.667 300 437 300c125.333 0 249.666 -16.667 372.999 -50v-160c-123.333 40 -247.666 60 -372.999 60
c-174.667 0 -262 -50 -262 -150c0 -93.333 55 -140 165 -140h150c240 0 360 -103.333 360 -310c0 -200 -145.333 -300 -436 -300c-126 0 -250.667 16.667 -374 50z" />
    <glyph glyph-name="t" unicode="t" horiz-adv-x="675" 
d="M150 1220h116l40 -170h284v-150h-255v-603c0 -98 42.333 -147 127 -147h128v-150h-176c-176 -0 -264 94.333 -264 283v937z" />
    <glyph glyph-name="u" unicode="u" 
d="M1055 1050v-1050h-127l-32 134c-127.333 -89.333 -255.333 -134 -384 -134c-241.333 -0 -362 130.333 -362 391v659h185v-662c0 -156 77.333 -234 232 -234c106 0 207 44.333 303 133v763h185z" />
    <glyph glyph-name="v" unicode="v" horiz-adv-x="1000" 
d="M0 1050h200l301 -823l299 823h200l-427 -1050h-172z" />
    <glyph glyph-name="w" unicode="w" horiz-adv-x="1539" 
d="M35 1050h187l186 -823l273 823h167l292 -823l168 823h196l-274 -1050h-169l-301 785l-286 -785h-173z" />
    <glyph glyph-name="x" unicode="x" horiz-adv-x="1050" 
d="M418 525l-393 525h215l285 -381l285 381h215l-392 -525l392 -525h-215l-285 381l-285 -381h-215z" />
    <glyph glyph-name="y" unicode="y" horiz-adv-x="1050" 
d="M25 1050h201.001l297 -820l307 820h196l-436 -1081c-77.333 -190.667 -193.333 -309.667 -348 -357l-71 131c117.333 51.333 202.666 135 255.999 251z" />
    <glyph glyph-name="z" unicode="z" horiz-adv-x="1040" 
d="M120 1050h820v-150l-627 -760h607v-140h-820v140l635 760h-615v150z" />
    <glyph glyph-name="braceleft" unicode="{" horiz-adv-x="675" 
d="M625 1430c-86.667 -117.333 -130 -276.666 -130 -477.999c0 -234.667 -70 -377 -210 -427c140 -50 210 -192.333 210 -427c0 -201.333 43.333 -360.666 130 -477.999h-185c-86.667 117.333 -130 276.666 -130 477.999c0 234.667 -70 352 -210 352v150
c140 0 210 117.333 210 352c0 201.333 43.333 360.666 130 477.999h185z" />
    <glyph glyph-name="bar" unicode="|" horiz-adv-x="485" 
d="M335 1430v-1810h-185v1810h185z" />
    <glyph glyph-name="braceright" unicode="}" horiz-adv-x="675" 
d="M235 1430c86.667 -117.333 130 -276.666 130 -477.999c0 -234.667 70 -352 210 -352v-150c-140 0 -210 -117.333 -210 -352c0 -201.333 -43.333 -360.666 -130 -477.999h-185c86.667 117.333 130 276.666 130 477.999c0 234.667 70 377 210 427
c-140 50 -210 192.333 -210 427c0 201.333 -43.333 360.666 -130 477.999h185z" />
    <glyph glyph-name="asciitilde" unicode="~" horiz-adv-x="950" 
d="M100 580c38.667 40.667 92.667 61 162 61c57.333 0 125 -13.667 203 -41c78 -26.667 147 -40 207 -40c72.667 0 132 20 178 60v-150c-38.667 -40 -92.667 -60 -162 -60c-57.333 0 -125 13.333 -203 40c-78 27.333 -147 41 -207 41c-72.667 0 -132 -20.333 -178 -61v150z
" />
    <glyph glyph-name="nonbreakingspace" unicode="&#xa0;" horiz-adv-x="498" 
 />
    <glyph glyph-name="exclamdown" unicode="&#xa1;" horiz-adv-x="485" 
d="M150 -380v1060h185v-1060h-185zM150 865v185h185v-185h-185z" />
    <glyph glyph-name="cent" unicode="&#xa2;" horiz-adv-x="1050" 
d="M570 1236v194h175v-192c72 -4 140.333 -13.333 205 -28v-150c-86.667 20 -173.334 30 -260.001 30c-270 0 -405 -118.333 -405 -355c0 -263.333 135 -395 405 -395c86.667 0 173.334 10 260.001 30v-150c-64.667 -14.667 -133 -24 -205 -28v-192h-175v195
c-313.333 30 -470 210 -470 540c0 306 156.667 473 470 501z" />
    <glyph glyph-name="sterling" unicode="&#xa3;" horiz-adv-x="1217" 
d="M100 122c124 50 185.999 146.999 185.999 290.999c0 78 -25.667 175 -77 291s-77 223.667 -77 323c0 275.333 186 413 558 413c180 0 322.333 -33.333 427 -100v-180c-105.333 86.667 -250 130 -434 130c-236 0 -354 -87 -354 -261c0 -96 15 -172.333 45 -229h376v-150
h-324c32.667 -89.333 49 -167.333 49 -234c0 -91.333 -21.333 -170.666 -64 -237.999c14.667 2.66699 31.667 4 51 4c60.667 0 144.334 -14.333 251.001 -43c40.667 -11.333 81 -17 121 -17c96.667 0 191 32.667 283 98v-170c-80 -56 -174.667 -84 -284 -84
c-62.667 0 -129.667 9.33301 -201 28c-86 21.333 -168 32 -246 32c-102 0 -197.333 -18.667 -286 -56v152z" />
    <glyph glyph-name="currency" unicode="&#xa4;" horiz-adv-x="1139" 
d="M216 756l-116 120l109 112l125 -121c72 45.333 152.667 68 242 68c82.667 0 157.667 -22.667 225 -68l128 121l110 -112l-118 -120c38.667 -55.333 58 -132.333 58 -231c0 -92.667 -22.667 -170 -68 -232l128 -120l-110 -112l-128 123c-72 -40 -149.667 -60 -233 -60
c-82.667 0 -163.667 20 -243 60l-116 -123l-109 112l116 120c-38 68.667 -57 146 -57 232c0 91.333 19 168.333 57 231zM322 529c0 -164 81.667 -246 245 -246s245 82 245 246c0 162.667 -81.667 244 -245 244s-245 -81.333 -245 -244z" />
    <glyph glyph-name="yen" unicode="&#xa5;" horiz-adv-x="1250" 
d="M50 1430h205l362 -627l368 627h215l-433 -700h313v-150h-376v-111h376v-150h-376v-319h-185v319h-349v150h349v111h-349v150h287z" />
    <glyph glyph-name="brokenbar" unicode="&#xa6;" horiz-adv-x="485" 
d="M335 350v-730h-185v730h185zM334 1430v-730h-184v730h184z" />
    <glyph glyph-name="section" unicode="&#xa7;" horiz-adv-x="1050" 
d="M150 40v160.001c116.667 -40 238 -60 364 -60c167.333 0 251 50 251 150c0 86.667 -65 130 -195 130h-110c-240 0 -360 100 -360 300c0 92 40.667 157.333 122 196c-81.333 53.333 -122 128 -122 224c0 200 152.333 300 457 300c112 0 226.333 -16.667 343 -50v-160
c-116.667 40 -231 60 -343 60c-194.667 0 -292 -50 -292 -150c0 -86.667 65 -130 195 -130h110c253.333 0 380 -99 380 -297c0 -86.667 -40 -154 -120 -202c80 -42.667 120 -116.334 120 -221.001c0 -200 -145.333 -300 -436 -300c-126 0 -247.333 16.667 -364 50z
M470 568.001h110c130 0 195 45.333 195 136c0 104.667 -65 157 -195 157h-110c-130 0 -195 -48 -195 -144c0 -99.333 65 -149 195 -149z" />
    <glyph glyph-name="dieresis" unicode="&#xa8;" horiz-adv-x="755" 
d="M655 1430v-170h-185v170h185zM285 1430v-170h-185v170h185z" />
    <glyph glyph-name="copyright" unicode="&#xa9;" horiz-adv-x="1785" 
d="M878 80c434.667 0 652 213 652 639c0 420.667 -210.667 631 -632 631c-428.667 0 -643 -210.333 -643 -631c0 -426 207.667 -639 623 -639zM150 723c0 478 249.333 717 748 717c491.333 0 737 -239 737 -717c0 -488.667 -245.667 -733 -737 -733
c-498.667 0 -748 244.333 -748 733zM1183 336c-83.333 -34 -180 -51 -290 -51c-277.333 0 -416 147.667 -416 443c0 277.333 138.667 416 416 416c110 0 206.667 -17 290 -51v-98c-83.333 38.667 -175.333 58 -276 58c-216.667 0 -325 -108.333 -325 -325
c0 -234.667 108.333 -352 325 -352c100.667 0 192.667 19.333 276 58v-98z" />
    <glyph glyph-name="ordfeminine" unicode="&#xaa;" horiz-adv-x="642" 
d="M100 1069c0 107.333 70.998 161 212.998 161c52.667 0 98.334 -3.33301 137.001 -10v50c0 57.333 -47.333 86 -142 86c-53.333 0 -108.666 -8.66699 -165.999 -26v76c57.333 16 112.666 24 165.999 24c156 0 234 -56 234 -168v-356h-46l-38 36
c-45.333 -24 -98.666 -36 -159.999 -36c-132 0 -198 54.333 -198 163zM312.998 1156c-80.667 0 -120.999 -28.667 -120.999 -86c0 -60 35.333 -90 106 -90c64 0 114.667 14 152 42v124c-36.667 6.66699 -82.334 10 -137.001 10z" />
    <glyph glyph-name="guillemotleft" unicode="&#xab;" horiz-adv-x="1009" 
d="M499 525l258 375h202l-258 -375l258 -375h-202zM100 525l258 375h202l-258 -375l258 -375h-202z" />
    <glyph glyph-name="logicalnot" unicode="&#xac;" horiz-adv-x="1085" 
d="M100 1050h885v-400h-150v250h-735v150z" />
    <glyph glyph-name="minus" unicode="&#xad;" horiz-adv-x="950" 
d="M850 600v-150h-750v150h750z" />
    <glyph glyph-name="minus" unicode="&#x2212;" horiz-adv-x="950" 
d="M850 600v-150h-750v150h750z" />
    <glyph glyph-name="registered" unicode="&#xae;" horiz-adv-x="1163" 
d="M404 756v535.999h229c102 0 153 -42.667 153 -128c0 -70 -50 -121.667 -150 -155l184 -253h-91l-171 241v45c102.667 16.667 154 56.334 154 119.001c0 49.333 -28.667 74 -86 74h-153v-479h-69zM580 663.999c240 0 360 120.333 360 361c0 246 -120 369 -360 369
c-238 0 -357 -123 -357 -369c0 -240.667 119 -361 357 -361zM150 1023c0 284.667 143.333 427 430 427c288.667 0 433 -142.333 433 -427c0 -276.667 -144.333 -415 -433 -415c-278.667 0 -422 138.333 -430 415z" />
    <glyph glyph-name="macron" unicode="&#xaf;" horiz-adv-x="700" 
d="M600 1430v-150h-500v150h500z" />
    <glyph glyph-name="macron" unicode="&#x2c9;" horiz-adv-x="700" 
d="M600 1430v-150h-500v150h500z" />
    <glyph glyph-name="degree" unicode="&#xb0;" horiz-adv-x="752" 
d="M378 1025c96 0 144 49 144 147c0 96 -48 144 -144 144c-98.667 0 -148 -48 -148 -144c0 -98 49.333 -147 148 -147zM100 1170c0 173.333 92.667 260 278 260c182.667 0 274 -86.667 274 -260c0 -172.667 -91.333 -259 -274 -259c-185.333 0 -278 86.333 -278 259z" />
    <glyph glyph-name="plusminus" unicode="&#xb1;" horiz-adv-x="950" 
d="M400 750v300h150v-300h300v-150h-300v-300h-150v300h-300v150h300zM850 150v-150h-750v150h750z" />
    <glyph glyph-name="twosuperior" unicode="&#xb2;" horiz-adv-x="590" 
d="M50 710v135.001c224.667 142 337 263.667 337 365c0 56.667 -36.667 85 -110 85s-142.333 -18.333 -207 -55v140c64.667 33.333 133.667 50 207 50c175.333 0 263 -73.333 263 -220c0 -116.667 -95.667 -238.334 -287 -365.001h287v-135h-490z" />
    <glyph glyph-name="threesuperior" unicode="&#xb3;" horiz-adv-x="578" 
d="M50 1400c66.667 20 133.334 30.001 200.001 30.001c185.333 0 278 -71.333 278 -214c0 -65.333 -31.333 -113 -94 -143c62.667 -28.667 94 -76.334 94 -143.001c0 -149.333 -92.667 -224 -278 -224c-66.667 0 -133.334 10 -200.001 30v140
c66.667 -24 133.334 -36 200.001 -36c84 0 126 30 126 90c0 50.667 -28.667 76 -86 76h-164v134h162c58.667 0 88 25.333 88 76c0 53.333 -42 80 -126 80c-66.667 0 -133.334 -12 -200.001 -36v140z" />
    <glyph glyph-name="acute" unicode="&#xb4;" horiz-adv-x="603" 
d="M264 1430h239l-239 -239h-164z" />
    <glyph glyph-name="mu" unicode="&#xb5;" 
d="M1055 1050v-1050h-127l-32 134c-127.333 -89.333 -248.666 -134 -363.999 -134c-86.667 0 -152.334 26.667 -197.001 80v-460h-185v1430h185v-612c0 -189.333 77.333 -284 232 -284c106 0 207 44.333 303 133v763h185z" />
    <glyph glyph-name="mu" unicode="&#x3bc;" 
d="M1055 1050v-1050h-127l-32 134c-127.333 -89.333 -248.666 -134 -363.999 -134c-86.667 0 -152.334 26.667 -197.001 80v-460h-185v1430h185v-612c0 -189.333 77.333 -284 232 -284c106 0 207 44.333 303 133v763h185z" />
    <glyph glyph-name="paragraph" unicode="&#xb6;" horiz-adv-x="953" 
d="M443 -434v972c-295.333 0 -443 149.333 -443 448c0 296 147.667 444 443 444h510v-90h-150v-1774h-100v1774h-160v-1774h-100z" />
    <glyph glyph-name="periodcentered" unicode="&#xb7;" horiz-adv-x="450" 
d="M100 525c0 83.333 41.667 125 125 125s125 -41.667 125 -125s-41.667 -125 -125 -125s-125 41.667 -125 125z" />
    <glyph glyph-name="periodcentered" unicode="&#x2219;" horiz-adv-x="450" 
d="M100 525c0 83.333 41.667 125 125 125s125 -41.667 125 -125s-41.667 -125 -125 -125s-125 41.667 -125 125z" />
    <glyph glyph-name="cedilla" unicode="&#xb8;" horiz-adv-x="457" 
d="M0 -264c72 -33.333 144 -50 216 -50s108 21.667 108 65c0 42.667 -27.667 64 -83 64h-183l131 260h135l-81 -152c142.667 0 214 -57.333 214 -172c0 -115.333 -80.333 -173 -241 -173c-72 0 -144 16.667 -216 50v108z" />
    <glyph glyph-name="onesuperior" unicode="&#xb9;" horiz-adv-x="328" 
d="M126 710v551h-76v75l228 90v-716h-152z" />
    <glyph glyph-name="ordmasculine" unicode="&#xba;" horiz-adv-x="700" 
d="M350 980c105.333 0 158 63.333 158 190c0 124 -52.667 186 -158 186c-104.667 0 -157 -62 -157 -186c0 -126.667 52.333 -190 157 -190zM100 1168c0 174.667 83.332 262 249.999 262s250 -87.333 250 -262s-83.333 -262 -250 -262
c-165.333 0 -248.666 87.333 -249.999 262z" />
    <glyph glyph-name="guillemotright" unicode="&#xbb;" horiz-adv-x="1009" 
d="M252 150h-202l258 375l-258 375h202l258 -375zM651 150h-202l258 375l-258 375h202l258 -375z" />
    <glyph glyph-name="onequarter" unicode="&#xbc;" horiz-adv-x="1449" 
d="M285 0h-185l885 1430h185zM198 710v551h-74v75l227 90v-716h-153zM872 690c66.667 20 133.334 30.001 200.001 30.001c184.667 0 277 -71.333 277 -214c0 -65.333 -31.333 -113 -94 -143c62.667 -28.667 94 -76.334 94 -143.001c0 -149.333 -92.333 -224 -277 -224
c-66.667 0 -133.334 10 -200.001 30v140c66.667 -24 133.334 -36 200.001 -36c82.667 0 124 30 124 90c0 50.667 -28.667 76 -86 76h-164v134h163c58 0 87 25.333 87 76c0 53.333 -41.333 80 -124 80c-66.667 0 -133.334 -12 -200.001 -36v140z" />
    <glyph glyph-name="onehalf" unicode="&#xbd;" horiz-adv-x="1442" 
d="M285 0h-185l885 1430h185zM198 710v551h-74v75l227 90v-716h-153zM852 0v135.001c225.333 142 338 263.667 338 365c0 56.667 -36.667 85 -110 85s-142.666 -18.333 -207.999 -55v140c65.333 33.333 134.666 50 207.999 50c174.667 0 262 -73.333 262 -220
c0 -116.667 -96 -238.334 -288 -365.001h288v-135h-490z" />
    <glyph glyph-name="threequarters" unicode="&#xbe;" horiz-adv-x="1490" 
d="M376 0h-185l885 1430h185zM1316 0h-152v150h-342v134l218 430h162l-213 -430h175v264h152v-264l74 -38v-96h-74v-150zM100 1400c66.667 20 133.334 30.001 200.001 30.001c184.667 0 277 -71.333 277 -214c0 -65.333 -31.333 -113 -94 -143
c62.667 -28.667 94 -76.334 94 -143.001c0 -149.333 -92.333 -224 -277 -224c-66.667 0 -133.334 10 -200.001 30v140c66.667 -24 133.334 -36 200.001 -36c82.667 0 124 30 124 90c0 50.667 -28.667 76 -86 76h-164v134h163c58 0 87 25.333 87 76
c0 53.333 -41.333 80 -124 80c-66.667 0 -133.334 -12 -200.001 -36v140z" />
    <glyph glyph-name="questiondown" unicode="&#xbf;" horiz-adv-x="1115" 
d="M680 865v185h185v-185h-185zM1015 -330c-140 -33.333 -273.333 -50 -400 -50c-343.333 0 -515 130 -515 390s165.667 390 497 390h83v280h185v-430h-265c-210 0 -315 -80 -315 -240s110 -240 330 -240c126.667 0 260 16.667 400 50v-150z" />
    <glyph glyph-name="Agrave" unicode="&#xc0;" horiz-adv-x="1472" 
d="M217 0h-192l607 1430h205l610 -1430h-205l-185 450h-473l51 150h360l-267 648zM870 1571h-164l-239 239h239z" />
    <glyph glyph-name="Aacute" unicode="&#xc1;" horiz-adv-x="1472" 
d="M217 0h-192l607 1430h205l610 -1430h-205l-185 450h-473l51 150h360l-267 648zM766 1810h239l-239 -239h-164z" />
    <glyph glyph-name="Acircumflex" unicode="&#xc2;" horiz-adv-x="1472" 
d="M217 0h-192l607 1430h205l610 -1430h-205l-185 450h-473l51 150h360l-267 648zM661 1810h150l175 -260h-150l-100 160l-100 -160h-150z" />
    <glyph glyph-name="Atilde" unicode="&#xc3;" horiz-adv-x="1472" 
d="M217 0h-192l607 1430h205l610 -1430h-205l-185 450h-473l51 150h360l-267 648zM486 1764c40 30.667 83.333 46 130 46c34.667 0 71.334 -8.66699 110.001 -26s76.667 -26 114 -26c50 0 98.667 15.333 146 46v-150c-40 -30.667 -83.333 -46 -130 -46
c-34.667 0 -71.334 8.66699 -110.001 26s-76.667 26 -114 26c-50 0 -98.667 -15.333 -146 -46v150z" />
    <glyph glyph-name="Adieresis" unicode="&#xc4;" horiz-adv-x="1472" 
d="M217 0h-192l607 1430h205l610 -1430h-205l-185 450h-473l51 150h360l-267 648zM1014 1810v-170h-185v170h185zM644 1810v-170h-185v170h185z" />
    <glyph glyph-name="Aring" unicode="&#xc5;" horiz-adv-x="1472" 
d="M738 1490c89.333 0 134 45.667 134 137c0 89.333 -44.667 134 -134 134c-92 0 -138 -44.667 -138 -134c0 -91.333 46 -137 138 -137zM217 0h-192l607 1430h3c-83.333 26.667 -125 91.667 -125 195c0 140 76 210 228 210c149.333 0 224 -70 224 -210
c0 -104 -41.667 -169.333 -125 -196l610 -1429h-205l-185 450h-473l51 150h360l-267 648z" />
    <glyph glyph-name="AE" unicode="&#xc6;" horiz-adv-x="1925" 
d="M812 600l58 -150h-459l-194 -450h-192l607 1430h1148v-150h-888l210 -480h643v-150h-574l226 -500h403v-150h-548l-524 1238l-266 -638h350z" />
    <glyph glyph-name="Ccedilla" unicode="&#xc7;" horiz-adv-x="1385" 
d="M705 -2c-403.333 45.333 -605 291 -605 737c0 470 250 705 750 705c143.333 0 276.666 -20 399.999 -60v-160c-123.333 46.667 -250 70 -380 70c-390 0 -585 -185 -585 -555c0 -396.667 195 -595 585 -595c130 0 256.667 23.333 380 70v-160
c-123.333 -40 -256.666 -60 -399.999 -60h-16l-36 -67c142.667 0 214 -57.333 214 -172c0 -115.333 -80.333 -173 -241 -173c-72 0 -144 16.667 -216 50v108c72 -33.333 144 -50 216 -50s108 21.667 108 65c0 42.667 -27.667 64 -83 64h-183z" />
    <glyph glyph-name="Egrave" unicode="&#xc8;" horiz-adv-x="1230" 
d="M1105 1430v-150h-750v-480h715v-150h-715v-500h765v-150h-950v1430h935zM779 1571h-164l-239 239h239z" />
    <glyph glyph-name="Eacute" unicode="&#xc9;" horiz-adv-x="1230" 
d="M1105 1430v-150h-750v-480h715v-150h-715v-500h765v-150h-950v1430h935zM675 1810h239l-239 -239h-164z" />
    <glyph glyph-name="Ecircumflex" unicode="&#xca;" horiz-adv-x="1230" 
d="M1105 1430v-150h-750v-480h715v-150h-715v-500h765v-150h-950v1430h935zM570 1810h150l175 -260h-150l-100 160l-100 -160h-150z" />
    <glyph glyph-name="Edieresis" unicode="&#xcb;" horiz-adv-x="1230" 
d="M1105 1430v-150h-750v-480h715v-150h-715v-500h765v-150h-950v1430h935zM923 1810v-170h-185v170h185zM553 1810v-170h-185v170h185z" />
    <glyph glyph-name="Igrave" unicode="&#xcc;" horiz-adv-x="585" 
d="M385 1430v-1430h-185v1430h185zM427 1571h-164l-239 239h239z" />
    <glyph glyph-name="Iacute" unicode="&#xcd;" horiz-adv-x="585" 
d="M385 1430v-1430h-185v1430h185zM322 1810h239l-239 -239h-164z" />
    <glyph glyph-name="Icircumflex" unicode="&#xce;" horiz-adv-x="585" 
d="M386 1430v-1430h-185v1430h185zM218 1810h150l175 -260h-150l-100 160l-100 -160h-150z" />
    <glyph glyph-name="Idieresis" unicode="&#xcf;" horiz-adv-x="585" 
d="M385 1430v-1430h-185v1430h185zM570 1810v-170h-185v170h185zM200 1810v-170h-185v170h185z" />
    <glyph glyph-name="Eth" unicode="&#xd0;" horiz-adv-x="1500" 
d="M170 800v630h520c473.333 0 710 -225.333 710 -676c0 -502.667 -236.667 -754 -710 -754h-520v650h-200v150h200zM355 800h365v-150h-365v-500h335c350 0 525 201.333 525 604c0 350.667 -175 526 -525 526h-335v-480z" />
    <glyph glyph-name="Ntilde" unicode="&#xd1;" horiz-adv-x="1575" 
d="M170 0v1430h185l875 -1152v1152h175v-1430h-185l-875 1162v-1162h-175zM538 1764c40 30.667 83.333 46 130 46c34.667 0 71.334 -8.66699 110.001 -26s76.667 -26 114 -26c50 0 98.667 15.333 146 46v-150c-40 -30.667 -83.333 -46 -130 -46
c-34.667 0 -71.334 8.66699 -110.001 26s-76.667 26 -114 26c-50 0 -98.667 -15.333 -146 -46v150z" />
    <glyph glyph-name="Ograve" unicode="&#xd2;" horiz-adv-x="1665" 
d="M838 140c341.333 0 512 193 512 579c0 380.667 -170.667 571 -512 571c-348.667 0 -523 -190.333 -523 -571c0 -386 174.333 -579 523 -579zM120 713c0 484.667 239.333 727 718 727c471.333 0 707 -242.333 707 -727c0 -482 -235.667 -723 -707 -723
c-478.667 0 -718 241 -718 723zM967 1571h-164l-239 239h239z" />
    <glyph glyph-name="Oacute" unicode="&#xd3;" horiz-adv-x="1665" 
d="M838 140c341.333 0 512 193 512 579c0 380.667 -170.667 571 -512 571c-348.667 0 -523 -190.333 -523 -571c0 -386 174.333 -579 523 -579zM120 713c0 484.667 239.333 727 718 727c471.333 0 707 -242.333 707 -727c0 -482 -235.667 -723 -707 -723
c-478.667 0 -718 241 -718 723zM862 1810h239l-239 -239h-164z" />
    <glyph glyph-name="Ocircumflex" unicode="&#xd4;" horiz-adv-x="1665" 
d="M838 140c341.333 0 512 193 512 579c0 380.667 -170.667 571 -512 571c-348.667 0 -523 -190.333 -523 -571c0 -386 174.333 -579 523 -579zM120 713c0 484.667 239.333 727 718 727c471.333 0 707 -242.333 707 -727c0 -482 -235.667 -723 -707 -723
c-478.667 0 -718 241 -718 723zM758 1810h150l175 -260h-150l-100 160l-100 -160h-150z" />
    <glyph glyph-name="Otilde" unicode="&#xd5;" horiz-adv-x="1665" 
d="M838 140c341.333 0 512 193 512 579c0 380.667 -170.667 571 -512 571c-348.667 0 -523 -190.333 -523 -571c0 -386 174.333 -579 523 -579zM120 713c0 484.667 239.333 727 718 727c471.333 0 707 -242.333 707 -727c0 -482 -235.667 -723 -707 -723
c-478.667 0 -718 241 -718 723zM583 1764c40 30.667 83.333 46 130 46c34.667 0 71.334 -8.66699 110.001 -26s76.667 -26 114 -26c50 0 98.667 15.333 146 46v-150c-40 -30.667 -83.333 -46 -130 -46c-34.667 0 -71.334 8.66699 -110.001 26s-76.667 26 -114 26
c-50 0 -98.667 -15.333 -146 -46v150z" />
    <glyph glyph-name="Odieresis" unicode="&#xd6;" horiz-adv-x="1665" 
d="M838 140c341.333 0 512 193 512 579c0 380.667 -170.667 571 -512 571c-348.667 0 -523 -190.333 -523 -571c0 -386 174.333 -579 523 -579zM120 713c0 484.667 239.333 727 718 727c471.333 0 707 -242.333 707 -727c0 -482 -235.667 -723 -707 -723
c-478.667 0 -718 241 -718 723zM1110 1810v-170h-185v170h185zM740 1810v-170h-185v170h185z" />
    <glyph glyph-name="multiply" unicode="&#xd7;" horiz-adv-x="950" 
d="M312 525l-212 212l106 106l212 -212l212 212l106 -106l-212 -212l212 -212l-106 -106l-212 212l-212 -212l-106 106z" />
    <glyph glyph-name="Oslash" unicode="&#xd8;" horiz-adv-x="1625" 
d="M1099 1229c-75.333 40.667 -169 61 -281 61c-348.667 0 -523 -190.333 -523 -571c0 -176 36.333 -312 109 -408zM522 207c78.667 -44.667 177.333 -67 296 -67c341.333 0 512 193 512 579c0 177.333 -37 313.333 -111 408zM1331 1275
c129.333 -121.333 194 -308.667 194 -562c0 -482 -235.667 -723 -707 -723c-160 0 -293 27 -399 81l-54 -71h-197l122 161c-126.667 120 -190 304 -190 552c0 484.667 239.333 727 718 727c152 0 279.667 -25.333 383 -76l50 66h198z" />
    <glyph glyph-name="Ugrave" unicode="&#xd9;" horiz-adv-x="1510" 
d="M160 552v878h185v-878c0 -274.667 136.667 -412 410 -412s410 137.333 410 412v878h185v-878c0 -374.667 -198.333 -562 -595 -562s-595 187.333 -595 562zM889 1571h-164l-239 239h239z" />
    <glyph glyph-name="Uacute" unicode="&#xda;" horiz-adv-x="1510" 
d="M160 552v878h185v-878c0 -274.667 136.667 -412 410 -412s410 137.333 410 412v878h185v-878c0 -374.667 -198.333 -562 -595 -562s-595 187.333 -595 562zM785 1810h239l-239 -239h-164z" />
    <glyph glyph-name="Ucircumflex" unicode="&#xdb;" horiz-adv-x="1510" 
d="M160 552v878h185v-878c0 -274.667 136.667 -412 410 -412s410 137.333 410 412v878h185v-878c0 -374.667 -198.333 -562 -595 -562s-595 187.333 -595 562zM680 1810h150l175 -260h-150l-100 160l-100 -160h-150z" />
    <glyph glyph-name="Udieresis" unicode="&#xdc;" horiz-adv-x="1510" 
d="M160 552v878h185v-878c0 -274.667 136.667 -412 410 -412s410 137.333 410 412v878h185v-878c0 -374.667 -198.333 -562 -595 -562s-595 187.333 -595 562zM1033 1810v-170h-185v170h185zM663 1810v-170h-185v170h185z" />
    <glyph glyph-name="Yacute" unicode="&#xdd;" horiz-adv-x="1300" 
d="M25 1430h205l412 -747l418 747h215l-546 -930v-500h-185v500zM680 1810h239l-239 -239h-164z" />
    <glyph glyph-name="Thorn" unicode="&#xde;" horiz-adv-x="1243" 
d="M150 0v1430h185v-308h425c272 0 408 -114.333 408 -343c0 -258 -189.667 -417.667 -569 -479l-38 156c273.333 43.333 410 148.333 410 315c0 132 -76 198 -228 198h-408v-969h-185z" />
    <glyph glyph-name="germandbls" unicode="&#xdf;" horiz-adv-x="1191" 
d="M150 0v959c0 312 154.667 468 464 468c286.667 0 430 -125.667 430 -377v-85c-202.667 -68.667 -304 -148 -304 -238c0 -60.667 61.833 -114.834 185.5 -162.501s185.5 -135.167 185.5 -262.5c0 -201.333 -131.333 -302 -394 -302h-182v150h184
c131.333 0 197 50.667 197 152c0 67.333 -58.5 121.5 -175.5 162.5s-175.5 127.5 -175.5 259.5c0 138.667 96 247.334 288 326.001c0 151.333 -82 227 -246 227c-181.333 0 -272 -107 -272 -321v-956h-185z" />
    <glyph glyph-name="agrave" unicode="&#xe0;" horiz-adv-x="1135" 
d="M100 317c0 215.333 142.001 323 426.001 323c91.333 0 182.666 -6.66699 273.999 -20v99c0 120.667 -94.333 181 -283 181c-108 0 -218.667 -16.667 -332 -50v150c113.333 33.333 224 50 332 50c312 0 468 -108.667 468 -326v-724h-104l-64 104
c-104.667 -69.333 -218.667 -104 -342 -104c-250 0 -375 105.667 -375 317zM526.001 490c-160.667 0 -241.001 -56.667 -241.001 -170s63.333 -170 190 -170c128 0 236.333 34 325 102v218c-91.333 13.333 -182.666 20 -273.999 20zM697 1191h-164l-239 239h239z" />
    <glyph glyph-name="aacute" unicode="&#xe1;" horiz-adv-x="1135" 
d="M100 317c0 215.333 142.001 323 426.001 323c91.333 0 182.666 -6.66699 273.999 -20v99c0 120.667 -94.333 181 -283 181c-108 0 -218.667 -16.667 -332 -50v150c113.333 33.333 224 50 332 50c312 0 468 -108.667 468 -326v-724h-104l-64 104
c-104.667 -69.333 -218.667 -104 -342 -104c-250 0 -375 105.667 -375 317zM526.001 490c-160.667 0 -241.001 -56.667 -241.001 -170s63.333 -170 190 -170c128 0 236.333 34 325 102v218c-91.333 13.333 -182.666 20 -273.999 20zM572 1430h239l-239 -239h-164z" />
    <glyph glyph-name="acircumflex" unicode="&#xe2;" horiz-adv-x="1135" 
d="M100 317c0 215.333 142.001 323 426.001 323c91.333 0 182.666 -6.66699 273.999 -20v99c0 120.667 -94.333 181 -283 181c-108 0 -218.667 -16.667 -332 -50v150c113.333 33.333 224 50 332 50c312 0 468 -108.667 468 -326v-724h-104l-64 104
c-104.667 -69.333 -218.667 -104 -342 -104c-250 0 -375 105.667 -375 317zM526.001 490c-160.667 0 -241.001 -56.667 -241.001 -170s63.333 -170 190 -170c128 0 236.333 34 325 102v218c-91.333 13.333 -182.666 20 -273.999 20zM498 1430h150l175 -260h-150l-100 160
l-100 -160h-150z" />
    <glyph glyph-name="atilde" unicode="&#xe3;" horiz-adv-x="1135" 
d="M100 317c0 215.333 142.001 323 426.001 323c91.333 0 182.666 -6.66699 273.999 -20v99c0 120.667 -94.333 181 -283 181c-108 0 -218.667 -16.667 -332 -50v150c113.333 33.333 224 50 332 50c312 0 468 -108.667 468 -326v-724h-104l-64 104
c-104.667 -69.333 -218.667 -104 -342 -104c-250 0 -375 105.667 -375 317zM526.001 490c-160.667 0 -241.001 -56.667 -241.001 -170s63.333 -170 190 -170c128 0 236.333 34 325 102v218c-91.333 13.333 -182.666 20 -273.999 20zM293 1384c40 30.667 83.333 46 130 46
c34.667 0 71.334 -8.66699 110.001 -26s76.667 -26 114 -26c50 0 98.667 15.333 146 46v-150c-40 -30.667 -83.333 -46 -130 -46c-34.667 0 -71.334 8.66699 -110.001 26s-76.667 26 -114 26c-50 0 -98.667 -15.333 -146 -46v150z" />
    <glyph glyph-name="adieresis" unicode="&#xe4;" horiz-adv-x="1135" 
d="M100 317c0 215.333 142.001 323 426.001 323c91.333 0 182.666 -6.66699 273.999 -20v99c0 120.667 -94.333 181 -283 181c-108 0 -218.667 -16.667 -332 -50v150c113.333 33.333 224 50 332 50c312 0 468 -108.667 468 -326v-724h-104l-64 104
c-104.667 -69.333 -218.667 -104 -342 -104c-250 0 -375 105.667 -375 317zM526.001 490c-160.667 0 -241.001 -56.667 -241.001 -170s63.333 -170 190 -170c128 0 236.333 34 325 102v218c-91.333 13.333 -182.666 20 -273.999 20zM840 1430v-170h-185v170h185zM470 1430
v-170h-185v170h185z" />
    <glyph glyph-name="aring" unicode="&#xe5;" horiz-adv-x="1135" 
d="M100 317c0 215.333 142.001 323 426.001 323c91.333 0 182.666 -6.66699 273.999 -20v99c0 120.667 -94.333 181 -283 181c-108 0 -218.667 -16.667 -332 -50v150c113.333 33.333 224 50 332 50c312 0 468 -108.667 468 -326v-724h-104l-64 104
c-104.667 -69.333 -218.667 -104 -342 -104c-250 0 -375 105.667 -375 317zM526.001 490c-160.667 0 -241.001 -56.667 -241.001 -170s63.333 -170 190 -170c128 0 236.333 34 325 102v218c-91.333 13.333 -182.666 20 -273.999 20zM565 1226c89.333 0 134 45.667 134 137
c0 89.333 -44.667 134 -134 134c-92 0 -138 -44.667 -138 -134c0 -91.333 46 -137 138 -137zM337 1361c0 140 76 210 228 210c149.333 0 224 -70 224 -210c0 -139.333 -74.667 -209 -224 -209c-152 0 -228 69.667 -228 209z" />
    <glyph glyph-name="ae" unicode="&#xe6;" horiz-adv-x="1833" 
d="M526 490c-160.667 0 -241.001 -56.667 -241.001 -170s63.333 -170 190 -170c128 0 236.333 34 325 102v218c-91.333 13.333 -182.666 20 -273.999 20zM987.999 626h568c-4 184 -94 276 -270 276c-186.667 0 -286 -92 -298 -276zM922.999 148
c-148.667 -98.667 -297.998 -148 -447.998 -148c-250 0 -375 105.667 -375 317c0 215.333 142 323 426 323c91.333 0 182.666 -6.66699 273.999 -20v99c0 120.667 -94.333 181 -283 181c-108 0 -218.667 -16.667 -332 -50v150c113.333 33.333 224 50 332 50
c197.333 0 332.333 -43.333 405 -130c80.667 86.667 202 130 364 130c298.667 0 448 -147.667 448 -443c0 -42 -3 -87 -9 -135h-737c0 -214.667 125.333 -322 376 -322c112.667 0 218.667 13.333 318 40v-150c-92.667 -26.667 -205.334 -40 -338.001 -40
c-186.667 -0 -327 49.333 -421 148z" />
    <glyph glyph-name="ccedilla" unicode="&#xe7;" horiz-adv-x="1025" 
d="M530 9c-286.667 42 -430 220.667 -430 536c0 336.667 190 505 570 505c100 0 193.333 -10 280 -30v-150c-86.667 20 -173.334 30 -260.001 30c-270 0 -405 -118.333 -405 -355c0 -263.333 135 -395 405 -395c86.667 0 173.334 10 260.001 30v-150
c-86.667 -20 -180 -30 -280 -30h-12l-41 -77c142.667 0 214 -57.333 214 -172c0 -115.333 -80.333 -173 -241 -173c-72 0 -144 16.667 -216 50v108c72 -33.333 144 -50 216 -50s108 21.667 108 65c0 42.667 -27.667 64 -83 64h-183z" />
    <glyph glyph-name="egrave" unicode="&#xe8;" horiz-adv-x="1130" 
d="M583 1050c298.667 0 448.001 -147.667 448.001 -443c0 -42 -3 -87 -9 -135h-737c0 -214.667 125.333 -322 376 -322c119.333 0 225.333 13.333 318 40v-150c-92.667 -26.667 -205.334 -40 -338.001 -40c-360.667 0 -541 179 -541 537c0 342 161 513 483 513zM285.001 626
h568c-4 184 -94 276 -270 276c-186.667 0 -286 -92 -298 -276zM700.001 1191h-164l-239 239h239z" />
    <glyph glyph-name="eacute" unicode="&#xe9;" horiz-adv-x="1130" 
d="M583 1050c298.667 0 448.001 -147.667 448.001 -443c0 -42 -3 -87 -9 -135h-737c0 -214.667 125.333 -322 376 -322c119.333 0 225.333 13.333 318 40v-150c-92.667 -26.667 -205.334 -40 -338.001 -40c-360.667 0 -541 179 -541 537c0 342 161 513 483 513zM285.001 626
h568c-4 184 -94 276 -270 276c-186.667 0 -286 -92 -298 -276zM595.001 1430h239l-239 -239h-164z" />
    <glyph glyph-name="ecircumflex" unicode="&#xea;" horiz-adv-x="1130" 
d="M583 1050c298.667 0 448.001 -147.667 448.001 -443c0 -42 -3 -87 -9 -135h-737c0 -214.667 125.333 -322 376 -322c119.333 0 225.333 13.333 318 40v-150c-92.667 -26.667 -205.334 -40 -338.001 -40c-360.667 0 -541 179 -541 537c0 342 161 513 483 513zM285.001 626
h568c-4 184 -94 276 -270 276c-186.667 0 -286 -92 -298 -276zM500.001 1430h150l175 -260h-150l-100 160l-100 -160h-150z" />
    <glyph glyph-name="edieresis" unicode="&#xeb;" horiz-adv-x="1130" 
d="M583 1050c298.667 0 448.001 -147.667 448.001 -443c0 -42 -3 -87 -9 -135h-737c0 -214.667 125.333 -322 376 -322c119.333 0 225.333 13.333 318 40v-150c-92.667 -26.667 -205.334 -40 -338.001 -40c-360.667 0 -541 179 -541 537c0 342 161 513 483 513zM285.001 626
h568c-4 184 -94 276 -270 276c-186.667 0 -286 -92 -298 -276zM853.001 1430v-170h-185v170h185zM483.001 1430v-170h-185v170h185z" />
    <glyph glyph-name="igrave" unicode="&#xec;" horiz-adv-x="525" 
d="M355 1050v-1050h-185v1050h185zM397 1191h-164l-239 239h239z" />
    <glyph glyph-name="iacute" unicode="&#xed;" horiz-adv-x="525" 
d="M355 1050v-1050h-185v1050h185zM292 1430h239l-239 -239h-164z" />
    <glyph glyph-name="icircumflex" unicode="&#xee;" horiz-adv-x="525" 
d="M356 1050v-1050h-185v1050h185zM188 1430h150l175 -260h-150l-100 160l-100 -160h-150z" />
    <glyph glyph-name="idieresis" unicode="&#xef;" horiz-adv-x="525" 
d="M355 1050v-1050h-185v1050h185zM540 1430v-170h-185v170h185zM170 1430v-170h-185v170h185z" />
    <glyph glyph-name="eth" unicode="&#xf0;" horiz-adv-x="1190" 
d="M905 576c0 84 -6 165.333 -18 244c-53.333 60 -151.333 90 -294 90c-208 0 -312 -123.333 -312 -370c0 -266.667 104.333 -400 313 -400c207.333 0 311 145.333 311 436zM884 1251c137.333 -140.667 206 -364.333 206 -671c0 -393.333 -165.667 -590 -497 -590
c-328.667 0 -493 183.333 -493 550c0 340 154.667 510 464 510c118 0 216.667 -30 296 -90c-32.667 94 -81.667 167.333 -147 220l-283 -119v119l161 68c-60 21.333 -128.333 32 -205 32h-206v150h208c160.667 0 293.667 -33.333 399 -100l240 100v-119z" />
    <glyph glyph-name="ntilde" unicode="&#xf1;" 
d="M150 0v1050h125l33 -134c107.333 89.333 225.333 134 354 134c262 0 393 -130.333 393 -391v-659h-185v662c0 156 -77.667 234 -233 234c-106 0 -206.667 -44.333 -302 -133v-763h-185zM353 1384c40 30.667 83.333 46 130 46c34.667 0 71.334 -8.66699 110.001 -26
s76.667 -26 114 -26c50 0 98.667 15.333 146 46v-150c-40 -30.667 -83.333 -46 -130 -46c-34.667 0 -71.334 8.66699 -110.001 26s-76.667 26 -114 26c-50 0 -98.667 -15.333 -146 -46v150z" />
    <glyph glyph-name="ograve" unicode="&#xf2;" horiz-adv-x="1200" 
d="M600 150c210 0 315 126.333 315 379c0 247.333 -105 371 -315 371s-315 -123.667 -315 -371c0 -252.667 105 -379 315 -379zM100 525c0 350 166.667 525 500 525s500 -175 500 -525c0 -349.333 -166.667 -524 -500 -524c-332 0 -498.667 174.667 -500 524zM734 1191h-164
l-239 239h239z" />
    <glyph glyph-name="oacute" unicode="&#xf3;" horiz-adv-x="1200" 
d="M600 150c210 0 315 126.333 315 379c0 247.333 -105 371 -315 371s-315 -123.667 -315 -371c0 -252.667 105 -379 315 -379zM100 525c0 350 166.667 525 500 525s500 -175 500 -525c0 -349.333 -166.667 -524 -500 -524c-332 0 -498.667 174.667 -500 524zM630 1430h239
l-239 -239h-164z" />
    <glyph glyph-name="ocircumflex" unicode="&#xf4;" horiz-adv-x="1200" 
d="M600 150c210 0 315 126.333 315 379c0 247.333 -105 371 -315 371s-315 -123.667 -315 -371c0 -252.667 105 -379 315 -379zM100 525c0 350 166.667 525 500 525s500 -175 500 -525c0 -349.333 -166.667 -524 -500 -524c-332 0 -498.667 174.667 -500 524zM525 1430h150
l175 -260h-150l-100 160l-100 -160h-150z" />
    <glyph glyph-name="otilde" unicode="&#xf5;" horiz-adv-x="1200" 
d="M600 150c210 0 315 126.333 315 379c0 247.333 -105 371 -315 371s-315 -123.667 -315 -371c0 -252.667 105 -379 315 -379zM100 525c0 350 166.667 525 500 525s500 -175 500 -525c0 -349.333 -166.667 -524 -500 -524c-332 0 -498.667 174.667 -500 524zM350 1384
c40 30.667 83.333 46 130 46c34.667 0 71.334 -8.66699 110.001 -26s76.667 -26 114 -26c50 0 98.667 15.333 146 46v-150c-40 -30.667 -83.333 -46 -130 -46c-34.667 0 -71.334 8.66699 -110.001 26s-76.667 26 -114 26c-50 0 -98.667 -15.333 -146 -46v150z" />
    <glyph glyph-name="odieresis" unicode="&#xf6;" horiz-adv-x="1200" 
d="M600 150c210 0 315 126.333 315 379c0 247.333 -105 371 -315 371s-315 -123.667 -315 -371c0 -252.667 105 -379 315 -379zM100 525c0 350 166.667 525 500 525s500 -175 500 -525c0 -349.333 -166.667 -524 -500 -524c-332 0 -498.667 174.667 -500 524zM878 1430v-170
h-185v170h185zM508 1430v-170h-185v170h185z" />
    <glyph glyph-name="divide" unicode="&#xf7;" horiz-adv-x="985" 
d="M885 600v-150h-785v150h785zM585 300v-150h-185v150h185zM585 900v-150h-185v150h185z" />
    <glyph glyph-name="oslash" unicode="&#xf8;" horiz-adv-x="1200" 
d="M771 861c-46 26 -103 39 -171 39c-210 0 -315 -123.667 -315 -371c0 -100 16.333 -180.333 49 -241zM449 179c42 -19.333 92.333 -29 151 -29c210 0 315 126.333 315 379c0 85.333 -12.667 156 -38 212zM995 896c70 -87.333 105 -211 105 -371
c0 -349.333 -166.667 -524 -500 -524c-98.667 0 -182.667 15.333 -252 46l-36 -47h-197l105 138c-79.333 87.333 -119.333 216.333 -120 387c0 350 166.667 525 500 525c108.667 0 199.667 -18.667 273 -56l42 56h198z" />
    <glyph glyph-name="ugrave" unicode="&#xf9;" 
d="M1055 1050v-1050h-127l-32 134c-127.333 -89.333 -255.333 -134 -384 -134c-241.333 -0 -362 130.333 -362 391v659h185v-662c0 -156 77.333 -234 232 -234c106 0 207 44.333 303 133v763h185zM737 1191h-164l-239 239h239z" />
    <glyph glyph-name="uacute" unicode="&#xfa;" 
d="M1055 1050v-1050h-127l-32 134c-127.333 -89.333 -255.333 -134 -384 -134c-241.333 -0 -362 130.333 -362 391v659h185v-662c0 -156 77.333 -234 232 -234c106 0 207 44.333 303 133v763h185zM632 1430h239l-239 -239h-164z" />
    <glyph glyph-name="ucircumflex" unicode="&#xfb;" 
d="M1055 1050v-1050h-127l-32 134c-127.333 -89.333 -255.333 -134 -384 -134c-241.333 -0 -362 130.333 -362 391v659h185v-662c0 -156 77.333 -234 232 -234c106 0 207 44.333 303 133v763h185zM528 1430h150l175 -260h-150l-100 160l-100 -160h-150z" />
    <glyph glyph-name="udieresis" unicode="&#xfc;" 
d="M1055 1050v-1050h-127l-32 134c-127.333 -89.333 -255.333 -134 -384 -134c-241.333 -0 -362 130.333 -362 391v659h185v-662c0 -156 77.333 -234 232 -234c106 0 207 44.333 303 133v763h185zM880 1430v-170h-185v170h185zM510 1430v-170h-185v170h185z" />
    <glyph glyph-name="yacute" unicode="&#xfd;" horiz-adv-x="1050" 
d="M25 1050h201.001l297 -820l307 820h196l-436 -1081c-77.333 -190.667 -193.333 -309.667 -348 -357l-71 131c117.333 51.333 202.666 135 255.999 251zM555.001 1430h239l-239 -239h-164z" />
    <glyph glyph-name="thorn" unicode="&#xfe;" horiz-adv-x="1187" 
d="M335 214c72.667 -36 153.667 -54 243 -54c218 0 327 131 327 393c0 228.667 -108.333 343 -325 343c-93.333 0 -175 -8 -245 -24v-658zM150 1430h185v-399c64 12.667 146.333 19 247 19c336.667 0 505 -166.333 505 -499c0 -367.333 -169.333 -551 -508 -551
c-84 0 -165.333 16.667 -244 50v-430h-185v1810z" />
    <glyph glyph-name="ydieresis" unicode="&#xff;" horiz-adv-x="1050" 
d="M25 1050h201.001l297 -820l307 820h196l-436 -1081c-77.333 -190.667 -193.333 -309.667 -348 -357l-71 131c117.333 51.333 202.666 135 255.999 251zM803.001 1430v-170h-185v170h185zM433.001 1430v-170h-185v170h185z" />
    <glyph glyph-name="Amacron" unicode="&#x100;" horiz-adv-x="1472" 
d="M217 0h-192l607 1430h205l610 -1430h-205l-185 450h-473l51 150h360l-267 648zM986 1810v-150h-500v150h500z" />
    <glyph glyph-name="amacron" unicode="&#x101;" horiz-adv-x="1135" 
d="M100 317c0 215.333 142.001 323 426.001 323c91.333 0 182.666 -6.66699 273.999 -20v99c0 120.667 -94.333 181 -283 181c-108 0 -218.667 -16.667 -332 -50v150c113.333 33.333 224 50 332 50c312 0 468 -108.667 468 -326v-724h-104l-64 104
c-104.667 -69.333 -218.667 -104 -342 -104c-250 0 -375 105.667 -375 317zM526.001 490c-160.667 0 -241.001 -56.667 -241.001 -170s63.333 -170 190 -170c128 0 236.333 34 325 102v218c-91.333 13.333 -182.666 20 -273.999 20zM793 1430v-150h-500v150h500z" />
    <glyph glyph-name="Abreve" unicode="&#x102;" horiz-adv-x="1472" 
d="M217 0h-192l607 1430h205l610 -1430h-205l-185 450h-473l51 150h360l-267 648zM471 1810h135c0 -100 43.333 -150 130 -150s130 50 130 150h135c0 -173.333 -88.333 -260 -265 -260s-265 86.667 -265 260z" />
    <glyph glyph-name="abreve" unicode="&#x103;" horiz-adv-x="1135" 
d="M100 317c0 215.333 142.001 323 426.001 323c91.333 0 182.666 -6.66699 273.999 -20v99c0 120.667 -94.333 181 -283 181c-108 0 -218.667 -16.667 -332 -50v150c113.333 33.333 224 50 332 50c312 0 468 -108.667 468 -326v-724h-104l-64 104
c-104.667 -69.333 -218.667 -104 -342 -104c-250 0 -375 105.667 -375 317zM526.001 490c-160.667 0 -241.001 -56.667 -241.001 -170s63.333 -170 190 -170c128 0 236.333 34 325 102v218c-91.333 13.333 -182.666 20 -273.999 20zM298 1430h135
c0 -100 43.333 -150 130 -150s130 50 130 150h135c0 -173.333 -88.333 -260 -265 -260s-265 86.667 -265 260z" />
    <glyph glyph-name="Aogonek" unicode="&#x104;" horiz-adv-x="1472" 
d="M217 0l-192 0.000976562l607 1430h205l610 -1430c-134.667 -84 -202 -160 -202 -228c0 -45.333 28.333 -68 85 -68s102.334 6.66699 137.001 20v-130c-40.667 -13.333 -90.334 -20 -149.001 -20c-154 0 -231 57.667 -231 173c0 87.333 51.667 171.666 155 252.999
l-185 450h-473l51 150h360l-267 648z" />
    <glyph glyph-name="aogonek" unicode="&#x105;" horiz-adv-x="1135" 
d="M526 490c-160.667 0 -241.001 -56.667 -241.001 -170s63.333 -170 190 -170c128 0 236.333 34 325 102v218c-91.333 13.333 -182.666 20 -273.999 20zM816.999 0l0.000976562 104.001c-104.667 -69.333 -218.667 -104 -342 -104c-250 0 -375 105.667 -375 317
c0 215.333 142 323 426 323c91.333 0 182.666 -6.66699 273.999 -20v99c0 120.667 -94.333 181 -283 181c-108 0 -218.667 -16.667 -332 -50v150c113.333 33.333 224 50 332 50c312 0 468 -108.667 468 -326v-724c-134.667 -84 -202 -160 -202 -228
c0 -45.333 28.333 -68 85 -68s102.334 6.66699 137.001 20v-130c-40.667 -13.333 -90.334 -20 -149.001 -20c-154 0 -231 57.667 -231 173c0 87.333 64 171.666 192 252.999z" />
    <glyph glyph-name="Cacute" unicode="&#x106;" horiz-adv-x="1385" 
d="M1250 50c-123.333 -40 -256.666 -60 -399.999 -60c-500 0 -750 248.333 -750 745c0 470 250 705 750 705c143.333 0 276.666 -20 399.999 -60v-160c-123.333 46.667 -250 70 -380 70c-390 0 -585 -185 -585 -555c0 -396.667 195 -595 585 -595
c130 0 256.667 23.333 380 70v-160zM705 1810h239l-239 -239h-164z" />
    <glyph glyph-name="cacute" unicode="&#x107;" horiz-adv-x="1025" 
d="M940 30c-86.667 -20 -180 -30 -280 -30c-373.333 0 -560 181.667 -560 545c0 336.667 186.667 505 560 505c100 0 193.333 -10 280 -30v-150c-86.667 20 -183.334 30 -290.001 30c-243.333 0 -365 -118.333 -365 -355c0 -263.333 121.667 -395 365 -395
c106.667 0 203.334 10 290.001 30v-150zM555 1430h239l-239 -239h-164z" />
    <glyph glyph-name="Ccircumflex" unicode="&#x108;" horiz-adv-x="1385" 
d="M1250 50c-123.333 -40 -256.666 -60 -399.999 -60c-500 0 -750 248.333 -750 745c0 470 250 705 750 705c143.333 0 276.666 -20 399.999 -60v-160c-123.333 46.667 -250 70 -380 70c-390 0 -585 -185 -585 -555c0 -396.667 195 -595 585 -595
c130 0 256.667 23.333 380 70v-160zM730 1810h150l175 -260h-150l-100 160l-100 -160h-150z" />
    <glyph glyph-name="ccircumflex" unicode="&#x109;" horiz-adv-x="1025" 
d="M940 30c-86.667 -20 -180 -30 -280 -30c-373.333 0 -560 181.667 -560 545c0 336.667 186.667 505 560 505c100 0 193.333 -10 280 -30v-150c-86.667 20 -183.334 30 -290.001 30c-243.333 0 -365 -118.333 -365 -355c0 -263.333 121.667 -395 365 -395
c106.667 0 203.334 10 290.001 30v-150zM540 1430h150l175 -260h-150l-100 160l-100 -160h-150z" />
    <glyph glyph-name="Cdotaccent" unicode="&#x10a;" horiz-adv-x="1385" 
d="M1250 50c-123.333 -40 -256.666 -60 -399.999 -60c-500 0 -750 248.333 -750 745c0 470 250 705 750 705c143.333 0 276.666 -20 399.999 -60v-160c-123.333 46.667 -250 70 -380 70c-390 0 -585 -185 -585 -555c0 -396.667 195 -595 585 -595
c130 0 256.667 23.333 380 70v-160zM938 1810v-190h-205v190h205z" />
    <glyph glyph-name="cdotaccent" unicode="&#x10b;" horiz-adv-x="1025" 
d="M940 30c-86.667 -20 -180 -30 -280 -30c-373.333 0 -560 181.667 -560 545c0 336.667 186.667 505 560 505c100 0 193.333 -10 280 -30v-150c-86.667 20 -183.334 30 -290.001 30c-243.333 0 -365 -118.333 -365 -355c0 -263.333 121.667 -395 365 -395
c106.667 0 203.334 10 290.001 30v-150zM748 1430v-190h-205v190h205z" />
    <glyph glyph-name="Ccaron" unicode="&#x10c;" horiz-adv-x="1385" 
d="M1250 50c-123.333 -40 -256.666 -60 -399.999 -60c-500 0 -750 248.333 -750 745c0 470 250 705 750 705c143.333 0 276.666 -20 399.999 -60v-160c-123.333 46.667 -250 70 -380 70c-390 0 -585 -185 -585 -555c0 -396.667 195 -595 585 -595
c130 0 256.667 23.333 380 70v-160zM516 1810h150l100 -160l100 160h150l-175 -260h-150z" />
    <glyph glyph-name="ccaron" unicode="&#x10d;" horiz-adv-x="1025" 
d="M940 30c-86.667 -20 -180 -30 -280 -30c-373.333 0 -560 181.667 -560 545c0 336.667 186.667 505 560 505c100 0 193.333 -10 280 -30v-150c-86.667 20 -183.334 30 -290.001 30c-243.333 0 -365 -118.333 -365 -355c0 -263.333 121.667 -395 365 -395
c106.667 0 203.334 10 290.001 30v-150zM338 1430h150l100 -160l100 160h150l-175 -260h-150z" />
    <glyph glyph-name="Dcaron" unicode="&#x10e;" horiz-adv-x="1500" 
d="M690 150c350 0 525 201.333 525 604c0 350.667 -175 526 -525 526h-335v-1130h335zM170 0v1430h520c473.333 0 710 -225.333 710 -676c0 -502.667 -236.667 -754 -710 -754h-520zM475 1810h150l100 -160l100 160h150l-175 -260h-150z" />
    <glyph glyph-name="dcaron" unicode="&#x10f;" horiz-adv-x="1190" 
d="M855 836c-74.667 36 -160 54 -256 54c-211.333 0 -317 -112.333 -317 -337c0 -266 105.667 -399 317 -399c96 0 181.333 13 256 39v643zM1040 63c-127.333 -42 -284.334 -63 -471.001 -63c-312.667 0 -469 182 -469 546c0 336 166 504 498 504
c90.667 0 176.334 -16.667 257.001 -50v430h185v-1367zM1475 1430l-150 -435h-185l150 435h185z" />
    <glyph glyph-name="Dcroat" unicode="&#x110;" horiz-adv-x="1500" 
d="M150 800v630h520c473.333 0 710 -225.333 710 -676c0 -502.667 -236.667 -754 -710 -754h-520v650h-200v150h200zM335 800h365v-150h-365v-500h335c350 0 525 201.333 525 604c0 350.667 -175 526 -525 526h-335v-480z" />
    <glyph glyph-name="dcroat" unicode="&#x111;" horiz-adv-x="1190" 
d="M855 836c-74.667 36 -160 54 -256 54c-211.333 0 -317 -112.333 -317 -337c0 -266 105.667 -399 317 -399c96 0 181.333 13 256 39v643zM1040 63c-127.333 -42 -284.334 -63 -471.001 -63c-312.667 0 -469 182 -469 546c0 336 166 504 498 504
c90.667 0 176.334 -16.667 257.001 -50v140h-735v150h735v140h185v-1367z" />
    <glyph glyph-name="Emacron" unicode="&#x112;" horiz-adv-x="1230" 
d="M1105 1430v-150h-750v-480h715v-150h-715v-500h765v-150h-950v1430h935zM895 1810v-150h-500v150h500z" />
    <glyph glyph-name="emacron" unicode="&#x113;" horiz-adv-x="1130" 
d="M583 1050c298.667 0 448.001 -147.667 448.001 -443c0 -42 -3 -87 -9 -135h-737c0 -214.667 125.333 -322 376 -322c119.333 0 225.333 13.333 318 40v-150c-92.667 -26.667 -205.334 -40 -338.001 -40c-360.667 0 -541 179 -541 537c0 342 161 513 483 513zM285.001 626
h568c-4 184 -94 276 -270 276c-186.667 0 -286 -92 -298 -276zM816.001 1430v-150h-500v150h500z" />
    <glyph glyph-name="Ebreve" unicode="&#x114;" horiz-adv-x="1230" 
d="M1105 1430v-150h-750v-480h715v-150h-715v-500h765v-150h-950v1430h935zM380 1810h135c0 -100 43.333 -150 130 -150s130 50 130 150h135c0 -173.333 -88.333 -260 -265 -260s-265 86.667 -265 260z" />
    <glyph glyph-name="ebreve" unicode="&#x115;" horiz-adv-x="1130" 
d="M583 1050c298.667 0 448.001 -147.667 448.001 -443c0 -42 -3 -87 -9 -135h-737c0 -214.667 125.333 -322 376 -322c119.333 0 225.333 13.333 318 40v-150c-92.667 -26.667 -205.334 -40 -338.001 -40c-360.667 0 -541 179 -541 537c0 342 161 513 483 513zM285.001 626
h568c-4 184 -94 276 -270 276c-186.667 0 -286 -92 -298 -276zM301.001 1430h135c0 -100 43.333 -150 130 -150s130 50 130 150h135c0 -173.333 -88.333 -260 -265 -260s-265 86.667 -265 260z" />
    <glyph glyph-name="Edotaccent" unicode="&#x116;" horiz-adv-x="1230" 
d="M1105 1430v-150h-750v-480h715v-150h-715v-500h765v-150h-950v1430h935zM748 1810v-190h-205v190h205z" />
    <glyph glyph-name="edotaccent" unicode="&#x117;" horiz-adv-x="1130" 
d="M583 1050c298.667 0 448.001 -147.667 448.001 -443c0 -42 -3 -87 -9 -135h-737c0 -214.667 125.333 -322 376 -322c119.333 0 225.333 13.333 318 40v-150c-92.667 -26.667 -205.334 -40 -338.001 -40c-360.667 0 -541 179 -541 537c0 342 161 513 483 513zM285.001 626
h568c-4 184 -94 276 -270 276c-186.667 0 -286 -92 -298 -276zM688.001 1430v-190h-205v190h205z" />
    <glyph glyph-name="Eogonek" unicode="&#x118;" horiz-adv-x="1230" 
d="M925 0l-755 0.000976562v1430h935v-150h-750v-480h715v-150h-715v-500h765v-150c-134.667 -84 -202 -160 -202 -228c0 -45.333 28.333 -68 85 -68s102.334 6.66699 137.001 20v-130c-40.667 -13.333 -90.334 -20 -149.001 -20c-154 0 -231 57.667 -231 173
c0 87.333 55 171.666 165 252.999z" />
    <glyph glyph-name="eogonek" unicode="&#x119;" horiz-adv-x="1130" 
d="M285 626h568c-4 184 -97.333 276 -280 276c-180 0 -276 -92 -288 -276zM774 14c-42 -9.33301 -86.333 -14.001 -133 -14.001c-360.667 0 -541 179 -541 537c0 342 157.667 513 473 513c305.333 0 458 -148.333 458 -445c0 -41.333 -3 -85.666 -9 -132.999h-737
c0 -214.667 125.333 -322 376 -322c119.333 0 225.333 13.333 318 40v-150c-134.667 -110.667 -202 -200 -202 -268c0 -45.333 28.333 -68 85 -68s102.334 6.66699 137.001 20v-130c-40.667 -13.333 -90.334 -20 -149.001 -20c-154 0 -231 57.667 -231 173
c0 82 51.667 171 155 267z" />
    <glyph glyph-name="Ecaron" unicode="&#x11a;" horiz-adv-x="1230" 
d="M1105 1430v-150h-750v-480h715v-150h-715v-500h765v-150h-950v1430h935zM395 1810h150l100 -160l100 160h150l-175 -260h-150z" />
    <glyph glyph-name="ecaron" unicode="&#x11b;" horiz-adv-x="1130" 
d="M583 1050c298.667 0 448.001 -147.667 448.001 -443c0 -42 -3 -87 -9 -135h-737c0 -214.667 125.333 -322 376 -322c119.333 0 225.333 13.333 318 40v-150c-92.667 -26.667 -205.334 -40 -338.001 -40c-360.667 0 -541 179 -541 537c0 342 161 513 483 513zM285.001 626
h568c-4 184 -94 276 -270 276c-186.667 0 -286 -92 -298 -276zM335.001 1430h150l100 -160l100 160h150l-175 -260h-150z" />
    <glyph glyph-name="Gcircumflex" unicode="&#x11c;" horiz-adv-x="1385" 
d="M1250 56c-115.333 -44 -239.666 -66 -372.999 -66c-518 0 -777 248.333 -777 745c0 470 250 705 750 705c143.333 0 276.666 -20 399.999 -60v-160c-123.333 46.667 -250 70 -380 70c-390 0 -585 -185 -585 -555c0 -396.667 192 -595 576 -595c61.333 0 129.333 8 204 24
v486h185v-594zM710 1810h150l175 -260h-150l-100 160l-100 -160h-150z" />
    <glyph glyph-name="gcircumflex" unicode="&#x11d;" horiz-adv-x="1187" 
d="M852 872c-63.333 16 -141.667 24 -235 24c-223.333 0 -335 -121 -335 -363c0 -248.667 105.667 -373 317 -373c96 0 180.333 18 253 54v658zM1037 0c0 -253.333 -160.999 -380 -482.999 -380c-129.333 0 -244 16.667 -344 50v150c102 -33.333 217.333 -50 346 -50
c197.333 0 296 76.667 296 230v50c-78.667 -33.333 -163.334 -50 -254.001 -50c-332 0 -498 177 -498 531c0 346 175 519 525 519c142 0 279.333 -14.333 412 -43v-1007zM544 1430h150l175 -260h-150l-100 160l-100 -160h-150z" />
    <glyph glyph-name="Gbreve" unicode="&#x11e;" horiz-adv-x="1385" 
d="M1250 56c-115.333 -44 -239.666 -66 -372.999 -66c-518 0 -777 248.333 -777 745c0 470 250 705 750 705c143.333 0 276.666 -20 399.999 -60v-160c-123.333 46.667 -250 70 -380 70c-390 0 -585 -185 -585 -555c0 -396.667 192 -595 576 -595c61.333 0 129.333 8 204 24
v486h185v-594zM520 1810h135c0 -100 43.333 -150 130 -150s130 50 130 150h135c0 -173.333 -88.333 -260 -265 -260s-265 86.667 -265 260z" />
    <glyph glyph-name="gbreve" unicode="&#x11f;" horiz-adv-x="1187" 
d="M852 872c-63.333 16 -141.667 24 -235 24c-223.333 0 -335 -121 -335 -363c0 -248.667 105.667 -373 317 -373c96 0 180.333 18 253 54v658zM1037 0c0 -253.333 -160.999 -380 -482.999 -380c-129.333 0 -244 16.667 -344 50v150c102 -33.333 217.333 -50 346 -50
c197.333 0 296 76.667 296 230v50c-78.667 -33.333 -163.334 -50 -254.001 -50c-332 0 -498 177 -498 531c0 346 175 519 525 519c142 0 279.333 -14.333 412 -43v-1007zM344 1430h135c0 -100 43.333 -150 130 -150s130 50 130 150h135c0 -173.333 -88.333 -260 -265 -260
s-265 86.667 -265 260z" />
    <glyph glyph-name="Gdotaccent" unicode="&#x120;" horiz-adv-x="1385" 
d="M1250 56c-115.333 -44 -239.666 -66 -372.999 -66c-518 0 -777 248.333 -777 745c0 470 250 705 750 705c143.333 0 276.666 -20 399.999 -60v-160c-123.333 46.667 -250 70 -380 70c-390 0 -585 -185 -585 -555c0 -396.667 192 -595 576 -595c61.333 0 129.333 8 204 24
v486h185v-594zM938 1810v-190h-205v190h205z" />
    <glyph glyph-name="gdotaccent" unicode="&#x121;" horiz-adv-x="1187" 
d="M852 872c-63.333 16 -141.667 24 -235 24c-223.333 0 -335 -121 -335 -363c0 -248.667 105.667 -373 317 -373c96 0 180.333 18 253 54v658zM1037 0c0 -253.333 -160.999 -380 -482.999 -380c-129.333 0 -244 16.667 -344 50v150c102 -33.333 217.333 -50 346 -50
c197.333 0 296 76.667 296 230v50c-78.667 -33.333 -163.334 -50 -254.001 -50c-332 0 -498 177 -498 531c0 346 175 519 525 519c142 0 279.333 -14.333 412 -43v-1007zM731 1430v-190h-205v190h205z" />
    <glyph glyph-name="Gcommaaccent" unicode="&#x122;" horiz-adv-x="1385" 
d="M1250 56c-115.333 -44 -239.666 -66 -372.999 -66c-518 0 -777 248.333 -777 745c0 470 250 705 750 705c143.333 0 276.666 -20 399.999 -60v-160c-123.333 46.667 -250 70 -380 70c-390 0 -585 -185 -585 -555c0 -396.667 192 -595 576 -595c61.333 0 129.333 8 204 24
v486h185v-594zM843 -100l-150 -280h-185l150 280h185z" />
    <glyph glyph-name="gcommaaccent" unicode="&#x123;" horiz-adv-x="1187" 
d="M852 872c-63.333 16 -141.667 24 -235 24c-223.333 0 -335 -121 -335 -363c0 -248.667 105.667 -373 317 -373c96 0 180.333 18 253 54v658zM1037 0c0 -253.333 -160.999 -380 -482.999 -380c-129.333 0 -244 16.667 -344 50v150c102 -33.333 217.333 -50 346 -50
c197.333 0 296 76.667 296 230v50c-78.667 -33.333 -163.334 -50 -254.001 -50c-332 0 -498 177 -498 531c0 346 175 519 525 519c142 0 279.333 -14.333 412 -43v-1007zM807 1430l-150 -280h-185l150 280h185z" />
    <glyph glyph-name="Hcircumflex" unicode="&#x124;" horiz-adv-x="1555" 
d="M170 0v1430h185v-630h845v630h185v-1430h-185v650h-845v-650h-185zM703 1810h150l175 -260h-150l-100 160l-100 -160h-150z" />
    <glyph glyph-name="hcircumflex" unicode="&#x125;" 
d="M150 0v1430h185v-494c89.333 76 198.333 114 327 114c262 0 393 -130.333 393 -391v-659h-185v662c0 156 -77.667 234 -233 234c-106 0 -206.667 -44.333 -302 -133v-763h-185zM178 1835h150l175 -260h-150l-100 160l-100 -160h-150z" />
    <glyph glyph-name="Hbar" unicode="&#x126;" horiz-adv-x="1555" 
d="M1200 1200v230h185v-1430h-185v650h-845v-650h-185v1430h185v-230h845zM355 1050v-250h845v250h-845z" />
    <glyph glyph-name="hbar" unicode="&#x127;" 
d="M335 1140v-204c89.333 76 198.333 114 327 114c262 0 393 -130.333 393 -391v-659h-185v662c0 156 -77.667 234 -233 234c-106 0 -206.667 -44.333 -302 -133v-763h-185v1430h185v-140h720v-150h-720z" />
    <glyph glyph-name="Itilde" unicode="&#x128;" horiz-adv-x="585" 
d="M386 1430v-1430h-185v1430h185zM43 1764c40 30.667 83.333 46 130 46c34.667 0 71.334 -8.66699 110.001 -26s76.667 -26 114 -26c50 0 98.667 15.333 146 46v-150c-40 -30.667 -83.333 -46 -130 -46c-34.667 0 -71.334 8.66699 -110.001 26s-76.667 26 -114 26
c-50 0 -98.667 -15.333 -146 -46v150z" />
    <glyph glyph-name="itilde" unicode="&#x129;" horiz-adv-x="525" 
d="M356 1050v-1050h-185v1050h185zM13 1384c40 30.667 83.333 46 130 46c34.667 0 71.334 -8.66699 110.001 -26s76.667 -26 114 -26c50 0 98.667 15.333 146 46v-150c-40 -30.667 -83.333 -46 -130 -46c-34.667 0 -71.334 8.66699 -110.001 26s-76.667 26 -114 26
c-50 0 -98.667 -15.333 -146 -46v150z" />
    <glyph glyph-name="Imacron" unicode="&#x12a;" horiz-adv-x="585" 
d="M386 1430v-1430h-185v1430h185zM543 1810v-150h-500v150h500z" />
    <glyph glyph-name="imacron" unicode="&#x12b;" horiz-adv-x="525" 
d="M356 1050v-1050h-185v1050h185zM513 1430v-150h-500v150h500z" />
    <glyph glyph-name="Ibreve" unicode="&#x12c;" horiz-adv-x="585" 
d="M386 1430v-1430h-185v1430h185zM28 1810h135c0 -100 43.333 -150 130 -150s130 50 130 150h135c0 -173.333 -88.333 -260 -265 -260s-265 86.667 -265 260z" />
    <glyph glyph-name="ibreve" unicode="&#x12d;" horiz-adv-x="525" 
d="M356 1050v-1050h-185v1050h185zM-2 1430h135c0 -100 43.333 -150 130 -150s130 50 130 150h135c0 -173.333 -88.333 -260 -265 -260s-265 86.667 -265 260z" />
    <glyph glyph-name="Iogonek" unicode="&#x12e;" horiz-adv-x="585" 
d="M200 0v1430h185v-1430c-128 -84 -192 -160 -192 -228c0 -45.333 28.333 -68 85 -68s102.334 6.66699 137.001 20v-130c-40.667 -13.333 -90.334 -20 -149.001 -20c-154 0 -231 57.667 -231 173c0 87.333 55 171.666 165 252.999z" />
    <glyph glyph-name="iogonek" unicode="&#x12f;" horiz-adv-x="525" 
d="M355 1430v-175h-185v175h185zM170 0v1050h185v-1050c-128 -84 -192 -160 -192 -228c0 -45.333 28.333 -68 85 -68s102.334 6.66699 137.001 20v-130c-40.667 -13.333 -90.334 -20 -149.001 -20c-154 0 -231 57.667 -231 173c0 87.333 55 171.666 165 252.999z" />
    <glyph glyph-name="Idotaccent" unicode="&#x130;" horiz-adv-x="585" 
d="M385 1430v-1430h-185v1430h185zM395 1810v-190h-205v190h205z" />
    <glyph glyph-name="dotlessi" unicode="&#x131;" horiz-adv-x="525" 
d="M355 1050v-1050h-185v1050h185z" />
    <glyph glyph-name="IJ" unicode="&#x132;" horiz-adv-x="1245" 
d="M385 1430v-1430h-185v1430h185zM1095 1430v-1018c0 -274.667 -161.667 -412 -485 -412v150c200 0 300 87.333 300 262v1018h185z" />
    <glyph glyph-name="ij" unicode="&#x133;" horiz-adv-x="1050" 
d="M355 1050v-1050h-185v1050h185zM355 1430v-175h-185v175h185zM880 1050v-970c0 -212 -51.667 -371.333 -155 -478l-155 105c83.333 90 125 214.333 125 373v970h185zM880 1430v-175h-185v175h185z" />
    <glyph glyph-name="Jcircumflex" unicode="&#x134;" horiz-adv-x="690" 
d="M510 1430v-1018c0 -274.667 -161.667 -412 -485 -412v150c200 0 300 87.333 300 262v1018h185zM343 1810h150l175 -260h-150l-100 160l-100 -160h-150z" />
    <glyph glyph-name="jcircumflex" unicode="&#x135;" horiz-adv-x="525" 
d="M355 1050v-970c0 -212 -51.667 -371.333 -155 -478l-155 105c83.333 90 125 214.333 125 373v970h185zM185 1430h150l175 -260h-150l-100 160l-100 -160h-150z" />
    <glyph glyph-name="Kcommaaccent" unicode="&#x136;" horiz-adv-x="1400" 
d="M355 1430v-1430h-185v1430h185zM1361 1430l-644 -675l658 -755h-257l-583 688v112l592 630h234zM840 -100l-150 -280h-185l150 280h185z" />
    <glyph glyph-name="kcommaaccent" unicode="&#x137;" horiz-adv-x="1181" 
d="M150 0l-0.000976562 1430h185v-462c102 54.667 219.667 82 353 82c261.333 0 392 -101 392 -303c0 -146.667 -100 -248 -300 -304l336 -443h-234l-334 445v83c231.333 20.667 347 94 347 220c0 101.333 -73.333 152 -220 152c-115.333 0 -228.666 -31.333 -339.999 -94
v-806h-185zM700.999 -100l-150 -280h-185l150 280h185z" />
    <glyph glyph-name="kgreenlandic" unicode="&#x138;" horiz-adv-x="1082" 
d="M1076 1050l-456 -489l462 -561h-237l-394 505v103l397 442h228zM150 0v1050h185v-1050h-185z" />
    <glyph glyph-name="Lacute" unicode="&#x139;" horiz-adv-x="1153" 
d="M355 1430v-1280h748v-150h-933v1430h185zM336 1810h239l-239 -239h-164z" />
    <glyph glyph-name="lacute" unicode="&#x13a;" horiz-adv-x="505" 
d="M345 1430v-1430h-185v1430h185zM215 1835h239l-239 -239h-164z" />
    <glyph glyph-name="Lcommaaccent" unicode="&#x13b;" horiz-adv-x="1153" 
d="M355 1430v-1280h748v-150h-933v1430h185zM754 -100l-150 -280h-185l150 280h185z" />
    <glyph glyph-name="lcommaaccent" unicode="&#x13c;" horiz-adv-x="505" 
d="M345 1430v-1430h-185v1430h185zM340 -100l-150 -280h-185l150 280h185z" />
    <glyph glyph-name="Lcaron" unicode="&#x13d;" horiz-adv-x="1153" 
d="M355 1430v-1280h748v-150h-933v1430h185zM880 1430l-150 -435h-185l150 435h185z" />
    <glyph glyph-name="lcaron" unicode="&#x13e;" horiz-adv-x="505" 
d="M345 1430v-1430h-185v1430h185zM780 1430l-150 -435h-185l150 435h185z" />
    <glyph glyph-name="Ldot" unicode="&#x13f;" horiz-adv-x="1153" 
d="M355 1430v-1280h748v-150h-933v1430h185zM578 715c0 83.333 41.667 125 125 125s125 -41.667 125 -125s-41.667 -125 -125 -125s-125 41.667 -125 125z" />
    <glyph glyph-name="ldot" unicode="&#x140;" horiz-adv-x="505" 
d="M345 1430v-1430h-185v1430h185zM485 585c0 83.333 41.667 125 125 125s125 -41.667 125 -125s-41.667 -125 -125 -125s-125 41.667 -125 125z" />
    <glyph glyph-name="Lslash" unicode="&#x141;" horiz-adv-x="1133" 
d="M150 712v718h185v-582l323 238v-180l-323 -238v-518h748v-150h-933v532l-150 -110v180z" />
    <glyph glyph-name="lslash" unicode="&#x142;" horiz-adv-x="505" 
d="M160 713v717h185v-579l150 111v-180l-150 -111v-671h-185v533l-150 -111v180z" />
    <glyph glyph-name="Nacute" unicode="&#x143;" horiz-adv-x="1575" 
d="M170 0v1430h185l875 -1152v1152h175v-1430h-185l-875 1162v-1162h-175zM817 1810h239l-239 -239h-164z" />
    <glyph glyph-name="nacute" unicode="&#x144;" 
d="M150 0v1050h125l33 -134c107.333 89.333 225.333 134 354 134c262 0 393 -130.333 393 -391v-659h-185v662c0 156 -77.667 234 -233 234c-106 0 -206.667 -44.333 -302 -133v-763h-185zM632 1430h239l-239 -239h-164z" />
    <glyph glyph-name="Ncommaaccent" unicode="&#x145;" horiz-adv-x="1575" 
d="M170 0v1430h185l875 -1152v1152h175v-1430h-185l-875 1162v-1162h-175zM905 -100l-150 -280h-185l150 280h185z" />
    <glyph glyph-name="ncommaaccent" unicode="&#x146;" 
d="M150 0v1050h125l33 -134c107.333 89.333 225.333 134 354 134c262 0 393 -130.333 393 -391v-659h-185v662c0 156 -77.667 234 -233 234c-106 0 -206.667 -44.333 -302 -133v-763h-185zM720 -100l-150 -280h-185l150 280h185z" />
    <glyph glyph-name="Ncaron" unicode="&#x147;" horiz-adv-x="1575" 
d="M170 0v1430h185l875 -1152v1152h175v-1430h-185l-875 1162v-1162h-175zM538 1810h150l100 -160l100 160h150l-175 -260h-150z" />
    <glyph glyph-name="ncaron" unicode="&#x148;" 
d="M150 0v1050h125l33 -134c107.333 89.333 225.333 134 354 134c262 0 393 -130.333 393 -391v-659h-185v662c0 156 -77.667 234 -233 234c-106 0 -206.667 -44.333 -302 -133v-763h-185zM353 1430h150l100 -160l100 160h150l-175 -260h-150z" />
    <glyph glyph-name="napostrophe" unicode="&#x149;" horiz-adv-x="1305" 
d="M250 0v1050h125l33 -134c107.333 89.333 225.333 134 354 134c262 0 393 -130.333 393 -391v-659h-185v662c0 156 -77.667 234 -233 234c-106 0 -206.667 -44.333 -302 -133v-763h-185zM185 1430l-150 -435h-185l150 435h185z" />
    <glyph glyph-name="Eng" unicode="&#x14a;" horiz-adv-x="1575" 
d="M1217 4l-872 1158v-1162h-175v1430h185l875 -1152v1152h175v-1350c0 -212 -51.667 -371.333 -155 -478l-155 105c69.333 75.333 110 174.333 122 297z" />
    <glyph glyph-name="eng" unicode="&#x14b;" 
d="M870 662c0 156 -77.667 234 -233 234c-106 0 -206.667 -44.333 -302 -133v-763h-185v1050h125l33 -134c107.333 89.333 225.333 134 354 134c262 0 393 -130.333 393 -391v-579c0 -212 -51.667 -371.333 -155 -478l-155 105c83.333 90 125 214.333 125 373v582z" />
    <glyph glyph-name="Omacron" unicode="&#x14c;" horiz-adv-x="1665" 
d="M838 140c341.333 0 512 193 512 579c0 380.667 -170.667 571 -512 571c-348.667 0 -523 -190.333 -523 -571c0 -386 174.333 -579 523 -579zM120 713c0 484.667 239.333 727 718 727c471.333 0 707 -242.333 707 -727c0 -482 -235.667 -723 -707 -723
c-478.667 0 -718 241 -718 723zM1083 1810v-150h-500v150h500z" />
    <glyph glyph-name="omacron" unicode="&#x14d;" horiz-adv-x="1200" 
d="M600 150c210 0 315 126.333 315 379c0 247.333 -105 371 -315 371s-315 -123.667 -315 -371c0 -252.667 105 -379 315 -379zM100 525c0 350 166.667 525 500 525s500 -175 500 -525c0 -349.333 -166.667 -524 -500 -524c-332 0 -498.667 174.667 -500 524zM850 1430v-150
h-500v150h500z" />
    <glyph glyph-name="Obreve" unicode="&#x14e;" horiz-adv-x="1665" 
d="M838 140c341.333 0 512 193 512 579c0 380.667 -170.667 571 -512 571c-348.667 0 -523 -190.333 -523 -571c0 -386 174.333 -579 523 -579zM120 713c0 484.667 239.333 727 718 727c471.333 0 707 -242.333 707 -727c0 -482 -235.667 -723 -707 -723
c-478.667 0 -718 241 -718 723zM568 1810h135c0 -100 43.333 -150 130 -150s130 50 130 150h135c0 -173.333 -88.333 -260 -265 -260s-265 86.667 -265 260z" />
    <glyph glyph-name="obreve" unicode="&#x14f;" horiz-adv-x="1200" 
d="M600 150c210 0 315 126.333 315 379c0 247.333 -105 371 -315 371s-315 -123.667 -315 -371c0 -252.667 105 -379 315 -379zM100 525c0 350 166.667 525 500 525s500 -175 500 -525c0 -349.333 -166.667 -524 -500 -524c-332 0 -498.667 174.667 -500 524zM335 1430h135
c0 -100 43.333 -150 130 -150s130 50 130 150h135c0 -173.333 -88.333 -260 -265 -260s-265 86.667 -265 260z" />
    <glyph glyph-name="Ohungarumlaut" unicode="&#x150;" horiz-adv-x="1665" 
d="M838 140c341.333 0 512 193 512 579c0 380.667 -170.667 571 -512 571c-348.667 0 -523 -190.333 -523 -571c0 -386 174.333 -579 523 -579zM120 713c0 484.667 239.333 727 718 727c471.333 0 707 -242.333 707 -727c0 -482 -235.667 -723 -707 -723
c-478.667 0 -718 241 -718 723zM667 1810h239l-239 -239h-164zM1043 1810h239l-239 -239h-164z" />
    <glyph glyph-name="ohungarumlaut" unicode="&#x151;" horiz-adv-x="1200" 
d="M600 150c210 0 315 126.333 315 379c0 247.333 -105 371 -315 371s-315 -123.667 -315 -371c0 -252.667 105 -379 315 -379zM100 525c0 350 166.667 525 500 525s500 -175 500 -525c0 -349.333 -166.667 -524 -500 -524c-332 0 -498.667 174.667 -500 524zM435 1430h239
l-239 -239h-164zM811 1430h239l-239 -239h-164z" />
    <glyph glyph-name="OE" unicode="&#x152;" horiz-adv-x="2215" 
d="M818 150c341.333 0 512 189.667 512 569c0 374 -170.667 561 -512 561c-348.667 0 -523 -187 -523 -561c0 -379.333 174.333 -569 523 -569zM100 713c0 478 239.333 717 718 717h1257v-150h-775c130 -98.667 205 -258.667 225 -480h515v-150h-515
c-20 -238 -95 -404.667 -225 -500h790v-150h-1272c-478.667 0 -718 237.667 -718 713z" />
    <glyph glyph-name="oe" unicode="&#x153;" horiz-adv-x="1949" 
d="M600 150c210 0 315 126.333 315 379c0 247.333 -105 371 -315 371s-315 -123.667 -315 -371c0 -252.667 105 -379 315 -379zM1104 626h568c-4 184 -94 276 -270 276c-186.667 0 -286 -92 -298 -276zM1013 210c-80.667 -139.333 -218.333 -209 -413 -209
c-332 0 -498.667 174.667 -500 524c0 350 166.667 525 500 525c189.333 0 325 -66.333 407 -199c78.667 132.667 210.334 199 395.001 199c298.667 0 448 -147.667 448 -443c0 -42 -3 -87 -9 -135h-737c0 -214.667 125.333 -322 376 -322c119.333 0 225.333 13.333 318 40
v-150c-92.667 -26.667 -205.334 -40 -338.001 -40c-211.333 0 -360.333 70 -447 210z" />
    <glyph glyph-name="Racute" unicode="&#x154;" horiz-adv-x="1305" 
d="M170 0v1430h610c272 0 408 -114.333 408 -343c0 -186 -133 -323.667 -399 -413l491 -674h-244l-455 643v121c273.333 43.333 410 148.333 410 315c0 132 -76 198 -228 198h-408v-1277h-185zM655 1810h239l-239 -239h-164z" />
    <glyph glyph-name="racute" unicode="&#x155;" horiz-adv-x="675" 
d="M150 0v1050h125l33 -134c92 89.333 202.667 134 332 134v-154c-125.333 0 -227 -44.333 -305 -133v-763h-185zM425 1430h239l-239 -239h-164z" />
    <glyph glyph-name="Rcommaaccent" unicode="&#x156;" horiz-adv-x="1305" 
d="M170 0v1430h610c272 0 408 -114.333 408 -343c0 -186 -133 -323.667 -399 -413l491 -674h-244l-455 643v121c273.333 43.333 410 148.333 410 315c0 132 -76 198 -228 198h-408v-1277h-185zM803 -100l-150 -280h-185l150 280h185z" />
    <glyph glyph-name="rcommaaccent" unicode="&#x157;" horiz-adv-x="675" 
d="M150 0v1050h125l33 -134c92 89.333 202.667 134 332 134v-154c-125.333 0 -227 -44.333 -305 -133v-763h-185zM333 -100l-150 -280h-185l150 280h185z" />
    <glyph glyph-name="Rcaron" unicode="&#x158;" horiz-adv-x="1305" 
d="M170 0v1430h610c272 0 408 -114.333 408 -343c0 -186 -133 -323.667 -399 -413l491 -674h-244l-455 643v121c273.333 43.333 410 148.333 410 315c0 132 -76 198 -228 198h-408v-1277h-185zM365 1810h150l100 -160l100 160h150l-175 -260h-150z" />
    <glyph glyph-name="rcaron" unicode="&#x159;" horiz-adv-x="675" 
d="M150 0v1050h125l33 -134c92 89.333 202.667 134 332 134v-154c-125.333 0 -227 -44.333 -305 -133v-763h-185zM145 1430h150l100 -160l100 160h150l-175 -260h-150z" />
    <glyph glyph-name="Sacute" unicode="&#x15a;" horiz-adv-x="1290" 
d="M150 50v170c150 -53.333 312 -80 486 -80c246 0 369 90 369 270c0 153.333 -90.667 230 -272 230h-184c-299.333 0 -449 130 -449 390c0 273.333 191.667 410 575 410c166.667 0 321.667 -20 465 -60v-170c-143.333 53.333 -298.333 80 -465 80
c-260 0 -390 -86.667 -390 -260c0 -153.333 88 -230 264 -230h184c304.667 0 457 -130 457 -390c0 -280 -184.667 -420 -554 -420c-174 0 -336 20 -486 60zM675 1810h239l-239 -239h-164z" />
    <glyph glyph-name="sacute" unicode="&#x15b;" horiz-adv-x="1050" 
d="M140 50v160c123.333 -40 248 -60 374 -60c167.333 0 251 50 251 150c0 93.333 -58.333 140 -175 140h-150c-226.667 0 -340 103.333 -340 310c0 200 145.667 300 437 300c125.333 0 249.666 -16.667 372.999 -50v-160c-123.333 40 -247.666 60 -372.999 60
c-174.667 0 -262 -50 -262 -150c0 -93.333 55 -140 165 -140h150c240 0 360 -103.333 360 -310c0 -200 -145.333 -300 -436 -300c-126 0 -250.667 16.667 -374 50zM555 1430h239l-239 -239h-164z" />
    <glyph glyph-name="Scircumflex" unicode="&#x15c;" horiz-adv-x="1290" 
d="M150 50v170c150 -53.333 312 -80 486 -80c246 0 369 90 369 270c0 153.333 -90.667 230 -272 230h-184c-299.333 0 -449 130 -449 390c0 273.333 191.667 410 575 410c166.667 0 321.667 -20 465 -60v-170c-143.333 53.333 -298.333 80 -465 80
c-260 0 -390 -86.667 -390 -260c0 -153.333 88 -230 264 -230h184c304.667 0 457 -130 457 -390c0 -280 -184.667 -420 -554 -420c-174 0 -336 20 -486 60zM570 1810h150l175 -260h-150l-100 160l-100 -160h-150z" />
    <glyph glyph-name="scircumflex" unicode="&#x15d;" horiz-adv-x="1050" 
d="M140 50v160c123.333 -40 248 -60 374 -60c167.333 0 251 50 251 150c0 93.333 -58.333 140 -175 140h-150c-226.667 0 -340 103.333 -340 310c0 200 145.667 300 437 300c125.333 0 249.666 -16.667 372.999 -50v-160c-123.333 40 -247.666 60 -372.999 60
c-174.667 0 -262 -50 -262 -150c0 -93.333 55 -140 165 -140h150c240 0 360 -103.333 360 -310c0 -200 -145.333 -300 -436 -300c-126 0 -250.667 16.667 -374 50zM450 1430h150l175 -260h-150l-100 160l-100 -160h-150z" />
    <glyph glyph-name="Scedilla" unicode="&#x15e;" horiz-adv-x="1290" 
d="M495 -5c-121.333 7.33301 -236.333 25.667 -345 55v170c150 -53.333 312 -80 486 -80c246 0 369 90 369 270c0 153.333 -90.667 230 -272 230h-184c-299.333 0 -449 130 -449 390c0 273.333 191.667 410 575 410c166.667 0 321.667 -20 465 -60v-170
c-143.333 53.333 -298.333 80 -465 80c-260 0 -390 -86.667 -390 -260c0 -153.333 88 -230 264 -230h184c304.667 0 457 -130 457 -390c0 -280 -184.667 -420 -554 -420h-10l-36 -67c142.667 0 214 -57.333 214 -172c0 -115.333 -80.333 -173 -241 -173
c-72 0 -144 16.667 -216 50v108c72 -33.333 144 -50 216 -50s108 21.667 108 65c0 42.667 -27.667 64 -83 64h-183z" />
    <glyph glyph-name="scedilla" unicode="&#x15f;" horiz-adv-x="1050" 
d="M420 3c-94 6 -187.333 21.667 -280 47v160c123.333 -40 248 -60 374 -60c167.333 0 251 50 251 150c0 93.333 -58.333 140 -175 140h-150c-226.667 0 -340 103.333 -340 310c0 200 145.667 300 437 300c125.333 0 249.666 -16.667 372.999 -50v-160
c-123.333 40 -247.666 60 -372.999 60c-174.667 0 -262 -50 -262 -150c0 -93.333 55 -140 165 -140h150c240 0 360 -103.333 360 -310c0 -191.333 -133 -291 -399 -299l-41 -78c142.667 0 214 -57.333 214 -172c0 -115.333 -80.333 -173 -241 -173
c-72 0 -144 16.667 -216 50v108c72 -33.333 144 -50 216 -50s108 21.667 108 65c0 42.667 -27.667 64 -83 64h-183z" />
    <glyph glyph-name="Scaron" unicode="&#x160;" horiz-adv-x="1290" 
d="M150 50v170c150 -53.333 312 -80 486 -80c246 0 369 90 369 270c0 153.333 -90.667 230 -272 230h-184c-299.333 0 -449 130 -449 390c0 273.333 191.667 410 575 410c166.667 0 321.667 -20 465 -60v-170c-143.333 53.333 -298.333 80 -465 80
c-260 0 -390 -86.667 -390 -260c0 -153.333 88 -230 264 -230h184c304.667 0 457 -130 457 -390c0 -280 -184.667 -420 -554 -420c-174 0 -336 20 -486 60zM395 1810h150l100 -160l100 160h150l-175 -260h-150z" />
    <glyph glyph-name="scaron" unicode="&#x161;" horiz-adv-x="1050" 
d="M140 50v160c123.333 -40 248 -60 374 -60c167.333 0 251 50 251 150c0 93.333 -58.333 140 -175 140h-150c-226.667 0 -340 103.333 -340 310c0 200 145.667 300 437 300c125.333 0 249.666 -16.667 372.999 -50v-160c-123.333 40 -247.666 60 -372.999 60
c-174.667 0 -262 -50 -262 -150c0 -93.333 55 -140 165 -140h150c240 0 360 -103.333 360 -310c0 -200 -145.333 -300 -436 -300c-126 0 -250.667 16.667 -374 50zM275 1430h150l100 -160l100 160h150l-175 -260h-150z" />
    <glyph glyph-name="Tcommaaccent" unicode="&#x162;" horiz-adv-x="1185" 
d="M1135 1430v-150h-450v-1280h-185v1280h-450v150h1085zM678 -100l-150 -280h-185l150 280h185z" />
    <glyph glyph-name="Tcommaaccent" unicode="&#x21a;" horiz-adv-x="1185" 
d="M1135 1430v-150h-450v-1280h-185v1280h-450v150h1085zM678 -100l-150 -280h-185l150 280h185z" />
    <glyph glyph-name="tcommaaccent" unicode="&#x163;" horiz-adv-x="675" 
d="M150 1220h116l40 -170h284v-150h-255v-603c0 -98 42.333 -147 127 -147h128v-150h-176c-176 -0 -264 94.333 -264 283v937zM460 -100l-150 -280h-185l150 280h185z" />
    <glyph glyph-name="tcommaaccent" unicode="&#x21b;" horiz-adv-x="675" 
d="M150 1220h116l40 -170h284v-150h-255v-603c0 -98 42.333 -147 127 -147h128v-150h-176c-176 -0 -264 94.333 -264 283v937zM460 -100l-150 -280h-185l150 280h185z" />
    <glyph glyph-name="Tcaron" unicode="&#x164;" horiz-adv-x="1185" 
d="M1135 1430v-150h-450v-1280h-185v1280h-450v150h1085zM343 1810h150l100 -160l100 160h150l-175 -260h-150z" />
    <glyph glyph-name="tcaron" unicode="&#x165;" horiz-adv-x="675" 
d="M150 1220h116l40 -170h284v-150h-255v-603c0 -98 42.333 -147 127 -147h128v-150h-176c-176 -0 -264 94.333 -264 283v937zM975 1430l-150 -435h-185l150 435h185z" />
    <glyph glyph-name="Tbar" unicode="&#x166;" horiz-adv-x="1185" 
d="M500 790v490h-450v150h1085v-150h-450v-490h450v-150h-450v-640h-185v640h-450v150h450z" />
    <glyph glyph-name="tbar" unicode="&#x167;" horiz-adv-x="675" 
d="M150 633v587h116l40 -170h284v-150h-255v-267h255v-150h-255v-186c0 -98 42.333 -147 127 -147h128v-150h-176c-176 -0 -264 94.333 -264 283v200h-150v150h150z" />
    <glyph glyph-name="Utilde" unicode="&#x168;" horiz-adv-x="1510" 
d="M160 552v878h185v-878c0 -274.667 136.667 -412 410 -412s410 137.333 410 412v878h185v-878c0 -374.667 -198.333 -562 -595 -562s-595 187.333 -595 562zM505 1764c40 30.667 83.333 46 130 46c34.667 0 71.334 -8.66699 110.001 -26s76.667 -26 114 -26
c50 0 98.667 15.333 146 46v-150c-40 -30.667 -83.333 -46 -130 -46c-34.667 0 -71.334 8.66699 -110.001 26s-76.667 26 -114 26c-50 0 -98.667 -15.333 -146 -46v150z" />
    <glyph glyph-name="utilde" unicode="&#x169;" 
d="M1055 1050v-1050h-127l-32 134c-127.333 -89.333 -255.333 -134 -384 -134c-241.333 -0 -362 130.333 -362 391v659h185v-662c0 -156 77.333 -234 232 -234c106 0 207 44.333 303 133v763h185zM353 1384c40 30.667 83.333 46 130 46
c34.667 0 71.334 -8.66699 110.001 -26s76.667 -26 114 -26c50 0 98.667 15.333 146 46v-150c-40 -30.667 -83.333 -46 -130 -46c-34.667 0 -71.334 8.66699 -110.001 26s-76.667 26 -114 26c-50 0 -98.667 -15.333 -146 -46v150z" />
    <glyph glyph-name="Umacron" unicode="&#x16a;" horiz-adv-x="1510" 
d="M160 552v878h185v-878c0 -274.667 136.667 -412 410 -412s410 137.333 410 412v878h185v-878c0 -374.667 -198.333 -562 -595 -562s-595 187.333 -595 562zM1005 1810v-150h-500v150h500z" />
    <glyph glyph-name="umacron" unicode="&#x16b;" 
d="M1055 1050v-1050h-127l-32 134c-127.333 -89.333 -255.333 -134 -384 -134c-241.333 -0 -362 130.333 -362 391v659h185v-662c0 -156 77.333 -234 232 -234c106 0 207 44.333 303 133v763h185zM853 1430v-150h-500v150h500z" />
    <glyph glyph-name="Ubreve" unicode="&#x16c;" horiz-adv-x="1510" 
d="M160 552v878h185v-878c0 -274.667 136.667 -412 410 -412s410 137.333 410 412v878h185v-878c0 -374.667 -198.333 -562 -595 -562s-595 187.333 -595 562zM490 1810h135c0 -100 43.333 -150 130 -150s130 50 130 150h135c0 -173.333 -88.333 -260 -265 -260
s-265 86.667 -265 260z" />
    <glyph glyph-name="ubreve" unicode="&#x16d;" 
d="M1055 1050v-1050h-127l-32 134c-127.333 -89.333 -255.333 -134 -384 -134c-241.333 -0 -362 130.333 -362 391v659h185v-662c0 -156 77.333 -234 232 -234c106 0 207 44.333 303 133v763h185zM338 1430h135c0 -100 43.333 -150 130 -150s130 50 130 150h135
c0 -173.333 -88.333 -260 -265 -260s-265 86.667 -265 260z" />
    <glyph glyph-name="Uring" unicode="&#x16e;" horiz-adv-x="1510" 
d="M160 552v878h185v-878c0 -274.667 136.667 -412 410 -412s410 137.333 410 412v878h185v-878c0 -374.667 -198.333 -562 -595 -562s-595 187.333 -595 562zM757 1504c89.333 0 134 45.667 134 137c0 89.333 -44.667 134 -134 134c-92 0 -138 -44.667 -138 -134
c0 -91.333 46 -137 138 -137zM529 1639c0 140 76 210 228 210c149.333 0 224 -70 224 -210c0 -139.333 -74.667 -209 -224 -209c-152 0 -228 69.667 -228 209z" />
    <glyph glyph-name="uring" unicode="&#x16f;" 
d="M1055 1050v-1050h-127l-32 134c-127.333 -89.333 -255.333 -134 -384 -134c-241.333 -0 -362 130.333 -362 391v659h185v-662c0 -156 77.333 -234 232 -234c106 0 207 44.333 303 133v763h185zM605 1226c89.333 0 134 45.667 134 137c0 89.333 -44.667 134 -134 134
c-92 0 -138 -44.667 -138 -134c0 -91.333 46 -137 138 -137zM377 1361c0 140 76 210 228 210c149.333 0 224 -70 224 -210c0 -139.333 -74.667 -209 -224 -209c-152 0 -228 69.667 -228 209z" />
    <glyph glyph-name="Uhungarumlaut" unicode="&#x170;" horiz-adv-x="1510" 
d="M160 552v878h185v-878c0 -274.667 136.667 -412 410 -412s410 137.333 410 412v878h185v-878c0 -374.667 -198.333 -562 -595 -562s-595 187.333 -595 562zM580 1810h239l-239 -239h-164zM956 1810h239l-239 -239h-164z" />
    <glyph glyph-name="uhungarumlaut" unicode="&#x171;" 
d="M1055 1050v-1050h-127l-32 134c-127.333 -89.333 -255.333 -134 -384 -134c-241.333 -0 -362 130.333 -362 391v659h185v-662c0 -156 77.333 -234 232 -234c106 0 207 44.333 303 133v763h185zM427 1430h239l-239 -239h-164zM803 1430h239l-239 -239h-164z" />
    <glyph glyph-name="Uogonek" unicode="&#x172;" horiz-adv-x="1510" 
d="M705 -9c-363.333 15.333 -545 202.333 -545 561v878h185v-878c0 -274.667 136.667 -412 410 -412s410 137.333 410 412v878h185v-878c0 -324.667 -149 -508.667 -447 -552c-128.667 -84 -193 -160 -193 -228c0 -45.333 28.333 -68 85 -68s102.334 6.66699 137.001 20
v-130c-40.667 -13.333 -90.334 -20 -149.001 -20c-154 0 -231 57.667 -231 173c0 84 51 165.333 153 244z" />
    <glyph glyph-name="uogonek" unicode="&#x173;" 
d="M870 0v134.001c-110 -89.333 -229.333 -134 -358 -134c-241.333 0 -362 130.333 -362 391v659h185v-662c0 -156 77.333 -234 232 -234c106 0 207 44.333 303 133v763h185v-1050c-134.667 -84 -202 -160 -202 -228c0 -45.333 28.333 -68 85 -68
s102.334 6.66699 137.001 20v-130c-40.667 -13.333 -90.334 -20 -149.001 -20c-154 0 -231 57.667 -231 173c0 87.333 58.333 171.666 175 252.999z" />
    <glyph glyph-name="Wcircumflex" unicode="&#x174;" horiz-adv-x="1900" 
d="M50 1430h179l201 -1244l404 1244h185l433 -1244l227 1244h171l-269 -1430h-252l-404 1198l-391 -1198h-249zM875 1810h150l175 -260h-150l-100 160l-100 -160h-150z" />
    <glyph glyph-name="wcircumflex" unicode="&#x175;" horiz-adv-x="1539" 
d="M35 1050h187l186 -823l273 823h167l292 -823l168 823h196l-274 -1050h-169l-301 785l-286 -785h-173zM695 1430h150l175 -260h-150l-100 160l-100 -160h-150z" />
    <glyph glyph-name="Ycircumflex" unicode="&#x176;" horiz-adv-x="1300" 
d="M25 1430h205l412 -747l418 747h215l-546 -930v-500h-185v500zM575 1810h150l175 -260h-150l-100 160l-100 -160h-150z" />
    <glyph glyph-name="ycircumflex" unicode="&#x177;" horiz-adv-x="1050" 
d="M25 1050h201.001l297 -820l307 820h196l-436 -1081c-77.333 -190.667 -193.333 -309.667 -348 -357l-71 131c117.333 51.333 202.666 135 255.999 251zM451.001 1430h150l175 -260h-150l-100 160l-100 -160h-150z" />
    <glyph glyph-name="Ydieresis" unicode="&#x178;" horiz-adv-x="1300" 
d="M25 1430h205l412 -747l418 747h215l-546 -930v-500h-185v500zM928 1810v-170h-185v170h185zM558 1810v-170h-185v170h185z" />
    <glyph glyph-name="Zacute" unicode="&#x179;" horiz-adv-x="1330" 
d="M1205 1430v-150l-857 -1130h837v-150h-1060v150l884 1130h-864v150h1060zM695 1810h239l-239 -239h-164z" />
    <glyph glyph-name="zacute" unicode="&#x17a;" horiz-adv-x="1040" 
d="M120 1050h820v-150l-627 -760h607v-140h-820v140l635 760h-615v150zM550 1430h239l-239 -239h-164z" />
    <glyph glyph-name="Zdot" unicode="&#x17b;" horiz-adv-x="1330" 
d="M1205 1430v-150l-857 -1130h837v-150h-1060v150l884 1130h-864v150h1060zM768 1810v-190h-205v190h205z" />
    <glyph glyph-name="zdot" unicode="&#x17c;" horiz-adv-x="1040" 
d="M120 1050h820v-150l-627 -760h607v-140h-820v140l635 760h-615v150zM623 1430v-190h-205v190h205z" />
    <glyph glyph-name="Zcaron" unicode="&#x17d;" horiz-adv-x="1330" 
d="M1205 1430v-150l-857 -1130h837v-150h-1060v150l884 1130h-864v150h1060zM415 1810h150l100 -160l100 160h150l-175 -260h-150z" />
    <glyph glyph-name="zcaron" unicode="&#x17e;" horiz-adv-x="1040" 
d="M120 1050h820v-150l-627 -760h607v-140h-820v140l635 760h-615v150zM270 1430h150l100 -160l100 160h150l-175 -260h-150z" />
    <glyph glyph-name="longs" unicode="&#x17f;" horiz-adv-x="506" 
d="M150 0l0.000976562 1101c0 254 137.333 381 412 381c86 0 167.333 -13.333 244 -40v-150c-72.667 26.667 -154.334 40 -245.001 40c-150.667 0 -226 -74.333 -226 -223v-1109h-185z" />
    <glyph glyph-name="florin" unicode="&#x192;" horiz-adv-x="1047" 
d="M997 1280c-20.667 4 -40 6 -58 6c-114 0 -185.333 -72 -214 -216l-24 -120h210l-30 -150h-210l-164 -820c-48.667 -242.667 -179 -364 -391 -364c-21.333 0 -43.333 1.33301 -66 4v150c20.667 -4 40 -6 58 -6c114 0 185.333 72 214 216l164 820h-190l30 150h190l24 120
c48.667 242.667 179 364 391 364c21.333 0 43.333 -1.33301 66 -4v-150z" />
    <glyph glyph-name="Scommaaccent" unicode="&#x218;" horiz-adv-x="1290" 
d="M150 50v170c150 -53.333 312 -80 486 -80c246 0 369 90 369 270c0 153.333 -90.667 230 -272 230h-184c-299.333 0 -449 130 -449 390c0 273.333 191.667 410 575 410c166.667 0 321.667 -20 465 -60v-170c-143.333 53.333 -298.333 80 -465 80
c-260 0 -390 -86.667 -390 -260c0 -153.333 88 -230 264 -230h184c304.667 0 457 -130 457 -390c0 -280 -184.667 -420 -554 -420c-174 0 -336 20 -486 60zM763 -100l-150 -280h-185l150 280h185z" />
    <glyph glyph-name="scommaaccent" unicode="&#x219;" horiz-adv-x="1050" 
d="M140 50v160c123.333 -40 248 -60 374 -60c167.333 0 251 50 251 150c0 93.333 -58.333 140 -175 140h-150c-226.667 0 -340 103.333 -340 310c0 200 145.667 300 437 300c125.333 0 249.666 -16.667 372.999 -50v-160c-123.333 40 -247.666 60 -372.999 60
c-174.667 0 -262 -50 -262 -150c0 -93.333 55 -140 165 -140h150c240 0 360 -103.333 360 -310c0 -200 -145.333 -300 -436 -300c-126 0 -250.667 16.667 -374 50zM643 -100l-150 -280h-185l150 280h185z" />
    <glyph glyph-name="circumflex" unicode="&#x2c6;" horiz-adv-x="700" 
d="M275 1430h150l175 -260h-150l-100 160l-100 -160h-150z" />
    <glyph glyph-name="caron" unicode="&#x2c7;" horiz-adv-x="700" 
d="M100 1430h150l100 -160l100 160h150l-175 -260h-150z" />
    <glyph glyph-name="breve" unicode="&#x2d8;" horiz-adv-x="730" 
d="M100 1430h135c0 -100 43.333 -150 130 -150s130 50 130 150h135c0 -173.333 -88.333 -260 -265 -260s-265 86.667 -265 260z" />
    <glyph glyph-name="dotaccent" unicode="&#x2d9;" horiz-adv-x="405" 
d="M305 1430v-190h-205v190h205z" />
    <glyph glyph-name="ring" unicode="&#x2da;" horiz-adv-x="652" 
d="M328 1226c89.333 0 134 45.667 134 137c0 89.333 -44.667 134 -134 134c-92 0 -138 -44.667 -138 -134c0 -91.333 46 -137 138 -137zM100 1361c0 140 76 210 228 210c149.333 0 224 -70 224 -210c0 -139.333 -74.667 -209 -224 -209c-152 0 -228 69.667 -228 209z" />
    <glyph glyph-name="ogonek" unicode="&#x2db;" horiz-adv-x="580" 
d="M460 0c-134.667 -84 -202 -159.999 -202 -227.999c0 -45.333 28.333 -68 85 -68s102.334 6.66699 137.001 20v-130c-40.667 -13.333 -90.334 -20 -149.001 -20c-154 0 -231 57.667 -231 173c0 87.333 55 171.666 165 252.999h195z" />
    <glyph glyph-name="tilde" unicode="&#x2dc;" horiz-adv-x="700" 
d="M100 1384c40 30.667 83.333 46 130 46c34.667 0 71.334 -8.66699 110.001 -26s76.667 -26 114 -26c50 0 98.667 15.333 146 46v-150c-40 -30.667 -83.333 -46 -130 -46c-34.667 0 -71.334 8.66699 -110.001 26s-76.667 26 -114 26c-50 0 -98.667 -15.333 -146 -46v150z
" />
    <glyph glyph-name="hungarumlaut" unicode="&#x2dd;" horiz-adv-x="979" 
d="M264 1430h239l-239 -239h-164zM640 1430h239l-239 -239h-164z" />
    <glyph glyph-name="commaccent" unicode="&#x326;" horiz-adv-x="385" 
d="M360 -100l-150 -280h-185l150 280h185z" />
    <glyph glyph-name="uni037E" unicode="&#x37e;" horiz-adv-x="535" 
d="M435 1050v-185h-185v185h185zM435 185l-150 -435h-185l150 435h185z" />
    <glyph glyph-name="tonos" unicode="&#x384;" horiz-adv-x="603" 
d="M264 1430h239l-239 -239h-164z" />
    <glyph glyph-name="dieresistonos" unicode="&#x385;" horiz-adv-x="1045" 
d="M945 1430v-170h-185v170h185zM285 1430v-170h-185v170h185zM464 1430h239l-239 -239h-164z" />
    <glyph glyph-name="Alphatonos" unicode="&#x386;" horiz-adv-x="1472" 
d="M264 1430h239l-239 -239h-164zM217 0h-192l607 1430h205l610 -1430h-205l-185 450h-473l51 150h360l-267 648z" />
    <glyph glyph-name="anoteleia" unicode="&#x387;" horiz-adv-x="385" 
d="M285 1050v-185h-185v185h185z" />
    <glyph glyph-name="Epsilontonos" unicode="&#x388;" horiz-adv-x="1483" 
d="M114 1430h239l-239 -239h-164zM1358 1430v-150h-750v-480h715v-150h-715v-500h765v-150h-950v1430h935z" />
    <glyph glyph-name="Etatonos" unicode="&#x389;" horiz-adv-x="1808" 
d="M114 1430h239l-239 -239h-164zM423 0v1430h185v-630h845v630h185v-1430h-185v650h-845v-650h-185z" />
    <glyph glyph-name="Iotatonos" unicode="&#x38a;" horiz-adv-x="838" 
d="M114 1430h239l-239 -239h-164zM638 1430v-1430h-185v1430h185z" />
    <glyph glyph-name="Omicrontonos" unicode="&#x38c;" horiz-adv-x="1768" 
d="M114 1430h239l-239 -239h-164zM941 140c341.333 0 512 193 512 579c0 380.667 -170.667 571 -512 571c-348.667 0 -523 -190.333 -523 -571c0 -386 174.333 -579 523 -579zM223 713c0 484.667 239.333 727 718 727c471.333 0 707 -242.333 707 -727
c0 -482 -235.667 -723 -707 -723c-478.667 0 -718 241 -718 723z" />
    <glyph glyph-name="Upsilontonos" unicode="&#x38e;" horiz-adv-x="1653" 
d="M114 1430h239l-239 -239h-164zM378 1430h205l412 -747l418 747h215l-546 -930v-500h-185v500z" />
    <glyph glyph-name="Omegatonos" unicode="&#x38f;" horiz-adv-x="1713" 
d="M114 1430h239l-239 -239h-164zM238 0v150h305c-213.333 180 -320 396.667 -320 650c0 433.333 228.333 650 685 650s685 -216.667 685 -650c0 -253.333 -106.667 -470 -320 -650h305v-150h-550v150c253.333 180 380 396.667 380 650c0 333.333 -166.667 500 -500 500
s-500 -166.667 -500 -500c0 -253.333 126.667 -470 380 -650v-150h-550z" />
    <glyph glyph-name="iotadieresistonos" unicode="&#x390;" horiz-adv-x="525" 
d="M355 1050v-1050h-185v1050h185zM685 1430v-170h-185v170h185zM25 1430v-170h-185v170h185zM204 1430h239l-239 -239h-164z" />
    <glyph glyph-name="Alpha" unicode="&#x391;" horiz-adv-x="1472" 
d="M217 0h-192l607 1430h205l610 -1430h-205l-185 450h-473l51 150h360l-267 648z" />
    <glyph glyph-name="Beta" unicode="&#x392;" horiz-adv-x="1330" 
d="M170 0v1430h610c272 0 408 -111 408 -333c0 -162.667 -88.667 -279 -266 -349c189.333 -35.333 284 -143.666 284 -324.999c0 -282 -149 -423 -447 -423h-589zM748 149.999c170.667 0 256 86.666 256 259.999c0 168.667 -114.333 253 -343 253h-80v121
c273.333 36.667 410 135.334 410 296.001c0 133.333 -76 200 -228 200h-408v-1130h393z" />
    <glyph glyph-name="Gamma" unicode="&#x393;" horiz-adv-x="1103" 
d="M170 0v1430h933v-150h-748v-1280h-185z" />
    <glyph glyph-name="Delta" unicode="&#x394;" horiz-adv-x="1472" 
d="M25 0l607 1430h206l609 -1430h-1422zM1181 150l-453 1088l-449 -1088h902z" />
    <glyph glyph-name="Delta" unicode="&#x2206;" horiz-adv-x="1472" 
d="M25 0l607 1430h206l609 -1430h-1422zM1181 150l-453 1088l-449 -1088h902z" />
    <glyph glyph-name="Epsilon" unicode="&#x395;" horiz-adv-x="1230" 
d="M1105 1430v-150h-750v-480h715v-150h-715v-500h765v-150h-950v1430h935z" />
    <glyph glyph-name="Zeta" unicode="&#x396;" horiz-adv-x="1330" 
d="M1205 1430v-150l-857 -1130h837v-150h-1060v150l884 1130h-864v150h1060z" />
    <glyph glyph-name="Eta" unicode="&#x397;" horiz-adv-x="1555" 
d="M170 0v1430h185v-630h845v630h185v-1430h-185v650h-845v-650h-185z" />
    <glyph glyph-name="Theta" unicode="&#x398;" horiz-adv-x="1665" 
d="M838 140c341.333 0 512 193 512 579c0 380.667 -170.667 571 -512 571c-348.667 0 -523 -190.333 -523 -571c0 -386 174.333 -579 523 -579zM120 713c0 484.667 239.333 727 718 727c471.333 0 707 -242.333 707 -727c0 -482 -235.667 -723 -707 -723
c-478.667 0 -718 241 -718 723zM493 813h675v-150h-675v150z" />
    <glyph glyph-name="Iota" unicode="&#x399;" horiz-adv-x="585" 
d="M385 1430v-1430h-185v1430h185z" />
    <glyph glyph-name="Kappa" unicode="&#x39a;" horiz-adv-x="1400" 
d="M355 1430v-1430h-185v1430h185zM1361 1430l-644 -675l658 -755h-257l-583 688v112l592 630h234z" />
    <glyph glyph-name="Lambda" unicode="&#x39b;" horiz-adv-x="1472" 
d="M25 0l607 1430h205l610 -1430h-205l-514 1238l-511 -1238h-192z" />
    <glyph glyph-name="Mu" unicode="&#x39c;" horiz-adv-x="1840" 
d="M170 0v1430h235l525 -1193l515 1193h225v-1430h-165v1173l-508 -1173h-146l-516 1173v-1173h-165z" />
    <glyph glyph-name="Nu" unicode="&#x39d;" horiz-adv-x="1575" 
d="M170 0v1430h185l875 -1152v1152h175v-1430h-185l-875 1162v-1162h-175z" />
    <glyph glyph-name="Xi" unicode="&#x39e;" horiz-adv-x="1196" 
d="M100 160h996v-160h-996v160zM100 1430h996v-160h-996v160zM160 813h876v-160h-876v160z" />
    <glyph glyph-name="Omicron" unicode="&#x39f;" horiz-adv-x="1665" 
d="M838 140c341.333 0 512 193 512 579c0 380.667 -170.667 571 -512 571c-348.667 0 -523 -190.333 -523 -571c0 -386 174.333 -579 523 -579zM120 713c0 484.667 239.333 727 718 727c471.333 0 707 -242.333 707 -727c0 -482 -235.667 -723 -707 -723
c-478.667 0 -718 241 -718 723z" />
    <glyph glyph-name="Pi" unicode="&#x3a0;" horiz-adv-x="1525" 
d="M170 0v1430h1185v-1430h-185v1280h-815v-1280h-185z" />
    <glyph glyph-name="Rho" unicode="&#x3a1;" horiz-adv-x="1263" 
d="M170 0v1430h580c292 0 438 -127.667 438 -383c0 -278 -199.667 -447.667 -599 -509l-38 156c293.333 43.333 440 158.333 440 345c0 158.667 -86 238 -258 238h-378v-1277h-185z" />
    <glyph glyph-name="Sigma" unicode="&#x3a3;" horiz-adv-x="1180" 
d="M100 1430h980v-150h-770l410 -530l-410 -600h770v-150h-980v150l405 600l-405 530v150z" />
    <glyph glyph-name="Tau" unicode="&#x3a4;" horiz-adv-x="1185" 
d="M1135 1430v-150h-450v-1280h-185v1280h-450v150h1085z" />
    <glyph glyph-name="Upsilon" unicode="&#x3a5;" horiz-adv-x="1300" 
d="M25 1430h205l412 -747l418 747h215l-546 -930v-500h-185v500z" />
    <glyph glyph-name="Phi" unicode="&#x3a6;" horiz-adv-x="1724" 
d="M770 113c-446.667 24.667 -670 224.668 -670 600.001c0 378 223.333 579.333 670 604v113h184v-112c446.667 -22.667 670 -224.334 670 -605.001c0 -378.667 -223.333 -579 -670 -601v-112h-184v113zM770 264.001v902.001c-317.333 -24 -476 -173 -476 -447
c0 -278.667 158.667 -430.334 476 -455.001zM954 1167v-904c317.333 22.667 476 174.667 476 456c0 276.667 -158.667 426 -476 448z" />
    <glyph glyph-name="Chi" unicode="&#x3a7;" horiz-adv-x="1410" 
d="M588 715l-563 715h225l450 -572l450 572h225l-562 -715l562 -715h-225l-450 572l-450 -572h-225z" />
    <glyph glyph-name="Psi" unicode="&#x3a8;" horiz-adv-x="1690" 
d="M753 573v857h184v-857c298.667 22.667 448 161 448 415v442h185v-442c0 -354 -211 -542.667 -633 -566v-422h-184v422c-422 23.333 -633 212 -633 566v442h185v-442c0 -254 149.333 -392.333 448 -415z" />
    <glyph glyph-name="Omega" unicode="&#x3a9;" horiz-adv-x="1610" 
d="M135 0v150h305c-213.333 180 -320 396.667 -320 650c0 433.333 228.333 650 685 650s685 -216.667 685 -650c0 -253.333 -106.667 -470 -320 -650h305v-150h-550v150c253.333 180 380 396.667 380 650c0 333.333 -166.667 500 -500 500s-500 -166.667 -500 -500
c0 -253.333 126.667 -470 380 -650v-150h-550z" />
    <glyph glyph-name="Omega" unicode="&#x2126;" horiz-adv-x="1610" 
d="M135 0v150h305c-213.333 180 -320 396.667 -320 650c0 433.333 228.333 650 685 650s685 -216.667 685 -650c0 -253.333 -106.667 -470 -320 -650h305v-150h-550v150c253.333 180 380 396.667 380 650c0 333.333 -166.667 500 -500 500s-500 -166.667 -500 -500
c0 -253.333 126.667 -470 380 -650v-150h-550z" />
    <glyph glyph-name="Iotadieresis" unicode="&#x3aa;" horiz-adv-x="585" 
d="M385 1430v-1430h-185v1430h185zM570 1810v-170h-185v170h185zM200 1810v-170h-185v170h185z" />
    <glyph glyph-name="Upsilondieresis" unicode="&#x3ab;" horiz-adv-x="1300" 
d="M25 1430h205l412 -747l418 747h215l-546 -930v-500h-185v500zM928 1810v-170h-185v170h185zM558 1810v-170h-185v170h185z" />
    <glyph glyph-name="alphatonos" unicode="&#x3ac;" horiz-adv-x="1369" 
d="M100 525c0 350 150 525 450 525c220.667 0 368.667 -108 444 -324l108 324h187l-198 -528l184 -522h-190l-106 330c-84 -220 -227 -330 -429 -330c-298.667 0 -448.667 175 -450 525zM550 150c156.667 0 275 126.333 355 379c-80 247.333 -198.333 371 -355 371
c-176.667 0 -265 -123.667 -265 -371c0 -252.667 88.333 -379 265 -379zM684 1430h239l-239 -239h-164z" />
    <glyph glyph-name="epsilontonos" unicode="&#x3ad;" horiz-adv-x="925" 
d="M825 850c-100 40 -206.667 60 -320 60c-140 0 -210 -44 -210 -132c0 -105.333 81.667 -158 245 -158h195v-150h-198c-168 0 -252 -60 -252 -180c0 -100 73.333 -150 220 -150c113.333 0 220 20 320 60v-160c-100 -33.333 -206.667 -50 -320 -50c-270 0 -405 100 -405 300
c0 133.333 72.667 218.333 218 255c-138.667 39.333 -208 117 -208 233c0 188 135 282 405 282c106.667 0 210 -16.667 310 -50v-160zM492 1430h239l-239 -239h-164z" />
    <glyph glyph-name="etatonos" unicode="&#x3ae;" 
d="M150 0v1050h125l33 -134c127.333 89.333 255.333 134 384 134c242 0 363 -130.333 363 -391v-1039h-185v1042c0 156 -77.667 234 -233 234c-106 0 -206.667 -44.333 -302 -133v-763h-185zM632 1430h239l-239 -239h-164z" />
    <glyph glyph-name="iotatonos" unicode="&#x3af;" horiz-adv-x="525" 
d="M355 1050v-1050h-185v1050h185zM292 1430h239l-239 -239h-164z" />
    <glyph glyph-name="upsilondieresistonos" unicode="&#x3b0;" horiz-adv-x="1210" 
d="M150 428v622h185v-622c0 -198.667 90 -298 270 -298s270 99.333 270 298v622h185v-622c0 -298.667 -151.667 -448 -455 -448s-455 149.333 -455 448zM1028 1430v-170h-185v170h185zM368 1430v-170h-185v170h185zM547 1430h239l-239 -239h-164z" />
    <glyph glyph-name="alpha" unicode="&#x3b1;" horiz-adv-x="1369" 
d="M100 525c0 350 150 525 450 525c220.667 0 368.667 -108 444 -324l108 324h187l-198 -528l184 -522h-190l-106 330c-84 -220 -227 -330 -429 -330c-298.667 0 -448.667 175 -450 525zM550 150c156.667 0 275 126.333 355 379c-80 247.333 -198.333 371 -355 371
c-176.667 0 -265 -123.667 -265 -371c0 -252.667 88.333 -379 265 -379z" />
    <glyph glyph-name="beta" unicode="&#x3b2;" horiz-adv-x="1196" 
d="M150 -362l0.00195312 1233c0 372.667 164.667 559 494 559c273.333 0 410 -112 410 -336c0 -174.667 -83.667 -283 -251 -325c212 -24.667 318 -154 318 -388c0 -255.333 -138 -383 -414 -383c-90.667 0 -171.334 20 -242.001 60v150c71.333 -40 152.666 -60 243.999 -60
c151.333 0 227 77.667 227 233c0 205.333 -123.667 308.333 -371 309v118c212 36 318 131.333 318 286c0 124 -82 186 -246 186c-201.333 0 -302 -137.333 -302 -412v-1230h-185z" />
    <glyph glyph-name="gamma" unicode="&#x3b3;" horiz-adv-x="1080" 
d="M35 1050h195l302 -847l308 847h195l-416 -1050v-380h-185v380z" />
    <glyph glyph-name="delta" unicode="&#x3b4;" horiz-adv-x="1200" 
d="M593 -10c-328.667 0 -493 180 -493 540c0 340 171.667 510 515 510c-110 82 -243.667 162 -401 240v150h785v-150h-497c390 -210 589.333 -456.667 598 -740c0 -366.667 -169 -550 -507 -550zM915 536c0 242.667 -107.333 364 -322 364c-208 0 -312 -123.333 -312 -370
c0 -260 104.333 -390 313 -390c214 0 321 132 321 396z" />
    <glyph glyph-name="epsilon" unicode="&#x3b5;" horiz-adv-x="925" 
d="M825 850c-100 40 -206.667 60 -320 60c-140 0 -210 -44 -210 -132c0 -105.333 81.667 -158 245 -158h195v-150h-198c-168 0 -252 -60 -252 -180c0 -100 73.333 -150 220 -150c113.333 0 220 20 320 60v-160c-100 -33.333 -206.667 -50 -320 -50c-270 0 -405 100 -405 300
c0 133.333 72.667 218.333 218 255c-138.667 39.333 -208 117 -208 233c0 188 135 282 405 282c106.667 0 210 -16.667 310 -50v-160z" />
    <glyph glyph-name="zeta" unicode="&#x3b6;" horiz-adv-x="1003" 
d="M303 1430h650v-150c-448.667 -288.667 -673 -575 -673 -859c0 -180.667 72.667 -271 218 -271h181c176 0 264 -74.333 264 -223c0 -137.333 -106.333 -246.333 -319 -327l-70 138c144 46 216 108.333 216 187c0 50 -28.667 75 -86 75h-181c-268.667 0 -403 139 -403 417
c0 299.333 203.667 587 611 863h-408v150z" />
    <glyph glyph-name="eta" unicode="&#x3b7;" 
d="M150 0v1050h125l33 -134c127.333 89.333 255.333 134 384 134c242 0 363 -130.333 363 -391v-1039h-185v1042c0 156 -77.667 234 -233 234c-106 0 -206.667 -44.333 -302 -133v-763h-185z" />
    <glyph glyph-name="theta" unicode="&#x3b8;" horiz-adv-x="1245" 
d="M316 670c8.66699 -353.333 112.667 -530 312 -530c192.667 0 293 176.667 301 530h-613zM927 820c-16.667 313.333 -116.334 470 -299.001 470c-189.333 0 -292.666 -156.667 -309.999 -470h609zM120 713c0 484.667 169.333 727 508 727c331.333 0 497 -242.333 497 -727
c0 -482 -165.667 -723 -497 -723c-338.667 0 -508 241 -508 723z" />
    <glyph glyph-name="iota" unicode="&#x3b9;" horiz-adv-x="525" 
d="M355 1050v-1050h-185v1050h185z" />
    <glyph glyph-name="kappa" unicode="&#x3ba;" horiz-adv-x="1082" 
d="M1076 1050l-456 -489l462 -561h-237l-394 505v103l397 442h228zM150 0v1050h185v-1050h-185z" />
    <glyph glyph-name="lambda" unicode="&#x3bb;" horiz-adv-x="1121" 
d="M462 1036c-60 129.333 -145.332 216.333 -255.999 261l71 141c161.333 -47.333 280.666 -166.333 357.999 -357l436 -1081h-206l-313 830l-311 -830h-201z" />
    <glyph glyph-name="nu" unicode="&#x3bd;" horiz-adv-x="1080" 
d="M40 1050h200l301 -823l299 823h200l-427 -1050h-172z" />
    <glyph glyph-name="xi" unicode="&#x3be;" horiz-adv-x="1018" 
d="M621 1430h244v-150h-243c-148 0 -222 -54.667 -222 -164c0 -129.333 74.333 -194 223 -194h232v-150h-222c-218.667 0 -328 -117 -328 -351c0 -180.667 72.667 -271 218 -271h181c176 0 264 -74.333 264 -223c0 -137.333 -106.333 -246.333 -319 -327l-70 138
c144 46 216 108.333 216 187c0 50 -28.667 75 -86 75h-181c-268.667 0 -403 139 -403 417c0 221.333 89.667 365 269 431c-119.333 36 -179 127.333 -179 274c0 205.333 135.333 308 406 308z" />
    <glyph glyph-name="omicron" unicode="&#x3bf;" horiz-adv-x="1200" 
d="M600 150c210 0 315 126.333 315 379c0 247.333 -105 371 -315 371s-315 -123.667 -315 -371c0 -252.667 105 -379 315 -379zM100 525c0 350 166.667 525 500 525s500 -175 500 -525c0 -349.333 -166.667 -524 -500 -524c-332 0 -498.667 174.667 -500 524z" />
    <glyph glyph-name="pi" unicode="&#x3c0;" horiz-adv-x="1465" 
d="M25 990c93.333 40 190 60 290 60h1050v-150h-245v-580c0 -114 58.333 -171 175 -171c10 0 20 0.333008 30 1v-150c-27.333 -3.33301 -53.333 -5 -78 -5c-208 0 -312 108.333 -312 325v580h-435v-901h-185v901c-100 0 -196.667 -20 -290 -60v150z" />
    <glyph glyph-name="rho" unicode="&#x3c1;" horiz-adv-x="1212" 
d="M320 224c72.667 -42.667 160.333 -64 263 -64c231.333 0 347 130 347 390c0 230.667 -105 346 -315 346c-196.667 0 -295 -115.333 -295 -346v-326zM616.999 1050c330 0 495 -166.667 495 -500c0 -366.667 -176 -550 -528 -550c-97.333 0 -185.333 20 -264 60v-440h-185
v930c0 333.333 160.667 500 482 500z" />
    <glyph glyph-name="sigma1" unicode="&#x3c2;" horiz-adv-x="993" 
d="M914 850c-74.667 33.333 -156.334 49.999 -245.001 49.999c-259.333 0 -389 -119.667 -389 -359c0 -155.333 68.667 -254.333 206 -297l157 -45c200 -49.333 300 -150.666 300 -303.999c0 -183.333 -146.667 -275 -440 -275v150c171.333 0 257 40.333 257 121
c0 64 -47 110.667 -141 140l-199 61c-213.333 52.667 -320 201 -320 445c0 342 189.667 513 569 513c88.667 0 170.334 -16.667 245.001 -50v-150z" />
    <glyph glyph-name="sigma" unicode="&#x3c3;" horiz-adv-x="1277" 
d="M600 150c210 0 315 126.333 315 379c0 247.333 -101.667 371 -305 371c-216.667 0 -325 -123.667 -325 -371c0 -252.667 105 -379 315 -379zM100 525c0 350 170 525 510 525h617v-150h-261c89.333 -86 134 -211 134 -375c0 -349.333 -166.667 -524 -500 -524
c-332 0 -498.667 174.667 -500 524z" />
    <glyph glyph-name="tau" unicode="&#x3c4;" horiz-adv-x="849" 
d="M0 1050h774v-150h-315v-530c0 -147.333 72 -221 216 -221c9.33301 0 19 0.333008 29 1v-150c-27.333 -2.66699 -53 -4 -77 -4c-235.333 0 -353 124.667 -353 374v530h-274v150z" />
    <glyph glyph-name="upsilon" unicode="&#x3c5;" horiz-adv-x="1210" 
d="M150 428v622h185v-622c0 -198.667 90 -298 270 -298s270 99.333 270 298v622h185v-622c0 -298.667 -151.667 -448 -455 -448s-455 149.333 -455 448z" />
    <glyph glyph-name="phi" unicode="&#x3c6;" horiz-adv-x="1505" 
d="M280 1050h205c-133.333 -150 -200 -316.667 -200 -500c0 -266.667 121.667 -406.667 365 -420v525c0 263.333 121.333 395 364 395c260.667 0 391 -166.667 391 -500c0 -366.667 -190 -556.667 -570 -570v-360h-185v360c-366.667 13.333 -550 203.333 -550 570
c0 183.333 60 350 180 500zM1220 550c0 233.333 -67.667 350 -203 350c-121.333 0 -182 -81.667 -182 -245v-525c256.667 13.333 385 153.333 385 420z" />
    <glyph glyph-name="chi" unicode="&#x3c7;" horiz-adv-x="1130" 
d="M463 335l-423 715h205l320 -542l320 542h205l-422 -715l422 -715h-205l-320 542l-320 -542h-205z" />
    <glyph glyph-name="psi" unicode="&#x3c8;" horiz-adv-x="1610" 
d="M712 144v906h186v-906c251.333 25.333 377 156.666 377 393.999v512h185v-512c0 -338.667 -187.333 -520.334 -562 -545.001v-373h-186v373c-374.667 24.667 -562 206.334 -562 545.001v512h185v-512c0 -237.333 125.667 -368.666 377 -393.999z" />
    <glyph glyph-name="omega" unicode="&#x3c9;" horiz-adv-x="1675" 
d="M250 1050h185.001c-86.667 -150 -130 -316.667 -130 -500c0 -266.667 71.667 -400 215 -400c150 0 225 225 225 675h185c0 -450 75 -675 225 -675c143.333 0 215 133.333 215 400c0 183.333 -43.333 350 -130 500h185c86.667 -150 130 -316.667 130 -500
c0 -366.667 -133.333 -550 -400 -550c-156.667 -0 -263.334 106.333 -320.001 319c-53.333 -212.667 -158.333 -319 -315 -319c-266.667 -0 -400 183.333 -400 550c0 183.333 43.333 350 130 500z" />
    <glyph glyph-name="iotadieresis" unicode="&#x3ca;" horiz-adv-x="525" 
d="M355 1050v-1050h-185v1050h185zM540 1430v-170h-185v170h185zM170 1430v-170h-185v170h185z" />
    <glyph glyph-name="upsilondieresis" unicode="&#x3cb;" horiz-adv-x="1210" 
d="M150 428v622h185v-622c0 -198.667 90 -298 270 -298s270 99.333 270 298v622h185v-622c0 -298.667 -151.667 -448 -455 -448s-455 149.333 -455 448zM883 1430v-170h-185v170h185zM513 1430v-170h-185v170h185z" />
    <glyph glyph-name="omicrontonos" unicode="&#x3cc;" horiz-adv-x="1200" 
d="M600 150c210 0 315 126.333 315 379c0 247.333 -105 371 -315 371s-315 -123.667 -315 -371c0 -252.667 105 -379 315 -379zM100 525c0 350 166.667 525 500 525s500 -175 500 -525c0 -349.333 -166.667 -524 -500 -524c-332 0 -498.667 174.667 -500 524zM630 1430h239
l-239 -239h-164z" />
    <glyph glyph-name="upsilontonos" unicode="&#x3cd;" horiz-adv-x="1210" 
d="M150 428v622h185v-622c0 -198.667 90 -298 270 -298s270 99.333 270 298v622h185v-622c0 -298.667 -151.667 -448 -455 -448s-455 149.333 -455 448zM635 1430h239l-239 -239h-164z" />
    <glyph glyph-name="omegatonos" unicode="&#x3ce;" horiz-adv-x="1675" 
d="M250 1050h185.001c-86.667 -150 -130 -316.667 -130 -500c0 -266.667 71.667 -400 215 -400c150 0 225 225 225 675h185c0 -450 75 -675 225 -675c143.333 0 215 133.333 215 400c0 183.333 -43.333 350 -130 500h185c86.667 -150 130 -316.667 130 -500
c0 -366.667 -133.333 -550 -400 -550c-156.667 -0 -263.334 106.333 -320.001 319c-53.333 -212.667 -158.333 -319 -315 -319c-266.667 -0 -400 183.333 -400 550c0 183.333 43.333 350 130 500zM867.001 1430h239l-239 -239h-164z" />
    <glyph glyph-name="afii10023" unicode="&#x401;" horiz-adv-x="1230" 
d="M1105 1430v-150h-750v-480h715v-150h-715v-500h765v-150h-950v1430h935zM923 1810v-170h-185v170h185zM553 1810v-170h-185v170h185z" />
    <glyph glyph-name="afii10017" unicode="&#x410;" horiz-adv-x="1472" 
d="M217 0h-192l607 1430h205l610 -1430h-205l-185 450h-473l51 150h360l-267 648z" />
    <glyph glyph-name="afii10018" unicode="&#x411;" horiz-adv-x="1311" 
d="M1171 1430v-150h-815v-1127h407c158.667 0 238 83 238 249c0 178.667 -97.333 268 -292 268h-188v150h197c312 0 468 -135.667 468 -407c0 -275.333 -135.333 -413 -406 -413h-610v1430h1001z" />
    <glyph glyph-name="afii10019" unicode="&#x412;" horiz-adv-x="1330" 
d="M170 0v1430h610c272 0 408 -111 408 -333c0 -162.667 -88.667 -279 -266 -349c189.333 -35.333 284 -143.666 284 -324.999c0 -282 -149 -423 -447 -423h-589zM748 149.999c170.667 0 256 86.666 256 259.999c0 168.667 -114.333 253 -343 253h-80v121
c273.333 36.667 410 135.334 410 296.001c0 133.333 -76 200 -228 200h-408v-1130h393z" />
    <glyph glyph-name="afii10020" unicode="&#x413;" horiz-adv-x="1103" 
d="M170 0v1430h933v-150h-748v-1280h-185z" />
    <glyph glyph-name="afii10021" unicode="&#x414;" horiz-adv-x="1699" 
d="M498 150h756v1130h-470c0 -626 -95.333 -1002.67 -286 -1130zM0 -380v530h184c276.667 0 415 376.667 415 1130v150h840v-1280h185v-530h-185v380h-1255v-380h-184z" />
    <glyph glyph-name="afii10022" unicode="&#x415;" horiz-adv-x="1230" 
d="M1105 1430v-150h-750v-480h715v-150h-715v-500h765v-150h-950v1430h935z" />
    <glyph glyph-name="afii10024" unicode="&#x416;" horiz-adv-x="2109" 
d="M1860 0c-226 360 -368.333 565.5 -427 616.5s-114 76.5 -166 76.5v133c106.667 0 214.5 100.667 323.5 302s226.167 302 351.5 302h107v-160h-79c-72 0 -152.667 -78.833 -242 -236.5s-172.333 -249.5 -249 -275.5c50 -8.66699 105 -46.167 165 -112.5
s206.667 -281.5 440 -645.5h-224zM1147 1430v-1430h-185v1430h185zM25 0c233.333 364 380 579.167 440 645.5s115 103.833 165 112.5c-76.667 26 -159.667 117.833 -249 275.5s-170 236.5 -242 236.5h-79v160h107c125.333 0 242.5 -100.667 351.5 -302
s216.833 -302 323.5 -302v-133c-52 0 -107.333 -25.5 -166 -76.5s-201 -256.5 -427 -616.5h-224z" />
    <glyph glyph-name="afii10025" unicode="&#x417;" horiz-adv-x="1115" 
d="M100 1380c133.333 40 266.666 59.999 399.999 59.999c343.333 0 515 -130 515 -390c0 -157.333 -62.667 -265.666 -188 -324.999c125.333 -56.667 188 -165 188 -325c0 -273.333 -171.667 -410 -515 -410c-133.333 0 -266.666 20 -399.999 60v160
c133.333 -46.667 266.666 -70 399.999 -70c220 0 330 86.667 330 260c0 166.667 -84 250 -252 250h-328v150h325c170 0 255 83.333 255 250c0 160 -110 240 -330 240c-133.333 0 -266.666 -23.333 -399.999 -70v160z" />
    <glyph glyph-name="afii10026" unicode="&#x418;" horiz-adv-x="1525" 
d="M1180 0v1182l-825 -1182h-185v1430h175v-1182l825 1182h185v-1430h-175z" />
    <glyph glyph-name="afii10027" unicode="&#x419;" horiz-adv-x="1525" 
d="M1180 0v1182l-825 -1182h-185v1430h175v-1182l825 1182h185v-1430h-175zM490 1784h135c0 -106.667 46.667 -160 140 -160s140 53.333 140 160h135c0 -180 -91.667 -270 -275 -270s-275 90 -275 270z" />
    <glyph glyph-name="afii10028" unicode="&#x41a;" horiz-adv-x="1317" 
d="M1068 0c-226 360 -368.333 565.5 -427 616.5s-114 76.5 -166 76.5v133c106.667 0 214.5 100.667 323.5 302s226.167 302 351.5 302h107v-160h-79c-72 0 -152.667 -78.833 -242 -236.5s-172.333 -249.5 -249 -275.5c50 -8.66699 105 -46.167 165 -112.5
s206.667 -281.5 440 -645.5h-224zM355 1430v-1430h-185v1430h185z" />
    <glyph glyph-name="afii10029" unicode="&#x41b;" horiz-adv-x="1524" 
d="M0 150c276 0 414 216.667 414 650v630h940v-1430h-185v1280h-570v-480c0 -533.333 -199.667 -800 -599 -800v150z" />
    <glyph glyph-name="afii10030" unicode="&#x41c;" horiz-adv-x="1840" 
d="M170 0v1430h235l525 -1193l515 1193h225v-1430h-165v1173l-508 -1173h-146l-516 1173v-1173h-165z" />
    <glyph glyph-name="afii10031" unicode="&#x41d;" horiz-adv-x="1525" 
d="M170 0v1430h185v-620h815v620h185v-1430h-185v660h-815v-660h-185z" />
    <glyph glyph-name="afii10032" unicode="&#x41e;" horiz-adv-x="1665" 
d="M838 140c341.333 0 512 193 512 579c0 380.667 -170.667 571 -512 571c-348.667 0 -523 -190.333 -523 -571c0 -386 174.333 -579 523 -579zM120 713c0 484.667 239.333 727 718 727c471.333 0 707 -242.333 707 -727c0 -482 -235.667 -723 -707 -723
c-478.667 0 -718 241 -718 723z" />
    <glyph glyph-name="afii10033" unicode="&#x41f;" horiz-adv-x="1525" 
d="M170 0v1430h1185v-1430h-185v1280h-815v-1280h-185z" />
    <glyph glyph-name="afii10034" unicode="&#x420;" horiz-adv-x="1263" 
d="M170 0v1430h580c292 0 438 -127.667 438 -383c0 -278 -199.667 -447.667 -599 -509l-38 156c293.333 43.333 440 158.333 440 345c0 158.667 -86 238 -258 238h-378v-1277h-185z" />
    <glyph glyph-name="afii10035" unicode="&#x421;" horiz-adv-x="1385" 
d="M1250 50c-123.333 -40 -256.666 -60 -399.999 -60c-500 0 -750 248.333 -750 745c0 470 250 705 750 705c143.333 0 276.666 -20 399.999 -60v-160c-123.333 46.667 -250 70 -380 70c-390 0 -585 -185 -585 -555c0 -396.667 195 -595 585 -595
c130 0 256.667 23.333 380 70v-160z" />
    <glyph glyph-name="afii10036" unicode="&#x422;" horiz-adv-x="1185" 
d="M1135 1430v-150h-450v-1280h-185v1280h-450v150h1085z" />
    <glyph glyph-name="afii10037" unicode="&#x423;" horiz-adv-x="1307" 
d="M1282 1430l-493.001 -1162c-76 -178.667 -205.667 -268 -389 -268c-85.333 -0 -164 23.333 -236 70v150c70.667 -46.667 148.334 -70 233.001 -70c102.667 0 175 40.333 217 121l-564 1159h195l463 -981l382 981h192z" />
    <glyph glyph-name="afii10038" unicode="&#x424;" horiz-adv-x="1724" 
d="M770 113c-446.667 24.667 -670 224.668 -670 600.001c0 378 223.333 579.333 670 604v113h184v-112c446.667 -22.667 670 -224.334 670 -605.001c0 -378.667 -223.333 -579 -670 -601v-112h-184v113zM770 264.001v902.001c-317.333 -24 -476 -173 -476 -447
c0 -278.667 158.667 -430.334 476 -455.001zM954 1167v-904c317.333 22.667 476 174.667 476 456c0 276.667 -158.667 426 -476 448z" />
    <glyph glyph-name="afii10039" unicode="&#x425;" horiz-adv-x="1400" 
d="M250 0h-225l562 715l-562 715h225l450 -572l450 572h225l-562 -715l562 -715h-225l-450 572z" />
    <glyph glyph-name="afii10040" unicode="&#x426;" horiz-adv-x="1567" 
d="M170 0v1430h185v-1280h742v1280h185v-1280h185v-530h-185v380h-1112z" />
    <glyph glyph-name="afii10041" unicode="&#x427;" horiz-adv-x="1408" 
d="M1238 1430l-0.000976562 -1430h-185v634c-130.667 -76 -273.667 -114 -429 -114c-332.667 0 -499 160.333 -499 481v429h185v-432c0 -216 113 -324 339 -324c152.667 0 287.334 44.333 404.001 133v623h185z" />
    <glyph glyph-name="afii10042" unicode="&#x428;" horiz-adv-x="1875" 
d="M170 0v1430h185v-1280h490v1280h185v-1280h490v1280h185v-1430h-1535z" />
    <glyph glyph-name="afii10043" unicode="&#x429;" horiz-adv-x="1990" 
d="M170 0v1430h185v-1280h490v1280h185v-1280h490v1280h185v-1280h185v-530h-185v380h-1535z" />
    <glyph glyph-name="afii10044" unicode="&#x42a;" horiz-adv-x="1710" 
d="M767 1430v-1277h408c158.667 0 238 83 238 249c0 178.667 -97.333 268 -292 268h-188v150h198c319.333 0 479 -135.667 479 -407c0 -275.333 -139.333 -413 -418 -413h-610v1280h-582v150h767z" />
    <glyph glyph-name="afii10045" unicode="&#x42b;" horiz-adv-x="1755" 
d="M355 1430v-1277h408c158.667 0 238 83 238 249c0 178.667 -97.333 268 -292 268h-188v150h198c319.333 0 479 -135.667 479 -407c0 -275.333 -139.333 -413 -418 -413h-610v1430h185zM1400 0v1430h185v-1430h-185z" />
    <glyph glyph-name="afii10046" unicode="&#x42c;" horiz-adv-x="1298" 
d="M355 1430v-1277h408c158.667 0 238 83 238 249c0 178.667 -97.333 268 -292 268h-188v150h197c320 0 480 -135.667 480 -407c0 -275.333 -139.333 -413 -418 -413h-610v1430h185z" />
    <glyph glyph-name="afii10047" unicode="&#x42d;" horiz-adv-x="1375" 
d="M125 210c123.333 -46.667 250 -70 380 -70c361.333 0 555.333 170 582 510h-890v150h891c-22 326.667 -216.333 490 -583 490c-130 0 -256.667 -23.333 -380 -70v160c123.333 40 256.666 60 399.999 60c500 0 750 -235 750 -705c0 -496.667 -250 -745 -750 -745
c-143.333 0 -276.666 20 -399.999 60v160z" />
    <glyph glyph-name="afii10048" unicode="&#x42e;" horiz-adv-x="2022" 
d="M170 0l0.000976562 1430h184v-630h405c22.667 426.667 218 640 586 640c384.667 0 577 -242.333 577 -727c0 -482 -192.333 -723 -577 -723c-374.667 0 -570.334 220 -587.001 660h-404v-650h-184zM1345 140c254.667 0 382 193 382 579c0 380.667 -127.333 571 -382 571
c-262 0 -393 -190.333 -393 -571c0 -386 131 -579 393 -579z" />
    <glyph glyph-name="afii10049" unicode="&#x42f;" horiz-adv-x="1305" 
d="M950 0v1277h-408c-152 0 -228 -66 -228 -198c0 -166.667 136.667 -271.667 410 -315v-131l-465 -633h-234l496 649c-269.333 92.667 -404 232 -404 418c0 242 142.667 363 428 363h590v-1430h-185z" />
    <glyph glyph-name="afii10065" unicode="&#x430;" horiz-adv-x="1135" 
d="M100 317c0 215.333 142.001 323 426.001 323c91.333 0 182.666 -6.66699 273.999 -20v99c0 120.667 -94.333 181 -283 181c-108 0 -218.667 -16.667 -332 -50v150c113.333 33.333 224 50 332 50c312 0 468 -108.667 468 -326v-724h-104l-64 104
c-104.667 -69.333 -218.667 -104 -342 -104c-250 0 -375 105.667 -375 317zM526.001 490c-160.667 0 -241.001 -56.667 -241.001 -170s63.333 -170 190 -170c128 0 236.333 34 325 102v218c-91.333 13.333 -182.666 20 -273.999 20z" />
    <glyph glyph-name="afii10066" unicode="&#x431;" horiz-adv-x="1277" 
d="M1166 520c0 -353.333 -172.667 -530 -518 -530c-348.667 0 -523 176.667 -523 530v325c0 390 181.333 585 544 585c194.667 0 349 36.333 463 109v-163c-102 -64 -257.333 -96 -466 -96c-234 0 -351 -141.667 -351 -425c86 130 200.333 195 343 195
c338.667 0 508 -169.333 508 -508v-22zM648 140c221.333 0 332 126.667 332 380c0 249.333 -107.333 374 -322 374c-228.667 0 -343 -124.667 -343 -374c0 -253.333 111 -380 333 -380z" />
    <glyph glyph-name="afii10067" unicode="&#x432;" horiz-adv-x="1166" 
d="M708 150c104 0 156 53.333 156 160c0 100 -81 150 -243 150h-80v121c206.667 23.333 310 93 310 209c0 73.333 -42.667 110 -128 110h-388v-750h373zM150 0v1050h590c205.333 0 308 -87.667 308 -263c0 -108.667 -65.333 -189.334 -196 -242.001
c142.667 -35.333 214 -112.666 214 -231.999c0 -208.667 -115.667 -313 -347 -313h-569z" />
    <glyph glyph-name="afii10068" unicode="&#x433;" horiz-adv-x="848" 
d="M150 0v1050h698v-150h-513v-900h-185z" />
    <glyph glyph-name="afii10069" unicode="&#x434;" horiz-adv-x="1428" 
d="M454 150h529v750h-370c0 -372.667 -53 -622.667 -159 -750zM0 -380v530h184c162.667 0 244 250 244 750v150h740v-900h185v-530h-185v380h-984v-380h-184z" />
    <glyph glyph-name="afii10070" unicode="&#x435;" horiz-adv-x="1130" 
d="M583 1050c298.667 0 448.001 -147.667 448.001 -443c0 -42 -3 -87 -9 -135h-737c0 -214.667 125.333 -322 376 -322c119.333 0 225.333 13.333 318 40v-150c-92.667 -26.667 -205.334 -40 -338.001 -40c-360.667 0 -541 179 -541 537c0 342 161 513 483 513zM285.001 626
h568c-4 184 -94 276 -270 276c-186.667 0 -286 -92 -298 -276z" />
    <glyph glyph-name="afii10072" unicode="&#x436;" horiz-adv-x="1720" 
d="M1481 0l-146.999 246c-98.667 164.667 -194 247 -286 247v123c106.667 0 186.167 73.167 238.5 219.5s141.166 219.5 266.499 219.5h107v-166h-79c-72 0 -125 -48.667 -159 -146s-92.667 -162.333 -176 -195c78.667 -14 173 -108.667 283 -284l166 -264h-214z
M951.001 1057v-1057h-185v1057h185zM25.001 0l166.001 264c110 175.333 204.333 270 283 284c-83.333 32.667 -142 97.667 -176 195s-87 146 -159 146h-79v166h107c125.333 0 214.166 -73.167 266.499 -219.5s131.833 -219.5 238.5 -219.5v-123
c-92 0 -187.333 -82.333 -286 -247l-147 -246h-214z" />
    <glyph glyph-name="afii10073" unicode="&#x437;" horiz-adv-x="965" 
d="M100 1000c133.333 40 250 60.001 350 60.001c276.667 0 415 -97.333 415 -292c0 -102.667 -46 -180.334 -138 -233.001c92 -50 138 -125 138 -225c0 -213.333 -138.333 -320 -415 -320c-100 0 -216.667 20 -350 60v160c133.333 -46.667 250 -70 350 -70
c153.333 0 230 56.667 230 170c0 100 -50.667 150 -152 150h-328v150h325c103.333 0 155 52.667 155 158c0 94.667 -76.667 142 -230 142c-100 0 -216.667 -23.333 -350 -70v160z" />
    <glyph glyph-name="afii10074" unicode="&#x438;" horiz-adv-x="1225" 
d="M900 0v812l-565 -812h-185v1050h175v-812l565 812h185v-1050h-175z" />
    <glyph glyph-name="afii10075" unicode="&#x439;" horiz-adv-x="1225" 
d="M900 0v812l-565 -812h-185v1050h175v-812l565 812h185v-1050h-175zM348 1430h135c0 -100 43.333 -150 130 -150s130 50 130 150h135c0 -173.333 -88.333 -260 -265 -260s-265 86.667 -265 260z" />
    <glyph glyph-name="afii10076" unicode="&#x43a;" horiz-adv-x="1104" 
d="M865 0l-146.999 246.001c-98.667 164.667 -194 247 -286 247v123c106.667 0 186.167 72.333 238.5 217s141.166 217 266.499 217h107v-160h-79c-72 0 -125 -48.833 -159 -146.5s-92.667 -162.834 -176 -195.501c78.667 -14 173 -108.667 283 -284l166 -264h-214z
M335.001 1050v-1050h-185v1050h185z" />
    <glyph glyph-name="afii10077" unicode="&#x43b;" horiz-adv-x="1187" 
d="M0 150c158 0 237 90 237 270v630h800v-1050h-185v900h-430v-480c0 -280 -140.667 -420 -422 -420v150z" />
    <glyph glyph-name="afii10078" unicode="&#x43c;" horiz-adv-x="1460" 
d="M150 0v1050h235l355 -833l345 833h225v-1050h-165v803l-338 -803h-146l-346 803v-803h-165z" />
    <glyph glyph-name="afii10079" unicode="&#x43d;" horiz-adv-x="1225" 
d="M150 0v1050h185v-440h555v440h185v-1050h-185v460h-555v-460h-185z" />
    <glyph glyph-name="afii10080" unicode="&#x43e;" horiz-adv-x="1240" 
d="M100 525c0 356.667 173.332 535 519.999 535s520 -178.333 520 -535s-173.333 -535 -520 -535c-345.333 0 -518.666 178.333 -519.999 535zM619.999 140c223.333 0 335 129.667 335 389c0 254 -111.667 381 -335 381s-335 -127 -335 -381
c0 -259.333 111.667 -389 335 -389z" />
    <glyph glyph-name="afii10081" unicode="&#x43f;" horiz-adv-x="1225" 
d="M150 0v1050h925v-1050h-185v900h-555v-900h-185z" />
    <glyph glyph-name="afii10082" unicode="&#x440;" horiz-adv-x="1217" 
d="M335 214c72.667 -36 153.667 -54 243 -54c238 0 357 131 357 393c0 228.667 -118.333 343 -355 343c-93.333 0 -175 -8 -245 -24v-658zM150 1007c139.333 28.667 283.333 43 432 43c356.667 0 535 -166.333 535 -499c0 -367.333 -179.333 -551 -538 -551
c-84 0 -165.333 16.667 -244 50v-430h-185v1387z" />
    <glyph glyph-name="afii10083" unicode="&#x441;" horiz-adv-x="1025" 
d="M940 30c-86.667 -20 -180 -30 -280 -30c-373.333 0 -560 181.667 -560 545c0 336.667 186.667 505 560 505c100 0 193.333 -10 280 -30v-150c-86.667 20 -183.334 30 -290.001 30c-243.333 0 -365 -118.333 -365 -355c0 -263.333 121.667 -395 365 -395
c106.667 0 203.334 10 290.001 30v-150z" />
    <glyph glyph-name="afii10084" unicode="&#x442;" horiz-adv-x="925" 
d="M925 1050v-150h-370v-900h-185v900h-370v150h925z" />
    <glyph glyph-name="afii10085" unicode="&#x443;" horiz-adv-x="1050" 
d="M25 1050h201.001l297 -820l307 820h196l-436 -1081c-77.333 -190.667 -193.333 -309.667 -348 -357l-71 131c117.333 51.333 202.666 135 255.999 251z" />
    <glyph glyph-name="afii10086" unicode="&#x444;" horiz-adv-x="1644" 
d="M730 -7c-420 22.667 -630 199.333 -630 530c0 333.333 210 511.333 630 534v373h184v-372c420 -20.667 630 -199 630 -535c0 -333.333 -210 -510.333 -630 -531v-372h-184v373zM730 143.999v762c-290.667 -22 -436 -147.667 -436 -377c0 -234 145.333 -362.333 436 -385z
M914 906.999v-764c290.667 20 436 148.667 436 386c0 232 -145.333 358 -436 378z" />
    <glyph glyph-name="afii10087" unicode="&#x445;" horiz-adv-x="1100" 
d="M240 0h-215l418 525l-418 525h215l310 -390l310 390h215l-418 -525l418 -525h-215l-310 390z" />
    <glyph glyph-name="afii10088" unicode="&#x446;" horiz-adv-x="1386" 
d="M150 0v1050h185v-900h581v900h185v-900h185v-530h-185v380h-951z" />
    <glyph glyph-name="afii10089" unicode="&#x447;" horiz-adv-x="1218" 
d="M1068 1050l-0.000976562 -1050h-185v414c-97.333 -76 -213.666 -114 -348.999 -114c-272.667 0 -409 137 -409 411v339h185v-342c0 -169.333 83 -254 249 -254c132.667 0 240.667 44.333 324 133v463h185z" />
    <glyph glyph-name="afii10090" unicode="&#x448;" horiz-adv-x="1635" 
d="M150 0v1050h185v-900h390v900h185v-900h390v900h185v-1050h-1335z" />
    <glyph glyph-name="afii10091" unicode="&#x449;" horiz-adv-x="1770" 
d="M150 0v1050h185v-900h390v900h185v-900h390v900h185v-900h185v-530h-185v380h-1335z" />
    <glyph glyph-name="afii10092" unicode="&#x44a;" horiz-adv-x="1352" 
d="M569 1050v-897h298c132 0 198 56.333 198 169c0 91.333 -60.667 137 -182 137h-178v150h188c239.333 0 359 -98.667 359 -296c0 -208.667 -122.667 -313 -368 -313h-500v900h-384v150h569z" />
    <glyph glyph-name="afii10093" unicode="&#x44b;" horiz-adv-x="1510" 
d="M1175 0v1050h185v-1050h-185zM335 1050v-897h318c118.667 0 178 56.333 178 169c0 91.333 -60.667 137 -182 137h-178v150h187c240 0 360 -98.667 360 -296c0 -208.667 -116 -313 -348 -313h-520v1050h185z" />
    <glyph glyph-name="afii10094" unicode="&#x44c;" horiz-adv-x="1168" 
d="M335 1050v-897h318c118.667 0 178 56.333 178 169c0 91.333 -60.667 137 -182 137h-178v150h187c240 0 360 -98.667 360 -296c0 -208.667 -116 -313 -348 -313h-520v1050h185z" />
    <glyph glyph-name="afii10095" unicode="&#x44d;" horiz-adv-x="1050" 
d="M100 180c86.667 -20 173.335 -30 260.002 -30c239.333 0 372.666 103.667 399.999 311h-596v150h597c-24 192.667 -157.667 289 -401 289c-86.667 0 -173.334 -10 -260.001 -30v150c86.667 20 180 30 280 30c380 0 570 -168.333 570 -505c0 -363.333 -190 -545 -570 -545
c-100 0 -193.333 10 -280 30v150z" />
    <glyph glyph-name="afii10096" unicode="&#x44e;" horiz-adv-x="1702" 
d="M1145 140c174.667 0 262 129.667 262 389c0 254 -87.333 381 -262 381c-182 0 -273 -127 -273 -381c0 -259.333 91 -389 273 -389zM150 0v1050h184v-440h346c24.667 300 179.667 450 465 450c304.667 0 457 -179 457 -537c0 -355.333 -152.333 -533 -457 -533
c-292.667 0 -448 156.667 -466 470h-345v-460h-184z" />
    <glyph glyph-name="afii10097" unicode="&#x44f;" horiz-adv-x="1145" 
d="M810 0v896.998h-358c-92 0 -138 -39.333 -138 -118c0 -93.333 106.667 -161.666 320 -204.999v-131l-375 -443h-234l406 469c-209.333 64.667 -314 167.334 -314 308.001c0 182 112.667 273 338 273h540v-1050h-185z" />
    <glyph glyph-name="afii10071" unicode="&#x451;" horiz-adv-x="1130" 
d="M583 1050c298.667 0 448.001 -147.667 448.001 -443c0 -42 -3 -87 -9 -135h-737c0 -214.667 125.333 -322 376 -322c119.333 0 225.333 13.333 318 40v-150c-92.667 -26.667 -205.334 -40 -338.001 -40c-360.667 0 -541 179 -541 537c0 342 161 513 483 513zM285.001 626
h568c-4 184 -94 276 -270 276c-186.667 0 -286 -92 -298 -276zM843.001 1430v-170h-185v170h185zM473.001 1430v-170h-185v170h185z" />
    <glyph glyph-name="endash" unicode="&#x2013;" horiz-adv-x="1200" 
d="M1100 600v-150h-1000v150h1000z" />
    <glyph glyph-name="emdash" unicode="&#x2014;" horiz-adv-x="1700" 
d="M1600 600v-150h-1500v150h1500z" />
    <glyph glyph-name="quoteleft" unicode="&#x2018;" horiz-adv-x="410" 
d="M385 1430l-150 -435h-185l150 435h185z" />
    <glyph glyph-name="quoteright" unicode="&#x2019;" horiz-adv-x="435" 
d="M385 1430l-150 -435h-185l150 435h185z" />
    <glyph glyph-name="quotesinglbase" unicode="&#x201a;" horiz-adv-x="410" 
d="M360 185l-150 -435h-185l150 435h185z" />
    <glyph glyph-name="quotedblleft" unicode="&#x201c;" horiz-adv-x="780" 
d="M755 1430l-150 -435h-185l150 435h185zM385 1430l-150 -435h-185l150 435h185z" />
    <glyph glyph-name="quotedblright" unicode="&#x201d;" horiz-adv-x="780" 
d="M755 1430l-150 -435h-185l150 435h185zM385 1430l-150 -435h-185l150 435h185z" />
    <glyph glyph-name="quotedblbase" unicode="&#x201e;" horiz-adv-x="780" 
d="M730 185l-150 -435h-185l150 435h185zM360 185l-150 -435h-185l150 435h185z" />
    <glyph glyph-name="dagger" unicode="&#x2020;" horiz-adv-x="1045" 
d="M615 1430v-380h380v-150h-380v-1280h-185v1280h-380v150h380v380h185z" />
    <glyph glyph-name="daggerdbl" unicode="&#x2021;" horiz-adv-x="1045" 
d="M615 1430v-380h380v-150h-380v-750h380v-150h-380v-380h-185v380h-380v150h380v750h-380v150h380v380h185z" />
    <glyph glyph-name="bullet" unicode="&#x2022;" horiz-adv-x="630" 
d="M100 725c0 143.333 71.667 215 215 215s215 -71.667 215 -215s-71.667 -215 -215 -215s-215 71.667 -215 215z" />
    <glyph glyph-name="ellipsis" unicode="&#x2026;" horiz-adv-x="1185" 
d="M285 185v-185h-185v185h185zM685 185v-185h-185v185h185zM1085 185v-185h-185v185h185z" />
    <glyph glyph-name="perthousand" unicode="&#x2030;" horiz-adv-x="2107" 
d="M305 0h-205l1017 1430h205zM378 1035c96 0 144 49 144 147c0 96 -48 144 -144 144c-98.667 0 -148 -48 -148 -144c0 -98 49.333 -147 148 -147zM100 1180c0 173.333 92.667 260 278 260c182.667 0 274 -86.667 274 -260c0 -172.667 -91.333 -259 -274 -259
c-185.333 0 -278 86.333 -278 259zM1733 104c96 0 144 49 144 147c0 96 -48 144 -144 144c-98.667 0 -148 -48 -148 -144c0 -98 49.333 -147 148 -147zM1455 249c0 173.333 92.667 260 278 260c182.667 0 274 -86.667 274 -260c0 -172.667 -91.333 -259 -274 -259
c-185.333 0 -278 86.333 -278 259zM1048 104c96 0 144 49 144 147c0 96 -48 144 -144 144c-98.667 0 -148 -48 -148 -144c0 -98 49.333 -147 148 -147zM770 249c0 173.333 92.667 260 278 260c182.667 0 274 -86.667 274 -260c0 -172.667 -91.333 -259 -274 -259
c-185.333 0 -278 86.333 -278 259z" />
    <glyph glyph-name="guilsinglleft" unicode="&#x2039;" horiz-adv-x="610" 
d="M100 525l258 375h202l-258 -375l258 -375h-202z" />
    <glyph glyph-name="guilsinglright" unicode="&#x203a;" horiz-adv-x="610" 
d="M252 150h-202l258 375l-258 375h202l258 -375z" />
    <glyph glyph-name="fraction" unicode="&#x2044;" horiz-adv-x="1270" 
d="M285 0h-185l885 1430h185z" />
    <glyph glyph-name="Euro" unicode="&#x20ac;" horiz-adv-x="1385" 
d="M1250 50c-123.333 -40 -256.666 -60 -399.999 -60c-500 0 -750 248.333 -750 745c0 470 250 705 750 705c143.333 0 276.666 -20 399.999 -60v-160c-123.333 46.667 -250 70 -380 70c-332 0 -527 -116 -585 -348h773v-150h-793v-110h793v-150h-773
c51.333 -261.333 246.333 -392 585 -392c130 0 256.667 23.333 380 70v-160z" />
    <glyph glyph-name="trademark" unicode="&#x2122;" horiz-adv-x="1606" 
d="M661 1430v-71h-212v-602h-87v602h-212v71h511zM750 757v673h110l248 -561l242 561h106v-673h-78v543l-239 -543h-69l-243 543v-543h-77z" />
    <glyph glyph-name="partialdiff" unicode="&#x2202;" horiz-adv-x="1217" 
d="M353 1150v170c145.333 80 299.333 120 462 120c266.667 0 400 -148.667 400 -446c0 -86 -11 -184 -33 -294c-94.667 -473.333 -308.667 -710 -642 -710c-260.667 0 -391 103.667 -391 311c0 39.333 4.66699 82.333 14 129c58 291.333 269 437 633 437h234
c10 54.667 15 104 15 148c0 183.333 -83.667 275 -251 275c-171.333 0 -318.333 -46.667 -441 -140zM997 700h-233c-241.333 0 -380 -90 -416 -270c-6.66699 -32.667 -10 -62.667 -10 -90c0 -133.333 78.667 -200 236 -200c200.667 0 341.667 186.667 423 560z" />
    <glyph glyph-name="product" unicode="&#x220f;" horiz-adv-x="1650" 
d="M1500 1430v-1810h-175v1660h-990v-1660h-185v1810h1350z" />
    <glyph glyph-name="summation" unicode="&#x2211;" horiz-adv-x="1350" 
d="M100 1430h1150v-150h-950l540 -720l-540 -790h950v-150h-1150v150l535 790l-535 720v150z" />
    <glyph glyph-name="radical" unicode="&#x221a;" horiz-adv-x="1350" 
d="M75 1050h365l242 -806l488 1610h180l-600 -1861h-165l-280 907h-230v150z" />
    <glyph glyph-name="infinity" unicode="&#x221e;" horiz-adv-x="1520" 
d="M100 525c0 196.667 106.667 295 320 295c133.333 0 246.666 -56.667 339.999 -170c93.333 113.333 206.666 170 339.999 170c213.333 0 320 -98.333 320 -295s-106.667 -295 -320 -295c-133.333 0 -246.666 56.667 -339.999 170
c-93.333 -113.333 -206.666 -170 -339.999 -170c-213.333 0 -320 98.333 -320 295zM1255 525c0 96.667 -51.667 145 -155 145c-86.667 0 -170 -48.333 -250 -145c80 -96.667 163.333 -145 250 -145c103.333 0 155 48.333 155 145zM420 380c86.667 0 170 48.333 250 145
c-80 96.667 -163.333 145 -250 145c-103.333 0 -155 -48.333 -155 -145s51.667 -145 155 -145z" />
    <glyph glyph-name="integral" unicode="&#x222b;" horiz-adv-x="589" 
d="M589 1510c-148 0 -222 -108.667 -222 -326c0 -17.333 0.333008 -35.333 1 -54l38 -750c0.666992 -20 1 -39.667 1 -59c0 -314 -135.667 -471 -407 -471v150c148 0 222 108.667 222 326c0 17.333 -0.333008 35.333 -1 54l-38 750c-0.666992 20 -1 39.667 -1 59
c0 314 135.667 471 407 471v-150z" />
    <glyph glyph-name="approxequal" unicode="&#x2248;" horiz-adv-x="1050" 
d="M950 450l0.000976562 -150c-74 -33.333 -147.333 -50 -220 -50s-144.334 16.667 -215.001 50s-140.667 50 -210 50c-68.667 0 -137 -16.667 -205 -50v150c74.667 33.333 148 50 220 50c72.667 0 144.334 -16.667 215.001 -50s140.667 -50 210 -50
s137.666 16.667 204.999 50zM950.001 750l0.000976562 -150c-74 -33.333 -147.333 -50 -220 -50s-144.334 16.667 -215.001 50s-140.667 50 -210 50c-68.667 0 -137 -16.667 -205 -50v150c74.667 33.333 148 50 220 50c72.667 0 144.334 -16.667 215.001 -50
s140.667 -50 210 -50s137.666 16.667 204.999 50z" />
    <glyph glyph-name="approxequal" unicode="&#x22f2;" horiz-adv-x="1050" 
d="M950 450l0.000976562 -150c-74 -33.333 -147.333 -50 -220 -50s-144.334 16.667 -215.001 50s-140.667 50 -210 50c-68.667 0 -137 -16.667 -205 -50v150c74.667 33.333 148 50 220 50c72.667 0 144.334 -16.667 215.001 -50s140.667 -50 210 -50
s137.666 16.667 204.999 50zM950.001 750l0.000976562 -150c-74 -33.333 -147.333 -50 -220 -50s-144.334 16.667 -215.001 50s-140.667 50 -210 50c-68.667 0 -137 -16.667 -205 -50v150c74.667 33.333 148 50 220 50c72.667 0 144.334 -16.667 215.001 -50
s140.667 -50 210 -50s137.666 16.667 204.999 50z" />
    <glyph glyph-name="notequal" unicode="&#x2260;" horiz-adv-x="950" 
d="M271 300h-171v150h257l86 150h-343v150h429l171 300h150l-171 -300h171v-150h-257l-86 -150h343v-150h-429l-171 -300h-150z" />
    <glyph glyph-name="lessequal" unicode="&#x2264;" horiz-adv-x="950" 
d="M850 150v-150h-750v150h750zM100 600v150l750 320v-160l-583 -239l583 -231v-160z" />
    <glyph glyph-name="greaterequal" unicode="&#x2265;" horiz-adv-x="950" 
d="M850 150v-150h-750v150h750zM100 280v160l583 231l-583 239v160l750 -320v-150z" />
    <glyph glyph-name="lozenge" unicode="&#x25ca;" horiz-adv-x="1085" 
d="M450 1430h185l400 -715l-400 -715h-185l-400 715zM235 715l308 -565l307 565l-307 565z" />
    <glyph glyph-name="zero.osf" unicode="&#xe012;" horiz-adv-x="1275" 
d="M643 140c214.667 0 322 129.667 322 389c0 254 -107.333 381 -322 381c-222 0 -333 -127 -333 -381c0 -259.333 111 -389 333 -389zM115 523c0 358 176 537 528 537c344.667 0 517 -179 517 -537c0 -355.333 -172.333 -533 -517 -533c-352 0 -528 177.667 -528 533z" />
    <glyph glyph-name="one.osf" unicode="&#xe013;" horiz-adv-x="854" 
d="M365 150v711h-250v99l435 90v-900h239v-150h-674v150h250z" />
    <glyph glyph-name="two.osf" unicode="&#xe014;" horiz-adv-x="1100" 
d="M115 0v149.999c443.333 224.667 665 418 665 580c0 120 -90 180 -270 180c-133.333 0 -265 -36.667 -395 -110v160c130 66.667 261.667 100 395 100c303.333 0 455 -110 455 -330c0 -193.333 -182.333 -386.666 -547 -579.999h597v-150h-900z" />
    <glyph glyph-name="three.osf" unicode="&#xe015;" horiz-adv-x="1110" 
d="M100 990c133.333 40 260 60.001 380 60.001c323.333 0 485 -126.667 485 -380c0 -124 -62.667 -215.667 -188 -275c125.333 -56.667 188 -148.334 188 -275.001c0 -266.667 -161.667 -400 -485 -400c-120 0 -246.667 20 -380 60v160c133.333 -46.667 260 -70 380 -70
c200 0 300 83.333 300 250c0 133.333 -84 200 -252 200h-278v150h275c170 0 255 66.667 255 200c0 153.333 -100 230 -300 230c-120 0 -246.667 -23.333 -380 -70v160z" />
    <glyph glyph-name="four.osf" unicode="&#xe016;" horiz-adv-x="1165" 
d="M957 -280h-185v309h-712v150l545 870h194l-546 -870h519v478h185v-478l148 -76v-74h-148v-309z" />
    <glyph glyph-name="five.osf" unicode="&#xe017;" horiz-adv-x="1145" 
d="M205 1050h764v-150h-607l-33 -402c78 14.667 150 22 216 22c333.333 0 500 -130 500 -390c0 -280 -186.667 -420 -560 -420c-120 0 -230 20 -330 60v160c100 -46.667 213.333 -70 340 -70c243.333 0 365 90 365 270c0 160 -105 240 -315 240
c-130 0 -260 -16.667 -390 -50z" />
    <glyph glyph-name="six.osf" unicode="&#xe018;" horiz-adv-x="1265" 
d="M120 520c0 337.333 219.333 621.667 658 853l96 -127c-228 -117.333 -392.667 -247 -494 -389c74 28.667 162.667 43 266 43c336 0 504 -146.667 504 -440c0 -313.333 -174.333 -470 -523 -470c-338 0 -507 176.667 -507 530zM636 140.001
c222 0 333.001 106.668 333.001 320.001c0 193.333 -110.667 290 -332 290c-122.667 0 -227.334 -16 -314.001 -48c-18.667 -26.667 -28 -85.334 -28 -176.001c0 -257.333 113.667 -386 341 -386z" />
    <glyph glyph-name="seven.osf" unicode="&#xe019;" horiz-adv-x="1060" 
d="M40 1050h930v-150l-612 -1180h-211l632 1180h-739v150z" />
    <glyph glyph-name="eight.osf" unicode="&#xe020;" horiz-adv-x="1250" 
d="M115 374c0 148.667 84 259 252 331c-141.333 63.333 -212 164.333 -212 303c0 224 156.667 336 470 336s470 -112 470 -336c0 -138.667 -72.333 -239.667 -217 -303c171.333 -72 257 -182.333 257 -331c0 -256 -170 -384 -510 -384s-510 128 -510 384zM910 1008
c0 121.333 -97.667 182 -293 182c-184.667 0 -277 -60.667 -277 -182c0 -158.667 96.667 -238 290 -238c186.667 0 280 79.333 280 238zM950 378c0 161.333 -111 242 -333 242c-211.333 0 -317 -80.667 -317 -242c0 -158.667 110 -238 330 -238
c213.333 0 320 79.333 320 238z" />
    <glyph glyph-name="nine.osf" unicode="&#xe021;" horiz-adv-x="1265" 
d="M1145 528c0 -337.333 -219.333 -621.667 -658 -853l-96 127c228 117.333 392.667 247 494 389c-74 -28.667 -162.667 -43 -266 -43c-336 0 -504 146.667 -504 440c0 313.333 174.333 470 523 470c338 0 507 -176.667 507 -530zM629 907.999
c-222 0 -333.001 -106.668 -333.001 -320.001c0 -193.333 110.667 -290 332 -290c122.667 0 227.334 16 314.001 48c18.667 26.667 28 85.334 28 176.001c0 257.333 -113.667 386 -341 386z" />
    <glyph glyph-name="g.alt" unicode="&#xe022;" horiz-adv-x="1130" 
d="M557 1050c88.667 0 165.333 -16.668 230 -50.001l146 50h157v-150h-186c56 -52.667 84.333 -123.667 85 -213c0 -248 -148.333 -372 -445 -372c-48 0 -109.333 10 -184 30c-50 -42 -75 -83.333 -75 -124c0 -47.333 29.667 -71 89 -71h344c224.667 0 337 -81.667 337 -245
c0 -203.333 -170.667 -305 -512 -305c-161.333 0 -312.333 30 -453 90v170c142.667 -73.333 295 -110 457 -110c215.333 0 323 51.667 323 155c0 63.333 -49.667 95 -149 95h-363c-162 0 -243 61.333 -243 184c0 82.667 40 158.334 120 227.001
c-83.333 59.333 -125 148.333 -125 267c0 248 149 372 447 372zM551.999 469.999c168 0 252 71.667 252 215s-84 215 -252 215c-171.333 0 -257 -71.667 -257 -215s85.667 -215 257 -215z" />
    <glyph glyph-name="gcircumflex.alt" unicode="&#xe023;" horiz-adv-x="1130" 
d="M557 1050c88.667 0 165.333 -16.668 230 -50.001l146 50h157v-150h-186c56 -52.667 84.333 -123.667 85 -213c0 -248 -148.333 -372 -445 -372c-48 0 -109.333 10 -184 30c-50 -42 -75 -83.333 -75 -124c0 -47.333 29.667 -71 89 -71h344c224.667 0 337 -81.667 337 -245
c0 -203.333 -170.667 -305 -512 -305c-161.333 0 -312.333 30 -453 90v170c142.667 -73.333 295 -110 457 -110c215.333 0 323 51.667 323 155c0 63.333 -49.667 95 -149 95h-363c-162 0 -243 61.333 -243 184c0 82.667 40 158.334 120 227.001
c-83.333 59.333 -125 148.333 -125 267c0 248 149 372 447 372zM551.999 469.999c168 0 252 71.667 252 215s-84 215 -252 215c-171.333 0 -257 -71.667 -257 -215s85.667 -215 257 -215zM482.999 1430h150l175 -260h-150l-100 160l-100 -160h-150z" />
    <glyph glyph-name="gbreve.alt" unicode="&#xe024;" horiz-adv-x="1130" 
d="M557 1050c88.667 0 165.333 -16.668 230 -50.001l146 50h157v-150h-186c56 -52.667 84.333 -123.667 85 -213c0 -248 -148.333 -372 -445 -372c-48 0 -109.333 10 -184 30c-50 -42 -75 -83.333 -75 -124c0 -47.333 29.667 -71 89 -71h344c224.667 0 337 -81.667 337 -245
c0 -203.333 -170.667 -305 -512 -305c-161.333 0 -312.333 30 -453 90v170c142.667 -73.333 295 -110 457 -110c215.333 0 323 51.667 323 155c0 63.333 -49.667 95 -149 95h-363c-162 0 -243 61.333 -243 184c0 82.667 40 158.334 120 227.001
c-83.333 59.333 -125 148.333 -125 267c0 248 149 372 447 372zM551.999 469.999c168 0 252 71.667 252 215s-84 215 -252 215c-171.333 0 -257 -71.667 -257 -215s85.667 -215 257 -215zM284.999 1430h135c0 -100 43.333 -150 130 -150s130 50 130 150h135
c0 -173.333 -88.333 -260 -265 -260s-265 86.667 -265 260z" />
    <glyph glyph-name="gdotaccent.alt" unicode="&#xe025;" horiz-adv-x="1130" 
d="M557 1050c88.667 0 165.333 -16.668 230 -50.001l146 50h157v-150h-186c56 -52.667 84.333 -123.667 85 -213c0 -248 -148.333 -372 -445 -372c-48 0 -109.333 10 -184 30c-50 -42 -75 -83.333 -75 -124c0 -47.333 29.667 -71 89 -71h344c224.667 0 337 -81.667 337 -245
c0 -203.333 -170.667 -305 -512 -305c-161.333 0 -312.333 30 -453 90v170c142.667 -73.333 295 -110 457 -110c215.333 0 323 51.667 323 155c0 63.333 -49.667 95 -149 95h-363c-162 0 -243 61.333 -243 184c0 82.667 40 158.334 120 227.001
c-83.333 59.333 -125 148.333 -125 267c0 248 149 372 447 372zM551.999 469.999c168 0 252 71.667 252 215s-84 215 -252 215c-171.333 0 -257 -71.667 -257 -215s85.667 -215 257 -215zM646.999 1430v-190h-205v190h205z" />
    <glyph glyph-name="gcomma.alt" unicode="&#xe026;" horiz-adv-x="1130" 
d="M557 1050c88.667 0 165.333 -16.668 230 -50.001l146 50h157v-150h-186c56 -52.667 84.333 -123.667 85 -213c0 -248 -148.333 -372 -445 -372c-48 0 -109.333 10 -184 30c-50 -42 -75 -83.333 -75 -124c0 -47.333 29.667 -71 89 -71h344c224.667 0 337 -81.667 337 -245
c0 -203.333 -170.667 -305 -512 -305c-161.333 0 -312.333 30 -453 90v170c142.667 -73.333 295 -110 457 -110c215.333 0 323 51.667 323 155c0 63.333 -49.667 95 -149 95h-363c-162 0 -243 61.333 -243 184c0 82.667 40 158.334 120 227.001
c-83.333 59.333 -125 148.333 -125 267c0 248 149 372 447 372zM551.999 469.999c168 0 252 71.667 252 215s-84 215 -252 215c-171.333 0 -257 -71.667 -257 -215s85.667 -215 257 -215zM763.999 1430l-150 -280h-185l150 280h185z" />
    <glyph glyph-name="k.alt" unicode="&#xe027;" horiz-adv-x="1082" 
d="M1076 1050l-456 -489l462 -561h-237l-394 505v103l397 442h228zM150 0v1430h185v-1430h-185z" />
    <glyph glyph-name="kcomma.alt" unicode="&#xe028;" horiz-adv-x="1082" 
d="M150 0v1430h185v-1430h-185zM691 -100l-150 -280h-185l150 280h185zM1076 1050l-456 -489l462 -561h-237l-394 505v103l397 442h228z" />
    <glyph glyph-name="germandbls.cap" unicode="&#xe029;" horiz-adv-x="1541" 
d="M170 0l0.00195312 910c0 360 221.667 540 665 540c155.333 0 343.666 -26.667 564.999 -80v-130l-436 -433c318 -3.33301 477 -132.333 477 -387c0 -281.333 -164.667 -422 -494 -422c-117.333 0 -228 23.333 -332 70v160c104.667 -53.333 216 -80 334 -80
c198 0 297 90.667 297 272c0 167.333 -115 251.333 -345 252h-136v128l438 460c-122.667 26.667 -245.334 40 -368.001 40c-320 0 -480 -126.667 -480 -380v-920h-185z" />
    <glyph glyph-name="MT.sign" unicode="&#xf000;" horiz-adv-x="1724" 
d="M1181 332v102l-253 13v540h135l51 -400h115l-38 511h-249l-80 -43l-79 43h-250l-38 -511h114l51 400h136v-540l-253 -13v-102h638zM534 1330l37 89l89 -37l53 80l81 -53l68 67l68 -67l81 53l53 -80l89 37l37 -89l94 19l20 -96h97v-96l94 -19l-19 -94l89 -37l-36 -90
l81 -52l-54 -82l68 -67l-69 -69l55 -82l-82 -52l37 -90l-89 -37l19 -94l-94 -19v-96h-97l-20 -96l-94 19l-37 -89l-89 37l-53 -80l-81 53l-68 -67l-68 67l-81 -53l-53 80l-89 -37l-37 89l-95 -19l-19 96h-97v96l-95 19l19 94l-90 39l37 88l-80 53l55 81l-69 69l69 67l-55 82
l82 54l-37 88l89 37l-19 94l94 19v96h97l19 96zM862 1347c-174.667 0 -323.667 -61.667 -447 -185s-185 -272 -185 -446c0 -175.333 61.667 -324.666 185 -447.999s272.333 -185 447 -185s323.667 61.667 447 185s185 272.666 185 447.999c0 174 -61.667 322.667 -185 446
s-272.333 185 -447 185zM1270 1123.5c112.667 -113 169 -248.833 169 -407.5c0 -160 -56.333 -296.5 -169 -409.5s-248.667 -169.5 -408 -169.5s-295.333 56.5 -408 169.5s-169 249.5 -169 409.5c0 158.667 56.333 294.5 169 407.5s248.667 169.5 408 169.5
s295.333 -56.5 408 -169.5z" />
    <glyph glyph-name=".null" horiz-adv-x="0" 
 />
    <glyph glyph-name="nonmarkingreturn" horiz-adv-x="390" 
 />
    </font>
</defs>
</svg>
