<?xml version="1.0" standalone="no"?>
<!DOCTYPE svg PUBLIC "-//W3C//DTD SVG 1.1//EN" "http://www.w3.org/Graphics/SVG/1.1/DTD/svg11.dtd" >
<svg xmlns="http://www.w3.org/2000/svg">
<metadata>
Created by FontPrep 20130207 at Tue Nov 26 13:15:37 2019
 By Mauricio Duran
2003 Hans Reichel, published by FontShop International for the FontFont library.
</metadata>
<defs>
<font id="846a3d8c516461b33f5829d1a0b4a58c" horiz-adv-x='1024' >
  <font-face 
    font-family="DaxCompact-Light"
    font-weight="400"
    font-stretch="normal"
    units-per-em="2048"
    panose-1="2 0 5 6 5 0 0 2 0 4"
    ascent="1843"
    descent="-205"
    x-height="1249"
    cap-height="1720"
    bbox="-225 -385 2036 2171"
    underline-thickness="102"
    underline-position="-102"
    unicode-range="U+0020-2122"
  />
<missing-glyph horiz-adv-x="2048" 
 />
    <glyph glyph-name=".notdef" horiz-adv-x="2048" 
 />
    <glyph glyph-name=".null" horiz-adv-x="0" 
 />
    <glyph glyph-name="nonmarkingreturn" horiz-adv-x="532" 
 />
    <glyph glyph-name="space" unicode=" " horiz-adv-x="532" 
 />
    <glyph glyph-name="exclam" unicode="!" horiz-adv-x="532" 
d="M352 74q0 -35 -25.5 -60.5t-60.5 -25.5t-60.5 25.5t-25.5 60.5t25.5 60.5t60.5 25.5t60.5 -25.5t25.5 -60.5zM311 481h-90l-24 1239h139z" />
    <glyph glyph-name="quotedbl" unicode="&#x22;" horiz-adv-x="786" 
d="M231.5 1733q40.5 0 63.5 -43l-31 -492h-65l-31 492q23 43 63.5 43zM555.5 1733q40.5 0 62.5 -43l-30 -492h-66l-30 492q23 43 63.5 43z" />
    <glyph glyph-name="numbersign" unicode="#" horiz-adv-x="1310" 
d="M500 1098l-58 -455h373l57 455h-372zM1114 643v-86h-213l-70 -557h-98l70 557h-373l-70 -557h-98l70 557h-205v86h217l57 455h-204v86h215l67 536h99l-68 -536h373l67 536h99l-68 -536h203v-86h-213l-58 -455h201z" />
    <glyph glyph-name="dollar" unicode="$" horiz-adv-x="950" 
d="M772 1579q-94 68 -236 68q-150 0 -226.5 -88.5t-76.5 -210.5t45.5 -197.5t112 -138t144 -118.5t144 -125t112 -159t45.5 -196q0 -187 -94 -298.5t-265 -131.5l15 -312h-123l26 308q-86 2 -167 27.5t-126 53.5l50 89q35 -23 105.5 -46.5t146.5 -23.5q148 0 228.5 86.5
t80.5 211.5q0 124 -44 202.5t-110.5 141t-144.5 119t-144.5 124t-110.5 155.5t-44 232t88 253t262 132l-12 299h122l-26 -295q172 -4 272 -82z" />
    <glyph glyph-name="percent" unicode="%" horiz-adv-x="1699" 
d="M645 -10l-84 20l492 1721l84 -21zM1313 61q174 0 174 512t-174 512q-96 0 -135 -137t-39 -374.5t39 -375t135 -137.5zM387 643q174 0 174 512t-174 512q-96 0 -135 -137t-39 -374.5t39 -375t135 -137.5zM115 1151q0 590 272 590t272 -510.5t-101 -590t-171 -79.5
q-272 0 -272 590zM1584.5 414.5q-0.5 -434.5 -272.5 -434.5t-272 508.5t100.5 589.5t171.5 81t123 -41t101 -155t48.5 -548.5z" />
    <glyph glyph-name="ampersand" unicode="&#x26;" horiz-adv-x="1085" 
d="M229 491q0 -195 85 -306t237 -111q57 0 107.5 12t70.5 23v899q-258 -72 -379 -197t-121 -320zM549 -20q-205 0 -321.5 130t-116.5 347t104 345t242 183v4q-189 64 -237 177.5t-48 195.5q0 166 98 272.5t281 106.5q78 0 141.5 -25.5t98.5 -56.5l-43 -80q-23 18 -77.5 42
t-119.5 24q-123 0 -191.5 -76t-68.5 -208t74.5 -218t239 -86t401.5 160l38 -91q-70 -43 -200 -84v-981q-33 -29 -113 -55t-182 -26z" />
    <glyph glyph-name="quotesingle" unicode="'" horiz-adv-x="462" 
d="M231.5 1733q40.5 0 63.5 -43l-31 -492h-65l-31 492q23 43 63.5 43z" />
    <glyph glyph-name="parenleft" unicode="(" horiz-adv-x="614" 
d="M463 -328q-336 555 -336 1095t336 1097l82 -41q-143 -244 -215 -517.5t-72 -537.5t71.5 -537.5t215.5 -517.5z" />
    <glyph glyph-name="parenright" unicode=")" horiz-adv-x="614" 
d="M152 1864q335 -553 335 -1093.5t-335 -1098.5l-82 41q143 244 214.5 517.5t71.5 537.5t-71.5 537.5t-214.5 517.5z" />
    <glyph glyph-name="asterisk" unicode="*" 
d="M555 1239l221 -317l-102 -86l-178 372l-179 -372l-102 86l221 317l-284 82l32 129l281 -147l-29 417h119l-29 -417l281 147l33 -129z" />
    <glyph glyph-name="plus" unicode="+" 
d="M547 770v-364h-103v364h-284v94h284v361h103v-361h284v-94h-284z" />
    <glyph glyph-name="comma" unicode="," horiz-adv-x="450" 
d="M172 117q22 43 91 43q38 0 48 -43l-184 -445h-70z" />
    <glyph glyph-name="hyphen" unicode="-" horiz-adv-x="696" 
d="M143 754v110h410v-110h-410z" />
    <glyph glyph-name="period" unicode="." horiz-adv-x="450" 
d="M311 74q0 -35 -25.5 -60.5t-60.5 -25.5t-60.5 25.5t-25.5 60.5t25.5 60.5t60.5 25.5t60.5 -25.5t25.5 -60.5z" />
    <glyph glyph-name="slash" unicode="/" horiz-adv-x="909" 
d="M176 -270l-98 32l598 2048l98 -32z" />
    <glyph glyph-name="zero" unicode="0" 
d="M495.5 76q262.5 0 262.5 788.5t-262.5 788.5t-262.5 -788.5t262.5 -788.5zM496 1741q381 0 381 -880.5t-381 -880.5t-381 880.5t381 880.5z" />
    <glyph glyph-name="one" unicode="1" 
d="M539 0v1524q-111 -54 -216.5 -76.5t-144.5 -26.5l-10 78q204 31 295.5 103.5t114.5 117.5h77v-1720h-116z" />
    <glyph glyph-name="two" unicode="2" 
d="M390 1640q-136 0 -247 -63l-41 82q47 31 125 56.5t166 25.5q195 0 302.5 -118t107.5 -298t-133 -430l-426 -784h600v-111h-762l493 946q109 209 109 364t-79 242.5t-215 87.5z" />
    <glyph glyph-name="three" unicode="3" 
d="M119 1659q117 82 311 82q70 0 145.5 -33t151.5 -113t76 -241t-85 -265t-196 -153v-4q107 -41 206 -152.5t99 -297.5q0 -215 -117.5 -358.5t-322.5 -143.5q-86 0 -166 24.5t-123 56.5l41 91q35 -25 102.5 -48.5t144.5 -23.5q147 0 235 114t88 291t-118 285.5t-290 108.5
v77q164 4 273.5 115t109.5 277q0 121 -72.5 207.5t-177 86.5t-171 -21.5t-101.5 -43.5z" />
    <glyph glyph-name="four" unicode="4" 
d="M657 1480q0 17 5 64h-7q-10 -27 -21 -60t-40 -104l-385 -858h448v958zM764 434v-434h-107v434h-542v90l542 1196h107v-1198h113v-88h-113z" />
    <glyph glyph-name="five" unicode="5" 
d="M848 512q0 -236 -115.5 -384t-314.5 -148q-94 0 -175 24.5t-124 56.5l41 91q35 -25 102.5 -48.5t144.5 -23.5q151 0 236.5 117.5t85.5 298.5q0 360 -207 395t-348 10l45 819h612v-106h-522l-33 -615q262 29 375 -68t155 -198t42 -221z" />
    <glyph glyph-name="six" unicode="6" 
d="M762 506q0 195 -78.5 305.5t-234.5 110.5q-115 0 -187 -33q-24 -129 -24 -263q1 -259 71 -404.5t195 -145.5q188 0 223 171t35 259zM466 1008q197 0 306 -139.5t109 -363.5q0 -225 -99.5 -375t-280 -150t-281.5 173t-101 429t58.5 444t150.5 331.5t207.5 239t230.5 144.5
l35 -86q-265 -115 -375.5 -331t-144.5 -355q80 39 185 39z" />
    <glyph glyph-name="seven" unicode="7" 
d="M131 1614v106h770l-149 -452q-270 -814 -379 -1268h-146l541 1614h-637z" />
    <glyph glyph-name="eight" unicode="8" 
d="M743 1370q0 57 -16 109.5t-48 90.5t-78 60.5t-130 22.5t-150.5 -80.5t-66.5 -215.5t95 -232t143 -140q133 122 171.5 174.5t59 103t20.5 107.5zM693.5 627.5q-68.5 97.5 -206.5 222.5q-131 -120 -197.5 -220t-66.5 -233t79 -227t192 -94t190.5 94.5t77.5 227.5
q0 132 -68.5 229.5zM877 395q0 -90 -30 -167.5t-82 -133t-122 -85t-189 -29.5t-229 116t-110 317t120.5 326t178.5 176q-122 108 -196.5 214t-74.5 251t97 253t256 108t255.5 -107t96.5 -273q0 -165 -113.5 -278.5t-169.5 -162.5q57 -53 113.5 -108.5t100.5 -119t71 -135.5
t27 -162z" />
    <glyph glyph-name="nine" unicode="9" 
d="M754 1096q0 254 -70.5 405.5t-197.5 151.5t-192 -125.5t-65 -298.5q0 -304 115 -366t216 -62t169 33q25 128 25 262zM525 713q-199 0 -306.5 139t-107.5 363t98.5 375t279.5 151t282 -173t101 -430t-58 -444.5t-150.5 -331t-208 -238.5t-230.5 -144l-35 86
q266 115 376 330.5t145 355.5q-81 -39 -186 -39z" />
    <glyph glyph-name="colon" unicode=":" horiz-adv-x="450" 
d="M311 74q0 -35 -25.5 -60.5t-60.5 -25.5t-60.5 25.5t-25.5 60.5t25.5 60.5t60.5 25.5t60.5 -25.5t25.5 -60.5zM311 708.5q0 -34.5 -25.5 -60t-60.5 -25.5t-60.5 25.5t-25.5 60t25.5 60.5t60.5 26t60.5 -26t25.5 -60.5z" />
    <glyph glyph-name="semicolon" unicode=";" horiz-adv-x="450" 
d="M311 708.5q0 -34.5 -25.5 -60t-60.5 -25.5t-60.5 25.5t-25.5 60t25.5 60.5t60.5 26t60.5 -26t25.5 -60.5zM172 117q22 43 91 43q38 0 48 -43l-184 -445h-70z" />
    <glyph glyph-name="less" unicode="&#x3c;" 
d="M160 770v94l671 285v-109l-573 -223l573 -223v-109z" />
    <glyph glyph-name="equal" unicode="=" 
d="M160 612v95h671v-95h-671zM160 928v94h671v-94h-671z" />
    <glyph glyph-name="greater" unicode="&#x3e;" 
d="M160 485v109l573 223l-573 223v109l671 -285v-94z" />
    <glyph glyph-name="question" unicode="?" horiz-adv-x="819" 
d="M459 74q0 -35 -25.5 -60.5t-60.5 -25.5t-60.5 25.5t-25.5 60.5t25.5 60.5t60.5 25.5t60.5 -25.5t25.5 -60.5zM584 1401q0 86 -64 162.5t-178 76.5q-66 0 -122 -21.5t-85 -41.5l-41 82q41 33 109.5 57.5t147.5 24.5q163 0 258.5 -108t95.5 -259t-78 -266t-197 -186
l-12 -441h-90l-13 480q196 101 232.5 227.5t36.5 212.5z" />
    <glyph glyph-name="at" unicode="@" horiz-adv-x="1761" 
d="M950 1198q-146 0 -220.5 -133.5t-74.5 -369.5t95.5 -363t328.5 -127v950q-49 43 -129 43zM1008 -348q-229 0 -396.5 83t-328 291.5t-160.5 665.5q0 211 55 401.5t159.5 334t256 228.5t345.5 85t328 -74t252.5 -249.5t118.5 -548.5t-157 -561.5t-420 -188.5
q-516 0 -516 596q0 257 109 412t288 155q100 0 160.5 -37t83.5 -67v-957q228 45 285 261t57 374q0 347 -139.5 575t-448.5 228q-172 0 -303 -79t-267.5 -279t-136.5 -613t140.5 -603.5t287 -266.5t364.5 -76t343 80t162 117l47 -72q-229 -215 -569 -215z" />
    <glyph glyph-name="A" unicode="A" horiz-adv-x="1032" 
d="M549 1391q-20 88 -35 200h-4q-15 -113 -35 -200l-184 -832h442zM858 0l-104 473h-484l-104 -473h-121l412 1720h118l412 -1720h-129z" />
    <glyph glyph-name="B" unicode="B" horiz-adv-x="1003" 
d="M365 920q380 0 380 368q0 178 -66.5 270.5t-232.5 92.5q-116 0 -172 -31v-700h91zM774 450q0 392 -405 392h-95v-733q83 -33 181 -33q145 0 232 93t87 281zM893 446q0 -229 -117.5 -347.5t-320.5 -118.5q-86 0 -167 23.5t-128 57.5v1598q61 49 153.5 65.5t166.5 16.5
t229 -62.5t155 -382.5q0 -158 -77 -264.5t-175 -144.5v-4q180 -65 230.5 -194t50.5 -243z" />
    <glyph glyph-name="C" unicode="C" horiz-adv-x="868" 
d="M235.5 1510.5q116.5 230.5 346.5 230.5q72 0 130 -25.5t91 -56.5l-39 -80q-29 25 -79 44t-103 19q-170 0 -254 -203.5t-84 -573.5t83 -574.5t253 -204.5q108 0 182 64l41 -89q-86 -81 -212 -81t-213 60t-173 230.5t-86 590t116.5 650z" />
    <glyph glyph-name="D" unicode="D" horiz-adv-x="1064" 
d="M438 78q385 0 385 789q0 388 -101 586t-284 198q-96 0 -159 -29v-1516q56 -28 159 -28zM446 1741q239 0 369.5 -233t130.5 -647t-130 -647.5t-370 -233.5q-98 0 -171.5 25.5t-114.5 55.5v1598q116 82 286 82z" />
    <glyph glyph-name="E" unicode="E" horiz-adv-x="827" 
d="M160 0v1720h549v-90h-430v-704h393v-90h-393v-742h430v-94h-549z" />
    <glyph glyph-name="F" unicode="F" horiz-adv-x="819" 
d="M279 1630v-704h393v-90h-393v-836h-119v1720h549v-90h-430z" />
    <glyph glyph-name="G" unicode="G" horiz-adv-x="1052" 
d="M119 863q0 425 136 651.5t376 226.5q92 0 157.5 -26.5t94.5 -55.5l-39 -80q-82 63 -213 63q-182 0 -285.5 -195.5t-103.5 -586.5q0 -565 145 -672.5t246 -107.5t153 26v730h-231v90h350v-865q-101 -81 -287 -81q-242 0 -370.5 229t-128.5 654z" />
    <glyph glyph-name="H" unicode="H" horiz-adv-x="1056" 
d="M778 0v836h-499v-836h-119v1720h119v-794h499v794h119v-1720h-119z" />
    <glyph glyph-name="I" unicode="I" horiz-adv-x="462" 
d="M172 0v1720h119v-1720h-119z" />
    <glyph glyph-name="J" unicode="J" horiz-adv-x="475" 
d="M303 115q0 -195 -107 -320t-241 -143v94q93 27 161 123.5t68 245.5v1605h119v-1605z" />
    <glyph glyph-name="K" unicode="K" horiz-adv-x="954" 
d="M287 897v-897h-119v1720h119v-819h4q10 14 22 40t37 69l408 710h127l-484 -821l500 -899h-139l-412 774q-10 20 -21.5 42t-20.5 42t-17 39h-4z" />
    <glyph glyph-name="L" unicode="L" horiz-adv-x="749" 
d="M168 0v1720h119v-1626h393v-94h-512z" />
    <glyph glyph-name="M" unicode="M" horiz-adv-x="1437" 
d="M1081 1608h-4q-6 -107 -33 -219l-278 -1389h-102l-279 1389q-8 41 -13.5 79.5t-11.5 72.5t-10 67h-4q0 -33 -2 -67t-3 -72.5t-5 -79.5l-121 -1389h-117l181 1720h137l268 -1343q28 -138 33 -223h4q6 104 33 223l268 1343h137l180 -1720h-125l-120 1389q-13 127 -13 219z
" />
    <glyph glyph-name="N" unicode="N" horiz-adv-x="1159" 
d="M905 141q-4 58 -4 73v1506h98v-1720h-129l-553 1417q-30 77 -59 172h-4q0 -27 2 -57l2 -121v-1411h-98v1720h139l545 -1401q20 -51 34 -101q15 -50 23 -77h4z" />
    <glyph glyph-name="O" unicode="O" horiz-adv-x="1093" 
d="M547 78q305 0 305 786.5t-305 786.5t-305 -786.5t305 -786.5zM547 1741q428 0 428 -880.5t-428 -880.5t-428 880.5t428 880.5z" />
    <glyph glyph-name="P" unicode="P" horiz-adv-x="942" 
d="M402 893q166 0 249.5 102.5t83.5 283.5t-69 277.5t-237 96.5q-93 0 -150 -31v-723q43 -6 123 -6zM416 807q-92 0 -137 8v-815h-119v1659q41 33 118.5 57.5t175.5 24.5t250 -69.5t152 -396.5t-174 -397.5t-266 -70.5z" />
    <glyph glyph-name="Q" unicode="Q" horiz-adv-x="1093" 
d="M547 78q305 0 305 786.5t-305 786.5t-305 -786.5t305 -786.5zM119 860.5q0 880.5 428 880.5t428 -881q0 -668 -250 -831l319 -236l-106 -90l-303 287q-38 -10 -88 -10q-428 0 -428 880.5z" />
    <glyph glyph-name="R" unicode="R" horiz-adv-x="966" 
d="M434 1651q-85 0 -155 -29v-721q25 -6 61 -6q184 0 289.5 92.5t105.5 282.5q0 381 -301 381zM279 879v-879h-119v1659q41 33 117.5 57.5t172.5 24.5t251 -70t155 -401q0 -218 -134.5 -320.5t-297.5 -120.5l469 -829h-139l-400 737q-34 61 -71 142h-4z" />
    <glyph glyph-name="S" unicode="S" horiz-adv-x="860" 
d="M647.5 102q-110.5 -122 -289.5 -122q-78 0 -152.5 24.5t-115.5 56.5l43 89q35 -25 97 -45.5t130 -20.5q126 0 200.5 94t74.5 214t-39 198t-98.5 140.5t-127 119.5t-166 170.5t-98.5 329.5q0 178 108 284.5t280 106.5q88 0 153.5 -26.5t97.5 -55.5l-43 -80q-29 23 -88 43
t-150 20t-165 -81.5t-74 -201.5t40 -198t98.5 -140.5t128 -119.5t168 -172.5t98.5 -309.5q0 -195 -110.5 -317z" />
    <glyph glyph-name="T" unicode="T" horiz-adv-x="831" 
d="M475 1630v-1630h-119v1630h-299v90h717v-90h-299z" />
    <glyph glyph-name="U" unicode="U" horiz-adv-x="1044" 
d="M885 369q0 -179 -103 -284t-260 -105t-259.5 104.5t-102.5 284.5v1351h119v-1351q0 -137 69.5 -212t178 -75t178 74.5t69.5 212.5v1351h111v-1351z" />
    <glyph glyph-name="V" unicode="V" 
d="M551 0h-111l-391 1720h131l289 -1390q7 -35 15 -87q9 -51 14 -73h4q2 24 7 48t10 52.5t11 59.5l289 1390h123z" />
    <glyph glyph-name="W" unicode="W" horiz-adv-x="1531" 
d="M768 1579h-4q0 -29 -4 -55t-8 -57t-9 -62l-241 -1405h-111l-321 1720h131l225 -1386q4 -31 7 -60.5t7 -54.5t6 -49h5q0 26 4 50t7 53.5t9 60.5l242 1386h114l240 -1386q4 -29 8 -58.5t8 -54.5t4 -51h5q2 28 6 52t7 53.5t7 58.5l227 1386h123l-321 -1720h-111l-242 1405
q-6 31 -9 61.5t-7 57.5t-4 55z" />
    <glyph glyph-name="X" unicode="X" horiz-adv-x="954" 
d="M760 0l-283 795h-4l-287 -795h-125l345 895l-312 825h129l254 -723h4l258 723h121l-311 -817l344 -903h-133z" />
    <glyph glyph-name="Y" unicode="Y" horiz-adv-x="917" 
d="M518 0h-119v766l-362 954h131l293 -841h4l293 841h123l-363 -954v-766z" />
    <glyph glyph-name="Z" unicode="Z" horiz-adv-x="786" 
d="M82 1634v86h623l-492 -1630h496v-90h-648l494 1634h-473z" />
    <glyph glyph-name="bracketleft" unicode="[" horiz-adv-x="614" 
d="M164 -328v2233h356v-88h-241v-2057h241v-88h-356z" />
    <glyph glyph-name="backslash" unicode="\" horiz-adv-x="909" 
d="M733 -270l-598 2048l98 32l598 -2048z" />
    <glyph glyph-name="bracketright" unicode="]" horiz-adv-x="614" 
d="M94 -328v88h242v2057h-242v88h357v-2233h-357z" />
    <glyph glyph-name="asciicircum" unicode="^" 
d="M496 1528q39 0 71 -47l260 -363l-55 -53l-276 342l-277 -342l-55 53l260 363q33 47 72 47z" />
    <glyph glyph-name="underscore" unicode="_" 
d="M-20 -385v98h1032v-98h-1032z" />
    <glyph glyph-name="grave" unicode="`" horiz-adv-x="450" 
d="M41 1669q12 31 52 31t77 -31l137 -276h-63z" />
    <glyph glyph-name="a" unicode="a" horiz-adv-x="868" 
d="M470 70q82 0 136 36v650q-284 -41 -338.5 -167.5t-54.5 -204.5t14.5 -132.5t44 -94.5t73 -63.5t125.5 -23.5zM390 1176q-114 0 -216 -68l-31 80q37 29 105.5 55.5t154.5 26.5q313 0 314 -338v-871q-43 -33 -118 -57t-162 -24q-169 0 -254 115.5t-85 251.5q0 137 78 291.5
t430 201.5v88q0 131 -51 189.5t-165 58.5z" />
    <glyph glyph-name="b" unicode="b" horiz-adv-x="921" 
d="M403 72q79 0 134 43t88.5 118.5t50 181t16.5 298.5t-66 332t-198 139q-84 0 -162 -43v-1039q58 -30 137 -30zM435 1270q187 0 281.5 -168t94.5 -457q0 -472 -151.5 -568.5t-253.5 -96.5q-150 0 -254 81v1659h114v-499q70 49 169 49z" />
    <glyph glyph-name="c" unicode="c" horiz-adv-x="765" 
d="M469 -20q-178 0 -268 164.5t-90 480t90 480.5t268 165q78 0 131 -26.5t80 -55.5l-37 -78q-23 23 -67 44.5t-99 21.5q-248 0 -248 -408t63.5 -548t184.5 -140q55 0 99.5 20.5t66.5 44.5l37 -84q-81 -81 -211 -81z" />
    <glyph glyph-name="d" unicode="d" horiz-adv-x="921" 
d="M537 1174q-166 0 -237 -140t-71 -410t74 -411t211 -141q96 0 141 28v1055q-51 19 -118 19zM522 1260q87 0 133 -23v483h115v-1659q-33 -29 -100.5 -55t-163.5 -26q-186 0 -290.5 165t-104.5 477t106.5 475t304.5 163z" />
    <glyph glyph-name="e" unicode="e" horiz-adv-x="917" 
d="M472 1184q-116 0 -181.5 -133t-65.5 -414l465 57q-6 236 -54 363t-164 127zM111 598q0 672 365 672q161 0 246 -156t85 -422l-2 -67l-578 -72q0 -198 76.5 -335.5t202.5 -137.5q149 0 237 67l35 -86q-35 -29 -104.5 -55t-162.5 -26q-186 0 -293 163t-107 455z" />
    <glyph glyph-name="f" unicode="f" horiz-adv-x="593" 
d="M457 1645q-66 0 -99.5 -46.5t-33.5 -158.5v-191h176v-78h-176v-1171h-115v1171h-127v78h127v191q0 147 65.5 218t182.5 71q16 0 43 -5v-82q-15 3 -43 3z" />
    <glyph glyph-name="g" unicode="g" horiz-adv-x="921" 
d="M521 1184q-145 0 -218.5 -144t-73.5 -385q0 -342 93.5 -409.5t153.5 -67.5t108.5 14.5t70.5 30.5v932q-55 29 -134 29zM770 90q0 -201 -90.5 -319.5t-253.5 -118.5q-86 0 -159.5 23.5t-116.5 58.5l43 82q29 -23 91 -44.5t126 -21.5q122 0 183.5 91.5t61.5 232.5v63
q-20 -16 -73.5 -33.5t-123.5 -17.5t-138 42t-114 116.5t-70.5 179t-24.5 302t104.5 371t300.5 173.5q80 0 147.5 -25.5t106.5 -56.5v-1098z" />
    <glyph glyph-name="h" unicode="h" horiz-adv-x="929" 
d="M487 1270q129 0 210 -81t81 -247v-942h-114v942q0 127 -48.5 184.5t-155.5 57.5t-194 -64v-1120h-114v1720h114v-514q92 64 221 64z" />
    <glyph glyph-name="i" unicode="i" horiz-adv-x="434" 
d="M291 1667q0 -31 -21.5 -52.5t-52.5 -21.5t-52.5 21.5t-21.5 52.5t21.5 52.5t52.5 21.5t52.5 -21.5t21.5 -52.5zM160 0v1249h114v-1249h-114z" />
    <glyph glyph-name="j" unicode="j" horiz-adv-x="446" 
d="M303 1667q0 -31 -21.5 -52.5t-52 -21.5t-52 21.5t-21.5 52.5t21.5 52.5t52 21.5t52 -21.5t21.5 -52.5zM287 59q0 -197 -77 -297t-214 -110v98q88 10 132 83t44 226v1190h115v-1190z" />
    <glyph glyph-name="k" unicode="k" horiz-adv-x="876" 
d="M270 655v-655h-110v1720h110v-1061h4q8 11 16 23t16.5 25.5t19.5 29.5l352 512h129l-420 -590l440 -659h-137l-364 571q-10 14 -24.5 40t-27.5 44h-4z" />
    <glyph glyph-name="l" unicode="l" horiz-adv-x="434" 
d="M160 0v1720h114v-1720h-114z" />
    <glyph glyph-name="m" unicode="m" horiz-adv-x="1441" 
d="M991 1270q143 0 221 -84t78 -244v-942h-114v942q0 242 -195 242q-117 0 -203 -109v-1075h-114v954q0 102 -55.5 166t-163.5 64t-179 -37v-1147h-114v1188q114 82 301 82t270 -129q47 57 117.5 93t150.5 36z" />
    <glyph glyph-name="n" unicode="n" horiz-adv-x="929" 
d="M442 1270q175 0 255.5 -90t80.5 -238v-942h-114v942q0 111 -50.5 176.5t-158.5 65.5t-189 -37v-1147h-114v1188q115 82 290 82z" />
    <glyph glyph-name="o" unicode="o" horiz-adv-x="917" 
d="M458.5 72q229.5 0 229.5 556t-229.5 556t-229.5 -556t229.5 -556zM459 1270q348 0 348 -555t-127 -645t-221 -90q-348 0 -348 645t348 645z" />
    <glyph glyph-name="p" unicode="p" horiz-adv-x="921" 
d="M385 82q164 0 235.5 142.5t71.5 410.5t-73.5 408.5t-210.5 140.5q-93 0 -142 -29v-1055q48 -18 119 -18zM399 -10q-86 0 -133 22v-340h-114v1516q33 29 102.5 55.5t161.5 26.5q186 0 290.5 -166t104.5 -478t-106.5 -474t-305.5 -162z" />
    <glyph glyph-name="q" unicode="q" horiz-adv-x="921" 
d="M517 1184q-149 0 -218.5 -155t-69.5 -556t265 -401q90 0 161 43v1038q-59 31 -138 31zM537 1270q123 0 233 -82v-1516h-115v357q-70 -49 -169 -49q-187 0 -281 164t-94 460q0 471 151.5 568.5t274.5 97.5z" />
    <glyph glyph-name="r" unicode="r" horiz-adv-x="589" 
d="M266 0h-114v1188q45 33 126.5 57.5t156.5 24.5t106 -6l-37 -115q-51 23 -122 20.5t-116 -24.5v-1145z" />
    <glyph glyph-name="s" unicode="s" horiz-adv-x="724" 
d="M397 1176q-88 0 -138 -55.5t-50 -143.5t30.5 -140.5t78 -92t100.5 -76.5t131 -119t78 -241t-92 -243.5t-218 -84.5q-72 0 -136 24.5t-99 56.5l35 84q79 -65 179 -65q99 0 157.5 55t58.5 149t-30.5 148.5t-77 95.5t-99.5 77t-130 112.5t-77 232.5t82 238t203 82
q74 0 130 -26.5t85 -55.5l-35 -78q-78 66 -166 66z" />
    <glyph glyph-name="t" unicode="t" horiz-adv-x="602" 
d="M432 84q39 0 68 8v-86q-29 -12 -78 -12q-94 0 -153.5 62.5t-59.5 197.5v917h-127v78h127v303l115 52v-355h176v-78h-176v-919q0 -92 35 -130t73 -38z" />
    <glyph glyph-name="u" unicode="u" horiz-adv-x="929" 
d="M152 309v940h114v-940q0 -123 56.5 -180t174.5 -57t167 41v1136h114v-1188q-115 -81 -285 -81q-341 0 -341 329z" />
    <glyph glyph-name="v" unicode="v" horiz-adv-x="884" 
d="M489 0h-94l-325 1249h125l208 -893q37 -178 41 -215h5q4 33 11 67t13 71.5t16 76.5l209 893h117z" />
    <glyph glyph-name="w" unicode="w" horiz-adv-x="1429" 
d="M1051 0h-86l-222 944q-20 92 -26 164h-4q-19 -127 -27 -164l-221 -944h-86l-297 1249h123l192 -942q8 -41 27 -166h4q2 25 6 51t8 56.5t13 58.5l213 942h102l211 -942q8 -43 16 -91t13 -75h4q2 27 6 52t8 54t10 60l195 942h115z" />
    <glyph glyph-name="x" unicode="x" horiz-adv-x="831" 
d="M643 0l-225 545h-4l-234 -545h-123l297 633l-284 616h127l217 -524h4l225 524h119l-285 -600l297 -649h-131z" />
    <glyph glyph-name="y" unicode="y" horiz-adv-x="884" 
d="M403 -328h-118l116 332l-331 1245h123l210 -893q10 -39 20 -98t21 -117h5q5 77 40 215l211 893h115z" />
    <glyph glyph-name="z" unicode="z" horiz-adv-x="753" 
d="M98 1171v78h566l-437 -1163h441v-86h-598l442 1171h-414z" />
    <glyph glyph-name="braceleft" unicode="{" horiz-adv-x="696" 
d="M369 545v-574q0 -111 51 -162t141 -51v-86q-145 0 -226 74t-81 225v574q0 117 -25.5 161t-97.5 44v94q72 0 97.5 44t25.5 161v557q0 152 81 225.5t226 73.5v-86q-90 0 -141 -51.5t-51 -161.5v-557q0 -217 -136 -250v-4q136 -33 136 -250z" />
    <glyph glyph-name="bar" unicode="|" horiz-adv-x="430" 
d="M164 -328v2048h102v-2048h-102z" />
    <glyph glyph-name="braceright" unicode="}" horiz-adv-x="696" 
d="M328 1049v557q0 111 -51.5 162t-141.5 51v86q145 0 226 -74t81 -225v-557q0 -117 26 -161t97 -44v-94q-72 0 -97.5 -44t-25.5 -161v-574q0 -152 -80.5 -225.5t-226.5 -73.5v86q90 0 141.5 51.5t51.5 161.5v574q0 180 55 211.5t80 38.5v4q-135 32 -135 250z" />
    <glyph glyph-name="asciitilde" unicode="~" 
d="M656 739q-60 0 -96 17.5t-67.5 38t-65.5 38t-78 17.5t-82 -24.5t-60 -61.5l-51 63q23 51 70.5 88t107.5 37t96.5 -17t68 -37.5t65.5 -38t78 -17.5t82 24.5t60 61.5l52 -64q-23 -51 -71.5 -88t-108.5 -37z" />
    <glyph glyph-name="Zcaron" horiz-adv-x="786" 
d="M389 1843q-29 0 -49 27l-172 203l35 41l186 -170l186 170l35 -41l-172 -203q-20 -27 -49 -27zM82 1634v86h623l-492 -1630h496v-90h-648l494 1634h-473z" />
    <glyph glyph-name="zcaron" horiz-adv-x="753" 
d="M377 1372q-29 0 -49 27l-172 203l34 40l187 -169l186 169l35 -40l-172 -203q-20 -27 -49 -27zM98 1171v78h566l-437 -1163h441v-86h-598l442 1171h-414z" />
    <glyph glyph-name="nonbreakingspace" unicode="&#xa0;" horiz-adv-x="532" 
 />
    <glyph glyph-name="exclamdown" unicode="&#xa1;" horiz-adv-x="532" 
d="M352 1319q0 -35 -25.5 -60.5t-60.5 -25.5t-60.5 25.5t-25.5 60.5t25.5 60.5t60.5 25.5t60.5 -25.5t25.5 -60.5zM197 -328l24 1239h90l25 -1239h-139z" />
    <glyph glyph-name="cent" unicode="&#xa2;" horiz-adv-x="880" 
d="M123 624.5q0 284.5 102.5 450.5t274.5 191l-23 303h123l-22 -299q138 -7 213 -82l-43 -78q-92 66 -191 66q-147 0 -231 -139.5t-84 -408t84 -408.5t231 -140q118 0 191 65l43 -84q-74 -74 -213 -81l22 -308h-123l23 312q-172 25 -274.5 190.5t-102.5 450z" />
    <glyph glyph-name="sterling" unicode="&#xa3;" 
d="M359.5 339.5q-48.5 -147.5 -103.5 -233.5h645v-106h-811q127 174 170 353t43 287t-22 220h-191v94h168q-20 76 -37.5 151t-17.5 185q0 222 114.5 336.5t299.5 114.5t284 -82l-47 -82q-27 20 -86 44t-131 24q-148 0 -231.5 -89.5t-83.5 -273.5q0 -106 14 -181t31 -147h362
v-94h-342q21 -107 21 -240t-48.5 -280.5z" />
    <glyph glyph-name="currency" unicode="&#xa4;" horiz-adv-x="1118" 
d="M850 801q0 80 -22.5 149.5t-61.5 121.5t-92 83t-114.5 31t-115 -31t-92.5 -83t-61.5 -121.5t-22.5 -149.5t22.5 -150.5t61.5 -123t92.5 -82t115 -29.5t114.5 29.5t92 82t61.5 123t22.5 150.5zM154 800.5q0 193.5 116 332.5l-147 217l86 55l137 -205q94 70 213 70t213 -70
l137 205l86 -55l-147 -217q117 -140 117 -333.5t-121 -336.5l151 -223l-86 -56l-141 209q-94 -66 -209 -65.5t-209 65.5l-141 -209l-86 56l151 223q-120 144 -120 337.5z" />
    <glyph glyph-name="yen" unicode="&#xa5;" horiz-adv-x="1064" 
d="M592 0h-119v680l-344 -16v98l344 -17l-129 312l-215 -17v99l186 -15l-249 596h131l338 -870h4l338 870h122l-249 -596l186 15v-99l-215 17l-129 -312l344 17v-98l-344 16v-680z" />
    <glyph glyph-name="brokenbar" unicode="&#xa6;" horiz-adv-x="430" 
d="M164 942v778h102v-778h-102zM164 -328v799h102v-799h-102z" />
    <glyph glyph-name="section" unicode="&#xa7;" horiz-adv-x="1019" 
d="M793 630q0 70 -38 141t-94.5 133.5t-124 118.5t-124.5 116q-68 -37 -126.5 -124.5t-58.5 -185.5t38 -165.5t96.5 -127t127 -113.5t129.5 -116q60 40 100 99t57.5 106.5t17.5 117.5zM586 1645q-98 0 -153.5 -57.5t-55.5 -155.5q0 -122 39 -157l208 -190
q136 -124 206.5 -225.5t70.5 -236.5q0 -174 -98 -265.5t-129 -109.5q110 -132 110 -273t-95 -232t-220 -91q-78 0 -150.5 25.5t-113.5 56.5l43 90q33 -25 89.5 -47.5t108.5 -22.5q94 0 157 59.5t63 137.5q0 77 -21.5 129.5t-58.5 99.5t-84 89t-98 86q-140 121 -212.5 216.5
t-72.5 237.5q0 192 103.5 280.5t135.5 106.5q-94 117 -94 245.5t87.5 214t219.5 85.5q90 0 150.5 -27.5t89.5 -54.5l-39 -84q-88 70 -186 70z" />
    <glyph glyph-name="dieresis" unicode="&#xa8;" horiz-adv-x="450" 
d="M156 1470.5q0 -28.5 -20.5 -49t-49.5 -20.5t-49.5 20.5t-20.5 49t20.5 49t49.5 20.5t49.5 -20.5t20.5 -49zM434 1470.5q0 -28.5 -20.5 -49t-49 -20.5t-49 20.5t-20.5 49t20.5 49t49 20.5t49 -20.5t20.5 -49z" />
    <glyph glyph-name="copyright" unicode="&#xa9;" horiz-adv-x="1638" 
d="M848 356q-164 0 -256 130t-92 386t92 386.5t256 130.5q117 0 192 -66l-32 -61q-73 51 -160 51q-117 0 -183.5 -113t-66.5 -327t67.5 -325.5t171.5 -111.5t171 53l32 -67q-72 -66 -192 -66zM1409 862q0 166 -38 311.5t-111.5 253t-184 170t-256 62.5t-256 -62.5
t-184.5 -170t-112 -253t-38 -311.5t38 -311t112 -253t184.5 -170t256 -62t256 62t184 170t111.5 253t38 311zM1331 226.5q-185 -246.5 -512 -246.5t-511.5 246t-184.5 634t184.5 634.5t511.5 246.5t512 -247.5t185 -634t-185 -633z" />
    <glyph glyph-name="ordfeminine" unicode="&#xaa;" horiz-adv-x="860" 
d="M474 782q73 0 130 31v514q-272 -34 -326.5 -132.5t-54.5 -162.5t15.5 -106.5t46 -74.5t73.5 -50.5t116 -18.5zM709 774q-99 -65 -265 -65q-157 0 -243 92.5t-86 200.5q0 337 489 395v69q0 104 -48 150.5t-158 46.5t-212 -53l-28 65q35 23 105.5 44.5t150.5 21.5
q295 0 295 -271v-696z" />
    <glyph glyph-name="guillemotleft" unicode="&#xab;" horiz-adv-x="921" 
d="M365 328l-213 450l213 451l65 -29l-164 -422l164 -422zM705 328l-213 450l213 451l65 -29l-164 -422l164 -422z" />
    <glyph glyph-name="logicalnot" unicode="&#xac;" 
d="M729 406v364h-569v94h671v-458h-102z" />
    <glyph glyph-name="registered" unicode="&#xae;" horiz-adv-x="1638" 
d="M999 1124q0 199 -188 199q-68 0 -115 -18v-377q28 -4 82 -4q110 0 165.5 60t55.5 140zM821 1386q131 0 203 -73.5t72 -188.5t-76 -181t-186 -66l288 -510h-114l-271 507h-41v-507h-94v974q88 45 219 45zM1409 862q0 166 -38 311.5t-111.5 253t-184 170t-256 62.5
t-256 -62.5t-184.5 -170t-112 -253t-38 -311.5t38 -311t112 -253t184.5 -170t256 -62t256 62t184 170t111.5 253t38 311zM1331 226.5q-185 -246.5 -512 -246.5t-511.5 246t-184.5 634t184.5 634.5t511.5 246.5t512 -247.5t185 -634t-185 -633z" />
    <glyph glyph-name="macron" unicode="&#xaf;" horiz-adv-x="450" 
d="M0 1425v82h451v-82h-451z" />
    <glyph glyph-name="degree" unicode="&#xb0;" 
d="M760 1380.5q0 55.5 -20.5 104.5t-55.5 86t-84 58.5t-104.5 21.5t-104.5 -21.5t-84 -58.5t-55.5 -86t-20.5 -104.5t20.5 -104.5t55.5 -85t84 -57.5t104.5 -21.5t104.5 21.5t84 57.5t55.5 85t20.5 104.5zM856 1380.5q0 -73.5 -28.5 -139t-78 -115t-115 -78t-139 -28.5
t-139 28.5t-114.5 78t-78 115t-29 139t29 139t78 114.5t114.5 78t139 29t139 -29t115 -78t78 -114.5t28.5 -139z" />
    <glyph glyph-name="plusminus" unicode="&#xb1;" 
d="M160 244v94h671v-94h-671zM547 852v-344h-103v344h-284v94h284v340h103v-340h284v-94h-284z" />
    <glyph glyph-name="twosuperior" unicode="&#xb2;" horiz-adv-x="729" 
d="M479 1204l-246 -428h365v-90h-500l308 559q73 131 73 215t-42 142.5t-134 58.5t-160 -43l-32 63q86 60 173 60t139 -20.5t103.5 -76.5t51.5 -160.5t-99 -279.5z" />
    <glyph glyph-name="threesuperior" unicode="&#xb3;" horiz-adv-x="729" 
d="M304 1661q-83 0 -154 -41l-33 61q33 23 87 41.5t105 18.5q123 0 190.5 -67.5t67.5 -163.5t-53.5 -164t-114.5 -97v-4q65 -24 106.5 -72.5t61 -95.5t19.5 -143t-82 -182t-200 -86t-202 61l33 70q74 -49 161 -49t139 61t52 163t-66.5 163t-182.5 63v68q97 4 165 70t68 149
q0 84 -42 130t-125 46z" />
    <glyph glyph-name="acute" unicode="&#xb4;" horiz-adv-x="450" 
d="M281 1669q39 31 78 31t51 -31l-203 -276h-64z" />
    <glyph glyph-name="mu" unicode="&#xb5;" horiz-adv-x="929" 
d="M266 129q89 -55 211 -55t187 41v1134h114v-1188q-115 -81 -295 -81q-124 0 -217 55v-363h-114v1577h114v-1120z" />
    <glyph glyph-name="paragraph" unicode="&#xb6;" 
d="M821 1642v-1970h-102v1970h-311v-1970h-103v1346q-129 20 -198.5 111.5t-69.5 240.5t88.5 249.5t267.5 100.5h525v-78h-97z" />
    <glyph glyph-name="periodcentered" unicode="&#xb7;" horiz-adv-x="450" 
d="M311 809q0 -35 -25.5 -60.5t-60.5 -25.5t-60.5 25.5t-25.5 60.5t25.5 60.5t60.5 25.5t60.5 -25.5t25.5 -60.5z" />
    <glyph glyph-name="periodcentered" unicode="&#x2219;" horiz-adv-x="450" 
d="M311 809q0 -35 -25.5 -60.5t-60.5 -25.5t-60.5 25.5t-25.5 60.5t25.5 60.5t60.5 25.5t60.5 -25.5t25.5 -60.5z" />
    <glyph glyph-name="cedilla" unicode="&#xb8;" horiz-adv-x="450" 
d="M303 -215q0 68 -188 57l28 58q16 2 19 2h45q199 0 199 -111q0 -70 -81 -104.5t-168 -34.5t-137 8l31 57q113 -12 182.5 9.5t69.5 58.5z" />
    <glyph glyph-name="onesuperior" unicode="&#xb9;" horiz-adv-x="729" 
d="M352 686v893q-99 -46 -221 -55l-8 61q136 21 192 66t68 69h63v-1034h-94z" />
    <glyph glyph-name="ordmasculine" unicode="&#xba;" horiz-adv-x="901" 
d="M674 1229q0 90 -11.5 170t-37 140t-68.5 95t-106.5 35t-106.5 -35t-68.5 -95t-37 -140t-11.5 -170t11.5 -171t37 -141.5t68.5 -96.5t106.5 -36t106.5 36t68.5 96.5t37 141.5t11.5 171zM450.5 1741q335.5 0 335.5 -516t-335.5 -516t-335.5 516t335.5 516z" />
    <glyph glyph-name="guillemotright" unicode="&#xbb;" horiz-adv-x="921" 
d="M217 328l-65 28l163 422l-163 422l65 29l213 -451zM557 328l-65 28l163 422l-163 422l65 29l213 -451z" />
    <glyph glyph-name="onequarter" unicode="&#xbc;" horiz-adv-x="1433" 
d="M1163 838q0 9 4 43h-4q-6 -15 -12 -31t-12 -34.5t-17 -37.5l-219 -465h260v525zM307 686v866q-78 -36 -221 -51l-8 58q92 14 162.5 59t97.5 102h63v-1034h-94zM436 -16l-88 32l629 1721l88 -33zM1253 242v-242h-94v242h-338v71l348 721h84v-721h70v-71h-70z" />
    <glyph glyph-name="onehalf" unicode="&#xbd;" horiz-adv-x="1433" 
d="M307 686v893q-99 -46 -221 -55l-8 61q136 21 192 66t68 69h63v-1034h-94zM1057 1055q82 0 132 -20.5t98 -74.5t48 -167.5t-98 -274.5l-262 -428h360v-90h-499l327 559q74 123 74 217q0 95 -42 147t-125 52t-148 -43l-33 63q86 60 168 60zM399 -16l-88 32l629 1721l88 -33
z" />
    <glyph glyph-name="threequarters" unicode="&#xbe;" horiz-adv-x="1433" 
d="M1163 838q0 9 4 43h-4q-6 -15 -12 -31t-12 -34.5t-17 -37.5l-219 -465h260v525zM301 1661q-82 0 -156 -41l-32 61q33 23 87 41.5t105 18.5q123 0 190.5 -67.5t67.5 -163.5t-53.5 -164t-114.5 -97v-4q65 -24 106.5 -72.5t61 -95.5t19.5 -143t-82 -182t-200 -86t-202 61
l33 70q74 -49 161 -49t139 61t52 163t-66.5 163t-183.5 63v68q98 4 166 70t68 149q0 84 -42 130t-124 46zM504 -20l-88 32l628 1721l89 -33zM1253 242v-242h-94v242h-338v71l348 721h84v-721h70v-71h-70z" />
    <glyph glyph-name="questiondown" unicode="&#xbf;" horiz-adv-x="819" 
d="M532 1319q0 -35 -25.5 -60.5t-60 -25.5t-60.5 25.5t-26 60.5t26 60.5t60.5 25.5t60 -25.5t25.5 -60.5zM467 -348q-162 0 -257 106.5t-95 258.5q0 153 77.5 267.5t196.5 186.5l12 440h91l12 -479q-131 -68 -199.5 -179.5t-68.5 -262.5t91 -194.5t153 -43.5t118.5 21.5
t85.5 42.5l41 -82q-41 -33 -109.5 -57.5t-148.5 -24.5z" />
    <glyph glyph-name="Agrave" unicode="&#xc0;" horiz-adv-x="1032" 
d="M293 2140q12 31 51 31q40 0 78 -31l137 -276h-63zM549 1391q-20 88 -35 200h-4q-15 -113 -35 -200l-184 -832h442zM858 0l-104 473h-484l-104 -473h-121l412 1720h118l412 -1720h-129z" />
    <glyph glyph-name="Aacute" unicode="&#xc1;" horiz-adv-x="1032" 
d="M610 2140q39 31 79 31t50 -31l-202 -276h-64zM549 1391q-20 88 -35 200h-4q-15 -113 -35 -200l-184 -832h442zM858 0l-104 473h-484l-104 -473h-121l412 1720h118l412 -1720h-129z" />
    <glyph glyph-name="Acircumflex" unicode="&#xc2;" horiz-adv-x="1032" 
d="M516 2114q29 0 49 -27l172 -203l-35 -41l-186 170l-186 -170l-35 41l172 203q20 27 49 27zM549 1391q-20 88 -35 200h-4q-15 -113 -35 -200l-184 -832h442zM858 0l-104 473h-484l-104 -473h-121l412 1720h118l412 -1720h-129z" />
    <glyph glyph-name="Atilde" unicode="&#xc3;" horiz-adv-x="1032" 
d="M517.5 1903.5q-53.5 33.5 -104.5 33.5t-83 -57l-43 45q16 35 52 62.5t76 27.5q55 0 108.5 -33.5t101.5 -33.5q49 0 86 57l43 -45q-16 -35 -52 -62.5t-84 -27.5q-47 0 -100.5 33.5zM549 1391q-20 88 -35 200h-4q-15 -113 -35 -200l-184 -832h442zM858 0l-104 473h-484
l-104 -473h-121l412 1720h118l412 -1720h-129z" />
    <glyph glyph-name="Adieresis" unicode="&#xc4;" horiz-adv-x="1032" 
d="M446 1941.5q0 -28.5 -20 -49t-49 -20.5t-49.5 20.5t-20.5 49t20.5 49t49.5 20.5t49 -20.5t20 -49zM725 1941.5q0 -28.5 -20.5 -49t-49 -20.5t-49 20.5t-20.5 49t20.5 49t49 20.5t49 -20.5t20.5 -49zM549 1391q-20 88 -35 200h-4q-15 -113 -35 -200l-184 -832h442zM858 0
l-104 473h-484l-104 -473h-121l412 1720h118l412 -1720h-129z" />
    <glyph glyph-name="Aring" unicode="&#xc5;" horiz-adv-x="1032" 
d="M612 2003q0 41 -27.5 70.5t-68.5 29.5t-68.5 -29.5t-27.5 -70.5t27.5 -69.5t68.5 -28.5t68.5 28.5t27.5 69.5zM672 2002.5q0 -65.5 -45 -110.5t-110.5 -45t-111 45t-45.5 110.5t45.5 111t111 45.5t110.5 -45.5t45 -111zM549 1391q-20 88 -35 200h-4q-15 -113 -35 -200
l-184 -832h442zM858 0l-104 473h-484l-104 -473h-121l412 1720h118l412 -1720h-129z" />
    <glyph glyph-name="AE" unicode="&#xc6;" horiz-adv-x="1392" 
d="M600 1391q-6 35 -10 70.5t-8 67.5t-7 62h-4q-6 -31 -13 -63t-14 -67.5t-18 -69.5l-229 -832h446zM1204 1720v-90h-547l134 -704h413v-90h-397l139 -746h389v-90h-495l-82 473h-484l-131 -473h-123l504 1720h680z" />
    <glyph glyph-name="Ccedilla" unicode="&#xc7;" horiz-adv-x="868" 
d="M569 -215q0 68 -188 57l29 58q16 2 20 2h43q199 0 199 -111q0 -70 -81 -104.5t-169 -34.5t-135 8l30 57q113 -12 182.5 9.5t69.5 58.5zM235.5 1510.5q116.5 230.5 346.5 230.5q72 0 130 -25.5t91 -56.5l-39 -80q-29 25 -79 44t-103 19q-170 0 -254 -203.5t-84 -573.5
t83 -574.5t253 -204.5q108 0 182 64l41 -89q-86 -81 -212 -81t-213 60t-173 230.5t-86 590t116.5 650z" />
    <glyph glyph-name="Egrave" unicode="&#xc8;" horiz-adv-x="827" 
d="M246 2140q12 31 51 31q40 0 78 -31l137 -276h-63zM160 0v1720h549v-90h-430v-704h393v-90h-393v-742h430v-94h-549z" />
    <glyph glyph-name="Eacute" unicode="&#xc9;" horiz-adv-x="827" 
d="M498 2140q39 31 79 31t50 -31l-203 -276h-64zM160 0v1720h549v-90h-430v-704h393v-90h-393v-742h430v-94h-549z" />
    <glyph glyph-name="Ecircumflex" unicode="&#xca;" horiz-adv-x="827" 
d="M434 2114q29 0 49 -27l172 -203l-34 -41l-187 170l-186 -170l-35 41l172 203q20 27 49 27zM160 0v1720h549v-90h-430v-704h393v-90h-393v-742h430v-94h-549z" />
    <glyph glyph-name="Edieresis" unicode="&#xcb;" horiz-adv-x="827" 
d="M643 1941.5q0 -28.5 -20.5 -49t-49 -20.5t-49 20.5t-20.5 49t20.5 49t49 20.5t49 -20.5t20.5 -49zM365 1941.5q0 -28.5 -20.5 -49t-49.5 -20.5t-49.5 20.5t-20.5 49t20.5 49t49.5 20.5t49.5 -20.5t20.5 -49zM160 0v1720h549v-90h-430v-704h393v-90h-393v-742h430v-94
h-549z" />
    <glyph glyph-name="Igrave" unicode="&#xcc;" horiz-adv-x="462" 
d="M25 2140q12 31 51 31q40 0 78 -31l137 -276h-64zM172 0v1720h119v-1720h-119z" />
    <glyph glyph-name="Iacute" unicode="&#xcd;" horiz-adv-x="462" 
d="M309 2140q39 31 79 31t50 -31l-202 -276h-64zM172 0v1720h119v-1720h-119z" />
    <glyph glyph-name="Icircumflex" unicode="&#xce;" horiz-adv-x="462" 
d="M231 2114q29 0 50 -27l172 -203l-35 -41l-187 170l-186 -170l-35 41l172 203q20 27 49 27zM172 0v1720h119v-1720h-119z" />
    <glyph glyph-name="Idieresis" unicode="&#xcf;" horiz-adv-x="462" 
d="M440 1941.5q0 -28.5 -20.5 -49t-49 -20.5t-49 20.5t-20.5 49t20.5 49t49 20.5t49 -20.5t20.5 -49zM162 1941.5q0 -28.5 -20.5 -49t-49.5 -20.5t-49 20.5t-20 49t20 49t49 20.5t49.5 -20.5t20.5 -49zM172 0v1720h119v-1720h-119z" />
    <glyph glyph-name="Eth" unicode="&#xd0;" horiz-adv-x="1097" 
d="M471 78q385 0 385 789q0 388 -101.5 586t-283.5 198q-95 0 -160 -29v-700h250v-86h-250v-730q56 -28 160 -28zM479 1741q238 0 369 -234t131 -646.5t-130.5 -646.5t-369.5 -234q-98 0 -172 25.5t-114 55.5v775h-111v86h111v737q116 82 286 82z" />
    <glyph glyph-name="Ntilde" unicode="&#xd1;" horiz-adv-x="1159" 
d="M578.5 1903.5q-53.5 33.5 -104.5 33.5t-83 -57l-43 45q16 35 52 62.5t76 27.5q55 0 108.5 -33.5t103.5 -33.5t84 57l43 -45q-16 -35 -52 -62.5t-84 -27.5q-47 0 -100.5 33.5zM905 141q-4 58 -4 73v1506h98v-1720h-129l-553 1417q-30 77 -59 172h-4q0 -27 2 -57l2 -121
v-1411h-98v1720h139l545 -1401q20 -51 34 -101q15 -50 23 -77h4z" />
    <glyph glyph-name="Ograve" unicode="&#xd2;" horiz-adv-x="1093" 
d="M336 2140q12 31 51 31q40 0 78 -31l137 -276h-63zM547 78q305 0 305 786.5t-305 786.5t-305 -786.5t305 -786.5zM547 1741q428 0 428 -880.5t-428 -880.5t-428 880.5t428 880.5z" />
    <glyph glyph-name="Oacute" unicode="&#xd3;" horiz-adv-x="1093" 
d="M629 2140q39 31 79 31t50 -31l-203 -276h-63zM547 78q305 0 305 786.5t-305 786.5t-305 -786.5t305 -786.5zM547 1741q428 0 428 -880.5t-428 -880.5t-428 880.5t428 880.5z" />
    <glyph glyph-name="Ocircumflex" unicode="&#xd4;" horiz-adv-x="1093" 
d="M546.5 2114q28.5 0 49.5 -27l172 -203l-35 -41l-186 170l-187 -170l-34 41l172 203q20 27 48.5 27zM547 78q305 0 305 786.5t-305 786.5t-305 -786.5t305 -786.5zM547 1741q428 0 428 -880.5t-428 -880.5t-428 880.5t428 880.5z" />
    <glyph glyph-name="Otilde" unicode="&#xd5;" horiz-adv-x="1093" 
d="M545.5 1903.5q-53.5 33.5 -102.5 33.5t-85 -57l-43 45q16 35 52.5 62.5t76.5 27.5q55 0 108 -33.5t103 -33.5t84 57l43 -45q-16 -35 -52 -62.5t-84 -27.5q-47 0 -100.5 33.5zM547 78q305 0 305 786.5t-305 786.5t-305 -786.5t305 -786.5zM547 1741q428 0 428 -880.5
t-428 -880.5t-428 880.5t428 880.5z" />
    <glyph glyph-name="Odieresis" unicode="&#xd6;" horiz-adv-x="1093" 
d="M477 1941.5q0 -28.5 -20.5 -49t-49 -20.5t-49 20.5t-20.5 49t20.5 49t49 20.5t49 -20.5t20.5 -49zM756 1941.5q0 -28.5 -20.5 -49t-49.5 -20.5t-49.5 20.5t-20.5 49t20.5 49t49.5 20.5t49.5 -20.5t20.5 -49zM547 78q305 0 305 786.5t-305 786.5t-305 -786.5t305 -786.5z
M547 1741q428 0 428 -880.5t-428 -880.5t-428 880.5t428 880.5z" />
    <glyph glyph-name="multiply" unicode="&#xd7;" 
d="M762 412l-266 329l-267 -329l-77 59l280 348l-280 346l77 60l267 -330l266 330l78 -60l-281 -348l281 -346z" />
    <glyph glyph-name="Oslash" unicode="&#xd8;" horiz-adv-x="1093" 
d="M864 864q0 342 -61 543l-473 -1184q78 -154 217 -153q317 0 317 794zM547 1659q-318 0 -318 -795q0 -353 62 -547l475 1186q-78 156 -219 156zM975 860q0 -880 -428 -880q-164 0 -264 129l-97 -242l-65 27l115 286q-117 224 -117 680q0 881 428 881q166 0 264 -127
l96 241l66 -26l-115 -289q117 -224 117 -680z" />
    <glyph glyph-name="Ugrave" unicode="&#xd9;" horiz-adv-x="1044" 
d="M319 2140q12 31 52 31t78 -31l137 -276h-64zM885 369q0 -179 -103 -284t-260 -105t-259.5 104.5t-102.5 284.5v1351h119v-1351q0 -137 69.5 -212t178 -75t178 74.5t69.5 212.5v1351h111v-1351z" />
    <glyph glyph-name="Uacute" unicode="&#xda;" horiz-adv-x="1044" 
d="M604 2140q39 31 79 31t50 -31l-203 -276h-63zM885 369q0 -179 -103 -284t-260 -105t-259.5 104.5t-102.5 284.5v1351h119v-1351q0 -137 69.5 -212t178 -75t178 74.5t69.5 212.5v1351h111v-1351z" />
    <glyph glyph-name="Ucircumflex" unicode="&#xdb;" horiz-adv-x="1044" 
d="M526 2114q29 0 49 -27l173 -203l-35 -41l-187 170l-186 -170l-35 41l172 203q20 27 49 27zM885 369q0 -179 -103 -284t-260 -105t-259.5 104.5t-102.5 284.5v1351h119v-1351q0 -137 69.5 -212t178 -75t178 74.5t69.5 212.5v1351h111v-1351z" />
    <glyph glyph-name="Udieresis" unicode="&#xdc;" horiz-adv-x="1044" 
d="M735 1941.5q0 -28.5 -20.5 -49t-49 -20.5t-49 20.5t-20.5 49t20.5 49t49 20.5t49 -20.5t20.5 -49zM457 1941.5q0 -28.5 -20.5 -49t-49.5 -20.5t-49.5 20.5t-20.5 49t20.5 49t49.5 20.5t49.5 -20.5t20.5 -49zM885 369q0 -179 -103 -284t-260 -105t-259.5 104.5
t-102.5 284.5v1351h119v-1351q0 -137 69.5 -212t178 -75t178 74.5t69.5 212.5v1351h111v-1351z" />
    <glyph glyph-name="Yacute" unicode="&#xdd;" horiz-adv-x="917" 
d="M561 2140q39 31 79 31t50 -31l-203 -276h-63zM518 0h-119v766l-362 954h131l293 -841h4l293 841h123l-363 -954v-766z" />
    <glyph glyph-name="Thorn" unicode="&#xde;" horiz-adv-x="942" 
d="M431 1298q-91 0 -152 -28v-727q43 -6 123 -6q166 0 249.5 102t83.5 283t-68 278.5t-236 97.5zM445 1384q212 0 311.5 -129t99.5 -335q0 -330 -174 -399.5t-266 -69.5t-137 8v-459h-119v1720h119v-362q60 26 166 26z" />
    <glyph glyph-name="germandbls" unicode="&#xdf;" horiz-adv-x="1007" 
d="M723 1293q-1 363 -229 361t-228 -433v-1221h-114v1221q0 373 128 446.5t218 73.5q168 0 254 -122.5t86 -287.5q0 -164 -27 -250q-221 -55 -221 -203q0 -68 23.5 -111.5t58.5 -83.5t75.5 -80t75.5 -87t58.5 -104t23.5 -126q0 -138 -77.5 -222t-211.5 -84
q-83 0 -142.5 32.5t-74.5 48.5l35 84q16 -19 73 -43t105 -24q86 0 131 56t45 132t-23.5 125t-57 91t-132 140.5t-98.5 247.5t93.5 199.5t140.5 67.5q12 66 12 156z" />
    <glyph glyph-name="agrave" unicode="&#xe0;" horiz-adv-x="868" 
d="M242 1669q12 31 51 31q40 0 78 -31l137 -276h-64zM470 70q82 0 136 36v650q-284 -41 -338.5 -167.5t-54.5 -204.5t14.5 -132.5t44 -94.5t73 -63.5t125.5 -23.5zM390 1176q-114 0 -216 -68l-31 80q37 29 105.5 55.5t154.5 26.5q313 0 314 -338v-871q-43 -33 -118 -57
t-162 -24q-169 0 -254 115.5t-85 251.5q0 137 78 291.5t430 201.5v88q0 131 -51 189.5t-165 58.5z" />
    <glyph glyph-name="aacute" unicode="&#xe1;" horiz-adv-x="868" 
d="M498 1669q39 31 79 31t50 -31l-203 -276h-64zM470 70q82 0 136 36v650q-284 -41 -338.5 -167.5t-54.5 -204.5t14.5 -132.5t44 -94.5t73 -63.5t125.5 -23.5zM390 1176q-114 0 -216 -68l-31 80q37 29 105.5 55.5t154.5 26.5q313 0 314 -338v-871q-43 -33 -118 -57t-162 -24
q-169 0 -254 115.5t-85 251.5q0 137 78 291.5t430 201.5v88q0 131 -51 189.5t-165 58.5z" />
    <glyph glyph-name="acircumflex" unicode="&#xe2;" horiz-adv-x="868" 
d="M602 1372l-186 170l-187 -170l-34 41l172 203q20 27 48.5 26.5t49.5 -26.5l172 -203zM470 70q82 0 136 36v650q-284 -41 -338.5 -167.5t-54.5 -204.5t14.5 -132.5t44 -94.5t73 -63.5t125.5 -23.5zM390 1176q-114 0 -216 -68l-31 80q37 29 105.5 55.5t154.5 26.5
q313 0 314 -338v-871q-43 -33 -118 -57t-162 -24q-169 0 -254 115.5t-85 251.5q0 137 78 291.5t430 201.5v88q0 131 -51 189.5t-165 58.5z" />
    <glyph glyph-name="atilde" unicode="&#xe3;" horiz-adv-x="868" 
d="M424.5 1432.5q-53.5 33.5 -103.5 33.5t-83 -57l-43 45q16 35 52 62.5t76 27.5q55 0 108.5 -33.5t103.5 -33.5t83 57l44 -45q-16 -35 -52.5 -62.5t-84.5 -27.5q-47 0 -100.5 33.5zM470 70q82 0 136 36v650q-284 -41 -338.5 -167.5t-54.5 -204.5t14.5 -132.5t44 -94.5
t73 -63.5t125.5 -23.5zM390 1176q-114 0 -216 -68l-31 80q37 29 105.5 55.5t154.5 26.5q313 0 314 -338v-871q-43 -33 -118 -57t-162 -24q-169 0 -254 115.5t-85 251.5q0 137 78 291.5t430 201.5v88q0 131 -51 189.5t-165 58.5z" />
    <glyph glyph-name="adieresis" unicode="&#xe4;" horiz-adv-x="868" 
d="M371 1470.5q0 -28.5 -20.5 -49t-49.5 -20.5t-49.5 20.5t-20.5 49t20.5 49t49.5 20.5t49.5 -20.5t20.5 -49zM649 1470.5q0 -28.5 -20.5 -49t-49 -20.5t-49 20.5t-20.5 49t20.5 49t49 20.5t49 -20.5t20.5 -49zM470 70q82 0 136 36v650q-284 -41 -338.5 -167.5t-54.5 -204.5
t14.5 -132.5t44 -94.5t73 -63.5t125.5 -23.5zM390 1176q-114 0 -216 -68l-31 80q37 29 105.5 55.5t154.5 26.5q313 0 314 -338v-871q-43 -33 -118 -57t-162 -24q-169 0 -254 115.5t-85 251.5q0 137 78 291.5t430 201.5v88q0 131 -51 189.5t-165 58.5z" />
    <glyph glyph-name="aring" unicode="&#xe5;" horiz-adv-x="868" 
d="M530 1532q0 41 -27.5 70.5t-68.5 29.5t-68.5 -29.5t-27.5 -70.5t27.5 -69.5t68.5 -28.5t68.5 28.5t27.5 69.5zM590 1531.5q0 -65.5 -45 -110.5t-110.5 -45t-110.5 45t-45 110.5t45 111t110.5 45.5t110.5 -45.5t45 -111zM470 70q82 0 136 36v650q-284 -41 -338.5 -167.5
t-54.5 -204.5t14.5 -132.5t44 -94.5t73 -63.5t125.5 -23.5zM390 1176q-114 0 -216 -68l-31 80q37 29 105.5 55.5t154.5 26.5q313 0 314 -338v-871q-43 -33 -118 -57t-162 -24q-169 0 -254 115.5t-85 251.5q0 137 78 291.5t430 201.5v88q0 131 -51 189.5t-165 58.5z" />
    <glyph glyph-name="ae" unicode="&#xe6;" horiz-adv-x="1396" 
d="M951 1184q-116 0 -181 -133t-65 -414l464 57q-6 236 -54 363t-164 127zM213 348q0 -114 55.5 -196t147.5 -82t143 65.5t51 173.5v447q-285 -41 -341 -167.5t-56 -240.5zM399 1176q-123 0 -225 -68l-31 80q37 29 105.5 55.5t145.5 26.5q131 0 194 -52t96 -145
q56 130 137 163.5t149 33.5t192 -85.5t124 -492.5l-2 -67l-577 -72q13 -331 113 -402t165 -71q149 0 238 67l34 -86q-35 -29 -104 -55t-149 -26q-135 0 -210.5 66t-107.5 151q-56 -217 -264 -217q-152 0 -238 105t-86 280q0 219 144.5 332t367.5 143v88q0 248 -211 248z" />
    <glyph glyph-name="ccedilla" unicode="&#xe7;" horiz-adv-x="765" 
d="M487 -215q0 68 -188 57l29 58q16 2 20 2h43q199 0 199 -111q0 -70 -81 -104.5t-168 -34.5t-136 8l31 57q113 -12 182 9.5t69 58.5zM469 -20q-178 0 -268 164.5t-90 480t90 480.5t268 165q78 0 131 -26.5t80 -55.5l-37 -78q-23 23 -67 44.5t-99 21.5q-248 0 -248 -408
t63.5 -548t184.5 -140q55 0 99.5 20.5t66.5 44.5l37 -84q-81 -81 -211 -81z" />
    <glyph glyph-name="egrave" unicode="&#xe8;" horiz-adv-x="917" 
d="M250 1669q12 31 51 31q40 0 78 -31l137 -276h-63zM472 1184q-116 0 -181.5 -133t-65.5 -414l465 57q-6 236 -54 363t-164 127zM111 598q0 672 365 672q161 0 246 -156t85 -422l-2 -67l-578 -72q0 -198 76.5 -335.5t202.5 -137.5q149 0 237 67l35 -86q-35 -29 -104.5 -55
t-162.5 -26q-186 0 -293 163t-107 455z" />
    <glyph glyph-name="eacute" unicode="&#xe9;" horiz-adv-x="917" 
d="M543 1669q39 31 79 31t50 -31l-203 -276h-63zM472 1184q-116 0 -181.5 -133t-65.5 -414l465 57q-6 236 -54 363t-164 127zM111 598q0 672 365 672q161 0 246 -156t85 -422l-2 -67l-578 -72q0 -198 76.5 -335.5t202.5 -137.5q149 0 237 67l35 -86q-35 -29 -104.5 -55
t-162.5 -26q-186 0 -293 163t-107 455z" />
    <glyph glyph-name="ecircumflex" unicode="&#xea;" horiz-adv-x="917" 
d="M649 1372l-186 170l-187 -170l-34 41l172 203q20 27 49 26.5t49 -26.5l172 -203zM472 1184q-116 0 -181.5 -133t-65.5 -414l465 57q-6 236 -54 363t-164 127zM111 598q0 672 365 672q161 0 246 -156t85 -422l-2 -67l-578 -72q0 -198 76.5 -335.5t202.5 -137.5
q149 0 237 67l35 -86q-35 -29 -104.5 -55t-162.5 -26q-186 0 -293 163t-107 455z" />
    <glyph glyph-name="edieresis" unicode="&#xeb;" horiz-adv-x="917" 
d="M397 1470.5q0 -28.5 -20.5 -49t-49 -20.5t-49 20.5t-20.5 49t20.5 49t49 20.5t49 -20.5t20.5 -49zM676 1470.5q0 -28.5 -20.5 -49t-49 -20.5t-49 20.5t-20.5 49t20.5 49t49 20.5t49 -20.5t20.5 -49zM472 1184q-116 0 -181.5 -133t-65.5 -414l465 57q-6 236 -54 363
t-164 127zM111 598q0 672 365 672q161 0 246 -156t85 -422l-2 -67l-578 -72q0 -198 76.5 -335.5t202.5 -137.5q149 0 237 67l35 -86q-35 -29 -104.5 -55t-162.5 -26q-186 0 -293 163t-107 455z" />
    <glyph glyph-name="igrave" unicode="&#xec;" horiz-adv-x="434" 
d="M8 1669q12 31 52 31t77 -31l137 -276h-63zM160 0v1249h114v-1249h-114z" />
    <glyph glyph-name="iacute" unicode="&#xed;" horiz-adv-x="434" 
d="M297 1669q39 31 79 31t50 -31l-203 -276h-63zM160 0v1249h114v-1249h-114z" />
    <glyph glyph-name="icircumflex" unicode="&#xee;" horiz-adv-x="434" 
d="M403 1372l-186 170l-186 -170l-35 41l172 203q20 27 49 26.5t49 -26.5l172 -203zM160 0v1249h114v-1249h-114z" />
    <glyph glyph-name="idieresis" unicode="&#xef;" horiz-adv-x="434" 
d="M426 1470.5q0 -28.5 -20.5 -49t-49 -20.5t-49 20.5t-20.5 49t20.5 49t49 20.5t49 -20.5t20.5 -49zM147 1470.5q0 -28.5 -20.5 -49t-49 -20.5t-49 20.5t-20.5 49t20.5 49t49 20.5t49 -20.5t20.5 -49zM160 0v1249h114v-1249h-114z" />
    <glyph glyph-name="eth" unicode="&#xf0;" horiz-adv-x="921" 
d="M458.5 72q229.5 0 229.5 557q0 260 -72 534q-60 21 -130 21q-126 0 -191.5 -149.5t-65.5 -405.5q0 -557 229.5 -557zM459 -20q-348 0 -348 649q0 296 96.5 466.5t269.5 170.5q59 0 117 -23q-46 140 -107 260l-153 -55l-35 68l154 55q-29 50 -86 131l96 39q47 -63 88 -135
l137 51l35 -68l-137 -49q157 -308 189 -552t32 -373q0 -291 -84 -463t-264 -172z" />
    <glyph glyph-name="ntilde" unicode="&#xf1;" horiz-adv-x="929" 
d="M447.5 1432.5q-53.5 33.5 -104.5 33.5t-83 -57l-43 45q16 35 52 62.5t76 27.5q55 0 108.5 -33.5t104.5 -33.5t83 57l43 -45q-16 -35 -52 -62.5t-84 -27.5q-47 0 -100.5 33.5zM442 1270q175 0 255.5 -90t80.5 -238v-942h-114v942q0 111 -50.5 176.5t-158.5 65.5t-189 -37
v-1147h-114v1188q115 82 290 82z" />
    <glyph glyph-name="ograve" unicode="&#xf2;" horiz-adv-x="917" 
d="M246 1669q12 31 51 31q40 0 78 -31l137 -276h-63zM458.5 72q229.5 0 229.5 556t-229.5 556t-229.5 -556t229.5 -556zM459 1270q348 0 348 -555t-127 -645t-221 -90q-348 0 -348 645t348 645z" />
    <glyph glyph-name="oacute" unicode="&#xf3;" horiz-adv-x="917" 
d="M543 1669q39 31 79 31t50 -31l-203 -276h-63zM458.5 72q229.5 0 229.5 556t-229.5 556t-229.5 -556t229.5 -556zM459 1270q348 0 348 -555t-127 -645t-221 -90q-348 0 -348 645t348 645z" />
    <glyph glyph-name="ocircumflex" unicode="&#xf4;" horiz-adv-x="917" 
d="M645 1372l-186 170l-187 -170l-34 41l172 203q20 27 48.5 26.5t49.5 -26.5l172 -203zM458.5 72q229.5 0 229.5 556t-229.5 556t-229.5 -556t229.5 -556zM459 1270q348 0 348 -555t-127 -645t-221 -90q-348 0 -348 645t348 645z" />
    <glyph glyph-name="otilde" unicode="&#xf5;" horiz-adv-x="917" 
d="M459.5 1432.5q-53.5 33.5 -102.5 33.5t-85 -57l-43 45q16 35 52.5 62.5t76.5 27.5q55 0 108 -33.5t104 -33.5t83 57l43 -45q-16 -35 -52 -62.5t-84 -27.5q-47 0 -100.5 33.5zM458.5 72q229.5 0 229.5 556t-229.5 556t-229.5 -556t229.5 -556zM459 1270q348 0 348 -555
t-127 -645t-221 -90q-348 0 -348 645t348 645z" />
    <glyph glyph-name="odieresis" unicode="&#xf6;" horiz-adv-x="917" 
d="M389 1470.5q0 -28.5 -20.5 -49t-49 -20.5t-49 20.5t-20.5 49t20.5 49t49 20.5t49 -20.5t20.5 -49zM668 1470.5q0 -28.5 -20.5 -49t-49.5 -20.5t-49.5 20.5t-20.5 49t20.5 49t49.5 20.5t49.5 -20.5t20.5 -49zM458.5 72q229.5 0 229.5 556t-229.5 556t-229.5 -556
t229.5 -556zM459 1270q348 0 348 -555t-127 -645t-221 -90q-348 0 -348 645t348 645z" />
    <glyph glyph-name="divide" unicode="&#xf7;" 
d="M578 553q0 -35 -24 -58.5t-58.5 -23.5t-58 23.5t-23.5 58.5t23.5 58.5t58 23.5t58.5 -23.5t24 -58.5zM578 1081.5q0 -34.5 -24 -58.5t-58.5 -24t-58 24t-23.5 58.5t23.5 58t58 23.5t58.5 -23.5t24 -58zM160 770v94h671v-94h-671z" />
    <glyph glyph-name="oslash" unicode="&#xf8;" horiz-adv-x="917" 
d="M459 66q237 0 237 551q0 252 -41 382l-356 -833q57 -100 160 -100zM459 1190q-192 0 -215 -224t-23 -336q0 -232 43 -380l357 835q-62 105 -162 105zM807 625q0 -468 -125.5 -556.5t-237.5 -88.5t-190 81l-80 -188l-59 29l94 219q-98 159 -98 487t80.5 495t267.5 167
q129 0 207 -82l79 188l60 -28l-94 -222q96 -156 96 -501z" />
    <glyph glyph-name="ugrave" unicode="&#xf9;" horiz-adv-x="929" 
d="M262 1669q12 31 52 31t77 -31l137 -276h-63zM152 309v940h114v-940q0 -123 56.5 -180t174.5 -57t167 41v1136h114v-1188q-115 -81 -285 -81q-341 0 -341 329z" />
    <glyph glyph-name="uacute" unicode="&#xfa;" horiz-adv-x="929" 
d="M539 1669q39 31 79 31t50 -31l-203 -276h-64zM152 309v940h114v-940q0 -123 56.5 -180t174.5 -57t167 41v1136h114v-1188q-115 -81 -285 -81q-341 0 -341 329z" />
    <glyph glyph-name="ucircumflex" unicode="&#xfb;" horiz-adv-x="929" 
d="M651 1372l-186 170l-186 -170l-35 41l172 203q20 27 49 26.5t49 -26.5l172 -203zM152 309v940h114v-940q0 -123 56.5 -180t174.5 -57t167 41v1136h114v-1188q-115 -81 -285 -81q-341 0 -341 329z" />
    <glyph glyph-name="udieresis" unicode="&#xfc;" horiz-adv-x="929" 
d="M674 1470.5q0 -28.5 -20.5 -49t-49.5 -20.5t-49 20.5t-20 49t20 49t49 20.5t49.5 -20.5t20.5 -49zM395 1470.5q0 -28.5 -20.5 -49t-49 -20.5t-49 20.5t-20.5 49t20.5 49t49 20.5t49 -20.5t20.5 -49zM152 309v940h114v-940q0 -123 56.5 -180t174.5 -57t167 41v1136h114
v-1188q-115 -81 -285 -81q-341 0 -341 329z" />
    <glyph glyph-name="yacute" unicode="&#xfd;" horiz-adv-x="884" 
d="M530 1669q39 31 79 31t50 -31l-202 -276h-64zM403 -328h-118l116 332l-331 1245h123l210 -893q10 -39 20 -98t21 -117h5q5 77 40 215l211 893h115z" />
    <glyph glyph-name="thorn" unicode="&#xfe;" horiz-adv-x="921" 
d="M403 72q79 0 134 43t88.5 118.5t50 181t16.5 298.5t-66 332t-198 139q-84 0 -162 -43v-1039q58 -30 137 -30zM435 1270q187 0 281.5 -168t94.5 -457q0 -470 -151.5 -564.5t-242.5 -94.5t-151 26v-340h-114v2048h114v-499q70 49 169 49z" />
    <glyph glyph-name="ydieresis" unicode="&#xff;" horiz-adv-x="884" 
d="M655 1470.5q0 -28.5 -20.5 -49t-49 -20.5t-49 20.5t-20.5 49t20.5 49t49 20.5t49 -20.5t20.5 -49zM377 1470.5q0 -28.5 -20.5 -49t-49 -20.5t-49 20.5t-20.5 49t20.5 49t49 20.5t49 -20.5t20.5 -49zM403 -328h-118l116 332l-331 1245h123l210 -893q10 -39 20 -98t21 -117
h5q5 77 40 215l211 893h115z" />
    <glyph glyph-name="OE" unicode="&#x152;" horiz-adv-x="1417" 
d="M587 1649q-100 0 -162.5 -61.5t-122.5 -221.5t-60 -504q0 -345 83 -565.5t250 -220.5q124 0 175 22v1526q-63 25 -163 25zM568 -20q-219 0 -334 240t-115 640q0 616 169 748.5t276 132.5t177 -21h557v-90h-432v-704h396v-90h-396v-746h432v-90h-557q-61 -20 -173 -20z
" />
    <glyph glyph-name="oe" unicode="&#x153;" horiz-adv-x="1474" 
d="M1029 1184q-116 0 -181.5 -133t-65.5 -414l465 57q-6 236 -54 363t-164 127zM458.5 72q229.5 0 229.5 556t-229.5 556t-229.5 -556t229.5 -556zM459 -20q-348 0 -348 645t348 645q119 0 184.5 -73t95.5 -196q41 139 117 204t168 65q170 0 255 -156t85 -422l-2 -67
l-578 -72q13 -330 113 -401.5t166 -71.5q151 0 237 67l35 -86q-35 -29 -104.5 -55t-167.5 -26q-231 0 -322 270q-31 -129 -95 -199.5t-187 -70.5z" />
    <glyph glyph-name="Scaron" unicode="&#x160;" horiz-adv-x="860" 
d="M477.5 1843q-28.5 0 -49.5 27l-172 203l35 41l186 -170l187 170l34 -41l-172 -203q-20 -27 -48.5 -27zM647.5 102q-110.5 -122 -289.5 -122q-78 0 -152.5 24.5t-115.5 56.5l43 89q35 -25 97 -45.5t130 -20.5q126 0 200.5 94t74.5 214t-39 198t-98.5 140.5t-127 119.5
t-166 170.5t-98.5 329.5q0 178 108 284.5t280 106.5q88 0 153.5 -26.5t97.5 -55.5l-43 -80q-29 23 -88 43t-150 20t-165 -81.5t-74 -201.5t40 -198t98.5 -140.5t128 -119.5t168 -172.5t98.5 -309.5q0 -195 -110.5 -317z" />
    <glyph glyph-name="scaron" unicode="&#x161;" horiz-adv-x="724" 
d="M369 1372q-29 0 -50 27l-172 203l35 40l187 -169l186 169l35 -40l-172 -203q-20 -27 -49 -27zM397 1176q-88 0 -138 -55.5t-50 -143.5t30.5 -140.5t78 -92t100.5 -76.5t131 -119t78 -241t-92 -243.5t-218 -84.5q-72 0 -136 24.5t-99 56.5l35 84q79 -65 179 -65
q99 0 157.5 55t58.5 149t-30.5 148.5t-77 95.5t-99.5 77t-130 112.5t-77 232.5t82 238t203 82q74 0 130 -26.5t85 -55.5l-35 -78q-78 66 -166 66z" />
    <glyph glyph-name="Ydieresis" unicode="&#x178;" horiz-adv-x="917" 
d="M672 1941.5q0 -28.5 -20.5 -49t-49.5 -20.5t-49.5 20.5t-20.5 49t20.5 49t49.5 20.5t49.5 -20.5t20.5 -49zM393 1941.5q0 -28.5 -20.5 -49t-49 -20.5t-49 20.5t-20.5 49t20.5 49t49 20.5t49 -20.5t20.5 -49zM518 0h-119v766l-362 954h131l293 -841h4l293 841h123
l-363 -954v-766z" />
    <glyph glyph-name="florin" unicode="&#x192;" 
d="M798 1651q-54 0 -110.5 -49.5t-73.5 -174.5l-47 -362h211v-78h-219l-133 -1034q-19 -151 -100.5 -224t-200.5 -73q-67 0 -109 27l25 86q38 -19 92.5 -19t108.5 50t69 165l131 1022h-172v78h183l47 375q19 150 100.5 223.5t200.5 73.5q68 0 108 -25l-22 -78q-35 17 -89 17
z" />
    <glyph glyph-name="circumflex" unicode="&#x2c6;" horiz-adv-x="450" 
d="M412 1372l-187 170l-186 -170l-35 41l172 203q20 27 49 26.5t49 -26.5l172 -203z" />
    <glyph glyph-name="tilde" unicode="&#x2dc;" horiz-adv-x="450" 
d="M222.5 1432.5q-53.5 33.5 -104.5 33.5t-83 -57l-43 45q16 35 52 62.5t76 27.5q55 0 108.5 -33.5t102.5 -33.5t85 57l43 -45q-16 -35 -52 -62.5t-84 -27.5q-47 0 -100.5 33.5z" />
    <glyph glyph-name="endash" unicode="&#x2013;" horiz-adv-x="716" 
d="M0 770v94h717v-94h-717z" />
    <glyph glyph-name="emdash" unicode="&#x2014;" horiz-adv-x="1433" 
d="M164 770v94h1106v-94h-1106z" />
    <glyph glyph-name="quoteleft" unicode="&#x2018;" horiz-adv-x="507" 
d="M270 1276q-27 -43 -76 -43t-59 43l180 444h70z" />
    <glyph glyph-name="quoteright" unicode="&#x2019;" horiz-adv-x="507" 
d="M238 1694q27 43 76 43t59 -43l-180 -445h-70z" />
    <glyph glyph-name="quotesinglbase" unicode="&#x201a;" horiz-adv-x="507" 
d="M238 117q27 43 76 43t59 -43l-180 -445h-70z" />
    <glyph glyph-name="quotedblleft" unicode="&#x201c;" horiz-adv-x="843" 
d="M270 1276q-27 -43 -76 -43t-59 43l180 444h70zM606 1276q-27 -43 -76 -43t-59 43l180 444h70z" />
    <glyph glyph-name="quotedblright" unicode="&#x201d;" horiz-adv-x="843" 
d="M238 1694q27 43 76 43t59 -43l-180 -445h-70zM573 1694q27 43 76 43t60 -43l-181 -445h-69z" />
    <glyph glyph-name="quotedblbase" unicode="&#x201e;" horiz-adv-x="843" 
d="M238 117q27 43 76 43t59 -43l-180 -445h-70zM573 117q27 43 76 43t60 -43l-181 -445h-69z" />
    <glyph glyph-name="dagger" unicode="&#x2020;" horiz-adv-x="1064" 
d="M590 1143v-1471h-115v1471h-352v106h352v471h115v-471h352v-106h-352z" />
    <glyph glyph-name="daggerdbl" unicode="&#x2021;" horiz-adv-x="1064" 
d="M590 479v-807h-115v807h-352v107h352v557h-352v106h352v471h115v-471h352v-106h-352v-557h352v-107h-352z" />
    <glyph glyph-name="bullet" unicode="&#x2022;" horiz-adv-x="614" 
d="M492 815q0 -78 -53.5 -131t-131.5 -53t-131 53t-53 131t53 131t131 53t131.5 -53t53.5 -131z" />
    <glyph glyph-name="ellipsis" unicode="&#x2026;" horiz-adv-x="1351" 
d="M311 74q0 -35 -25.5 -60.5t-60.5 -25.5t-60.5 25.5t-25.5 60.5t25.5 60.5t60.5 25.5t60.5 -25.5t25.5 -60.5zM762 74q0 -35 -25.5 -60.5t-60.5 -25.5t-60.5 25.5t-25.5 60.5t25.5 60.5t60.5 25.5t60.5 -25.5t25.5 -60.5zM1212 74q0 -35 -25.5 -60.5t-60 -25.5t-60.5 25.5
t-26 60.5t26 60.5t60.5 25.5t60 -25.5t25.5 -60.5z" />
    <glyph glyph-name="perthousand" unicode="&#x2030;" horiz-adv-x="2150" 
d="M551 -10l-80 20l492 1721l79 -21zM989 479q0 -422 160 -422q122 0 141 169t19 303t-37.5 253t-122.5 119q-160 0 -160 -422zM1626 479q0 -422 160 -422q122 0 141 169t19 303t-37.5 253t-122.5 119q-160 0 -160 -422zM204 1249q0 -422 160 -422t160 422t-160 422
t-160 -422zM614 1245.5q0 -108.5 -14 -200t-44 -157t-77 -102t-114.5 -36.5t-114.5 36.5t-77 102t-44 157t-14 200t14 199.5t44 156.5t77 102.5t114.5 37t114.5 -37t77 -102.5t44 -156.5t14 -199.5zM1399 475.5q0 -108.5 -14.5 -200t-44 -157t-76.5 -102t-115 -36.5
t-115 36.5t-76.5 102t-44 157t-14.5 200t14.5 199.5t44 156.5t76.5 102.5t115 37t115 -37t76.5 -102.5t44 -156.5t14.5 -199.5zM2036 475.5q0 -108.5 -14.5 -200t-44 -157t-77 -102t-115 -36.5t-114.5 36.5t-76.5 102t-44 157t-14.5 200t14.5 199.5t44 156.5t76.5 102.5
t114.5 37t115 -37t77 -102.5t44 -156.5t14.5 -199.5z" />
    <glyph glyph-name="guilsinglleft" unicode="&#x2039;" horiz-adv-x="581" 
d="M365 328l-213 450l213 451l65 -29l-164 -422l164 -422z" />
    <glyph glyph-name="guilsinglright" unicode="&#x203a;" horiz-adv-x="581" 
d="M217 328l-65 28l163 422l-163 422l65 29l213 -451z" />
    <glyph glyph-name="Euro" unicode="&#x20ac;" horiz-adv-x="1249" 
d="M885 1741q156 0 270 -82l-51 -78q-95 64 -219 64q-188 0 -298 -137.5t-145 -385.5l531 17v-99l-539 17q-16 -143 -2 -352l541 16v-98l-535 16q31 -262 141.5 -409.5t305.5 -147.5q120 0 217 63l53 -84q-112 -81 -252 -81q-257 0 -401.5 176.5t-182.5 482.5l-213 -16v98
l207 -16q-16 176 4 352l-211 -17v99l220 -17q41 290 186.5 454.5t372.5 164.5z" />
    <glyph glyph-name="trademark" unicode="&#x2122;" horiz-adv-x="1638" 
d="M387 1649v-932h-104v932h-213v71h530v-71h-213zM831 1638q-4 -32 -4 -63t-2 -51l-75 -807h-99l119 1003h121l178 -770l8 -46t8 -44t7 -41h4q2 21 6 41t7 44t9 46l178 770h121l119 -1003h-106l-72 807q-6 60 -6 114h-4q-2 -16 -6 -34t-7.5 -39t-7.5 -41l-190 -807h-95
l-186 807q-4 20 -7 41t-7 39t-6 34h-5z" />
    <glyph glyph-name="Lslash" horiz-adv-x="782" 
d="M201 0v930l-99 -43v90l99 43v700h118v-649l193 84v-90l-193 -84v-887h394v-94h-512z" />
    <glyph glyph-name="lslash" horiz-adv-x="499" 
d="M307 0h-114v938l-119 -51v90l119 51v692h114v-643l127 56v-91l-127 -55v-987z" />
    <glyph glyph-name="minus" 
d="M160 770v94h671v-94h-671z" />
    <glyph glyph-name="fraction" horiz-adv-x="266" 
d="M-137 -16l-88 32l628 1721l89 -33z" />
    <glyph glyph-name="fi" horiz-adv-x="1028" 
d="M885 1667q0 -31 -21.5 -52.5t-52.5 -21.5t-52.5 21.5t-21.5 52.5t21.5 52.5t52.5 21.5t52.5 -21.5t21.5 -52.5zM754 0v1249h114v-1249h-114zM457 1645q-66 0 -99.5 -46.5t-33.5 -158.5v-191h176v-78h-176v-1171h-115v1171h-127v78h127v191q0 147 65.5 218t182.5 71
q16 0 43 -5v-82q-15 3 -43 3z" />
    <glyph glyph-name="fl" horiz-adv-x="1028" 
d="M754 0v1720h114v-1720h-114zM457 1645q-66 0 -99.5 -46.5t-33.5 -158.5v-191h176v-78h-176v-1171h-115v1171h-127v78h127v191q0 147 65.5 218t182.5 71q16 0 43 -5v-82q-15 3 -43 3z" />
    <glyph glyph-name="dotlessi" horiz-adv-x="434" 
d="M160 0v1249h114v-1249h-114z" />
    <glyph glyph-name="breve" horiz-adv-x="450" 
d="M225.5 1393q-102.5 0 -159.5 65.5t-62 138.5l55 21q18 -70 61.5 -109t105 -39t104.5 39t61 109l55 -21q-5 -74 -61.5 -139t-159 -65z" />
    <glyph glyph-name="dotaccent" horiz-adv-x="450" 
d="M303 1478.5q0 -32.5 -22.5 -55t-55 -22.5t-55.5 22.5t-23 55t23 55t55.5 22.5t55 -22.5t22.5 -55z" />
    <glyph glyph-name="ring" horiz-adv-x="450" 
d="M322 1532q0 41 -28 70.5t-69 29.5t-68.5 -29.5t-27.5 -70.5t27.5 -69.5t68.5 -28.5t69 28.5t28 69.5zM381 1531.5q0 -65.5 -45 -110.5t-110.5 -45t-110.5 45t-45 110.5t45 111t110.5 45.5t110.5 -45.5t45 -111z" />
    <glyph glyph-name="hungarumlaut" horiz-adv-x="450" 
d="M262 1638q44 0 45 -26l-211 -240h-55l149 238q28 28 72 28zM488 1638q44 0 44 -26l-210 -240h-56l150 238q28 28 72 28z" />
    <glyph glyph-name="ogonek" horiz-adv-x="450" 
d="M283 -344q-72 0 -116 40t-44 93t47 116.5t147 110.5h82q-92 -45 -137 -107.5t-45 -102.5q0 -82 82 -82q47 0 117 28l14 -59q-75 -37 -147 -37z" />
    <glyph glyph-name="caron" horiz-adv-x="450" 
d="M225.5 1372q-28.5 0 -49.5 27l-172 203l35 40l186 -169l187 169l34 -40l-172 -203q-20 -27 -48.5 -27z" />
    </font>
</defs>
</svg>
