<?xml version="1.0" standalone="no"?>
<!DOCTYPE svg PUBLIC "-//W3C//DTD SVG 1.1//EN" "http://www.w3.org/Graphics/SVG/1.1/DTD/svg11.dtd" >
<svg xmlns="http://www.w3.org/2000/svg">
<metadata>
Created by FontPrep 20130207 at Tue Nov 26 13:15:36 2019
 By Mauricio Duran
&#60; info@fontfont.de &#62; Copyright Hans Reichel, 1997. Published by FontShop International.  FontFont Release 21
</metadata>
<defs>
<font id="a4d4f46b43652b859b94bb8492e2ffdd" horiz-adv-x='1024' >
  <font-face 
    font-family="Dax-MediumItalic"
    font-weight="5"
    font-style="italic"
    font-stretch="normal"
    units-per-em="2048"
    panose-1="0 0 0 0 0 0 0 0 0 0"
    ascent="1638"
    descent="-410"
    x-height="1104"
    cap-height="1409"
    bbox="-317 -469 2394 1853"
    underline-thickness="102"
    underline-position="-153"
    unicode-range="U+0020-F002"
  />
<missing-glyph horiz-adv-x="1638" 
d="M1434 102v1434h-1229v-1434h1229zM102 0v1638h1434v-1638h-1434z" />
    <glyph glyph-name=".notdef" horiz-adv-x="1638" 
d="M1434 102v1434h-1229v-1434h1229zM102 0v1638h1434v-1638h-1434z" />
    <glyph glyph-name=".null" horiz-adv-x="0" 
 />
    <glyph glyph-name="nonmarkingreturn" horiz-adv-x="557" 
 />
    <glyph glyph-name="space" unicode=" " horiz-adv-x="557" 
 />
    <glyph glyph-name="exclam" unicode="!" horiz-adv-x="655" 
d="M238 -8q-62 0 -97 32.5t-35 92.5t55 115t119 55t99 -33.5t35 -93.5t-57 -114t-119 -54zM428 483h-190l137 926h297z" />
    <glyph glyph-name="quotedbl" unicode="&#x22;" horiz-adv-x="858" 
d="M437 1427q73 0 102 -53l-162 -545h-129l65 545q51 53 124 53zM802 1427q73 0 101 -53l-162 -545h-131l68 545q51 53 124 53z" />
    <glyph glyph-name="numbersign" unicode="#" 
d="M524 866l-61 -286h221l61 286h-221zM1092 866h-205l-62 -286h195l-16 -123h-203l-94 -457h-142l94 457h-221l-96 -457h-139l94 457h-193l17 123h203l61 286h-195l17 123h203l86 420h141l-86 -420h221l86 420h141l-86 -420h193z" />
    <glyph glyph-name="dollar" unicode="$" 
d="M782 1253q-119 0 -188.5 -77.5t-69.5 -177.5t203 -226.5t203 -294.5t-119 -317.5t-340 -173.5l-31 -250h-149l69 248q-197 0 -301 75l95 168q82 -57 211 -57t209.5 77t80.5 195q0 100 -191.5 224t-191.5 290t116 306.5t323 160.5l30 240h144l-66 -238q142 0 246 -75
l-84 -152q-80 55 -199 55z" />
    <glyph glyph-name="percent" unicode="%" horiz-adv-x="1798" 
d="M1200 233q0 -129 82 -129q100 0 145.5 132.5t73 264.5t27.5 202t-18.5 103.5t-69.5 33.5t-91 -51.5t-69 -138.5t-54.5 -215t-25.5 -202zM596 1321q-51 0 -92 -52t-69.5 -138.5t-54.5 -214.5t-26 -196t18.5 -101t68.5 -33t90 49t69 133t56.5 216t27.5 202t-18.5 102.5
t-69.5 32.5zM1458 946q221 0 221 -280q0 -217 -96 -430q-116 -256 -317 -256q-119 0 -170.5 78t-51.5 188t27 232t73 225.5t125 173t189 69.5zM612 -16l-120 32l772 1409l120 -32zM199 741q0 216 73.5 382.5t151.5 236.5t192 70t166 -78t52 -190q0 -228 -95 -445
q-115 -254 -319 -254q-221 0 -221 278z" />
    <glyph glyph-name="ampersand" unicode="&#x26;" horiz-adv-x="1310" 
d="M336 327q0 -83 64.5 -135.5t168.5 -52.5t174 27l125 598q-302 -66 -417 -168t-115 -269zM754 883q211 0 569 164l41 -156q-31 -14 -114 -42t-126 -38l-157 -750q-153 -81 -399 -81t-371 90t-125 249q0 102 44 186.5t141.5 163.5t244.5 126q-195 75 -195 252
q0 152 125 267.5t334 115.5t334 -80l-99 -140q-27 16 -82 34t-110 18q-127 0 -190.5 -65t-63.5 -147t53.5 -124.5t145.5 -42.5z" />
    <glyph glyph-name="quotesingle" unicode="'" horiz-adv-x="495" 
d="M437 1427q73 0 102 -53l-162 -545h-129l65 545q51 53 124 53z" />
    <glyph glyph-name="parenleft" unicode="(" horiz-adv-x="790" 
d="M119 366q0 356 182.5 665.5t523.5 602.5l121 -71q-139 -152 -238.5 -291t-215 -390t-115.5 -606t162 -673l-119 -70q-137 195 -219 418t-82 415z" />
    <glyph glyph-name="parenright" unicode=")" horiz-adv-x="790" 
d="M446 881q0 366 -161 684l118 69q137 -195 219.5 -418.5t82.5 -415.5q0 -355 -201 -694q-94 -162 -222 -301t-284 -272l-121 70q569 620 569 1278z" />
    <glyph glyph-name="asterisk" unicode="*" horiz-adv-x="956" 
d="M398 901q-46 0 -72.5 24.5t-26.5 69.5t40 83t85 38t71.5 -26.5t26.5 -70.5t-39 -81t-85 -37zM757 901q-46 0 -73 24.5t-27 69.5t40 83t85 38t72 -26.5t27 -70.5t-39 -81t-85 -37zM645 1325q80 0 80 -78q0 -37 -33 -67.5t-72 -30.5q-79 0 -79 78q0 37 32.5 67.5t71.5 30.5
zM359 1217q-46 0 -72.5 26.5t-26.5 70.5t39 81t85 37t72.5 -27t26.5 -71t-39 -80.5t-85 -36.5zM912 1217q-46 0 -72.5 26.5t-26.5 70.5t39 81t85 37t72.5 -27t26.5 -71t-39 -80.5t-85 -36.5zM671 1413q-46 0 -73 24.5t-27 69.5t40 83t85 38t72 -26.5t27 -70.5t-39 -81
t-85 -37z" />
    <glyph glyph-name="plus" unicode="+" 
d="M987 600h-319l-72 -342h-172l72 342h-320l35 164h317l72 340h170l-70 -340h320z" />
    <glyph glyph-name="comma" unicode="," horiz-adv-x="587" 
d="M299.5 279q97.5 0 97.5 -76l-407 -549h-150l291 549q71 76 168.5 76z" />
    <glyph glyph-name="hyphen" unicode="-" horiz-adv-x="724" 
d="M631 592h-502l39 190h502z" />
    <glyph glyph-name="period" unicode="." horiz-adv-x="555" 
d="M178 -8q-62 0 -96.5 32.5t-34.5 92.5t55.5 115t118.5 55t97 -33.5t34 -93.5t-56 -114t-118 -54z" />
    <glyph glyph-name="slash" unicode="/" horiz-adv-x="1032" 
d="M-16 -469l-177 80l1172 2025l176 -80z" />
    <glyph glyph-name="zero" unicode="0" 
d="M340 365q0 -222 139 -222q80 0 142.5 69t113.5 197t93 322.5t42 312.5t-31.5 175t-110.5 57t-141.5 -71.5t-112.5 -196.5t-92 -322t-42 -321zM117 402q0 180 45 362t172 424t416 242q182 0 262 -124t80 -302t-45 -360t-119 -325q-176 -339 -484 -339q-168 0 -247.5 121
t-79.5 301z" />
    <glyph glyph-name="one" unicode="1" 
d="M287 1040v154q184 23 311 83t186 132h181l-291 -1409h-254l231 1122q-63 -31 -167.5 -56.5t-196.5 -25.5z" />
    <glyph glyph-name="two" unicode="2" 
d="M584 1245q-155 0 -273 -55l-30 160q166 80 374 80t309 -85t101 -217t-71.5 -244t-194.5 -239l-424 -438h520l-43 -207h-893l635 700q117 127 159 214t42 165q0 166 -211 166z" />
    <glyph glyph-name="three" unicode="3" 
d="M643 1430q193 0 291 -72t98 -203t-96 -231.5t-223 -141.5q102 -33 169.5 -104.5t67.5 -185.5q0 -199 -158.5 -355.5t-445.5 -156.5q-223 0 -366 79l100 164q97 -57 258 -57q162 0 254 94t92 219q0 201 -330 201l29 135q176 14 283.5 99t107.5 202q0 137 -180 137
q-147 0 -281 -59l-28 156q165 80 358 80z" />
    <glyph glyph-name="four" unicode="4" 
d="M815 1169q-91 -128 -149 -202l-412 -527h401l109 518q24 125 51 211zM891 440h108l-28 -141h-111l-61 -299h-234l62 299h-570l31 154l758 956h244z" />
    <glyph glyph-name="five" unicode="5" 
d="M528 846q199 0 320 -94.5t121 -245.5q0 -219 -168 -372.5t-436 -153.5q-104 0 -205 21.5t-162 57.5l100 164q39 -23 111 -40t149 -17q139 0 240.5 89t101.5 237q0 100 -78.5 160.5t-256.5 60.5q-61 0 -160 -11l213 707h698l-43 -207h-526l-103 -360q40 4 84 4z" />
    <glyph glyph-name="six" unicode="6" 
d="M784 530q0 191 -223 191q-79 0 -158 -29q-74 -168 -73 -338q0 -209 166 -209q131 0 209.5 125t78.5 260zM635 852q168 0 275.5 -81t107.5 -263t-140.5 -355t-408.5 -173q-184 0 -275.5 103t-91.5 261t55.5 306.5t176.5 322.5t328.5 298t367.5 152l31 -166
q-158 -43 -318.5 -141t-277.5 -293q80 29 170 29z" />
    <glyph glyph-name="seven" unicode="7" 
d="M946 973q-172 -276 -320.5 -544.5t-219.5 -428.5h-314l785 1202h-631l41 207h934z" />
    <glyph glyph-name="eight" unicode="8" 
d="M289 312q0 -83 52 -129t134 -46q121 0 205 78t84 203q0 61 -37 114.5t-131 116.5q-180 -90 -243.5 -172t-63.5 -165zM720 1286q-92 0 -166.5 -74.5t-74.5 -179.5q0 -55 34 -101t118 -104q129 66 197.5 134.5t68.5 173.5q0 68 -42.5 109.5t-134.5 41.5zM993 414
q0 -176 -146.5 -305t-387.5 -129q-170 0 -281.5 76.5t-111.5 207.5t81.5 245t309.5 234q-96 63 -144.5 129t-48.5 146q0 158 133 285t353 127q158 0 256 -78t98 -210t-92 -229.5t-242 -175.5q113 -78 168 -154.5t55 -168.5z" />
    <glyph glyph-name="nine" unicode="9" 
d="M705 1272q-137 0 -214 -127t-77 -237t55 -163t152 -53t176 29q31 66 52 167t21 187t-40.5 141.5t-124.5 55.5zM565 555q-168 0 -274.5 87t-106.5 245q0 197 143.5 370t403.5 173q186 0 277.5 -102t91.5 -258q0 -288 -199 -587q-152 -223 -360.5 -346t-370.5 -153l-31 166
q158 41 318.5 139t277.5 295q-80 -29 -170 -29z" />
    <glyph glyph-name="colon" unicode=":" horiz-adv-x="555" 
d="M178 -8q-62 0 -96.5 32.5t-34.5 92.5t55.5 115t118.5 55t97 -33.5t34 -93.5t-56 -114t-118 -54zM312 627q-62 0 -97 32.5t-35 92.5t54.5 115t117.5 55t98 -33t35 -93t-55.5 -114.5t-117.5 -54.5z" />
    <glyph glyph-name="semicolon" unicode=";" horiz-adv-x="587" 
d="M299.5 279q97.5 0 97.5 -76l-407 -549h-150l291 549q71 76 168.5 76zM344 627q-62 0 -96.5 32.5t-34.5 92.5t54.5 115t117.5 55t98 -33t35 -93t-56 -114.5t-118 -54.5z" />
    <glyph glyph-name="less" unicode="&#x3c;" 
d="M1038 926l-661 -246l559 -244l-35 -174l-737 348l31 152l882 348z" />
    <glyph glyph-name="equal" unicode="=" 
d="M944 401h-805l33 164h807zM1028 797h-807l35 164h805z" />
    <glyph glyph-name="greater" unicode="&#x3e;" 
d="M985 610l-883 -348l39 189l660 245l-557 246l35 168l737 -348z" />
    <glyph glyph-name="question" unicode="?" horiz-adv-x="876" 
d="M322 -8q-62 0 -97 32.5t-35 92.5t55 115t119 55t98 -33.5t34 -93.5t-56 -114t-118 -54zM591 1430q177 0 274.5 -72t97.5 -214t-109.5 -246t-269.5 -153l-76 -262h-189l41 342q133 31 234.5 102.5t101.5 186.5q0 141 -188 141q-107 0 -219 -55l-39 150q164 80 341 80z" />
    <glyph glyph-name="at" unicode="@" horiz-adv-x="1794" 
d="M602 383q0 -141 121 -141q141 0 235.5 126t136.5 223t42 174t-34 115t-95 38t-122 -37t-120 -106.5t-111.5 -184.5t-52.5 -207zM98 263q0 247 119 478.5t377 460t651 228.5q227 0 365.5 -120t138.5 -325q0 -137 -60.5 -294.5t-147.5 -282.5t-194.5 -201t-218.5 -76
q-59 0 -93 34t-34 99l5 47q-154 -176 -340 -176q-100 0 -151.5 63.5t-51.5 176.5t65.5 248t190 267t287.5 132q94 0 142 -48t58 -128l60 139h125l-213 -500q-50 -117 -50 -192q0 -55 56 -55t132.5 63.5t149 173t122.5 244.5t50 256q0 172 -106.5 270t-286.5 98t-344 -71.5
t-319.5 -211.5t-264 -351t-108.5 -429t143.5 -339t384.5 -121t417.5 73.5t348.5 223.5l47 -76q-340 -311 -805 -311q-291 0 -469 143t-178 390z" />
    <glyph glyph-name="A" unicode="A" horiz-adv-x="1232" 
d="M764 1010q-6 88 -6 170q-20 -63 -76 -170l-252 -496h375zM844 0l-33 362h-455l-186 -362h-248l758 1409h250l174 -1409h-260z" />
    <glyph glyph-name="B" unicode="B" horiz-adv-x="1196" 
d="M475 139q180 0 267 99.5t87 238.5q0 197 -313 197l-90 -2l-107 -508q68 -25 156 -25zM713 1282q-95 0 -166 -25l-96 -456l90 -2q203 0 295 88t92 233q0 162 -215 162zM1085 467q0 -188 -143.5 -337.5t-480.5 -149.5q-270 0 -410 79l266 1291q169 80 401 80t347 -81
t115 -219t-98.5 -247t-237.5 -138q102 -27 171.5 -105.5t69.5 -172.5z" />
    <glyph glyph-name="C" unicode="C" horiz-adv-x="997" 
d="M862 1245q-84 0 -147.5 -34.5t-140 -123t-132 -261.5t-55.5 -330q0 -314 231 -314q117 0 195 49l27 -172q-109 -79 -307 -79q-199 0 -307.5 138t-108.5 358t84 438.5t199.5 325t216.5 148.5t205 42q189 0 284 -80l-92 -148q-68 43 -152 43z" />
    <glyph glyph-name="D" unicode="D" horiz-adv-x="1243" 
d="M700 1262q-84 0 -147 -23l-217 -1057q47 -20 127 -20q203 0 296 145.5t143 336t50 335.5q0 283 -252 283zM462 -20q-275 0 -411 79l268 1291q172 80 410 80t358.5 -131.5t120.5 -362.5q0 -176 -66.5 -384t-164.5 -327t-231.5 -182t-283.5 -63z" />
    <glyph glyph-name="E" unicode="E" horiz-adv-x="931" 
d="M987 1235h-426l-88 -426h377l-35 -172h-377l-96 -463h426l-35 -174h-688l291 1409h688z" />
    <glyph glyph-name="F" unicode="F" horiz-adv-x="917" 
d="M985 1235h-424l-88 -426h377l-35 -172h-377l-133 -637h-260l291 1409h684z" />
    <glyph glyph-name="G" unicode="G" horiz-adv-x="1232" 
d="M379 482q0 -146 68.5 -235t174.5 -89t162 26l95 465h-205l33 160h450l-156 -750q-150 -79 -384 -79t-367 137t-133 383q0 176 62.5 359t229 377t500.5 194q209 0 340 -80l-102 -152q-99 51 -219 51q-119 0 -220.5 -54t-173 -159.5t-113.5 -256.5t-42 -297z" />
    <glyph glyph-name="H" unicode="H" horiz-adv-x="1263" 
d="M1010 0h-262l133 637h-443l-133 -637h-260l291 1409h260l-123 -600h442l123 600h262z" />
    <glyph glyph-name="I" unicode="I" horiz-adv-x="571" 
d="M313 0h-264l291 1409h264z" />
    <glyph glyph-name="J" unicode="J" horiz-adv-x="571" 
d="M334 100q-51 -248 -220 -392t-393 -163l41 187q104 23 189.5 116t114.5 230l276 1331h262z" />
    <glyph glyph-name="K" unicode="K" horiz-adv-x="1155" 
d="M696 748l318 -748h-285l-270 713l-150 -713h-260l293 1409h258l-133 -643l545 643h274z" />
    <glyph glyph-name="L" unicode="L" horiz-adv-x="876" 
d="M702 0h-653l291 1409h262l-256 -1235h391z" />
    <glyph glyph-name="M" unicode="M" horiz-adv-x="1630" 
d="M1427 0h-239l104 940l25 170q-33 -86 -76 -170l-467 -940h-145l-74 942q0 122 -6 168q-8 -31 -16.5 -66.5t-28.5 -101.5l-285 -942h-225l450 1409h263l65 -915q0 -100 4 -154q10 25 23.5 59.5t44.5 94.5l454 915h263z" />
    <glyph glyph-name="N" unicode="N" horiz-adv-x="1337" 
d="M1083 0h-202l-346 909q-18 45 -32 93.5t-22 66.5q-6 -31 -14 -78t-16 -88l-189 -903h-217l291 1409h237l330 -856q23 -58 47 -143q17 75 29 149l176 850h219z" />
    <glyph glyph-name="O" unicode="O" horiz-adv-x="1269" 
d="M981 1006q0 251 -173 251q-91 0 -159.5 -57t-127 -165.5t-103.5 -292t-45 -310.5t42 -193.5t137 -66.5t164.5 60.5t124 169t97.5 290.5t43 314zM117 440q0 202 58 398t204 394t442 198q211 0 312.5 -127t101.5 -328t-58.5 -403t-152.5 -331q-190 -261 -489 -261
q-209 0 -313.5 129t-104.5 331z" />
    <glyph glyph-name="P" unicode="P" horiz-adv-x="1136" 
d="M915 1098q0 182 -213 182q-86 0 -143 -25l-113 -544l101 -6q209 0 288.5 124.5t79.5 268.5zM1165 1092q-1 -194 -139 -358q-68 -81 -191.5 -132t-291.5 -51l-127 6l-117 -557h-254l281 1350q169 80 394 80q226 0 335.5 -92.5t109.5 -245.5z" />
    <glyph glyph-name="Q" unicode="Q" horiz-adv-x="1269" 
d="M981 1006q0 251 -175 251q-93 0 -159.5 -57t-125 -165.5t-103.5 -292t-45 -310.5t42 -193.5t137 -66.5t164.5 60.5t124 169t97.5 290.5t43 314zM117 440q0 202 58 398t203.5 394t442.5 198q211 0 312.5 -127t101.5 -327t-88.5 -500t-329.5 -425l168 -282l-225 -170
l-113 395q-68 -14 -112 -14q-209 0 -313.5 129t-104.5 331z" />
    <glyph glyph-name="R" unicode="R" horiz-adv-x="1173" 
d="M702 1280q-78 0 -137 -25l-112 -546q27 -10 96 -11q182 0 278.5 112t96.5 282q-1 188 -222 188zM1180 1081q0 -170 -127 -303q-68 -74 -159 -115.5t-189 -41.5l292 -621h-280l-273 645l-139 -645h-256l281 1350q183 80 400 80q218 0 334 -89.5t116 -259.5z" />
    <glyph glyph-name="S" unicode="S" horiz-adv-x="970" 
d="M707 1249q-119 0 -186.5 -75.5t-67.5 -169.5t100 -164t199 -135q106 -94 106 -228q0 -186 -137 -341.5t-383 -155.5t-356 79l96 172q77 -57 209 -57q133 0 212 77t79 191q0 98 -191.5 222t-191.5 297t134 321t369 148q184 0 297 -80l-88 -156q-81 55 -200 55z" />
    <glyph glyph-name="T" unicode="T" horiz-adv-x="913" 
d="M997 1235h-260l-256 -1235h-260l256 1235h-260l37 174h780z" />
    <glyph glyph-name="U" unicode="U" horiz-adv-x="1224" 
d="M381 342q0 -162 173 -162q89 0 165 62.5t98 171.5l205 995h240l-205 -1001q-41 -195 -189 -311.5t-342 -116.5t-300.5 92t-106.5 245q0 39 10 95l207 997h260l-207 -997q-8 -35 -8 -70z" />
    <glyph glyph-name="V" unicode="V" horiz-adv-x="1136" 
d="M580 0h-230l-131 1409h268l41 -922l4 -172q8 18 27 64.5t45 107.5l428 922h256z" />
    <glyph glyph-name="W" unicode="W" horiz-adv-x="1708" 
d="M1219 0h-232l-33 862q0 96 4 154q-10 -27 -23 -62.5t-38 -91.5l-387 -862h-234l-30 1409h254l-17 -934q0 -63 -12 -162q25 70 66 162l411 934h191l20 -934q0 -96 -8 -162q12 31 27.5 77t31.5 85l377 934h246z" />
    <glyph glyph-name="X" unicode="X" horiz-adv-x="1110" 
d="M741 750l230 -750h-279l-129 526l-358 -526h-277l533 727l-201 682h270l107 -483l336 483h258z" />
    <glyph glyph-name="Y" unicode="Y" horiz-adv-x="1077" 
d="M684 608l-125 -608h-260l125 608l-211 801h266l119 -584l377 584h258z" />
    <glyph glyph-name="Z" unicode="Z" horiz-adv-x="933" 
d="M319 174h476l-37 -174h-813l727 1235h-434l34 174h766z" />
    <glyph glyph-name="bracketleft" unicode="[" horiz-adv-x="735" 
d="M842 1464h-273l-362 -1759h270l-31 -145h-491l424 2048h491z" />
    <glyph glyph-name="backslash" unicode="\" horiz-adv-x="1198" 
d="M801 -469l-553 2023l180 80l553 -2025z" />
    <glyph glyph-name="bracketright" unicode="]" horiz-adv-x="735" 
d="M391 -440h-493l30 145h271l364 1759h-272l31 144h493z" />
    <glyph glyph-name="asciicircum" unicode="^" horiz-adv-x="1226" 
d="M802 1425q69 0 103 -59l230 -414l-111 -92l-254 371l-408 -371l-86 92l400 414q57 59 126 59z" />
    <glyph glyph-name="underscore" unicode="_" 
d="M948 -428h-1155l33 156h1155z" />
    <glyph glyph-name="grave" unicode="`" horiz-adv-x="479" 
d="M213 1503q31 45 114 45t126 -39l84 -288h-131z" />
    <glyph glyph-name="a" unicode="a" horiz-adv-x="1136" 
d="M445.5 798.5q-107.5 -178.5 -107.5 -419.5q0 -240 196 -240q98 0 148 27l164 788q-46 23 -123 23q-170 0 -277.5 -178.5zM90 383q0 131 48 274.5t177.5 305t444.5 161.5q229 0 352 -80l-205 -985q-153 -79 -375 -79q-221 0 -331.5 106.5t-110.5 296.5z" />
    <glyph glyph-name="b" unicode="b" horiz-adv-x="1132" 
d="M819 743q0 230 -186 230q-90 0 -160 -33l-162 -786q38 -19 117 -19q176 0 250 125t107.5 254t33.5 229zM735 1118q146 0 238 -102.5t92 -284.5q0 -133 -102 -442t-568 -309q-245 0 -352 79l319 1549h250l-110 -535q87 45 233 45z" />
    <glyph glyph-name="c" unicode="c" horiz-adv-x="868" 
d="M443 788q-97 -168 -97 -396t178 -228q92 0 156 51l27 -156q-39 -33 -112 -56t-155 -23q-158 0 -252 114.5t-94 302.5q0 129 40 260t114 239t183.5 168t210.5 60t170 -24.5t99 -55.5l-84 -133q-70 45 -131 45q-156 0 -253 -168z" />
    <glyph glyph-name="d" unicode="d" horiz-adv-x="1134" 
d="M720 977q-80 0 -150 -46t-121.5 -129t-82 -200.5t-30.5 -227.5q0 -234 207 -235q88 0 137 27l166 797q-46 14 -126 14zM707 1118q90 0 165 -22l107 512h248l-320 -1549q-158 -79 -375 -79t-330.5 105t-113.5 300q0 129 46 268.5t168 302t405 162.5z" />
    <glyph glyph-name="e" unicode="e" horiz-adv-x="1099" 
d="M662 973q-158 0 -231 -136.5t-95 -248.5l475 69q14 63 14 125q1 191 -163 191zM90 389q0 123 41 257t117 243.5t187 172t267 62.5t251.5 -96t95.5 -274q0 -88 -25 -197l-694 -96q-2 -14 -2 -19v-41q0 -249 235 -249q154 0 291 67l29 -160q-149 -79 -358 -79
q-210 0 -322.5 106.5t-112.5 302.5z" />
    <glyph glyph-name="f" unicode="f" horiz-adv-x="688" 
d="M825 1450q-76 0 -137 -44t-82 -149l-33 -153h181l-31 -158h-182l-197 -946h-250l197 946h-123l33 158h123l26 133q37 190 160 282.5t283 92.5l65 -4z" />
    <glyph glyph-name="g" unicode="g" horiz-adv-x="1128" 
d="M435.5 782q-107.5 -195 -107.5 -421t190 -226q94 0 160 35l164 784q-38 23 -123 23q-176 0 -283.5 -195zM442 -10q-166 0 -262 100t-96 281q0 129 45 268t173.5 312t449.5 173q214 0 350 -77l-219 -1063q-45 -219 -186.5 -332t-356.5 -113q-106 0 -205.5 21.5
t-159.5 58.5l97 156q104 -58 245 -58q140 0 216.5 66.5t101.5 177.5l14 68q-85 -39 -207 -39z" />
    <glyph glyph-name="h" unicode="h" horiz-adv-x="1140" 
d="M659 969q-94 0 -188 -47l-190 -922h-250l334 1608h249l-114 -547q47 25 120.5 44t139.5 19q150 0 228.5 -70.5t78.5 -193.5v-53q-6 -25 -8 -35l-160 -772h-250l162 780l6 54q0 135 -158 135z" />
    <glyph glyph-name="i" unicode="i" horiz-adv-x="528" 
d="M285 0h-250l229 1104h250zM438 1290q-58 0 -91.5 29t-33.5 81t49.5 97t107.5 45t91 -30.5t33 -80.5t-49 -95.5t-107 -45.5z" />
    <glyph glyph-name="j" unicode="j" horiz-adv-x="536" 
d="M317 109q-51 -240 -206.5 -387.5t-389.5 -176.5l35 174q117 37 197 129.5t108 233.5l211 1022h250zM446 1290q-58 0 -90 29t-32 81t49 97t107 45t90 -29.5t32 -80.5t-49 -96.5t-107 -45.5z" />
    <glyph glyph-name="k" unicode="k" horiz-adv-x="1052" 
d="M633 590l309 -590h-276l-260 563l-121 -563h-248l334 1608h247l-208 -1004l458 500h260z" />
    <glyph glyph-name="l" unicode="l" horiz-adv-x="534" 
d="M285 0h-248l334 1608h247z" />
    <glyph glyph-name="m" unicode="m" horiz-adv-x="1759" 
d="M989 1001q147 123 401 123q140 0 219 -72.5t79 -193.5v-47q-7 -23 -9 -31l-161 -780h-250l164 784l6 56q0 57 -37 92t-105 35q-128 0 -215 -82l-182 -885h-250l164 791q4 16 4 45q0 131 -172 131q-90 0 -170 -31l-194 -936h-250l215 1044q180 80 432 80
q109 0 189.5 -33.5t121.5 -89.5z" />
    <glyph glyph-name="n" unicode="n" horiz-adv-x="1140" 
d="M651 967q-100 0 -176 -29l-194 -938h-250l215 1044q182 80 410 80q229 0 321 -72.5t92 -195.5q0 -45 -8 -84l-162 -772h-250l164 782l6 56q0 129 -168 129z" />
    <glyph glyph-name="o" unicode="o" horiz-adv-x="1118" 
d="M809 774q0 193 -145 193q-215 0 -274.5 -264.5t-59.5 -356.5t34.5 -144t115.5 -52t135.5 46t95.5 134t69.5 217t28.5 227zM442 -20q-164 0 -259 105t-95 284q0 129 40 268t112.5 249.5t184.5 174t255 63.5q182 0 275.5 -103t93.5 -286q0 -123 -42.5 -268t-112.5 -253
t-179 -171t-273 -63z" />
    <glyph glyph-name="p" unicode="p" horiz-adv-x="1132" 
d="M626 975q-94 0 -149 -25l-166 -798q37 -16 103 -17q193 0 298 193t105 420q1 227 -191 227zM633 1124q207 0 318.5 -105.5t111.5 -295.5q0 -125 -43 -261.5t-115 -236.5q-172 -242 -461 -241q-95 0 -163 24l-95 -448h-247l309 1484q178 80 385 80z" />
    <glyph glyph-name="q" unicode="q" horiz-adv-x="1132" 
d="M721 977q-174 0 -281.5 -187t-107.5 -421t194 -234q86 0 154 35l162 784q-52 23 -121 23zM438 -16q-172 0 -262 103t-90 282q0 127 45 270t171 314t456 171q212 0 350 -80l-307 -1484h-248l98 469q-92 -45 -213 -45z" />
    <glyph glyph-name="r" unicode="r" horiz-adv-x="704" 
d="M578 956q-64 0 -105 -20l-192 -936h-250l215 1044q169 80 442 80l107 -4l-88 -182q-65 18 -129 18z" />
    <glyph glyph-name="s" unicode="s" horiz-adv-x="851" 
d="M603 961q-93 0 -149.5 -52.5t-56.5 -128.5t168 -166t168 -231q0 -168 -126 -285.5t-345 -117.5q-86 0 -165 22.5t-126 56.5l95 154q72 -57 179 -57t167.5 60t60.5 139t-158.5 166t-158.5 233t114.5 258t292.5 112t281 -80l-86 -135q-62 52 -155 52z" />
    <glyph glyph-name="t" unicode="t" horiz-adv-x="708" 
d="M494 154q35 0 65 12l-33 -156q-48 -24 -153 -24t-165.5 62.5t-60.5 164.5v23q0 24 9 57l135 653h-123l33 158h123l49 244l266 69l-66 -313h181l-33 -158h-180l-133 -649l-7 -51q0 -92 93 -92z" />
    <glyph glyph-name="u" unicode="u" horiz-adv-x="1122" 
d="M500 152q102 0 170 28l192 924h248l-215 -1045q-158 -79 -428 -79q-375 0 -375 272q0 49 12 104l156 748h250l-160 -762l-6 -63q0 -127 156 -127z" />
    <glyph glyph-name="v" unicode="v" horiz-adv-x="1050" 
d="M543 0h-236l-133 1104h260l47 -715q0 -97 -4 -149q29 85 62 149l346 715h241z" />
    <glyph glyph-name="w" unicode="w" horiz-adv-x="1628" 
d="M1092 260q0 -6 -2 -16q19 68 53 147l319 713h228l-537 -1104h-225l-45 692q0 84 4 142q-18 -60 -58 -142l-335 -692h-228l-78 1104h244l17 -715q0 -112 -11 -145q17 54 62 145l344 715h209l39 -715v-129z" />
    <glyph glyph-name="x" unicode="x" horiz-adv-x="1026" 
d="M655 582l230 -582h-262l-129 399l-295 -399h-267l467 573l-200 531h250l114 -363l275 363h243z" />
    <glyph glyph-name="y" unicode="y" horiz-adv-x="1052" 
d="M305 -440h-264l270 442l-135 1102h258l43 -717q0 -116 -6 -156q10 27 23.5 65t40.5 91l350 717h241z" />
    <glyph glyph-name="z" unicode="z" horiz-adv-x="884" 
d="M317 160h416l-33 -160h-745l612 946h-381l35 158h694z" />
    <glyph glyph-name="braceleft" unicode="{" horiz-adv-x="804" 
d="M467 494v-33q-6 -25 -8 -37l-72 -346q-6 -30 -6 -68q0 -139 182 -139l-28 -129q-168 0 -268.5 65.5t-100.5 204.5q0 35 10 86l66 326l8 70q0 57 -37 87.5t-98 30.5l26 131q166 0 205 185l78 364q39 178 168 247t330 69l-27 -127q-111 0 -173.5 -41t-82.5 -146l-76 -366
q-27 -125 -83 -177.5t-150 -70.5q137 -39 137 -186z" />
    <glyph glyph-name="bar" unicode="|" horiz-adv-x="479" 
d="M143 -440h-200l424 2048h200z" />
    <glyph glyph-name="braceright" unicode="}" horiz-adv-x="804" 
d="M401 856q0 29 4.5 46.5t6.5 25.5l71 352l9 68q0 133 -183 133l27 127q162 0 265.5 -63.5t103.5 -205.5q0 -43 -9 -82l-69 -329q-6 -30 -6 -70q0 -115 137 -115l-29 -131q-166 0 -205 -188l-75 -358q-39 -186 -168 -255t-334 -69l26 131q113 0 174.5 44t81.5 144l78 363
q27 121 84.5 178t149.5 74q-140 36 -140 180z" />
    <glyph glyph-name="asciitilde" unicode="~" horiz-adv-x="1228" 
d="M836 737q129 0 219 146l51 -158q-41 -78 -110.5 -122t-153.5 -44t-189.5 64.5t-177.5 64.5q-130 0 -223 -147l-47 155q106 170 272 170q84 0 190.5 -64.5t168.5 -64.5z" />
    <glyph glyph-name="nonbreakingspace" unicode="&#xa0;" horiz-adv-x="557" 
 />
    <glyph glyph-name="exclamdown" unicode="&#xa1;" horiz-adv-x="655" 
d="M295 -440h-299l246 925h190zM388 682q-62 0 -97 33t-35 93t56.5 114.5t118.5 54.5t96 -33.5t34 -93.5t-55.5 -114t-117.5 -54z" />
    <glyph glyph-name="cent" unicode="&#xa2;" 
d="M477 586q0 -209 182 -209q100 0 160 45l25 -143q-105 -64 -232 -64l-26 -215h-158l70 223q-121 23 -191.5 113t-70.5 227t48 265t150.5 235.5t263.5 130.5l27 213h156l-62 -209q57 0 113.5 -18.5t87.5 -44.5l-76 -125q-57 41 -137 41q-129 0 -229.5 -128t-100.5 -337z
" />
    <glyph glyph-name="sterling" unicode="&#xa3;" 
d="M584 900v-56q4 -27 4 -39h278l-28 -146h-254q0 -180 -64.5 -295.5t-99.5 -156.5h553l-43 -207h-881q115 111 201 240t104.5 217t18.5 202h-201l31 146h159v121q0 74 23 184.5t154 215t331 104.5t322 -76l-86 -150q-78 47 -204 47t-203.5 -69.5t-96 -156.5t-18.5 -125z
" />
    <glyph glyph-name="currency" unicode="&#xa4;" 
d="M636 944q-100 0 -185.5 -88t-85.5 -186t51.5 -152.5t151.5 -54.5t187 86.5t87 186.5t-53 154t-153 54zM197 639q0 170 129 301l-121 150l98 79l121 -147q121 78 248 78t219 -74l170 143l80 -94l-170 -145q39 -74 39 -160q0 -171 -129 -309l120 -148l-100 -82l-119 148
q-117 -76 -245 -76q-127 0 -218 74l-172 -146l-81 95l172 145q-41 76 -41 168z" />
    <glyph glyph-name="yen" unicode="&#xa5;" 
d="M891 899l215 14l-23 -112l-247 16l-129 -186l344 14l-25 -115l-340 19l-115 -549h-239l114 549l-352 -19l25 115l338 -14l-51 186l-254 -16l22 112l211 -14l-141 510h252l122 -600l388 600h237z" />
    <glyph glyph-name="section" unicode="&#xa7;" 
d="M346 526q0 -96 78 -174l141 -141q98 55 153.5 118.5t55.5 155.5t-74 166l-147 150q-98 -53 -152.5 -116t-54.5 -159zM133 -233q71 -60 197 -60q72 0 130 52.5t58 123.5t-65 140l-181 184q-120 120 -120 266t81.5 244t235.5 184q-72 84 -72 182q0 141 109.5 244t284.5 103
q82 0 153.5 -23t114.5 -57l-82 -131q-74 55 -161 55t-142.5 -49t-55.5 -129q0 -39 17.5 -73t66.5 -85l152 -156q125 -127 125 -263t-85 -233.5t-235 -179.5q89 -101 89 -204q0 -147 -117 -255t-297 -108t-289 82z" />
    <glyph glyph-name="dieresis" unicode="&#xa8;" horiz-adv-x="479" 
d="M215 1247q-49 0 -75.5 24.5t-26.5 68.5t41 83t90 39t75.5 -24.5t26.5 -68.5t-41 -83t-90 -39zM586 1247q-49 0 -77 23.5t-28 68.5t43.5 84t91.5 39t74.5 -24.5t26.5 -68.5t-41 -83t-90 -39z" />
    <glyph glyph-name="copyright" unicode="&#xa9;" horiz-adv-x="1681" 
d="M573 645q0 -111 69.5 -180.5t197.5 -69.5t243 115l80 -74q-163 -151 -354 -151q-158 0 -257 97t-99 251q0 195 155.5 348.5t351.5 153.5t297 -154l-90 -68q-86 115 -224 115t-254 -117.5t-116 -265.5zM997 1329q-291 0 -519 -226t-228 -515q0 -217 143.5 -360.5
t368.5 -143.5q291 0 518 223t227 512q0 219 -141.5 364.5t-368.5 145.5zM752 -20q-268 0 -441.5 171t-173.5 429q0 336 265.5 593t605.5 257q268 0 441 -171.5t173 -431.5q0 -336 -266 -591.5t-604 -255.5z" />
    <glyph glyph-name="ordfeminine" unicode="&#xaa;" horiz-adv-x="788" 
d="M594 1315q-106 0 -174 -112.5t-68 -263.5t127 -151q42 0 82 15l103 497q-45 15 -70 15zM176 920q0 212 115.5 358.5t324.5 146.5q151 0 240 -57l-135 -645q-96 -53 -247 -53q-150 0 -224 72t-74 178z" />
    <glyph glyph-name="guillemotleft" unicode="&#xab;" horiz-adv-x="1071" 
d="M322 674l163 -371l-145 -80l-205 467l389 457l129 -86zM733 674l164 -371l-145 -80l-203 467l389 457l129 -86z" />
    <glyph glyph-name="logicalnot" unicode="&#xac;" 
d="M901 283h-172l66 317h-637l32 164h809z" />
    <glyph glyph-name="registered" unicode="&#xae;" horiz-adv-x="1681" 
d="M1073 952q0 107 -151 107q-53 0 -93 -15l-61 -294h74q104 0 167.5 57t63.5 145zM1194 950q0 -100 -83 -179t-214 -93l199 -381h-135l-183 375h-26l-78 -375h-117l168 811q112 47 221 47t178.5 -52.5t69.5 -152.5zM997 1329q-291 0 -519 -226t-228 -515
q0 -217 143.5 -360.5t368.5 -143.5q291 0 518 223t227 512q0 219 -141.5 364.5t-368.5 145.5zM752 -20q-268 0 -441.5 171t-173.5 429q0 336 265.5 593t605.5 257q268 0 441 -171.5t173 -431.5q0 -334 -267 -590.5t-603 -256.5z" />
    <glyph glyph-name="degree" unicode="&#xb0;" horiz-adv-x="872" 
d="M756 1149q0 164 -161 164q-81 0 -153.5 -72.5t-72.5 -150.5t41.5 -121t119.5 -43t152 71.5t74 151.5zM502 805q-117 0 -190.5 69.5t-73.5 180.5q0 145 115.5 261t269.5 116q115 0 188.5 -72t73.5 -180q0 -141 -111.5 -258t-271.5 -117z" />
    <glyph glyph-name="plusminus" unicode="&#xb1;" 
d="M891 143h-807l31 152h807zM1016 743h-320l-67 -329h-170l67 329h-317l31 154h319l66 328h172l-68 -328h318z" />
    <glyph glyph-name="acute" unicode="&#xb4;" horiz-adv-x="479" 
d="M580 1548q88 0 100 -45l-311 -282h-146l201 288q68 39 156 39z" />
    <glyph glyph-name="mu" unicode="&#xb5;" 
d="M899 59q-158 -79 -334 -79t-274 65l-101 -485h-249l319 1544h250l-191 -920q20 -14 75 -31.5t130 -17.5t148 31l194 938h250z" />
    <glyph glyph-name="paragraph" unicode="&#xb6;" 
d="M197 954q0 172 124.5 313.5t393.5 141.5h518l-25 -117h-73l-359 -1732h-162l359 1732h-232l-360 -1732h-162l223 1077q-117 25 -181 113t-64 204z" />
    <glyph glyph-name="cedilla" unicode="&#xb8;" horiz-adv-x="479" 
d="M358 -229q0 -88 -99 -139.5t-300 -51.5q-49 0 -111.5 5t-74.5 5l65 84l107 -4q240 0 239 86q0 49 -133 49l-106 -4l61 78l115 4q237 0 237 -112z" />
    <glyph glyph-name="ordmasculine" unicode="&#xba;" horiz-adv-x="788" 
d="M571 1315q-86 0 -129 -68.5t-68.5 -163t-25.5 -160.5t23 -99t75 -33t84.5 21.5t64.5 70.5t55.5 142t23.5 159t-23 98.5t-80 32.5zM438 670q-129 0 -195.5 72t-66.5 182t34 209.5t120 195.5t234 96t214 -70.5t66 -180.5q0 -232 -129 -381q-110 -123 -277 -123z" />
    <glyph glyph-name="guillemotright" unicode="&#xbb;" horiz-adv-x="1071" 
d="M209 223l-131 84l334 389l-164 369l145 82l205 -469zM621 223l-129 84l333 389l-163 369l143 82l205 -469z" />
    <glyph glyph-name="questiondown" unicode="&#xbf;" horiz-adv-x="876" 
d="M312 -459q-177 0 -274 71.5t-97 213.5t109.5 246t268.5 153l76 262h189l-39 -342q-133 -31 -235.5 -102.5t-102.5 -185.5q0 -68 42 -104t148 -36t217 54l39 -150q-164 -80 -341 -80zM538 688q-62 0 -96 33t-34 93t55 114.5t119 54.5t97.5 -33.5t33.5 -93.5t-56.5 -114
t-118.5 -54z" />
    <glyph glyph-name="Agrave" unicode="&#xc0;" horiz-adv-x="1232" 
d="M764 1010q-6 88 -6 170q-20 -63 -76 -170l-252 -496h375zM844 0l-33 362h-455l-186 -362h-248l758 1409h250l174 -1409h-260zM580 1796q32 45 115 45t124 -39l84 -289h-131z" />
    <glyph glyph-name="Aacute" unicode="&#xc1;" horiz-adv-x="1232" 
d="M764 1010q-6 88 -6 170q-20 -63 -76 -170l-252 -496h375zM844 0l-33 362h-455l-186 -362h-248l758 1409h250l174 -1409h-260zM1084 1841q88 0 100 -45l-312 -283h-145l201 289q68 39 156 39z" />
    <glyph glyph-name="Acircumflex" unicode="&#xc2;" horiz-adv-x="1232" 
d="M764 1010q-6 88 -6 170q-20 -63 -76 -170l-252 -496h375zM844 0l-33 362h-455l-186 -362h-248l758 1409h250l174 -1409h-260zM1047 1503l-183 160l-248 -160l-65 62l250 211q41 35 86 34.5t74 -34.5l163 -211z" />
    <glyph glyph-name="Atilde" unicode="&#xc3;" horiz-adv-x="1232" 
d="M764 1010q-6 88 -6 170q-20 -63 -76 -170l-252 -496h375zM844 0l-33 362h-455l-186 -362h-248l758 1409h250l174 -1409h-260zM963 1665q85 0 139 88l55 -106q-59 -113 -184 -113q-53 0 -125 41t-138.5 41t-117.5 -92l-53 108q71 119 192 119q47 0 124 -43t108 -43z" />
    <glyph glyph-name="Adieresis" unicode="&#xc4;" horiz-adv-x="1232" 
d="M764 1010q-6 88 -6 170q-20 -63 -76 -170l-252 -496h375zM844 0l-33 362h-455l-186 -362h-248l758 1409h250l174 -1409h-260zM653 1538q-49 0 -75 25t-27 69q0 44 41 82q41 39 90 39q49 -1 76 -25q26 -24 26 -68t-41 -83t-90 -39zM1024 1538q-49 0 -77 24q-27 24 -27 68
t43 84q43 39 91 39q48 -1 74 -25t27 -68q0 -44 -41 -83t-90 -39z" />
    <glyph glyph-name="Aring" unicode="&#xc5;" horiz-adv-x="1232" 
d="M764 1010q-6 88 -6 170q-20 -63 -76 -170l-252 -496h375zM844 0l-33 362h-455l-186 -362h-248l758 1409h250l174 -1409h-260zM885 1778q-47 0 -80 -37t-33 -80q0 -74 68 -74q45 0 79 36t33 81q1 74 -67 74zM686 1657q0 70 62 133t134 63q74 -1 115 -39t41 -108t-60 -134
t-134 -63q-76 0 -117 39t-41 109z" />
    <glyph glyph-name="AE" unicode="&#xc6;" horiz-adv-x="1533" 
d="M758 1076v108q-19 -59 -60 -137l-274 -531h377l-41 531q-2 23 -2 29zM1440 1235h-496l49 -426h369l-35 -172h-317l53 -463h356l-35 -174h-546l-31 362h-461l-192 -362h-244l776 1409h791z" />
    <glyph glyph-name="Ccedilla" unicode="&#xc7;" horiz-adv-x="997" 
d="M674 -229q0 -88 -99.5 -139.5t-300.5 -51.5q-49 0 -111.5 5t-74.5 5l66 84l106 -4q240 0 240 86q0 49 -133 49l-107 -4l62 78l114 4q238 0 238 -112zM862 1245q-84 0 -147.5 -34.5t-140 -123t-132 -261.5t-55.5 -330q0 -314 231 -314q117 0 195 49l27 -172
q-109 -79 -307 -79q-199 0 -307.5 138t-108.5 358t84 438.5t199.5 325t216.5 148.5t205 42q189 0 284 -80l-92 -148q-68 43 -152 43z" />
    <glyph glyph-name="Egrave" unicode="&#xc8;" horiz-adv-x="931" 
d="M987 1235h-426l-88 -426h377l-35 -172h-377l-96 -463h426l-35 -174h-688l291 1409h688zM603 1841q83 0 124 -39l84 -289h-131l-193 283q12 20 46 32.5t70 12.5z" />
    <glyph glyph-name="Eacute" unicode="&#xc9;" horiz-adv-x="931" 
d="M987 1235h-426l-88 -426h377l-35 -172h-377l-96 -463h426l-35 -174h-688l291 1409h688zM935 1841q91 0 103 -45l-311 -283h-145l200 289q62 39 153 39z" />
    <glyph glyph-name="Ecircumflex" unicode="&#xca;" horiz-adv-x="931" 
d="M987 1235h-426l-88 -426h377l-35 -172h-377l-96 -463h426l-35 -174h-688l291 1409h688zM909 1503l-182 160l-248 -160l-65 62l250 211q41 35 86 34.5t73 -34.5l164 -211z" />
    <glyph glyph-name="Edieresis" unicode="&#xcb;" horiz-adv-x="931" 
d="M987 1235h-426l-88 -426h377l-35 -172h-377l-96 -463h426l-35 -174h-688l291 1409h688zM521 1538q-101 0 -101 91q0 44 42 84t90 40t74.5 -24.5t26.5 -68.5t-41 -83t-91 -39zM892 1538q-104 0 -104 89q0 44 43 85t91 41t75 -24.5t27 -68.5t-41 -83t-91 -39z" />
    <glyph glyph-name="Igrave" unicode="&#xcc;" horiz-adv-x="571" 
d="M313 0h-264l291 1409h264zM295 1796q32 45 114 45q83 0 126 -39l83 -289h-131z" />
    <glyph glyph-name="Iacute" unicode="&#xcd;" horiz-adv-x="571" 
d="M313 0h-264l291 1409h264zM719 1841q88 0 100 -45l-311 -283h-146l201 289q68 39 156 39z" />
    <glyph glyph-name="Icircumflex" unicode="&#xce;" horiz-adv-x="571" 
d="M313 0h-264l291 1409h264zM711 1503l-183 160l-247 -160l-66 62l250 211q41 34 86 34t74 -34l163 -211z" />
    <glyph glyph-name="Idieresis" unicode="&#xcf;" horiz-adv-x="571" 
d="M313 0h-264l291 1409h264zM350 1753q49 -1 76 -25t27 -68q1 -44 -41 -83t-91 -39t-75 25t-27 69q0 44 41 82q41 39 90 39zM692 1538q-49 0 -77 24q-27 24 -27 68t43 84q43 39 91 39q48 -1 75 -25t27 -68t-42 -83q-41 -39 -90 -39z" />
    <glyph glyph-name="Ntilde" unicode="&#xd1;" horiz-adv-x="1337" 
d="M1083 0h-202l-346 909q-18 45 -32 93q-13 48 -22 67q-6 -31 -14 -78t-16 -88l-189 -903h-217l291 1409h237l330 -856q23 -58 47 -143q18 83 29 149l176 850h219zM1010 1665q86 0 139 88l55 -106q-59 -113 -184 -113q-53 0 -125 41t-117 41q-86 0 -139 -92l-53 108
q71 119 192 119q47 0 124 -43t108 -43z" />
    <glyph glyph-name="Ograve" unicode="&#xd2;" horiz-adv-x="1269" 
d="M981 1006q0 251 -173 251q-91 0 -160 -57t-127 -166t-103 -292t-45 -310q0 -128 42 -194t137 -66t165 60t124 169t97 291t43 314zM117 440q0 202 58 398q59 198 155 328q196 264 491 264q211 0 313 -127t101 -328t-59 -403q-112 -387 -367 -526q-121 -67 -274 -66
q-209 0 -314 129q-104 129 -104 331zM637 1796q32 45 114 45q83 0 126 -39l84 -289h-132z" />
    <glyph glyph-name="Oacute" unicode="&#xd3;" horiz-adv-x="1269" 
d="M981 1006q0 251 -173 251q-91 0 -160 -57t-127 -166t-103 -292t-45 -310q0 -128 42 -194t137 -66t165 60t124 169t97 291t43 314zM117 440q0 202 58 398q59 198 155 328q196 264 491 264q211 0 313 -127t101 -328t-59 -403q-112 -387 -367 -526q-121 -67 -274 -66
q-209 0 -314 129q-104 129 -104 331zM1071 1841q88 0 100 -45l-311 -283h-145l200 289q68 39 156 39z" />
    <glyph glyph-name="Ocircumflex" unicode="&#xd4;" horiz-adv-x="1269" 
d="M981 1006q0 251 -173 251q-91 0 -160 -57t-127 -166t-103 -292t-45 -310q0 -128 42 -194t137 -66t165 60t124 169t97 291t43 314zM117 440q0 202 58 398q59 198 155 328q196 264 491 264q211 0 313 -127t101 -328t-59 -403q-112 -387 -367 -526q-121 -67 -274 -66
q-209 0 -314 129q-104 129 -104 331zM1061 1503l-182 160l-248 -160l-66 62l250 211q41 34 86 34t74 -34l164 -211z" />
    <glyph glyph-name="Otilde" unicode="&#xd5;" horiz-adv-x="1269" 
d="M981 1006q0 251 -173 251q-91 0 -160 -57t-127 -166t-103 -292t-45 -310q0 -128 42 -194t137 -66t165 60t124 169t97 291t43 314zM117 440q0 202 58 398q59 198 155 328q196 264 491 264q211 0 313 -127t101 -328t-59 -403q-112 -387 -367 -526q-121 -67 -274 -66
q-209 0 -314 129q-104 129 -104 331zM991 1665q86 0 139 88l56 -106q-60 -113 -185 -113q-53 0 -125 41t-116 41q-86 0 -139 -92l-54 108q71 119 193 119q47 0 124 -43t107 -43z" />
    <glyph glyph-name="Odieresis" unicode="&#xd6;" horiz-adv-x="1269" 
d="M981 1006q0 251 -173 251q-91 0 -160 -57t-127 -166t-103 -292t-45 -310q0 -128 42 -194t137 -66t165 60t124 169t97 291t43 314zM117 440q0 202 58 398q59 198 155 328q196 264 491 264q211 0 313 -127t101 -328t-59 -403q-112 -387 -367 -526q-121 -67 -274 -66
q-209 0 -314 129q-104 129 -104 331zM670 1536q-49 0 -76 25t-27 69t41 82q40 39 90 39t76 -25q26 -24 27 -68q0 -44 -41 -83t-90 -39zM1040 1536q-48 0 -76 24t-28 68t43 84q43 39 91 39t75 -25q27 -24 27 -68t-42 -83q-41 -39 -90 -39z" />
    <glyph glyph-name="Oslash" unicode="&#xd8;" horiz-adv-x="1269" 
d="M559 154q96 0 168 59t132.5 181t101 301t40.5 329l-622 -737q42 -133 180 -133zM811 1276q-174 0 -270.5 -181.5t-137.5 -357.5t-41 -336l625 738q-39 137 -176 137zM823 1430q204 0 307 -119l146 172l65 -56l-161 -190q59 -115 59 -289t-58.5 -375.5t-201 -397
t-440.5 -195.5q-200 0 -312 126l-149 -176l-66 56l166 196q-57 113 -57 286t58.5 369.5t204.5 394.5t439 198z" />
    <glyph glyph-name="Ugrave" unicode="&#xd9;" horiz-adv-x="1224" 
d="M381 342q0 -162 173 -162q89 0 165 62t98 172l205 995h240l-205 -1001q-41 -195 -189 -312q-148 -116 -342 -116t-301 92q-106 92 -106 245q0 39 10 95l207 997h260l-207 -997q-8 -35 -8 -70zM641 1796q32 45 114 45q83 0 126 -39l84 -289h-131z" />
    <glyph glyph-name="Uacute" unicode="&#xda;" horiz-adv-x="1224" 
d="M381 342q0 -162 173 -162q89 0 165 62t98 172l205 995h240l-205 -1001q-41 -195 -189 -312q-148 -116 -342 -116t-301 92q-106 92 -106 245q0 39 10 95l207 997h260l-207 -997q-8 -35 -8 -70zM1055 1841q88 0 100 -45l-311 -283h-146l201 289q68 39 156 39z" />
    <glyph glyph-name="Ucircumflex" unicode="&#xdb;" horiz-adv-x="1224" 
d="M381 342q0 -162 173 -162q89 0 165 62t98 172l205 995h240l-205 -1001q-41 -195 -189 -312q-148 -116 -342 -116t-301 92q-106 92 -106 245q0 39 10 95l207 997h260l-207 -997q-8 -35 -8 -70zM1047 1503l-183 160l-248 -160l-65 62l250 211q41 34 86 34t74 -34l163 -211z
" />
    <glyph glyph-name="Udieresis" unicode="&#xdc;" horiz-adv-x="1224" 
d="M381 342q0 -162 173 -162q89 0 165 62t98 172l205 995h240l-205 -1001q-41 -195 -189 -312q-148 -116 -342 -116t-301 92q-106 92 -106 245q0 39 10 95l207 997h260l-207 -997q-8 -35 -8 -70zM688 1753q49 -1 76 -25t27 -68q1 -44 -41 -83t-91 -39t-75 25t-27 69
q0 44 41 82q41 39 90 39zM1030 1538q-49 0 -77 24q-27 24 -27 68t43 84q43 39 91 39q48 -1 75 -25t27 -68t-42 -83q-41 -39 -90 -39z" />
    <glyph glyph-name="germandbls" unicode="&#xdf;" horiz-adv-x="1193" 
d="M629 168q82 0 142 54t60 132t-101 176t-101 204t72.5 180.5t185.5 113.5q57 112 57 264q0 82 -32.5 125t-106.5 43q-111 0 -186.5 -101.5t-112.5 -281.5l-225 -1077h-244l219 1061q49 242 192.5 403.5t374.5 161.5q168 0 261.5 -97t93.5 -254t-84 -317q-102 -12 -169 -60
t-67 -142q0 -66 107.5 -169.5t107.5 -217.5q0 -154 -118.5 -268.5t-317.5 -114.5q-137 0 -207 55l74 156q43 -29 125 -29z" />
    <glyph glyph-name="agrave" unicode="&#xe0;" horiz-adv-x="1136" 
d="M723 977q-170 0 -247 -128q-138 -229 -138 -468q0 -241 196 -241q98 0 148 26l164 788q-46 23 -123 23zM90 383q0 131 48 274q99 295 338 409q124 58 260 58q253 0 376 -80l-205 -985q-157 -81 -377 -80t-330 107t-110 297zM563 1503q32 45 115 45q84 0 125 -39l84 -288
h-131z" />
    <glyph glyph-name="aacute" unicode="&#xe1;" horiz-adv-x="1136" 
d="M723 977q-170 0 -247 -128q-138 -229 -138 -468q0 -241 196 -241q98 0 148 26l164 788q-46 23 -123 23zM90 383q0 131 48 274q99 295 338 409q124 58 260 58q253 0 376 -80l-205 -985q-157 -81 -377 -80t-330 107t-110 297zM1034 1548q88 0 101 -45l-312 -282h-145
l201 288q67 39 155 39z" />
    <glyph glyph-name="acircumflex" unicode="&#xe2;" horiz-adv-x="1136" 
d="M723 977q-170 0 -247 -128q-138 -229 -138 -468q0 -241 196 -241q98 0 148 26l164 788q-46 23 -123 23zM90 383q0 131 48 274q99 295 338 409q124 58 260 58q253 0 376 -80l-205 -985q-157 -81 -377 -80t-330 107t-110 297zM827 1518q45 0 74 -35l164 -211l-78 -62
l-182 160l-248 -160l-65 62l249 211q41 35 86 35z" />
    <glyph glyph-name="atilde" unicode="&#xe3;" horiz-adv-x="1136" 
d="M723 977q-170 0 -247 -128q-138 -229 -138 -468q0 -241 196 -241q98 0 148 26l164 788q-46 23 -123 23zM90 383q0 131 48 274q99 295 338 409q124 58 260 58q253 0 376 -80l-205 -985q-157 -81 -377 -80t-330 107t-110 297zM893 1372q86 0 139 88l55 -106
q-59 -113 -184 -113q-53 0 -125 41t-116 41q-85 0 -140 -92l-53 108q71 119 193 119q48 0 124 -43t107 -43z" />
    <glyph glyph-name="adieresis" unicode="&#xe4;" horiz-adv-x="1136" 
d="M723 977q-170 0 -247 -128q-138 -229 -138 -468q0 -241 196 -241q98 0 148 26l164 788q-46 23 -123 23zM90 383q0 131 48 274q99 295 338 409q124 58 260 58q253 0 376 -80l-205 -985q-157 -81 -377 -80t-330 107t-110 297zM602 1247q-49 0 -76 25q-26 24 -26 68t41 83
t90 39t76 -24t27 -69q0 -44 -42 -83q-41 -39 -90 -39zM973 1247q-49 0 -77 24q-28 25 -28 69t43 83t91 39t76 -24q26 -24 26 -69q0 -44 -41 -83t-90 -39z" />
    <glyph glyph-name="aring" unicode="&#xe5;" horiz-adv-x="1136" 
d="M723 977q-170 0 -247 -128q-138 -229 -138 -468q0 -241 196 -241q98 0 148 26l164 788q-46 23 -123 23zM90 383q0 131 48 274q99 295 338 409q124 58 260 58q253 0 376 -80l-205 -985q-157 -81 -377 -80t-330 107t-110 297zM821 1485q-47 0 -80 -37t-32 -80q0 -74 67 -74
q45 0 79 36t34 81q0 74 -68 74zM975 1413q1 -70 -59 -133t-136 -63q-76 1 -116 39q-41 38 -41 108t61 133q60 63 134 63t116 -38q42 -39 41 -109z" />
    <glyph glyph-name="ae" unicode="&#xe6;" horiz-adv-x="1685" 
d="M276 262q0 -139 163 -139q77 0 142.5 49t82.5 133l61 293q-109 -14 -172.5 -29.5t-122.5 -48.5q-154 -84 -154 -258zM1245 973q-111 0 -196.5 -94.5t-122.5 -286.5l469 67q14 70 14 129q0 185 -164 185zM1147 152q167 0 289 61l30 -156q-138 -77 -309.5 -77t-256.5 49
t-124 133q-66 -90 -155 -136t-237 -46t-240.5 65.5t-92.5 194.5t72 226t215.5 164t411.5 93q6 33 12 63.5t6 44.5q0 136 -184 136q-63 0 -145.5 -20.5t-139.5 -47.5l-25 145q165 80 375 80q106 0 179 -43t96 -133q61 86 156.5 131t197.5 45q172 0 263 -93t91 -273
q1 -90 -24 -201l-690 -96q-6 -41 -7 -74q0 -235 236 -235z" />
    <glyph glyph-name="ccedilla" unicode="&#xe7;" horiz-adv-x="868" 
d="M573 -229q0 -88 -99 -139.5t-300 -51.5q-49 0 -111.5 5t-74.5 5l65 84l107 -4q240 0 239 86q0 49 -133 49l-106 -4l61 78l115 4q237 0 237 -112zM443 788q-97 -168 -97 -396t178 -228q92 0 156 51l27 -156q-39 -33 -112 -56t-155 -23q-158 0 -252 114.5t-94 302.5
q0 129 40 260t114 239t183.5 168t210.5 60t170 -24.5t99 -55.5l-84 -133q-70 45 -131 45q-156 0 -253 -168z" />
    <glyph glyph-name="egrave" unicode="&#xe8;" horiz-adv-x="1099" 
d="M662 973q-158 0 -231 -136t-95 -249l475 69q14 63 14 125q1 191 -163 191zM328 401q0 -113 55 -181t197 -68t274 67l29 -160q-153 -81 -360 -80q-209 1 -321 107t-112 303q0 123 41 257q91 297 304 416q111 62 267 62t251 -96t96 -274q0 -88 -25 -197l-694 -96
q-2 -15 -2 -33v-27zM500 1503q32 45 115 45t124 -39l84 -288h-131z" />
    <glyph glyph-name="eacute" unicode="&#xe9;" horiz-adv-x="1099" 
d="M662 973q-158 0 -231 -136t-95 -249l475 69q14 63 14 125q1 191 -163 191zM328 401q0 -113 55 -181t197 -68t274 67l29 -160q-153 -81 -360 -80q-209 1 -321 107t-112 303q0 123 41 257q91 297 304 416q111 62 267 62t251 -96t96 -274q0 -88 -25 -197l-694 -96
q-2 -15 -2 -33v-27zM973 1548q88 0 100 -45l-311 -282h-146l201 288q68 39 156 39z" />
    <glyph glyph-name="ecircumflex" unicode="&#xea;" horiz-adv-x="1099" 
d="M662 973q-158 0 -231 -136t-95 -249l475 69q14 63 14 125q1 191 -163 191zM328 401q0 -113 55 -181t197 -68t274 67l29 -160q-153 -81 -360 -80q-209 1 -321 107t-112 303q0 123 41 257q91 297 304 416q111 62 267 62t251 -96t96 -274q0 -88 -25 -197l-694 -96
q-2 -15 -2 -33v-27zM772 1518q45 0 74 -35l164 -211l-78 -62l-182 160l-248 -160l-66 62l250 211q41 35 86 35z" />
    <glyph glyph-name="edieresis" unicode="&#xeb;" horiz-adv-x="1099" 
d="M662 973q-158 0 -231 -136t-95 -249l475 69q14 63 14 125q1 191 -163 191zM328 401q0 -113 55 -181t197 -68t274 67l29 -160q-153 -81 -360 -80q-209 1 -321 107t-112 303q0 123 41 257q91 297 304 416q111 62 267 62t251 -96t96 -274q0 -88 -25 -197l-694 -96
q-2 -15 -2 -33v-27zM549 1247q-49 0 -76 25q-27 24 -27 68t41 83t91 39t76 -24t26 -69q0 -44 -41 -83t-90 -39zM949 1462q48 0 75 -24t27 -69q1 -44 -41 -83t-91 -39t-77 24q-28 25 -27 69q0 44 43 83t91 39z" />
    <glyph glyph-name="igrave" unicode="&#xec;" horiz-adv-x="528" 
d="M285 0h-250l229 1104h250zM211 1503q32 45 114 45q83 0 126 -39l84 -288h-132z" />
    <glyph glyph-name="iacute" unicode="&#xed;" horiz-adv-x="528" 
d="M285 0h-250l229 1104h250zM639 1548q88 0 100 -45l-311 -282h-145l200 288q68 39 156 39z" />
    <glyph glyph-name="icircumflex" unicode="&#xee;" horiz-adv-x="528" 
d="M285 0h-250l229 1104h250zM467 1518q45 0 74 -35l164 -211l-78 -62l-183 160l-247 -160l-66 62l250 211q41 35 86 35z" />
    <glyph glyph-name="idieresis" unicode="&#xef;" horiz-adv-x="528" 
d="M285 0h-250l229 1104h250zM268 1462q49 0 76 -24t27 -69q1 -44 -41 -83t-91 -39t-75 25q-26 24 -27 68q0 44 41 83t90 39zM610 1247q-48 0 -76 24q-28 25 -28 69t43 83t91 39t75 -24t27 -69q0 -44 -42 -83q-41 -39 -90 -39z" />
    <glyph glyph-name="ntilde" unicode="&#xf1;" horiz-adv-x="1140" 
d="M651 967q-100 0 -176 -29l-194 -938h-250l215 1044q186 82 413 81q226 -1 318 -73t92 -196q0 -45 -8 -84l-162 -772h-250l164 782l6 56q0 129 -168 129zM844 1372q86 0 139 88l55 -106q-59 -113 -184 -113q-53 0 -125 41t-117 41q-86 0 -139 -92l-53 108q71 119 192 119
q47 0 124 -43t108 -43z" />
    <glyph glyph-name="ograve" unicode="&#xf2;" horiz-adv-x="1118" 
d="M809 774q0 193 -147 193q-212 0 -303 -398q-30 -131 -29 -223q0 -196 151 -196q80 0 134 46q109 93 165 351q29 129 29 227zM442 -20q-164 0 -259 105t-95 284q0 129 40 268q88 305 297 424q112 63 255 63q182 0 275 -103t94 -286q0 -123 -42 -267q-91 -308 -293 -425
q-108 -63 -272 -63zM485 1503q32 45 115 45q84 0 125 -39l84 -288h-131z" />
    <glyph glyph-name="oacute" unicode="&#xf3;" horiz-adv-x="1118" 
d="M809 774q0 193 -147 193q-212 0 -303 -398q-30 -131 -29 -223q0 -196 151 -196q80 0 134 46q109 93 165 351q29 129 29 227zM442 -20q-164 0 -259 105t-95 284q0 129 40 268q88 305 297 424q112 63 255 63q182 0 275 -103t94 -286q0 -123 -42 -267q-91 -308 -293 -425
q-108 -63 -272 -63zM958 1548q88 0 101 -45l-311 -282h-146l201 288q67 39 155 39z" />
    <glyph glyph-name="ocircumflex" unicode="&#xf4;" horiz-adv-x="1118" 
d="M809 774q0 193 -147 193q-212 0 -303 -398q-30 -131 -29 -223q0 -196 151 -196q80 0 134 46q109 93 165 351q29 129 29 227zM442 -20q-164 0 -259 105t-95 284q0 129 40 268q88 305 297 424q112 63 255 63q182 0 275 -103t94 -286q0 -123 -42 -267q-91 -308 -293 -425
q-108 -63 -272 -63zM764 1518q45 0 74 -35l163 -211l-77 -62l-183 160l-247 -160l-66 62l250 211q41 35 86 35z" />
    <glyph glyph-name="otilde" unicode="&#xf5;" horiz-adv-x="1118" 
d="M809 774q0 193 -147 193q-212 0 -303 -398q-30 -131 -29 -223q0 -196 151 -196q80 0 134 46q109 93 165 351q29 129 29 227zM442 -20q-164 0 -259 105t-95 284q0 129 40 268q88 305 297 424q112 63 255 63q182 0 275 -103t94 -286q0 -123 -42 -267q-91 -308 -293 -425
q-108 -63 -272 -63zM844 1372q86 0 139 88l55 -106q-59 -113 -184 -113q-53 0 -125 41t-117 41q-86 0 -139 -92l-53 108q71 119 192 119q47 0 124 -43t108 -43z" />
    <glyph glyph-name="odieresis" unicode="&#xf6;" horiz-adv-x="1118" 
d="M809 774q0 193 -147 193q-212 0 -303 -398q-30 -131 -29 -223q0 -196 151 -196q80 0 134 46q109 93 165 351q29 129 29 227zM442 -20q-164 0 -259 105t-95 284q0 129 40 268q88 305 297 424q112 63 255 63q182 0 275 -103t94 -286q0 -123 -42 -267q-91 -308 -293 -425
q-108 -63 -272 -63zM563 1462q49 0 76 -24t27 -69q0 -44 -42 -83t-90 -39q-50 0 -76 25q-26 24 -26 68t41 83t90 39zM905 1247q-49 0 -77 24q-28 25 -28 69t44 83q43 39 91 39t75 -24q26 -24 26 -69q0 -44 -41 -83t-90 -39z" />
    <glyph glyph-name="divide" unicode="&#xf7;" 
d="M512 233q-104 0 -104 98q0 48 45 93t94 45t75.5 -26.5t26.5 -74.5t-43 -91.5t-94 -43.5zM987 614h-807l27 131h807zM647 891q-102 0 -102 99q0 48 44 92t93 44t75.5 -26.5t26.5 -74.5t-43 -91t-94 -43z" />
    <glyph glyph-name="oslash" unicode="&#xf8;" horiz-adv-x="1118" 
d="M464 131q90 0 151 49t105 136t74.5 218.5t30.5 235.5l-2 53l-485 -614q36 -78 126 -78zM672 987q-88 0 -149.5 -49t-107.5 -144.5t-75 -219t-29 -226.5l4 -53l484 614q-39 78 -127 78zM1049 735q0 -123 -42 -267t-112 -253t-180.5 -172t-258 -63t-239.5 73l-131 -166
l-53 50l133 167q-78 102 -78 248t40 285t112.5 249.5t183.5 174t253 63.5t236 -67l125 157l58 -43l-129 -165q82 -100 82 -271z" />
    <glyph glyph-name="ugrave" unicode="&#xf9;" horiz-adv-x="1122" 
d="M92 252q0 49 12 104l156 748h250l-160 -762l-6 -63q0 -129 156 -127q102 0 170 28l192 924h248l-215 -1045q-162 -81 -428 -79q-375 0 -375 272zM512 1503q32 45 114 45q83 0 126 -39l84 -288h-131z" />
    <glyph glyph-name="uacute" unicode="&#xfa;" horiz-adv-x="1122" 
d="M92 252q0 49 12 104l156 748h250l-160 -762l-6 -63q0 -129 156 -127q102 0 170 28l192 924h248l-215 -1045q-162 -81 -428 -79q-375 0 -375 272zM965 1548q88 0 100 -45l-311 -282h-146l201 288q68 39 156 39z" />
    <glyph glyph-name="ucircumflex" unicode="&#xfb;" horiz-adv-x="1122" 
d="M92 252q0 49 12 104l156 748h250l-160 -762l-6 -63q0 -129 156 -127q102 0 170 28l192 924h248l-215 -1045q-162 -81 -428 -79q-375 0 -375 272zM766 1518q45 0 74 -35l164 -211l-78 -62l-183 160l-247 -160l-66 62l250 211q41 35 86 35z" />
    <glyph glyph-name="udieresis" unicode="&#xfc;" horiz-adv-x="1122" 
d="M92 252q0 49 12 104l156 748h250l-160 -762l-6 -63q0 -129 156 -127q102 0 170 28l192 924h248l-215 -1045q-162 -81 -428 -79q-375 0 -375 272zM563 1462q49 0 76 -24t27 -69q0 -44 -42 -83t-90 -39q-50 0 -76 25q-26 24 -26 68t41 83t90 39zM905 1247q-49 0 -77 24
q-28 25 -28 69t44 83q43 39 91 39t75 -24q26 -24 26 -69q0 -44 -41 -83t-90 -39z" />
    <glyph glyph-name="ydieresis" unicode="&#xff;" horiz-adv-x="1052" 
d="M305 -440h-264l270 442l-135 1102h258l43 -717q0 -116 -6 -156q10 27 24 65q13 38 40 91l350 717h241zM512 1247q-49 0 -76 25q-26 24 -26 68t41 83t90 39t75 -24t27 -69q0 -44 -41 -83t-90 -39zM912 1462q48 0 76 -24q26 -24 26 -69q0 -44 -42 -83t-90 -39t-76 24
q-28 25 -28 69t43 83t91 39z" />
    <glyph glyph-name="dotlessi" unicode="&#x131;" horiz-adv-x="528" 
d="M285 0h-250l229 1104h250z" />
    <glyph glyph-name="OE" unicode="&#x152;" horiz-adv-x="1576" 
d="M836 1268q-80 0 -154 -48.5t-140.5 -150.5t-114.5 -284.5t-48 -325.5t52 -224t177 -81q88 0 135 14l226 1085q-53 15 -133 15zM567 -20q-211 0 -330.5 130t-119.5 365q0 190 65.5 388t221 382.5t462.5 184.5q82 0 168 -21h633l-35 -174h-426l-88 -426h379l-35 -172h-379
l-94 -461h424l-37 -176h-635q-72 -20 -174 -20z" />
    <glyph glyph-name="oe" unicode="&#x153;" horiz-adv-x="1740" 
d="M807 780q1 187 -139 187q-72 0 -121 -32t-96.5 -102.5t-87 -218.5t-39.5 -252t33.5 -158t111.5 -54t130 40.5t94 119.5t78 225.5t36 244.5zM1305 979q-109 0 -196 -98.5t-124 -288.5l467 65q16 78 16 129q1 193 -163 193zM1333 1124q170 0 262.5 -92t92.5 -272
q0 -88 -25 -203l-686 -96q-4 -32 -4 -64q0 -131 64.5 -189t191.5 -58t264 65l29 -156q-153 -79 -363 -79q-125 0 -213 55t-119 164q-66 -104 -163 -161.5t-211 -57.5q-182 0 -273.5 106.5t-91.5 273.5t56.5 328.5t181.5 298.5t348 137t284 -200q72 98 170.5 149t204.5 51z
" />
    <glyph glyph-name="Ydieresis" unicode="&#x178;" horiz-adv-x="1077" 
d="M684 608l-125 -608h-260l125 608l-211 801h266l119 -584l377 584h258zM606 1753q49 -1 76 -25t27 -68q1 -44 -41 -83t-91 -39t-75 25t-27 69q0 44 41 82q41 39 90 39zM948 1538q-49 0 -77 24q-27 24 -27 68t43 84q43 39 91 39q48 -1 75 -25t27 -68t-42 -83
q-41 -39 -90 -39z" />
    <glyph glyph-name="florin" unicode="&#x192;" horiz-adv-x="1204" 
d="M1133 1257q-72 0 -123.5 -53t-96.5 -166l-75 -190h219l-33 -160h-252l-285 -711q-84 -211 -198.5 -321.5t-298.5 -110.5q-90 0 -162 35l68 172q37 -18 84 -18q86 0 144 59.5t116 200.5l276 694h-219l35 160h248l75 184q82 197 182.5 296t284.5 99q94 0 183 -32l-64 -154
q-36 16 -108 16z" />
    <glyph glyph-name="hungarumlaut" unicode="&#x2ba;" horiz-adv-x="479" 
d="M459 1526q49 0 49 -41l-293 -266h-100l207 264q58 43 137 43zM610 1483q58 43 136 43q48 0 49 -41l-293 -266h-101z" />
    <glyph glyph-name="caron" unicode="&#x2c7;" horiz-adv-x="479" 
d="M387 1214q-47 0 -76 35l-166 211l76 64l187 -164l251 164l68 -64l-252 -211q-41 -35 -88 -35z" />
    <glyph glyph-name="macron" unicode="&#x2c9;" horiz-adv-x="479" 
d="M711 1284h-621l29 135h620z" />
    <glyph glyph-name="breve" unicode="&#x2d8;" horiz-adv-x="479" 
d="M406 1354q150 0 231 157l84 -26q-20 -98 -104.5 -182t-216.5 -84t-188 63.5t-56 149.5l6 53l86 26q0 -157 158 -157z" />
    <glyph glyph-name="dotaccent" unicode="&#x2d9;" horiz-adv-x="479" 
d="M411 1290q-110 0 -110 106q0 52 45.5 99t97.5 47t81.5 -27.5t29.5 -78.5t-45.5 -98.5t-98.5 -47.5z" />
    <glyph glyph-name="ring" unicode="&#x2da;" horiz-adv-x="479" 
d="M444 1485q-47 0 -79.5 -37t-32.5 -80q0 -74 67 -74q45 0 79 36t34 81q0 74 -68 74zM404 1217q-76 0 -117 38.5t-41 108.5t61 133.5t135 63.5t115 -39t41 -109t-59 -133t-135 -63z" />
    <glyph glyph-name="ogonek" unicode="&#x2db;" horiz-adv-x="479" 
d="M184 -379q-198 -1 -198 133q0 66 71.5 150t212.5 159h156q-141 -76 -201.5 -147.5t-60.5 -129.5t88 -58q45 0 133 30l12 -84q-115 -53 -213 -53z" />
    <glyph glyph-name="circumflex" unicode="&#x302;" horiz-adv-x="479" 
d="M446.5 1518q45.5 0 73.5 -35l164 -211l-78 -62l-182 160l-248 -160l-65 62l249 211q41 35 86.5 35z" />
    <glyph glyph-name="tilde" unicode="&#x303;" horiz-adv-x="479" 
d="M526 1372q86 0 140 88l55 -106q-59 -113 -184 -113q-53 0 -125 41t-138.5 41t-117.5 -92l-54 108q71 119 193 119q47 0 124 -43t107 -43z" />
    <glyph glyph-name="summation" unicode="&#x3a3;" 
d="M1124 1235h-542l241 -643l-569 -832h584l-39 -200h-932l698 1015l-305 834h899z" />
    <glyph glyph-name="Omega" unicode="&#x3a9;" horiz-adv-x="1376" 
d="M180 625q0 166 58.5 328.5t206.5 319.5t429 157q223 0 338 -120t115 -328t-108 -432t-252 -374h256l-35 -176h-533q98 98 186.5 250.5t139.5 297t72.5 242t21.5 195.5q0 272 -221 272q-84 0 -151.5 -35.5t-136 -126.5t-113.5 -289t-45 -374q0 -268 106 -432h-526l37 176
h258q-103 185 -103 449z" />
    <glyph glyph-name="pi" unicode="&#x3c0;" horiz-adv-x="1351" 
d="M793 205q0 48 16 125l129 614h-360l-197 -944h-246l197 944h-142l33 160h1133l-33 -160h-139l-129 -612q-11 -55 -11 -93q-1 -77 117 -77l-35 -162l-77 -6q-141 0 -198.5 59.5t-57.5 151.5z" />
    <glyph glyph-name="endash" unicode="&#x2013;" horiz-adv-x="827" 
d="M854 608h-838l31 158h838z" />
    <glyph glyph-name="emdash" unicode="&#x2014;" horiz-adv-x="1654" 
d="M1686 618h-1670l27 136h1669z" />
    <glyph glyph-name="quoteleft" unicode="&#x2018;" horiz-adv-x="589" 
d="M455 1059q-68 -72 -157 -72t-89 72l393 549h137z" />
    <glyph glyph-name="quoteright" unicode="&#x2019;" horiz-adv-x="589" 
d="M461 1546q68 72 158 72t90 -72l-396 -549h-137z" />
    <glyph glyph-name="quotesinglbase" unicode="&#x201a;" horiz-adv-x="589" 
d="M184 203q67 71 156 71q90 0 90 -71l-393 -549h-137z" />
    <glyph glyph-name="quotedblleft" unicode="&#x201c;" horiz-adv-x="997" 
d="M455 1059q-68 -72 -156 -72t-88 72l393 549h137zM862 1059q-68 -72 -157 -72t-89 72l396 549h135z" />
    <glyph glyph-name="quotedblright" unicode="&#x201d;" horiz-adv-x="997" 
d="M463 1546q68 72 158 72t90 -72l-396 -549h-137zM870 1546q68 72 157 72t89 -72l-395 -549h-135z" />
    <glyph glyph-name="quotedblbase" unicode="&#x201e;" horiz-adv-x="997" 
d="M184 203q67 71 156 71q90 0 90 -71l-393 -549h-137zM592 203q68 71 156 71q50 0 70 -20.5t20 -50.5l-396 -549h-135z" />
    <glyph glyph-name="dagger" unicode="&#x2020;" horiz-adv-x="1193" 
d="M1169 866l-391 21l-250 -1327h-258l297 1327l-397 -21l53 248l387 -20l84 514h258l-131 -514l400 20z" />
    <glyph glyph-name="daggerdbl" unicode="&#x2021;" horiz-adv-x="1196" 
d="M1180 905l-394 17l-63 -318l-68 -309l402 16l-43 -207l-393 15l-97 -559h-248l138 559l-400 -15l43 207l394 -16l59 309l70 318l-400 -17l43 207l393 -14l86 510h246l-125 -510l400 14z" />
    <glyph glyph-name="bullet" unicode="&#x2022;" horiz-adv-x="765" 
d="M396 483q-106 0 -165 59.5t-59 161.5t93 193.5t197 91.5t165 -58.5t61 -162.5t-93 -194.5t-199 -90.5z" />
    <glyph glyph-name="ellipsis" unicode="&#x2026;" horiz-adv-x="1644" 
d="M178 -8q-62 0 -96.5 32.5t-34.5 92.5t55.5 115t118.5 55t97 -33.5t34 -93.5t-56 -114t-118 -54zM726 -8q-62 0 -97 32.5t-35 92.5t55.5 115t118.5 55t98 -33.5t35 -93.5t-56.5 -114t-118.5 -54zM1274 -8q-62 0 -96.5 32.5t-34.5 92.5t54.5 115t118.5 55t98 -33.5
t34 -93.5t-56 -114t-118 -54z" />
    <glyph glyph-name="perthousand" unicode="&#x2030;" horiz-adv-x="2512" 
d="M1200 233q0 -129 82 -129q100 0 145.5 132.5t73 264.5t27.5 202t-18.5 103.5t-69.5 33.5t-91 -51.5t-69 -138.5t-54.5 -215t-25.5 -202zM1915 233q0 -129 82 -129q100 0 145 132.5t73 264.5t28 202t-18.5 103.5t-69.5 33.5t-91.5 -51.5t-69 -138.5t-54 -215t-25.5 -202z
M596 1321q-51 0 -92 -52t-69.5 -138.5t-54.5 -214.5t-26 -196t18.5 -101t68.5 -33t90 49t69 133t56.5 216t27.5 202t-18.5 102.5t-69.5 32.5zM1458 946q221 0 221 -280q0 -217 -96 -430q-116 -256 -317 -256q-119 0 -170.5 78t-51.5 188t27 232t73 225.5t125 173t189 69.5z
M1759 260q0 218 74 382.5t152.5 234t192.5 69.5t165 -77t51 -189q0 -234 -94 -444q-114 -256 -320 -256q-221 0 -221 280zM612 -16l-120 32l772 1409l120 -32zM199 741q0 216 73.5 382.5t151.5 236.5t192 70t166 -78t52 -190q0 -228 -95 -445q-115 -254 -319 -254
q-221 0 -221 278z" />
    <glyph glyph-name="guilsinglleft" unicode="&#x2039;" horiz-adv-x="659" 
d="M322 674l163 -371l-145 -80l-205 467l389 457l129 -86z" />
    <glyph glyph-name="guilsinglright" unicode="&#x203a;" horiz-adv-x="659" 
d="M209 223l-131 84l334 389l-164 369l145 82l205 -469z" />
    <glyph glyph-name="trademark" unicode="&#x2122;" horiz-adv-x="1613" 
d="M770 1313h-192l-127 -611h-127l127 611h-195l20 96h515zM1524 702h-125l53 578l-293 -578h-117l-55 578l-184 -578h-127l244 707h165l45 -567l273 567h168z" />
    <glyph glyph-name="partialdiff" unicode="&#x2202;" 
d="M684 748q-70 0 -137.5 -28t-126 -84t-97 -145.5t-38.5 -177.5q0 -168 137 -168q147 0 228 129t120 250t39 209q-55 15 -125 15zM53 295q0 131 58.5 249t193.5 227.5t357 109.5q72 0 145 -19q0 154 -88 262.5t-213 153.5l84 152q180 -51 317 -213t137 -412
q0 -156 -50 -320.5t-140 -279.5q-174 -225 -464 -225q-149 0 -243 92t-94 223z" />
    <glyph glyph-name="Delta" unicode="&#x2206;" horiz-adv-x="1228" 
d="M758 1012q0 123 -6 147q-14 -29 -32 -62.5t-42 -84.5l-438 -854h594zM-80 0l758 1409h250l174 -1409h-1182z" />
    <glyph glyph-name="product" unicode="&#x220f;" horiz-adv-x="1681" 
d="M961 1057q-54 0 -103 -17l-65 -311l63 -2q123 0 184.5 60.5t61.5 137.5t-43.5 104.5t-97.5 27.5zM965 1153q117 0 188.5 -54.5t71.5 -168.5t-93.5 -207.5t-283.5 -93.5l-76 4l-74 -363h-123l173 838q100 45 217 45zM997 1329q-291 0 -519 -226t-228 -515
q0 -217 143.5 -360.5t368.5 -143.5q291 0 518 223t227 512q0 219 -141.5 364.5t-368.5 145.5zM752 -20q-268 0 -441.5 171t-173.5 429q0 336 265.5 593t605.5 257q268 0 441 -171.5t173 -431.5q0 -336 -266 -591.5t-604 -255.5z" />
    <glyph glyph-name="fraction" unicode="&#x2215;" horiz-adv-x="368" 
d="M-188 -49l-129 59l952 1446l131 -57z" />
    <glyph glyph-name="periodcentered" unicode="&#x2219;" horiz-adv-x="540" 
d="M290 557q-62 0 -97 32.5t-35 92.5t55 115t119 55t97.5 -34t33.5 -94t-55.5 -113.5t-117.5 -53.5z" />
    <glyph glyph-name="radical" unicode="&#x221a;" 
d="M627 0h-234l-94 946h-156l33 158h336l43 -805l535 1309h229z" />
    <glyph glyph-name="infinity" unicode="&#x221e;" horiz-adv-x="1744" 
d="M552 881q-87 0 -156.5 -70.5t-69.5 -148.5t42 -120t116 -42t146 45t175 151q-66 102 -116 143.5t-137 41.5zM1338 889q-75 0 -141.5 -41t-180.5 -158q63 -104 111.5 -143t136.5 -39t160.5 69.5t72.5 148.5t-42 121t-117 42zM1235 334q-119 0 -196.5 53t-151.5 178
q-127 -127 -217 -179t-216 -52t-208 80t-82 220t113.5 280.5t314.5 140.5q113 0 186.5 -53.5t155.5 -178.5q133 129 220 180.5t215 51.5t209 -80.5t81 -220.5t-109.5 -280t-314.5 -140z" />
    <glyph glyph-name="integral" unicode="&#x222b;" 
d="M117 -444h-31q-12 0 -26.5 2t-22.5 2l35 166q207 0 245 194l273 1309q41 193 164 288t288 95l76 -4l-33 -160q-94 0 -158.5 -44t-86.5 -151l-273 -1314q-39 -188 -158.5 -285.5t-291.5 -97.5z" />
    <glyph glyph-name="approxequal" unicode="&#x2248;" 
d="M712 330q-74 0 -185 63.5t-196.5 63.5t-201.5 -99l29 170q102 88 231 88q70 0 174.5 -63.5t174.5 -63.5q125 0 241 107l-29 -166q-95 -100 -238 -100zM820 891q128 0 243 106l-29 -166q-96 -100 -246 -100q-74 0 -174 63.5t-171 63.5q-116 0 -230 -96l29 168
q103 90 231 90q68 0 172 -64.5t175 -64.5z" />
    <glyph glyph-name="notequal" unicode="&#x2260;" 
d="M1024 793h-264l-178 -224h395l-31 -151h-483l-189 -238l-96 58l144 180h-183l33 151h266l178 224h-397l31 153h483l180 225l99 -59l-135 -166h178z" />
    <glyph glyph-name="lessequal" unicode="&#x2264;" 
d="M987 600h-811l35 164h809z" />
    <glyph glyph-name="greaterequal" unicode="&#x2265;" 
d="M705 670l233 -330l-127 -102l-231 325l-369 -325l-98 118l372 332l-235 330l127 104l233 -325l369 325l98 -118z" />
    <glyph glyph-name="lozenge" unicode="&#x25ca;" horiz-adv-x="1304" 
d="M784 1145l-430 -443l248 -436l432 443zM549 -8l-414 713l703 712l415 -712z" />
    <glyph glyph-name="fi" unicode="&#xf001;" horiz-adv-x="1159" 
d="M918 0h-250l229 1104h248zM825 1450q-76 0 -137 -44t-82 -149l-33 -153h181l-31 -158h-182l-197 -946h-250l197 946h-123l33 158h123l26 133q37 190 160 282.5t283 92.5l65 -4zM1068 1290q-58 0 -91 29t-33 81t49 97t107 45t91.5 -30.5t33.5 -80.5t-49.5 -95.5
t-107.5 -45.5z" />
    <glyph glyph-name="fl" unicode="&#xf002;" horiz-adv-x="1175" 
d="M928 0h-250l334 1608h250zM825 1450q-76 0 -137 -44t-82 -149l-33 -153h181l-31 -158h-182l-197 -946h-250l197 946h-123l33 158h123l26 133q37 190 160 282.5t283 92.5l65 -4z" />
    <glyph glyph-name="Lslash" horiz-adv-x="917" 
d="M741 0h-651l164 795l-131 -62l31 150l129 59l98 467h260l-78 -375l160 70l-31 -146l-160 -69l-145 -715h391z" />
    <glyph glyph-name="lslash" horiz-adv-x="651" 
d="M680 952l-162 -71l-180 -881h-248l164 793l-148 -70l31 154l148 67l139 664h248l-121 -576l160 72z" />
    <glyph glyph-name="Scaron" horiz-adv-x="970" 
d="M707 1249q-119 1 -187 -75t-68 -170t101 -164q100 -70 199 -135q106 -94 106 -228q0 -186 -137 -342t-402 -155q-227 0 -337 79l96 172q77 -57 209 -57q133 0 212 77t79 191q0 98 -192 222t-191 298q0 172 134 320t369 148q184 0 297 -80l-88 -156q-81 55 -200 55z
M698 1507q-47 0 -75 35l-166 211l75 64l187 -164l252 164l67 -64l-252 -211q-41 -35 -88 -35z" />
    <glyph glyph-name="scaron" horiz-adv-x="851" 
d="M733 383q0 -168 -126 -286t-345 -117q-86 0 -165 22t-126 57l95 154q72 -57 179 -57t168 60q60 60 60 139t-159 166q-158 87 -158 233t114 258q115 112 294 112t280 -80l-86 -135q-59 50 -153 51q-95 0 -151 -52t-56 -128t167 -166q168 -90 168 -231zM578 1214
q-48 0 -76 35l-166 211l76 64l186 -164l252 164l68 -64l-252 -211q-40 -35 -88 -35z" />
    <glyph glyph-name="Zcaron" horiz-adv-x="933" 
d="M319 174h476l-37 -174h-813l727 1235h-434l34 174h766zM676 1507q-47 0 -76 35l-166 211l76 64l186 -164l252 164l68 -64l-252 -211q-41 -35 -88 -35z" />
    <glyph glyph-name="zcaron" horiz-adv-x="884" 
d="M317 160h416l-33 -160h-745l612 946h-381l35 158h694zM586 1214q-47 0 -76 35l-166 211l76 64l186 -164l252 164l68 -64l-252 -211q-41 -35 -88 -35z" />
    <glyph glyph-name="brokenbar" horiz-adv-x="479" 
d="M143 -440h-200l168 813h200zM399 795h-200l168 813h200z" />
    <glyph glyph-name="Eth" horiz-adv-x="1296" 
d="M745 1262q-86 0 -149 -23l-84 -408h203l-33 -147h-201l-102 -506q47 -20 129 -20q205 0 301 144t146.5 332.5t50.5 334.5q-1 293 -261 293zM510 -20q-278 0 -412 79l129 625h-112l32 147h113l107 519q177 80 414 80t359 -134.5t122 -363.5q0 -184 -67.5 -391t-180.5 -336
q-90 -106 -224 -165.5t-280 -59.5z" />
    <glyph glyph-name="glyph233" horiz-adv-x="1124" 
d="M336 365q0 -215 164 -215q70 0 120 40.5t94 134t69.5 231.5t25.5 244t-8 154q-55 19 -117 19q-147 0 -217 -128t-100.5 -255t-30.5 -225zM1057 811q0 -166 -39 -324.5t-156 -334t-399 -175.5q-176 0 -275.5 108t-99.5 296q0 127 45 267t162.5 305t376.5 165q62 0 116 -18
q-29 147 -71 250l-195 -58l-47 101l191 57q-31 61 -66 111l209 65q11 -14 68 -110l184 55q6 -6 26.5 -47t24.5 -54l-182 -55q127 -298 127 -604z" />
    <glyph glyph-name="Yacute" horiz-adv-x="1077" 
d="M684 608l-125 -608h-260l125 608l-211 801h266l119 -584l377 584h258zM1000 1841q88 0 100 -45l-312 -283h-145l201 289q68 39 156 39z" />
    <glyph glyph-name="yacute" horiz-adv-x="1052" 
d="M305 -440h-264l270 442l-135 1102h258l43 -717q0 -116 -6 -156q10 27 24 65q13 38 40 91l350 717h241zM934 1548q88 0 100 -45l-311 -282h-145l200 288q68 39 156 39z" />
    <glyph glyph-name="Thorn" horiz-adv-x="1136" 
d="M856 844q0 198 -219 198q-43 0 -123 -18l-115 -549q67 -8 127 -8t127.5 29.5t135 111.5t67.5 236zM485 311q-59 0 -118 11l-66 -322h-256l291 1409h256l-49 -240q78 20 153 21q197 0 304.5 -87t107.5 -245q0 -214 -139 -366q-168 -181 -484 -181z" />
    <glyph glyph-name="thorn" horiz-adv-x="1136" 
d="M610 973q-68 0 -135 -31l-164 -792q45 -16 122 -16t145.5 42.5t122 125.5t87 209.5t33.5 236.5t-49 167.5t-162 57.5zM434 -18q-94 0 -155 20l-91 -442h-249l423 2048h248l-110 -533q94 45 196 45q174 0 273.5 -95t99.5 -282q0 -139 -50 -286.5t-134 -251.5
q-180 -223 -451 -223z" />
    <glyph glyph-name="minus" 
d="M895 190h-811l29 146h811zM1067 1028l-655 -209l567 -211l-31 -151l-749 299l30 135l873 299z" />
    <glyph glyph-name="multiply" 
d="M895 190h-811l29 146h811zM1012 758l-875 -301l37 166l653 208l-567 209l31 150l749 -299z" />
    <glyph glyph-name="onesuperior" horiz-adv-x="786" 
d="M274 1174v102q111 14 192 50t120 83h125l-179 -866h-176l136 665q-121 -34 -218 -34z" />
    <glyph glyph-name="twosuperior" horiz-adv-x="786" 
d="M527 1423q126 0 190.5 -54t64.5 -136t-45 -151.5t-125 -151.5l-231 -240h305l-29 -147h-577l405 448q109 118 109 203q0 94 -123 94q-84 0 -160 -35l-20 121q110 49 236 49z" />
    <glyph glyph-name="threesuperior" horiz-adv-x="786" 
d="M723 855q0 -132 -95.5 -228.5t-262.5 -96.5t-252 52l73 118q54 -34 150 -34t148.5 51t52.5 119t-51.5 92t-145.5 24l20 105q100 0 166 44t66 116q0 80 -111 79q-80 0 -153 -34l-23 110q102 51 220 51t182.5 -46t64.5 -123t-46 -135t-128 -89q125 -43 125 -175z" />
    <glyph glyph-name="onehalf" horiz-adv-x="1697" 
d="M1306 881q122 0 187.5 -54.5t65.5 -136.5t-43 -148.5t-127 -154.5l-232 -240h305l-28 -147h-578l406 449q108 116 108 202q0 94 -123 94q-69 0 -149 -32l-21 121q107 47 229 47zM395 -49l-129 59l955 1446l129 -57zM217 1174v102q113 14 194 50t119 83h125l-178 -866
h-178l137 665q-117 -34 -219 -34z" />
    <glyph glyph-name="onequarter" horiz-adv-x="1697" 
d="M1337 698q-34 -49 -86 -116l-231 -295h227zM1415 287h68l-21 -105h-67l-37 -182h-168l39 182h-346l22 107l463 577h168zM430 -49l-129 59l952 1446l131 -57zM213 1174v102q111 14 191.5 50t119.5 83h125l-178 -866h-176l135 665q-121 -34 -217 -34z" />
    <glyph glyph-name="threequarters" horiz-adv-x="1697" 
d="M1366 698q-34 -49 -86 -116l-231 -295h229l61 295zM1446 287h67l-22 -105h-68l-37 -182h-165l36 182h-346l23 107l463 577h170zM522 -49l-127 59l953 1446l129 -57zM719 855q0 -132 -95.5 -228.5t-262.5 -96.5t-252 52l73 118q54 -34 150 -34t148 51t52 119t-51 92
t-145 24l20 105q100 0 166 44t66 116q0 80 -111 79q-80 0 -153 -34l-23 110q102 51 220 51t182.5 -46t64.5 -123t-46 -135t-128 -89q125 -43 125 -175z" />
  </font>
</defs>
</svg>
